  0
SECTION
  2
HEADER
  9
$ACADVER
  1
AC1027
  9
$ACADMAINTVER
 70
   105
  9
$DWGCODEPAGE
  3
ANSI_1252
  9
$LASTSAVEDBY
  1
martinG
  9
$REQUIREDVERSIONS
160
                 0
  9
$INSBASE
 10
0.0
 20
0.0
 30
0.0
  9
$EXTMIN
 10
21986.49476782918
 20
-29461.47604370117
 30
-46.00000000000743
  9
$EXTMAX
 10
22971.49476782918
 20
-28106.47604370117
 30
2500.0
  9
$LIMMIN
 10
0.0
 20
0.0
  9
$LIMMAX
 10
420.0
 20
297.0
  9
$ORTHOMODE
 70
     0
  9
$REGENMODE
 70
     1
  9
$FILLMODE
 70
     1
  9
$QTEXTMODE
 70
     0
  9
$MIRRTEXT
 70
     1
  9
$LTSCALE
 40
5.0
  9
$ATTMODE
 70
     1
  9
$TEXTSIZE
 40
2.5
  9
$TRACEWID
 40
1.0
  9
$TEXTSTYLE
  7
Standard
  9
$CLAYER
  8
0
  9
$CELTYPE
  6
Continuous
  9
$CECOLOR
 62
   256
  9
$CELTSCALE
 40
1.0
  9
$DISPSILH
 70
     0
  9
$DIMSCALE
 40
1.0
  9
$DIMASZ
 40
2.5
  9
$DIMEXO
 40
0.625
  9
$DIMDLI
 40
3.75
  9
$DIMRND
 40
0.0
  9
$DIMDLE
 40
0.0
  9
$DIMEXE
 40
1.25
  9
$DIMTP
 40
0.0
  9
$DIMTM
 40
0.0
  9
$DIMTXT
 40
2.5
  9
$DIMCEN
 40
2.5
  9
$DIMTSZ
 40
0.0
  9
$DIMTOL
 70
     0
  9
$DIMLIM
 70
     0
  9
$DIMTIH
 70
     0
  9
$DIMTOH
 70
     0
  9
$DIMSE1
 70
     0
  9
$DIMSE2
 70
     0
  9
$DIMTAD
 70
     1
  9
$DIMZIN
 70
     8
  9
$DIMBLK
  1

  9
$DIMASO
 70
     1
  9
$DIMSHO
 70
     1
  9
$DIMPOST
  1

  9
$DIMAPOST
  1

  9
$DIMALT
 70
     0
  9
$DIMALTD
 70
     3
  9
$DIMALTF
 40
0.03937007874016
  9
$DIMLFAC
 40
1.0
  9
$DIMTOFL
 70
     1
  9
$DIMTVP
 40
0.0
  9
$DIMTIX
 70
     0
  9
$DIMSOXD
 70
     1
  9
$DIMSAH
 70
     0
  9
$DIMBLK1
  1

  9
$DIMBLK2
  1

  9
$DIMSTYLE
  2
ISO-25
  9
$DIMCLRD
 70
     0
  9
$DIMCLRE
 70
     0
  9
$DIMCLRT
 70
     0
  9
$DIMTFAC
 40
1.0
  9
$DIMGAP
 40
0.625
  9
$DIMJUST
 70
     0
  9
$DIMSD1
 70
     0
  9
$DIMSD2
 70
     0
  9
$DIMTOLJ
 70
     0
  9
$DIMTZIN
 70
     8
  9
$DIMALTZ
 70
     0
  9
$DIMALTTZ
 70
     0
  9
$DIMUPT
 70
     0
  9
$DIMDEC
 70
     2
  9
$DIMTDEC
 70
     2
  9
$DIMALTU
 70
     2
  9
$DIMALTTD
 70
     3
  9
$DIMTXSTY
  7
Standard
  9
$DIMAUNIT
 70
     0
  9
$DIMADEC
 70
     0
  9
$DIMALTRND
 40
0.0
  9
$DIMAZIN
 70
     0
  9
$DIMDSEP
 70
    44
  9
$DIMATFIT
 70
     3
  9
$DIMFRAC
 70
     0
  9
$DIMLDRBLK
  1

  9
$DIMLUNIT
 70
     2
  9
$DIMLWD
 70
    -2
  9
$DIMLWE
 70
    -2
  9
$DIMTMOVE
 70
     2
  9
$DIMFXL
 40
1.0
  9
$DIMFXLON
 70
     0
  9
$DIMJOGANG
 40
0.7853981633974483
  9
$DIMTFILL
 70
     0
  9
$DIMTFILLCLR
 70
     0
  9
$DIMARCSYM
 70
     0
  9
$DIMLTYPE
  6

  9
$DIMLTEX1
  6

  9
$DIMLTEX2
  6

  9
$DIMTXTDIRECTION
 70
     0
  9
$LUNITS
 70
     2
  9
$LUPREC
 70
     4
  9
$SKETCHINC
 40
1.0
  9
$FILLETRAD
 40
0.0
  9
$AUNITS
 70
     0
  9
$AUPREC
 70
     0
  9
$MENU
  1
.
  9
$ELEVATION
 40
0.0
  9
$PELEVATION
 40
0.0
  9
$THICKNESS
 40
0.0
  9
$LIMCHECK
 70
     0
  9
$CHAMFERA
 40
0.0
  9
$CHAMFERB
 40
0.0
  9
$CHAMFERC
 40
0.0
  9
$CHAMFERD
 40
0.0
  9
$SKPOLY
 70
     0
  9
$TDCREATE
 40
2460174.398108738
  9
$TDUCREATE
 40
2460174.314775405
  9
$TDUPDATE
 40
2460174.398110393
  9
$TDUUPDATE
 40
2460174.31477706
  9
$TDINDWG
 40
0.0000000116
  9
$TDUSRTIMER
 40
0.0000000116
  9
$USRTIMER
 70
     1
  9
$ANGBASE
 50
0.0
  9
$ANGDIR
 70
     0
  9
$PDMODE
 70
     0
  9
$PDSIZE
 40
0.0
  9
$PLINEWID
 40
0.0
  9
$SPLFRAME
 70
     0
  9
$SPLINETYPE
 70
     6
  9
$SPLINESEGS
 70
     8
  9
$HANDSEED
  5
433
  9
$SURFTAB1
 70
     6
  9
$SURFTAB2
 70
     6
  9
$SURFTYPE
 70
     6
  9
$SURFU
 70
     6
  9
$SURFV
 70
     6
  9
$UCSBASE
  2

  9
$UCSNAME
  2

  9
$UCSORG
 10
0.0
 20
0.0
 30
0.0
  9
$UCSXDIR
 10
1.0
 20
0.0
 30
0.0
  9
$UCSYDIR
 10
0.0
 20
1.0
 30
0.0
  9
$UCSORTHOREF
  2

  9
$UCSORTHOVIEW
 70
     0
  9
$UCSORGTOP
 10
0.0
 20
0.0
 30
0.0
  9
$UCSORGBOTTOM
 10
0.0
 20
0.0
 30
0.0
  9
$UCSORGLEFT
 10
0.0
 20
0.0
 30
0.0
  9
$UCSORGRIGHT
 10
0.0
 20
0.0
 30
0.0
  9
$UCSORGFRONT
 10
0.0
 20
0.0
 30
0.0
  9
$UCSORGBACK
 10
0.0
 20
0.0
 30
0.0
  9
$PUCSBASE
  2

  9
$PUCSNAME
  2

  9
$PUCSORG
 10
0.0
 20
0.0
 30
0.0
  9
$PUCSXDIR
 10
1.0
 20
0.0
 30
0.0
  9
$PUCSYDIR
 10
0.0
 20
1.0
 30
0.0
  9
$PUCSORTHOREF
  2

  9
$PUCSORTHOVIEW
 70
     0
  9
$PUCSORGTOP
 10
0.0
 20
0.0
 30
0.0
  9
$PUCSORGBOTTOM
 10
0.0
 20
0.0
 30
0.0
  9
$PUCSORGLEFT
 10
0.0
 20
0.0
 30
0.0
  9
$PUCSORGRIGHT
 10
0.0
 20
0.0
 30
0.0
  9
$PUCSORGFRONT
 10
0.0
 20
0.0
 30
0.0
  9
$PUCSORGBACK
 10
0.0
 20
0.0
 30
0.0
  9
$USERI1
 70
     0
  9
$USERI2
 70
     0
  9
$USERI3
 70
     0
  9
$USERI4
 70
     0
  9
$USERI5
 70
     0
  9
$USERR1
 40
0.0
  9
$USERR2
 40
0.0
  9
$USERR3
 40
0.0
  9
$USERR4
 40
0.0
  9
$USERR5
 40
0.0
  9
$WORLDVIEW
 70
     1
  9
$SHADEDGE
 70
     3
  9
$SHADEDIF
 70
    70
  9
$TILEMODE
 70
     1
  9
$MAXACTVP
 70
    64
  9
$PINSBASE
 10
0.0
 20
0.0
 30
0.0
  9
$PLIMCHECK
 70
     0
  9
$PEXTMIN
 10
-5.730400000000003
 20
-7.876400000000018
 30
0.0
  9
$PEXTMAX
 10
203.3304
 20
279.4764
 30
0.0
  9
$PLIMMIN
 10
-20.0
 20
-7.5
  9
$PLIMMAX
 10
277.0
 20
202.5
  9
$UNITMODE
 70
     0
  9
$VISRETAIN
 70
     1
  9
$PLINEGEN
 70
     0
  9
$PSLTSCALE
 70
     0
  9
$TREEDEPTH
 70
  3020
  9
$CMLSTYLE
  2
Standard
  9
$CMLJUST
 70
     0
  9
$CMLSCALE
 40
20.0
  9
$PROXYGRAPHICS
 70
     1
  9
$MEASUREMENT
 70
     1
  9
$CELWEIGHT
370
    -1
  9
$ENDCAPS
280
     0
  9
$JOINSTYLE
280
     0
  9
$LWDISPLAY
290
     0
  9
$INSUNITS
 70
     4
  9
$HYPERLINKBASE
  1

  9
$STYLESHEET
  1

  9
$XEDIT
290
     1
  9
$CEPSNTYPE
380
     3
  9
$CEPSNID
390
5F
  9
$PSTYLEMODE
290
     0
  9
$FINGERPRINTGUID
  2
{abba3132-c266-4df4-a6f1-751180dcf2be}
  9
$VERSIONGUID
  2
{FAEB1C32-E019-11D5-929B-00C0DF256EC4}
  9
$EXTNAMES
290
     1
  9
$PSVPSCALE
 40
0.0
  9
$OLESTARTUP
290
     0
  9
$SORTENTS
280
   127
  9
$INDEXCTL
280
     0
  9
$HIDETEXT
280
     1
  9
$XCLIPFRAME
280
     2
  9
$HALOGAP
280
     0
  9
$OBSCOLOR
 70
   257
  9
$OBSLTYPE
280
     0
  9
$INTERSECTIONDISPLAY
280
     0
  9
$INTERSECTIONCOLOR
 70
   257
  9
$DIMASSOC
280
     2
  9
$PROJECTNAME
  1

  9
$CAMERADISPLAY
290
     0
  9
$LENSLENGTH
 40
50.0
  9
$CAMERAHEIGHT
 40
0.0
  9
$STEPSPERSEC
 40
2.0
  9
$STEPSIZE
 40
6.0
  9
$3DDWFPREC
 40
2.0
  9
$PSOLWIDTH
 40
5.0
  9
$PSOLHEIGHT
 40
80.0
  9
$LOFTANG1
 40
1.570796326794897
  9
$LOFTANG2
 40
1.570796326794897
  9
$LOFTMAG1
 40
0.0
  9
$LOFTMAG2
 40
0.0
  9
$LOFTPARAM
 70
     7
  9
$LOFTNORMALS
280
     1
  9
$LATITUDE
 40
37.795
  9
$LONGITUDE
 40
-122.394
  9
$NORTHDIRECTION
 40
0.0
  9
$TIMEZONE
 70
 -8000
  9
$LIGHTGLYPHDISPLAY
280
     1
  9
$TILEMODELIGHTSYNCH
280
     1
  9
$CMATERIAL
347
44
  9
$SOLIDHIST
280
     0
  9
$SHOWHIST
280
     1
  9
$DWFFRAME
280
     2
  9
$DGNFRAME
280
     2
  9
$REALWORLDSCALE
290
     1
  9
$INTERFERECOLOR
 62
   256
  9
$CSHADOW
280
     0
  9
$SHADOWPLANELOCATION
 40
0.0
  0
ENDSEC
  0
SECTION
  2
CLASSES
  0
CLASS
  1
ACDBDICTIONARYWDFLT
  2
AcDbDictionaryWithDefault
  3
ObjectDBX Classes
 90
        0
 91
        3
280
     0
281
     0
  0
CLASS
  1
VISUALSTYLE
  2
AcDbVisualStyle
  3
ObjectDBX Classes
 90
     4095
 91
        3
280
     0
281
     0
  0
CLASS
  1
MATERIAL
  2
AcDbMaterial
  3
ObjectDBX Classes
 90
     1153
 91
        3
280
     0
281
     0
  0
CLASS
  1
SCALE
  2
AcDbScale
  3
ObjectDBX Classes
 90
     1153
 91
        3
280
     0
281
     0
  0
CLASS
  1
TABLESTYLE
  2
AcDbTableStyle
  3
ObjectDBX Classes
 90
     4095
 91
        3
280
     0
281
     0
  0
CLASS
  1
MLEADERSTYLE
  2
AcDbMLeaderStyle
  3
ACDB_MLEADERSTYLE_CLASS
 90
     4095
 91
        3
280
     0
281
     0
  0
CLASS
  1
SUN
  2
AcDbSun
  3
SCENEOE
 90
     1153
 91
        3
280
     0
281
     0
  0
CLASS
  1
RASTERVARIABLES
  2
AcDbRasterVariables
  3
ISM
 90
        0
 91
        3
280
     0
281
     0
  0
CLASS
  1
WIPEOUTVARIABLES
  2
AcDbWipeoutVariables
  3
WipeOut|AutoCAD Express Tool|expresstools@autodesk.com
 90
        0
 91
        3
280
     0
281
     0
  0
CLASS
  1
PLOTSETTINGS
  2
AcDbPlotSettings
  3
ObjectDBX Classes
 90
        0
 91
        3
280
     0
281
     0
  0
CLASS
  1
DICTIONARYVAR
  2
AcDbDictionaryVar
  3
ObjectDBX Classes
 90
        0
 91
        3
280
     0
281
     0
  0
CLASS
  1
CELLSTYLEMAP
  2
AcDbCellStyleMap
  3
ObjectDBX Classes
 90
     1152
 91
        3
280
     0
281
     0
  0
ENDSEC
  0
SECTION
  2
TABLES
  0
TABLE
  2
VPORT
  5
8
330
0
100
AcDbSymbolTable
 70
     1
  0
VPORT
  5
29
330
8
100
AcDbSymbolTableRecord
100
AcDbViewportTableRecord
  2
*Active
 70
     0
 10
0.0
 20
0.0
 11
1.0
 21
1.0
 12
22478.99476782918
 22
-28783.97604370117
 13
0.0
 23
0.0
 14
10.0
 24
10.0
 15
10.0
 25
10.0
 16
0.0
 26
0.0
 36
1.0
 17
0.0
 27
0.0
 37
0.0
 40
1382.1
 41
0.7269372693726937
 42
50.0
 43
0.0
 44
0.0
 50
0.0
 51
0.0
 71
     0
 72
   100
 73
     1
 74
     3
 75
     0
 76
     0
 77
     0
 78
     0
281
     0
 65
     1
110
0.0
120
0.0
130
0.0
111
1.0
121
0.0
131
0.0
112
0.0
122
1.0
132
0.0
 79
     0
146
0.0
348
2F
 60
     3
 61
     5
292
     1
282
     1
141
0.0
142
0.0
 63
   250
361
5D
  0
ENDTAB
  0
TABLE
  2
LTYPE
  5
5
330
0
100
AcDbSymbolTable
 70
     3
  0
LTYPE
  5
14
330
5
100
AcDbSymbolTableRecord
100
AcDbLinetypeTableRecord
  2
ByBlock
 70
     0
  3

 72
    65
 73
     0
 40
0.0
  0
LTYPE
  5
15
330
5
100
AcDbSymbolTableRecord
100
AcDbLinetypeTableRecord
  2
ByLayer
 70
     0
  3

 72
    65
 73
     0
 40
0.0
  0
LTYPE
  5
16
330
5
100
AcDbSymbolTableRecord
100
AcDbLinetypeTableRecord
  2
Continuous
 70
     0
  3
Solid line
 72
    65
 73
     0
 40
0.0
  0
LTYPE
  5
164
330
5
100
AcDbSymbolTableRecord
100
AcDbLinetypeTableRecord
  2
CADWORK_3
 70
     0
  3

 72
    65
 73
     2
 40
4.0
 49
2.0
 74
     0
 49
-2.0
 74
     0
  0
LTYPE
  5
24F
330
5
100
AcDbSymbolTableRecord
100
AcDbLinetypeTableRecord
  2
CADWORK_6
 70
     0
  3

 72
    65
 73
     4
 40
14.0
 49
8.75
 74
     0
 49
-1.75
 74
     0
 49
1.75
 74
     0
 49
-1.75
 74
     0
  0
ENDTAB
  0
TABLE
  2
LAYER
  5
2
330
0
100
AcDbSymbolTable
 70
     3
  0
LAYER
  5
10
330
2
100
AcDbSymbolTableRecord
100
AcDbLayerTableRecord
  2
0
 70
     0
 62
     7
  6
Continuous
370
    -3
390
F
347
46
348
0
  0
LAYER
  5
67
330
2
100
AcDbSymbolTableRecord
100
AcDbLayerTableRecord
  2
Ech.1_5
 70
     0
 62
     7
  6
Continuous
370
    -3
390
F
347
46
348
0
  0
LAYER
  5
3F1
330
2
100
AcDbSymbolTableRecord
100
AcDbLayerTableRecord
  2
Defpoints
 70
     0
 62
     7
  6
Continuous
290
     0
370
    -3
390
F
347
46
348
0
  0
ENDTAB
  0
TABLE
  2
STYLE
  5
3
330
0
100
AcDbSymbolTable
 70
    10
  0
STYLE
  5
11
330
3
100
AcDbSymbolTableRecord
100
AcDbTextStyleTableRecord
  2
Standard
 70
     0
 40
0.0
 41
1.0
 50
0.0
 71
     0
 42
2.5
  3
txt
  4

  0
STYLE
  5
62
330
3
100
AcDbSymbolTableRecord
100
AcDbTextStyleTableRecord
  2
CwStyleShx
 70
     0
 40
1.0
 41
1.0
 50
0.0
 71
     0
 42
2.5
  3

  4

  0
STYLE
  5
63
330
3
100
AcDbSymbolTableRecord
100
AcDbTextStyleTableRecord
  2
CwStyleShx16
 70
     0
 40
1.0
 41
1.0
 50
0.0
 71
     0
 42
2.5
  3

  4

  0
STYLE
  5
64
330
3
100
AcDbSymbolTableRecord
100
AcDbTextStyleTableRecord
  2
MONOTXT
 70
     0
 40
0.0
 41
1.0
 50
0.0
 71
     0
 42
2.5
  3
MONOTXT
  4

  0
STYLE
  5
65
330
3
100
AcDbSymbolTableRecord
100
AcDbTextStyleTableRecord
  2
SYMAP
 70
     0
 40
1.0
 41
1.0
 50
0.0
 71
     0
 42
2.5
  3
SYMAP
  4

  0
STYLE
  5
66
330
3
100
AcDbSymbolTableRecord
100
AcDbTextStyleTableRecord
  2
CwStyleTtf
 70
     0
 40
1.0
 41
1.0
 50
0.0
 71
     0
 42
2.5
  3
arial.ttf
  4

  0
STYLE
  5
3EE
330
3
100
AcDbSymbolTableRecord
100
AcDbTextStyleTableRecord
  2
arial-z
 70
     0
 40
0.0
 41
1.0
 50
0.0
 71
     0
 42
2.5
  3
arial.ttf
  4

1001
ACAD
1000
Arial
1071
        0
  0
STYLE
  5
40A
330
3
100
AcDbSymbolTableRecord
100
AcDbTextStyleTableRecord
  2
arial-
 70
     0
 40
1.0
 41
1.0
 50
0.0
 71
     0
 42
2.5
  3

  4

1001
ACAD
1000
Arial
1071
        0
  0
STYLE
  5
40D
330
3
100
AcDbSymbolTableRecord
100
AcDbTextStyleTableRecord
  2
arial-i
 70
     0
 40
1.0
 41
1.0
 50
0.0
 71
     0
 42
2.5
  3
ariali.ttf
  4

1001
ACAD
1000
Arial
1071
 16777216
  0
STYLE
  5
410
330
3
100
AcDbSymbolTableRecord
100
AcDbTextStyleTableRecord
  2
arial-b
 70
     0
 40
1.0
 41
1.0
 50
0.0
 71
     0
 42
2.5
  3
arialbd.ttf
  4

1001
ACAD
1000
Arial
1071
 33554432
  0
ENDTAB
  0
TABLE
  2
VIEW
  5
6
330
0
100
AcDbSymbolTable
 70
     0
  0
ENDTAB
  0
TABLE
  2
UCS
  5
7
330
0
100
AcDbSymbolTable
 70
     0
  0
ENDTAB
  0
TABLE
  2
APPID
  5
9
330
0
100
AcDbSymbolTable
 70
     3
  0
APPID
  5
12
330
9
100
AcDbSymbolTableRecord
100
AcDbRegAppTableRecord
  2
ACAD
 70
     0
  0
APPID
  5
5E
330
9
100
AcDbSymbolTableRecord
100
AcDbRegAppTableRecord
  2
Cadwork
 70
     0
  0
APPID
  5
214
330
9
100
AcDbSymbolTableRecord
100
AcDbRegAppTableRecord
  2
PLOTTRANSPARENCY
 70
     0
  0
ENDTAB
  0
TABLE
  2
DIMSTYLE
  5
A
330
0
100
AcDbSymbolTable
 70
     1
100
AcDbDimStyleTable
  0
DIMSTYLE
105
27
102
{ACAD_REACTORS
330
3EF
330
3FE
102
}
330
A
100
AcDbSymbolTableRecord
100
AcDbDimStyleTableRecord
  2
ISO-25
 70
     0
 41
2.5
 42
0.625
 43
3.75
 44
1.25
 73
     0
 74
     0
 77
     1
 78
     8
140
2.5
141
2.5
143
0.03937007874016
147
0.625
171
     3
172
     1
178
     0
271
     2
272
     2
274
     3
278
    44
283
     0
284
     8
340
11
  0
ENDTAB
  0
TABLE
  2
BLOCK_RECORD
  5
1
330
0
100
AcDbSymbolTable
 70
    71
  0
BLOCK_RECORD
  5
1F
330
1
100
AcDbSymbolTableRecord
100
AcDbBlockTableRecord
  2
*Model_Space
340
22
 70
     0
280
     1
281
     0
  0
BLOCK_RECORD
  5
20F
330
1
100
AcDbSymbolTableRecord
100
AcDbBlockTableRecord
  2
*Paper_Space
340
210
 70
     0
280
     1
281
     0
  0
BLOCK_RECORD
  5
68
330
1
100
AcDbSymbolTableRecord
100
AcDbBlockTableRecord
  2
CDWK_PTTYP1
340
0
 70
     0
280
     1
281
     1
  0
BLOCK_RECORD
  5
6F
330
1
100
AcDbSymbolTableRecord
100
AcDbBlockTableRecord
  2
CDWK_PTTYP2
340
0
 70
     0
280
     1
281
     1
  0
BLOCK_RECORD
  5
74
330
1
100
AcDbSymbolTableRecord
100
AcDbBlockTableRecord
  2
CDWK_PTTYP4
340
0
 70
     0
280
     1
281
     1
  0
BLOCK_RECORD
  5
78
330
1
100
AcDbSymbolTableRecord
100
AcDbBlockTableRecord
  2
CDWK_PTTYP5
340
0
 70
     0
280
     1
281
     1
  0
BLOCK_RECORD
  5
81
330
1
100
AcDbSymbolTableRecord
100
AcDbBlockTableRecord
  2
CDWK_PTTYP6
340
0
 70
     0
280
     1
281
     1
  0
BLOCK_RECORD
  5
89
330
1
100
AcDbSymbolTableRecord
100
AcDbBlockTableRecord
  2
CDWK_PTTYP7
340
0
 70
     0
280
     1
281
     1
  0
BLOCK_RECORD
  5
92
330
1
100
AcDbSymbolTableRecord
100
AcDbBlockTableRecord
  2
CDWK_PTTYP8
340
0
 70
     0
280
     1
281
     1
  0
BLOCK_RECORD
  5
96
330
1
100
AcDbSymbolTableRecord
100
AcDbBlockTableRecord
  2
CDWK_PTTYP9
340
0
 70
     0
280
     1
281
     1
  0
BLOCK_RECORD
  5
9B
330
1
100
AcDbSymbolTableRecord
100
AcDbBlockTableRecord
  2
CDWK_PTTYP10
340
0
 70
     0
280
     1
281
     1
  0
BLOCK_RECORD
  5
9F
330
1
100
AcDbSymbolTableRecord
100
AcDbBlockTableRecord
  2
CDWK_PTTYP11
340
0
 70
     0
280
     1
281
     1
  0
BLOCK_RECORD
  5
A4
330
1
100
AcDbSymbolTableRecord
100
AcDbBlockTableRecord
  2
CDWK_PTTYP12
340
0
 70
     0
280
     1
281
     1
  0
BLOCK_RECORD
  5
A9
330
1
100
AcDbSymbolTableRecord
100
AcDbBlockTableRecord
  2
CDWK_PTTYP13
340
0
 70
     0
280
     1
281
     1
  0
BLOCK_RECORD
  5
AF
330
1
100
AcDbSymbolTableRecord
100
AcDbBlockTableRecord
  2
CDWK_PTTYP16
340
0
 70
     0
280
     1
281
     1
  0
BLOCK_RECORD
  5
B6
330
1
100
AcDbSymbolTableRecord
100
AcDbBlockTableRecord
  2
CDWK_PTTYP17
340
0
 70
     0
280
     1
281
     1
  0
BLOCK_RECORD
  5
BB
330
1
100
AcDbSymbolTableRecord
100
AcDbBlockTableRecord
  2
CDWK_PTTYP18
340
0
 70
     0
280
     1
281
     1
  0
BLOCK_RECORD
  5
C0
330
1
100
AcDbSymbolTableRecord
100
AcDbBlockTableRecord
  2
CDWK_PTTYP19
340
0
 70
     0
280
     1
281
     1
  0
BLOCK_RECORD
  5
C6
330
1
100
AcDbSymbolTableRecord
100
AcDbBlockTableRecord
  2
CDWK_PTTYP20
340
0
 70
     0
280
     1
281
     1
  0
BLOCK_RECORD
  5
CB
330
1
100
AcDbSymbolTableRecord
100
AcDbBlockTableRecord
  2
CDWK_PTTYP21
340
0
 70
     0
280
     1
281
     1
  0
BLOCK_RECORD
  5
D0
330
1
100
AcDbSymbolTableRecord
100
AcDbBlockTableRecord
  2
CDWK_PTTYP25
340
0
 70
     0
280
     1
281
     1
  0
BLOCK_RECORD
  5
D7
330
1
100
AcDbSymbolTableRecord
100
AcDbBlockTableRecord
  2
CDWK_PTTYP26
340
0
 70
     0
280
     1
281
     1
  0
BLOCK_RECORD
  5
DE
330
1
100
AcDbSymbolTableRecord
100
AcDbBlockTableRecord
  2
CDWK_PTTYP27
340
0
 70
     0
280
     1
281
     1
  0
BLOCK_RECORD
  5
E6
330
1
100
AcDbSymbolTableRecord
100
AcDbBlockTableRecord
  2
CDWK_PTTYP28
340
0
 70
     0
280
     1
281
     1
  0
BLOCK_RECORD
  5
ED
330
1
100
AcDbSymbolTableRecord
100
AcDbBlockTableRecord
  2
CDWK_PTTYP29
340
0
 70
     0
280
     1
281
     1
  0
BLOCK_RECORD
  5
F3
330
1
100
AcDbSymbolTableRecord
100
AcDbBlockTableRecord
  2
CDWK_PTTYP30
340
0
 70
     0
280
     1
281
     1
  0
BLOCK_RECORD
  5
FA
330
1
100
AcDbSymbolTableRecord
100
AcDbBlockTableRecord
  2
CDWK_PTTYP31
340
0
 70
     0
280
     1
281
     1
  0
BLOCK_RECORD
  5
102
330
1
100
AcDbSymbolTableRecord
100
AcDbBlockTableRecord
  2
CDWK_PTTYP32
340
0
 70
     0
280
     1
281
     1
  0
BLOCK_RECORD
  5
10B
330
1
100
AcDbSymbolTableRecord
100
AcDbBlockTableRecord
  2
CDWK_PTTYP33
340
0
 70
     0
280
     1
281
     1
  0
BLOCK_RECORD
  5
111
330
1
100
AcDbSymbolTableRecord
100
AcDbBlockTableRecord
  2
CDWK_PTTYP34
340
0
 70
     0
280
     1
281
     1
  0
BLOCK_RECORD
  5
117
330
1
100
AcDbSymbolTableRecord
100
AcDbBlockTableRecord
  2
CDWK_PTTYP35
340
0
 70
     0
280
     1
281
     1
  0
BLOCK_RECORD
  5
11D
330
1
100
AcDbSymbolTableRecord
100
AcDbBlockTableRecord
  2
CDWK_PTTYP36
340
0
 70
     0
280
     1
281
     1
  0
BLOCK_RECORD
  5
125
330
1
100
AcDbSymbolTableRecord
100
AcDbBlockTableRecord
  2
CDWK_PTTYP37
340
0
 70
     0
280
     1
281
     1
  0
BLOCK_RECORD
  5
12A
330
1
100
AcDbSymbolTableRecord
100
AcDbBlockTableRecord
  2
CDWK_PTTYP38
340
0
 70
     0
280
     1
281
     1
  0
BLOCK_RECORD
  5
130
330
1
100
AcDbSymbolTableRecord
100
AcDbBlockTableRecord
  2
CDWK_PTTYP41
340
0
 70
     0
280
     1
281
     1
  0
BLOCK_RECORD
  5
13A
330
1
100
AcDbSymbolTableRecord
100
AcDbBlockTableRecord
  2
CDWK_PTTYP42
340
0
 70
     0
280
     1
281
     1
  0
BLOCK_RECORD
  5
143
330
1
100
AcDbSymbolTableRecord
100
AcDbBlockTableRecord
  2
CDWK_PTTYP43
340
0
 70
     0
280
     1
281
     1
  0
BLOCK_RECORD
  5
149
330
1
100
AcDbSymbolTableRecord
100
AcDbBlockTableRecord
  2
CDWK_PTTYP44
340
0
 70
     0
280
     1
281
     1
  0
BLOCK_RECORD
  5
152
330
1
100
AcDbSymbolTableRecord
100
AcDbBlockTableRecord
  2
CDWK_PTTYP45
340
0
 70
     0
280
     1
281
     1
  0
BLOCK_RECORD
  5
157
330
1
100
AcDbSymbolTableRecord
100
AcDbBlockTableRecord
  2
CDWK_PTTYP46
340
0
 70
     0
280
     1
281
     1
  0
BLOCK_RECORD
  5
15C
330
1
100
AcDbSymbolTableRecord
100
AcDbBlockTableRecord
  2
CDWK_PTTYP47
340
0
 70
     0
280
     1
281
     1
  0
BLOCK_RECORD
  5
165
330
1
100
AcDbSymbolTableRecord
100
AcDbBlockTableRecord
  2
CDWK_PTTYP48
340
0
 70
     0
280
     1
281
     1
  0
BLOCK_RECORD
  5
16A
330
1
100
AcDbSymbolTableRecord
100
AcDbBlockTableRecord
  2
CDWK_PTTYP49
340
0
 70
     0
280
     1
281
     1
  0
BLOCK_RECORD
  5
171
330
1
100
AcDbSymbolTableRecord
100
AcDbBlockTableRecord
  2
CDWK_PTTYP50
340
0
 70
     0
280
     1
281
     1
  0
BLOCK_RECORD
  5
17B
330
1
100
AcDbSymbolTableRecord
100
AcDbBlockTableRecord
  2
CDWK_PTTYP51
340
0
 70
     0
280
     1
281
     1
  0
BLOCK_RECORD
  5
180
330
1
100
AcDbSymbolTableRecord
100
AcDbBlockTableRecord
  2
CDWK_PTTYP52
340
0
 70
     0
280
     1
281
     1
  0
BLOCK_RECORD
  5
186
330
1
100
AcDbSymbolTableRecord
100
AcDbBlockTableRecord
  2
cw-dimension-symbol1
340
0
 70
     0
280
     1
281
     0
  0
BLOCK_RECORD
  5
18D
330
1
100
AcDbSymbolTableRecord
100
AcDbBlockTableRecord
  2
cw-dimension-symbol2
340
0
102
{BLKREFS
331
3F8
331
3F9
102
}
 70
     0
280
     1
281
     0
  0
BLOCK_RECORD
  5
192
330
1
100
AcDbSymbolTableRecord
100
AcDbBlockTableRecord
  2
cw-dimension-symbol3
340
0
 70
     0
280
     1
281
     0
  0
BLOCK_RECORD
  5
197
330
1
100
AcDbSymbolTableRecord
100
AcDbBlockTableRecord
  2
cw-dimension-symbol5
340
0
 70
     0
280
     1
281
     0
  0
BLOCK_RECORD
  5
19E
330
1
100
AcDbSymbolTableRecord
100
AcDbBlockTableRecord
  2
cw-dimension-symbol6
340
0
 70
     0
280
     1
281
     0
  0
BLOCK_RECORD
  5
1A4
330
1
100
AcDbSymbolTableRecord
100
AcDbBlockTableRecord
  2
cw-dimension-symbol11
340
0
 70
     0
280
     1
281
     0
  0
BLOCK_RECORD
  5
1AA
330
1
100
AcDbSymbolTableRecord
100
AcDbBlockTableRecord
  2
cw-dimension-symbol13
340
0
 70
     0
280
     1
281
     0
  0
BLOCK_RECORD
  5
1B0
330
1
100
AcDbSymbolTableRecord
100
AcDbBlockTableRecord
  2
cw-dimension-symbol15
340
0
 70
     0
280
     1
281
     0
  0
BLOCK_RECORD
  5
1B7
330
1
100
AcDbSymbolTableRecord
100
AcDbBlockTableRecord
  2
cw-dimension-symbol16
340
0
 70
     0
280
     1
281
     0
  0
BLOCK_RECORD
  5
1BE
330
1
100
AcDbSymbolTableRecord
100
AcDbBlockTableRecord
  2
cw-dimension-symbol17
340
0
 70
     0
280
     1
281
     0
  0
BLOCK_RECORD
  5
1C5
330
1
100
AcDbSymbolTableRecord
100
AcDbBlockTableRecord
  2
cw-dimension-symbol18
340
0
 70
     0
280
     1
281
     0
  0
BLOCK_RECORD
  5
1CC
330
1
100
AcDbSymbolTableRecord
100
AcDbBlockTableRecord
  2
cw-dimension-symbol19
340
0
 70
     0
280
     1
281
     0
  0
BLOCK_RECORD
  5
1CF
330
1
100
AcDbSymbolTableRecord
100
AcDbBlockTableRecord
  2
cw-dimension-symbol20
340
0
 70
     0
280
     1
281
     0
  0
BLOCK_RECORD
  5
1D6
330
1
100
AcDbSymbolTableRecord
100
AcDbBlockTableRecord
  2
cw-dimension-symbol21
340
0
 70
     0
280
     1
281
     0
  0
BLOCK_RECORD
  5
1DD
330
1
100
AcDbSymbolTableRecord
100
AcDbBlockTableRecord
  2
cw-line-extremity0
340
0
 70
     0
280
     1
281
     0
  0
BLOCK_RECORD
  5
1E1
330
1
100
AcDbSymbolTableRecord
100
AcDbBlockTableRecord
  2
cw-line-extremity2
340
0
 70
     0
280
     1
281
     0
  0
BLOCK_RECORD
  5
1E6
330
1
100
AcDbSymbolTableRecord
100
AcDbBlockTableRecord
  2
cw-line-extremity3
340
0
 70
     0
280
     1
281
     0
  0
BLOCK_RECORD
  5
1EB
330
1
100
AcDbSymbolTableRecord
100
AcDbBlockTableRecord
  2
cw-line-extremity301
340
0
 70
     0
280
     1
281
     0
  0
BLOCK_RECORD
  5
1ED
330
1
100
AcDbSymbolTableRecord
100
AcDbBlockTableRecord
  2
cw-line-extremity4
340
0
102
{BLKREFS
331
3D9
331
3DB
331
3DD
331
3DF
331
3E1
331
3E3
331
3E5
331
3E7
331
3E9
331
3EB
331
3ED
102
}
 70
     0
280
     1
281
     0
  0
BLOCK_RECORD
  5
1EF
330
1
100
AcDbSymbolTableRecord
100
AcDbBlockTableRecord
  2
cw-line-extremity5
340
0
 70
     0
280
     1
281
     0
  0
BLOCK_RECORD
  5
1F1
330
1
100
AcDbSymbolTableRecord
100
AcDbBlockTableRecord
  2
cw-line-extremity6
340
0
 70
     0
280
     1
281
     0
  0
BLOCK_RECORD
  5
1F3
330
1
100
AcDbSymbolTableRecord
100
AcDbBlockTableRecord
  2
cw-line-extremity9
340
0
 70
     0
280
     1
281
     0
  0
BLOCK_RECORD
  5
1F5
330
1
100
AcDbSymbolTableRecord
100
AcDbBlockTableRecord
  2
cw-line-extremity10
340
0
 70
     0
280
     1
281
     0
  0
BLOCK_RECORD
  5
1F7
330
1
100
AcDbSymbolTableRecord
100
AcDbBlockTableRecord
  2
cw-line-extremity1
340
0
 70
     0
280
     1
281
     0
  0
BLOCK_RECORD
  5
1B
330
1
100
AcDbSymbolTableRecord
100
AcDbBlockTableRecord
  2
*Paper_Space69
340
1E
 70
     0
280
     1
281
     0
  0
BLOCK_RECORD
  5
3F2
330
1
100
AcDbSymbolTableRecord
100
AcDbBlockTableRecord
  2
*D70
340
0
 70
     0
280
     1
281
     0
  0
BLOCK_RECORD
  5
400
330
1
100
AcDbSymbolTableRecord
100
AcDbBlockTableRecord
  2
*D71
340
0
 70
     0
280
     1
281
     0
  0
ENDTAB
  0
ENDSEC
  0
SECTION
  2
BLOCKS
  0
BLOCK
  5
20
330
1F
100
AcDbEntity
  8
0
100
AcDbBlockBegin
  2
*Model_Space
 70
     0
 10
0.0
 20
0.0
 30
0.0
  3
*Model_Space
  1

  0
ENDBLK
  5
21
330
1F
100
AcDbEntity
  8
0
100
AcDbBlockEnd
  0
BLOCK
  5
211
330
20F
100
AcDbEntity
 67
     1
  8
0
100
AcDbBlockBegin
  2
*Paper_Space
 70
     0
 10
0.0
 20
0.0
 30
0.0
  3
*Paper_Space
  1

  0
ENDBLK
  5
212
330
20F
100
AcDbEntity
 67
     1
  8
0
100
AcDbBlockEnd
  0
BLOCK
  5
6D
330
68
100
AcDbEntity
  8
0
100
AcDbBlockBegin
  2
CDWK_PTTYP1
 70
     0
 10
0.0
 20
0.0
 30
0.0
  3
CDWK_PTTYP1
  1

  0
LINE
  5
69
330
68
100
AcDbEntity
  8
0
  6
Continuous
 62
     0
370
    -2
390
5F
100
AcDbLine
 10
-0.5
 20
0.5
 30
0.0
 11
0.5
 21
0.5
 31
0.0
  0
LINE
  5
6A
330
68
100
AcDbEntity
  8
0
  6
Continuous
 62
     0
370
    -2
390
5F
100
AcDbLine
 10
0.5
 20
0.5
 30
0.0
 11
0.5
 21
-0.5
 31
0.0
  0
LINE
  5
6B
330
68
100
AcDbEntity
  8
0
  6
Continuous
 62
     0
370
    -2
390
5F
100
AcDbLine
 10
0.5
 20
-0.5
 30
0.0
 11
-0.5
 21
-0.5
 31
0.0
  0
LINE
  5
6C
330
68
100
AcDbEntity
  8
0
  6
Continuous
 62
     0
370
    -2
390
5F
100
AcDbLine
 10
-0.5
 20
-0.5
 30
0.0
 11
-0.5
 21
0.5
 31
0.0
  0
ENDBLK
  5
6E
330
68
100
AcDbEntity
  8
0
100
AcDbBlockEnd
  0
BLOCK
  5
72
330
6F
100
AcDbEntity
  8
0
100
AcDbBlockBegin
  2
CDWK_PTTYP2
 70
     0
 10
0.0
 20
0.0
 30
0.0
  3
CDWK_PTTYP2
  1

  0
LINE
  5
70
330
6F
100
AcDbEntity
  8
0
  6
Continuous
 62
     0
370
    -2
390
5F
100
AcDbLine
 10
0.0
 20
0.5
 30
0.0
 11
0.0
 21
-0.5
 31
0.0
  0
LINE
  5
71
330
6F
100
AcDbEntity
  8
0
  6
Continuous
 62
     0
370
    -2
390
5F
100
AcDbLine
 10
0.5
 20
0.0
 30
0.0
 11
-0.5
 21
0.0
 31
0.0
  0
ENDBLK
  5
73
330
6F
100
AcDbEntity
  8
0
100
AcDbBlockEnd
  0
BLOCK
  5
76
330
74
100
AcDbEntity
  8
0
100
AcDbBlockBegin
  2
CDWK_PTTYP4
 70
     0
 10
0.0
 20
0.0
 30
0.0
  3
CDWK_PTTYP4
  1

  0
HATCH
  5
75
330
74
100
AcDbEntity
  8
0
  6
Continuous
 62
     0
370
    -2
390
5F
100
AcDbHatch
 10
0.0
 20
0.0
 30
0.0
210
0.0
220
0.0
230
1.0
  2
SOLID
 70
     1
 71
     0
 91
        1
 92
        1
 93
        1
 72
     2
 10
0.0
 20
0.0
 40
0.5
 50
0.0
 51
360.0
 73
     1
 97
        0
 75
     0
 76
     1
 98
        0
  0
ENDBLK
  5
77
330
74
100
AcDbEntity
  8
0
100
AcDbBlockEnd
  0
BLOCK
  5
7F
330
78
100
AcDbEntity
  8
0
100
AcDbBlockBegin
  2
CDWK_PTTYP5
 70
     0
 10
0.0
 20
0.0
 30
0.0
  3
CDWK_PTTYP5
  1

  0
LINE
  5
79
330
78
100
AcDbEntity
  8
0
  6
Continuous
 62
     0
370
    -2
390
5F
100
AcDbLine
 10
-0.5
 20
0.5
 30
0.0
 11
0.5
 21
0.5
 31
0.0
  0
LINE
  5
7A
330
78
100
AcDbEntity
  8
0
  6
Continuous
 62
     0
370
    -2
390
5F
100
AcDbLine
 10
0.5
 20
0.5
 30
0.0
 11
0.5
 21
-0.5
 31
0.0
  0
LINE
  5
7B
330
78
100
AcDbEntity
  8
0
  6
Continuous
 62
     0
370
    -2
390
5F
100
AcDbLine
 10
0.5
 20
-0.5
 30
0.0
 11
-0.5
 21
-0.5
 31
0.0
  0
LINE
  5
7C
330
78
100
AcDbEntity
  8
0
  6
Continuous
 62
     0
370
    -2
390
5F
100
AcDbLine
 10
-0.5
 20
-0.5
 30
0.0
 11
-0.5
 21
0.5
 31
0.0
  0
HATCH
  5
7D
330
78
100
AcDbEntity
  8
0
  6
Continuous
 62
     0
370
    -2
390
5F
100
AcDbHatch
 10
0.0
 20
0.0
 30
0.0
210
0.0
220
0.0
230
1.0
  2
SOLID
 70
     1
 71
     0
 91
        1
 92
        3
 72
     0
 73
     1
 93
        4
 10
-0.5
 20
0.0
 10
0.0
 20
0.0
 10
0.0
 20
-0.5
 10
-0.5
 20
-0.5
 97
        0
 75
     0
 76
     1
 98
        0
  0
HATCH
  5
7E
330
78
100
AcDbEntity
  8
0
  6
Continuous
 62
     0
370
    -2
390
5F
100
AcDbHatch
 10
0.0
 20
0.0
 30
0.0
210
0.0
220
0.0
230
1.0
  2
SOLID
 70
     1
 71
     0
 91
        1
 92
        3
 72
     0
 73
     1
 93
        4
 10
0.0
 20
0.0
 10
0.5
 20
0.0
 10
0.5
 20
0.5
 10
0.0
 20
0.5
 97
        0
 75
     0
 76
     1
 98
        0
  0
ENDBLK
  5
80
330
78
100
AcDbEntity
  8
0
100
AcDbBlockEnd
  0
BLOCK
  5
87
330
81
100
AcDbEntity
  8
0
100
AcDbBlockBegin
  2
CDWK_PTTYP6
 70
     0
 10
0.0
 20
0.0
 30
0.0
  3
CDWK_PTTYP6
  1

  0
LINE
  5
82
330
81
100
AcDbEntity
  8
0
  6
Continuous
 62
     0
370
    -2
390
5F
100
AcDbLine
 10
-0.5
 20
0.5
 30
0.0
 11
0.5
 21
0.5
 31
0.0
  0
LINE
  5
83
330
81
100
AcDbEntity
  8
0
  6
Continuous
 62
     0
370
    -2
390
5F
100
AcDbLine
 10
0.5
 20
0.5
 30
0.0
 11
0.5
 21
-0.5
 31
0.0
  0
LINE
  5
84
330
81
100
AcDbEntity
  8
0
  6
Continuous
 62
     0
370
    -2
390
5F
100
AcDbLine
 10
0.5
 20
-0.5
 30
0.0
 11
-0.5
 21
-0.5
 31
0.0
  0
LINE
  5
85
330
81
100
AcDbEntity
  8
0
  6
Continuous
 62
     0
370
    -2
390
5F
100
AcDbLine
 10
-0.5
 20
-0.5
 30
0.0
 11
-0.5
 21
0.5
 31
0.0
  0
HATCH
  5
86
330
81
100
AcDbEntity
  8
0
  6
Continuous
 62
     0
370
    -2
390
5F
100
AcDbHatch
 10
0.0
 20
0.0
 30
0.0
210
0.0
220
0.0
230
1.0
  2
SOLID
 70
     1
 71
     0
 91
        1
 92
        3
 72
     0
 73
     1
 93
        3
 10
-0.5
 20
-0.5
 10
-0.5
 20
0.5
 10
0.5
 20
0.5
 97
        0
 75
     0
 76
     1
 98
        0
  0
ENDBLK
  5
88
330
81
100
AcDbEntity
  8
0
100
AcDbBlockEnd
  0
BLOCK
  5
90
330
89
100
AcDbEntity
  8
0
100
AcDbBlockBegin
  2
CDWK_PTTYP7
 70
     0
 10
0.0
 20
0.0
 30
0.0
  3
CDWK_PTTYP7
  1

  0
LINE
  5
8A
330
89
100
AcDbEntity
  8
0
  6
Continuous
 62
     0
370
    -2
390
5F
100
AcDbLine
 10
-0.5
 20
0.5
 30
0.0
 11
0.5
 21
0.5
 31
0.0
  0
LINE
  5
8B
330
89
100
AcDbEntity
  8
0
  6
Continuous
 62
     0
370
    -2
390
5F
100
AcDbLine
 10
0.5
 20
0.5
 30
0.0
 11
0.5
 21
-0.5
 31
0.0
  0
LINE
  5
8C
330
89
100
AcDbEntity
  8
0
  6
Continuous
 62
     0
370
    -2
390
5F
100
AcDbLine
 10
0.5
 20
-0.5
 30
0.0
 11
-0.5
 21
-0.5
 31
0.0
  0
LINE
  5
8D
330
89
100
AcDbEntity
  8
0
  6
Continuous
 62
     0
370
    -2
390
5F
100
AcDbLine
 10
-0.5
 20
-0.5
 30
0.0
 11
-0.5
 21
0.5
 31
0.0
  0
LINE
  5
8E
330
89
100
AcDbEntity
  8
0
  6
Continuous
 62
     0
370
    -2
390
5F
100
AcDbLine
 10
0.0
 20
0.5
 30
0.0
 11
0.0
 21
-0.5
 31
0.0
  0
LINE
  5
8F
330
89
100
AcDbEntity
  8
0
  6
Continuous
 62
     0
370
    -2
390
5F
100
AcDbLine
 10
0.5
 20
0.0
 30
0.0
 11
-0.5
 21
0.0
 31
0.0
  0
ENDBLK
  5
91
330
89
100
AcDbEntity
  8
0
100
AcDbBlockEnd
  0
BLOCK
  5
94
330
92
100
AcDbEntity
  8
0
100
AcDbBlockBegin
  2
CDWK_PTTYP8
 70
     0
 10
0.0
 20
0.0
 30
0.0
  3
CDWK_PTTYP8
  1

  0
HATCH
  5
93
330
92
100
AcDbEntity
  8
0
  6
Continuous
 62
     0
370
    -2
390
5F
100
AcDbHatch
 10
0.0
 20
0.0
 30
0.0
210
0.0
220
0.0
230
1.0
  2
SOLID
 70
     1
 71
     0
 91
        1
 92
        3
 72
     0
 73
     1
 93
        4
 10
0.5
 20
0.5
 10
0.5
 20
-0.5
 10
-0.5
 20
-0.5
 10
-0.5
 20
0.5
 97
        0
 75
     0
 76
     1
 98
        0
  0
ENDBLK
  5
95
330
92
100
AcDbEntity
  8
0
100
AcDbBlockEnd
  0
BLOCK
  5
99
330
96
100
AcDbEntity
  8
0
100
AcDbBlockBegin
  2
CDWK_PTTYP9
 70
     0
 10
0.0
 20
0.0
 30
0.0
  3
CDWK_PTTYP9
  1

  0
CIRCLE
  5
97
330
96
100
AcDbEntity
  8
0
  6
Continuous
 62
     0
370
    -2
390
5F
100
AcDbCircle
 10
0.0
 20
0.0
 30
0.0
 40
0.1666666666666667
  0
CIRCLE
  5
98
330
96
100
AcDbEntity
  8
0
  6
Continuous
 62
     0
370
    -2
390
5F
100
AcDbCircle
 10
0.0
 20
0.0
 30
0.0
 40
0.5
  0
ENDBLK
  5
9A
330
96
100
AcDbEntity
  8
0
100
AcDbBlockEnd
  0
BLOCK
  5
9D
330
9B
100
AcDbEntity
  8
0
100
AcDbBlockBegin
  2
CDWK_PTTYP10
 70
     0
 10
0.0
 20
0.0
 30
0.0
  3
CDWK_PTTYP10
  1

  0
CIRCLE
  5
9C
330
9B
100
AcDbEntity
  8
0
  6
Continuous
 62
     0
370
    -2
390
5F
100
AcDbCircle
 10
0.0
 20
0.0
 30
0.0
 40
0.5
  0
ENDBLK
  5
9E
330
9B
100
AcDbEntity
  8
0
100
AcDbBlockEnd
  0
BLOCK
  5
A2
330
9F
100
AcDbEntity
  8
0
100
AcDbBlockBegin
  2
CDWK_PTTYP11
 70
     0
 10
0.0
 20
0.0
 30
0.0
  3
CDWK_PTTYP11
  1

  0
CIRCLE
  5
A0
330
9F
100
AcDbEntity
  8
0
  6
Continuous
 62
     0
370
    -2
390
5F
100
AcDbCircle
 10
0.0
 20
0.0
 30
0.0
 40
0.25
  0
CIRCLE
  5
A1
330
9F
100
AcDbEntity
  8
0
  6
Continuous
 62
     0
370
    -2
390
5F
100
AcDbCircle
 10
0.0
 20
0.0
 30
0.0
 40
0.5
  0
ENDBLK
  5
A3
330
9F
100
AcDbEntity
  8
0
100
AcDbBlockEnd
  0
BLOCK
  5
A7
330
A4
100
AcDbEntity
  8
0
100
AcDbBlockBegin
  2
CDWK_PTTYP12
 70
     0
 10
0.0
 20
0.0
 30
0.0
  3
CDWK_PTTYP12
  1

  0
CIRCLE
  5
A5
330
A4
100
AcDbEntity
  8
0
  6
Continuous
 62
     0
370
    -2
390
5F
100
AcDbCircle
 10
0.25
 20
0.0
 30
0.0
 40
0.25
  0
CIRCLE
  5
A6
330
A4
100
AcDbEntity
  8
0
  6
Continuous
 62
     0
370
    -2
390
5F
100
AcDbCircle
 10
0.0
 20
0.0
 30
0.0
 40
0.5
  0
ENDBLK
  5
A8
330
A4
100
AcDbEntity
  8
0
100
AcDbBlockEnd
  0
BLOCK
  5
AD
330
A9
100
AcDbEntity
  8
0
100
AcDbBlockBegin
  2
CDWK_PTTYP13
 70
     0
 10
0.0
 20
0.0
 30
0.0
  3
CDWK_PTTYP13
  1

  0
CIRCLE
  5
AA
330
A9
100
AcDbEntity
  8
0
  6
Continuous
 62
     0
370
    -2
390
5F
100
AcDbCircle
 10
-0.25
 20
0.0
 30
0.0
 40
0.25
  0
CIRCLE
  5
AB
330
A9
100
AcDbEntity
  8
0
  6
Continuous
 62
     0
370
    -2
390
5F
100
AcDbCircle
 10
0.25
 20
0.0
 30
0.0
 40
0.25
  0
CIRCLE
  5
AC
330
A9
100
AcDbEntity
  8
0
  6
Continuous
 62
     0
370
    -2
390
5F
100
AcDbCircle
 10
0.0
 20
0.0
 30
0.0
 40
0.5
  0
ENDBLK
  5
AE
330
A9
100
AcDbEntity
  8
0
100
AcDbBlockEnd
  0
BLOCK
  5
B4
330
AF
100
AcDbEntity
  8
0
100
AcDbBlockBegin
  2
CDWK_PTTYP16
 70
     0
 10
0.0
 20
0.0
 30
0.0
  3
CDWK_PTTYP16
  1

  0
LINE
  5
B0
330
AF
100
AcDbEntity
  8
0
  6
Continuous
 62
     0
370
    -2
390
5F
100
AcDbLine
 10
-0.5
 20
-0.289
 30
0.0
 11
0.5
 21
-0.289
 31
0.0
  0
LINE
  5
B1
330
AF
100
AcDbEntity
  8
0
  6
Continuous
 62
     0
370
    -2
390
5F
100
AcDbLine
 10
0.5
 20
-0.289
 30
0.0
 11
0.0
 21
0.577
 31
0.0
  0
LINE
  5
B2
330
AF
100
AcDbEntity
  8
0
  6
Continuous
 62
     0
370
    -2
390
5F
100
AcDbLine
 10
0.0
 20
0.577
 30
0.0
 11
-0.5
 21
-0.289
 31
0.0
  0
CIRCLE
  5
B3
330
AF
100
AcDbEntity
  8
0
  6
Continuous
 62
     0
370
    -2
390
5F
100
AcDbCircle
 10
0.0
 20
0.0
 30
0.0
 40
0.289
  0
ENDBLK
  5
B5
330
AF
100
AcDbEntity
  8
0
100
AcDbBlockEnd
  0
BLOCK
  5
B9
330
B6
100
AcDbEntity
  8
0
100
AcDbBlockBegin
  2
CDWK_PTTYP17
 70
     0
 10
0.0
 20
0.0
 30
0.0
  3
CDWK_PTTYP17
  1

  0
CIRCLE
  5
B7
330
B6
100
AcDbEntity
  8
0
  6
Continuous
 62
     0
370
    -2
390
5F
100
AcDbCircle
 10
0.0
 20
0.0
 30
0.0
 40
0.5
  0
HATCH
  5
B8
330
B6
100
AcDbEntity
  8
0
  6
Continuous
 62
     0
370
    -2
390
5F
100
AcDbHatch
 10
0.0
 20
0.0
 30
0.0
210
0.0
220
0.0
230
1.0
  2
SOLID
 70
     1
 71
     0
 91
        1
 92
        1
 93
        1
 72
     2
 10
0.0
 20
0.0
 40
0.25
 50
0.0
 51
360.0
 73
     1
 97
        0
 75
     0
 76
     1
 98
        0
  0
ENDBLK
  5
BA
330
B6
100
AcDbEntity
  8
0
100
AcDbBlockEnd
  0
BLOCK
  5
BE
330
BB
100
AcDbEntity
  8
0
100
AcDbBlockBegin
  2
CDWK_PTTYP18
 70
     0
 10
0.0
 20
0.0
 30
0.0
  3
CDWK_PTTYP18
  1

  0
CIRCLE
  5
BC
330
BB
100
AcDbEntity
  8
0
  6
Continuous
 62
     0
370
    -2
390
5F
100
AcDbCircle
 10
0.0
 20
0.0
 30
0.0
 40
0.5
  0
CIRCLE
  5
BD
330
BB
100
AcDbEntity
  8
0
  6
Continuous
 62
     0
370
    -2
390
5F
100
AcDbCircle
 10
0.0
 20
0.0
 30
0.0
 40
0.208
  0
ENDBLK
  5
BF
330
BB
100
AcDbEntity
  8
0
100
AcDbBlockEnd
  0
BLOCK
  5
C4
330
C0
100
AcDbEntity
  8
0
100
AcDbBlockBegin
  2
CDWK_PTTYP19
 70
     0
 10
0.0
 20
0.0
 30
0.0
  3
CDWK_PTTYP19
  1

  0
CIRCLE
  5
C1
330
C0
100
AcDbEntity
  8
0
  6
Continuous
 62
     0
370
    -2
390
5F
100
AcDbCircle
 10
0.0
 20
0.0
 30
0.0
 40
0.25
  0
CIRCLE
  5
C2
330
C0
100
AcDbEntity
  8
0
  6
Continuous
 62
     0
370
    -2
390
5F
100
AcDbCircle
 10
0.0
 20
0.0
 30
0.0
 40
0.35
  0
LINE
  5
C3
330
C0
100
AcDbEntity
  8
0
  6
Continuous
 62
     0
370
    -2
390
5F
100
AcDbLine
 10
-0.25
 20
0.0
 30
0.0
 11
0.25
 21
0.0
 31
0.0
  0
ENDBLK
  5
C5
330
C0
100
AcDbEntity
  8
0
100
AcDbBlockEnd
  0
BLOCK
  5
C9
330
C6
100
AcDbEntity
  8
0
100
AcDbBlockBegin
  2
CDWK_PTTYP20
 70
     0
 10
0.0
 20
0.0
 30
0.0
  3
CDWK_PTTYP20
  1

  0
CIRCLE
  5
C7
330
C6
100
AcDbEntity
  8
0
  6
Continuous
 62
     0
370
    -2
390
5F
100
AcDbCircle
 10
0.0
 20
0.0
 30
0.0
 40
0.3333333333333333
  0
CIRCLE
  5
C8
330
C6
100
AcDbEntity
  8
0
  6
Continuous
 62
     0
370
    -2
390
5F
100
AcDbCircle
 10
0.0
 20
0.0
 30
0.0
 40
0.5
  0
ENDBLK
  5
CA
330
C6
100
AcDbEntity
  8
0
100
AcDbBlockEnd
  0
BLOCK
  5
CE
330
CB
100
AcDbEntity
  8
0
100
AcDbBlockBegin
  2
CDWK_PTTYP21
 70
     0
 10
0.0
 20
0.0
 30
0.0
  3
CDWK_PTTYP21
  1

  0
CIRCLE
  5
CC
330
CB
100
AcDbEntity
  8
0
  6
Continuous
 62
     0
370
    -2
390
5F
100
AcDbCircle
 10
0.0
 20
0.0
 30
0.0
 40
0.5
  0
LINE
  5
CD
330
CB
100
AcDbEntity
  8
0
  6
Continuous
 62
     0
370
    -2
390
5F
100
AcDbLine
 10
-0.5
 20
0.0
 30
0.0
 11
0.5
 21
0.0
 31
0.0
  0
ENDBLK
  5
CF
330
CB
100
AcDbEntity
  8
0
100
AcDbBlockEnd
  0
BLOCK
  5
D5
330
D0
100
AcDbEntity
  8
0
100
AcDbBlockBegin
  2
CDWK_PTTYP25
 70
     0
 10
0.0
 20
0.0
 30
0.0
  3
CDWK_PTTYP25
  1

  0
LINE
  5
D1
330
D0
100
AcDbEntity
  8
0
  6
Continuous
 62
     0
370
    -2
390
5F
100
AcDbLine
 10
0.0
 20
0.5
 30
0.0
 11
-0.4330127018922193
 21
-0.25
 31
0.0
  0
LINE
  5
D2
330
D0
100
AcDbEntity
  8
0
  6
Continuous
 62
     0
370
    -2
390
5F
100
AcDbLine
 10
-0.4330127018922193
 20
-0.25
 30
0.0
 11
0.4330127018922193
 21
-0.25
 31
0.0
  0
LINE
  5
D3
330
D0
100
AcDbEntity
  8
0
  6
Continuous
 62
     0
370
    -2
390
5F
100
AcDbLine
 10
0.4330127018922193
 20
-0.25
 30
0.0
 11
0.0
 21
0.5
 31
0.0
  0
CIRCLE
  5
D4
330
D0
100
AcDbEntity
  8
0
  6
Continuous
 62
     0
370
    -2
390
5F
100
AcDbCircle
 10
0.0
 20
0.0
 30
0.0
 40
0.5
  0
ENDBLK
  5
D6
330
D0
100
AcDbEntity
  8
0
100
AcDbBlockEnd
  0
BLOCK
  5
DC
330
D7
100
AcDbEntity
  8
0
100
AcDbBlockBegin
  2
CDWK_PTTYP26
 70
     0
 10
0.0
 20
0.0
 30
0.0
  3
CDWK_PTTYP26
  1

  0
LINE
  5
D8
330
D7
100
AcDbEntity
  8
0
  6
Continuous
 62
     0
370
    -2
390
5F
100
AcDbLine
 10
-0.5
 20
-0.289
 30
0.0
 11
0.5
 21
-0.289
 31
0.0
  0
LINE
  5
D9
330
D7
100
AcDbEntity
  8
0
  6
Continuous
 62
     0
370
    -2
390
5F
100
AcDbLine
 10
0.5
 20
-0.289
 30
0.0
 11
0.0
 21
0.577
 31
0.0
  0
LINE
  5
DA
330
D7
100
AcDbEntity
  8
0
  6
Continuous
 62
     0
370
    -2
390
5F
100
AcDbLine
 10
0.0
 20
0.577
 30
0.0
 11
-0.5
 21
-0.289
 31
0.0
  0
CIRCLE
  5
DB
330
D7
100
AcDbEntity
  8
0
  6
Continuous
 62
     0
370
    -2
390
5F
100
AcDbCircle
 10
0.0
 20
0.0
 30
0.0
 40
0.125
  0
ENDBLK
  5
DD
330
D7
100
AcDbEntity
  8
0
100
AcDbBlockEnd
  0
BLOCK
  5
E4
330
DE
100
AcDbEntity
  8
0
100
AcDbBlockBegin
  2
CDWK_PTTYP27
 70
     0
 10
0.0
 20
0.0
 30
0.0
  3
CDWK_PTTYP27
  1

  0
LINE
  5
DF
330
DE
100
AcDbEntity
  8
0
  6
Continuous
 62
     0
370
    -2
390
5F
100
AcDbLine
 10
0.0
 20
0.5
 30
0.0
 11
-0.4330127018922193
 21
-0.25
 31
0.0
  0
LINE
  5
E0
330
DE
100
AcDbEntity
  8
0
  6
Continuous
 62
     0
370
    -2
390
5F
100
AcDbLine
 10
-0.4330127018922193
 20
-0.25
 30
0.0
 11
0.4330127018922193
 21
-0.25
 31
0.0
  0
LINE
  5
E1
330
DE
100
AcDbEntity
  8
0
  6
Continuous
 62
     0
370
    -2
390
5F
100
AcDbLine
 10
0.4330127018922193
 20
-0.25
 30
0.0
 11
0.0
 21
0.5
 31
0.0
  0
CIRCLE
  5
E2
330
DE
100
AcDbEntity
  8
0
  6
Continuous
 62
     0
370
    -2
390
5F
100
AcDbCircle
 10
0.0
 20
0.0
 30
0.0
 40
0.125
  0
CIRCLE
  5
E3
330
DE
100
AcDbEntity
  8
0
  6
Continuous
 62
     0
370
    -2
390
5F
100
AcDbCircle
 10
0.0
 20
0.0
 30
0.0
 40
0.5
  0
ENDBLK
  5
E5
330
DE
100
AcDbEntity
  8
0
100
AcDbBlockEnd
  0
BLOCK
  5
EB
330
E6
100
AcDbEntity
  8
0
100
AcDbBlockBegin
  2
CDWK_PTTYP28
 70
     0
 10
0.0
 20
0.0
 30
0.0
  3
CDWK_PTTYP28
  1

  0
LINE
  5
E7
330
E6
100
AcDbEntity
  8
0
  6
Continuous
 62
     0
370
    -2
390
5F
100
AcDbLine
 10
-0.5
 20
0.5
 30
0.0
 11
0.5
 21
0.5
 31
0.0
  0
LINE
  5
E8
330
E6
100
AcDbEntity
  8
0
  6
Continuous
 62
     0
370
    -2
390
5F
100
AcDbLine
 10
0.5
 20
0.5
 30
0.0
 11
-0.5
 21
-0.5
 31
0.0
  0
LINE
  5
E9
330
E6
100
AcDbEntity
  8
0
  6
Continuous
 62
     0
370
    -2
390
5F
100
AcDbLine
 10
0.5
 20
-0.5
 30
0.0
 11
-0.5
 21
-0.5
 31
0.0
  0
LINE
  5
EA
330
E6
100
AcDbEntity
  8
0
  6
Continuous
 62
     0
370
    -2
390
5F
100
AcDbLine
 10
-0.5
 20
0.5
 30
0.0
 11
0.5
 21
-0.5
 31
0.0
  0
ENDBLK
  5
EC
330
E6
100
AcDbEntity
  8
0
100
AcDbBlockEnd
  0
BLOCK
  5
F1
330
ED
100
AcDbEntity
  8
0
100
AcDbBlockBegin
  2
CDWK_PTTYP29
 70
     0
 10
0.0
 20
0.0
 30
0.0
  3
CDWK_PTTYP29
  1

  0
CIRCLE
  5
EE
330
ED
100
AcDbEntity
  8
0
  6
Continuous
 62
     0
370
    -2
390
5F
100
AcDbCircle
 10
0.0
 20
0.0
 30
0.0
 40
0.2
  0
CIRCLE
  5
EF
330
ED
100
AcDbEntity
  8
0
  6
Continuous
 62
     0
370
    -2
390
5F
100
AcDbCircle
 10
0.0
 20
0.0
 30
0.0
 40
0.35
  0
CIRCLE
  5
F0
330
ED
100
AcDbEntity
  8
0
  6
Continuous
 62
     0
370
    -2
390
5F
100
AcDbCircle
 10
0.0
 20
0.0
 30
0.0
 40
0.5
  0
ENDBLK
  5
F2
330
ED
100
AcDbEntity
  8
0
100
AcDbBlockEnd
  0
BLOCK
  5
F8
330
F3
100
AcDbEntity
  8
0
100
AcDbBlockBegin
  2
CDWK_PTTYP30
 70
     0
 10
0.0
 20
0.0
 30
0.0
  3
CDWK_PTTYP30
  1

  0
LINE
  5
F4
330
F3
100
AcDbEntity
  8
0
  6
Continuous
 62
     0
370
    -2
390
5F
100
AcDbLine
 10
-0.5
 20
0.5
 30
0.0
 11
-0.1
 21
0.1
 31
0.0
  0
LINE
  5
F5
330
F3
100
AcDbEntity
  8
0
  6
Continuous
 62
     0
370
    -2
390
5F
100
AcDbLine
 10
0.5
 20
0.5
 30
0.0
 11
0.1
 21
0.1
 31
0.0
  0
LINE
  5
F6
330
F3
100
AcDbEntity
  8
0
  6
Continuous
 62
     0
370
    -2
390
5F
100
AcDbLine
 10
0.5
 20
-0.5
 30
0.0
 11
0.1
 21
-0.1
 31
0.0
  0
LINE
  5
F7
330
F3
100
AcDbEntity
  8
0
  6
Continuous
 62
     0
370
    -2
390
5F
100
AcDbLine
 10
-0.5
 20
-0.5
 30
0.0
 11
-0.1
 21
-0.1
 31
0.0
  0
ENDBLK
  5
F9
330
F3
100
AcDbEntity
  8
0
100
AcDbBlockEnd
  0
BLOCK
  5
100
330
FA
100
AcDbEntity
  8
0
100
AcDbBlockBegin
  2
CDWK_PTTYP31
 70
     0
 10
0.0
 20
0.0
 30
0.0
  3
CDWK_PTTYP31
  1

  0
LINE
  5
FB
330
FA
100
AcDbEntity
  8
0
  6
Continuous
 62
     0
370
    -2
390
5F
100
AcDbLine
 10
-0.5
 20
0.0
 30
0.0
 11
-0.1
 21
0.0
 31
0.0
  0
LINE
  5
FC
330
FA
100
AcDbEntity
  8
0
  6
Continuous
 62
     0
370
    -2
390
5F
100
AcDbLine
 10
0.1
 20
0.0
 30
0.0
 11
0.5
 21
0.0
 31
0.0
  0
LINE
  5
FD
330
FA
100
AcDbEntity
  8
0
  6
Continuous
 62
     0
370
    -2
390
5F
100
AcDbLine
 10
0.0
 20
0.5
 30
0.0
 11
0.0
 21
0.1
 31
0.0
  0
LINE
  5
FE
330
FA
100
AcDbEntity
  8
0
  6
Continuous
 62
     0
370
    -2
390
5F
100
AcDbLine
 10
0.0
 20
-0.1
 30
0.0
 11
0.0
 21
-0.5
 31
0.0
  0
CIRCLE
  5
FF
330
FA
100
AcDbEntity
  8
0
  6
Continuous
 62
     0
370
    -2
390
5F
100
AcDbCircle
 10
0.0
 20
0.0
 30
0.0
 40
0.1
  0
ENDBLK
  5
101
330
FA
100
AcDbEntity
  8
0
100
AcDbBlockEnd
  0
BLOCK
  5
109
330
102
100
AcDbEntity
  8
0
100
AcDbBlockBegin
  2
CDWK_PTTYP32
 70
     0
 10
0.0
 20
0.0
 30
0.0
  3
CDWK_PTTYP32
  1

  0
CIRCLE
  5
103
330
102
100
AcDbEntity
  8
0
  6
Continuous
 62
     0
370
    -2
390
5F
100
AcDbCircle
 10
0.0
 20
0.0
 30
0.0
 40
0.2
  0
CIRCLE
  5
104
330
102
100
AcDbEntity
  8
0
  6
Continuous
 62
     0
370
    -2
390
5F
100
AcDbCircle
 10
0.0
 20
0.0
 30
0.0
 40
0.5
  0
LINE
  5
105
330
102
100
AcDbEntity
  8
0
  6
Continuous
 62
     0
370
    -2
390
5F
100
AcDbLine
 10
0.1414213562373095
 20
0.1414213562373095
 30
0.0
 11
0.3535533905932738
 21
0.3535533905932738
 31
0.0
  0
LINE
  5
106
330
102
100
AcDbEntity
  8
0
  6
Continuous
 62
     0
370
    -2
390
5F
100
AcDbLine
 10
-0.1414213562373095
 20
0.1414213562373095
 30
0.0
 11
-0.3535533905932738
 21
0.3535533905932738
 31
0.0
  0
LINE
  5
107
330
102
100
AcDbEntity
  8
0
  6
Continuous
 62
     0
370
    -2
390
5F
100
AcDbLine
 10
0.1414213562373095
 20
-0.1414213562373095
 30
0.0
 11
0.3535533905932738
 21
-0.3535533905932738
 31
0.0
  0
LINE
  5
108
330
102
100
AcDbEntity
  8
0
  6
Continuous
 62
     0
370
    -2
390
5F
100
AcDbLine
 10
-0.1414213562373095
 20
-0.1414213562373095
 30
0.0
 11
-0.3535533905932738
 21
-0.3535533905932738
 31
0.0
  0
ENDBLK
  5
10A
330
102
100
AcDbEntity
  8
0
100
AcDbBlockEnd
  0
BLOCK
  5
10F
330
10B
100
AcDbEntity
  8
0
100
AcDbBlockBegin
  2
CDWK_PTTYP33
 70
     0
 10
0.0
 20
0.0
 30
0.0
  3
CDWK_PTTYP33
  1

  0
LINE
  5
10C
330
10B
100
AcDbEntity
  8
0
  6
Continuous
 62
     0
370
    -2
390
5F
100
AcDbLine
 10
0.0
 20
-0.5
 30
0.0
 11
0.0
 21
0.5
 31
0.0
  0
LINE
  5
10D
330
10B
100
AcDbEntity
  8
0
  6
Continuous
 62
     0
370
    -2
390
5F
100
AcDbLine
 10
0.5
 20
0.0
 30
0.0
 11
-0.5
 21
0.0
 31
0.0
  0
CIRCLE
  5
10E
330
10B
100
AcDbEntity
  8
0
  6
Continuous
 62
     0
370
    -2
390
5F
100
AcDbCircle
 10
0.0
 20
0.0
 30
0.0
 40
0.5
  0
ENDBLK
  5
110
330
10B
100
AcDbEntity
  8
0
100
AcDbBlockEnd
  0
BLOCK
  5
115
330
111
100
AcDbEntity
  8
0
100
AcDbBlockBegin
  2
CDWK_PTTYP34
 70
     0
 10
0.0
 20
0.0
 30
0.0
  3
CDWK_PTTYP34
  1

  0
CIRCLE
  5
112
330
111
100
AcDbEntity
  8
0
  6
Continuous
 62
     0
370
    -2
390
5F
100
AcDbCircle
 10
0.0
 20
0.0
 30
0.0
 40
0.5
  0
LINE
  5
113
330
111
100
AcDbEntity
  8
0
  6
Continuous
 62
     0
370
    -2
390
5F
100
AcDbLine
 10
-0.4
 20
-0.3
 30
0.0
 11
0.3
 21
0.4
 31
0.0
  0
LINE
  5
114
330
111
100
AcDbEntity
  8
0
  6
Continuous
 62
     0
370
    -2
390
5F
100
AcDbLine
 10
-0.3
 20
-0.4
 30
0.0
 11
0.4
 21
0.3
 31
0.0
  0
ENDBLK
  5
116
330
111
100
AcDbEntity
  8
0
100
AcDbBlockEnd
  0
BLOCK
  5
11B
330
117
100
AcDbEntity
  8
0
100
AcDbBlockBegin
  2
CDWK_PTTYP35
 70
     0
 10
0.0
 20
0.0
 30
0.0
  3
CDWK_PTTYP35
  1

  0
LINE
  5
118
330
117
100
AcDbEntity
  8
0
  6
Continuous
 62
     0
370
    -2
390
5F
100
AcDbLine
 10
0.0
 20
0.2
 30
0.0
 11
0.0
 21
0.5
 31
0.0
  0
LINE
  5
119
330
117
100
AcDbEntity
  8
0
  6
Continuous
 62
     0
370
    -2
390
5F
100
AcDbLine
 10
0.0
 20
-0.2
 30
0.0
 11
0.0
 21
-0.5
 31
0.0
  0
CIRCLE
  5
11A
330
117
100
AcDbEntity
  8
0
  6
Continuous
 62
     0
370
    -2
390
5F
100
AcDbCircle
 10
0.0
 20
0.0
 30
0.0
 40
0.2
  0
ENDBLK
  5
11C
330
117
100
AcDbEntity
  8
0
100
AcDbBlockEnd
  0
BLOCK
  5
123
330
11D
100
AcDbEntity
  8
0
100
AcDbBlockBegin
  2
CDWK_PTTYP36
 70
     0
 10
0.0
 20
0.0
 30
0.0
  3
CDWK_PTTYP36
  1

  0
LINE
  5
11E
330
11D
100
AcDbEntity
  8
0
  6
Continuous
 62
     0
370
    -2
390
5F
100
AcDbLine
 10
-0.5
 20
0.2
 30
0.0
 11
0.5
 21
0.2
 31
0.0
  0
LINE
  5
11F
330
11D
100
AcDbEntity
  8
0
  6
Continuous
 62
     0
370
    -2
390
5F
100
AcDbLine
 10
0.5
 20
0.2
 30
0.0
 11
0.5
 21
-0.2
 31
0.0
  0
LINE
  5
120
330
11D
100
AcDbEntity
  8
0
  6
Continuous
 62
     0
370
    -2
390
5F
100
AcDbLine
 10
0.5
 20
-0.2
 30
0.0
 11
-0.5
 21
-0.2
 31
0.0
  0
LINE
  5
121
330
11D
100
AcDbEntity
  8
0
  6
Continuous
 62
     0
370
    -2
390
5F
100
AcDbLine
 10
-0.5
 20
-0.2
 30
0.0
 11
-0.5
 21
0.2
 31
0.0
  0
HATCH
  5
122
330
11D
100
AcDbEntity
  8
0
  6
Continuous
 62
     0
370
    -2
390
5F
100
AcDbHatch
 10
0.0
 20
0.0
 30
0.0
210
0.0
220
0.0
230
1.0
  2
SOLID
 70
     1
 71
     0
 91
        1
 92
        3
 72
     0
 73
     1
 93
        3
 10
-0.5
 20
-0.2
 10
0.5
 20
-0.2
 10
0.5
 20
0.2
 97
        0
 75
     0
 76
     1
 98
        0
  0
ENDBLK
  5
124
330
11D
100
AcDbEntity
  8
0
100
AcDbBlockEnd
  0
BLOCK
  5
128
330
125
100
AcDbEntity
  8
0
100
AcDbBlockBegin
  2
CDWK_PTTYP37
 70
     0
 10
0.0
 20
0.0
 30
0.0
  3
CDWK_PTTYP37
  1

  0
HATCH
  5
126
330
125
100
AcDbEntity
  8
0
  6
Continuous
 62
     0
370
    -2
390
5F
100
AcDbHatch
 10
0.0
 20
0.0
 30
0.0
210
0.0
220
0.0
230
1.0
  2
SOLID
 70
     1
 71
     0
 91
        1
 92
        3
 72
     0
 73
     1
 93
      202
 10
-0.3535533905932738
 20
-0.3535533905932738
 10
-0.3485533905932738
 20
-0.3535533905932737
 10
-0.3435533905932738
 20
-0.3584836591895546
 10
-0.3385533905932738
 20
-0.3632782236961988
 10
-0.3335533905932738
 20
-0.367942389128785
 10
-0.3285533905932738
 20
-0.372481054046687
 10
-0.3235533905932738
 20
-0.3768987523588579
 10
-0.3185533905932738
 20
-0.3811996897107819
 10
-0.3135533905932738
 20
-0.3853877752881235
 10
-0.3085533905932737
 20
-0.3894666497242888
 10
-0.3035533905932737
 20
-0.3934397096803965
 10
-0.2985533905932737
 20
-0.3973101295704999
 10
-0.2935533905932737
 20
-0.4010808808273714
 10
-0.2885533905932737
 20
-0.4047547490409382
 10
-0.2835533905932737
 20
-0.4083343492496384
 10
-0.2785533905932737
 20
-0.4118221396222626
 10
-0.2735533905932737
 20
-0.4152204337324827
 10
-0.2685533905932737
 20
-0.4185314115988474
 10
-0.2635533905932737
 20
-0.4217571296384408
 10
-0.2585533905932737
 20
-0.4248995296617653
 10
-0.2535533905932737
 20
-0.4279604470190231
 10
-0.2485533905932737
 20
-0.4309416179932669
 10
-0.2435533905932737
 20
-0.4338446865234004
 10
-0.2385533905932737
 20
-0.4366712103293738
 10
-0.2335533905932737
 20
-0.439422666502825
 10
-0.2285533905932737
 20
-0.4421004566186126
 10
-0.2235533905932737
 20
-0.4447059114159811
 10
-0.2185533905932737
 20
-0.4472402950923041
 10
-0.2135533905932737
 20
-0.4497048092473372
 10
-0.2085533905932737
 20
-0.4521005965115692
 10
-0.2035533905932737
 20
-0.4544287438884664
 10
-0.1985533905932736
 20
-0.456690285837111
 10
-0.1935533905932736
 20
-0.45888620711884
 10
-0.1885533905932736
 20
-0.4610174454289638
 10
-0.1835533905932736
 20
-0.4630848938324164
 10
-0.1785533905932736
 20
-0.4650894030202291
 10
-0.1735533905932736
 20
-0.4670317834019928
 10
-0.1685533905932736
 20
-0.46891280704794
 10
-0.1635533905932736
 20
-0.4707332094929264
 10
-0.1585533905932736
 20
-0.4724936914133818
 10
-0.1535533905932736
 20
-0.4741949201872336
 10
-0.1485533905932736
 20
-0.4758375313458466
 10
-0.1435533905932736
 20
-0.4774221299261716
 10
-0.1385533905932736
 20
-0.4789492917305286
 10
-0.1335533905932736
 20
-0.4804195645007682
 10
-0.1285533905932736
 20
-0.4818334690129366
 10
-0.1235533905932736
 20
-0.4831915000980183
 10
-0.1185533905932736
 20
-0.4844941275938295
 10
-0.1135533905932736
 20
-0.4857417972326848
 10
-0.1085533905932736
 20
-0.4869349314690531
 10
-0.1035533905932736
 20
-0.4880739302510473
 10
-0.0985533905932736
 20
-0.489159171739258
 10
-0.0935533905932736
 20
-0.4901910129761353
 10
-0.0885533905932736
 20
-0.4911697905088447
 10
-0.0835533905932735
 20
-0.4920958209682695
 10
-0.0785533905932735
 20
-0.4929694016065986
 10
-0.0735533905932735
 20
-0.4937908107957261
 10
-0.0685533905932735
 20
-0.494560308488493
 10
-0.0635533905932735
 20
-0.4952781366446192
 10
-0.0585533905932735
 20
-0.4959445196230107
 10
-0.0535533905932735
 20
-0.4965596645419678
 10
-0.0485533905932735
 20
-0.4971237616086806
 10
-0.0435533905932735
 20
-0.4976369844192622
 10
-0.0385533905932735
 20
-0.4980994902304456
 10
-0.0335533905932735
 20
-0.4985114202039533
 10
-0.0285533905932735
 20
-0.4988728996244386
 10
-0.0235533905932735
 20
-0.4991840380917923
 10
-0.0185533905932735
 20
-0.49944492968851
 10
-0.0135533905932735
 20
-0.4996556531227215
 10
-0.0085533905932735
 20
-0.4998162718473921
 10
-0.0035533905932735
 20
-0.4999268341561182
 10
0.0014466094067265
 20
-0.499987373255857
 10
0.0064466094067265
 20
-0.4999979073168451
 10
0.0114466094067265
 20
-0.4999584394998819
 10
0.0164466094067265
 20
-0.4998689579610739
 10
0.0214466094067265
 20
-0.4997294358340547
 10
0.0264466094067265
 20
-0.4995398311896213
 10
0.0314466094067265
 20
-0.4993000869726422
 10
0.0364466094067265
 20
-0.4990101309160174
 10
0.0414466094067265
 20
-0.4986698754313855
 10
0.0464466094067265
 20
-0.498279217476192
 10
0.0514466094067265
 20
-0.4978380383966446
 10
0.0564466094067265
 20
-0.497346203745994
 10
0.0614466094067265
 20
-0.4968035630774849
 10
0.0664466094067264
 20
-0.4962099497112257
 10
0.0714466094067265
 20
-0.4955651804741228
 10
0.0764466094067265
 20
-0.4948690554119167
 10
0.0814466094067265
 20
-0.4941213574722463
 10
0.0864466094067265
 20
-0.4933218521575424
 10
0.0914466094067265
 20
-0.4924702871464235
 10
0.0964466094067265
 20
-0.4915663918821278
 10
0.1014466094067265
 20
-0.4906098771263643
 10
0.1064466094067265
 20
-0.4896004344768079
 10
0.1114466094067265
 20
-0.4885377358462822
 10
0.1164466094067265
 20
-0.4874214329014929
 10
0.1214466094067265
 20
-0.4862511564589613
 10
0.1264466094067265
 20
-0.4850265158355881
 10
0.1314466094067265
 20
-0.4837470981510305
 10
0.1364466094067265
 20
-0.482412467578809
 10
0.1414466094067265
 20
-0.4810221645427664
 10
0.1464466094067265
 20
-0.4795757048551781
 10
0.1514466094067265
 20
-0.4780725787924608
 10
0.1564466094067265
 20
-0.4765122501040308
 10
0.1614466094067265
 20
-0.4748941549494363
 10
0.1664466094067265
 20
-0.4732177007584056
 10
0.1714466094067265
 20
-0.4714822650079264
 10
0.1764466094067265
 20
-0.4696871939098801
 10
0.1814466094067266
 20
-0.4678318010021017
 10
0.1864466094067266
 20
-0.4659153656350076
 10
0.1914466094067266
 20
-0.4639371313451162
 10
0.1964466094067266
 20
-0.4618963041058764
 10
0.2014466094067266
 20
-0.4597920504451997
 10
0.2064466094067266
 20
-0.4576234954179405
 10
0.2114466094067266
 20
-0.4553897204202862
 10
0.2164466094067266
 20
-0.4530897608315588
 10
0.2214466094067266
 20
-0.45072260346729
 10
0.2264466094067266
 20
-0.4482871838255748
 10
0.2314466094067266
 20
-0.4457823831065977
 10
0.2364466094067266
 20
-0.4432070249828292
 10
0.2414466094067266
 20
-0.4405598720946596
 10
0.2464466094067266
 20
-0.4378396222431172
 10
0.2514466094067266
 20
-0.4350449042477435
 10
0.2564466094067266
 20
-0.4321742734336012
 10
0.2614466094067266
 20
-0.4292262067066663
 10
0.2664466094067266
 20
-0.4261990971714118
 10
0.2714466094067266
 20
-0.4230912482380831
 10
0.2764466094067266
 20
-0.4199008671598476
 10
0.2814466094067266
 20
-0.4166260579314797
 10
0.2864466094067266
 20
-0.4132648134712868
 10
0.2914466094067266
 20
-0.4098150069963156
 10
0.2964466094067266
 20
-0.4062743824871597
 10
0.3014466094067266
 20
-0.4026405441224911
 10
0.3064466094067266
 20
-0.3989109445442534
 10
0.3114466094067266
 20
-0.3950828717916294
 10
0.3164466094067266
 20
-0.391153434714632
 10
0.3214466094067266
 20
-0.3871195466454601
 10
0.3264466094067267
 20
-0.3829779070663467
 10
0.3314466094067267
 20
-0.3787249809648844
 10
0.3364466094067267
 20
-0.3743569755097196
 10
0.3414466094067267
 20
-0.3698698136084067
 10
0.3464466094067267
 20
-0.3652591038217257
 10
0.3514466094067267
 20
-0.3605201060004601
 10
0.3564466094067267
 20
-0.3556476918757041
 10
0.3614466094067267
 20
-0.3506362996645505
 10
0.3664466094067267
 20
-0.34547988153926
 10
0.3714466094067267
 20
-0.3401718425359658
 10
0.3764466094067267
 20
-0.334704969129899
 10
0.3814466094067267
 20
-0.3290713452523318
 10
0.3864466094067267
 20
-0.3232622529342269
 10
0.3914466094067267
 20
-0.3172680539828188
 10
0.3964466094067267
 20
-0.3110780480586465
 10
0.4014466094067267
 20
-0.304680301118911
 10
0.4064466094067267
 20
-0.2980614362775617
 10
0.4114466094067267
 20
-0.291206376478565
 10
0.4164466094067267
 20
-0.2840980246459106
 10
0.4214466094067267
 20
-0.276716861635935
 10
0.4264466094067267
 20
-0.2690404345439063
 10
0.4314466094067267
 20
-0.2610426963649944
 10
0.4364466094067267
 20
-0.2526931404518915
 10
0.4414466094067268
 20
-0.2439556458403291
 10
0.4464466094067268
 20
-0.2347869056044327
 10
0.4514466094067268
 20
-0.2251342376211081
 10
0.4564466094067268
 20
-0.2149324518428296
 10
0.4614466094067268
 20
-0.2040992228331676
 10
0.4664466094067268
 20
-0.1925279893081412
 10
0.4714466094067268
 20
-0.1800765408735088
 10
0.4764466094067268
 20
-0.1665475742210051
 10
0.4814466094067268
 20
-0.1516529867323223
 10
0.4864466094067268
 20
-0.1349413290684758
 10
0.4914466094067268
 20
-0.1156274024472547
 10
0.4964466094067268
 20
-0.0920881648347501
 10
0.5
 20
0.0
 10
0.495
 20
0.0
 10
0.49
 20
0.0705336798983295
 10
0.485
 20
0.0994987437106621
 10
0.48
 20
0.1215524578114322
 10
0.475
 20
0.14
 10
0.47
 20
0.15612494995996
 10
0.465
 20
0.1705872210923199
 10
0.46
 20
0.1837797594948911
 10
0.455
 20
0.1959591794226544
 10
0.45
 20
0.2073041244162789
 10
0.445
 20
0.2179449471770338
 10
0.4399999999999999
 20
0.2279802623035601
 10
0.4349999999999999
 20
0.2374868417407584
 10
0.4299999999999999
 20
0.2465258607124211
 10
0.4249999999999999
 20
0.2551470164434615
 10
0.4199999999999999
 20
0.2633913438213186
 10
0.4149999999999999
 20
0.2712931993250108
 10
0.4099999999999999
 20
0.2788816953476869
 10
0.4049999999999999
 20
0.2861817604250838
 10
0.3999999999999999
 20
0.2932149382279151
 10
0.3949999999999999
 20
0.3000000000000002
 10
0.3899999999999999
 20
0.3065534211193868
 10
0.3849999999999999
 20
0.3128897569432404
 10
0.3799999999999999
 20
0.3190219428189855
 10
0.3749999999999999
 20
0.3249615361854385
 10
0.3699999999999999
 20
0.330718913883074
 10
0.3649999999999999
 20
0.3363034344160049
 10
0.3599999999999999
 20
0.3417235724968357
 10
0.3549999999999999
 20
0.3469870314579496
 10
0.3535533905932738
 20
0.3535533905932738
 97
        0
 75
     0
 76
     1
 98
        0
  0
CIRCLE
  5
127
330
125
100
AcDbEntity
  8
0
  6
Continuous
 62
     0
370
    -2
390
5F
100
AcDbCircle
 10
0.0
 20
0.0
 30
0.0
 40
0.5
  0
ENDBLK
  5
129
330
125
100
AcDbEntity
  8
0
100
AcDbBlockEnd
  0
BLOCK
  5
12E
330
12A
100
AcDbEntity
  8
0
100
AcDbBlockBegin
  2
CDWK_PTTYP38
 70
     0
 10
0.0
 20
0.0
 30
0.0
  3
CDWK_PTTYP38
  1

  0
HATCH
  5
12B
330
12A
100
AcDbEntity
  8
0
  6
Continuous
 62
     0
370
    -2
390
5F
100
AcDbHatch
 10
0.0
 20
0.0
 30
0.0
210
0.0
220
0.0
230
1.0
  2
SOLID
 70
     1
 71
     0
 91
        1
 92
        3
 72
     0
 73
     1
 93
      102
 10
0.0
 20
0.0
 10
0.0
 20
0.5
 10
0.005
 20
0.5
 10
0.01
 20
0.4999749993749688
 10
0.015
 20
0.4998999899979995
 10
0.02
 20
0.4997749493522059
 10
0.025
 20
0.4995998398718718
 10
0.03
 20
0.4993746088859545
 10
0.035
 20
0.4990991885387112
 10
0.04
 20
0.4987734956871706
 10
0.045
 20
0.4983974317750845
 10
0.05
 20
0.4979708826829135
 10
0.055
 20
0.49749371855331
 10
0.06
 20
0.4969657935914704
 10
0.065
 20
0.4963869458396343
 10
0.07
 20
0.4957569969249047
 10
0.075
 20
0.4950757517794626
 10
0.08
 20
0.4943429983321297
 10
0.085
 20
0.4935585071701227
 10
0.09
 20
0.4927220311697053
 10
0.095
 20
0.4918333050943175
 10
0.1
 20
0.4908920451586071
 10
0.105
 20
0.4898979485566356
 10
0.11
 20
0.4888506929523574
 10
0.115
 20
0.4877499359302879
 10
0.12
 20
0.4865953144040744
 10
0.125
 20
0.4853864439804639
 10
0.13
 20
0.4841229182759271
 10
0.135
 20
0.4828043081829325
 10
0.14
 20
0.4814301610825811
 10
0.145
 20
0.48
 10
0.15
 20
0.478513322698543
 10
0.1550000000000001
 20
0.4769696007084728
 10
0.1600000000000001
 20
0.4753682782853731
 10
0.1650000000000001
 20
0.4737087712930804
 10
0.1700000000000001
 20
0.4719904660054056
 10
0.1750000000000001
 20
0.4702127178203498
 10
0.1800000000000001
 20
0.4683748498798799
 10
0.1850000000000001
 20
0.466476151587624
 10
0.1900000000000001
 20
0.4645158770160606
 10
0.1950000000000001
 20
0.4624932431938871
 10
0.2000000000000001
 20
0.460407428263272
 10
0.2050000000000001
 20
0.4582575694955839
 10
0.2100000000000001
 20
0.4560427611529427
 10
0.2150000000000001
 20
0.4537620521815371
 10
0.2200000000000001
 20
0.4514144437210665
 10
0.2250000000000001
 20
0.4489988864128729
 10
0.2300000000000001
 20
0.4465142774872937
 10
0.2350000000000001
 20
0.4439594576084622
 10
0.2400000000000001
 20
0.4413332074521472
 10
0.2450000000000001
 20
0.4386342439892261
 10
0.2500000000000001
 20
0.4358612164439502
 10
0.2550000000000001
 20
0.4330127018922192
 10
0.2600000000000001
 20
0.4300872004605577
 10
0.2650000000000001
 20
0.4270831300812524
 10
0.2700000000000001
 20
0.423998820753077
 10
0.2750000000000001
 20
0.4208325082500162
 10
0.2800000000000001
 20
0.4175823272122516
 10
0.2850000000000001
 20
0.4142463035441595
 10
0.2900000000000001
 20
0.4108223460329293
 10
0.2950000000000002
 20
0.4073082370883259
 10
0.3000000000000002
 20
0.403701622488689
 10
0.3050000000000002
 20
0.3999999999999999
 10
0.3100000000000002
 20
0.3962007067131506
 10
0.3150000000000002
 20
0.3923009049186605
 10
0.3200000000000002
 20
0.3882975663070783
 10
0.3250000000000002
 20
0.3841874542459708
 10
0.3300000000000002
 20
0.3799671038392664
 10
0.3350000000000002
 20
0.3756327994198588
 10
0.3400000000000002
 20
0.3711805490593491
 10
0.3450000000000002
 20
0.366606055596467
 10
0.3500000000000002
 20
0.3619046835839512
 10
0.3550000000000002
 20
0.3570714214271423
 10
0.3600000000000002
 20
0.3521008378291649
 10
0.3650000000000002
 20
0.3469870314579492
 10
0.3700000000000002
 20
0.3417235724968353
 10
0.3750000000000002
 20
0.3363034344160045
 10
0.3800000000000002
 20
0.3307189138830736
 10
0.3850000000000002
 20
0.3249615361854382
 10
0.3900000000000002
 20
0.3190219428189851
 10
0.3950000000000002
 20
0.31288975694324
 10
0.4000000000000002
 20
0.3065534211193863
 10
0.4050000000000002
 20
0.2999999999999997
 10
0.4100000000000003
 20
0.2932149382279147
 10
0.4150000000000003
 20
0.2861817604250834
 10
0.4200000000000003
 20
0.2788816953476864
 10
0.4250000000000003
 20
0.2712931993250103
 10
0.4300000000000003
 20
0.263391343821318
 10
0.4350000000000003
 20
0.255147016443461
 10
0.4400000000000003
 20
0.2465258607124206
 10
0.4450000000000003
 20
0.2374868417407578
 10
0.4500000000000003
 20
0.2279802623035594
 10
0.4550000000000003
 20
0.2179449471770331
 10
0.4600000000000003
 20
0.2073041244162782
 10
0.4650000000000003
 20
0.1959591794226536
 10
0.4700000000000003
 20
0.1837797594948903
 10
0.4750000000000003
 20
0.170587221092319
 10
0.4800000000000003
 20
0.156124949959959
 10
0.4850000000000003
 20
0.1399999999999989
 10
0.4900000000000003
 20
0.1215524578114309
 10
0.4950000000000003
 20
0.0994987437106604
 10
0.5
 20
0.0
 97
        0
 75
     0
 76
     1
 98
        0
  0
HATCH
  5
12C
330
12A
100
AcDbEntity
  8
0
  6
Continuous
 62
     0
370
    -2
390
5F
100
AcDbHatch
 10
0.0
 20
0.0
 30
0.0
210
0.0
220
0.0
230
1.0
  2
SOLID
 70
     1
 71
     0
 91
        1
 92
        3
 72
     0
 73
     1
 93
      102
 10
0.0
 20
0.0
 10
-0.5
 20
0.0
 10
-0.495
 20
0.0
 10
-0.49
 20
-0.0705336798983295
 10
-0.485
 20
-0.0994987437106621
 10
-0.48
 20
-0.1215524578114322
 10
-0.475
 20
-0.14
 10
-0.47
 20
-0.15612494995996
 10
-0.465
 20
-0.1705872210923199
 10
-0.46
 20
-0.1837797594948911
 10
-0.455
 20
-0.1959591794226544
 10
-0.45
 20
-0.2073041244162789
 10
-0.445
 20
-0.2179449471770338
 10
-0.4399999999999999
 20
-0.2279802623035601
 10
-0.4349999999999999
 20
-0.2374868417407584
 10
-0.4299999999999999
 20
-0.2465258607124211
 10
-0.4249999999999999
 20
-0.2551470164434615
 10
-0.4199999999999999
 20
-0.2633913438213186
 10
-0.4149999999999999
 20
-0.2712931993250108
 10
-0.4099999999999999
 20
-0.2788816953476869
 10
-0.4049999999999999
 20
-0.2861817604250838
 10
-0.3999999999999999
 20
-0.2932149382279151
 10
-0.3949999999999999
 20
-0.3000000000000002
 10
-0.3899999999999999
 20
-0.3065534211193868
 10
-0.3849999999999999
 20
-0.3128897569432404
 10
-0.3799999999999999
 20
-0.3190219428189855
 10
-0.3749999999999999
 20
-0.3249615361854385
 10
-0.3699999999999999
 20
-0.330718913883074
 10
-0.3649999999999999
 20
-0.3363034344160049
 10
-0.3599999999999999
 20
-0.3417235724968357
 10
-0.3549999999999999
 20
-0.3469870314579496
 10
-0.3499999999999999
 20
-0.3521008378291652
 10
-0.3449999999999999
 20
-0.3570714214271427
 10
-0.3399999999999999
 20
-0.3619046835839516
 10
-0.3349999999999999
 20
-0.3666060555964674
 10
-0.3299999999999998
 20
-0.3711805490593494
 10
-0.3249999999999998
 20
-0.3756327994198591
 10
-0.3199999999999998
 20
-0.3799671038392667
 10
-0.3149999999999998
 20
-0.3841874542459711
 10
-0.3099999999999998
 20
-0.3882975663070786
 10
-0.3049999999999998
 20
-0.3923009049186608
 10
-0.2999999999999998
 20
-0.3962007067131507
 10
-0.2949999999999998
 20
-0.4000000000000001
 10
-0.2899999999999998
 20
-0.4037016224886891
 10
-0.2849999999999998
 20
-0.4073082370883261
 10
-0.2799999999999998
 20
-0.4108223460329296
 10
-0.2749999999999998
 20
-0.4142463035441597
 10
-0.2699999999999998
 20
-0.4175823272122518
 10
-0.2649999999999998
 20
-0.4208325082500164
 10
-0.2599999999999998
 20
-0.4239988207530773
 10
-0.2549999999999998
 20
-0.4270831300812526
 10
-0.2499999999999998
 20
-0.4300872004605579
 10
-0.2449999999999998
 20
-0.4330127018922195
 10
-0.2399999999999998
 20
-0.4358612164439503
 10
-0.2349999999999998
 20
-0.4386342439892263
 10
-0.2299999999999998
 20
-0.4413332074521473
 10
-0.2249999999999998
 20
-0.4439594576084624
 10
-0.2199999999999998
 20
-0.4465142774872939
 10
-0.2149999999999997
 20
-0.4489988864128731
 10
-0.2099999999999997
 20
-0.4514144437210667
 10
-0.2049999999999997
 20
-0.4537620521815372
 10
-0.1999999999999997
 20
-0.4560427611529429
 10
-0.1949999999999997
 20
-0.4582575694955841
 10
-0.1899999999999997
 20
-0.4604074282632722
 10
-0.1849999999999997
 20
-0.4624932431938872
 10
-0.1799999999999997
 20
-0.4645158770160608
 10
-0.1749999999999997
 20
-0.4664761515876241
 10
-0.1699999999999997
 20
-0.46837484987988
 10
-0.1649999999999997
 20
-0.47021271782035
 10
-0.1599999999999997
 20
-0.4719904660054058
 10
-0.1549999999999997
 20
-0.4737087712930805
 10
-0.1499999999999997
 20
-0.4753682782853733
 10
-0.1449999999999997
 20
-0.4769696007084729
 10
-0.1399999999999997
 20
-0.4785133226985431
 10
-0.1349999999999997
 20
-0.4800000000000001
 10
-0.1299999999999997
 20
-0.4814301610825812
 10
-0.1249999999999997
 20
-0.4828043081829325
 10
-0.1199999999999997
 20
-0.4841229182759272
 10
-0.1149999999999997
 20
-0.485386443980464
 10
-0.1099999999999997
 20
-0.4865953144040744
 10
-0.1049999999999996
 20
-0.487749935930288
 10
-0.0999999999999996
 20
-0.4888506929523574
 10
-0.0949999999999996
 20
-0.4898979485566357
 10
-0.0899999999999996
 20
-0.4908920451586072
 10
-0.0849999999999996
 20
-0.4918333050943176
 10
-0.0799999999999996
 20
-0.4927220311697053
 10
-0.0749999999999996
 20
-0.4935585071701227
 10
-0.0699999999999996
 20
-0.4943429983321298
 10
-0.0649999999999996
 20
-0.4950757517794626
 10
-0.0599999999999996
 20
-0.4957569969249048
 10
-0.0549999999999996
 20
-0.4963869458396343
 10
-0.0499999999999996
 20
-0.4969657935914705
 10
-0.0449999999999996
 20
-0.49749371855331
 10
-0.0399999999999996
 20
-0.4979708826829135
 10
-0.0349999999999996
 20
-0.4983974317750846
 10
-0.0299999999999996
 20
-0.4987734956871706
 10
-0.0249999999999996
 20
-0.4990991885387112
 10
-0.0199999999999996
 20
-0.4993746088859545
 10
-0.0149999999999996
 20
-0.4995998398718719
 10
-0.0099999999999996
 20
-0.499774949352206
 10
-0.0049999999999996
 20
-0.4998999899979995
 10
0.0
 20
-0.5
 97
        0
 75
     0
 76
     1
 98
        0
  0
CIRCLE
  5
12D
330
12A
100
AcDbEntity
  8
0
  6
Continuous
 62
     0
370
    -2
390
5F
100
AcDbCircle
 10
0.0
 20
0.0
 30
0.0
 40
0.5
  0
ENDBLK
  5
12F
330
12A
100
AcDbEntity
  8
0
100
AcDbBlockEnd
  0
BLOCK
  5
138
330
130
100
AcDbEntity
  8
0
100
AcDbBlockBegin
  2
CDWK_PTTYP41
 70
     0
 10
0.0
 20
0.0
 30
0.0
  3
CDWK_PTTYP41
  1

  0
LINE
  5
131
330
130
100
AcDbEntity
  8
0
  6
Continuous
 62
     0
370
    -2
390
5F
100
AcDbLine
 10
-0.5
 20
0.5
 30
0.0
 11
0.5
 21
0.5
 31
0.0
  0
LINE
  5
132
330
130
100
AcDbEntity
  8
0
  6
Continuous
 62
     0
370
    -2
390
5F
100
AcDbLine
 10
0.5
 20
0.5
 30
0.0
 11
0.5
 21
-0.5
 31
0.0
  0
LINE
  5
133
330
130
100
AcDbEntity
  8
0
  6
Continuous
 62
     0
370
    -2
390
5F
100
AcDbLine
 10
0.5
 20
-0.5
 30
0.0
 11
-0.5
 21
-0.5
 31
0.0
  0
LINE
  5
134
330
130
100
AcDbEntity
  8
0
  6
Continuous
 62
     0
370
    -2
390
5F
100
AcDbLine
 10
-0.5
 20
-0.5
 30
0.0
 11
-0.5
 21
0.5
 31
0.0
  0
LINE
  5
135
330
130
100
AcDbEntity
  8
0
  6
Continuous
 62
     0
370
    -2
390
5F
100
AcDbLine
 10
-0.375
 20
0.25
 30
0.0
 11
0.375
 21
0.25
 31
0.0
  0
LINE
  5
136
330
130
100
AcDbEntity
  8
0
  6
Continuous
 62
     0
370
    -2
390
5F
100
AcDbLine
 10
-0.375
 20
0.0
 30
0.0
 11
0.375
 21
0.0
 31
0.0
  0
LINE
  5
137
330
130
100
AcDbEntity
  8
0
  6
Continuous
 62
     0
370
    -2
390
5F
100
AcDbLine
 10
-0.375
 20
-0.25
 30
0.0
 11
0.375
 21
-0.25
 31
0.0
  0
ENDBLK
  5
139
330
130
100
AcDbEntity
  8
0
100
AcDbBlockEnd
  0
BLOCK
  5
141
330
13A
100
AcDbEntity
  8
0
100
AcDbBlockBegin
  2
CDWK_PTTYP42
 70
     0
 10
0.0
 20
0.0
 30
0.0
  3
CDWK_PTTYP42
  1

  0
LINE
  5
13B
330
13A
100
AcDbEntity
  8
0
  6
Continuous
 62
     0
370
    -2
390
5F
100
AcDbLine
 10
-0.5
 20
0.5
 30
0.0
 11
0.5
 21
0.5
 31
0.0
  0
LINE
  5
13C
330
13A
100
AcDbEntity
  8
0
  6
Continuous
 62
     0
370
    -2
390
5F
100
AcDbLine
 10
0.5
 20
0.5
 30
0.0
 11
0.5
 21
-0.5
 31
0.0
  0
LINE
  5
13D
330
13A
100
AcDbEntity
  8
0
  6
Continuous
 62
     0
370
    -2
390
5F
100
AcDbLine
 10
0.5
 20
-0.5
 30
0.0
 11
-0.5
 21
-0.5
 31
0.0
  0
LINE
  5
13E
330
13A
100
AcDbEntity
  8
0
  6
Continuous
 62
     0
370
    -2
390
5F
100
AcDbLine
 10
-0.5
 20
-0.5
 30
0.0
 11
-0.5
 21
0.5
 31
0.0
  0
LINE
  5
13F
330
13A
100
AcDbEntity
  8
0
  6
Continuous
 62
     0
370
    -2
390
5F
100
AcDbLine
 10
-0.375
 20
0.125
 30
0.0
 11
0.375
 21
0.125
 31
0.0
  0
LINE
  5
140
330
13A
100
AcDbEntity
  8
0
  6
Continuous
 62
     0
370
    -2
390
5F
100
AcDbLine
 10
-0.375
 20
-0.125
 30
0.0
 11
0.375
 21
-0.125
 31
0.0
  0
ENDBLK
  5
142
330
13A
100
AcDbEntity
  8
0
100
AcDbBlockEnd
  0
BLOCK
  5
147
330
143
100
AcDbEntity
  8
0
100
AcDbBlockBegin
  2
CDWK_PTTYP43
 70
     0
 10
0.0
 20
0.0
 30
0.0
  3
CDWK_PTTYP43
  1

  0
CIRCLE
  5
144
330
143
100
AcDbEntity
  8
0
  6
Continuous
 62
     0
370
    -2
390
5F
100
AcDbCircle
 10
0.0
 20
0.0
 30
0.0
 40
0.5
  0
LINE
  5
145
330
143
100
AcDbEntity
  8
0
  6
Continuous
 62
     0
370
    -2
390
5F
100
AcDbLine
 10
-0.375
 20
0.166
 30
0.0
 11
0.375
 21
0.166
 31
0.0
  0
LINE
  5
146
330
143
100
AcDbEntity
  8
0
  6
Continuous
 62
     0
370
    -2
390
5F
100
AcDbLine
 10
-0.375
 20
-0.166
 30
0.0
 11
0.375
 21
-0.166
 31
0.0
  0
ENDBLK
  5
148
330
143
100
AcDbEntity
  8
0
100
AcDbBlockEnd
  0
BLOCK
  5
150
330
149
100
AcDbEntity
  8
0
100
AcDbBlockBegin
  2
CDWK_PTTYP44
 70
     0
 10
0.0
 20
0.0
 30
0.0
  3
CDWK_PTTYP44
  1

  0
CIRCLE
  5
14A
330
149
100
AcDbEntity
  8
0
  6
Continuous
 62
     0
370
    -2
390
5F
100
AcDbCircle
 10
0.0
 20
0.0
 30
0.0
 40
0.5
  0
LINE
  5
14B
330
149
100
AcDbEntity
  8
0
  6
Continuous
 62
     0
370
    -2
390
5F
100
AcDbLine
 10
-0.375
 20
0.333
 30
0.0
 11
0.375
 21
0.333
 31
0.0
  0
LINE
  5
14C
330
149
100
AcDbEntity
  8
0
  6
Continuous
 62
     0
370
    -2
390
5F
100
AcDbLine
 10
-0.375
 20
0.166
 30
0.0
 11
0.375
 21
0.166
 31
0.0
  0
LINE
  5
14D
330
149
100
AcDbEntity
  8
0
  6
Continuous
 62
     0
370
    -2
390
5F
100
AcDbLine
 10
-0.375
 20
0.0
 30
0.0
 11
0.375
 21
0.0
 31
0.0
  0
LINE
  5
14E
330
149
100
AcDbEntity
  8
0
  6
Continuous
 62
     0
370
    -2
390
5F
100
AcDbLine
 10
-0.375
 20
-0.166
 30
0.0
 11
0.375
 21
-0.166
 31
0.0
  0
LINE
  5
14F
330
149
100
AcDbEntity
  8
0
  6
Continuous
 62
     0
370
    -2
390
5F
100
AcDbLine
 10
-0.375
 20
-0.333
 30
0.0
 11
0.375
 21
-0.333
 31
0.0
  0
ENDBLK
  5
151
330
149
100
AcDbEntity
  8
0
100
AcDbBlockEnd
  0
BLOCK
  5
155
330
152
100
AcDbEntity
  8
0
100
AcDbBlockBegin
  2
CDWK_PTTYP45
 70
     0
 10
0.0
 20
0.0
 30
0.0
  3
CDWK_PTTYP45
  1

  0
ELLIPSE
  5
153
330
152
100
AcDbEntity
  8
0
  6
Continuous
 62
     0
370
    -2
390
5F
100
AcDbEllipse
 10
0.0
 20
0.0
 30
0.0
 11
0.5
 21
0.0
 31
0.0
210
0.0
220
0.0
230
1.0
 40
0.82
 41
0.0
 42
6.283185307179586
  0
CIRCLE
  5
154
330
152
100
AcDbEntity
  8
0
  6
Continuous
 62
     0
370
    -2
390
5F
100
AcDbCircle
 10
-0.235
 20
0.0
 30
0.0
 40
0.26
  0
ENDBLK
  5
156
330
152
100
AcDbEntity
  8
0
100
AcDbBlockEnd
  0
BLOCK
  5
15A
330
157
100
AcDbEntity
  8
0
100
AcDbBlockBegin
  2
CDWK_PTTYP46
 70
     0
 10
0.0
 20
0.0
 30
0.0
  3
CDWK_PTTYP46
  1

  0
ELLIPSE
  5
158
330
157
100
AcDbEntity
  8
0
  6
Continuous
 62
     0
370
    -2
390
5F
100
AcDbEllipse
 10
0.0
 20
0.0
 30
0.0
 11
0.5
 21
0.0
 31
0.0
210
0.0
220
0.0
230
1.0
 40
0.82
 41
0.0
 42
6.283185307179586
  0
CIRCLE
  5
159
330
157
100
AcDbEntity
  8
0
  6
Continuous
 62
     0
370
    -2
390
5F
100
AcDbCircle
 10
0.0
 20
0.15
 30
0.0
 40
0.26
  0
ENDBLK
  5
15B
330
157
100
AcDbEntity
  8
0
100
AcDbBlockEnd
  0
BLOCK
  5
162
330
15C
100
AcDbEntity
  8
0
100
AcDbBlockBegin
  2
CDWK_PTTYP47
 70
     0
 10
0.0
 20
0.0
 30
0.0
  3
CDWK_PTTYP47
  1

  0
LINE
  5
15D
330
15C
100
AcDbEntity
  8
0
  6
Continuous
 62
     0
370
    -2
390
5F
100
AcDbLine
 10
-0.5
 20
0.166
 30
0.0
 11
0.5
 21
0.166
 31
0.0
  0
LINE
  5
15E
330
15C
100
AcDbEntity
  8
0
  6
Continuous
 62
     0
370
    -2
390
5F
100
AcDbLine
 10
0.5
 20
0.166
 30
0.0
 11
0.5
 21
-0.166
 31
0.0
  0
LINE
  5
15F
330
15C
100
AcDbEntity
  8
0
  6
Continuous
 62
     0
370
    -2
390
5F
100
AcDbLine
 10
0.5
 20
-0.166
 30
0.0
 11
-0.5
 21
-0.166
 31
0.0
  0
LINE
  5
160
330
15C
100
AcDbEntity
  8
0
  6
Continuous
 62
     0
370
    -2
390
5F
100
AcDbLine
 10
-0.5
 20
-0.166
 30
0.0
 11
-0.5
 21
0.166
 31
0.0
  0
CIRCLE
  5
161
330
15C
100
AcDbEntity
  8
0
  6
Continuous
 62
     0
370
    -2
390
5F
100
AcDbCircle
 10
0.0
 20
-0.313
 30
0.0
 40
0.4
  0
ENDBLK
  5
163
330
15C
100
AcDbEntity
  8
0
100
AcDbBlockEnd
  0
BLOCK
  5
168
330
165
100
AcDbEntity
  8
0
100
AcDbBlockBegin
  2
CDWK_PTTYP48
 70
     0
 10
0.0
 20
0.0
 30
0.0
  3
CDWK_PTTYP48
  1

  0
CIRCLE
  5
166
330
165
100
AcDbEntity
  8
0
  6
CADWORK_3
 62
     0
 48
0.1
370
    -2
390
5F
100
AcDbCircle
 10
0.0
 20
0.0
 30
0.0
 40
0.5
  0
CIRCLE
  5
167
330
165
100
AcDbEntity
  8
0
  6
Continuous
 62
     0
370
    -2
390
5F
100
AcDbCircle
 10
0.0
 20
0.0
 30
0.0
 40
0.25
  0
ENDBLK
  5
169
330
165
100
AcDbEntity
  8
0
100
AcDbBlockEnd
  0
BLOCK
  5
16F
330
16A
100
AcDbEntity
  8
0
100
AcDbBlockBegin
  2
CDWK_PTTYP49
 70
     0
 10
0.0
 20
0.0
 30
0.0
  3
CDWK_PTTYP49
  1

  0
LINE
  5
16B
330
16A
100
AcDbEntity
  8
0
  6
Continuous
 62
     0
370
    -2
390
5F
100
AcDbLine
 10
-0.5
 20
0.166
 30
0.0
 11
0.5
 21
0.166
 31
0.0
  0
LINE
  5
16C
330
16A
100
AcDbEntity
  8
0
  6
Continuous
 62
     0
370
    -2
390
5F
100
AcDbLine
 10
0.5
 20
0.166
 30
0.0
 11
0.5
 21
-0.166
 31
0.0
  0
LINE
  5
16D
330
16A
100
AcDbEntity
  8
0
  6
Continuous
 62
     0
370
    -2
390
5F
100
AcDbLine
 10
0.5
 20
-0.166
 30
0.0
 11
-0.5
 21
-0.166
 31
0.0
  0
LINE
  5
16E
330
16A
100
AcDbEntity
  8
0
  6
Continuous
 62
     0
370
    -2
390
5F
100
AcDbLine
 10
-0.5
 20
-0.166
 30
0.0
 11
-0.5
 21
0.166
 31
0.0
  0
ENDBLK
  5
170
330
16A
100
AcDbEntity
  8
0
100
AcDbBlockEnd
  0
BLOCK
  5
179
330
171
100
AcDbEntity
  8
0
100
AcDbBlockBegin
  2
CDWK_PTTYP50
 70
     0
 10
0.0
 20
0.0
 30
0.0
  3
CDWK_PTTYP50
  1

  0
LINE
  5
172
330
171
100
AcDbEntity
  8
0
  6
Continuous
 62
     0
370
    -2
390
5F
100
AcDbLine
 10
-0.5
 20
0.166
 30
0.0
 11
0.5
 21
0.166
 31
0.0
  0
LINE
  5
173
330
171
100
AcDbEntity
  8
0
  6
Continuous
 62
     0
370
    -2
390
5F
100
AcDbLine
 10
0.5
 20
0.166
 30
0.0
 11
0.5
 21
-0.166
 31
0.0
  0
LINE
  5
174
330
171
100
AcDbEntity
  8
0
  6
Continuous
 62
     0
370
    -2
390
5F
100
AcDbLine
 10
0.5
 20
-0.166
 30
0.0
 11
-0.5
 21
-0.166
 31
0.0
  0
LINE
  5
175
330
171
100
AcDbEntity
  8
0
  6
Continuous
 62
     0
370
    -2
390
5F
100
AcDbLine
 10
-0.5
 20
-0.166
 30
0.0
 11
-0.5
 21
0.166
 31
0.0
  0
LINE
  5
176
330
171
100
AcDbEntity
  8
0
  6
Continuous
 62
     0
370
    -2
390
5F
100
AcDbLine
 10
-0.25
 20
-0.166
 30
0.0
 11
-0.25
 21
0.166
 31
0.0
  0
LINE
  5
177
330
171
100
AcDbEntity
  8
0
  6
Continuous
 62
     0
370
    -2
390
5F
100
AcDbLine
 10
0.0
 20
-0.166
 30
0.0
 11
0.0
 21
0.166
 31
0.0
  0
LINE
  5
178
330
171
100
AcDbEntity
  8
0
  6
Continuous
 62
     0
370
    -2
390
5F
100
AcDbLine
 10
0.25
 20
-0.166
 30
0.0
 11
0.25
 21
0.166
 31
0.0
  0
ENDBLK
  5
17A
330
171
100
AcDbEntity
  8
0
100
AcDbBlockEnd
  0
BLOCK
  5
17E
330
17B
100
AcDbEntity
  8
0
100
AcDbBlockBegin
  2
CDWK_PTTYP51
 70
     0
 10
0.0
 20
0.0
 30
0.0
  3
CDWK_PTTYP51
  1

  0
SPLINE
  5
17C
330
17B
100
AcDbEntity
  8
0
  6
Continuous
 62
     0
370
    -2
390
5F
100
AcDbSpline
210
0.0
220
0.0
230
1.0
 70
  1064
 71
     3
 72
    12
 73
     8
 74
     6
 42
0.0000000001
 43
0.0000000001
 44
0.0000000001
 40
0.0
 40
0.0
 40
0.0
 40
0.0
 40
0.1690118339052032
 40
0.5175774661755118
 40
0.8011704844252565
 40
0.9154070810132151
 40
0.975822310881188
 40
0.975822310881188
 40
0.975822310881188
 40
0.975822310881188
 10
-0.5
 20
-0.077
 30
0.0
 10
-0.443824324006723
 20
-0.0900581618560981
 30
0.0
 10
-0.2717933876546281
 20
-0.1300471387828842
 30
0.0
 10
-0.0276699186086479
 20
-0.0006977790990417
 30
0.0
 10
0.2303349729129116
 20
0.0817803270207037
 30
0.0
 10
0.3686157174766292
 20
0.0066250198607167
 30
0.0
 10
0.4216533294581816
 20
-0.0168719667726145
 30
0.0
 10
0.44
 20
-0.025
 30
0.0
 11
-0.5
 21
-0.077
 31
0.0
 11
-0.333
 21
-0.103
 31
0.0
 11
0.0
 21
0.0
 31
0.0
 11
0.28
 21
0.045
 31
0.0
 11
0.385
 21
0.0
 31
0.0
 11
0.44
 21
-0.025
 31
0.0
  0
HATCH
  5
17D
330
17B
100
AcDbEntity
  8
0
  6
Continuous
 62
     0
370
    -2
390
5F
100
AcDbHatch
 10
0.0
 20
0.0
 30
0.0
210
0.0
220
0.0
230
1.0
  2
SOLID
 70
     1
 71
     0
 91
        1
 92
        3
 72
     0
 73
     1
 93
        3
 10
0.365
 20
-0.05
 10
0.5
 20
-0.042
 10
0.395
 20
0.045
 97
        0
 75
     0
 76
     1
 98
        0
  0
ENDBLK
  5
17F
330
17B
100
AcDbEntity
  8
0
100
AcDbBlockEnd
  0
BLOCK
  5
184
330
180
100
AcDbEntity
  8
0
100
AcDbBlockBegin
  2
CDWK_PTTYP52
 70
     0
 10
0.0
 20
0.0
 30
0.0
  3
CDWK_PTTYP52
  1

  0
LINE
  5
181
330
180
100
AcDbEntity
  8
0
  6
Continuous
 62
     0
370
    -2
390
5F
100
AcDbLine
 10
-0.5
 20
-0.289
 30
0.0
 11
0.5
 21
-0.289
 31
0.0
  0
LINE
  5
182
330
180
100
AcDbEntity
  8
0
  6
Continuous
 62
     0
370
    -2
390
5F
100
AcDbLine
 10
0.5
 20
-0.289
 30
0.0
 11
0.0
 21
0.577
 31
0.0
  0
LINE
  5
183
330
180
100
AcDbEntity
  8
0
  6
Continuous
 62
     0
370
    -2
390
5F
100
AcDbLine
 10
0.0
 20
0.577
 30
0.0
 11
-0.5
 21
-0.289
 31
0.0
  0
ENDBLK
  5
185
330
180
100
AcDbEntity
  8
0
100
AcDbBlockEnd
  0
BLOCK
  5
18B
330
186
100
AcDbEntity
  8
0
100
AcDbBlockBegin
  2
cw-dimension-symbol1
 70
     0
 10
0.0
 20
0.0
 30
0.0
  3
cw-dimension-symbol1
  1

  0
LINE
  5
187
330
186
100
AcDbEntity
  8
0
  6
Continuous
 62
     0
370
    -2
390
5F
100
AcDbLine
 10
0.0
 20
0.0
 30
0.0
 11
-1.0
 21
0.25
 31
0.0
  0
LINE
  5
188
330
186
100
AcDbEntity
  8
0
  6
Continuous
 62
     0
370
    -2
390
5F
100
AcDbLine
 10
0.0
 20
0.0
 30
0.0
 11
-1.0
 21
-0.25
 31
0.0
  0
LINE
  5
189
330
186
100
AcDbEntity
  8
0
  6
Continuous
 62
     0
370
    -2
390
5F
100
AcDbLine
 10
-1.0
 20
0.25
 30
0.0
 11
-1.0
 21
-0.25
 31
0.0
  0
LINE
  5
18A
330
186
100
AcDbEntity
  8
0
  6
Continuous
 62
     0
370
    -2
390
5F
100
AcDbLine
 10
0.0
 20
0.0
 30
0.0
 11
-1.0
 21
0.0
 31
0.0
  0
ENDBLK
  5
18C
330
186
100
AcDbEntity
  8
0
100
AcDbBlockEnd
  0
BLOCK
  5
190
330
18D
100
AcDbEntity
  8
0
100
AcDbBlockBegin
  2
cw-dimension-symbol2
 70
     0
 10
0.0
 20
0.0
 30
0.0
  3
cw-dimension-symbol2
  1

  0
LINE
  5
18E
330
18D
100
AcDbEntity
  8
0
  6
Continuous
 62
     0
370
    -2
390
5F
100
AcDbLine
 10
-1.0
 20
0.0
 30
0.0
 11
1.0
 21
0.0
 31
0.0
  0
LINE
  5
18F
330
18D
100
AcDbEntity
  8
0
  6
Continuous
 62
     0
370
    -2
390
5F
100
AcDbLine
 10
-0.5
 20
-0.5
 30
0.0
 11
0.5
 21
0.5
 31
0.0
  0
ENDBLK
  5
191
330
18D
100
AcDbEntity
  8
0
100
AcDbBlockEnd
  0
BLOCK
  5
195
330
192
100
AcDbEntity
  8
0
100
AcDbBlockBegin
  2
cw-dimension-symbol3
 70
     0
 10
0.0
 20
0.0
 30
0.0
  3
cw-dimension-symbol3
  1

  0
LINE
  5
193
330
192
100
AcDbEntity
  8
0
  6
Continuous
 62
     0
370
    -2
390
5F
100
AcDbLine
 10
-1.0
 20
0.0
 30
0.0
 11
1.0
 21
0.0
 31
0.0
  0
CIRCLE
  5
194
330
192
100
AcDbEntity
  8
0
  6
Continuous
 62
     0
370
    -2
390
5F
100
AcDbCircle
 10
0.0
 20
0.0
 30
0.0
 40
0.25
  0
ENDBLK
  5
196
330
192
100
AcDbEntity
  8
0
100
AcDbBlockEnd
  0
BLOCK
  5
19C
330
197
100
AcDbEntity
  8
0
100
AcDbBlockBegin
  2
cw-dimension-symbol5
 70
     0
 10
0.0
 20
0.0
 30
0.0
  3
cw-dimension-symbol5
  1

  0
HATCH
  5
198
330
197
100
AcDbEntity
  8
0
  6
Continuous
 62
     0
370
    -2
390
5F
100
AcDbHatch
 10
0.0
 20
0.0
 30
0.0
210
0.0
220
0.0
230
1.0
  2
SOLID
 70
     1
 71
     0
 91
        1
 92
        3
 72
     0
 73
     1
 93
        3
 10
0.0
 20
0.0
 10
-1.0
 20
0.25
 10
-1.0
 20
-0.25
 97
        0
 75
     0
 76
     1
 98
        0
  0
LINE
  5
199
330
197
100
AcDbEntity
  8
0
  6
Continuous
 62
     0
370
    -2
390
5F
100
AcDbLine
 10
0.0
 20
0.0
 30
0.0
 11
-1.0
 21
0.25
 31
0.0
  0
LINE
  5
19A
330
197
100
AcDbEntity
  8
0
  6
Continuous
 62
     0
370
    -2
390
5F
100
AcDbLine
 10
-1.0
 20
0.25
 30
0.0
 11
-1.0
 21
-0.25
 31
0.0
  0
LINE
  5
19B
330
197
100
AcDbEntity
  8
0
  6
Continuous
 62
     0
370
    -2
390
5F
100
AcDbLine
 10
-1.0
 20
-0.25
 30
0.0
 11
0.0
 21
0.0
 31
0.0
  0
ENDBLK
  5
19D
330
197
100
AcDbEntity
  8
0
100
AcDbBlockEnd
  0
BLOCK
  5
1A2
330
19E
100
AcDbEntity
  8
0
100
AcDbBlockBegin
  2
cw-dimension-symbol6
 70
     0
 10
0.0
 20
0.0
 30
0.0
  3
cw-dimension-symbol6
  1

  0
LINE
  5
19F
330
19E
100
AcDbEntity
  8
0
  6
Continuous
 62
     0
370
    -2
390
5F
100
AcDbLine
 10
0.0
 20
0.0
 30
0.0
 11
-1.0
 21
0.25
 31
0.0
  0
LINE
  5
1A0
330
19E
100
AcDbEntity
  8
0
  6
Continuous
 62
     0
370
    -2
390
5F
100
AcDbLine
 10
0.0
 20
0.0
 30
0.0
 11
-1.0
 21
-0.25
 31
0.0
  0
LINE
  5
1A1
330
19E
100
AcDbEntity
  8
0
  6
Continuous
 62
     0
370
    -2
390
5F
100
AcDbLine
 10
0.0
 20
0.0
 30
0.0
 11
-1.0
 21
0.0
 31
0.0
  0
ENDBLK
  5
1A3
330
19E
100
AcDbEntity
  8
0
100
AcDbBlockEnd
  0
BLOCK
  5
1A8
330
1A4
100
AcDbEntity
  8
0
100
AcDbBlockBegin
  2
cw-dimension-symbol11
 70
     0
 10
0.0
 20
0.0
 30
0.0
  3
cw-dimension-symbol11
  1

  0
LINE
  5
1A5
330
1A4
100
AcDbEntity
  8
0
  6
Continuous
 62
     0
370
    -2
390
5F
100
AcDbLine
 10
-1.0
 20
1.0
 30
0.0
 11
1.0
 21
1.0
 31
0.0
  0
LINE
  5
1A6
330
1A4
100
AcDbEntity
  8
0
  6
Continuous
 62
     0
370
    -2
390
5F
100
AcDbLine
 10
0.0
 20
0.0
 30
0.0
 11
-1.0
 21
1.0
 31
0.0
  0
LINE
  5
1A7
330
1A4
100
AcDbEntity
  8
0
  6
Continuous
 62
     0
370
    -2
390
5F
100
AcDbLine
 10
0.0
 20
0.0
 30
0.0
 11
1.0
 21
1.0
 31
0.0
  0
ENDBLK
  5
1A9
330
1A4
100
AcDbEntity
  8
0
100
AcDbBlockEnd
  0
BLOCK
  5
1AE
330
1AA
100
AcDbEntity
  8
0
100
AcDbBlockBegin
  2
cw-dimension-symbol13
 70
     0
 10
0.0
 20
0.0
 30
0.0
  3
cw-dimension-symbol13
  1

  0
LINE
  5
1AB
330
1AA
100
AcDbEntity
  8
0
  6
Continuous
 62
     0
370
    -2
390
5F
100
AcDbLine
 10
-1.0
 20
-1.0
 30
0.0
 11
1.0
 21
-1.0
 31
0.0
  0
LINE
  5
1AC
330
1AA
100
AcDbEntity
  8
0
  6
Continuous
 62
     0
370
    -2
390
5F
100
AcDbLine
 10
0.0
 20
0.0
 30
0.0
 11
-1.0
 21
-1.0
 31
0.0
  0
LINE
  5
1AD
330
1AA
100
AcDbEntity
  8
0
  6
Continuous
 62
     0
370
    -2
390
5F
100
AcDbLine
 10
0.0
 20
0.0
 30
0.0
 11
1.0
 21
-1.0
 31
0.0
  0
ENDBLK
  5
1AF
330
1AA
100
AcDbEntity
  8
0
100
AcDbBlockEnd
  0
BLOCK
  5
1B5
330
1B0
100
AcDbEntity
  8
0
100
AcDbBlockBegin
  2
cw-dimension-symbol15
 70
     0
 10
0.0
 20
0.0
 30
0.0
  3
cw-dimension-symbol15
  1

  0
HATCH
  5
1B1
330
1B0
100
AcDbEntity
  8
0
  6
Continuous
 62
     0
370
    -2
390
5F
100
AcDbHatch
 10
0.0
 20
0.0
 30
0.0
210
0.0
220
0.0
230
1.0
  2
SOLID
 70
     1
 71
     0
 91
        1
 92
        3
 72
     0
 73
     1
 93
        3
 10
0.0
 20
0.0
 10
-1.0
 20
1.0
 10
1.0
 20
1.0
 97
        0
 75
     0
 76
     1
 98
        0
  0
LINE
  5
1B2
330
1B0
100
AcDbEntity
  8
0
  6
Continuous
 62
     0
370
    -2
390
5F
100
AcDbLine
 10
0.0
 20
0.0
 30
0.0
 11
-1.0
 21
1.0
 31
0.0
  0
LINE
  5
1B3
330
1B0
100
AcDbEntity
  8
0
  6
Continuous
 62
     0
370
    -2
390
5F
100
AcDbLine
 10
-1.0
 20
1.0
 30
0.0
 11
1.0
 21
1.0
 31
0.0
  0
LINE
  5
1B4
330
1B0
100
AcDbEntity
  8
0
  6
Continuous
 62
     0
370
    -2
390
5F
100
AcDbLine
 10
1.0
 20
1.0
 30
0.0
 11
0.0
 21
0.0
 31
0.0
  0
ENDBLK
  5
1B6
330
1B0
100
AcDbEntity
  8
0
100
AcDbBlockEnd
  0
BLOCK
  5
1BC
330
1B7
100
AcDbEntity
  8
0
100
AcDbBlockBegin
  2
cw-dimension-symbol16
 70
     0
 10
0.0
 20
0.0
 30
0.0
  3
cw-dimension-symbol16
  1

  0
HATCH
  5
1B8
330
1B7
100
AcDbEntity
  8
0
  6
Continuous
 62
     0
370
    -2
390
5F
100
AcDbHatch
 10
0.0
 20
0.0
 30
0.0
210
0.0
220
0.0
230
1.0
  2
SOLID
 70
     1
 71
     0
 91
        1
 92
        3
 72
     0
 73
     1
 93
        3
 10
0.0
 20
0.0
 10
-1.0
 20
-1.0
 10
1.0
 20
-1.0
 97
        0
 75
     0
 76
     1
 98
        0
  0
LINE
  5
1B9
330
1B7
100
AcDbEntity
  8
0
  6
Continuous
 62
     0
370
    -2
390
5F
100
AcDbLine
 10
0.0
 20
0.0
 30
0.0
 11
-1.0
 21
-1.0
 31
0.0
  0
LINE
  5
1BA
330
1B7
100
AcDbEntity
  8
0
  6
Continuous
 62
     0
370
    -2
390
5F
100
AcDbLine
 10
-1.0
 20
-1.0
 30
0.0
 11
1.0
 21
-1.0
 31
0.0
  0
LINE
  5
1BB
330
1B7
100
AcDbEntity
  8
0
  6
Continuous
 62
     0
370
    -2
390
5F
100
AcDbLine
 10
1.0
 20
-1.0
 30
0.0
 11
0.0
 21
0.0
 31
0.0
  0
ENDBLK
  5
1BD
330
1B7
100
AcDbEntity
  8
0
100
AcDbBlockEnd
  0
BLOCK
  5
1C3
330
1BE
100
AcDbEntity
  8
0
100
AcDbBlockBegin
  2
cw-dimension-symbol17
 70
     0
 10
0.0
 20
0.0
 30
0.0
  3
cw-dimension-symbol17
  1

  0
LINE
  5
1BF
330
1BE
100
AcDbEntity
  8
0
  6
Continuous
 62
     0
370
    -2
390
5F
100
AcDbLine
 10
0.0
 20
0.0
 30
0.0
 11
1.0
 21
1.0
 31
0.0
  0
LINE
  5
1C0
330
1BE
100
AcDbEntity
  8
0
  6
Continuous
 62
     0
370
    -2
390
5F
100
AcDbLine
 10
1.0
 20
1.0
 30
0.0
 11
-1.0
 21
1.0
 31
0.0
  0
LINE
  5
1C1
330
1BE
100
AcDbEntity
  8
0
  6
Continuous
 62
     0
370
    -2
390
5F
100
AcDbLine
 10
-1.0
 20
1.0
 30
0.0
 11
0.0
 21
0.0
 31
0.0
  0
HATCH
  5
1C2
330
1BE
100
AcDbEntity
  8
0
  6
Continuous
 62
     0
370
    -2
390
5F
100
AcDbHatch
 10
0.0
 20
0.0
 30
0.0
210
0.0
220
0.0
230
1.0
  2
SOLID
 70
     1
 71
     0
 91
        1
 92
        3
 72
     0
 73
     1
 93
        3
 10
0.0
 20
0.0
 10
-1.0
 20
1.0
 10
0.0
 20
1.0
 97
        0
 75
     0
 76
     1
 98
        0
  0
ENDBLK
  5
1C4
330
1BE
100
AcDbEntity
  8
0
100
AcDbBlockEnd
  0
BLOCK
  5
1CA
330
1C5
100
AcDbEntity
  8
0
100
AcDbBlockBegin
  2
cw-dimension-symbol18
 70
     0
 10
0.0
 20
0.0
 30
0.0
  3
cw-dimension-symbol18
  1

  0
LINE
  5
1C6
330
1C5
100
AcDbEntity
  8
0
  6
Continuous
 62
     0
370
    -2
390
5F
100
AcDbLine
 10
0.0
 20
0.0
 30
0.0
 11
1.0
 21
-1.0
 31
0.0
  0
LINE
  5
1C7
330
1C5
100
AcDbEntity
  8
0
  6
Continuous
 62
     0
370
    -2
390
5F
100
AcDbLine
 10
1.0
 20
-1.0
 30
0.0
 11
-1.0
 21
-1.0
 31
0.0
  0
LINE
  5
1C8
330
1C5
100
AcDbEntity
  8
0
  6
Continuous
 62
     0
370
    -2
390
5F
100
AcDbLine
 10
-1.0
 20
-1.0
 30
0.0
 11
0.0
 21
0.0
 31
0.0
  0
HATCH
  5
1C9
330
1C5
100
AcDbEntity
  8
0
  6
Continuous
 62
     0
370
    -2
390
5F
100
AcDbHatch
 10
0.0
 20
0.0
 30
0.0
210
0.0
220
0.0
230
1.0
  2
SOLID
 70
     1
 71
     0
 91
        1
 92
        3
 72
     0
 73
     1
 93
        3
 10
0.0
 20
0.0
 10
-1.0
 20
-1.0
 10
0.0
 20
-1.0
 97
        0
 75
     0
 76
     1
 98
        0
  0
ENDBLK
  5
1CB
330
1C5
100
AcDbEntity
  8
0
100
AcDbBlockEnd
  0
BLOCK
  5
1CD
330
1CC
100
AcDbEntity
  8
0
100
AcDbBlockBegin
  2
cw-dimension-symbol19
 70
     0
 10
0.0
 20
0.0
 30
0.0
  3
cw-dimension-symbol19
  1

  0
ENDBLK
  5
1CE
330
1CC
100
AcDbEntity
  8
0
100
AcDbBlockEnd
  0
BLOCK
  5
1D4
330
1CF
100
AcDbEntity
  8
0
100
AcDbBlockBegin
  2
cw-dimension-symbol20
 70
     0
 10
0.0
 20
0.0
 30
0.0
  3
cw-dimension-symbol20
  1

  0
LINE
  5
1D0
330
1CF
100
AcDbEntity
  8
0
  6
Continuous
 62
     0
370
    -2
390
5F
100
AcDbLine
 10
0.0
 20
0.0
 30
0.0
 11
0.0
 21
2.0
 31
0.0
  0
LINE
  5
1D1
330
1CF
100
AcDbEntity
  8
0
  6
Continuous
 62
     0
370
    -2
390
5F
100
AcDbLine
 10
0.0
 20
0.0
 30
0.0
 11
-1.0
 21
0.33
 31
0.0
  0
LINE
  5
1D2
330
1CF
100
AcDbEntity
  8
0
  6
Continuous
 62
     0
370
    -2
390
5F
100
AcDbLine
 10
0.0
 20
0.0
 30
0.0
 11
1.0
 21
0.33
 31
0.0
  0
LINE
  5
1D3
330
1CF
100
AcDbEntity
  8
0
  6
Continuous
 62
     0
370
    -2
390
5F
100
AcDbLine
 10
0.0
 20
2.0
 30
0.0
 11
4.15
 21
2.0
 31
0.0
  0
ENDBLK
  5
1D5
330
1CF
100
AcDbEntity
  8
0
100
AcDbBlockEnd
  0
BLOCK
  5
1DB
330
1D6
100
AcDbEntity
  8
0
100
AcDbBlockBegin
  2
cw-dimension-symbol21
 70
     0
 10
0.0
 20
0.0
 30
0.0
  3
cw-dimension-symbol21
  1

  0
LINE
  5
1D7
330
1D6
100
AcDbEntity
  8
0
  6
Continuous
 62
     0
370
    -2
390
5F
100
AcDbLine
 10
0.0
 20
0.0
 30
0.0
 11
0.0
 21
-2.0
 31
0.0
  0
LINE
  5
1D8
330
1D6
100
AcDbEntity
  8
0
  6
Continuous
 62
     0
370
    -2
390
5F
100
AcDbLine
 10
0.0
 20
0.0
 30
0.0
 11
-1.0
 21
-0.33
 31
0.0
  0
LINE
  5
1D9
330
1D6
100
AcDbEntity
  8
0
  6
Continuous
 62
     0
370
    -2
390
5F
100
AcDbLine
 10
0.0
 20
0.0
 30
0.0
 11
1.0
 21
-0.33
 31
0.0
  0
LINE
  5
1DA
330
1D6
100
AcDbEntity
  8
0
  6
Continuous
 62
     0
370
    -2
390
5F
100
AcDbLine
 10
0.0
 20
-2.0
 30
0.0
 11
4.15
 21
-2.0
 31
0.0
  0
ENDBLK
  5
1DC
330
1D6
100
AcDbEntity
  8
0
100
AcDbBlockEnd
  0
BLOCK
  5
20D
330
1DD
100
AcDbEntity
  8
0
100
AcDbBlockBegin
  2
cw-line-extremity0
 70
     0
 10
0.0
 20
0.0
 30
0.0
  3
cw-line-extremity0
  1

  0
LINE
  5
1DE
330
1DD
100
AcDbEntity
  8
0
  6
Continuous
 62
     0
370
    -2
390
5F
100
AcDbLine
 10
0.0
 20
0.0
 30
0.0
 11
10.0
 21
2.5
 31
0.0
  0
LINE
  5
1DF
330
1DD
100
AcDbEntity
  8
0
  6
Continuous
 62
     0
370
    -2
390
5F
100
AcDbLine
 10
0.0
 20
0.0
 30
0.0
 11
10.0
 21
-2.5
 31
0.0
  0
LINE
  5
1E0
330
1DD
100
AcDbEntity
  8
0
  6
Continuous
 62
     0
370
    -2
390
5F
100
AcDbLine
 10
10.0
 20
2.5
 30
0.0
 11
10.0
 21
-2.5
 31
0.0
  0
ENDBLK
  5
20E
330
1DD
100
AcDbEntity
  8
0
100
AcDbBlockEnd
  0
BLOCK
  5
20B
330
1E1
100
AcDbEntity
  8
0
100
AcDbBlockBegin
  2
cw-line-extremity2
 70
     0
 10
0.0
 20
0.0
 30
0.0
  3
cw-line-extremity2
  1

  0
HATCH
  5
1E2
330
1E1
100
AcDbEntity
  8
0
  6
Continuous
 62
     0
370
     0
390
5F
100
AcDbHatch
 10
0.0
 20
0.0
 30
0.0
210
0.0
220
0.0
230
1.0
  2
SOLID
 70
     1
 71
     0
 91
        1
 92
        3
 72
     0
 73
     1
 93
        3
 10
0.0
 20
0.0
 10
10.0
 20
2.5
 10
10.0
 20
-2.5
 97
        0
 75
     0
 76
     1
 98
        0
  0
LINE
  5
1E3
330
1E1
100
AcDbEntity
  8
0
  6
Continuous
 62
     0
370
    -2
390
5F
100
AcDbLine
 10
0.0
 20
0.0
 30
0.0
 11
10.0
 21
2.5
 31
0.0
  0
LINE
  5
1E4
330
1E1
100
AcDbEntity
  8
0
  6
Continuous
 62
     0
370
    -2
390
5F
100
AcDbLine
 10
10.0
 20
2.5
 30
0.0
 11
10.0
 21
-2.5
 31
0.0
  0
LINE
  5
1E5
330
1E1
100
AcDbEntity
  8
0
  6
Continuous
 62
     0
370
    -2
390
5F
100
AcDbLine
 10
10.0
 20
-2.5
 30
0.0
 11
0.0
 21
0.0
 31
0.0
  0
ENDBLK
  5
20C
330
1E1
100
AcDbEntity
  8
0
100
AcDbBlockEnd
  0
BLOCK
  5
209
330
1E6
100
AcDbEntity
  8
0
100
AcDbBlockBegin
  2
cw-line-extremity3
 70
     0
 10
0.0
 20
0.0
 30
0.0
  3
cw-line-extremity3
  1

  0
HATCH
  5
1E7
330
1E6
100
AcDbEntity
  8
0
  6
Continuous
 62
     0
370
     0
390
5F
100
AcDbHatch
 10
0.0
 20
0.0
 30
0.0
210
0.0
220
0.0
230
1.0
  2
SOLID
 70
     1
 71
     0
 91
        1
 92
        3
 72
     0
 73
     1
 93
        3
 10
0.0
 20
0.0
 10
10.0
 20
2.5
 10
10.0
 20
-2.5
 97
        0
 75
     0
 76
     1
 98
        0
  0
LINE
  5
1E8
330
1E6
100
AcDbEntity
  8
0
  6
Continuous
 62
     0
370
    -2
390
5F
100
AcDbLine
 10
0.0
 20
0.0
 30
0.0
 11
10.0
 21
2.5
 31
0.0
  0
LINE
  5
1E9
330
1E6
100
AcDbEntity
  8
0
  6
Continuous
 62
     0
370
    -2
390
5F
100
AcDbLine
 10
10.0
 20
2.5
 30
0.0
 11
10.0
 21
-2.5
 31
0.0
  0
LINE
  5
1EA
330
1E6
100
AcDbEntity
  8
0
  6
Continuous
 62
     0
370
    -2
390
5F
100
AcDbLine
 10
10.0
 20
-2.5
 30
0.0
 11
0.0
 21
0.0
 31
0.0
  0
ENDBLK
  5
20A
330
1E6
100
AcDbEntity
  8
0
100
AcDbBlockEnd
  0
BLOCK
  5
207
330
1EB
100
AcDbEntity
  8
0
100
AcDbBlockBegin
  2
cw-line-extremity301
 70
     0
 10
0.0
 20
0.0
 30
0.0
  3
cw-line-extremity301
  1

  0
LINE
  5
1EC
330
1EB
100
AcDbEntity
  8
0
  6
Continuous
 62
     0
370
    -2
390
5F
100
AcDbLine
 10
0.0
 20
6.66665
 30
0.0
 11
0.0
 21
-6.66665
 31
0.0
  0
ENDBLK
  5
208
330
1EB
100
AcDbEntity
  8
0
100
AcDbBlockEnd
  0
BLOCK
  5
205
330
1ED
100
AcDbEntity
  8
0
100
AcDbBlockBegin
  2
cw-line-extremity4
 70
     0
 10
0.0
 20
0.0
 30
0.0
  3
cw-line-extremity4
  1

  0
HATCH
  5
1EE
330
1ED
100
AcDbEntity
  8
0
  6
Continuous
 62
     0
370
     5
390
5F
100
AcDbHatch
 10
0.0
 20
0.0
 30
0.0
210
0.0
220
0.0
230
1.0
  2
SOLID
 70
     1
 71
     0
 91
        1
 92
        1
 93
        1
 72
     2
 10
0.0
 20
0.0
 40
2.5
 50
0.0
 51
360.0
 73
     1
 97
        0
 75
     0
 76
     1
 98
        0
  0
ENDBLK
  5
206
330
1ED
100
AcDbEntity
  8
0
100
AcDbBlockEnd
  0
BLOCK
  5
203
330
1EF
100
AcDbEntity
  8
0
100
AcDbBlockBegin
  2
cw-line-extremity5
 70
     0
 10
0.0
 20
0.0
 30
0.0
  3
cw-line-extremity5
  1

  0
LINE
  5
1F0
330
1EF
100
AcDbEntity
  8
0
  6
Continuous
 62
     0
370
    -2
390
5F
100
AcDbLine
 10
0.0
 20
0.0
 30
0.0
 11
-2.5
 21
0.0
 31
0.0
  0
ENDBLK
  5
204
330
1EF
100
AcDbEntity
  8
0
100
AcDbBlockEnd
  0
BLOCK
  5
201
330
1F1
100
AcDbEntity
  8
0
100
AcDbBlockBegin
  2
cw-line-extremity6
 70
     0
 10
0.0
 20
0.0
 30
0.0
  3
cw-line-extremity6
  1

  0
LINE
  5
1F2
330
1F1
100
AcDbEntity
  8
0
  6
Continuous
 62
     0
370
    18
390
5F
100
AcDbLine
 10
0.0
 20
2.5
 30
0.0
 11
0.0
 21
-2.5
 31
0.0
  0
ENDBLK
  5
202
330
1F1
100
AcDbEntity
  8
0
100
AcDbBlockEnd
  0
BLOCK
  5
1FF
330
1F3
100
AcDbEntity
  8
0
100
AcDbBlockBegin
  2
cw-line-extremity9
 70
     0
 10
0.0
 20
0.0
 30
0.0
  3
cw-line-extremity9
  1

  0
LINE
  5
1F4
330
1F3
100
AcDbEntity
  8
0
  6
Continuous
 62
     0
370
    18
390
5F
100
AcDbLine
 10
-2.5
 20
-2.5
 30
0.0
 11
2.5
 21
2.5
 31
0.0
  0
ENDBLK
  5
200
330
1F3
100
AcDbEntity
  8
0
100
AcDbBlockEnd
  0
BLOCK
  5
1FD
330
1F5
100
AcDbEntity
  8
0
100
AcDbBlockBegin
  2
cw-line-extremity10
 70
     0
 10
0.0
 20
0.0
 30
0.0
  3
cw-line-extremity10
  1

  0
CIRCLE
  5
1F6
330
1F5
100
AcDbEntity
  8
0
  6
Continuous
 62
     0
370
    -2
390
5F
100
AcDbCircle
 10
0.0
 20
0.0
 30
0.0
 40
2.5
  0
ENDBLK
  5
1FE
330
1F5
100
AcDbEntity
  8
0
100
AcDbBlockEnd
  0
BLOCK
  5
1FB
330
1F7
100
AcDbEntity
  8
0
100
AcDbBlockBegin
  2
cw-line-extremity1
 70
     0
 10
0.0
 20
0.0
 30
0.0
  3
cw-line-extremity1
  1

  0
LINE
  5
1F8
330
1F7
100
AcDbEntity
  8
0
  6
Continuous
 62
     0
370
    -2
390
5F
100
AcDbLine
 10
0.0
 20
0.0
 30
0.0
 11
0.0
 21
2.5
 31
0.0
  0
LINE
  5
1F9
330
1F7
100
AcDbEntity
  8
0
  6
Continuous
 62
     0
370
    -2
390
5F
100
AcDbLine
 10
0.0
 20
2.5
 30
0.0
 11
1.25
 21
3.75
 31
0.0
  0
LINE
  5
1FA
330
1F7
100
AcDbEntity
  8
0
  6
Continuous
 62
     0
370
    -2
390
5F
100
AcDbLine
 10
1.25
 20
3.75
 30
0.0
 11
3.75
 21
3.75
 31
0.0
  0
ENDBLK
  5
1FC
330
1F7
100
AcDbEntity
  8
0
100
AcDbBlockEnd
  0
BLOCK
  5
1C
330
1B
100
AcDbEntity
  8
0
100
AcDbBlockBegin
  2
*Paper_Space69
 70
     0
 10
0.0
 20
0.0
 30
0.0
  3
*Paper_Space69
  1

  0
ENDBLK
  5
1D
330
1B
100
AcDbEntity
  8
0
100
AcDbBlockEnd
  0
BLOCK
  5
3F3
330
3F2
100
AcDbEntity
  8
0
100
AcDbBlockBegin
  2
*D70
 70
     1
 10
0.0
 20
0.0
 30
0.0
  3
*D70
  1

  0
LINE
  5
3F5
330
3F2
100
AcDbEntity
  8
Ech.1_5
  6
Continuous
 62
     0
370
    -2
100
AcDbLine
 10
22266.49520882581
 20
-28726.11941795285
 30
0.0
 11
22266.49520882581
 21
-28746.11941795285
 31
0.0
  0
LINE
  5
3F6
330
3F2
100
AcDbEntity
  8
Ech.1_5
  6
Continuous
 62
     0
370
    -2
100
AcDbLine
 10
22286.49520882581
 20
-28726.11941795285
 30
0.0
 11
22286.49520882581
 21
-28746.11941795285
 31
0.0
  0
LINE
  5
3F7
330
3F2
100
AcDbEntity
  8
Ech.1_5
  6
Continuous
 62
     0
370
    -2
100
AcDbLine
 10
22271.49520882581
 20
-28741.11941795285
 30
0.0
 11
22281.49520882581
 21
-28741.11941795285
 31
0.0
  0
INSERT
  5
3F8
330
3F2
100
AcDbEntity
  8
Ech.1_5
 62
     0
370
    -2
100
AcDbBlockReference
  2
cw-dimension-symbol2
 10
22266.49520882581
 20
-28741.11941795285
 30
0.0
 41
5.0
 42
5.0
 43
5.0
 50
180.0
  0
INSERT
  5
3F9
330
3F2
100
AcDbEntity
  8
Ech.1_5
 62
     0
370
    -2
100
AcDbBlockReference
  2
cw-dimension-symbol2
 10
22286.49520882581
 20
-28741.11941795285
 30
0.0
 41
5.0
 42
5.0
 43
5.0
  0
MTEXT
  5
3FA
330
3F2
100
AcDbEntity
  8
Ech.1_5
  6
Continuous
 62
   190
370
    15
390
5F
100
AcDbMText
 10
22276.49520882581
 20
-28729.86941795285
 30
0.0
 40
12.5
 41
0.0
 46
0.0
 71
     5
 72
     1
  1
min 15 mm
  7
arial-z
 73
     1
 44
1.0
  0
POINT
  5
3FB
330
3F2
100
AcDbEntity
  8
Defpoints
 62
     0
100
AcDbPoint
 10
22266.49520882581
 20
-28726.11941795285
 30
0.0
  0
POINT
  5
3FC
330
3F2
100
AcDbEntity
  8
Defpoints
 62
     0
100
AcDbPoint
 10
22286.49520882581
 20
-28726.11941795285
 30
0.0
  0
POINT
  5
3FD
330
3F2
100
AcDbEntity
  8
Defpoints
 62
     0
100
AcDbPoint
 10
22286.49520882581
 20
-28741.11941795285
 30
0.0
  0
ENDBLK
  5
3F4
330
3F2
100
AcDbEntity
  8
0
100
AcDbBlockEnd
  0
BLOCK
  5
401
330
400
100
AcDbEntity
  8
0
100
AcDbBlockBegin
  2
*D71
 70
     1
 10
0.0
 20
0.0
 30
0.0
  3
*D71
  1

  0
LINE
  5
403
330
400
100
AcDbEntity
  8
Ech.1_5
  6
Continuous
 62
     0
370
    -2
100
AcDbLine
 10
22686.49432683254
 20
-28666.11941795285
 30
0.0
 11
22666.49432683254
 21
-28666.11941795285
 31
0.0
  0
LINE
  5
404
330
400
100
AcDbEntity
  8
Ech.1_5
  6
Continuous
 62
     0
370
    -2
100
AcDbLine
 10
22658.48554005369
 20
-28661.11941795285
 30
0.0
 11
22676.49432683254
 21
-28661.11941795285
 31
0.0
  0
LINE
  5
405
330
400
100
AcDbEntity
  8
Ech.1_5
  6
Continuous
 62
     0
370
    -2
100
AcDbLine
 10
22671.49432683254
 20
-28666.11941795285
 30
0.0
 11
22671.49432683254
 21
-28661.11941795285
 31
0.0
  0
MTEXT
  5
406
330
400
100
AcDbEntity
  8
Ech.1_5
  6
Continuous
 62
   190
370
    15
390
5F
100
AcDbMText
 10
22660.24432683254
 20
-28663.61941795285
 30
0.0
 40
12.5
 41
0.0
 46
0.0
 71
     5
 72
     1
  1
5
  7
arial-z
 11
6.123233995736766E-17
 21
1.0
 31
0.0
 73
     1
 44
1.0
  0
POINT
  5
407
330
400
100
AcDbEntity
  8
Defpoints
 62
     0
100
AcDbPoint
 10
22686.49432683254
 20
-28666.11941795285
 30
0.0
  0
POINT
  5
408
330
400
100
AcDbEntity
  8
Defpoints
 62
     0
100
AcDbPoint
 10
22658.48554005369
 20
-28661.11941795285
 30
0.0
  0
POINT
  5
409
330
400
100
AcDbEntity
  8
Defpoints
 62
     0
100
AcDbPoint
 10
22671.49432683254
 20
-28661.11941795285
 30
0.0
  0
ENDBLK
  5
402
330
400
100
AcDbEntity
  8
0
100
AcDbBlockEnd
  0
ENDSEC
  0
SECTION
  2
ENTITIES
  0
HATCH
  5
218
330
1F
100
AcDbEntity
  8
Ech.1_5
  6
Continuous
 62
   254
420
 16643007
440
 33554687
370
     5
390
5F
100
AcDbHatch
 10
0.0
 20
0.0
 30
0.0
210
0.0
220
0.0
230
1.0
  2
SOLID
 70
     1
 71
     0
 91
        1
 92
        3
 72
     0
 73
     1
 93
        8
 10
22021.49476782918
 20
-28860.61987756973
 10
22241.49520882581
 20
-28860.61987756973
 10
22241.49520882581
 20
-28760.61987756973
 10
22021.49476782918
 20
-28760.61987756973
 10
22021.49476782918
 20
-28766.18870082708
 10
22039.4731194222
 20
-28782.67504421087
 10
22003.51641623616
 20
-28768.5647109286
 10
22021.49476782918
 20
-28785.05105431239
 97
        0
 75
     0
 76
     1
 98
        0
  0
HATCH
  5
219
330
1F
100
AcDbEntity
  8
Ech.1_5
  6
Continuous
 62
     8
440
 33554687
370
    20
390
5F
100
AcDbHatch
 10
0.0
 20
0.0
 30
0.0
210
0.0
220
0.0
230
1.0
  2
CwHatchPattern_201
 70
     0
 71
     0
 91
        1
 92
        3
 72
     0
 73
     1
 93
        8
 10
22021.49476782918
 20
-28860.61987756973
 10
22241.49520882581
 20
-28860.61987756973
 10
22241.49520882581
 20
-28760.61987756973
 10
22021.49476782918
 20
-28760.61987756973
 10
22021.49476782918
 20
-28766.18870082708
 10
22039.4731194222
 20
-28782.67504421087
 10
22003.51641623616
 20
-28768.5647109286
 10
22021.49476782918
 20
-28785.05105431239
 97
        0
 75
     0
 76
     2
 52
0.0
 41
2.0
 77
     0
 78
    29
 53
0.0
 43
22019.26279784679
 44
-28860.61987756973
 45
0.0
 46
100.0
 79
     2
 49
4.463939964771271
 49
-12.20273017883301
 53
90.00000000000594
 43
22004.82810752034
 44
-28846.65783762222
 45
-33.33333015441895
 46
-0.0000000000034471
 79
     2
 49
2.704629898071289
 49
-97.29537010192871
 53
90.00000000000594
 43
22021.49476782918
 44
-28777.28654741531
 45
-33.33333015441895
 46
-0.0000000000034471
 79
     2
 49
2.704629898071289
 49
-97.29537010192871
 53
104.9324645996163
 43
22037.76418821454
 44
-28840.37802814728
 45
-33.33515852016907
 46
99.99952050724798
 79
     2
 49
61.5963888168335
 49
-455.8760833740234
 53
75.06753540039557
 43
22038.55867759824
 44
-28840.37802814728
 45
-33.33515852014839
 46
-99.99952050725486
 79
     2
 49
61.5963888168335
 49
-455.8760833740234
 53
15.25511932373147
 43
22023.72673781156
 44
-28860.61987756973
 45
-33.33332910801413
 46
0.000000893548286
 79
     2
 49
4.530409872531891
 49
-375.5280685424805
 53
164.7448883056749
 43
22019.26279784679
 44
-28860.61987756973
 45
-33.33332910801371
 46
-0.0000053321564355
 79
     2
 49
4.530409872531891
 49
-375.5280685424805
 53
15.25511932373147
 43
22031.55868785024
 44
-28761.81190370804
 45
-33.33332910801413
 46
0.000000893548286
 79
     2
 49
4.530409872531891
 49
-375.5280685424805
 53
344.7448806762685
 43
22040.39339797139
 44
-28760.61987756973
 45
33.33332910801413
 46
0.000000893548286
 79
     2
 49
4.530409872531891
 49
-375.5280685424805
 53
30.96375656128134
 43
22028.09750811696
 44
-28859.42784755713
 45
-33.33333591427053
 46
-0.0000002214346662
 79
     2
 49
4.352369904518127
 49
-190.0126838684082
 53
149.0362396240333
 43
22014.86736790776
 44
-28859.42784755713
 45
-33.33333591427045
 46
0.0000024407288475
 79
     2
 49
4.352369904518127
 49
-190.0126838684082
 53
30.96375656128134
 43
22027.82656805158
 44
-28764.05118822342
 45
-33.33333591427053
 46
-0.0000002214346662
 79
     2
 49
4.352369904518127
 49
-190.0126838684082
 53
329.0362434387187
 43
22044.76417796254
 44
-28761.81190370804
 45
33.33333591427053
 46
-0.0000002214346662
 79
     2
 49
4.352369904518127
 49
-190.0126838684082
 53
45.00000000000297
 43
22031.82962791562
 44
-28857.18856751209
 45
-33.33333894439541
 46
-0.0000000000017266
 79
     2
 49
3.701289892196655
 49
-137.7200698852539
 53
135.0000000000089
 43
22011.15990774274
 44
-28857.18856751209
 45
-33.33333894439541
 46
-0.0000000000051799
 79
     2
 49
3.701289892196655
 49
-137.7200698852539
 53
45.00000000000297
 43
22025.20936773658
 44
-28766.66838526016
 45
-33.33333894439541
 46
-0.0000000000017266
 79
     2
 49
3.701289892196655
 49
-137.7200698852539
 53
314.999999999997
 43
22048.49629895329
 44
-28764.05118822342
 45
33.33333894439541
 46
-0.0000000000017266
 79
     2
 49
3.701289892196655
 49
-137.7200698852539
 53
56.30993270874394
 43
22034.44683806539
 44
-28854.57136749512
 45
-33.33333501537939
 46
-0.0000037734546368
 79
     2
 49
3.882290124893188
 49
-116.3027477264404
 53
123.6900634765706
 43
22008.54269759297
 44
-28854.57136749512
 45
-33.33333501537906
 46
0.0000059927487648
 79
     2
 49
3.882290124893188
 49
-116.3027477264404
 53
56.30993270874394
 43
22023.05585788131
 44
-28769.89865183121
 45
-33.33333501537939
 46
-0.0000037734546368
 79
     2
 49
3.882290124893188
 49
-116.3027477264404
 53
303.6900672912561
 43
22051.11350791097
 44
-28766.66838526016
 45
33.33333501537939
 46
-0.0000037734546368
 79
     2
 49
3.882290124893188
 49
-116.3027477264404
 53
71.56504821777816
 43
22036.60034792066
 44
-28851.34110748058
 45
-33.3333373816329
 46
-0.0000016711047905
 79
     2
 49
4.936600029468536
 49
-100.4726600646973
 53
108.4349517822337
 43
22006.3891877377
 44
-28851.34110748058
 45
-33.3333373816329
 46
0.0000016710979054
 79
     2
 49
4.936600029468536
 49
-100.4726600646973
 53
71.56504821777816
 43
22021.49476782918
 44
-28774.58191751724
 45
-33.3333373816329
 46
-0.0000016711047905
 79
     2
 49
4.936600029468536
 49
-100.4726600646973
 53
288.4349517822218
 43
22053.2670070374
 44
-28769.89865183121
 45
33.3333373816329
 46
-0.0000016711047905
 79
     2
 49
4.936600029468536
 49
-100.4726600646973
 53
83.65980529785706
 43
22004.82810752034
 44
-28843.9532172609
 45
-33.33334276925949
 46
-200.0000100942898
 79
     2
 49
3.597190082073212
 49
-298.2489776611328
 53
96.34019470215476
 43
22038.16142813802
 44
-28843.9532172609
 45
-33.33334276930081
 46
200.000010094283
 79
     2
 49
3.597190082073212
 49
-298.2489776611328
 53
263.659820556658
 43
22021.49476782918
 44
-28777.28654741531
 45
33.3332895059925
 46
200.0000189714958
 79
     2
 49
3.597190082073212
 49
-298.2489776611328
 53
276.3401947021429
 43
22021.49476782918
 44
-28777.28654741531
 45
33.33334276925949
 46
-200.0000100942898
 79
     2
 49
3.597190082073212
 49
-298.2489776611328
 98
        0
1001
ACAD
1010
22021.49476782918
1020
-28860.61987756973
1030
0.0
  0
LWPOLYLINE
  5
21A
330
1F
100
AcDbEntity
  8
Ech.1_5
  6
Continuous
 62
   190
370
    15
390
5F
100
AcDbPolyline
 90
        9
 70
     0
 43
0.0
 10
22021.49476782918
 20
-28860.61987756973
 10
22241.49520882581
 20
-28860.61987756973
 10
22241.49520882581
 20
-28760.61987756973
 10
22021.49476782918
 20
-28760.61987756973
 10
22021.49476782918
 20
-28766.18870082708
 10
22039.4731194222
 20
-28782.67504421087
 10
22003.51641623616
 20
-28768.5647109286
 10
22021.49476782918
 20
-28785.05105431239
 10
22021.49476782918
 20
-28860.61987756973
  0
HATCH
  5
21B
330
1F
100
AcDbEntity
  8
Ech.1_5
  6
Continuous
 62
   254
420
 16643007
440
 33554687
370
     5
390
5F
100
AcDbHatch
 10
0.0
 20
0.0
 30
0.0
210
0.0
220
0.0
230
1.0
  2
SOLID
 70
     1
 71
     0
 91
        1
 92
        3
 72
     0
 73
     1
 93
        8
 10
22936.49476782918
 20
-28760.61987756973
 10
22716.49432683254
 20
-28760.61987756973
 10
22716.49432683254
 20
-28860.61987756973
 10
22936.49476782918
 20
-28860.61987756973
 10
22936.49476782918
 20
-28785.05105431239
 10
22918.51641623616
 20
-28768.5647109286
 10
22954.4731194222
 20
-28782.67504421087
 10
22936.49476782918
 20
-28766.18870082708
 97
        0
 75
     0
 76
     1
 98
        0
  0
HATCH
  5
21C
330
1F
100
AcDbEntity
  8
Ech.1_5
  6
Continuous
 62
     8
440
 33554687
370
    20
390
5F
100
AcDbHatch
 10
0.0
 20
0.0
 30
0.0
210
0.0
220
0.0
230
1.0
  2
CwHatchPattern_201
 70
     0
 71
     0
 91
        1
 92
        3
 72
     0
 73
     1
 93
        8
 10
22936.49476782918
 20
-28760.61987756973
 10
22716.49432683254
 20
-28760.61987756973
 10
22716.49432683254
 20
-28860.61987756973
 10
22936.49476782918
 20
-28860.61987756973
 10
22936.49476782918
 20
-28785.05105431239
 10
22918.51641623616
 20
-28768.5647109286
 10
22954.4731194222
 20
-28782.67504421087
 10
22936.49476782918
 20
-28766.18870082708
 97
        0
 75
     0
 76
     2
 52
180.0
 41
2.0
 77
     0
 78
    29
 53
180.0
 43
22938.72673781156
 44
-28760.61987756973
 45
-0.0000000000000122
 46
-100.0
 79
     2
 49
4.463939964771271
 49
-12.20273017883301
 53
270.0000000000059
 43
22953.16142813802
 44
-28774.58191751724
 45
33.33333015441895
 46
0.0000000000034282
 79
     2
 49
2.704629898071289
 49
-97.29537010192871
 53
270.0000000000059
 43
22936.49476782918
 44
-28843.95320772415
 45
33.33333015441895
 46
0.0000000000034282
 79
     2
 49
2.704629898071289
 49
-97.29537010192871
 53
284.9324645996163
 43
22920.22534744382
 44
-28780.86172699219
 45
33.33515852016909
 46
-99.99952050724796
 79
     2
 49
61.59638881683349
 49
-455.8760833740234
 53
255.0675354003955
 43
22919.43085806012
 44
-28780.86172699219
 45
33.33515852014843
 46
99.99952050725484
 79
     2
 49
61.5963888168335
 49
-455.8760833740234
 53
195.2551193237314
 43
22934.26279784679
 44
-28760.61987756973
 45
33.33332910801413
 46
-0.0000008935482967
 79
     2
 49
4.530409872531891
 49
-375.5280685424805
 53
344.744888305675
 43
22938.72673781156
 44
-28760.61987756973
 45
33.33332910801371
 46
0.0000053321564444
 79
     2
 49
4.530409872531891
 49
-375.5280685424805
 53
195.2551193237314
 43
22926.43084780812
 44
-28859.42785143143
 45
33.33332910801413
 46
-0.0000008935482967
 79
     2
 49
4.530409872531891
 49
-375.5280685424805
 53
164.7448806762685
 43
22917.59613768697
 44
-28860.61987756973
 45
-33.33332910801413
 46
-0.0000008935482878
 79
     2
 49
4.530409872531891
 49
-375.5280685424805
 53
210.9637565612813
 43
22929.8920275414
 44
-28761.81190758234
 45
33.33333591427053
 46
0.0000002214346608
 79
     2
 49
4.352369904518127
 49
-190.0126838684082
 53
329.0362396240333
 43
22943.1221677506
 44
-28761.81190758234
 45
33.33333591427045
 46
-0.0000024407288386
 79
     2
 49
4.352369904518127
 49
-190.0126838684082
 53
210.9637565612813
 43
22930.16296760678
 44
-28857.18856691605
 45
33.33333591427053
 46
0.0000002214346608
 79
     2
 49
4.352369904518127
 49
-190.0126838684082
 53
149.0362434387187
 43
22913.22535769582
 44
-28859.42785143143
 45
-33.33333591427053
 46
0.0000002214346679
 79
     2
 49
4.352369904518127
 49
-190.0126838684082
 53
225.0000000000029
 43
22926.15990774274
 44
-28764.05118762737
 45
33.33333894439541
 46
0.0000000000017124
 79
     2
 49
3.701289892196655
 49
-137.7200698852539
 53
315.0000000000089
 43
22946.82962791562
 44
-28764.05118762737
 45
33.33333894439541
 46
0.0000000000051728
 79
     2
 49
3.701289892196655
 49
-137.7200698852539
 53
225.0000000000029
 43
22932.78016792178
 44
-28854.5713698793
 45
33.33333894439541
 46
0.0000000000017124
 79
     2
 49
3.701289892196655
 49
-137.7200698852539
 53
134.999999999997
 43
22909.49323670506
 44
-28857.18856691605
 45
-33.33333894439541
 46
0.0000000000017195
 79
     2
 49
3.701289892196655
 49
-137.7200698852539
 53
236.309932708744
 43
22923.54269759297
 44
-28766.66838764435
 45
33.33333501537939
 46
0.0000037734546403
 79
     2
 49
3.882290124893188
 49
-116.3027477264404
 53
303.6900634765706
 43
22949.44683806539
 44
-28766.66838764435
 45
33.33333501537906
 46
-0.0000059927487843
 79
     2
 49
3.882290124893188
 49
-116.3027477264404
 53
236.309932708744
 43
22934.93367777705
 44
-28851.34110330826
 45
33.33333501537939
 46
0.0000037734546403
 79
     2
 49
3.882290124893188
 49
-116.3027477264404
 53
123.690067291256
 43
22906.87602774739
 44
-28854.5713698793
 45
-33.33333501537939
 46
0.0000037734546474
 79
     2
 49
3.882290124893188
 49
-116.3027477264404
 53
251.5650482177782
 43
22921.3891877377
 44
-28769.89864765888
 45
33.3333373816329
 46
0.0000016711047923
 79
     2
 49
4.936600029468536
 49
-100.4726600646973
 53
288.4349517822337
 43
22951.60034792066
 44
-28769.89864765888
 45
33.3333373816329
 46
-0.0000016710979089
 79
     2
 49
4.936600029468536
 49
-100.4726600646973
 53
251.5650482177782
 43
22936.49476782918
 44
-28846.65783762222
 45
33.3333373816329
 46
0.0000016711047923
 79
     2
 49
4.936600029468536
 49
-100.4726600646973
 53
108.4349517822219
 43
22904.72252862096
 44
-28851.34110330826
 45
-33.3333373816329
 46
0.0000016711047941
 79
     2
 49
4.936600029468536
 49
-100.4726600646973
 53
263.6598052978571
 43
22953.16142813802
 44
-28777.28653787857
 45
33.33334276925951
 46
200.0000100942898
 79
     2
 49
3.597190082073212
 49
-298.2489776611328
 53
276.3401947021548
 43
22919.82810752034
 44
-28777.28653787857
 45
33.33334276930083
 46
-200.0000100942829
 79
     2
 49
3.597190082073211
 49
-298.2489776611328
 53
83.65982055665796
 43
22936.49476782918
 44
-28843.95320772415
 45
-33.33328950599253
 46
-200.0000189714958
 79
     2
 49
3.597190082073212
 49
-298.2489776611328
 53
96.34019470214294
 43
22936.49476782918
 44
-28843.95320772415
 45
-33.33334276925946
 46
200.0000100942898
 79
     2
 49
3.597190082073212
 49
-298.2489776611328
 98
        0
1001
ACAD
1010
22936.49476782918
1020
-28760.61987756973
1030
0.0
  0
LWPOLYLINE
  5
21D
330
1F
100
AcDbEntity
  8
Ech.1_5
  6
Continuous
 62
   190
370
    15
390
5F
100
AcDbPolyline
 90
        9
 70
     0
 43
0.0
 10
22936.49476782918
 20
-28760.61987756973
 10
22716.49432683254
 20
-28760.61987756973
 10
22716.49432683254
 20
-28860.61987756973
 10
22936.49476782918
 20
-28860.61987756973
 10
22936.49476782918
 20
-28785.05105431239
 10
22918.51641623616
 20
-28768.5647109286
 10
22954.4731194222
 20
-28782.67504421087
 10
22936.49476782918
 20
-28766.18870082708
 10
22936.49476782918
 20
-28760.61987756973
  0
HATCH
  5
21E
330
1F
100
AcDbEntity
  8
Ech.1_5
  6
Continuous
 62
   254
420
 16643007
440
 33554687
370
     5
390
5F
100
AcDbHatch
 10
0.0
 20
0.0
 30
0.0
210
0.0
220
0.0
230
1.0
  2
SOLID
 70
     1
 71
     0
 91
        1
 92
        3
 72
     0
 73
     1
 93
        4
 10
22241.49520882581
 20
-28711.11941795285
 10
22241.49520882581
 20
-28860.61987756973
 10
22266.49520882581
 20
-28860.61987756973
 10
22266.49520882581
 20
-28711.11941795285
 97
        0
 75
     0
 76
     1
 98
        0
  0
HATCH
  5
21F
330
1F
100
AcDbEntity
  8
Ech.1_5
  6
Continuous
 62
     8
440
 33554687
370
    20
390
5F
100
AcDbHatch
 10
0.0
 20
0.0
 30
0.0
210
0.0
220
0.0
230
1.0
  2
CwHatchPattern_201
 70
     0
 71
     0
 91
        1
 92
        3
 72
     0
 73
     1
 93
        4
 10
22241.49520882581
 20
-28711.11941795285
 10
22241.49520882581
 20
-28860.61987756973
 10
22266.49520882581
 20
-28860.61987756973
 10
22266.49520882581
 20
-28711.11941795285
 97
        0
 75
     0
 76
     2
 52
270.0
 41
0.5
 77
     0
 78
    29
 53
270.0
 43
22241.49520882581
 44
-28710.56142545725
 45
25.0
 46
0.0000000000000015
 79
     2
 49
1.115984991192818
 49
-3.050682544708252
 53
0.0000000000059286
 43
22244.98571881269
 44
-28706.95275287564
 45
-0.0000000000008623
 46
8.333332538604736
 79
     2
 49
0.6761574745178223
 49
-24.32384252548218
 53
0.0000000000059286
 43
22262.32854136442
 44
-28711.11941795285
 45
-0.0000000000008623
 46
8.333332538604736
 79
     2
 49
0.6761574745178223
 49
-24.32384252548218
 53
14.93246459961628
 43
22246.55567118143
 44
-28715.18677304919
 45
24.99988012681199
 46
8.33378963004227
 79
     2
 49
15.39909720420837
 49
-113.9690208435058
 53
345.0675354003956
 43
22246.55567118143
 44
-28715.38539539511
 45
-24.99988012681371
 46
8.333789630037096
 79
     2
 49
15.39909720420837
 49
-113.9690208435059
 53
285.2551193237315
 43
22241.49520882581
 44
-28711.67741044845
 45
0.0000002233870706
 46
8.333332277003532
 79
     2
 49
1.132602468132973
 49
-93.88201713562012
 53
74.74488830567492
 43
22241.49520882581
 44
-28710.56142545725
 45
-0.0000013330391093
 46
8.333332277003429
 79
     2
 49
1.132602468132973
 49
-93.88201713562012
 53
285.2551193237315
 43
22266.19720229124
 44
-28713.63539795811
 45
0.0000002233870706
 46
8.333332277003532
 79
     2
 49
1.132602468132973
 49
-93.88201713562012
 53
254.7448806762685
 43
22266.49520882581
 44
-28715.8440754884
 45
0.0000002233870715
 46
-8.333332277003532
 79
     2
 49
1.132602468132973
 49
-93.88201713562012
 53
300.9637565612813
 43
22241.79321632897
 44
-28712.7701030248
 45
-0.0000000553586665
 46
8.333333978567634
 79
     2
 49
1.088092476129532
 49
-47.50317096710205
 53
59.03623962403325
 43
22241.79321632897
 44
-28709.4625679725
 45
0.0000006101822119
 46
8.333333978567612
 79
     2
 49
1.088092476129532
 49
-47.50317096710205
 53
300.9637565612813
 43
22265.63738116239
 44
-28712.70236800845
 45
-0.0000000553586665
 46
8.333333978567634
 79
     2
 49
1.088092476129532
 49
-47.50317096710205
 53
239.0362434387187
 43
22266.19720229124
 44
-28716.93677048619
 45
-0.0000000553586652
 46
-8.333333978567634
 79
     2
 49
1.088092476129532
 49
-47.50317096710205
 53
315.000000000003
 43
22242.35303634022
 44
-28713.70313297446
 45
-0.0000000000004317
 46
8.333334736098854
 79
     2
 49
0.9253224730491638
 49
-34.43001747131348
 53
45.0000000000089
 43
22242.35303634022
 44
-28708.53570293124
 45
-0.000000000001295
 46
8.333334736098854
 79
     2
 49
0.9253224730491638
 49
-34.43001747131348
 53
315.000000000003
 43
22264.98308190321
 44
-28712.0480679297
 45
-0.0000000000004317
 46
8.333334736098854
 79
     2
 49
0.9253224730491638
 49
-34.43001747131348
 53
224.999999999997
 43
22265.63738116239
 44
-28717.86980073388
 45
-0.0000000000004281
 46
-8.333334736098854
 79
     2
 49
0.9253224730491638
 49
-34.43001747131348
 53
326.3099327087439
 43
22243.00733634447
 44
-28714.3574355119
 45
-0.0000009433636592
 46
8.333333753844848
 79
     2
 49
0.9705725312232971
 49
-29.07568693161011
 53
33.69006347657064
 43
22243.00733634447
 44
-28707.8814003938
 45
0.0000014981871912
 46
8.333333753844766
 79
     2
 49
0.9705725312232971
 49
-29.07568693161011
 53
326.3099327087439
 43
22264.17551526045
 44
-28711.50969046588
 45
-0.0000009433636592
 46
8.333333753844848
 79
     2
 49
0.9705725312232971
 49
-29.07568693161011
 53
213.690067291256
 43
22264.98308190321
 44
-28718.5241029733
 45
-0.0000009433636605
 46
-8.333333753844848
 79
     2
 49
0.9705725312232971
 49
-29.07568693161011
 53
341.5650482177782
 43
22243.8149013481
 44
-28714.89581297572
 45
-0.0000004177761981
 46
8.333334345408225
 79
     2
 49
1.234150007367134
 49
-25.11816501617432
 53
18.43495178223369
 43
22243.8149013481
 44
-28707.34302292998
 45
0.0000004177744755
 46
8.333334345408225
 79
     2
 49
1.234150007367134
 49
-25.11816501617431
 53
341.5650482177782
 43
22263.00469883894
 44
-28711.11941795285
 45
-0.0000004177761981
 46
8.333334345408225
 79
     2
 49
1.234150007367134
 49
-25.11816501617432
 53
198.4349517822218
 43
22264.17551526045
 44
-28719.06247775491
 45
-0.0000004177761985
 46
-8.333334345408225
 79
     2
 49
1.234150007367134
 49
-25.11816501617432
 53
353.6598052978571
 43
22245.66187390302
 44
-28706.95275287564
 45
-50.00000252357246
 46
8.333335692314868
 79
     2
 49
0.8992975205183029
 49
-74.5622444152832
 53
6.340194702154776
 43
22245.66187390302
 44
-28715.28608303006
 45
50.00000252357074
 46
8.333335692325203
 79
     2
 49
0.8992975205183028
 49
-74.56224441528319
 53
173.659820556658
 43
22262.32854136442
 44
-28711.11941795285
 45
50.00000474287394
 46
-8.333322376498124
 79
     2
 49
0.8992975205183029
 49
-74.5622444152832
 53
186.3401947021429
 43
22262.32854136442
 44
-28711.11941795285
 45
-50.00000252357246
 46
-8.333335692314874
 79
     2
 49
0.8992975205183029
 49
-74.5622444152832
 98
        0
1001
ACAD
1010
22241.49520882581
1020
-28711.11941795285
1030
0.0
  0
LWPOLYLINE
  5
220
330
1F
100
AcDbEntity
  8
Ech.1_5
  6
Continuous
 62
   190
370
    15
390
5F
100
AcDbPolyline
 90
        5
 70
     0
 43
0.0
 10
22241.49520882581
 20
-28711.11941795285
 10
22241.49520882581
 20
-28860.61987756973
 10
22266.49520882581
 20
-28860.61987756973
 10
22266.49520882581
 20
-28711.11941795285
 10
22241.49520882581
 20
-28711.11941795285
  0
HATCH
  5
221
330
1F
100
AcDbEntity
  8
Ech.1_5
  6
Continuous
 62
   254
420
 16643007
440
 33554687
370
     5
390
5F
100
AcDbHatch
 10
0.0
 20
0.0
 30
0.0
210
0.0
220
0.0
230
1.0
  2
SOLID
 70
     1
 71
     0
 91
        1
 92
        3
 72
     0
 73
     1
 93
        4
 10
22716.49432683254
 20
-28711.11941795285
 10
22716.49432683254
 20
-28860.61987756973
 10
22691.49432683254
 20
-28860.61987756973
 10
22691.49432683254
 20
-28711.11941795285
 97
        0
 75
     0
 76
     1
 98
        0
  0
HATCH
  5
222
330
1F
100
AcDbEntity
  8
Ech.1_5
  6
Continuous
 62
     8
440
 33554687
370
    20
390
5F
100
AcDbHatch
 10
0.0
 20
0.0
 30
0.0
210
0.0
220
0.0
230
1.0
  2
CwHatchPattern_201
 70
     0
 71
     0
 91
        1
 92
        3
 72
     0
 73
     1
 93
        4
 10
22716.49432683254
 20
-28711.11941795285
 10
22716.49432683254
 20
-28860.61987756973
 10
22691.49432683254
 20
-28860.61987756973
 10
22691.49432683254
 20
-28711.11941795285
 97
        0
 75
     0
 76
     2
 52
270.0
 41
0.5
 77
     0
 78
    29
 53
270.0
 43
22716.49432683254
 44
-28710.56142545725
 45
25.0
 46
0.0000000000000015
 79
     2
 49
1.115984991192818
 49
-3.050682544708252
 53
0.0000000000059286
 43
22719.98483681942
 44
-28706.95275287564
 45
-0.0000000000008623
 46
8.333332538604736
 79
     2
 49
0.6761574745178223
 49
-24.32384252548218
 53
0.0000000000059286
 43
22737.32765937115
 44
-28711.11941795285
 45
-0.0000000000008623
 46
8.333332538604736
 79
     2
 49
0.6761574745178223
 49
-24.32384252548218
 53
14.93246459961628
 43
22721.55478918816
 44
-28715.18677304919
 45
24.99988012681199
 46
8.33378963004227
 79
     2
 49
15.39909720420837
 49
-113.9690208435058
 53
345.0675354003956
 43
22721.55478918816
 44
-28715.38539539511
 45
-24.99988012681371
 46
8.333789630037096
 79
     2
 49
15.39909720420837
 49
-113.9690208435059
 53
285.2551193237315
 43
22716.49432683254
 44
-28711.67741044845
 45
0.0000002233870706
 46
8.333332277003532
 79
     2
 49
1.132602468132973
 49
-93.88201713562012
 53
74.74488830567492
 43
22716.49432683254
 44
-28710.56142545725
 45
-0.0000013330391093
 46
8.333332277003429
 79
     2
 49
1.132602468132973
 49
-93.88201713562012
 53
285.2551193237315
 43
22741.19632029797
 44
-28713.63539795811
 45
0.0000002233870706
 46
8.333332277003532
 79
     2
 49
1.132602468132973
 49
-93.88201713562012
 53
254.7448806762685
 43
22741.49432683254
 44
-28715.8440754884
 45
0.0000002233870715
 46
-8.333332277003532
 79
     2
 49
1.132602468132973
 49
-93.88201713562012
 53
300.9637565612813
 43
22716.7923343357
 44
-28712.7701030248
 45
-0.0000000553586665
 46
8.333333978567634
 79
     2
 49
1.088092476129532
 49
-47.50317096710205
 53
59.03623962403325
 43
22716.7923343357
 44
-28709.4625679725
 45
0.0000006101822119
 46
8.333333978567612
 79
     2
 49
1.088092476129532
 49
-47.50317096710205
 53
300.9637565612813
 43
22740.63649916912
 44
-28712.70236800845
 45
-0.0000000553586665
 46
8.333333978567634
 79
     2
 49
1.088092476129532
 49
-47.50317096710205
 53
239.0362434387187
 43
22741.19632029797
 44
-28716.93677048619
 45
-0.0000000553586652
 46
-8.333333978567634
 79
     2
 49
1.088092476129532
 49
-47.50317096710205
 53
315.000000000003
 43
22717.35215434695
 44
-28713.70313297446
 45
-0.0000000000004317
 46
8.333334736098854
 79
     2
 49
0.9253224730491638
 49
-34.43001747131348
 53
45.0000000000089
 43
22717.35215434695
 44
-28708.53570293124
 45
-0.000000000001295
 46
8.333334736098854
 79
     2
 49
0.9253224730491638
 49
-34.43001747131348
 53
315.000000000003
 43
22739.98219990994
 44
-28712.0480679297
 45
-0.0000000000004317
 46
8.333334736098854
 79
     2
 49
0.9253224730491638
 49
-34.43001747131348
 53
224.999999999997
 43
22740.63649916912
 44
-28717.86980073388
 45
-0.0000000000004281
 46
-8.333334736098854
 79
     2
 49
0.9253224730491638
 49
-34.43001747131348
 53
326.3099327087439
 43
22718.0064543512
 44
-28714.3574355119
 45
-0.0000009433636592
 46
8.333333753844848
 79
     2
 49
0.9705725312232971
 49
-29.07568693161011
 53
33.69006347657064
 43
22718.0064543512
 44
-28707.8814003938
 45
0.0000014981871912
 46
8.333333753844766
 79
     2
 49
0.9705725312232971
 49
-29.07568693161011
 53
326.3099327087439
 43
22739.17463326718
 44
-28711.50969046588
 45
-0.0000009433636592
 46
8.333333753844848
 79
     2
 49
0.9705725312232971
 49
-29.07568693161011
 53
213.690067291256
 43
22739.98219990994
 44
-28718.5241029733
 45
-0.0000009433636605
 46
-8.333333753844848
 79
     2
 49
0.9705725312232971
 49
-29.07568693161011
 53
341.5650482177782
 43
22718.81401935483
 44
-28714.89581297572
 45
-0.0000004177761981
 46
8.333334345408225
 79
     2
 49
1.234150007367134
 49
-25.11816501617432
 53
18.43495178223369
 43
22718.81401935483
 44
-28707.34302292998
 45
0.0000004177744755
 46
8.333334345408225
 79
     2
 49
1.234150007367134
 49
-25.11816501617431
 53
341.5650482177782
 43
22738.00381684567
 44
-28711.11941795285
 45
-0.0000004177761981
 46
8.333334345408225
 79
     2
 49
1.234150007367134
 49
-25.11816501617432
 53
198.4349517822218
 43
22739.17463326718
 44
-28719.06247775491
 45
-0.0000004177761985
 46
-8.333334345408225
 79
     2
 49
1.234150007367134
 49
-25.11816501617432
 53
353.6598052978571
 43
22720.66099190975
 44
-28706.95275287564
 45
-50.00000252357246
 46
8.333335692314868
 79
     2
 49
0.8992975205183029
 49
-74.5622444152832
 53
6.340194702154776
 43
22720.66099190975
 44
-28715.28608303006
 45
50.00000252357074
 46
8.333335692325203
 79
     2
 49
0.8992975205183028
 49
-74.56224441528319
 53
173.659820556658
 43
22737.32765937115
 44
-28711.11941795285
 45
50.00000474287394
 46
-8.333322376498124
 79
     2
 49
0.8992975205183029
 49
-74.5622444152832
 53
186.3401947021429
 43
22737.32765937115
 44
-28711.11941795285
 45
-50.00000252357246
 46
-8.333335692314874
 79
     2
 49
0.8992975205183029
 49
-74.5622444152832
 98
        0
1001
ACAD
1010
22716.49432683254
1020
-28711.11941795285
1030
0.0
  0
LWPOLYLINE
  5
223
330
1F
100
AcDbEntity
  8
Ech.1_5
  6
Continuous
 62
   190
370
    15
390
5F
100
AcDbPolyline
 90
        5
 70
     0
 43
0.0
 10
22716.49432683254
 20
-28711.11941795285
 10
22716.49432683254
 20
-28860.61987756973
 10
22691.49432683254
 20
-28860.61987756973
 10
22691.49432683254
 20
-28711.11941795285
 10
22716.49432683254
 20
-28711.11941795285
  0
HATCH
  5
224
330
1F
100
AcDbEntity
  8
Ech.1_5
  6
Continuous
 62
   254
420
 13882323
440
 33554687
370
    20
390
5F
100
AcDbHatch
 10
0.0
 20
0.0
 30
0.0
210
0.0
220
0.0
230
1.0
  2
SOLID
 70
     1
 71
     0
 91
        1
 92
        3
 72
     0
 73
     1
 93
        4
 10
22651.49476782918
 20
-28930.61987756973
 10
22936.49476782918
 20
-28930.61987756973
 10
22936.49476782918
 20
-28950.61987756973
 10
22651.49476782918
 20
-28950.61987756973
 97
        0
 75
     0
 76
     1
 98
        0
  0
LWPOLYLINE
  5
225
330
1F
100
AcDbEntity
  8
Ech.1_5
  6
Continuous
 62
     7
370
    20
390
5F
100
AcDbPolyline
 90
        5
 70
     0
 43
0.0
 10
22651.49476782918
 20
-28930.61987756973
 10
22936.49476782918
 20
-28930.61987756973
 10
22936.49476782918
 20
-28950.61987756973
 10
22651.49476782918
 20
-28950.61987756973
 10
22651.49476782918
 20
-28930.61987756973
  0
HATCH
  5
226
330
1F
100
AcDbEntity
  8
Ech.1_5
  6
Continuous
 62
   254
420
 13882323
440
 33554687
370
    20
390
5F
100
AcDbHatch
 10
0.0
 20
0.0
 30
0.0
210
0.0
220
0.0
230
1.0
  2
SOLID
 70
     1
 71
     0
 91
        1
 92
        3
 72
     0
 73
     1
 93
        4
 10
22286.49476782918
 20
-28930.61987756973
 10
22021.49476782918
 20
-28930.61987756973
 10
22021.49476782918
 20
-28950.61987756973
 10
22286.49476782918
 20
-28950.61987756973
 97
        0
 75
     0
 76
     1
 98
        0
  0
LWPOLYLINE
  5
227
330
1F
100
AcDbEntity
  8
Ech.1_5
  6
Continuous
 62
     7
370
    20
390
5F
100
AcDbPolyline
 90
        5
 70
     0
 43
0.0
 10
22286.49476782918
 20
-28930.61987756973
 10
22021.49476782918
 20
-28930.61987756973
 10
22021.49476782918
 20
-28950.61987756973
 10
22286.49476782918
 20
-28950.61987756973
 10
22286.49476782918
 20
-28930.61987756973
  0
HATCH
  5
228
330
1F
100
AcDbEntity
  8
Ech.1_5
  6
Continuous
 62
   254
420
 13882323
440
 33554687
370
    20
390
5F
100
AcDbHatch
 10
0.0
 20
0.0
 30
0.0
210
0.0
220
0.0
230
1.0
  2
SOLID
 70
     1
 71
     0
 91
        1
 92
        3
 72
     0
 73
     1
 93
        4
 10
22286.49520882581
 20
-28666.11941795285
 10
22306.49520882581
 20
-28666.11941795285
 10
22306.49520882581
 20
-28950.61987756973
 10
22286.49520882581
 20
-28950.61987756973
 97
        0
 75
     0
 76
     1
 98
        0
  0
LWPOLYLINE
  5
229
330
1F
100
AcDbEntity
  8
Ech.1_5
  6
Continuous
 62
     7
370
    20
390
5F
100
AcDbPolyline
 90
        5
 70
     0
 43
0.0
 10
22286.49520882581
 20
-28666.11941795285
 10
22306.49520882581
 20
-28666.11941795285
 10
22306.49520882581
 20
-28950.61987756973
 10
22286.49520882581
 20
-28950.61987756973
 10
22286.49520882581
 20
-28666.11941795285
  0
HATCH
  5
22A
330
1F
100
AcDbEntity
  8
Ech.1_5
  6
Continuous
 62
   254
420
 13882323
440
 33554687
370
    20
390
5F
100
AcDbHatch
 10
0.0
 20
0.0
 30
0.0
210
0.0
220
0.0
230
1.0
  2
SOLID
 70
     1
 71
     0
 91
        1
 92
        3
 72
     0
 73
     1
 93
        4
 10
22671.49432683254
 20
-28666.11941795285
 10
22651.49432683254
 20
-28666.11941795285
 10
22651.49432683254
 20
-28950.61987756973
 10
22671.49432683254
 20
-28950.61987756973
 97
        0
 75
     0
 76
     1
 98
        0
  0
LWPOLYLINE
  5
22B
330
1F
100
AcDbEntity
  8
Ech.1_5
  6
Continuous
 62
     7
370
    20
390
5F
100
AcDbPolyline
 90
        5
 70
     0
 43
0.0
 10
22671.49432683254
 20
-28666.11941795285
 10
22651.49432683254
 20
-28666.11941795285
 10
22651.49432683254
 20
-28950.61987756973
 10
22671.49432683254
 20
-28950.61987756973
 10
22671.49432683254
 20
-28666.11941795285
  0
HATCH
  5
22C
330
1F
100
AcDbEntity
  8
Ech.1_5
  6
Continuous
 62
     9
440
 33554687
370
     9
390
5F
100
AcDbHatch
 10
0.0
 20
0.0
 30
0.0
210
0.0
220
0.0
230
1.0
  2
CwHatchPattern_11
 70
     0
 71
     0
 91
        1
 92
        3
 72
     0
 73
     1
 93
        4
 10
22683.48554005369
 20
-28639.81932965945
 10
22688.48554005369
 20
-28639.81932965945
 10
22688.48598105033
 20
-28624.81932965945
 10
22683.48554005369
 20
-28624.81932965945
 97
        0
 75
     0
 76
     2
 52
0.0
 41
0.5
 77
     0
 78
     1
 53
45.00000000000297
 43
0.0
 44
0.0
 45
-1.76776695296646
 46
1.767766952966277
 79
     0
 98
        0
1001
ACAD
1010
0.0
1020
0.0
1030
0.0
  0
LWPOLYLINE
  5
22D
330
1F
100
AcDbEntity
  8
Ech.1_5
  6
Continuous
 62
     9
370
     5
390
5F
100
AcDbPolyline
 90
        5
 70
     0
 43
0.0
 10
22683.48554005369
 20
-28639.81932965945
 10
22688.48554005369
 20
-28639.81932965945
 10
22688.48598105033
 20
-28624.81932965945
 10
22683.48554005369
 20
-28624.81932965945
 10
22683.48554005369
 20
-28639.81932965945
  0
HATCH
  5
22E
330
1F
100
AcDbEntity
  8
Ech.1_5
  6
Continuous
 62
     9
440
 33554687
370
     9
390
5F
100
AcDbHatch
 10
0.0
 20
0.0
 30
0.0
210
0.0
220
0.0
230
1.0
  2
CwHatchPattern_11
 70
     0
 71
     0
 91
        1
 92
        3
 72
     0
 73
     1
 93
        4
 10
22274.50399560467
 20
-28639.81932965945
 10
22269.50399560467
 20
-28639.81932965945
 10
22269.50355460803
 20
-28624.81932965945
 10
22274.50399560467
 20
-28624.81932965945
 97
        0
 75
     0
 76
     2
 52
0.0
 41
0.5
 77
     0
 78
     1
 53
45.00000000000297
 43
0.0
 44
0.0
 45
-1.76776695296646
 46
1.767766952966277
 79
     0
 98
        0
1001
ACAD
1010
0.0
1020
0.0
1030
0.0
  0
LWPOLYLINE
  5
22F
330
1F
100
AcDbEntity
  8
Ech.1_5
  6
Continuous
 62
     9
370
     5
390
5F
100
AcDbPolyline
 90
        5
 70
     0
 43
0.0
 10
22274.50399560467
 20
-28639.81932965945
 10
22269.50399560467
 20
-28639.81932965945
 10
22269.50355460803
 20
-28624.81932965945
 10
22274.50399560467
 20
-28624.81932965945
 10
22274.50399560467
 20
-28639.81932965945
  0
LWPOLYLINE
  5
230
330
1F
100
AcDbEntity
  8
Ech.1_5
  6
Continuous
 62
   177
370
    20
390
5F
100
AcDbPolyline
 90
        3
 70
     0
 43
0.0
 10
22671.49432683254
 20
-28661.11941795285
 10
22671.49432683254
 20
-28965.61987756973
 10
22488.99476782918
 20
-28965.61987756973
  0
LWPOLYLINE
  5
231
330
1F
100
AcDbEntity
  8
Ech.1_5
  6
Continuous
 62
   177
370
    20
390
5F
100
AcDbPolyline
 90
        3
 70
     0
 43
0.0
 10
22286.49520882581
 20
-28661.11941795285
 10
22286.49520882581
 20
-28965.61987756973
 10
22468.99476782918
 20
-28965.61987756973
  0
LWPOLYLINE
  5
232
330
1F
100
AcDbEntity
  8
Ech.1_5
  6
Continuous
 62
   190
370
    15
390
5F
100
AcDbPolyline
 90
        5
 70
     0
 43
0.0
 10
21986.49476782918
 20
-29324.06295776367
 10
22971.49476782918
 20
-29324.06295776367
 10
22971.49476782918
 20
-29461.47604370117
 10
21986.49476782918
 20
-29461.47604370117
 10
21986.49476782918
 20
-29324.06295776367
  0
HATCH
  5
233
330
1F
100
AcDbEntity
  8
Ech.1_5
  6
Continuous
 62
     9
440
 33554687
370
    15
390
5F
100
AcDbHatch
 10
0.0
 20
0.0
 30
0.0
210
0.0
220
0.0
230
1.0
  2
CwHatchPattern_12
 70
     0
 71
     0
 91
        1
 92
        3
 72
     1
 73
     1
 93
       24
 10
22746.49512322865
 20
-28644.81978927635
 42
0.0
 10
22746.49432683254
 20
-28601.61990065379
 42
-0.4142203235083107
 10
22747.49432683228
 20
-28600.61987756973
 42
0.0
 10
22750.9942919021
 20
-28600.61987756973
 42
0.4142135623648453
 10
22752.4942919021
 20
-28599.11987756973
 42
0.0
 10
22752.4942919021
 20
-28596.61984474283
 42
0.4142103574013922
 10
22746.49435755695
 20
-28590.61984474317
 42
0.0
 10
22707.49127261368
 20
-28590.61941795285
 42
0.4142175214348454
 10
22706.49125909673
 20
-28591.61941795273
 42
0.0
 10
22706.49125909673
 20
-28621.60890366202
 42
0.3639702342419973
 10
22707.31761091905
 20
-28622.59371141502
 42
0.0
 10
22709.77246819742
 20
-28623.02656898701
 42
-0.3152987888747599
 10
22710.58362777276
 20
-28623.83772856231
 42
0.0
 10
22711.48431325714
 20
-28628.94576977503
 42
-0.466307658159651
 10
22710.49950550412
 20
-28630.11941795267
 42
0.0
 10
22689.48626824137
 20
-28630.11941795267
 42
0.4400105308468109
 10
22688.49007354327
 20
-28631.20657369542
 42
0.0
 10
22689.81006879659
 20
-28646.29418848037
 42
0.3888799926059617
 10
22691.80246695394
 20
-28648.11987699482
 42
0.0
 10
22721.49408988941
 20
-28648.11974692834
 42
0.0
 10
22739.5156936743
 20
-28648.11966798327
 42
0.408245153775146
 10
22740.49522103033
 20
-28647.11982383143
 42
0.0
 10
22740.4951511726
 20
-28645.81986359874
 42
0.0
 10
22745.49513720071
 20
-28645.81980771141
 42
0.4142148696552345
 97
        0
 75
     0
 76
     2
 52
90.00105625587037
 41
1.160095930099487
 77
     0
 78
     1
 53
225.0010562558793
 43
0.0
 44
0.0
 45
4.101634107121051
 46
-4.10148288148764
 79
     0
 98
        0
1001
ACAD
1010
0.0
1020
0.0
1030
0.0
  0
LWPOLYLINE
  5
234
330
1F
100
AcDbEntity
  8
Ech.1_5
  6
Continuous
 62
     9
370
    15
390
5F
100
AcDbPolyline
 90
       25
 70
     0
 43
0.0
 10
22746.49512322865
 20
-28644.81978927635
 10
22746.49432683254
 20
-28601.61990065379
 42
-0.4142203235083108
 10
22747.49432683228
 20
-28600.61987756973
 10
22750.9942919021
 20
-28600.61987756973
 42
0.4142135623648453
 10
22752.4942919021
 20
-28599.11987756973
 10
22752.4942919021
 20
-28596.61984474283
 42
0.4142103574019985
 10
22746.49435755695
 20
-28590.61984474317
 10
22707.49127261368
 20
-28590.61941795285
 42
0.4142175214348456
 10
22706.49125909673
 20
-28591.61941795273
 10
22706.49125909673
 20
-28621.60890366202
 42
0.3639702342447878
 10
22707.31761091905
 20
-28622.59371141502
 10
22709.77246819742
 20
-28623.02656898701
 42
-0.3152987888747599
 10
22710.58362777276
 20
-28623.83772856231
 10
22711.48431325714
 20
-28628.94576977503
 42
-0.4663076581609475
 10
22710.49950550412
 20
-28630.11941795267
 10
22689.48626824137
 20
-28630.11941795267
 42
0.4400105308489417
 10
22688.49007354327
 20
-28631.20657369542
 10
22689.81006879659
 20
-28646.29418848037
 42
0.3888799926051314
 10
22691.80246695394
 20
-28648.11987699482
 10
22721.49408988941
 20
-28648.11974692834
 10
22739.5156936743
 20
-28648.11966798327
 42
0.4082451537789346
 10
22740.49522103033
 20
-28647.11982383143
 10
22740.4951511726
 20
-28645.81986359874
 10
22745.49513720071
 20
-28645.81980771141
 42
0.414214869655234
 10
22746.49512322865
 20
-28644.81978927635
  0
HATCH
  5
235
330
1F
100
AcDbEntity
  8
Ech.1_5
  6
Continuous
 62
   254
420
 15326711
440
 33554687
370
     5
390
5F
100
AcDbHatch
 10
0.0
 20
0.0
 30
0.0
210
0.0
220
0.0
230
1.0
  2
SOLID
 70
     1
 71
     0
 91
        1
 92
        3
 72
     0
 73
     1
 93
        8
 10
22746.49432683254
 20
-28600.61987756973
 10
22746.49432683254
 20
-28648.11985644176
 10
22731.49432683254
 20
-28648.11985644176
 10
22731.49432683254
 20
-28653.11985644176
 10
22716.49432683254
 20
-28653.11985644176
 10
22716.49432683254
 20
-28760.61987756973
 10
22936.49476782918
 20
-28760.61987756973
 10
22936.49476782918
 20
-28600.61987756973
 97
        0
 75
     0
 76
     1
 98
        0
  0
LWPOLYLINE
  5
236
330
1F
100
AcDbEntity
  8
Ech.1_5
  6
Continuous
 62
   190
370
    20
390
5F
100
AcDbPolyline
 90
        9
 70
     0
 43
0.0
 38
2500.0
 39
-2500.0
 10
22746.49432683254
 20
-28600.61987756973
 10
22746.49432683254
 20
-28648.11985644176
 10
22731.49432683254
 20
-28648.11985644176
 10
22731.49432683254
 20
-28653.11985644176
 10
22716.49432683254
 20
-28653.11985644176
 10
22716.49432683254
 20
-28760.61987756973
 10
22936.49476782918
 20
-28760.61987756973
 10
22936.49476782918
 20
-28600.61987756973
 10
22746.49432683254
 20
-28600.61987756973
  0
HATCH
  5
237
330
1F
100
AcDbEntity
  8
Ech.1_5
  6
Continuous
 62
     9
440
 33554687
370
    15
390
5F
100
AcDbHatch
 10
0.0
 20
0.0
 30
0.0
210
0.0
220
0.0
230
1.0
  2
CwHatchPattern_21
 70
     0
 71
     0
 91
        1
 92
        3
 72
     0
 73
     1
 93
        4
 10
22688.48554005369
 20
-28630.12007942398
 10
22688.48554005369
 20
-28590.61941795285
 10
22706.49741870776
 20
-28590.61941795285
 10
22706.49741870776
 20
-28630.12007942398
 97
        0
 75
     0
 76
     2
 52
90.0
 41
0.3602375686168671
 77
     0
 78
     1
 53
135.000000000003
 43
0.0
 44
0.0
 45
-2.547264276071278
 46
-2.54726427607154
 79
     0
 98
        0
1001
ACAD
1010
0.0
1020
0.0
1030
0.0
  0
LWPOLYLINE
  5
238
330
1F
100
AcDbEntity
  8
Ech.1_5
  6
Continuous
 62
     9
370
    15
390
5F
100
AcDbPolyline
 90
        5
 70
     0
 43
0.0
 10
22688.48554005369
 20
-28630.12007942398
 10
22688.48554005369
 20
-28590.61941795285
 10
22706.49741870776
 20
-28590.61941795285
 10
22706.49741870776
 20
-28630.12007942398
 10
22688.48554005369
 20
-28630.12007942398
  0
HATCH
  5
239
330
1F
100
AcDbEntity
  8
Ech.1_5
  6
Continuous
 62
    33
420
 12426362
440
 33554687
370
     5
390
5F
100
AcDbHatch
 10
0.0
 20
0.0
 30
0.0
210
0.0
220
0.0
230
1.0
  2
SOLID
 70
     1
 71
     0
 91
        1
 92
        3
 72
     0
 73
     1
 93
        4
 10
22671.49432683254
 20
-28930.61987756973
 10
22671.49432683254
 20
-28860.61987756973
 10
22716.49432683254
 20
-28860.61987756973
 10
22716.49432683254
 20
-28930.61987756973
 97
        0
 75
     0
 76
     1
 98
        0
  0
LINE
  5
23A
330
1F
100
AcDbEntity
  8
Ech.1_5
  6
Continuous
 62
   190
370
    15
390
5F
100
AcDbLine
 10
22671.49432683254
 20
-28860.61987756973
 30
0.0
 11
22716.49432683254
 21
-28930.61987756973
 31
0.0
  0
LINE
  5
23B
330
1F
100
AcDbEntity
  8
Ech.1_5
  6
Continuous
 62
   190
370
    15
390
5F
100
AcDbLine
 10
22716.49432683254
 20
-28860.61987756973
 30
0.0
 11
22671.49432683254
 21
-28930.61987756973
 31
0.0
  0
LWPOLYLINE
  5
23C
330
1F
100
AcDbEntity
  8
Ech.1_5
  6
Continuous
 62
     5
370
    40
390
5F
100
AcDbPolyline
 90
        5
 70
     0
 43
0.0
 10
22671.49432683254
 20
-28930.61987756973
 10
22671.49432683254
 20
-28860.61987756973
 10
22716.49432683254
 20
-28860.61987756973
 10
22716.49432683254
 20
-28930.61987756973
 10
22671.49432683254
 20
-28930.61987756973
  0
HATCH
  5
23D
330
1F
100
AcDbEntity
  8
Ech.1_5
  6
Continuous
 62
     7
440
 33554687
370
    20
390
5F
100
AcDbHatch
 10
0.0
 20
0.0
 30
0.0
210
0.0
220
0.0
230
1.0
  2
SOLID
 70
     1
 71
     0
 91
        1
 92
        3
 72
     0
 73
     1
 93
        6
 10
22716.49432683254
 20
-28760.61987756973
 10
22773.53358662747
 20
-28760.61987756973
 10
22773.53358662747
 20
-28764.61987756973
 10
22720.49432702253
 20
-28764.61987756973
 10
22720.49432702253
 20
-28913.72116541153
 10
22716.49432683254
 20
-28913.72116541153
 97
        0
 75
     0
 76
     1
 98
        0
  0
LWPOLYLINE
  5
23E
330
1F
100
AcDbEntity
  8
Ech.1_5
  6
Continuous
 62
     7
370
    20
390
5F
100
AcDbPolyline
 90
        7
 70
     0
 43
0.0
 10
22716.49432683254
 20
-28760.61987756973
 10
22773.53358662747
 20
-28760.61987756973
 10
22773.53358662747
 20
-28764.61987756973
 10
22720.49432702253
 20
-28764.61987756973
 10
22720.49432702253
 20
-28913.72116541153
 10
22716.49432683254
 20
-28913.72116541153
 10
22716.49432683254
 20
-28760.61987756973
  0
LWPOLYLINE
  5
23F
330
1F
100
AcDbEntity
  8
Ech.1_5
  6
CADWORK_3
 62
   177
370
    20
390
5F
100
AcDbPolyline
 90
        2
 70
     0
 43
0.0
 10
22671.49432683254
 20
-28661.11941795285
 10
22488.99476782918
 20
-28661.11941795285
  0
HATCH
  5
240
330
1F
100
AcDbEntity
  8
Ech.1_5
  6
Continuous
 62
     9
440
 33554687
370
    15
390
5F
100
AcDbHatch
 10
0.0
 20
0.0
 30
0.0
210
0.0
220
0.0
230
1.0
  2
CwHatchPattern_12
 70
     0
 71
     0
 91
        1
 92
        3
 72
     1
 73
     1
 93
       24
 10
22211.4944124297
 20
-28644.81978927635
 42
0.0
 10
22211.49520882581
 20
-28601.61990065379
 42
0.4142203235083107
 10
22210.49520882608
 20
-28600.61987756973
 42
0.0
 10
22206.99524375626
 20
-28600.61987756973
 42
-0.4142135623648453
 10
22205.49524375626
 20
-28599.11987756973
 42
0.0
 10
22205.49524375626
 20
-28596.61984474283
 42
-0.4142103574013922
 10
22211.49517810141
 20
-28590.61984474317
 42
0.0
 10
22250.49826304468
 20
-28590.61941795285
 42
-0.4142175214348454
 10
22251.49827656163
 20
-28591.61941795273
 42
0.0
 10
22251.49827656163
 20
-28621.60890366202
 42
-0.3639702342419973
 10
22250.6719247393
 20
-28622.59371141502
 42
0.0
 10
22248.21706746094
 20
-28623.02656898701
 42
0.3152987888747599
 10
22247.40590788559
 20
-28623.83772856231
 42
0.0
 10
22246.50522240122
 20
-28628.94576977503
 42
0.466307658159651
 10
22247.49003015424
 20
-28630.11941795267
 42
0.0
 10
22268.50326741699
 20
-28630.11941795267
 42
-0.4400105308468109
 10
22269.49946211508
 20
-28631.20657369542
 42
0.0
 10
22268.17946686177
 20
-28646.29418848037
 42
-0.3888799926059617
 10
22266.18706870441
 20
-28648.11987699482
 42
0.0
 10
22236.49544576895
 20
-28648.11974692834
 42
0.0
 10
22218.47384198406
 20
-28648.11966798327
 42
-0.408245153775146
 10
22217.49431462803
 20
-28647.11982383143
 42
0.0
 10
22217.49438448576
 20
-28645.81986359874
 42
0.0
 10
22212.49439845765
 20
-28645.81980771141
 42
-0.4142148696552345
 97
        0
 75
     0
 76
     2
 52
89.99894374413445
 41
1.160095930099487
 77
     0
 78
     1
 53
224.9989437441433
 43
0.0
 44
0.0
 45
4.10148288148926
 46
-4.101634107119432
 79
     0
 98
        0
1001
ACAD
1010
0.0
1020
0.0
1030
0.0
  0
LWPOLYLINE
  5
241
330
1F
100
AcDbEntity
  8
Ech.1_5
  6
Continuous
 62
     9
370
    15
390
5F
100
AcDbPolyline
 90
       25
 70
     0
 43
0.0
 10
22211.4944124297
 20
-28644.81978927635
 10
22211.49520882581
 20
-28601.61990065379
 42
0.4142203235083108
 10
22210.49520882608
 20
-28600.61987756973
 10
22206.99524375626
 20
-28600.61987756973
 42
-0.4142135623648453
 10
22205.49524375626
 20
-28599.11987756973
 10
22205.49524375626
 20
-28596.61984474283
 42
-0.4142103574019985
 10
22211.49517810141
 20
-28590.61984474317
 10
22250.49826304468
 20
-28590.61941795285
 42
-0.4142175214348456
 10
22251.49827656163
 20
-28591.61941795273
 10
22251.49827656163
 20
-28621.60890366202
 42
-0.3639702342447878
 10
22250.6719247393
 20
-28622.59371141502
 10
22248.21706746094
 20
-28623.02656898701
 42
0.3152987888747599
 10
22247.40590788559
 20
-28623.83772856231
 10
22246.50522240122
 20
-28628.94576977503
 42
0.4663076581609475
 10
22247.49003015424
 20
-28630.11941795267
 10
22268.50326741699
 20
-28630.11941795267
 42
-0.4400105308489417
 10
22269.49946211508
 20
-28631.20657369542
 10
22268.17946686177
 20
-28646.29418848037
 42
-0.3888799926051314
 10
22266.18706870441
 20
-28648.11987699482
 10
22236.49544576895
 20
-28648.11974692834
 10
22218.47384198406
 20
-28648.11966798327
 42
-0.4082451537789346
 10
22217.49431462803
 20
-28647.11982383143
 10
22217.49438448576
 20
-28645.81986359874
 10
22212.49439845765
 20
-28645.81980771141
 42
-0.414214869655234
 10
22211.4944124297
 20
-28644.81978927635
  0
HATCH
  5
242
330
1F
100
AcDbEntity
  8
Ech.1_5
  6
Continuous
 62
     9
440
 33554687
370
    15
390
5F
100
AcDbHatch
 10
0.0
 20
0.0
 30
0.0
210
0.0
220
0.0
230
1.0
  2
CwHatchPattern_21
 70
     0
 71
     0
 91
        1
 92
        3
 72
     0
 73
     1
 93
        4
 10
22269.50399560467
 20
-28630.12007942398
 10
22269.50399560467
 20
-28590.61941795285
 10
22251.4921169506
 20
-28590.61941795285
 10
22251.4921169506
 20
-28630.12007942398
 97
        0
 75
     0
 76
     2
 52
90.0
 41
0.3602375686168671
 77
     0
 78
     1
 53
135.000000000003
 43
0.0
 44
0.0
 45
-2.547264276071278
 46
-2.54726427607154
 79
     0
 98
        0
1001
ACAD
1010
0.0
1020
0.0
1030
0.0
  0
LWPOLYLINE
  5
243
330
1F
100
AcDbEntity
  8
Ech.1_5
  6
Continuous
 62
     9
370
    15
390
5F
100
AcDbPolyline
 90
        5
 70
     0
 43
0.0
 10
22269.50399560467
 20
-28630.12007942398
 10
22269.50399560467
 20
-28590.61941795285
 10
22251.4921169506
 20
-28590.61941795285
 10
22251.4921169506
 20
-28630.12007942398
 10
22269.50399560467
 20
-28630.12007942398
  0
HATCH
  5
244
330
1F
100
AcDbEntity
  8
Ech.1_5
  6
Continuous
 62
    33
420
 12426362
440
 33554687
370
     5
390
5F
100
AcDbHatch
 10
0.0
 20
0.0
 30
0.0
210
0.0
220
0.0
230
1.0
  2
SOLID
 70
     1
 71
     0
 91
        1
 92
        3
 72
     0
 73
     1
 93
        4
 10
22286.49476782918
 20
-28930.61987756973
 10
22286.49476782918
 20
-28860.61987756973
 10
22241.49476782918
 20
-28860.61987756973
 10
22241.49476782918
 20
-28930.61987756973
 97
        0
 75
     0
 76
     1
 98
        0
  0
LINE
  5
245
330
1F
100
AcDbEntity
  8
Ech.1_5
  6
Continuous
 62
   190
370
    15
390
5F
100
AcDbLine
 10
22286.49476782918
 20
-28860.61987756973
 30
0.0
 11
22241.49476782918
 21
-28930.61987756973
 31
0.0
  0
LINE
  5
246
330
1F
100
AcDbEntity
  8
Ech.1_5
  6
Continuous
 62
   190
370
    15
390
5F
100
AcDbLine
 10
22241.49476782918
 20
-28860.61987756973
 30
0.0
 11
22286.49476782918
 21
-28930.61987756973
 31
0.0
  0
LWPOLYLINE
  5
247
330
1F
100
AcDbEntity
  8
Ech.1_5
  6
Continuous
 62
     5
370
    40
390
5F
100
AcDbPolyline
 90
        5
 70
     0
 43
0.0
 10
22286.49476782918
 20
-28930.61987756973
 10
22286.49476782918
 20
-28860.61987756973
 10
22241.49476782918
 20
-28860.61987756973
 10
22241.49476782918
 20
-28930.61987756973
 10
22286.49476782918
 20
-28930.61987756973
  0
HATCH
  5
248
330
1F
100
AcDbEntity
  8
Ech.1_5
  6
Continuous
 62
     7
440
 33554687
370
    20
390
5F
100
AcDbHatch
 10
0.0
 20
0.0
 30
0.0
210
0.0
220
0.0
230
1.0
  2
SOLID
 70
     1
 71
     0
 91
        1
 92
        3
 72
     0
 73
     1
 93
        6
 10
22241.49476782918
 20
-28760.61987756973
 10
22184.45550803425
 20
-28760.61987756973
 10
22184.45550803425
 20
-28764.61987756973
 10
22237.49476763919
 20
-28764.61987756973
 10
22237.49476763919
 20
-28913.72116541153
 10
22241.49476782918
 20
-28913.72116541153
 97
        0
 75
     0
 76
     1
 98
        0
  0
LWPOLYLINE
  5
249
330
1F
100
AcDbEntity
  8
Ech.1_5
  6
Continuous
 62
     7
370
    20
390
5F
100
AcDbPolyline
 90
        7
 70
     0
 43
0.0
 10
22241.49476782918
 20
-28760.61987756973
 10
22184.45550803425
 20
-28760.61987756973
 10
22184.45550803425
 20
-28764.61987756973
 10
22237.49476763919
 20
-28764.61987756973
 10
22237.49476763919
 20
-28913.72116541153
 10
22241.49476782918
 20
-28913.72116541153
 10
22241.49476782918
 20
-28760.61987756973
  0
LWPOLYLINE
  5
24A
330
1F
100
AcDbEntity
  8
Ech.1_5
  6
CADWORK_3
 62
   177
370
    20
390
5F
100
AcDbPolyline
 90
        2
 70
     0
 43
0.0
 10
22286.49520882581
 20
-28661.11941795285
 10
22468.99476782918
 20
-28661.11941795285
  0
HATCH
  5
24B
330
1F
100
AcDbEntity
  8
Ech.1_5
  6
Continuous
 62
   254
420
 15326711
440
 33554687
370
     5
390
5F
100
AcDbHatch
 10
0.0
 20
0.0
 30
0.0
210
0.0
220
0.0
230
1.0
  2
SOLID
 70
     1
 71
     0
 91
        1
 92
        3
 72
     0
 73
     1
 93
        8
 10
22021.49476782918
 20
-28600.61987756973
 10
22021.49476782918
 20
-28760.61987756973
 10
22241.49520882581
 20
-28760.61987756973
 10
22241.49520882581
 20
-28653.11985644176
 10
22226.49520882581
 20
-28653.11985644176
 10
22226.49520882581
 20
-28648.11985644176
 10
22211.49520882581
 20
-28648.11985644176
 10
22211.49520882581
 20
-28600.61987756973
 97
        0
 75
     0
 76
     1
 98
        0
  0
LWPOLYLINE
  5
24C
330
1F
100
AcDbEntity
  8
Ech.1_5
  6
Continuous
 62
   190
370
    20
390
5F
100
AcDbPolyline
 90
        9
 70
     0
 43
0.0
 38
2500.0
 39
-2500.0
 10
22021.49476782918
 20
-28600.61987756973
 10
22021.49476782918
 20
-28760.61987756973
 10
22241.49520882581
 20
-28760.61987756973
 10
22241.49520882581
 20
-28653.11985644176
 10
22226.49520882581
 20
-28653.11985644176
 10
22226.49520882581
 20
-28648.11985644176
 10
22211.49520882581
 20
-28648.11985644176
 10
22211.49520882581
 20
-28600.61987756973
 10
22021.49476782918
 20
-28600.61987756973
  0
LWPOLYLINE
  5
24D
330
1F
100
AcDbEntity
  8
Ech.1_5
  6
Continuous
 62
     7
370
    20
390
5F
100
AcDbPolyline
 90
      115
 70
     0
 43
0.0
 10
22564.68011795999
 20
-28614.12702855285
 10
22588.43442885371
 20
-28614.12702855285
 10
22588.43442885371
 20
-28610.12702855285
 10
22584.4344288537
 20
-28610.12702855285
 10
22584.4344288537
 20
-28594.12702855285
 10
22588.43442885371
 20
-28594.12702855285
 10
22588.43442885371
 20
-28564.12702855285
 10
22640.43442885371
 20
-28564.12702855285
 10
22640.78305185371
 20
-28564.14224975286
 10
22641.1290215537
 20
-28564.18779755286
 10
22641.46970505369
 20
-28564.26332525284
 10
22641.8025094537
 20
-28564.36825815283
 10
22642.12490185371
 20
-28564.50179745284
 10
22642.43442885371
 20
-28564.66292695286
 10
22642.7287345537
 20
-28564.85042045284
 10
22643.00557925369
 20
-28565.06285085285
 10
22643.26285595371
 20
-28565.29860145285
 10
22643.49860665371
 20
-28565.55587815285
 10
22643.7110370537
 20
-28565.83272285286
 10
22643.89853045371
 20
-28566.12702855285
 10
22644.05965995369
 20
-28566.43655555286
 10
22644.1931993537
 20
-28566.75894805283
 10
22644.29813215369
 20
-28567.09175245284
 10
22644.37365985371
 20
-28567.43243585286
 10
22644.4192076537
 20
-28567.77840565285
 10
22644.43442885371
 20
-28568.12702855285
 10
22644.43442885371
 20
-28577.62702855285
 10
22644.4287208537
 20
-28577.75776225286
 10
22644.41164045371
 20
-28577.88750085285
 10
22644.3833175537
 20
-28578.01525715285
 10
22644.3439677537
 20
-28578.14005885286
 10
22644.2938905537
 20
-28578.26095595284
 10
22644.23346695371
 20
-28578.37702855285
 10
22644.1631569537
 20
-28578.48739325285
 10
22644.0834955537
 20
-28578.59121005284
 10
22643.9950890537
 20
-28578.68768875284
 10
22643.8986102537
 20
-28578.77609525284
 10
22643.79479345371
 20
-28578.85575665284
 10
22643.68442885371
 20
-28578.92606665285
 10
22643.5683562537
 20
-28578.98649025284
 10
22643.44745905371
 20
-28579.03656755284
 10
22643.32265745371
 20
-28579.07591735284
 10
22643.19490115371
 20
-28579.10424025285
 10
22643.06516245371
 20
-28579.12132065284
 10
22642.93442885371
 20
-28579.12702855285
 10
22627.93442885371
 20
-28579.12702855285
 10
22627.80369525371
 20
-28579.13273655283
 10
22627.67395655371
 20
-28579.14981695286
 10
22627.54620025371
 20
-28579.17813985286
 10
22627.42139865371
 20
-28579.21748965284
 10
22627.30050145369
 20
-28579.26756695286
 10
22627.18442885371
 20
-28579.32799045285
 10
22627.07406415371
 20
-28579.39830055286
 10
22626.97024745369
 20
-28579.47796195286
 10
22626.87376865369
 20
-28579.56636845286
 10
22626.78536215369
 20
-28579.66284715286
 10
22626.70570075369
 20
-28579.76666395285
 10
22626.63539075371
 20
-28579.87702855285
 10
22626.57496715369
 20
-28579.99310115286
 10
22626.5248899537
 20
-28580.11399835285
 10
22626.48554005369
 20
-28580.23880005285
 10
22626.45721725372
 20
-28580.36655635286
 10
22626.44013675369
 20
-28580.49629495285
 10
22626.43442885371
 20
-28580.62702855285
 10
22626.43442885371
 20
-28616.12702855285
 10
22626.42681825371
 20
-28616.30134005284
 10
22626.40404435369
 20
-28616.47432495285
 10
22626.36628045369
 20
-28616.64466665284
 10
22626.31381405369
 20
-28616.81106885285
 10
22626.24704445369
 20
-28616.97226515285
 10
22626.16647965371
 20
-28617.12702855285
 10
22626.0727329537
 20
-28617.27418145285
 10
22625.9665177537
 20
-28617.41260385284
 10
22625.8486424537
 20
-28617.54124215284
 10
22625.7200040537
 20
-28617.65911745284
 10
22625.58158175371
 20
-28617.76533265285
 10
22625.43442885371
 20
-28617.85907935285
 10
22625.27966535371
 20
-28617.93964415286
 10
22625.11846915371
 20
-28618.00641385286
 10
22624.9520669537
 20
-28618.05888025286
 10
22624.78172515371
 20
-28618.09664405284
 10
22624.60874035369
 20
-28618.11941795285
 10
22624.43442885371
 20
-28618.12702855285
 10
22614.43442885371
 20
-28618.12702855285
 10
22614.43442885371
 20
-28618.42702855284
 10
22606.43442885371
 20
-28618.42702855284
 10
22606.43442885371
 20
-28622.42702855284
 10
22614.43442885371
 20
-28622.42702855284
 10
22614.43442885371
 20
-28627.35970155284
 10
22610.1756097537
 20
-28629.26817575284
 10
22609.62739638818
 20
-28632.04317425285
 10
22609.43442885371
 20
-28633.01995565286
 10
22613.69324785369
 20
-28634.92842975286
 10
22614.43442885371
 20
-28637.12702855285
 10
22614.42301295369
 20
-28637.38849585286
 10
22614.3888520537
 20
-28637.64797315285
 10
22614.33220635369
 20
-28637.90348575285
 10
22614.25350675371
 20
-28638.15308905286
 10
22614.15335215369
 20
-28638.39488335286
 10
22614.03250505371
 20
-28638.62702855285
 10
22613.89188495371
 20
-28638.84775785285
 10
22613.73256215369
 20
-28639.05539145284
 10
22613.55574915369
 20
-28639.24834895286
 10
22613.36279165369
 20
-28639.42516195286
 10
22613.15515815371
 20
-28639.58448475286
 10
22612.93442885371
 20
-28639.72510475285
 10
22612.70228365369
 20
-28639.84595195286
 10
22612.46048925369
 20
-28639.94610645285
 10
22612.21088595371
 20
-28640.02480605286
 10
22611.9553733537
 20
-28640.08145185284
 10
22611.69589605369
 20
-28640.11561265286
 10
22611.43442885371
 20
-28640.12702855285
 10
22581.14541943299
 20
-28640.12702855285
 42
-0.3152987888792792
 10
22571.74849322514
 20
-28633.54722998611
 10
22564.68011795999
 20
-28614.12702855285
  0
LWPOLYLINE
  5
24E
330
1F
100
AcDbEntity
  8
Ech.1_5
  6
Continuous
 62
     7
370
    20
390
5F
100
AcDbPolyline
 90
        6
 70
     0
 43
0.0
 10
22588.43442885371
 20
-28590.12702855285
 10
22588.43442885371
 20
-28564.12702855285
 10
22581.14541943299
 20
-28564.12702855285
 42
0.3152987888792792
 10
22571.74849322514
 20
-28570.7068271196
 10
22564.68011795998
 20
-28590.12702855285
 10
22588.43442885371
 20
-28590.12702855285
  0
LWPOLYLINE
  5
250
330
1F
100
AcDbEntity
  8
Ech.1_5
  6
CADWORK_6
 62
     7
370
    18
390
5F
100
AcDbPolyline
 90
        2
 70
     0
 43
0.0
 10
22488.99476782918
 20
-28564.12702855285
 10
22488.99476782918
 20
-28970.61987756973
  0
POLYLINE
  5
251
330
1F
100
AcDbEntity
  8
Ech.1_5
  6
Continuous
 62
     7
370
    20
390
5F
100
AcDb3dPolyline
 66
     1
 10
0.0
 20
0.0
 30
0.0
 70
     8
  0
VERTEX
  5
252
330
251
100
AcDbEntity
  8
Ech.1_5
  6
Continuous
 62
     7
370
    20
100
AcDbVertex
100
AcDb3dPolylineVertex
 10
22607.13793345372
 20
-28654.69056845285
 30
28.57115049999372
 70
    32
  0
VERTEX
  5
253
330
251
100
AcDbEntity
  8
Ech.1_5
  6
Continuous
 62
     7
370
    20
100
AcDbVertex
100
AcDb3dPolylineVertex
 10
22607.37368405372
 20
-28654.94784515285
 30
28.82842719999114
 70
    32
  0
VERTEX
  5
254
330
251
100
AcDbEntity
  8
Ech.1_5
  6
Continuous
 62
     7
370
    20
100
AcDbVertex
100
AcDb3dPolylineVertex
 10
22607.63096075371
 20
-28655.18359575285
 30
29.06417779999281
 70
    32
  0
VERTEX
  5
255
330
251
100
AcDbEntity
  8
Ech.1_5
  6
Continuous
 62
     7
370
    20
100
AcDbVertex
100
AcDb3dPolylineVertex
 10
22607.90780545369
 20
-28655.39602615286
 30
29.2766081999918
 70
    32
  0
VERTEX
  5
256
330
251
100
AcDbEntity
  8
Ech.1_5
  6
Continuous
 62
     7
370
    20
100
AcDbVertex
100
AcDb3dPolylineVertex
 10
22608.20211125372
 20
-28655.58351965284
 30
29.46410169999096
 70
    32
  0
VERTEX
  5
257
330
251
100
AcDbEntity
  8
Ech.1_5
  6
Continuous
 62
     7
370
    20
100
AcDbVertex
100
AcDb3dPolylineVertex
 10
22608.51163815369
 20
-28655.74464915286
 30
29.62523119999393
 70
    32
  0
VERTEX
  5
258
330
251
100
AcDbEntity
  8
Ech.1_5
  6
Continuous
 62
     7
370
    20
100
AcDbVertex
100
AcDb3dPolylineVertex
 10
22608.8340306537
 20
-28655.87818845287
 30
29.75877049999433
 70
    32
  0
VERTEX
  5
259
330
251
100
AcDbEntity
  8
Ech.1_5
  6
Continuous
 62
     7
370
    20
100
AcDbVertex
100
AcDb3dPolylineVertex
 10
22609.16683505371
 20
-28655.98312125286
 30
29.86370329999197
 70
    32
  0
VERTEX
  5
25A
330
251
100
AcDbEntity
  8
Ech.1_5
  6
Continuous
 62
     7
370
    20
100
AcDbVertex
100
AcDb3dPolylineVertex
 10
22609.5075185537
 20
-28656.05864895284
 30
29.9392309999918
 70
    32
  0
VERTEX
  5
25B
330
251
100
AcDbEntity
  8
Ech.1_5
  6
Continuous
 62
     7
370
    20
100
AcDbVertex
100
AcDb3dPolylineVertex
 10
22609.85348825372
 20
-28656.10419675287
 30
29.98477879999352
 70
    32
  0
VERTEX
  5
25C
330
251
100
AcDbEntity
  8
Ech.1_5
  6
Continuous
 62
     7
370
    20
100
AcDbVertex
100
AcDb3dPolylineVertex
 10
22610.20211125369
 20
-28656.11941795285
 30
29.99999999999836
 70
    32
  0
VERTEX
  5
25D
330
251
100
AcDbEntity
  8
Ech.1_5
  6
Continuous
 62
     7
370
    20
100
AcDbVertex
100
AcDb3dPolylineVertex
 10
22683.48554005369
 20
-28656.11941795285
 30
0.0
 70
    32
  0
VERTEX
  5
25E
330
251
100
AcDbEntity
  8
Ech.1_5
  6
Continuous
 62
     7
370
    20
100
AcDbVertex
100
AcDb3dPolylineVertex
 10
22683.48554005369
 20
-28590.61941795285
 30
0.0
 70
    32
  0
VERTEX
  5
25F
330
251
100
AcDbEntity
  8
Ech.1_5
  6
Continuous
 62
     7
370
    20
100
AcDbVertex
100
AcDb3dPolylineVertex
 10
22693.48554005369
 20
-28590.61941795285
 30
-36.00000000000558
 70
    32
  0
VERTEX
  5
260
330
251
100
AcDbEntity
  8
Ech.1_5
  6
Continuous
 62
     7
370
    20
100
AcDbVertex
100
AcDb3dPolylineVertex
 10
22693.48554005369
 20
-28582.61941795285
 30
-43.50000000001331
 70
    32
  0
VERTEX
  5
261
330
251
100
AcDbEntity
  8
Ech.1_5
  6
Continuous
 62
     7
370
    20
100
AcDbVertex
100
AcDb3dPolylineVertex
 10
22693.46757975369
 20
-28582.23443545285
 30
-43.88498250000761
 70
    32
  0
VERTEX
  5
262
330
251
100
AcDbEntity
  8
Ech.1_5
  6
Continuous
 62
     7
370
    20
100
AcDbVertex
100
AcDb3dPolylineVertex
 10
22693.3441331537
 20
-28581.75187115285
 30
-44.36754680000799
 70
    32
  0
VERTEX
  5
263
330
251
100
AcDbEntity
  8
Ech.1_5
  6
Continuous
 62
     7
370
    20
100
AcDbVertex
100
AcDb3dPolylineVertex
 10
22693.07479485369
 20
-28581.24686195286
 30
-44.87255600000584
 70
    32
  0
VERTEX
  5
264
330
251
100
AcDbEntity
  8
Ech.1_5
  6
Continuous
 62
     7
370
    20
100
AcDbVertex
100
AcDb3dPolylineVertex
 10
22692.70445485369
 20
-28580.80918735284
 30
-45.31023060000793
 70
    32
  0
VERTEX
  5
265
330
251
100
AcDbEntity
  8
Ech.1_5
  6
Continuous
 62
     7
370
    20
100
AcDbVertex
100
AcDb3dPolylineVertex
 10
22691.96377475371
 20
-28580.30417815285
 30
-45.8152398000076
 70
    32
  0
VERTEX
  5
266
330
251
100
AcDbEntity
  8
Ech.1_5
  6
Continuous
 62
     7
370
    20
100
AcDbVertex
100
AcDb3dPolylineVertex
 10
22690.98554005369
 20
-28580.11941795285
 30
-46.0000000000074
 70
    32
  0
VERTEX
  5
267
330
251
100
AcDbEntity
  8
Ech.1_5
  6
Continuous
 62
     7
370
    20
100
AcDbVertex
100
AcDb3dPolylineVertex
 10
22640.43442885371
 20
-28580.11941795285
 30
-46.00000000000743
 70
    32
  0
VERTEX
  5
268
330
251
100
AcDbEntity
  8
Ech.1_5
  6
Continuous
 62
     7
370
    20
100
AcDbVertex
100
AcDb3dPolylineVertex
 10
22640.2601173537
 20
-28580.12702855285
 30
0.0
 70
    32
  0
VERTEX
  5
269
330
251
100
AcDbEntity
  8
Ech.1_5
  6
Continuous
 62
     7
370
    20
100
AcDbVertex
100
AcDb3dPolylineVertex
 10
22640.08713245371
 20
-28580.14980245283
 30
0.0
 70
    32
  0
VERTEX
  5
26A
330
251
100
AcDbEntity
  8
Ech.1_5
  6
Continuous
 62
     7
370
    20
100
AcDbVertex
100
AcDb3dPolylineVertex
 10
22639.91679075369
 20
-28580.18756635284
 30
0.0
 70
    32
  0
VERTEX
  5
26B
330
251
100
AcDbEntity
  8
Ech.1_5
  6
Continuous
 62
     7
370
    20
100
AcDbVertex
100
AcDb3dPolylineVertex
 10
22639.75038855369
 20
-28580.24003275284
 30
0.0
 70
    32
  0
VERTEX
  5
26C
330
251
100
AcDbEntity
  8
Ech.1_5
  6
Continuous
 62
     7
370
    20
100
AcDbVertex
100
AcDb3dPolylineVertex
 10
22639.58919235371
 20
-28580.30680245284
 30
0.0
 70
    32
  0
VERTEX
  5
26D
330
251
100
AcDbEntity
  8
Ech.1_5
  6
Continuous
 62
     7
370
    20
100
AcDbVertex
100
AcDb3dPolylineVertex
 10
22639.43442885371
 20
-28580.38736715285
 30
0.0
 70
    32
  0
VERTEX
  5
26E
330
251
100
AcDbEntity
  8
Ech.1_5
  6
Continuous
 62
     7
370
    20
100
AcDbVertex
100
AcDb3dPolylineVertex
 10
22639.28727595371
 20
-28580.48111385285
 30
0.0
 70
    32
  0
VERTEX
  5
26F
330
251
100
AcDbEntity
  8
Ech.1_5
  6
Continuous
 62
     7
370
    20
100
AcDbVertex
100
AcDb3dPolylineVertex
 10
22639.14885365369
 20
-28580.58732915283
 30
0.0
 70
    32
  0
VERTEX
  5
270
330
251
100
AcDbEntity
  8
Ech.1_5
  6
Continuous
 62
     7
370
    20
100
AcDbVertex
100
AcDb3dPolylineVertex
 10
22639.02021525369
 20
-28580.70520445283
 30
0.0
 70
    32
  0
VERTEX
  5
271
330
251
100
AcDbEntity
  8
Ech.1_5
  6
Continuous
 62
     7
370
    20
100
AcDbVertex
100
AcDb3dPolylineVertex
 10
22638.9023399537
 20
-28580.83384275283
 30
0.0
 70
    32
  0
VERTEX
  5
272
330
251
100
AcDbEntity
  8
Ech.1_5
  6
Continuous
 62
     7
370
    20
100
AcDbVertex
100
AcDb3dPolylineVertex
 10
22638.79612475369
 20
-28580.97226515285
 30
0.0
 70
    32
  0
VERTEX
  5
273
330
251
100
AcDbEntity
  8
Ech.1_5
  6
Continuous
 62
     7
370
    20
100
AcDbVertex
100
AcDb3dPolylineVertex
 10
22638.70237805371
 20
-28581.11941795285
 30
0.0
 70
    32
  0
VERTEX
  5
274
330
251
100
AcDbEntity
  8
Ech.1_5
  6
Continuous
 62
     7
370
    20
100
AcDbVertex
100
AcDb3dPolylineVertex
 10
22638.6218132537
 20
-28581.27418145285
 30
0.0
 70
    32
  0
VERTEX
  5
275
330
251
100
AcDbEntity
  8
Ech.1_5
  6
Continuous
 62
     7
370
    20
100
AcDbVertex
100
AcDb3dPolylineVertex
 10
22638.5550435537
 20
-28581.43537775285
 30
0.0
 70
    32
  0
VERTEX
  5
276
330
251
100
AcDbEntity
  8
Ech.1_5
  6
Continuous
 62
     7
370
    20
100
AcDbVertex
100
AcDb3dPolylineVertex
 10
22638.5025771537
 20
-28581.60177985286
 30
0.0
 70
    32
  0
VERTEX
  5
277
330
251
100
AcDbEntity
  8
Ech.1_5
  6
Continuous
 62
     7
370
    20
100
AcDbVertex
100
AcDb3dPolylineVertex
 10
22638.4648133537
 20
-28581.77212165285
 30
0.0
 70
    32
  0
VERTEX
  5
278
330
251
100
AcDbEntity
  8
Ech.1_5
  6
Continuous
 62
     7
370
    20
100
AcDbVertex
100
AcDb3dPolylineVertex
 10
22638.44203945369
 20
-28581.94510655283
 30
0.0
 70
    32
  0
VERTEX
  5
279
330
251
100
AcDbEntity
  8
Ech.1_5
  6
Continuous
 62
     7
370
    20
100
AcDbVertex
100
AcDb3dPolylineVertex
 10
22638.43442885371
 20
-28582.11941795285
 30
0.0
 70
    32
  0
VERTEX
  5
27A
330
251
100
AcDbEntity
  8
Ech.1_5
  6
Continuous
 62
     7
370
    20
100
AcDbVertex
100
AcDb3dPolylineVertex
 10
22638.43442885371
 20
-28617.11941795285
 30
0.0
 70
    32
  0
VERTEX
  5
27B
330
251
100
AcDbEntity
  8
Ech.1_5
  6
Continuous
 62
     7
370
    20
100
AcDbVertex
100
AcDb3dPolylineVertex
 10
22631.93442885371
 20
-28617.11941795285
 30
0.0
 70
    32
  0
VERTEX
  5
27C
330
251
100
AcDbEntity
  8
Ech.1_5
  6
Continuous
 62
     7
370
    20
100
AcDbVertex
100
AcDb3dPolylineVertex
 10
22631.80369525371
 20
-28617.12512595286
 30
0.0
 70
    32
  0
VERTEX
  5
27D
330
251
100
AcDbEntity
  8
Ech.1_5
  6
Continuous
 62
     7
370
    20
100
AcDbVertex
100
AcDb3dPolylineVertex
 10
22631.67395655371
 20
-28617.14220635285
 30
0.0
 70
    32
  0
VERTEX
  5
27E
330
251
100
AcDbEntity
  8
Ech.1_5
  6
Continuous
 62
     7
370
    20
100
AcDbVertex
100
AcDb3dPolylineVertex
 10
22631.54620025371
 20
-28617.17052925286
 30
0.0
 70
    32
  0
VERTEX
  5
27F
330
251
100
AcDbEntity
  8
Ech.1_5
  6
Continuous
 62
     7
370
    20
100
AcDbVertex
100
AcDb3dPolylineVertex
 10
22631.42139865371
 20
-28617.20987905283
 30
0.0
 70
    32
  0
VERTEX
  5
280
330
251
100
AcDbEntity
  8
Ech.1_5
  6
Continuous
 62
     7
370
    20
100
AcDbVertex
100
AcDb3dPolylineVertex
 10
22631.30050145369
 20
-28617.25995635283
 30
0.0
 70
    32
  0
VERTEX
  5
281
330
251
100
AcDbEntity
  8
Ech.1_5
  6
Continuous
 62
     7
370
    20
100
AcDbVertex
100
AcDb3dPolylineVertex
 10
22631.18442885371
 20
-28617.32037985285
 30
0.0
 70
    32
  0
VERTEX
  5
282
330
251
100
AcDbEntity
  8
Ech.1_5
  6
Continuous
 62
     7
370
    20
100
AcDbVertex
100
AcDb3dPolylineVertex
 10
22631.07406415371
 20
-28617.39068995283
 30
0.0
 70
    32
  0
VERTEX
  5
283
330
251
100
AcDbEntity
  8
Ech.1_5
  6
Continuous
 62
     7
370
    20
100
AcDbVertex
100
AcDb3dPolylineVertex
 10
22630.97024745369
 20
-28617.47035135286
 30
0.0
 70
    32
  0
VERTEX
  5
284
330
251
100
AcDbEntity
  8
Ech.1_5
  6
Continuous
 62
     7
370
    20
100
AcDbVertex
100
AcDb3dPolylineVertex
 10
22630.87376865369
 20
-28617.55875785286
 30
0.0
 70
    32
  0
VERTEX
  5
285
330
251
100
AcDbEntity
  8
Ech.1_5
  6
Continuous
 62
     7
370
    20
100
AcDbVertex
100
AcDb3dPolylineVertex
 10
22630.78536215369
 20
-28617.65523655286
 30
0.0
 70
    32
  0
VERTEX
  5
286
330
251
100
AcDbEntity
  8
Ech.1_5
  6
Continuous
 62
     7
370
    20
100
AcDbVertex
100
AcDb3dPolylineVertex
 10
22630.70570075369
 20
-28617.75905335285
 30
0.0
 70
    32
  0
VERTEX
  5
287
330
251
100
AcDbEntity
  8
Ech.1_5
  6
Continuous
 62
     7
370
    20
100
AcDbVertex
100
AcDb3dPolylineVertex
 10
22630.63539075371
 20
-28617.86941795285
 30
0.0
 70
    32
  0
VERTEX
  5
288
330
251
100
AcDbEntity
  8
Ech.1_5
  6
Continuous
 62
     7
370
    20
100
AcDbVertex
100
AcDb3dPolylineVertex
 10
22630.57496715369
 20
-28617.98549055283
 30
0.0
 70
    32
  0
VERTEX
  5
289
330
251
100
AcDbEntity
  8
Ech.1_5
  6
Continuous
 62
     7
370
    20
100
AcDbVertex
100
AcDb3dPolylineVertex
 10
22630.5248899537
 20
-28618.10638775284
 30
0.0
 70
    32
  0
VERTEX
  5
28A
330
251
100
AcDbEntity
  8
Ech.1_5
  6
Continuous
 62
     7
370
    20
100
AcDbVertex
100
AcDb3dPolylineVertex
 10
22630.48554005369
 20
-28618.23118945285
 30
0.0
 70
    32
  0
VERTEX
  5
28B
330
251
100
AcDbEntity
  8
Ech.1_5
  6
Continuous
 62
     7
370
    20
100
AcDbVertex
100
AcDb3dPolylineVertex
 10
22630.45721725372
 20
-28618.35894575285
 30
0.0
 70
    32
  0
VERTEX
  5
28C
330
251
100
AcDbEntity
  8
Ech.1_5
  6
Continuous
 62
     7
370
    20
100
AcDbVertex
100
AcDb3dPolylineVertex
 10
22630.44013675369
 20
-28618.48868435284
 30
0.0
 70
    32
  0
VERTEX
  5
28D
330
251
100
AcDbEntity
  8
Ech.1_5
  6
Continuous
 62
     7
370
    20
100
AcDbVertex
100
AcDb3dPolylineVertex
 10
22630.43442885371
 20
-28618.61941795285
 30
0.0
 70
    32
  0
VERTEX
  5
28E
330
251
100
AcDbEntity
  8
Ech.1_5
  6
Continuous
 62
     7
370
    20
100
AcDbVertex
100
AcDb3dPolylineVertex
 10
22630.43442885371
 20
-28621.61941795285
 30
0.0
 70
    32
  0
VERTEX
  5
28F
330
251
100
AcDbEntity
  8
Ech.1_5
  6
Continuous
 62
     7
370
    20
100
AcDbVertex
100
AcDb3dPolylineVertex
 10
22630.42681825371
 20
-28621.79372945286
 30
0.0
 70
    32
  0
VERTEX
  5
290
330
251
100
AcDbEntity
  8
Ech.1_5
  6
Continuous
 62
     7
370
    20
100
AcDbVertex
100
AcDb3dPolylineVertex
 10
22630.40404435369
 20
-28621.96671435284
 30
0.0
 70
    32
  0
VERTEX
  5
291
330
251
100
AcDbEntity
  8
Ech.1_5
  6
Continuous
 62
     7
370
    20
100
AcDbVertex
100
AcDb3dPolylineVertex
 10
22630.36628045372
 20
-28622.13705605284
 30
0.0
 70
    32
  0
VERTEX
  5
292
330
251
100
AcDbEntity
  8
Ech.1_5
  6
Continuous
 62
     7
370
    20
100
AcDbVertex
100
AcDb3dPolylineVertex
 10
22630.31381405369
 20
-28622.30345825284
 30
0.0
 70
    32
  0
VERTEX
  5
293
330
251
100
AcDbEntity
  8
Ech.1_5
  6
Continuous
 62
     7
370
    20
100
AcDbVertex
100
AcDb3dPolylineVertex
 10
22630.24704445369
 20
-28622.46465455284
 30
0.0
 70
    32
  0
VERTEX
  5
294
330
251
100
AcDbEntity
  8
Ech.1_5
  6
Continuous
 62
     7
370
    20
100
AcDbVertex
100
AcDb3dPolylineVertex
 10
22630.16647965371
 20
-28622.61941795285
 30
0.0
 70
    32
  0
VERTEX
  5
295
330
251
100
AcDbEntity
  8
Ech.1_5
  6
Continuous
 62
     7
370
    20
100
AcDbVertex
100
AcDb3dPolylineVertex
 10
22630.0727329537
 20
-28622.76657085284
 30
0.0
 70
    32
  0
VERTEX
  5
296
330
251
100
AcDbEntity
  8
Ech.1_5
  6
Continuous
 62
     7
370
    20
100
AcDbVertex
100
AcDb3dPolylineVertex
 10
22629.9665177537
 20
-28622.90499325284
 30
0.0
 70
    32
  0
VERTEX
  5
297
330
251
100
AcDbEntity
  8
Ech.1_5
  6
Continuous
 62
     7
370
    20
100
AcDbVertex
100
AcDb3dPolylineVertex
 10
22629.8486424537
 20
-28623.03363155283
 30
0.0
 70
    32
  0
VERTEX
  5
298
330
251
100
AcDbEntity
  8
Ech.1_5
  6
Continuous
 62
     7
370
    20
100
AcDbVertex
100
AcDb3dPolylineVertex
 10
22629.7200040537
 20
-28623.15150685283
 30
0.0
 70
    32
  0
VERTEX
  5
299
330
251
100
AcDbEntity
  8
Ech.1_5
  6
Continuous
 62
     7
370
    20
100
AcDbVertex
100
AcDb3dPolylineVertex
 10
22629.58158175371
 20
-28623.25772205284
 30
0.0
 70
    32
  0
VERTEX
  5
29A
330
251
100
AcDbEntity
  8
Ech.1_5
  6
Continuous
 62
     7
370
    20
100
AcDbVertex
100
AcDb3dPolylineVertex
 10
22629.43442885371
 20
-28623.35146875284
 30
0.0
 70
    32
  0
VERTEX
  5
29B
330
251
100
AcDbEntity
  8
Ech.1_5
  6
Continuous
 62
     7
370
    20
100
AcDbVertex
100
AcDb3dPolylineVertex
 10
22629.27966535371
 20
-28623.43203355285
 30
0.0
 70
    32
  0
VERTEX
  5
29C
330
251
100
AcDbEntity
  8
Ech.1_5
  6
Continuous
 62
     7
370
    20
100
AcDbVertex
100
AcDb3dPolylineVertex
 10
22629.11846915371
 20
-28623.49880325286
 30
0.0
 70
    32
  0
VERTEX
  5
29D
330
251
100
AcDbEntity
  8
Ech.1_5
  6
Continuous
 62
     7
370
    20
100
AcDbVertex
100
AcDb3dPolylineVertex
 10
22628.9520669537
 20
-28623.55126965282
 30
0.0
 70
    32
  0
VERTEX
  5
29E
330
251
100
AcDbEntity
  8
Ech.1_5
  6
Continuous
 62
     7
370
    20
100
AcDbVertex
100
AcDb3dPolylineVertex
 10
22628.78172515371
 20
-28623.58903345283
 30
0.0
 70
    32
  0
VERTEX
  5
29F
330
251
100
AcDbEntity
  8
Ech.1_5
  6
Continuous
 62
     7
370
    20
100
AcDbVertex
100
AcDb3dPolylineVertex
 10
22628.60874035369
 20
-28623.61180735284
 30
0.0
 70
    32
  0
VERTEX
  5
2A0
330
251
100
AcDbEntity
  8
Ech.1_5
  6
Continuous
 62
     7
370
    20
100
AcDbVertex
100
AcDb3dPolylineVertex
 10
22628.43442885371
 20
-28623.61941795285
 30
0.0
 70
    32
  0
VERTEX
  5
2A1
330
251
100
AcDbEntity
  8
Ech.1_5
  6
Continuous
 62
     7
370
    20
100
AcDbVertex
100
AcDb3dPolylineVertex
 10
22619.93442885371
 20
-28623.61941795285
 30
0.0
 70
    32
  0
VERTEX
  5
2A2
330
251
100
AcDbEntity
  8
Ech.1_5
  6
Continuous
 62
     7
370
    20
100
AcDbVertex
100
AcDb3dPolylineVertex
 10
22619.80369525371
 20
-28623.62512595286
 30
0.0
 70
    32
  0
VERTEX
  5
2A3
330
251
100
AcDbEntity
  8
Ech.1_5
  6
Continuous
 62
     7
370
    20
100
AcDbVertex
100
AcDb3dPolylineVertex
 10
22619.67395655371
 20
-28623.64220635285
 30
0.0
 70
    32
  0
VERTEX
  5
2A4
330
251
100
AcDbEntity
  8
Ech.1_5
  6
Continuous
 62
     7
370
    20
100
AcDbVertex
100
AcDb3dPolylineVertex
 10
22619.54620025371
 20
-28623.67052925286
 30
0.0
 70
    32
  0
VERTEX
  5
2A5
330
251
100
AcDbEntity
  8
Ech.1_5
  6
Continuous
 62
     7
370
    20
100
AcDbVertex
100
AcDb3dPolylineVertex
 10
22619.42139865371
 20
-28623.70987905283
 30
0.0
 70
    32
  0
VERTEX
  5
2A6
330
251
100
AcDbEntity
  8
Ech.1_5
  6
Continuous
 62
     7
370
    20
100
AcDbVertex
100
AcDb3dPolylineVertex
 10
22619.30050145369
 20
-28623.75995635286
 30
0.0
 70
    32
  0
VERTEX
  5
2A7
330
251
100
AcDbEntity
  8
Ech.1_5
  6
Continuous
 62
     7
370
    20
100
AcDbVertex
100
AcDb3dPolylineVertex
 10
22619.18442885371
 20
-28623.82037985285
 30
0.0
 70
    32
  0
VERTEX
  5
2A8
330
251
100
AcDbEntity
  8
Ech.1_5
  6
Continuous
 62
     7
370
    20
100
AcDbVertex
100
AcDb3dPolylineVertex
 10
22619.07406415371
 20
-28623.89068995283
 30
0.0
 70
    32
  0
VERTEX
  5
2A9
330
251
100
AcDbEntity
  8
Ech.1_5
  6
Continuous
 62
     7
370
    20
100
AcDbVertex
100
AcDb3dPolylineVertex
 10
22618.97024745369
 20
-28623.97035135283
 30
0.0
 70
    32
  0
VERTEX
  5
2AA
330
251
100
AcDbEntity
  8
Ech.1_5
  6
Continuous
 62
     7
370
    20
100
AcDbVertex
100
AcDb3dPolylineVertex
 10
22618.87376865369
 20
-28624.05875785283
 30
0.0
 70
    32
  0
VERTEX
  5
2AB
330
251
100
AcDbEntity
  8
Ech.1_5
  6
Continuous
 62
     7
370
    20
100
AcDbVertex
100
AcDb3dPolylineVertex
 10
22618.78536215369
 20
-28624.15523655286
 30
0.0
 70
    32
  0
VERTEX
  5
2AC
330
251
100
AcDbEntity
  8
Ech.1_5
  6
Continuous
 62
     7
370
    20
100
AcDbVertex
100
AcDb3dPolylineVertex
 10
22618.70570075369
 20
-28624.25905335285
 30
0.0
 70
    32
  0
VERTEX
  5
2AD
330
251
100
AcDbEntity
  8
Ech.1_5
  6
Continuous
 62
     7
370
    20
100
AcDbVertex
100
AcDb3dPolylineVertex
 10
22618.63539075371
 20
-28624.36941795285
 30
0.0
 70
    32
  0
VERTEX
  5
2AE
330
251
100
AcDbEntity
  8
Ech.1_5
  6
Continuous
 62
     7
370
    20
100
AcDbVertex
100
AcDb3dPolylineVertex
 10
22618.57496715369
 20
-28624.48549055286
 30
0.0
 70
    32
  0
VERTEX
  5
2AF
330
251
100
AcDbEntity
  8
Ech.1_5
  6
Continuous
 62
     7
370
    20
100
AcDbVertex
100
AcDb3dPolylineVertex
 10
22618.5248899537
 20
-28624.60638775284
 30
0.0
 70
    32
  0
VERTEX
  5
2B0
330
251
100
AcDbEntity
  8
Ech.1_5
  6
Continuous
 62
     7
370
    20
100
AcDbVertex
100
AcDb3dPolylineVertex
 10
22618.48554005369
 20
-28624.73118945285
 30
0.0
 70
    32
  0
VERTEX
  5
2B1
330
251
100
AcDbEntity
  8
Ech.1_5
  6
Continuous
 62
     7
370
    20
100
AcDbVertex
100
AcDb3dPolylineVertex
 10
22618.45721725372
 20
-28624.85894575285
 30
0.0
 70
    32
  0
VERTEX
  5
2B2
330
251
100
AcDbEntity
  8
Ech.1_5
  6
Continuous
 62
     7
370
    20
100
AcDbVertex
100
AcDb3dPolylineVertex
 10
22618.44013675369
 20
-28624.98868435284
 30
0.0
 70
    32
  0
VERTEX
  5
2B3
330
251
100
AcDbEntity
  8
Ech.1_5
  6
Continuous
 62
     7
370
    20
100
AcDbVertex
100
AcDb3dPolylineVertex
 10
22618.43442885371
 20
-28625.11941795285
 30
0.0
 70
    32
  0
VERTEX
  5
2B4
330
251
100
AcDbEntity
  8
Ech.1_5
  6
Continuous
 62
     7
370
    20
100
AcDbVertex
100
AcDb3dPolylineVertex
 10
22618.44013675369
 20
-28625.25015165285
 30
0.0
 70
    32
  0
VERTEX
  5
2B5
330
251
100
AcDbEntity
  8
Ech.1_5
  6
Continuous
 62
     7
370
    20
100
AcDbVertex
100
AcDb3dPolylineVertex
 10
22618.45721725372
 20
-28625.37989025284
 30
0.0
 70
    32
  0
VERTEX
  5
2B6
330
251
100
AcDbEntity
  8
Ech.1_5
  6
Continuous
 62
     7
370
    20
100
AcDbVertex
100
AcDb3dPolylineVertex
 10
22618.73975825371
 20
-28626.98225995285
 30
0.0
 70
    32
  0
VERTEX
  5
2B7
330
251
100
AcDbEntity
  8
Ech.1_5
  6
Continuous
 62
     7
370
    20
100
AcDbVertex
100
AcDb3dPolylineVertex
 10
22618.77752205372
 20
-28627.15260165284
 30
0.0
 70
    32
  0
VERTEX
  5
2B8
330
251
100
AcDbEntity
  8
Ech.1_5
  6
Continuous
 62
     7
370
    20
100
AcDbVertex
100
AcDb3dPolylineVertex
 10
22618.82998845371
 20
-28627.31900385285
 30
0.0
 70
    32
  0
VERTEX
  5
2B9
330
251
100
AcDbEntity
  8
Ech.1_5
  6
Continuous
 62
     7
370
    20
100
AcDbVertex
100
AcDb3dPolylineVertex
 10
22618.89675815371
 20
-28627.48020015285
 30
0.0
 70
    32
  0
VERTEX
  5
2BA
330
251
100
AcDbEntity
  8
Ech.1_5
  6
Continuous
 62
     7
370
    20
100
AcDbVertex
100
AcDb3dPolylineVertex
 10
22618.97732295369
 20
-28627.63496355285
 30
0.0
 70
    32
  0
VERTEX
  5
2BB
330
251
100
AcDbEntity
  8
Ech.1_5
  6
Continuous
 62
     7
370
    20
100
AcDbVertex
100
AcDb3dPolylineVertex
 10
22619.0710696537
 20
-28627.78211645285
 30
0.0
 70
    32
  0
VERTEX
  5
2BC
330
251
100
AcDbEntity
  8
Ech.1_5
  6
Continuous
 62
     7
370
    20
100
AcDbVertex
100
AcDb3dPolylineVertex
 10
22619.17728485371
 20
-28627.92053885284
 30
0.0
 70
    32
  0
VERTEX
  5
2BD
330
251
100
AcDbEntity
  8
Ech.1_5
  6
Continuous
 62
     7
370
    20
100
AcDbVertex
100
AcDb3dPolylineVertex
 10
22619.29516015371
 20
-28628.04917715284
 30
0.0
 70
    32
  0
VERTEX
  5
2BE
330
251
100
AcDbEntity
  8
Ech.1_5
  6
Continuous
 62
     7
370
    20
100
AcDbVertex
100
AcDb3dPolylineVertex
 10
22619.4237985537
 20
-28628.16705245284
 30
0.0
 70
    32
  0
VERTEX
  5
2BF
330
251
100
AcDbEntity
  8
Ech.1_5
  6
Continuous
 62
     7
370
    20
100
AcDbVertex
100
AcDb3dPolylineVertex
 10
22619.5622208537
 20
-28628.27326765285
 30
0.0
 70
    32
  0
VERTEX
  5
2C0
330
251
100
AcDbEntity
  8
Ech.1_5
  6
Continuous
 62
     7
370
    20
100
AcDbVertex
100
AcDb3dPolylineVertex
 10
22619.70937375369
 20
-28628.36701435285
 30
0.0
 70
    32
  0
VERTEX
  5
2C1
330
251
100
AcDbEntity
  8
Ech.1_5
  6
Continuous
 62
     7
370
    20
100
AcDbVertex
100
AcDb3dPolylineVertex
 10
22622.44677125369
 20
-28629.94745155285
 30
0.0
 70
    32
  0
VERTEX
  5
2C2
330
251
100
AcDbEntity
  8
Ech.1_5
  6
Continuous
 62
     7
370
    20
100
AcDbVertex
100
AcDb3dPolylineVertex
 10
22622.88822985371
 20
-28630.22869175283
 30
0.0
 70
    32
  0
VERTEX
  5
2C3
330
251
100
AcDbEntity
  8
Ech.1_5
  6
Continuous
 62
     7
370
    20
100
AcDbVertex
100
AcDb3dPolylineVertex
 10
22623.30349685371
 20
-28630.54733735283
 30
0.0
 70
    32
  0
VERTEX
  5
2C4
330
251
100
AcDbEntity
  8
Ech.1_5
  6
Continuous
 62
     7
370
    20
100
AcDbVertex
100
AcDb3dPolylineVertex
 10
22623.6894118537
 20
-28630.90096335285
 30
0.0
 70
    32
  0
VERTEX
  5
2C5
330
251
100
AcDbEntity
  8
Ech.1_5
  6
Continuous
 62
     7
370
    20
100
AcDbVertex
100
AcDb3dPolylineVertex
 10
22624.0430378537
 20
-28631.28687835285
 30
0.0
 70
    32
  0
VERTEX
  5
2C6
330
251
100
AcDbEntity
  8
Ech.1_5
  6
Continuous
 62
     7
370
    20
100
AcDbVertex
100
AcDb3dPolylineVertex
 10
22624.3616834537
 20
-28631.70214535285
 30
0.0
 70
    32
  0
VERTEX
  5
2C7
330
251
100
AcDbEntity
  8
Ech.1_5
  6
Continuous
 62
     7
370
    20
100
AcDbVertex
100
AcDb3dPolylineVertex
 10
22624.64292365371
 20
-28632.14360395284
 30
0.0
 70
    32
  0
VERTEX
  5
2C8
330
251
100
AcDbEntity
  8
Ech.1_5
  6
Continuous
 62
     7
370
    20
100
AcDbVertex
100
AcDb3dPolylineVertex
 10
22624.88461795371
 20
-28632.60789445285
 30
0.0
 70
    32
  0
VERTEX
  5
2C9
330
251
100
AcDbEntity
  8
Ech.1_5
  6
Continuous
 62
     7
370
    20
100
AcDbVertex
100
AcDb3dPolylineVertex
 10
22625.08492695371
 20
-28633.09148315286
 30
0.0
 70
    32
  0
VERTEX
  5
2CA
330
251
100
AcDbEntity
  8
Ech.1_5
  6
Continuous
 62
     7
370
    20
100
AcDbVertex
100
AcDb3dPolylineVertex
 10
22625.2423261537
 20
-28633.59068975284
 30
0.0
 70
    32
  0
VERTEX
  5
2CB
330
251
100
AcDbEntity
  8
Ech.1_5
  6
Continuous
 62
     7
370
    20
100
AcDbVertex
100
AcDb3dPolylineVertex
 10
22625.3556177537
 20
-28634.10171495286
 30
0.0
 70
    32
  0
VERTEX
  5
2CC
330
251
100
AcDbEntity
  8
Ech.1_5
  6
Continuous
 62
     7
370
    20
100
AcDbVertex
100
AcDb3dPolylineVertex
 10
22626.1944458537
 20
-28638.85894575285
 30
0.0
 70
    32
  0
VERTEX
  5
2CD
330
251
100
AcDbEntity
  8
Ech.1_5
  6
Continuous
 62
     7
370
    20
100
AcDbVertex
100
AcDb3dPolylineVertex
 10
22626.2115262537
 20
-28638.98868435284
 30
0.0
 70
    32
  0
VERTEX
  5
2CE
330
251
100
AcDbEntity
  8
Ech.1_5
  6
Continuous
 62
     7
370
    20
100
AcDbVertex
100
AcDb3dPolylineVertex
 10
22626.21723425371
 20
-28639.11941795285
 30
0.0
 70
    32
  0
VERTEX
  5
2CF
330
251
100
AcDbEntity
  8
Ech.1_5
  6
Continuous
 62
     7
370
    20
100
AcDbVertex
100
AcDb3dPolylineVertex
 10
22626.2115262537
 20
-28639.25015165285
 30
0.0
 70
    32
  0
VERTEX
  5
2D0
330
251
100
AcDbEntity
  8
Ech.1_5
  6
Continuous
 62
     7
370
    20
100
AcDbVertex
100
AcDb3dPolylineVertex
 10
22626.1944458537
 20
-28639.37989025284
 30
0.0
 70
    32
  0
VERTEX
  5
2D1
330
251
100
AcDbEntity
  8
Ech.1_5
  6
Continuous
 62
     7
370
    20
100
AcDbVertex
100
AcDb3dPolylineVertex
 10
22626.1661229537
 20
-28639.50764655285
 30
0.0
 70
    32
  0
VERTEX
  5
2D2
330
251
100
AcDbEntity
  8
Ech.1_5
  6
Continuous
 62
     7
370
    20
100
AcDbVertex
100
AcDb3dPolylineVertex
 10
22626.12677315369
 20
-28639.63244825285
 30
0.0
 70
    32
  0
VERTEX
  5
2D3
330
251
100
AcDbEntity
  8
Ech.1_5
  6
Continuous
 62
     7
370
    20
100
AcDbVertex
100
AcDb3dPolylineVertex
 10
22626.0766959537
 20
-28639.75334535284
 30
0.0
 70
    32
  0
VERTEX
  5
2D4
330
251
100
AcDbEntity
  8
Ech.1_5
  6
Continuous
 62
     7
370
    20
100
AcDbVertex
100
AcDb3dPolylineVertex
 10
22626.01627235371
 20
-28639.86941795285
 30
0.0
 70
    32
  0
VERTEX
  5
2D5
330
251
100
AcDbEntity
  8
Ech.1_5
  6
Continuous
 62
     7
370
    20
100
AcDbVertex
100
AcDb3dPolylineVertex
 10
22625.9459623537
 20
-28639.97978265284
 30
0.0
 70
    32
  0
VERTEX
  5
2D6
330
251
100
AcDbEntity
  8
Ech.1_5
  6
Continuous
 62
     7
370
    20
100
AcDbVertex
100
AcDb3dPolylineVertex
 10
22625.8663009537
 20
-28640.08359945284
 30
0.0
 70
    32
  0
VERTEX
  5
2D7
330
251
100
AcDbEntity
  8
Ech.1_5
  6
Continuous
 62
     7
370
    20
100
AcDbVertex
100
AcDb3dPolylineVertex
 10
22625.7778944537
 20
-28640.18007815284
 30
0.0
 70
    32
  0
VERTEX
  5
2D8
330
251
100
AcDbEntity
  8
Ech.1_5
  6
Continuous
 62
     7
370
    20
100
AcDbVertex
100
AcDb3dPolylineVertex
 10
22625.6814156537
 20
-28640.26848465284
 30
0.0
 70
    32
  0
VERTEX
  5
2D9
330
251
100
AcDbEntity
  8
Ech.1_5
  6
Continuous
 62
     7
370
    20
100
AcDbVertex
100
AcDb3dPolylineVertex
 10
22625.57759885371
 20
-28640.34814605283
 30
0.0
 70
    32
  0
VERTEX
  5
2DA
330
251
100
AcDbEntity
  8
Ech.1_5
  6
Continuous
 62
     7
370
    20
100
AcDbVertex
100
AcDb3dPolylineVertex
 10
22625.46723425371
 20
-28640.41845605284
 30
0.0
 70
    32
  0
VERTEX
  5
2DB
330
251
100
AcDbEntity
  8
Ech.1_5
  6
Continuous
 62
     7
370
    20
100
AcDbVertex
100
AcDb3dPolylineVertex
 10
22625.3511616537
 20
-28640.47887965284
 30
0.0
 70
    32
  0
VERTEX
  5
2DC
330
251
100
AcDbEntity
  8
Ech.1_5
  6
Continuous
 62
     7
370
    20
100
AcDbVertex
100
AcDb3dPolylineVertex
 10
22625.23026445371
 20
-28640.52895695283
 30
0.0
 70
    32
  0
VERTEX
  5
2DD
330
251
100
AcDbEntity
  8
Ech.1_5
  6
Continuous
 62
     7
370
    20
100
AcDbVertex
100
AcDb3dPolylineVertex
 10
22625.10546285371
 20
-28640.56830675284
 30
0.0
 70
    32
  0
VERTEX
  5
2DE
330
251
100
AcDbEntity
  8
Ech.1_5
  6
Continuous
 62
     7
370
    20
100
AcDbVertex
100
AcDb3dPolylineVertex
 10
22624.97770655371
 20
-28640.59662965284
 30
0.0
 70
    32
  0
VERTEX
  5
2DF
330
251
100
AcDbEntity
  8
Ech.1_5
  6
Continuous
 62
     7
370
    20
100
AcDbVertex
100
AcDb3dPolylineVertex
 10
22624.84796785371
 20
-28640.61371005284
 30
0.0
 70
    32
  0
VERTEX
  5
2E0
330
251
100
AcDbEntity
  8
Ech.1_5
  6
Continuous
 62
     7
370
    20
100
AcDbVertex
100
AcDb3dPolylineVertex
 10
22624.71723425371
 20
-28640.61941795285
 30
0.0
 70
    32
  0
VERTEX
  5
2E1
330
251
100
AcDbEntity
  8
Ech.1_5
  6
Continuous
 62
     7
370
    20
100
AcDbVertex
100
AcDb3dPolylineVertex
 10
22604.93442885371
 20
-28640.61941795285
 30
0.0
 70
    32
  0
VERTEX
  5
2E2
330
251
100
AcDbEntity
  8
Ech.1_5
  6
Continuous
 62
     7
370
    20
100
AcDbVertex
100
AcDb3dPolylineVertex
 10
22604.80369525371
 20
-28640.62512595283
 30
0.0
 70
    32
  0
VERTEX
  5
2E3
330
251
100
AcDbEntity
  8
Ech.1_5
  6
Continuous
 62
     7
370
    20
100
AcDbVertex
100
AcDb3dPolylineVertex
 10
22604.67395655371
 20
-28640.64220635285
 30
0.0
 70
    32
  0
VERTEX
  5
2E4
330
251
100
AcDbEntity
  8
Ech.1_5
  6
Continuous
 62
     7
370
    20
100
AcDbVertex
100
AcDb3dPolylineVertex
 10
22604.54620025371
 20
-28640.67052925286
 30
0.0
 70
    32
  0
VERTEX
  5
2E5
330
251
100
AcDbEntity
  8
Ech.1_5
  6
Continuous
 62
     7
370
    20
100
AcDbVertex
100
AcDb3dPolylineVertex
 10
22604.42139865371
 20
-28640.70987905283
 30
0.0
 70
    32
  0
VERTEX
  5
2E6
330
251
100
AcDbEntity
  8
Ech.1_5
  6
Continuous
 62
     7
370
    20
100
AcDbVertex
100
AcDb3dPolylineVertex
 10
22604.30050145369
 20
-28640.75995635286
 30
0.0
 70
    32
  0
VERTEX
  5
2E7
330
251
100
AcDbEntity
  8
Ech.1_5
  6
Continuous
 62
     7
370
    20
100
AcDbVertex
100
AcDb3dPolylineVertex
 10
22604.18442885371
 20
-28640.82037985285
 30
0.0
 70
    32
  0
VERTEX
  5
2E8
330
251
100
AcDbEntity
  8
Ech.1_5
  6
Continuous
 62
     7
370
    20
100
AcDbVertex
100
AcDb3dPolylineVertex
 10
22604.07406415371
 20
-28640.89068995283
 30
0.0
 70
    32
  0
VERTEX
  5
2E9
330
251
100
AcDbEntity
  8
Ech.1_5
  6
Continuous
 62
     7
370
    20
100
AcDbVertex
100
AcDb3dPolylineVertex
 10
22603.97024745369
 20
-28640.97035135283
 30
0.0
 70
    32
  0
VERTEX
  5
2EA
330
251
100
AcDbEntity
  8
Ech.1_5
  6
Continuous
 62
     7
370
    20
100
AcDbVertex
100
AcDb3dPolylineVertex
 10
22603.87376865369
 20
-28641.05875785286
 30
0.0
 70
    32
  0
VERTEX
  5
2EB
330
251
100
AcDbEntity
  8
Ech.1_5
  6
Continuous
 62
     7
370
    20
100
AcDbVertex
100
AcDb3dPolylineVertex
 10
22603.78536215369
 20
-28641.15523655286
 30
0.0
 70
    32
  0
VERTEX
  5
2EC
330
251
100
AcDbEntity
  8
Ech.1_5
  6
Continuous
 62
     7
370
    20
100
AcDbVertex
100
AcDb3dPolylineVertex
 10
22603.70570075369
 20
-28641.25905335285
 30
0.0
 70
    32
  0
VERTEX
  5
2ED
330
251
100
AcDbEntity
  8
Ech.1_5
  6
Continuous
 62
     7
370
    20
100
AcDbVertex
100
AcDb3dPolylineVertex
 10
22603.63539075371
 20
-28641.36941795285
 30
0.0
 70
    32
  0
VERTEX
  5
2EE
330
251
100
AcDbEntity
  8
Ech.1_5
  6
Continuous
 62
     7
370
    20
100
AcDbVertex
100
AcDb3dPolylineVertex
 10
22603.57496715369
 20
-28641.48549055286
 30
0.0
 70
    32
  0
VERTEX
  5
2EF
330
251
100
AcDbEntity
  8
Ech.1_5
  6
Continuous
 62
     7
370
    20
100
AcDbVertex
100
AcDb3dPolylineVertex
 10
22603.5248899537
 20
-28641.60638775284
 30
0.0
 70
    32
  0
VERTEX
  5
2F0
330
251
100
AcDbEntity
  8
Ech.1_5
  6
Continuous
 62
     7
370
    20
100
AcDbVertex
100
AcDb3dPolylineVertex
 10
22603.48554005369
 20
-28641.73118945285
 30
0.0
 70
    32
  0
VERTEX
  5
2F1
330
251
100
AcDbEntity
  8
Ech.1_5
  6
Continuous
 62
     7
370
    20
100
AcDbVertex
100
AcDb3dPolylineVertex
 10
22603.45721725369
 20
-28641.85894575285
 30
0.0
 70
    32
  0
VERTEX
  5
2F2
330
251
100
AcDbEntity
  8
Ech.1_5
  6
Continuous
 62
     7
370
    20
100
AcDbVertex
100
AcDb3dPolylineVertex
 10
22603.44013675369
 20
-28641.98868435284
 30
0.0
 70
    32
  0
VERTEX
  5
2F3
330
251
100
AcDbEntity
  8
Ech.1_5
  6
Continuous
 62
     7
370
    20
100
AcDbVertex
100
AcDb3dPolylineVertex
 10
22603.43442885371
 20
-28642.11941795285
 30
0.0
 70
    32
  0
VERTEX
  5
2F4
330
251
100
AcDbEntity
  8
Ech.1_5
  6
Continuous
 62
     7
370
    20
100
AcDbVertex
100
AcDb3dPolylineVertex
 10
22603.44013675369
 20
-28642.25015165285
 30
0.0
 70
    32
  0
VERTEX
  5
2F5
330
251
100
AcDbEntity
  8
Ech.1_5
  6
Continuous
 62
     7
370
    20
100
AcDbVertex
100
AcDb3dPolylineVertex
 10
22603.45721725369
 20
-28642.37989025284
 30
0.0
 70
    32
  0
VERTEX
  5
2F6
330
251
100
AcDbEntity
  8
Ech.1_5
  6
Continuous
 62
     7
370
    20
100
AcDbVertex
100
AcDb3dPolylineVertex
 10
22603.48554005369
 20
-28642.50764655285
 30
0.0
 70
    32
  0
VERTEX
  5
2F7
330
251
100
AcDbEntity
  8
Ech.1_5
  6
Continuous
 62
     7
370
    20
100
AcDbVertex
100
AcDb3dPolylineVertex
 10
22606.33840795371
 20
-28653.15469415286
 30
27.03527619999356
 70
    32
  0
VERTEX
  5
2F8
330
251
100
AcDbEntity
  8
Ech.1_5
  6
Continuous
 62
     7
370
    20
100
AcDbVertex
100
AcDb3dPolylineVertex
 10
22606.4433407537
 20
-28653.48749855287
 30
27.368080599994
 70
    32
  0
VERTEX
  5
2F9
330
251
100
AcDbEntity
  8
Ech.1_5
  6
Continuous
 62
     7
370
    20
100
AcDbVertex
100
AcDb3dPolylineVertex
 10
22606.5768800537
 20
-28653.80989105284
 30
27.69047309999329
 70
    32
  0
VERTEX
  5
2FA
330
251
100
AcDbEntity
  8
Ech.1_5
  6
Continuous
 62
     7
370
    20
100
AcDbVertex
100
AcDb3dPolylineVertex
 10
22606.73800955369
 20
-28654.11941795285
 30
27.99999999999106
 70
    32
  0
VERTEX
  5
2FB
330
251
100
AcDbEntity
  8
Ech.1_5
  6
Continuous
 62
     7
370
    20
100
AcDbVertex
100
AcDb3dPolylineVertex
 10
22606.9255030537
 20
-28654.41372375284
 30
28.29430579999432
 70
    32
  0
VERTEX
  5
2FC
330
251
100
AcDbEntity
  8
Ech.1_5
  6
Continuous
 62
     7
370
    20
100
AcDbVertex
100
AcDb3dPolylineVertex
 10
22607.13793345372
 20
-28654.69056845285
 30
28.57115049999372
 70
    32
  0
SEQEND
  5
2FD
330
251
100
AcDbEntity
  8
Ech.1_5
  6
Continuous
 62
     7
370
    20
390
5F
  0
LINE
  5
2FE
330
1F
100
AcDbEntity
  8
Ech.1_5
  6
Continuous
 62
     7
370
    20
390
5F
100
AcDbLine
 10
22488.99476782918
 20
-28614.12702855285
 30
0.0
 11
22588.43442885371
 21
-28614.12702855285
 31
0.0
  0
LINE
  5
2FF
330
1F
100
AcDbEntity
  8
Ech.1_5
  6
Continuous
 62
     7
370
    20
390
5F
100
AcDbLine
 10
22488.99476782918
 20
-28610.12702855285
 30
0.0
 11
22588.43442885371
 21
-28610.12702855285
 31
0.0
  0
LINE
  5
300
330
1F
100
AcDbEntity
  8
Ech.1_5
  6
Continuous
 62
     7
370
    20
390
5F
100
AcDbLine
 10
22488.99476782918
 20
-28590.12702855285
 30
0.0
 11
22588.43442885371
 21
-28590.12702855285
 31
0.0
  0
LINE
  5
301
330
1F
100
AcDbEntity
  8
Ech.1_5
  6
Continuous
 62
     7
370
    20
390
5F
100
AcDbLine
 10
22488.99476782918
 20
-28594.12702855285
 30
0.0
 11
22588.43442885371
 21
-28594.12702855285
 31
0.0
  0
LINE
  5
302
330
1F
100
AcDbEntity
  8
Ech.1_5
  6
Continuous
 62
     9
370
    15
390
5F
100
AcDbLine
 10
22683.48554005369
 20
-28590.61941795285
 30
0.0
 11
22688.48591710484
 21
-28624.81932965945
 31
0.0
  0
LINE
  5
303
330
1F
100
AcDbEntity
  8
Ech.1_5
  6
Continuous
 62
     9
370
    15
390
5F
100
AcDbLine
 10
22683.48554005369
 20
-28624.81932965945
 30
0.0
 11
22688.48554005369
 21
-28590.61941795285
 31
0.0
  0
LWPOLYLINE
  5
304
330
1F
100
AcDbEntity
  8
Ech.1_5
  6
Continuous
 62
     9
370
    15
390
5F
100
AcDbPolyline
 90
        5
 70
     0
 43
0.0
 10
22688.48554005369
 20
-28590.61941795285
 10
22683.48554005369
 20
-28590.61941795285
 10
22683.48554005369
 20
-28624.81932965945
 10
22688.48591710484
 20
-28624.81932965945
 10
22688.48554005369
 20
-28590.61941795285
  0
LWPOLYLINE
  5
305
330
1F
100
AcDbEntity
  8
Ech.1_5
  6
Continuous
 62
     7
370
    20
390
5F
100
AcDbPolyline
 90
      115
 70
     0
 43
0.0
 10
22393.30941769837
 20
-28614.12702855285
 10
22369.55510680465
 20
-28614.12702855285
 10
22369.55510680465
 20
-28610.12702855285
 10
22373.55510680466
 20
-28610.12702855285
 10
22373.55510680466
 20
-28594.12702855285
 10
22369.55510680465
 20
-28594.12702855285
 10
22369.55510680465
 20
-28564.12702855285
 10
22317.55510680465
 20
-28564.12702855285
 10
22317.20648380465
 20
-28564.14224975286
 10
22316.86051410466
 20
-28564.18779755286
 10
22316.51983060467
 20
-28564.26332525284
 10
22316.18702620466
 20
-28564.36825815283
 10
22315.86463380465
 20
-28564.50179745284
 10
22315.55510680465
 20
-28564.66292695286
 10
22315.26080110465
 20
-28564.85042045284
 10
22314.98395640467
 20
-28565.06285085285
 10
22314.72667970465
 20
-28565.29860145285
 10
22314.49092900465
 20
-28565.55587815285
 10
22314.27849860466
 20
-28565.83272285286
 10
22314.09100520465
 20
-28566.12702855285
 10
22313.92987570466
 20
-28566.43655555286
 10
22313.79633630466
 20
-28566.75894805283
 10
22313.69140350466
 20
-28567.09175245284
 10
22313.61587580465
 20
-28567.43243585286
 10
22313.57032800466
 20
-28567.77840565285
 10
22313.55510680465
 20
-28568.12702855285
 10
22313.55510680465
 20
-28577.62702855285
 10
22313.56081480466
 20
-28577.75776225286
 10
22313.57789520465
 20
-28577.88750085285
 10
22313.60621810466
 20
-28578.01525715285
 10
22313.64556790466
 20
-28578.14005885286
 10
22313.69564510466
 20
-28578.26095595284
 10
22313.75606870465
 20
-28578.37702855285
 10
22313.82637870466
 20
-28578.48739325285
 10
22313.90604010466
 20
-28578.59121005284
 10
22313.99444660466
 20
-28578.68768875284
 10
22314.09092540466
 20
-28578.77609525284
 10
22314.19474220465
 20
-28578.85575665284
 10
22314.30510680465
 20
-28578.92606665285
 10
22314.42117940466
 20
-28578.98649025284
 10
22314.54207660464
 20
-28579.03656755284
 10
22314.66687820465
 20
-28579.07591735284
 10
22314.79463450465
 20
-28579.10424025285
 10
22314.92437320465
 20
-28579.12132065284
 10
22315.05510680465
 20
-28579.12702855285
 10
22330.05510680465
 20
-28579.12702855285
 10
22330.18584040465
 20
-28579.13273655283
 10
22330.31557910464
 20
-28579.14981695286
 10
22330.44333540465
 20
-28579.17813985286
 10
22330.56813700465
 20
-28579.21748965284
 10
22330.68903420467
 20
-28579.26756695286
 10
22330.80510680465
 20
-28579.32799045285
 10
22330.91547150465
 20
-28579.39830055286
 10
22331.01928820467
 20
-28579.47796195286
 10
22331.11576700467
 20
-28579.56636845286
 10
22331.20417350467
 20
-28579.66284715286
 10
22331.28383490467
 20
-28579.76666395285
 10
22331.35414490465
 20
-28579.87702855285
 10
22331.41456850467
 20
-28579.99310115286
 10
22331.46464570466
 20
-28580.11399835285
 10
22331.50399560467
 20
-28580.23880005285
 10
22331.53231840464
 20
-28580.36655635286
 10
22331.54939890467
 20
-28580.49629495285
 10
22331.55510680465
 20
-28580.62702855285
 10
22331.55510680465
 20
-28616.12702855285
 10
22331.56271740465
 20
-28616.30134005284
 10
22331.58549130466
 20
-28616.47432495285
 10
22331.62325520467
 20
-28616.64466665284
 10
22331.67572160467
 20
-28616.81106885285
 10
22331.74249120467
 20
-28616.97226515285
 10
22331.82305600465
 20
-28617.12702855285
 10
22331.91680270465
 20
-28617.27418145285
 10
22332.02301790466
 20
-28617.41260385284
 10
22332.14089320466
 20
-28617.54124215284
 10
22332.26953160466
 20
-28617.65911745284
 10
22332.40795390465
 20
-28617.76533265285
 10
22332.55510680465
 20
-28617.85907935285
 10
22332.70987030465
 20
-28617.93964415286
 10
22332.87106650465
 20
-28618.00641385286
 10
22333.03746870466
 20
-28618.05888025286
 10
22333.20781050465
 20
-28618.09664405284
 10
22333.38079530466
 20
-28618.11941795285
 10
22333.55510680465
 20
-28618.12702855285
 10
22343.55510680465
 20
-28618.12702855285
 10
22343.55510680465
 20
-28618.42702855284
 10
22351.55510680465
 20
-28618.42702855284
 10
22351.55510680465
 20
-28622.42702855284
 10
22343.55510680465
 20
-28622.42702855284
 10
22343.55510680465
 20
-28627.35970155284
 10
22347.81392590466
 20
-28629.26817575284
 10
22348.36213927018
 20
-28632.04317425285
 10
22348.55510680465
 20
-28633.01995565286
 10
22344.29628780467
 20
-28634.92842975286
 10
22343.55510680465
 20
-28637.12702855285
 10
22343.56652270467
 20
-28637.38849585286
 10
22343.60068360466
 20
-28637.64797315285
 10
22343.65732930467
 20
-28637.90348575285
 10
22343.73602890465
 20
-28638.15308905286
 10
22343.83618350467
 20
-28638.39488335286
 10
22343.95703060465
 20
-28638.62702855285
 10
22344.09765070464
 20
-28638.84775785285
 10
22344.25697350467
 20
-28639.05539145284
 10
22344.43378650467
 20
-28639.24834895286
 10
22344.62674400466
 20
-28639.42516195286
 10
22344.83437750465
 20
-28639.58448475286
 10
22345.05510680465
 20
-28639.72510475285
 10
22345.28725200467
 20
-28639.84595195286
 10
22345.52904640467
 20
-28639.94610645285
 10
22345.77864970465
 20
-28640.02480605286
 10
22346.03416230466
 20
-28640.08145185284
 10
22346.29363960467
 20
-28640.11561265286
 10
22346.55510680465
 20
-28640.12702855285
 10
22376.84411622537
 20
-28640.12702855285
 42
0.3152987888792795
 10
22386.24104243322
 20
-28633.54722998611
 10
22393.30941769837
 20
-28614.12702855285
  0
LWPOLYLINE
  5
306
330
1F
100
AcDbEntity
  8
Ech.1_5
  6
Continuous
 62
     7
370
    20
390
5F
100
AcDbPolyline
 90
        6
 70
     0
 43
0.0
 10
22369.55510680465
 20
-28590.12702855285
 10
22369.55510680465
 20
-28564.12702855285
 10
22376.84411622537
 20
-28564.12702855285
 42
-0.3152987888792795
 10
22386.24104243322
 20
-28570.7068271196
 10
22393.30941769838
 20
-28590.12702855285
 10
22369.55510680465
 20
-28590.12702855285
  0
LWPOLYLINE
  5
307
330
1F
100
AcDbEntity
  8
Ech.1_5
  6
CADWORK_6
 62
     7
370
    18
390
5F
100
AcDbPolyline
 90
        2
 70
     0
 43
0.0
 10
22468.99476782918
 20
-28564.12702855285
 10
22468.99476782918
 20
-28970.61987756973
  0
POLYLINE
  5
308
330
1F
100
AcDbEntity
  8
Ech.1_5
  6
Continuous
 62
     7
370
    20
390
5F
100
AcDb3dPolyline
 66
     1
 10
0.0
 20
0.0
 30
0.0
 70
     8
  0
VERTEX
  5
309
330
308
100
AcDbEntity
  8
Ech.1_5
  6
Continuous
 62
     7
370
    20
100
AcDbVertex
100
AcDb3dPolylineVertex
 10
22350.85160220464
 20
-28654.69056845285
 30
28.57115049999372
 70
    32
  0
VERTEX
  5
30A
330
308
100
AcDbEntity
  8
Ech.1_5
  6
Continuous
 62
     7
370
    20
100
AcDbVertex
100
AcDb3dPolylineVertex
 10
22350.61585160464
 20
-28654.94784515285
 30
28.82842719999114
 70
    32
  0
VERTEX
  5
30B
330
308
100
AcDbEntity
  8
Ech.1_5
  6
Continuous
 62
     7
370
    20
100
AcDbVertex
100
AcDb3dPolylineVertex
 10
22350.35857490465
 20
-28655.18359575285
 30
29.06417779999281
 70
    32
  0
VERTEX
  5
30C
330
308
100
AcDbEntity
  8
Ech.1_5
  6
Continuous
 62
     7
370
    20
100
AcDbVertex
100
AcDb3dPolylineVertex
 10
22350.08173020466
 20
-28655.39602615286
 30
29.2766081999918
 70
    32
  0
VERTEX
  5
30D
330
308
100
AcDbEntity
  8
Ech.1_5
  6
Continuous
 62
     7
370
    20
100
AcDbVertex
100
AcDb3dPolylineVertex
 10
22349.78742440464
 20
-28655.58351965284
 30
29.46410169999096
 70
    32
  0
VERTEX
  5
30E
330
308
100
AcDbEntity
  8
Ech.1_5
  6
Continuous
 62
     7
370
    20
100
AcDbVertex
100
AcDb3dPolylineVertex
 10
22349.47789750466
 20
-28655.74464915286
 30
29.62523119999393
 70
    32
  0
VERTEX
  5
30F
330
308
100
AcDbEntity
  8
Ech.1_5
  6
Continuous
 62
     7
370
    20
100
AcDbVertex
100
AcDb3dPolylineVertex
 10
22349.15550500466
 20
-28655.87818845287
 30
29.75877049999433
 70
    32
  0
VERTEX
  5
310
330
308
100
AcDbEntity
  8
Ech.1_5
  6
Continuous
 62
     7
370
    20
100
AcDbVertex
100
AcDb3dPolylineVertex
 10
22348.82270060465
 20
-28655.98312125286
 30
29.86370329999197
 70
    32
  0
VERTEX
  5
311
330
308
100
AcDbEntity
  8
Ech.1_5
  6
Continuous
 62
     7
370
    20
100
AcDbVertex
100
AcDb3dPolylineVertex
 10
22348.48201710466
 20
-28656.05864895284
 30
29.9392309999918
 70
    32
  0
VERTEX
  5
312
330
308
100
AcDbEntity
  8
Ech.1_5
  6
Continuous
 62
     7
370
    20
100
AcDbVertex
100
AcDb3dPolylineVertex
 10
22348.13604740464
 20
-28656.10419675287
 30
29.98477879999352
 70
    32
  0
VERTEX
  5
313
330
308
100
AcDbEntity
  8
Ech.1_5
  6
Continuous
 62
     7
370
    20
100
AcDbVertex
100
AcDb3dPolylineVertex
 10
22347.78742440467
 20
-28656.11941795285
 30
29.99999999999836
 70
    32
  0
VERTEX
  5
314
330
308
100
AcDbEntity
  8
Ech.1_5
  6
Continuous
 62
     7
370
    20
100
AcDbVertex
100
AcDb3dPolylineVertex
 10
22274.50399560467
 20
-28656.11941795285
 30
0.0
 70
    32
  0
VERTEX
  5
315
330
308
100
AcDbEntity
  8
Ech.1_5
  6
Continuous
 62
     7
370
    20
100
AcDbVertex
100
AcDb3dPolylineVertex
 10
22274.50399560467
 20
-28590.61941795285
 30
0.0
 70
    32
  0
VERTEX
  5
316
330
308
100
AcDbEntity
  8
Ech.1_5
  6
Continuous
 62
     7
370
    20
100
AcDbVertex
100
AcDb3dPolylineVertex
 10
22264.50399560467
 20
-28590.61941795285
 30
-36.00000000000558
 70
    32
  0
VERTEX
  5
317
330
308
100
AcDbEntity
  8
Ech.1_5
  6
Continuous
 62
     7
370
    20
100
AcDbVertex
100
AcDb3dPolylineVertex
 10
22264.50399560467
 20
-28582.61941795285
 30
-43.50000000001331
 70
    32
  0
VERTEX
  5
318
330
308
100
AcDbEntity
  8
Ech.1_5
  6
Continuous
 62
     7
370
    20
100
AcDbVertex
100
AcDb3dPolylineVertex
 10
22264.52195590467
 20
-28582.23443545285
 30
-43.88498250000761
 70
    32
  0
VERTEX
  5
319
330
308
100
AcDbEntity
  8
Ech.1_5
  6
Continuous
 62
     7
370
    20
100
AcDbVertex
100
AcDb3dPolylineVertex
 10
22264.64540250466
 20
-28581.75187115285
 30
-44.36754680000799
 70
    32
  0
VERTEX
  5
31A
330
308
100
AcDbEntity
  8
Ech.1_5
  6
Continuous
 62
     7
370
    20
100
AcDbVertex
100
AcDb3dPolylineVertex
 10
22264.91474080467
 20
-28581.24686195286
 30
-44.87255600000584
 70
    32
  0
VERTEX
  5
31B
330
308
100
AcDbEntity
  8
Ech.1_5
  6
Continuous
 62
     7
370
    20
100
AcDbVertex
100
AcDb3dPolylineVertex
 10
22265.28508080466
 20
-28580.80918735284
 30
-45.31023060000793
 70
    32
  0
VERTEX
  5
31C
330
308
100
AcDbEntity
  8
Ech.1_5
  6
Continuous
 62
     7
370
    20
100
AcDbVertex
100
AcDb3dPolylineVertex
 10
22266.02576090465
 20
-28580.30417815285
 30
-45.8152398000076
 70
    32
  0
VERTEX
  5
31D
330
308
100
AcDbEntity
  8
Ech.1_5
  6
Continuous
 62
     7
370
    20
100
AcDbVertex
100
AcDb3dPolylineVertex
 10
22267.00399560467
 20
-28580.11941795285
 30
-46.0000000000074
 70
    32
  0
VERTEX
  5
31E
330
308
100
AcDbEntity
  8
Ech.1_5
  6
Continuous
 62
     7
370
    20
100
AcDbVertex
100
AcDb3dPolylineVertex
 10
22317.55510680465
 20
-28580.11941795285
 30
-46.00000000000743
 70
    32
  0
VERTEX
  5
31F
330
308
100
AcDbEntity
  8
Ech.1_5
  6
Continuous
 62
     7
370
    20
100
AcDbVertex
100
AcDb3dPolylineVertex
 10
22317.72941830466
 20
-28580.12702855285
 30
0.0
 70
    32
  0
VERTEX
  5
320
330
308
100
AcDbEntity
  8
Ech.1_5
  6
Continuous
 62
     7
370
    20
100
AcDbVertex
100
AcDb3dPolylineVertex
 10
22317.90240320464
 20
-28580.14980245283
 30
0.0
 70
    32
  0
VERTEX
  5
321
330
308
100
AcDbEntity
  8
Ech.1_5
  6
Continuous
 62
     7
370
    20
100
AcDbVertex
100
AcDb3dPolylineVertex
 10
22318.07274490467
 20
-28580.18756635284
 30
0.0
 70
    32
  0
VERTEX
  5
322
330
308
100
AcDbEntity
  8
Ech.1_5
  6
Continuous
 62
     7
370
    20
100
AcDbVertex
100
AcDb3dPolylineVertex
 10
22318.23914710467
 20
-28580.24003275284
 30
0.0
 70
    32
  0
VERTEX
  5
323
330
308
100
AcDbEntity
  8
Ech.1_5
  6
Continuous
 62
     7
370
    20
100
AcDbVertex
100
AcDb3dPolylineVertex
 10
22318.40034330465
 20
-28580.30680245284
 30
0.0
 70
    32
  0
VERTEX
  5
324
330
308
100
AcDbEntity
  8
Ech.1_5
  6
Continuous
 62
     7
370
    20
100
AcDbVertex
100
AcDb3dPolylineVertex
 10
22318.55510680465
 20
-28580.38736715285
 30
0.0
 70
    32
  0
VERTEX
  5
325
330
308
100
AcDbEntity
  8
Ech.1_5
  6
Continuous
 62
     7
370
    20
100
AcDbVertex
100
AcDb3dPolylineVertex
 10
22318.70225970465
 20
-28580.48111385285
 30
0.0
 70
    32
  0
VERTEX
  5
326
330
308
100
AcDbEntity
  8
Ech.1_5
  6
Continuous
 62
     7
370
    20
100
AcDbVertex
100
AcDb3dPolylineVertex
 10
22318.84068200467
 20
-28580.58732915283
 30
0.0
 70
    32
  0
VERTEX
  5
327
330
308
100
AcDbEntity
  8
Ech.1_5
  6
Continuous
 62
     7
370
    20
100
AcDbVertex
100
AcDb3dPolylineVertex
 10
22318.96932040466
 20
-28580.70520445283
 30
0.0
 70
    32
  0
VERTEX
  5
328
330
308
100
AcDbEntity
  8
Ech.1_5
  6
Continuous
 62
     7
370
    20
100
AcDbVertex
100
AcDb3dPolylineVertex
 10
22319.08719570466
 20
-28580.83384275283
 30
0.0
 70
    32
  0
VERTEX
  5
329
330
308
100
AcDbEntity
  8
Ech.1_5
  6
Continuous
 62
     7
370
    20
100
AcDbVertex
100
AcDb3dPolylineVertex
 10
22319.19341090467
 20
-28580.97226515285
 30
0.0
 70
    32
  0
VERTEX
  5
32A
330
308
100
AcDbEntity
  8
Ech.1_5
  6
Continuous
 62
     7
370
    20
100
AcDbVertex
100
AcDb3dPolylineVertex
 10
22319.28715760465
 20
-28581.11941795285
 30
0.0
 70
    32
  0
VERTEX
  5
32B
330
308
100
AcDbEntity
  8
Ech.1_5
  6
Continuous
 62
     7
370
    20
100
AcDbVertex
100
AcDb3dPolylineVertex
 10
22319.36772240466
 20
-28581.27418145285
 30
0.0
 70
    32
  0
VERTEX
  5
32C
330
308
100
AcDbEntity
  8
Ech.1_5
  6
Continuous
 62
     7
370
    20
100
AcDbVertex
100
AcDb3dPolylineVertex
 10
22319.43449210466
 20
-28581.43537775285
 30
0.0
 70
    32
  0
VERTEX
  5
32D
330
308
100
AcDbEntity
  8
Ech.1_5
  6
Continuous
 62
     7
370
    20
100
AcDbVertex
100
AcDb3dPolylineVertex
 10
22319.48695850465
 20
-28581.60177985286
 30
0.0
 70
    32
  0
VERTEX
  5
32E
330
308
100
AcDbEntity
  8
Ech.1_5
  6
Continuous
 62
     7
370
    20
100
AcDbVertex
100
AcDb3dPolylineVertex
 10
22319.52472230466
 20
-28581.77212165285
 30
0.0
 70
    32
  0
VERTEX
  5
32F
330
308
100
AcDbEntity
  8
Ech.1_5
  6
Continuous
 62
     7
370
    20
100
AcDbVertex
100
AcDb3dPolylineVertex
 10
22319.54749620467
 20
-28581.94510655283
 30
0.0
 70
    32
  0
VERTEX
  5
330
330
308
100
AcDbEntity
  8
Ech.1_5
  6
Continuous
 62
     7
370
    20
100
AcDbVertex
100
AcDb3dPolylineVertex
 10
22319.55510680465
 20
-28582.11941795285
 30
0.0
 70
    32
  0
VERTEX
  5
331
330
308
100
AcDbEntity
  8
Ech.1_5
  6
Continuous
 62
     7
370
    20
100
AcDbVertex
100
AcDb3dPolylineVertex
 10
22319.55510680465
 20
-28617.11941795285
 30
0.0
 70
    32
  0
VERTEX
  5
332
330
308
100
AcDbEntity
  8
Ech.1_5
  6
Continuous
 62
     7
370
    20
100
AcDbVertex
100
AcDb3dPolylineVertex
 10
22326.05510680465
 20
-28617.11941795285
 30
0.0
 70
    32
  0
VERTEX
  5
333
330
308
100
AcDbEntity
  8
Ech.1_5
  6
Continuous
 62
     7
370
    20
100
AcDbVertex
100
AcDb3dPolylineVertex
 10
22326.18584040465
 20
-28617.12512595286
 30
0.0
 70
    32
  0
VERTEX
  5
334
330
308
100
AcDbEntity
  8
Ech.1_5
  6
Continuous
 62
     7
370
    20
100
AcDbVertex
100
AcDb3dPolylineVertex
 10
22326.31557910464
 20
-28617.14220635285
 30
0.0
 70
    32
  0
VERTEX
  5
335
330
308
100
AcDbEntity
  8
Ech.1_5
  6
Continuous
 62
     7
370
    20
100
AcDbVertex
100
AcDb3dPolylineVertex
 10
22326.44333540465
 20
-28617.17052925286
 30
0.0
 70
    32
  0
VERTEX
  5
336
330
308
100
AcDbEntity
  8
Ech.1_5
  6
Continuous
 62
     7
370
    20
100
AcDbVertex
100
AcDb3dPolylineVertex
 10
22326.56813700465
 20
-28617.20987905283
 30
0.0
 70
    32
  0
VERTEX
  5
337
330
308
100
AcDbEntity
  8
Ech.1_5
  6
Continuous
 62
     7
370
    20
100
AcDbVertex
100
AcDb3dPolylineVertex
 10
22326.68903420467
 20
-28617.25995635283
 30
0.0
 70
    32
  0
VERTEX
  5
338
330
308
100
AcDbEntity
  8
Ech.1_5
  6
Continuous
 62
     7
370
    20
100
AcDbVertex
100
AcDb3dPolylineVertex
 10
22326.80510680465
 20
-28617.32037985285
 30
0.0
 70
    32
  0
VERTEX
  5
339
330
308
100
AcDbEntity
  8
Ech.1_5
  6
Continuous
 62
     7
370
    20
100
AcDbVertex
100
AcDb3dPolylineVertex
 10
22326.91547150465
 20
-28617.39068995283
 30
0.0
 70
    32
  0
VERTEX
  5
33A
330
308
100
AcDbEntity
  8
Ech.1_5
  6
Continuous
 62
     7
370
    20
100
AcDbVertex
100
AcDb3dPolylineVertex
 10
22327.01928820467
 20
-28617.47035135286
 30
0.0
 70
    32
  0
VERTEX
  5
33B
330
308
100
AcDbEntity
  8
Ech.1_5
  6
Continuous
 62
     7
370
    20
100
AcDbVertex
100
AcDb3dPolylineVertex
 10
22327.11576700467
 20
-28617.55875785286
 30
0.0
 70
    32
  0
VERTEX
  5
33C
330
308
100
AcDbEntity
  8
Ech.1_5
  6
Continuous
 62
     7
370
    20
100
AcDbVertex
100
AcDb3dPolylineVertex
 10
22327.20417350467
 20
-28617.65523655286
 30
0.0
 70
    32
  0
VERTEX
  5
33D
330
308
100
AcDbEntity
  8
Ech.1_5
  6
Continuous
 62
     7
370
    20
100
AcDbVertex
100
AcDb3dPolylineVertex
 10
22327.28383490467
 20
-28617.75905335285
 30
0.0
 70
    32
  0
VERTEX
  5
33E
330
308
100
AcDbEntity
  8
Ech.1_5
  6
Continuous
 62
     7
370
    20
100
AcDbVertex
100
AcDb3dPolylineVertex
 10
22327.35414490465
 20
-28617.86941795285
 30
0.0
 70
    32
  0
VERTEX
  5
33F
330
308
100
AcDbEntity
  8
Ech.1_5
  6
Continuous
 62
     7
370
    20
100
AcDbVertex
100
AcDb3dPolylineVertex
 10
22327.41456850467
 20
-28617.98549055283
 30
0.0
 70
    32
  0
VERTEX
  5
340
330
308
100
AcDbEntity
  8
Ech.1_5
  6
Continuous
 62
     7
370
    20
100
AcDbVertex
100
AcDb3dPolylineVertex
 10
22327.46464570466
 20
-28618.10638775284
 30
0.0
 70
    32
  0
VERTEX
  5
341
330
308
100
AcDbEntity
  8
Ech.1_5
  6
Continuous
 62
     7
370
    20
100
AcDbVertex
100
AcDb3dPolylineVertex
 10
22327.50399560467
 20
-28618.23118945285
 30
0.0
 70
    32
  0
VERTEX
  5
342
330
308
100
AcDbEntity
  8
Ech.1_5
  6
Continuous
 62
     7
370
    20
100
AcDbVertex
100
AcDb3dPolylineVertex
 10
22327.53231840464
 20
-28618.35894575285
 30
0.0
 70
    32
  0
VERTEX
  5
343
330
308
100
AcDbEntity
  8
Ech.1_5
  6
Continuous
 62
     7
370
    20
100
AcDbVertex
100
AcDb3dPolylineVertex
 10
22327.54939890467
 20
-28618.48868435284
 30
0.0
 70
    32
  0
VERTEX
  5
344
330
308
100
AcDbEntity
  8
Ech.1_5
  6
Continuous
 62
     7
370
    20
100
AcDbVertex
100
AcDb3dPolylineVertex
 10
22327.55510680465
 20
-28618.61941795285
 30
0.0
 70
    32
  0
VERTEX
  5
345
330
308
100
AcDbEntity
  8
Ech.1_5
  6
Continuous
 62
     7
370
    20
100
AcDbVertex
100
AcDb3dPolylineVertex
 10
22327.55510680465
 20
-28621.61941795285
 30
0.0
 70
    32
  0
VERTEX
  5
346
330
308
100
AcDbEntity
  8
Ech.1_5
  6
Continuous
 62
     7
370
    20
100
AcDbVertex
100
AcDb3dPolylineVertex
 10
22327.56271740465
 20
-28621.79372945286
 30
0.0
 70
    32
  0
VERTEX
  5
347
330
308
100
AcDbEntity
  8
Ech.1_5
  6
Continuous
 62
     7
370
    20
100
AcDbVertex
100
AcDb3dPolylineVertex
 10
22327.58549130466
 20
-28621.96671435284
 30
0.0
 70
    32
  0
VERTEX
  5
348
330
308
100
AcDbEntity
  8
Ech.1_5
  6
Continuous
 62
     7
370
    20
100
AcDbVertex
100
AcDb3dPolylineVertex
 10
22327.62325520464
 20
-28622.13705605284
 30
0.0
 70
    32
  0
VERTEX
  5
349
330
308
100
AcDbEntity
  8
Ech.1_5
  6
Continuous
 62
     7
370
    20
100
AcDbVertex
100
AcDb3dPolylineVertex
 10
22327.67572160467
 20
-28622.30345825284
 30
0.0
 70
    32
  0
VERTEX
  5
34A
330
308
100
AcDbEntity
  8
Ech.1_5
  6
Continuous
 62
     7
370
    20
100
AcDbVertex
100
AcDb3dPolylineVertex
 10
22327.74249120467
 20
-28622.46465455284
 30
0.0
 70
    32
  0
VERTEX
  5
34B
330
308
100
AcDbEntity
  8
Ech.1_5
  6
Continuous
 62
     7
370
    20
100
AcDbVertex
100
AcDb3dPolylineVertex
 10
22327.82305600465
 20
-28622.61941795285
 30
0.0
 70
    32
  0
VERTEX
  5
34C
330
308
100
AcDbEntity
  8
Ech.1_5
  6
Continuous
 62
     7
370
    20
100
AcDbVertex
100
AcDb3dPolylineVertex
 10
22327.91680270465
 20
-28622.76657085284
 30
0.0
 70
    32
  0
VERTEX
  5
34D
330
308
100
AcDbEntity
  8
Ech.1_5
  6
Continuous
 62
     7
370
    20
100
AcDbVertex
100
AcDb3dPolylineVertex
 10
22328.02301790466
 20
-28622.90499325284
 30
0.0
 70
    32
  0
VERTEX
  5
34E
330
308
100
AcDbEntity
  8
Ech.1_5
  6
Continuous
 62
     7
370
    20
100
AcDbVertex
100
AcDb3dPolylineVertex
 10
22328.14089320466
 20
-28623.03363155283
 30
0.0
 70
    32
  0
VERTEX
  5
34F
330
308
100
AcDbEntity
  8
Ech.1_5
  6
Continuous
 62
     7
370
    20
100
AcDbVertex
100
AcDb3dPolylineVertex
 10
22328.26953160466
 20
-28623.15150685283
 30
0.0
 70
    32
  0
VERTEX
  5
350
330
308
100
AcDbEntity
  8
Ech.1_5
  6
Continuous
 62
     7
370
    20
100
AcDbVertex
100
AcDb3dPolylineVertex
 10
22328.40795390465
 20
-28623.25772205284
 30
0.0
 70
    32
  0
VERTEX
  5
351
330
308
100
AcDbEntity
  8
Ech.1_5
  6
Continuous
 62
     7
370
    20
100
AcDbVertex
100
AcDb3dPolylineVertex
 10
22328.55510680465
 20
-28623.35146875284
 30
0.0
 70
    32
  0
VERTEX
  5
352
330
308
100
AcDbEntity
  8
Ech.1_5
  6
Continuous
 62
     7
370
    20
100
AcDbVertex
100
AcDb3dPolylineVertex
 10
22328.70987030465
 20
-28623.43203355285
 30
0.0
 70
    32
  0
VERTEX
  5
353
330
308
100
AcDbEntity
  8
Ech.1_5
  6
Continuous
 62
     7
370
    20
100
AcDbVertex
100
AcDb3dPolylineVertex
 10
22328.87106650465
 20
-28623.49880325286
 30
0.0
 70
    32
  0
VERTEX
  5
354
330
308
100
AcDbEntity
  8
Ech.1_5
  6
Continuous
 62
     7
370
    20
100
AcDbVertex
100
AcDb3dPolylineVertex
 10
22329.03746870466
 20
-28623.55126965282
 30
0.0
 70
    32
  0
VERTEX
  5
355
330
308
100
AcDbEntity
  8
Ech.1_5
  6
Continuous
 62
     7
370
    20
100
AcDbVertex
100
AcDb3dPolylineVertex
 10
22329.20781050465
 20
-28623.58903345283
 30
0.0
 70
    32
  0
VERTEX
  5
356
330
308
100
AcDbEntity
  8
Ech.1_5
  6
Continuous
 62
     7
370
    20
100
AcDbVertex
100
AcDb3dPolylineVertex
 10
22329.38079530466
 20
-28623.61180735284
 30
0.0
 70
    32
  0
VERTEX
  5
357
330
308
100
AcDbEntity
  8
Ech.1_5
  6
Continuous
 62
     7
370
    20
100
AcDbVertex
100
AcDb3dPolylineVertex
 10
22329.55510680465
 20
-28623.61941795285
 30
0.0
 70
    32
  0
VERTEX
  5
358
330
308
100
AcDbEntity
  8
Ech.1_5
  6
Continuous
 62
     7
370
    20
100
AcDbVertex
100
AcDb3dPolylineVertex
 10
22338.05510680465
 20
-28623.61941795285
 30
0.0
 70
    32
  0
VERTEX
  5
359
330
308
100
AcDbEntity
  8
Ech.1_5
  6
Continuous
 62
     7
370
    20
100
AcDbVertex
100
AcDb3dPolylineVertex
 10
22338.18584040465
 20
-28623.62512595286
 30
0.0
 70
    32
  0
VERTEX
  5
35A
330
308
100
AcDbEntity
  8
Ech.1_5
  6
Continuous
 62
     7
370
    20
100
AcDbVertex
100
AcDb3dPolylineVertex
 10
22338.31557910464
 20
-28623.64220635285
 30
0.0
 70
    32
  0
VERTEX
  5
35B
330
308
100
AcDbEntity
  8
Ech.1_5
  6
Continuous
 62
     7
370
    20
100
AcDbVertex
100
AcDb3dPolylineVertex
 10
22338.44333540465
 20
-28623.67052925286
 30
0.0
 70
    32
  0
VERTEX
  5
35C
330
308
100
AcDbEntity
  8
Ech.1_5
  6
Continuous
 62
     7
370
    20
100
AcDbVertex
100
AcDb3dPolylineVertex
 10
22338.56813700465
 20
-28623.70987905283
 30
0.0
 70
    32
  0
VERTEX
  5
35D
330
308
100
AcDbEntity
  8
Ech.1_5
  6
Continuous
 62
     7
370
    20
100
AcDbVertex
100
AcDb3dPolylineVertex
 10
22338.68903420467
 20
-28623.75995635286
 30
0.0
 70
    32
  0
VERTEX
  5
35E
330
308
100
AcDbEntity
  8
Ech.1_5
  6
Continuous
 62
     7
370
    20
100
AcDbVertex
100
AcDb3dPolylineVertex
 10
22338.80510680465
 20
-28623.82037985285
 30
0.0
 70
    32
  0
VERTEX
  5
35F
330
308
100
AcDbEntity
  8
Ech.1_5
  6
Continuous
 62
     7
370
    20
100
AcDbVertex
100
AcDb3dPolylineVertex
 10
22338.91547150465
 20
-28623.89068995283
 30
0.0
 70
    32
  0
VERTEX
  5
360
330
308
100
AcDbEntity
  8
Ech.1_5
  6
Continuous
 62
     7
370
    20
100
AcDbVertex
100
AcDb3dPolylineVertex
 10
22339.01928820467
 20
-28623.97035135283
 30
0.0
 70
    32
  0
VERTEX
  5
361
330
308
100
AcDbEntity
  8
Ech.1_5
  6
Continuous
 62
     7
370
    20
100
AcDbVertex
100
AcDb3dPolylineVertex
 10
22339.11576700467
 20
-28624.05875785283
 30
0.0
 70
    32
  0
VERTEX
  5
362
330
308
100
AcDbEntity
  8
Ech.1_5
  6
Continuous
 62
     7
370
    20
100
AcDbVertex
100
AcDb3dPolylineVertex
 10
22339.20417350467
 20
-28624.15523655286
 30
0.0
 70
    32
  0
VERTEX
  5
363
330
308
100
AcDbEntity
  8
Ech.1_5
  6
Continuous
 62
     7
370
    20
100
AcDbVertex
100
AcDb3dPolylineVertex
 10
22339.28383490467
 20
-28624.25905335285
 30
0.0
 70
    32
  0
VERTEX
  5
364
330
308
100
AcDbEntity
  8
Ech.1_5
  6
Continuous
 62
     7
370
    20
100
AcDbVertex
100
AcDb3dPolylineVertex
 10
22339.35414490465
 20
-28624.36941795285
 30
0.0
 70
    32
  0
VERTEX
  5
365
330
308
100
AcDbEntity
  8
Ech.1_5
  6
Continuous
 62
     7
370
    20
100
AcDbVertex
100
AcDb3dPolylineVertex
 10
22339.41456850467
 20
-28624.48549055286
 30
0.0
 70
    32
  0
VERTEX
  5
366
330
308
100
AcDbEntity
  8
Ech.1_5
  6
Continuous
 62
     7
370
    20
100
AcDbVertex
100
AcDb3dPolylineVertex
 10
22339.46464570466
 20
-28624.60638775284
 30
0.0
 70
    32
  0
VERTEX
  5
367
330
308
100
AcDbEntity
  8
Ech.1_5
  6
Continuous
 62
     7
370
    20
100
AcDbVertex
100
AcDb3dPolylineVertex
 10
22339.50399560467
 20
-28624.73118945285
 30
0.0
 70
    32
  0
VERTEX
  5
368
330
308
100
AcDbEntity
  8
Ech.1_5
  6
Continuous
 62
     7
370
    20
100
AcDbVertex
100
AcDb3dPolylineVertex
 10
22339.53231840464
 20
-28624.85894575285
 30
0.0
 70
    32
  0
VERTEX
  5
369
330
308
100
AcDbEntity
  8
Ech.1_5
  6
Continuous
 62
     7
370
    20
100
AcDbVertex
100
AcDb3dPolylineVertex
 10
22339.54939890467
 20
-28624.98868435284
 30
0.0
 70
    32
  0
VERTEX
  5
36A
330
308
100
AcDbEntity
  8
Ech.1_5
  6
Continuous
 62
     7
370
    20
100
AcDbVertex
100
AcDb3dPolylineVertex
 10
22339.55510680465
 20
-28625.11941795285
 30
0.0
 70
    32
  0
VERTEX
  5
36B
330
308
100
AcDbEntity
  8
Ech.1_5
  6
Continuous
 62
     7
370
    20
100
AcDbVertex
100
AcDb3dPolylineVertex
 10
22339.54939890467
 20
-28625.25015165285
 30
0.0
 70
    32
  0
VERTEX
  5
36C
330
308
100
AcDbEntity
  8
Ech.1_5
  6
Continuous
 62
     7
370
    20
100
AcDbVertex
100
AcDb3dPolylineVertex
 10
22339.53231840464
 20
-28625.37989025284
 30
0.0
 70
    32
  0
VERTEX
  5
36D
330
308
100
AcDbEntity
  8
Ech.1_5
  6
Continuous
 62
     7
370
    20
100
AcDbVertex
100
AcDb3dPolylineVertex
 10
22339.24977740465
 20
-28626.98225995285
 30
0.0
 70
    32
  0
VERTEX
  5
36E
330
308
100
AcDbEntity
  8
Ech.1_5
  6
Continuous
 62
     7
370
    20
100
AcDbVertex
100
AcDb3dPolylineVertex
 10
22339.21201360464
 20
-28627.15260165284
 30
0.0
 70
    32
  0
VERTEX
  5
36F
330
308
100
AcDbEntity
  8
Ech.1_5
  6
Continuous
 62
     7
370
    20
100
AcDbVertex
100
AcDb3dPolylineVertex
 10
22339.15954720465
 20
-28627.31900385285
 30
0.0
 70
    32
  0
VERTEX
  5
370
330
308
100
AcDbEntity
  8
Ech.1_5
  6
Continuous
 62
     7
370
    20
100
AcDbVertex
100
AcDb3dPolylineVertex
 10
22339.09277750464
 20
-28627.48020015285
 30
0.0
 70
    32
  0
VERTEX
  5
371
330
308
100
AcDbEntity
  8
Ech.1_5
  6
Continuous
 62
     7
370
    20
100
AcDbVertex
100
AcDb3dPolylineVertex
 10
22339.01221270466
 20
-28627.63496355285
 30
0.0
 70
    32
  0
VERTEX
  5
372
330
308
100
AcDbEntity
  8
Ech.1_5
  6
Continuous
 62
     7
370
    20
100
AcDbVertex
100
AcDb3dPolylineVertex
 10
22338.91846600466
 20
-28627.78211645285
 30
0.0
 70
    32
  0
VERTEX
  5
373
330
308
100
AcDbEntity
  8
Ech.1_5
  6
Continuous
 62
     7
370
    20
100
AcDbVertex
100
AcDb3dPolylineVertex
 10
22338.81225080465
 20
-28627.92053885284
 30
0.0
 70
    32
  0
VERTEX
  5
374
330
308
100
AcDbEntity
  8
Ech.1_5
  6
Continuous
 62
     7
370
    20
100
AcDbVertex
100
AcDb3dPolylineVertex
 10
22338.69437550465
 20
-28628.04917715284
 30
0.0
 70
    32
  0
VERTEX
  5
375
330
308
100
AcDbEntity
  8
Ech.1_5
  6
Continuous
 62
     7
370
    20
100
AcDbVertex
100
AcDb3dPolylineVertex
 10
22338.56573710465
 20
-28628.16705245284
 30
0.0
 70
    32
  0
VERTEX
  5
376
330
308
100
AcDbEntity
  8
Ech.1_5
  6
Continuous
 62
     7
370
    20
100
AcDbVertex
100
AcDb3dPolylineVertex
 10
22338.42731480466
 20
-28628.27326765285
 30
0.0
 70
    32
  0
VERTEX
  5
377
330
308
100
AcDbEntity
  8
Ech.1_5
  6
Continuous
 62
     7
370
    20
100
AcDbVertex
100
AcDb3dPolylineVertex
 10
22338.28016190467
 20
-28628.36701435285
 30
0.0
 70
    32
  0
VERTEX
  5
378
330
308
100
AcDbEntity
  8
Ech.1_5
  6
Continuous
 62
     7
370
    20
100
AcDbVertex
100
AcDb3dPolylineVertex
 10
22335.54276440467
 20
-28629.94745155285
 30
0.0
 70
    32
  0
VERTEX
  5
379
330
308
100
AcDbEntity
  8
Ech.1_5
  6
Continuous
 62
     7
370
    20
100
AcDbVertex
100
AcDb3dPolylineVertex
 10
22335.10130580465
 20
-28630.22869175283
 30
0.0
 70
    32
  0
VERTEX
  5
37A
330
308
100
AcDbEntity
  8
Ech.1_5
  6
Continuous
 62
     7
370
    20
100
AcDbVertex
100
AcDb3dPolylineVertex
 10
22334.68603880465
 20
-28630.54733735283
 30
0.0
 70
    32
  0
VERTEX
  5
37B
330
308
100
AcDbEntity
  8
Ech.1_5
  6
Continuous
 62
     7
370
    20
100
AcDbVertex
100
AcDb3dPolylineVertex
 10
22334.30012380466
 20
-28630.90096335285
 30
0.0
 70
    32
  0
VERTEX
  5
37C
330
308
100
AcDbEntity
  8
Ech.1_5
  6
Continuous
 62
     7
370
    20
100
AcDbVertex
100
AcDb3dPolylineVertex
 10
22333.94649780466
 20
-28631.28687835285
 30
0.0
 70
    32
  0
VERTEX
  5
37D
330
308
100
AcDbEntity
  8
Ech.1_5
  6
Continuous
 62
     7
370
    20
100
AcDbVertex
100
AcDb3dPolylineVertex
 10
22333.62785220466
 20
-28631.70214535285
 30
0.0
 70
    32
  0
VERTEX
  5
37E
330
308
100
AcDbEntity
  8
Ech.1_5
  6
Continuous
 62
     7
370
    20
100
AcDbVertex
100
AcDb3dPolylineVertex
 10
22333.34661200465
 20
-28632.14360395284
 30
0.0
 70
    32
  0
VERTEX
  5
37F
330
308
100
AcDbEntity
  8
Ech.1_5
  6
Continuous
 62
     7
370
    20
100
AcDbVertex
100
AcDb3dPolylineVertex
 10
22333.10491770465
 20
-28632.60789445285
 30
0.0
 70
    32
  0
VERTEX
  5
380
330
308
100
AcDbEntity
  8
Ech.1_5
  6
Continuous
 62
     7
370
    20
100
AcDbVertex
100
AcDb3dPolylineVertex
 10
22332.90460870464
 20
-28633.09148315286
 30
0.0
 70
    32
  0
VERTEX
  5
381
330
308
100
AcDbEntity
  8
Ech.1_5
  6
Continuous
 62
     7
370
    20
100
AcDbVertex
100
AcDb3dPolylineVertex
 10
22332.74720950465
 20
-28633.59068975284
 30
0.0
 70
    32
  0
VERTEX
  5
382
330
308
100
AcDbEntity
  8
Ech.1_5
  6
Continuous
 62
     7
370
    20
100
AcDbVertex
100
AcDb3dPolylineVertex
 10
22332.63391790466
 20
-28634.10171495286
 30
0.0
 70
    32
  0
VERTEX
  5
383
330
308
100
AcDbEntity
  8
Ech.1_5
  6
Continuous
 62
     7
370
    20
100
AcDbVertex
100
AcDb3dPolylineVertex
 10
22331.79508980465
 20
-28638.85894575285
 30
0.0
 70
    32
  0
VERTEX
  5
384
330
308
100
AcDbEntity
  8
Ech.1_5
  6
Continuous
 62
     7
370
    20
100
AcDbVertex
100
AcDb3dPolylineVertex
 10
22331.77800940466
 20
-28638.98868435284
 30
0.0
 70
    32
  0
VERTEX
  5
385
330
308
100
AcDbEntity
  8
Ech.1_5
  6
Continuous
 62
     7
370
    20
100
AcDbVertex
100
AcDb3dPolylineVertex
 10
22331.77230140465
 20
-28639.11941795285
 30
0.0
 70
    32
  0
VERTEX
  5
386
330
308
100
AcDbEntity
  8
Ech.1_5
  6
Continuous
 62
     7
370
    20
100
AcDbVertex
100
AcDb3dPolylineVertex
 10
22331.77800940466
 20
-28639.25015165285
 30
0.0
 70
    32
  0
VERTEX
  5
387
330
308
100
AcDbEntity
  8
Ech.1_5
  6
Continuous
 62
     7
370
    20
100
AcDbVertex
100
AcDb3dPolylineVertex
 10
22331.79508980465
 20
-28639.37989025284
 30
0.0
 70
    32
  0
VERTEX
  5
388
330
308
100
AcDbEntity
  8
Ech.1_5
  6
Continuous
 62
     7
370
    20
100
AcDbVertex
100
AcDb3dPolylineVertex
 10
22331.82341270466
 20
-28639.50764655285
 30
0.0
 70
    32
  0
VERTEX
  5
389
330
308
100
AcDbEntity
  8
Ech.1_5
  6
Continuous
 62
     7
370
    20
100
AcDbVertex
100
AcDb3dPolylineVertex
 10
22331.86276250466
 20
-28639.63244825285
 30
0.0
 70
    32
  0
VERTEX
  5
38A
330
308
100
AcDbEntity
  8
Ech.1_5
  6
Continuous
 62
     7
370
    20
100
AcDbVertex
100
AcDb3dPolylineVertex
 10
22331.91283970466
 20
-28639.75334535284
 30
0.0
 70
    32
  0
VERTEX
  5
38B
330
308
100
AcDbEntity
  8
Ech.1_5
  6
Continuous
 62
     7
370
    20
100
AcDbVertex
100
AcDb3dPolylineVertex
 10
22331.97326330465
 20
-28639.86941795285
 30
0.0
 70
    32
  0
VERTEX
  5
38C
330
308
100
AcDbEntity
  8
Ech.1_5
  6
Continuous
 62
     7
370
    20
100
AcDbVertex
100
AcDb3dPolylineVertex
 10
22332.04357330466
 20
-28639.97978265284
 30
0.0
 70
    32
  0
VERTEX
  5
38D
330
308
100
AcDbEntity
  8
Ech.1_5
  6
Continuous
 62
     7
370
    20
100
AcDbVertex
100
AcDb3dPolylineVertex
 10
22332.12323470466
 20
-28640.08359945284
 30
0.0
 70
    32
  0
VERTEX
  5
38E
330
308
100
AcDbEntity
  8
Ech.1_5
  6
Continuous
 62
     7
370
    20
100
AcDbVertex
100
AcDb3dPolylineVertex
 10
22332.21164120466
 20
-28640.18007815284
 30
0.0
 70
    32
  0
VERTEX
  5
38F
330
308
100
AcDbEntity
  8
Ech.1_5
  6
Continuous
 62
     7
370
    20
100
AcDbVertex
100
AcDb3dPolylineVertex
 10
22332.30812000466
 20
-28640.26848465284
 30
0.0
 70
    32
  0
VERTEX
  5
390
330
308
100
AcDbEntity
  8
Ech.1_5
  6
Continuous
 62
     7
370
    20
100
AcDbVertex
100
AcDb3dPolylineVertex
 10
22332.41193680465
 20
-28640.34814605283
 30
0.0
 70
    32
  0
VERTEX
  5
391
330
308
100
AcDbEntity
  8
Ech.1_5
  6
Continuous
 62
     7
370
    20
100
AcDbVertex
100
AcDb3dPolylineVertex
 10
22332.52230140465
 20
-28640.41845605284
 30
0.0
 70
    32
  0
VERTEX
  5
392
330
308
100
AcDbEntity
  8
Ech.1_5
  6
Continuous
 62
     7
370
    20
100
AcDbVertex
100
AcDb3dPolylineVertex
 10
22332.63837400466
 20
-28640.47887965284
 30
0.0
 70
    32
  0
VERTEX
  5
393
330
308
100
AcDbEntity
  8
Ech.1_5
  6
Continuous
 62
     7
370
    20
100
AcDbVertex
100
AcDb3dPolylineVertex
 10
22332.75927120465
 20
-28640.52895695283
 30
0.0
 70
    32
  0
VERTEX
  5
394
330
308
100
AcDbEntity
  8
Ech.1_5
  6
Continuous
 62
     7
370
    20
100
AcDbVertex
100
AcDb3dPolylineVertex
 10
22332.88407280465
 20
-28640.56830675284
 30
0.0
 70
    32
  0
VERTEX
  5
395
330
308
100
AcDbEntity
  8
Ech.1_5
  6
Continuous
 62
     7
370
    20
100
AcDbVertex
100
AcDb3dPolylineVertex
 10
22333.01182910465
 20
-28640.59662965284
 30
0.0
 70
    32
  0
VERTEX
  5
396
330
308
100
AcDbEntity
  8
Ech.1_5
  6
Continuous
 62
     7
370
    20
100
AcDbVertex
100
AcDb3dPolylineVertex
 10
22333.14156780465
 20
-28640.61371005284
 30
0.0
 70
    32
  0
VERTEX
  5
397
330
308
100
AcDbEntity
  8
Ech.1_5
  6
Continuous
 62
     7
370
    20
100
AcDbVertex
100
AcDb3dPolylineVertex
 10
22333.27230140465
 20
-28640.61941795285
 30
0.0
 70
    32
  0
VERTEX
  5
398
330
308
100
AcDbEntity
  8
Ech.1_5
  6
Continuous
 62
     7
370
    20
100
AcDbVertex
100
AcDb3dPolylineVertex
 10
22353.05510680465
 20
-28640.61941795285
 30
0.0
 70
    32
  0
VERTEX
  5
399
330
308
100
AcDbEntity
  8
Ech.1_5
  6
Continuous
 62
     7
370
    20
100
AcDbVertex
100
AcDb3dPolylineVertex
 10
22353.18584040465
 20
-28640.62512595283
 30
0.0
 70
    32
  0
VERTEX
  5
39A
330
308
100
AcDbEntity
  8
Ech.1_5
  6
Continuous
 62
     7
370
    20
100
AcDbVertex
100
AcDb3dPolylineVertex
 10
22353.31557910464
 20
-28640.64220635285
 30
0.0
 70
    32
  0
VERTEX
  5
39B
330
308
100
AcDbEntity
  8
Ech.1_5
  6
Continuous
 62
     7
370
    20
100
AcDbVertex
100
AcDb3dPolylineVertex
 10
22353.44333540465
 20
-28640.67052925286
 30
0.0
 70
    32
  0
VERTEX
  5
39C
330
308
100
AcDbEntity
  8
Ech.1_5
  6
Continuous
 62
     7
370
    20
100
AcDbVertex
100
AcDb3dPolylineVertex
 10
22353.56813700465
 20
-28640.70987905283
 30
0.0
 70
    32
  0
VERTEX
  5
39D
330
308
100
AcDbEntity
  8
Ech.1_5
  6
Continuous
 62
     7
370
    20
100
AcDbVertex
100
AcDb3dPolylineVertex
 10
22353.68903420467
 20
-28640.75995635286
 30
0.0
 70
    32
  0
VERTEX
  5
39E
330
308
100
AcDbEntity
  8
Ech.1_5
  6
Continuous
 62
     7
370
    20
100
AcDbVertex
100
AcDb3dPolylineVertex
 10
22353.80510680465
 20
-28640.82037985285
 30
0.0
 70
    32
  0
VERTEX
  5
39F
330
308
100
AcDbEntity
  8
Ech.1_5
  6
Continuous
 62
     7
370
    20
100
AcDbVertex
100
AcDb3dPolylineVertex
 10
22353.91547150465
 20
-28640.89068995283
 30
0.0
 70
    32
  0
VERTEX
  5
3A0
330
308
100
AcDbEntity
  8
Ech.1_5
  6
Continuous
 62
     7
370
    20
100
AcDbVertex
100
AcDb3dPolylineVertex
 10
22354.01928820467
 20
-28640.97035135283
 30
0.0
 70
    32
  0
VERTEX
  5
3A1
330
308
100
AcDbEntity
  8
Ech.1_5
  6
Continuous
 62
     7
370
    20
100
AcDbVertex
100
AcDb3dPolylineVertex
 10
22354.11576700467
 20
-28641.05875785286
 30
0.0
 70
    32
  0
VERTEX
  5
3A2
330
308
100
AcDbEntity
  8
Ech.1_5
  6
Continuous
 62
     7
370
    20
100
AcDbVertex
100
AcDb3dPolylineVertex
 10
22354.20417350467
 20
-28641.15523655286
 30
0.0
 70
    32
  0
VERTEX
  5
3A3
330
308
100
AcDbEntity
  8
Ech.1_5
  6
Continuous
 62
     7
370
    20
100
AcDbVertex
100
AcDb3dPolylineVertex
 10
22354.28383490467
 20
-28641.25905335285
 30
0.0
 70
    32
  0
VERTEX
  5
3A4
330
308
100
AcDbEntity
  8
Ech.1_5
  6
Continuous
 62
     7
370
    20
100
AcDbVertex
100
AcDb3dPolylineVertex
 10
22354.35414490465
 20
-28641.36941795285
 30
0.0
 70
    32
  0
VERTEX
  5
3A5
330
308
100
AcDbEntity
  8
Ech.1_5
  6
Continuous
 62
     7
370
    20
100
AcDbVertex
100
AcDb3dPolylineVertex
 10
22354.41456850467
 20
-28641.48549055286
 30
0.0
 70
    32
  0
VERTEX
  5
3A6
330
308
100
AcDbEntity
  8
Ech.1_5
  6
Continuous
 62
     7
370
    20
100
AcDbVertex
100
AcDb3dPolylineVertex
 10
22354.46464570466
 20
-28641.60638775284
 30
0.0
 70
    32
  0
VERTEX
  5
3A7
330
308
100
AcDbEntity
  8
Ech.1_5
  6
Continuous
 62
     7
370
    20
100
AcDbVertex
100
AcDb3dPolylineVertex
 10
22354.50399560467
 20
-28641.73118945285
 30
0.0
 70
    32
  0
VERTEX
  5
3A8
330
308
100
AcDbEntity
  8
Ech.1_5
  6
Continuous
 62
     7
370
    20
100
AcDbVertex
100
AcDb3dPolylineVertex
 10
22354.53231840467
 20
-28641.85894575285
 30
0.0
 70
    32
  0
VERTEX
  5
3A9
330
308
100
AcDbEntity
  8
Ech.1_5
  6
Continuous
 62
     7
370
    20
100
AcDbVertex
100
AcDb3dPolylineVertex
 10
22354.54939890467
 20
-28641.98868435284
 30
0.0
 70
    32
  0
VERTEX
  5
3AA
330
308
100
AcDbEntity
  8
Ech.1_5
  6
Continuous
 62
     7
370
    20
100
AcDbVertex
100
AcDb3dPolylineVertex
 10
22354.55510680465
 20
-28642.11941795285
 30
0.0
 70
    32
  0
VERTEX
  5
3AB
330
308
100
AcDbEntity
  8
Ech.1_5
  6
Continuous
 62
     7
370
    20
100
AcDbVertex
100
AcDb3dPolylineVertex
 10
22354.54939890467
 20
-28642.25015165285
 30
0.0
 70
    32
  0
VERTEX
  5
3AC
330
308
100
AcDbEntity
  8
Ech.1_5
  6
Continuous
 62
     7
370
    20
100
AcDbVertex
100
AcDb3dPolylineVertex
 10
22354.53231840467
 20
-28642.37989025284
 30
0.0
 70
    32
  0
VERTEX
  5
3AD
330
308
100
AcDbEntity
  8
Ech.1_5
  6
Continuous
 62
     7
370
    20
100
AcDbVertex
100
AcDb3dPolylineVertex
 10
22354.50399560467
 20
-28642.50764655285
 30
0.0
 70
    32
  0
VERTEX
  5
3AE
330
308
100
AcDbEntity
  8
Ech.1_5
  6
Continuous
 62
     7
370
    20
100
AcDbVertex
100
AcDb3dPolylineVertex
 10
22351.65112770465
 20
-28653.15469415286
 30
27.03527619999356
 70
    32
  0
VERTEX
  5
3AF
330
308
100
AcDbEntity
  8
Ech.1_5
  6
Continuous
 62
     7
370
    20
100
AcDbVertex
100
AcDb3dPolylineVertex
 10
22351.54619490466
 20
-28653.48749855287
 30
27.368080599994
 70
    32
  0
VERTEX
  5
3B0
330
308
100
AcDbEntity
  8
Ech.1_5
  6
Continuous
 62
     7
370
    20
100
AcDbVertex
100
AcDb3dPolylineVertex
 10
22351.41265560465
 20
-28653.80989105284
 30
27.69047309999329
 70
    32
  0
VERTEX
  5
3B1
330
308
100
AcDbEntity
  8
Ech.1_5
  6
Continuous
 62
     7
370
    20
100
AcDbVertex
100
AcDb3dPolylineVertex
 10
22351.25152610466
 20
-28654.11941795285
 30
27.99999999999106
 70
    32
  0
VERTEX
  5
3B2
330
308
100
AcDbEntity
  8
Ech.1_5
  6
Continuous
 62
     7
370
    20
100
AcDbVertex
100
AcDb3dPolylineVertex
 10
22351.06403260466
 20
-28654.41372375284
 30
28.29430579999432
 70
    32
  0
VERTEX
  5
3B3
330
308
100
AcDbEntity
  8
Ech.1_5
  6
Continuous
 62
     7
370
    20
100
AcDbVertex
100
AcDb3dPolylineVertex
 10
22350.85160220464
 20
-28654.69056845285
 30
28.57115049999372
 70
    32
  0
SEQEND
  5
3B4
330
308
100
AcDbEntity
  8
Ech.1_5
  6
Continuous
 62
     7
370
    20
390
5F
  0
LINE
  5
3B5
330
1F
100
AcDbEntity
  8
Ech.1_5
  6
Continuous
 62
     7
370
    20
390
5F
100
AcDbLine
 10
22468.99476782918
 20
-28614.12702855285
 30
0.0
 11
22369.55510680465
 21
-28614.12702855285
 31
0.0
  0
LINE
  5
3B6
330
1F
100
AcDbEntity
  8
Ech.1_5
  6
Continuous
 62
     7
370
    20
390
5F
100
AcDbLine
 10
22468.99476782918
 20
-28610.12702855285
 30
0.0
 11
22369.55510680465
 21
-28610.12702855285
 31
0.0
  0
LINE
  5
3B7
330
1F
100
AcDbEntity
  8
Ech.1_5
  6
Continuous
 62
     7
370
    20
390
5F
100
AcDbLine
 10
22468.99476782918
 20
-28590.12702855285
 30
0.0
 11
22369.55510680465
 21
-28590.12702855285
 31
0.0
  0
LINE
  5
3B8
330
1F
100
AcDbEntity
  8
Ech.1_5
  6
Continuous
 62
     7
370
    20
390
5F
100
AcDbLine
 10
22468.99476782918
 20
-28594.12702855285
 30
0.0
 11
22369.55510680465
 21
-28594.12702855285
 31
0.0
  0
LINE
  5
3B9
330
1F
100
AcDbEntity
  8
Ech.1_5
  6
Continuous
 62
     9
370
    15
390
5F
100
AcDbLine
 10
22274.50399560467
 20
-28590.61941795285
 30
0.0
 11
22269.50361855352
 21
-28624.81932965945
 31
0.0
  0
LINE
  5
3BA
330
1F
100
AcDbEntity
  8
Ech.1_5
  6
Continuous
 62
     9
370
    15
390
5F
100
AcDbLine
 10
22274.50399560467
 20
-28624.81932965945
 30
0.0
 11
22269.50399560467
 21
-28590.61941795285
 31
0.0
  0
LWPOLYLINE
  5
3BB
330
1F
100
AcDbEntity
  8
Ech.1_5
  6
Continuous
 62
     9
370
    15
390
5F
100
AcDbPolyline
 90
        5
 70
     0
 43
0.0
 10
22269.50399560467
 20
-28590.61941795285
 10
22274.50399560467
 20
-28590.61941795285
 10
22274.50399560467
 20
-28624.81932965945
 10
22269.50361855352
 20
-28624.81932965945
 10
22269.50399560467
 20
-28590.61941795285
  0
HATCH
  5
3BC
330
1F
100
AcDbEntity
  8
Ech.1_5
  6
Continuous
 62
     9
440
 33554687
370
    15
390
5F
100
AcDbHatch
 10
0.0
 20
0.0
 30
0.0
210
0.0
220
0.0
230
1.0
  2
CwHatchPattern_20
 70
     0
 71
     0
 91
        1
 92
        3
 72
     0
 73
     1
 93
        4
 10
22226.49520882581
 20
-28653.11985644176
 10
22226.49520882581
 20
-28648.11985644176
 10
22241.49520882581
 20
-28648.11985644176
 10
22241.49520882581
 20
-28653.11985644176
 97
        0
 75
     0
 76
     2
 52
90.0
 41
0.3602375686168671
 77
     0
 78
     2
 53
135.000000000003
 43
0.0
 44
0.0
 45
-2.547264276071278
 46
-2.54726427607154
 79
     0
 53
225.0000000000089
 43
0.0
 44
0.0
 45
2.547264276071805
 46
-2.547264276071014
 79
     0
 98
        0
1001
ACAD
1010
0.0
1020
0.0
1030
0.0
  0
LWPOLYLINE
  5
3BD
330
1F
100
AcDbEntity
  8
Ech.1_5
  6
Continuous
 62
     9
370
    15
390
5F
100
AcDbPolyline
 90
        5
 70
     0
 43
0.0
 10
22226.49520882581
 20
-28653.11985644176
 10
22226.49520882581
 20
-28648.11985644176
 10
22241.49520882581
 20
-28648.11985644176
 10
22241.49520882581
 20
-28653.11985644176
 10
22226.49520882581
 20
-28653.11985644176
  0
HATCH
  5
3BE
330
1F
100
AcDbEntity
  8
Ech.1_5
  6
Continuous
 62
     9
440
 33554687
370
    15
390
5F
100
AcDbHatch
 10
0.0
 20
0.0
 30
0.0
210
0.0
220
0.0
230
1.0
  2
CwHatchPattern_20
 70
     0
 71
     0
 91
        1
 92
        3
 72
     0
 73
     1
 93
        4
 10
22716.49432683254
 20
-28653.11985644176
 10
22716.49432683254
 20
-28648.11985644176
 10
22731.49432683254
 20
-28648.11985644176
 10
22731.49432683254
 20
-28653.11985644176
 97
        0
 75
     0
 76
     2
 52
90.0
 41
0.3602375686168671
 77
     0
 78
     2
 53
135.000000000003
 43
0.0
 44
0.0
 45
-2.547264276071278
 46
-2.54726427607154
 79
     0
 53
225.0000000000089
 43
0.0
 44
0.0
 45
2.547264276071805
 46
-2.547264276071014
 79
     0
 98
        0
1001
ACAD
1010
0.0
1020
0.0
1030
0.0
  0
LWPOLYLINE
  5
3BF
330
1F
100
AcDbEntity
  8
Ech.1_5
  6
Continuous
 62
     9
370
    15
390
5F
100
AcDbPolyline
 90
        5
 70
     0
 43
0.0
 10
22716.49432683254
 20
-28653.11985644176
 10
22716.49432683254
 20
-28648.11985644176
 10
22731.49432683254
 20
-28648.11985644176
 10
22731.49432683254
 20
-28653.11985644176
 10
22716.49432683254
 20
-28653.11985644176
  0
HATCH
  5
3C0
330
1F
100
AcDbEntity
  8
Ech.1_5
  6
Continuous
 62
    33
420
 12426362
440
 33554687
370
     5
390
5F
100
AcDbHatch
 10
0.0
 20
0.0
 30
0.0
210
0.0
220
0.0
230
1.0
  2
SOLID
 70
     1
 71
     0
 91
        1
 92
        3
 72
     0
 73
     1
 93
        4
 10
22241.49520882581
 20
-28666.11941795285
 10
22286.49520882581
 20
-28666.11941795285
 10
22286.49520882581
 20
-28711.11941795285
 10
22241.49520882581
 20
-28711.11941795285
 97
        0
 75
     0
 76
     1
 98
        0
  0
LINE
  5
3C1
330
1F
100
AcDbEntity
  8
Ech.1_5
  6
Continuous
 62
   190
370
    15
390
5F
100
AcDbLine
 10
22286.49520882581
 20
-28666.11941795285
 30
0.0
 11
22241.49520882581
 21
-28711.11941795285
 31
0.0
  0
LINE
  5
3C2
330
1F
100
AcDbEntity
  8
Ech.1_5
  6
Continuous
 62
   190
370
    15
390
5F
100
AcDbLine
 10
22286.49520882581
 20
-28711.11941795285
 30
0.0
 11
22241.49520882581
 21
-28666.11941795285
 31
0.0
  0
LWPOLYLINE
  5
3C3
330
1F
100
AcDbEntity
  8
Ech.1_5
  6
Continuous
 62
     5
370
    40
390
5F
100
AcDbPolyline
 90
        5
 70
     0
 43
0.0
 10
22241.49520882581
 20
-28666.11941795285
 10
22286.49520882581
 20
-28666.11941795285
 10
22286.49520882581
 20
-28711.11941795285
 10
22241.49520882581
 20
-28711.11941795285
 10
22241.49520882581
 20
-28666.11941795285
  0
HATCH
  5
3C4
330
1F
100
AcDbEntity
  8
Ech.1_5
  6
Continuous
 62
    33
420
 12426362
440
 33554687
370
     5
390
5F
100
AcDbHatch
 10
0.0
 20
0.0
 30
0.0
210
0.0
220
0.0
230
1.0
  2
SOLID
 70
     1
 71
     0
 91
        1
 92
        3
 72
     0
 73
     1
 93
        4
 10
22716.49432683254
 20
-28666.11941795285
 10
22671.49432683254
 20
-28666.11941795285
 10
22671.49432683254
 20
-28711.11941795285
 10
22716.49432683254
 20
-28711.11941795285
 97
        0
 75
     0
 76
     1
 98
        0
  0
LINE
  5
3C5
330
1F
100
AcDbEntity
  8
Ech.1_5
  6
Continuous
 62
   190
370
    15
390
5F
100
AcDbLine
 10
22671.49432683254
 20
-28666.11941795285
 30
0.0
 11
22716.49432683254
 21
-28711.11941795285
 31
0.0
  0
LINE
  5
3C6
330
1F
100
AcDbEntity
  8
Ech.1_5
  6
Continuous
 62
   190
370
    15
390
5F
100
AcDbLine
 10
22671.49432683254
 20
-28711.11941795285
 30
0.0
 11
22716.49432683254
 21
-28666.11941795285
 31
0.0
  0
LWPOLYLINE
  5
3C7
330
1F
100
AcDbEntity
  8
Ech.1_5
  6
Continuous
 62
     5
370
    40
390
5F
100
AcDbPolyline
 90
        5
 70
     0
 43
0.0
 10
22716.49432683254
 20
-28666.11941795285
 10
22671.49432683254
 20
-28666.11941795285
 10
22671.49432683254
 20
-28711.11941795285
 10
22716.49432683254
 20
-28711.11941795285
 10
22716.49432683254
 20
-28666.11941795285
  0
HATCH
  5
3C8
330
1F
100
AcDbEntity
  8
Ech.1_5
  6
Continuous
 62
   190
440
 33554687
370
    15
390
5F
100
AcDbHatch
 10
0.0
 20
0.0
 30
0.0
210
0.0
220
0.0
230
1.0
  2
SOLID
 70
     1
 71
     0
 91
        1
 92
        3
 72
     0
 73
     1
 93
        4
 10
22842.91679839931
 20
-28275.26112365722
 10
22892.91679839931
 20
-28275.26112365722
 10
22892.91679839931
 20
-28267.84599304199
 10
22842.91679839931
 20
-28267.84599304199
 97
        0
 75
     0
 76
     1
 98
        0
  0
LWPOLYLINE
  5
3C9
330
1F
100
AcDbEntity
  8
Ech.1_5
  6
Continuous
 62
   177
370
    70
390
5F
100
AcDbPolyline
 90
        3
 70
     0
 43
0.0
 10
22284.50399560467
 20
-28651.11941795285
 10
22284.50399560467
 20
-28661.11941795285
 10
22244.50399560467
 20
-28661.11941795285
  0
LWPOLYLINE
  5
3CA
330
1F
100
AcDbEntity
  8
Ech.1_5
  6
Continuous
 62
   177
370
    70
390
5F
100
AcDbPolyline
 90
        3
 70
     0
 43
0.0
 10
22673.48554005369
 20
-28651.11941795285
 10
22673.48554005369
 20
-28661.11941795285
 10
22713.48554005369
 20
-28661.11941795285
  0
LWPOLYLINE
  5
3CB
330
1F
100
AcDbEntity
  8
Ech.1_5
  6
Continuous
 62
   190
370
    15
390
5F
100
AcDbPolyline
 90
        5
 70
     0
 43
0.0
 10
22971.49476782918
 20
-28226.96432495117
 10
21986.49476782918
 20
-28226.96432495117
 10
21986.49476782918
 20
-28106.47604370117
 10
22971.49476782918
 20
-28106.47604370117
 10
22971.49476782918
 20
-28226.96432495117
  0
LWPOLYLINE
  5
3CC
330
1F
100
AcDbEntity
  8
Ech.1_5
  6
Continuous
 62
   190
370
    15
390
5F
100
AcDbPolyline
 90
        5
 70
     0
 43
0.0
 10
22971.49476782918
 20
-29346.06295776367
 10
21986.49476782918
 20
-29346.06295776367
 10
21986.49476782918
 20
-29324.06295776367
 10
22971.49476782918
 20
-29324.06295776367
 10
22971.49476782918
 20
-29346.06295776367
  0
LWPOLYLINE
  5
3CD
330
1F
100
AcDbEntity
  8
Ech.1_5
  6
Continuous
 62
   190
370
    15
390
5F
100
AcDbPolyline
 90
        5
 70
     0
 43
0.0
 10
22971.49476782918
 20
-29402.93411254882
 10
21986.49476782918
 20
-29402.93411254882
 10
21986.49476782918
 20
-29379.20707702636
 10
22971.49476782918
 20
-29379.20707702636
 10
22971.49476782918
 20
-29402.93411254882
  0
LINE
  5
3CE
330
1F
100
AcDbEntity
  8
Ech.1_5
  6
Continuous
 62
   190
370
    15
390
5F
100
AcDbLine
 10
22174.69932979214
 20
-29324.06295776367
 30
0.0
 11
22174.69932979214
 21
-29346.06295776367
 31
0.0
  0
LINE
  5
3CF
330
1F
100
AcDbEntity
  8
Ech.1_5
  6
Continuous
 62
   190
370
    15
390
5F
100
AcDbLine
 10
22831.69743242268
 20
-29324.06295776367
 30
0.0
 11
22831.69743242268
 21
-29346.06295776367
 31
0.0
  0
LINE
  5
3D0
330
1F
100
AcDbEntity
  8
Ech.1_5
  6
Continuous
 62
   190
370
    15
390
5F
100
AcDbLine
 10
22330.85454778749
 20
-29324.06295776367
 30
0.0
 11
22330.85454778749
 21
-29346.06295776367
 31
0.0
  0
LINE
  5
3D1
330
1F
100
AcDbEntity
  8
Ech.1_5
  6
Continuous
 62
   190
370
    15
390
5F
100
AcDbLine
 10
22971.49476782918
 20
-28136.47604370117
 30
0.0
 11
21986.49476782918
 21
-28136.47604370117
 31
0.0
  0
LWPOLYLINE
  5
3D2
330
1F
100
AcDbEntity
  8
Ech.1_5
  6
Continuous
 62
   190
370
    15
390
5F
100
AcDbPolyline
 90
        5
 70
     0
 43
0.0
 10
22971.49476782918
 20
-29461.47604370117
 10
22971.49476782918
 20
-28106.47604370117
 10
21986.49476782918
 20
-28106.47604370117
 10
21986.49476782918
 20
-29461.47604370117
 10
22971.49476782918
 20
-29461.47604370117
  0
LWPOLYLINE
  5
3D3
330
1F
100
AcDbEntity
  8
Ech.1_5
  6
Continuous
 62
   190
370
    15
390
5F
100
AcDbPolyline
 90
        6
 70
     0
 43
0.0
 10
22021.49476782918
 20
-28580.61987756973
 10
22021.49476782918
 20
-28766.18870082708
 10
22039.4731194222
 20
-28782.67504421087
 10
22003.51641623616
 20
-28768.5647109286
 10
22021.49476782918
 20
-28785.05105431239
 10
22021.49476782918
 20
-28970.61987756973
  0
LWPOLYLINE
  5
3D4
330
1F
100
AcDbEntity
  8
Ech.1_5
  6
Continuous
 62
   190
370
    15
390
5F
100
AcDbPolyline
 90
        6
 70
     0
 43
0.0
 10
22936.49476782918
 20
-28580.61987756973
 10
22936.49476782918
 20
-28766.18870082708
 10
22954.4731194222
 20
-28782.67504421087
 10
22918.51641623616
 20
-28768.5647109286
 10
22936.49476782918
 20
-28785.05105431239
 10
22936.49476782918
 20
-28970.61987756973
  0
LWPOLYLINE
  5
3D5
330
1F
100
AcDbEntity
  8
Ech.1_5
 62
   190
370
    15
390
5F
100
AcDbPolyline
 90
        5
 70
     0
 43
0.0
 10
22892.91679839931
 20
-28275.26112365722
 10
22942.91679839931
 20
-28275.26112365722
 10
22942.91679839931
 20
-28267.84599304199
 10
22892.91679839931
 20
-28267.84599304199
 10
22892.91679839931
 20
-28275.26112365722
  0
LWPOLYLINE
  5
3D6
330
1F
100
AcDbEntity
  8
Ech.1_5
 62
   190
370
    15
390
5F
100
AcDbPolyline
 90
        5
 70
     0
 43
0.0
 10
22824.63675261399
 20
-28241.60430908203
 10
22959.06553159995
 20
-28241.60430908203
 10
22959.06553159995
 20
-28298.32727050781
 10
22824.63675261399
 20
-28298.32727050781
 10
22824.63675261399
 20
-28241.60430908203
  0
LWPOLYLINE
  5
3D7
330
1F
100
AcDbEntity
  8
Ech.1_5
 62
   190
370
    15
390
5F
100
AcDbPolyline
 90
        5
 70
     0
 43
0.0
 10
22842.91679839931
 20
-28275.26112365722
 10
22892.91679839931
 20
-28275.26112365722
 10
22892.91679839931
 20
-28267.84599304199
 10
22842.91679839931
 20
-28267.84599304199
 10
22842.91679839931
 20
-28275.26112365722
  0
LWPOLYLINE
  5
3D8
330
1F
100
AcDbEntity
  8
Ech.1_5
  6
Continuous
 62
   190
370
    15
390
5F
100
AcDbPolyline
 90
        3
 70
     0
 43
0.0
 10
22776.49454733086
 20
-28940.61987756973
 10
22776.49454733086
 20
-29000.61987756973
 10
22745.68016427816
 20
-29000.61987756973
  0
INSERT
  5
3D9
330
1F
100
AcDbEntity
  8
Ech.1_5
 62
   190
370
    15
100
AcDbBlockReference
  2
cw-line-extremity4
 10
22776.49454733086
 20
-28940.61987756973
 30
0.0
 50
270.0
  0
LWPOLYLINE
  5
3DA
330
1F
100
AcDbEntity
  8
Ech.1_5
  6
Continuous
 62
   190
370
    15
390
5F
100
AcDbPolyline
 90
        3
 70
     0
 43
0.0
 10
22826.49454733086
 20
-28810.61987756973
 10
22826.49454733086
 20
-29050.61987756973
 10
22745.68016427816
 20
-29050.61987756973
  0
INSERT
  5
3DB
330
1F
100
AcDbEntity
  8
Ech.1_5
 62
   190
370
    15
100
AcDbBlockReference
  2
cw-line-extremity4
 10
22826.49454733086
 20
-28810.61987756973
 30
0.0
 50
270.0
  0
LWPOLYLINE
  5
3DC
330
1F
100
AcDbEntity
  8
Ech.1_5
  6
Continuous
 62
   190
370
    15
390
5F
100
AcDbPolyline
 90
        3
 70
     0
 43
0.0
 10
22263.99476782918
 20
-28895.61987756973
 10
22263.99476782918
 20
-29000.61987756973
 10
22326.49520882581
 20
-29000.61987756973
  0
INSERT
  5
3DD
330
1F
100
AcDbEntity
  8
Ech.1_5
 62
   190
370
    15
100
AcDbBlockReference
  2
cw-line-extremity4
 10
22263.99476782918
 20
-28895.61987756973
 30
0.0
 50
270.0
  0
LWPOLYLINE
  5
3DE
330
1F
100
AcDbEntity
  8
Ech.1_5
  6
Continuous
 62
   190
370
    15
390
5F
100
AcDbPolyline
 90
        3
 70
     0
 43
0.0
 10
22239.49476773418
 20
-28913.72116541153
 10
22239.49476773418
 20
-29050.61987756973
 10
22326.49520882581
 20
-29050.61987756973
  0
INSERT
  5
3DF
330
1F
100
AcDbEntity
  8
Ech.1_5
 62
   190
370
    15
100
AcDbBlockReference
  2
cw-line-extremity4
 10
22239.49476773418
 20
-28913.72116541153
 30
0.0
 50
270.0
  0
LWPOLYLINE
  5
3E0
330
1F
100
AcDbEntity
  8
Ech.1_5
  6
Continuous
 62
   190
370
    15
390
5F
100
AcDbPolyline
 90
        3
 70
     0
 43
0.0
 10
22826.49454733086
 20
-28680.61987756973
 10
22826.49454733086
 20
-28500.61987756973
 10
22745.68016427816
 20
-28500.61987756973
  0
INSERT
  5
3E1
330
1F
100
AcDbEntity
  8
Ech.1_5
 62
   190
370
    15
100
AcDbBlockReference
  2
cw-line-extremity4
 10
22826.49454733086
 20
-28680.61987756973
 30
0.0
 50
90.0
  0
LWPOLYLINE
  5
3E2
330
1F
100
AcDbEntity
  8
Ech.1_5
  6
Continuous
 62
   190
370
    15
390
5F
100
AcDbPolyline
 90
        3
 70
     0
 43
0.0
 10
22234.30893164833
 20
-28590.61959510422
 10
22234.30893164833
 20
-28500.61987756973
 10
22326.49476782918
 20
-28500.61987756973
  0
INSERT
  5
3E3
330
1F
100
AcDbEntity
  8
Ech.1_5
 62
   190
370
    15
100
AcDbBlockReference
  2
cw-line-extremity4
 10
22234.30893164833
 20
-28590.61959510422
 30
0.0
 50
90.0
  0
LWPOLYLINE
  5
3E4
330
1F
100
AcDbEntity
  8
Ech.1_5
  6
Continuous
 62
   190
370
    15
390
5F
100
AcDbPolyline
 90
        3
 70
     0
 43
0.0
 10
22284.30893164833
 20
-28580.11941795285
 10
22284.30893164833
 20
-28550.61987756973
 10
22326.49476782918
 20
-28550.61987756973
  0
INSERT
  5
3E5
330
1F
100
AcDbEntity
  8
Ech.1_5
 62
   190
370
    15
100
AcDbBlockReference
  2
cw-line-extremity4
 10
22284.30893164833
 20
-28580.11941795285
 30
0.0
 50
90.0
  0
LWPOLYLINE
  5
3E6
330
1F
100
AcDbEntity
  8
Ech.1_5
  6
Continuous
 62
   190
370
    15
390
5F
100
AcDbPolyline
 90
        3
 70
     0
 43
0.0
 10
22253.99520882581
 20
-28800.61987756973
 10
22274.22129620259
 20
-28800.61987756973
 10
22326.49520882581
 20
-28800.61987756973
  0
INSERT
  5
3E7
330
1F
100
AcDbEntity
  8
Ech.1_5
 62
   190
370
    15
100
AcDbBlockReference
  2
cw-line-extremity4
 10
22253.99520882581
 20
-28800.61987756973
 30
0.0
  0
LWPOLYLINE
  5
3E8
330
1F
100
AcDbEntity
  8
Ech.1_5
  6
Continuous
 62
   190
370
    15
390
5F
100
AcDbPolyline
 90
        3
 70
     0
 43
0.0
 10
22296.49520882581
 20
-28900.61987756973
 10
22316.72129620259
 20
-28900.61987756973
 10
22326.49520882581
 20
-28900.61987756973
  0
INSERT
  5
3E9
330
1F
100
AcDbEntity
  8
Ech.1_5
 62
   190
370
    15
100
AcDbBlockReference
  2
cw-line-extremity4
 10
22296.49520882581
 20
-28900.61987756973
 30
0.0
  0
LWPOLYLINE
  5
3EA
330
1F
100
AcDbEntity
  8
Ech.1_5
  6
Continuous
 62
   190
370
    15
390
5F
100
AcDbPolyline
 90
        3
 70
     0
 43
0.0
 10
22316.72129620259
 20
-28965.61987756973
 10
22316.72129620259
 20
-28950.61987756973
 10
22326.49520882581
 20
-28950.61987756973
  0
INSERT
  5
3EB
330
1F
100
AcDbEntity
  8
Ech.1_5
 62
   190
370
    15
100
AcDbBlockReference
  2
cw-line-extremity4
 10
22316.72129620259
 20
-28965.61987756973
 30
0.0
 50
90.0
  0
LWPOLYLINE
  5
3EC
330
1F
100
AcDbEntity
  8
Ech.1_5
  6
Continuous
 62
   190
370
    15
390
5F
100
AcDbPolyline
 90
        3
 70
     0
 43
0.0
 10
22264.50399560467
 20
-28661.11941795285
 10
22264.50399560467
 20
-28700.61987756973
 10
22326.49520882581
 20
-28700.61987756973
  0
INSERT
  5
3ED
330
1F
100
AcDbEntity
  8
Ech.1_5
 62
   190
370
    15
100
AcDbBlockReference
  2
cw-line-extremity4
 10
22264.50399560467
 20
-28661.11941795285
 30
0.0
 50
270.0
  0
DIMENSION
  5
3EF
102
{ACAD_REACTORS
330
3F0
102
}
330
1F
100
AcDbEntity
  8
Ech.1_5
  6
Continuous
 62
   190
370
    15
390
5F
100
AcDbDimension
280
     0
  2
*D70
 10
22286.49520882581
 20
-28741.11941795285
 30
0.0
 11
22276.49520882581
 21
-28729.86941795285
 31
0.0
 70
   161
  1
min 15 mm
 71
     5
 42
20.0
 73
     0
 74
     0
 75
     0
  3
ISO-25
100
AcDbAlignedDimension
 13
22266.49520882581
 23
-28726.11941795285
 33
0.0
 14
22286.49520882581
 24
-28726.11941795285
 34
0.0
1001
ACAD
1000
DSTYLE
1002
{
1070
   178
1070
   190
1070
   271
1070
     0
1070
   147
1040
0.0
1070
   140
1040
12.5
1070
   340
1005
3EE
1070
   144
1040
1.0
1070
    42
1040
0.0
1070
    44
1040
5.0
1070
    41
1040
5.0
1070
   342
1005
18D
1070
   175
1070
     1
1070
   279
1070
     2
1002
}
  0
DIMENSION
  5
3FE
102
{ACAD_REACTORS
330
3FF
102
}
330
1F
100
AcDbEntity
  8
Ech.1_5
  6
Continuous
 62
   190
370
    15
390
5F
100
AcDbDimension
280
     0
  2
*D71
 10
22671.49432683254
 20
-28661.11941795285
 30
0.0
 11
22660.24432683254
 21
-28663.61941795285
 31
0.0
 70
   160
 71
     5
 42
5.000000000000002
 73
     0
 74
     0
 75
     0
 53
90.0
  3
ISO-25
100
AcDbAlignedDimension
 13
22686.49432683254
 23
-28666.11941795285
 33
0.0
 14
22658.48554005369
 24
-28661.11941795285
 34
0.0
 50
-90.0
100
AcDbRotatedDimension
1001
ACAD
1000
DSTYLE
1002
{
1070
   178
1070
   190
1070
   271
1070
     0
1070
   147
1040
0.0
1070
   140
1040
12.5
1070
   340
1005
3EE
1070
   144
1040
1.0
1070
    42
1040
0.0
1070
    44
1040
5.0
1070
    41
1040
5.0
1070
   342
1005
18D
1070
   175
1070
     1
1070
   279
1070
     2
1002
}
  0
MTEXT
  5
40B
330
1F
100
AcDbEntity
  8
Ech.1_5
  6
Continuous
 62
     4
420
    65535
390
5F
100
AcDbMText
 10
22581.27599010509
 20
-29328.76003030453
 30
0.0
 40
12.5
 41
488.3428846351926
 46
0.0
 71
     2
 72
     1
  1
{\fArial|b0|i0;\W1.000000;\H12.500000;\c16711848;Vue en coupe horizontale}
  7
arial-
 73
     1
 44
1.07999975538982
  0
MTEXT
  5
40C
330
1F
100
AcDbEntity
  8
Ech.1_5
  6
Continuous
 62
     4
420
    65535
390
5F
100
AcDbMText
 10
22902.27110012481
 20
-29328.86755136166
 30
0.0
 40
12.5
 41
62.88904266245663
 46
0.0
 71
     2
 72
     1
  1
{\fArial|b0|i0;\W1.000000;\H12.500000;\c16711848;Ech 1/5 }
  7
arial-
 73
     1
 44
1.07999975538982
  0
MTEXT
  5
40E
330
1F
100
AcDbEntity
  8
Ech.1_5
  6
Continuous
 62
   200
420
 11010303
390
5F
100
AcDbMText
 10
22479.35726782806
 20
-29349.08207702636
 30
0.0
 40
6.25
 41
762.865953372795
 46
0.0
 71
     2
 72
     1
  3
{\fArial|b0|i1;\W1.000000;\H6.250000;\c16711848; Il est rappelé à l'utilisateur qui consulte le site et utilise les informations qu'il contient, qu'il doit les utiliser sous sa seule responsabilité en vérifiant leur pertinence, leur cohérence et leur
  1
 non obsolescence.}
  7
arial-i
 73
     1
 44
1.07999975538982
  0
MTEXT
  5
40F
330
1F
100
AcDbEntity
  8
Ech.1_5
  6
Continuous
 62
     4
420
    65535
390
5F
100
AcDbMText
 10
22254.42757476653
 20
-29328.76003030453
 30
0.0
 40
12.5
 41
143.6552179953469
 46
0.0
 71
     2
 72
     1
  1
{\fArial|b0|i0;\W1.000000;\H12.500000;\c16711848;ITE01-10}
  7
arial-
 73
     1
 44
1.07999975538982
  0
MTEXT
  5
411
330
1F
100
AcDbEntity
  8
Ech.1_5
  6
Continuous
 62
     4
420
    65535
390
5F
100
AcDbMText
 10
22478.99476782918
 20
-28144.95346069336
 30
0.0
 40
13.75
 41
971.25
 46
0.0
 71
     2
 72
     1
  1
{\fArial|b1|i0;\W1.000000;\H13.750000;\c16711848;sans exigences globales feu façade }\P{\fArial|b1|i0;\W1.000000;\H13.750000;\c16711848;c}{\fArial|b1|i0;\W1.000000;\H13.750000;\c16711848;hevrons déportés - isolant 1 lit}
  7
arial-b
 73
     1
 44
1.07999975538982
  0
MTEXT
  5
412
330
1F
100
AcDbEntity
  8
Ech.1_5
  6
Continuous
 62
     4
420
    65535
390
5F
100
AcDbMText
 10
22478.99476782918
 20
-28112.58242797852
 30
0.0
 40
13.75
 41
971.25
 46
0.0
 71
     2
 72
     1
  1
{\fArial|b1|i0;\W1.000000;\H13.750000;\c16711848;ISOLATION THERMIQUE PAR L'EXTERIEUR - IN SITU}
  7
arial-b
 73
     1
 44
1.07999975538982
  0
MTEXT
  5
413
330
1F
100
AcDbEntity
  8
Ech.1_5
  6
Continuous
 62
     4
420
    65535
390
5F
100
AcDbMText
 10
22738.80516427816
 20
-29043.74487756973
 30
0.0
 40
13.75
 41
199.5866698539212
 46
0.0
 71
     3
 72
     1
  1
{\fArial|b0|i0;\W1.000000;\H13.750000;\c16711848;Isolant}
  7
arial-
 73
     1
 44
1.07999975538982
 90
        3
 63
     9
421
 13158600
 45
1.5
441
 33554687
  0
MTEXT
  5
414
330
1F
100
AcDbEntity
  8
Ech.1_5
  6
Continuous
 62
     4
420
    65535
390
5F
100
AcDbMText
 10
22738.80516427816
 20
-28993.74487756973
 30
0.0
 40
13.75
 41
210.9760873767809
 46
0.0
 71
     3
 72
     1
  1
{\fArial|b0|i0;\W1.000000;\H13.750000;\c16711848;Bardage ventilé}
  7
arial-
 73
     1
 44
1.07999975538982
  0
MTEXT
  5
415
330
1F
100
AcDbEntity
  8
Ech.1_5
  6
Continuous
 62
     4
420
    65535
390
5F
100
AcDbMText
 10
22333.37020882581
 20
-28993.74487756973
 30
0.0
 40
13.75
 41
171.0005971524552
 46
0.0
 71
     1
 72
     1
  1
{\fArial|b0|i0;\W1.000000;\H13.750000;\c16711848;Chevron déporté}
  7
arial-
 73
     1
 44
1.07999975538982
  0
MTEXT
  5
416
330
1F
100
AcDbEntity
  8
Ech.1_5
  6
Continuous
 62
     4
420
    65535
390
5F
100
AcDbMText
 10
22333.37020882581
 20
-29043.74487756973
 30
0.0
 40
13.75
 41
171.0005971524552
 46
0.0
 71
     1
 72
     1
  1
{\fArial|b0|i0;\W1.000000;\H13.750000;\c16711848;Patte équerre}
  7
arial-
 73
     1
 44
1.07999975538982
  0
MTEXT
  5
417
330
1F
100
AcDbEntity
  8
Ech.1_5
  6
Continuous
 62
     4
420
    65535
390
5F
100
AcDbMText
 10
22738.80516427816
 20
-28493.74487756973
 30
0.0
 40
13.75
 41
220.7065533083623
 46
0.0
 71
     3
 72
     1
  1
{\fArial|b0|i0;\W1.000000;\H13.750000;\c16711848;Paroi existante}
  7
arial-
 73
     1
 44
1.07999975538982
  0
MTEXT
  5
418
330
1F
100
AcDbEntity
  8
Ech.1_5
  6
Continuous
 62
   200
420
 11010303
390
5F
100
AcDbMText
 10
22333.36976782918
 20
-28493.74487756973
 30
0.0
 40
13.75
 41
220.7065533083623
 46
0.0
 71
     1
 72
     1
  1
{\fArial|b0|i0;\W1.000000;\H13.750000;\c16711848;Dormant existant}
  7
arial-
 73
     1
 44
1.07999975538982
  0
MTEXT
  5
419
330
1F
100
AcDbEntity
  8
Ech.1_5
  6
Continuous
 62
     4
420
    65535
390
5F
100
AcDbMText
 10
22333.36976782918
 20
-28543.74487756973
 30
0.0
 40
13.75
 41
220.7065533083623
 46
0.0
 71
     1
 72
     1
  1
{\fArial|b0|i0;\W1.000000;\H13.750000;\c16711848;Menuiserie neuve}
  7
arial-
 73
     1
 44
1.07999975538982
  0
MTEXT
  5
41A
330
1F
100
AcDbEntity
  8
Ech.1_5
  6
Continuous
 62
     4
420
    65535
390
5F
100
AcDbMText
 10
22333.37020882581
 20
-28768.99487822539
 30
0.0
 40
13.75
 41
201.6701928010298
 46
0.0
 71
     1
 72
     1
  1
{\fArial|b0|i0;\W1.000000;\H13.750000;\c16711848;Isolant rigide, épaisseur à ajuster en fonction de la largeur du dormant}
  7
arial-
 73
     1
 44
1.07999975538982
 90
        3
 63
     9
421
 13158600
 45
1.5
441
 33554687
  0
MTEXT
  5
41B
330
1F
100
AcDbEntity
  8
Ech.1_5
  6
Continuous
 62
     4
420
    65535
390
5F
100
AcDbMText
 10
22333.37020882581
 20
-28893.74487756973
 30
0.0
 40
13.75
 41
210.9760873767809
 46
0.0
 71
     1
 72
     1
  1
{\fArial|b0|i0;\W1.000000;\H13.750000;\c16711848;Retour de bardage}
  7
arial-
 73
     1
 44
1.07999975538982
 90
        3
 63
     9
421
 13158600
 45
1.5
441
 33554687
  0
MTEXT
  5
41C
330
1F
100
AcDbEntity
  8
Ech.1_5
  6
Continuous
 62
     4
420
    65535
390
5F
100
AcDbMText
 10
22333.37020882581
 20
-28943.74487756973
 30
0.0
 40
13.75
 41
210.9760873767809
 46
0.0
 71
     1
 72
     1
  1
{\fArial|b0|i0;\W1.000000;\H13.750000;\c16711848;Bavette métallique}
  7
arial-
 73
     1
 44
1.07999975538982
 90
        3
 63
     9
421
 13158600
 45
1.5
441
 33554687
  0
MTEXT
  5
41D
330
1F
100
AcDbEntity
  8
Ech.1_5
  6
Continuous
 62
   200
420
 11010303
390
5F
100
AcDbMText
 10
22041.26728031955
 20
-29129.68796104193
 30
0.0
 40
13.75
 41
255.3560380018425
 46
0.0
 71
     1
 72
     1
  1
{\fArial|b0|i0;\W1.000000;\H13.750000;\c16711848;En cas de présence d'ITI et de non respect de la règle 2/3 - 1/3 alors une étude particulière permettant de justifier la salubrité de la paroi doit être réalisée.}
  7
arial-
 73
     1
 44
1.07999975538982
 90
       19
 63
     9
421
 13158600
 45
1.5
441
 33554687
1001
ACAD
1000
ACAD_MTEXT_TEXT_BORDERS_BEGIN
1070
    80
1070
    19
1070
    46
1040
1.5
1070
    81
1070
     1
1070
     5
1005
426
1000
ACAD_MTEXT_TEXT_BORDERS_END
  0
MTEXT
  5
41E
330
1F
100
AcDbEntity
  8
Ech.1_5
  6
Continuous
 62
     4
420
    65535
390
5F
100
AcDbMText
 10
22333.37020882582
 20
-28693.74487756973
 30
0.0
 40
13.75
 41
250.7499373608189
 46
0.0
 71
     1
 72
     1
  1
{\fArial|b0|i0;\W1.000000;\H13.750000;\c16711848;Habillage métallique}
  7
arial-
 73
     1
 44
1.07999975538982
  0
MTEXT
  5
41F
330
1F
100
AcDbEntity
  8
Ech.1_5
  6
Continuous
 62
     4
420
    65535
390
5F
100
AcDbMText
 10
22478.99476782918
 20
-28202.98233032227
 30
0.0
 40
16.25
 41
968.75
 46
0.0
 71
     2
 72
     1
  1
{\fArial|b0|i0;\W1.000000;\H16.250000;\c16711848;Détail de menuiserie neuve sur dormant existant avec retour de bardage}
  7
arial-
 73
     1
 44
1.07999975538982
  0
TEXT
  5
420
330
1F
100
AcDbEntity
  8
Ech.1_5
  6
Continuous
 62
   190
390
5F
100
AcDbText
 10
22854.21109102503
 20
-28258.25999450684
 30
0.0
 40
8.0
  1
Echelle en mm
  7
arial-
100
AcDbText
  0
TEXT
  5
421
330
1F
100
AcDbEntity
  8
Ech.1_5
  6
Continuous
 62
   190
390
5F
100
AcDbText
 10
22840.23050627561
 20
-28286.46981811523
 30
0.0
 40
8.0
  1
0
  7
arial-
100
AcDbText
  0
TEXT
  5
422
330
1F
100
AcDbEntity
  8
Ech.1_5
  6
Continuous
 62
   190
390
5F
100
AcDbText
 10
22926.82756416833
 20
-28286.46981811523
 30
0.0
 40
8.0
  1
100
  7
arial-
100
AcDbText
  0
TEXT
  5
423
330
1F
100
AcDbEntity
  8
Ech.1_5
  6
Continuous
 62
   190
390
5F
100
AcDbText
 10
22888.08713260245
 20
-28286.46981811523
 30
0.0
 40
8.0
  1
50
  7
arial-
100
AcDbText
  0
TEXT
  5
424
330
1F
100
AcDbEntity
  8
Ech.1_5
  6
Continuous
 62
   190
390
5F
100
AcDbText
 10
22037.78882890099
 20
-29341.31297163611
 30
0.0
 40
12.5
  1
30/08/2023
  7
arial-
100
AcDbText
  0
TEXT
  5
425
330
1F
100
AcDbEntity
  8
Ech.1_5
  6
Continuous
 62
   190
390
5F
100
AcDbText
 10
22369.44567267537
 20
-29397.07060271108
 30
0.0
 40
12.0
  1
catalogue-bois-construction.fr
  7
arial-i
100
AcDbText
  0
LWPOLYLINE
  5
426
330
1F
100
AcDbEntity
  8
Ech.1_5
  6
Continuous
 62
   200
420
 11010303
390
5F
100
AcDbPolyline
 90
        4
 70
     1
 43
0.0
 10
22034.39228031955
 20
-29122.81296104193
 10
22303.49831832139
 20
-29122.81296104193
 10
22303.49831832139
 20
-29275.22783281524
 10
22034.39228031955
 20
-29275.22783281524
  0
VIEWPORT
  5
215
330
20F
100
AcDbEntity
 67
     1
  8
0
  6
Continuous
390
5F
100
AcDbViewport
 10
98.8
 20
135.8
 30
0.0
 40
209.0608
 41
287.3528000000001
 68
     1
 69
     1
 12
128.5
 22
97.5
 13
0.0
 23
0.0
 14
10.0
 24
10.0
 15
10.0
 25
10.0
 16
0.0
 26
0.0
 36
1.0
 17
0.0
 27
0.0
 37
0.0
 42
50.0
 43
0.0
 44
0.0
 45
222.18
 50
0.0
 51
0.0
 72
   100
 90
   557152
  1

281
     0
 71
     1
 74
     0
110
0.0
120
0.0
130
0.0
111
1.0
121
0.0
131
0.0
112
0.0
122
1.0
132
0.0
 79
     0
146
0.0
170
     0
 61
     5
348
2F
292
     1
282
     1
141
0.0
142
0.0
 63
   256
361
216
  0
VIEWPORT
  5
217
330
20F
100
AcDbEntity
 67
     1
  8
0
  6
Continuous
 60
     1
390
5F
100
AcDbViewport
 10
98.8
 20
135.8
 30
0.0
 40
197.6
 41
271.6
 68
     2
 69
     2
 12
22478.99476782918
 22
-28783.97604370117
 13
0.0
 23
0.0
 14
10.0
 24
10.0
 15
10.0
 25
10.0
 16
0.0
 26
0.0
 36
1.0
 17
0.0
 27
0.0
 37
0.0
 42
50.0
 43
0.0
 44
0.0
 45
1358.0
 50
0.0
 51
0.0
 72
   100
 90
   557152
  1

281
     0
 71
     1
 74
     0
110
0.0
120
0.0
130
0.0
111
1.0
121
0.0
131
0.0
112
0.0
122
1.0
132
0.0
 79
     0
146
0.0
170
     0
 61
     5
348
2F
292
     1
282
     1
141
0.0
142
0.0
 63
   256
  0
ENDSEC
  0
SECTION
  2
OBJECTS
  0
DICTIONARY
  5
C
330
0
100
AcDbDictionary
281
     1
  3
ACAD_DETAILVIEWSTYLE
350
42E
  3
ACAD_GROUP
350
D
  3
ACAD_IMAGE_VARS
350
60
  3
ACAD_LAYOUT
350
1A
  3
ACAD_MATERIAL
350
43
  3
ACAD_MLEADERSTYLE
350
5B
  3
ACAD_MLINESTYLE
350
17
  3
ACAD_PLOTSETTINGS
350
19
  3
ACAD_PLOTSTYLENAME
350
E
  3
ACAD_SCALELIST
350
47
  3
ACAD_SECTIONVIEWSTYLE
350
42F
  3
ACAD_TABLESTYLE
350
59
  3
ACAD_VISUALSTYLE
350
2A
  3
ACAD_WIPEOUT_VARS
350
61
  3
ACDB_RECOMPOSE_DATA
350
42B
  3
AcDbVariableDictionary
350
427
  0
SUN
  5
5D
330
29
100
AcDbSun
 90
        1
290
     0
 63
     7
421
 16777215
 40
1.0
291
     1
 91
  2455826
 92
 54000000
292
     0
 70
     2
 71
   256
280
     1
  0
SUN
  5
216
330
215
100
AcDbSun
 90
        1
290
     0
 63
     7
421
 16777215
 40
1.0
291
     1
 91
  2455826
 92
 54000000
292
     0
 70
     2
 71
   256
280
     1
  0
DICTIONARY
  5
42E
102
{ACAD_REACTORS
330
C
102
}
330
C
100
AcDbDictionary
281
     1
  0
DICTIONARY
  5
D
102
{ACAD_REACTORS
330
C
102
}
330
C
100
AcDbDictionary
281
     1
  3
DIM134
350
3F0
  3
DIM135
350
3FF
  0
RASTERVARIABLES
  5
60
102
{ACAD_REACTORS
330
C
102
}
330
C
100
AcDbRasterVariables
 90
        0
 70
     0
 71
     1
 72
     1
  0
DICTIONARY
  5
1A
102
{ACAD_REACTORS
330
C
102
}
330
C
100
AcDbDictionary
281
     1
  3
CompleteLayout
350
1E
  3
Model
350
22
  3
PrintFrame_10
350
210
  0
DICTIONARY
  5
43
102
{ACAD_REACTORS
330
C
102
}
330
C
100
AcDbDictionary
281
     1
  3
ByBlock
350
45
  3
ByLayer
350
44
  3
Global
350
46
  0
DICTIONARY
  5
5B
102
{ACAD_REACTORS
330
C
102
}
330
C
100
AcDbDictionary
281
     1
  3
Standard
350
5C
  0
DICTIONARY
  5
17
102
{ACAD_REACTORS
330
C
102
}
330
C
100
AcDbDictionary
281
     1
  3
Standard
350
18
  0
DICTIONARY
  5
19
102
{ACAD_REACTORS
330
C
102
}
330
C
100
AcDbDictionary
281
     1
  3
PlotSettings_
350
213
  0
ACDBDICTIONARYWDFLT
  5
E
102
{ACAD_REACTORS
330
C
102
}
330
C
100
AcDbDictionary
281
     1
  3
flat
350
5F
  3
Normal
350
F
100
AcDbDictionaryWithDefault
340
F
  0
DICTIONARY
  5
47
102
{ACAD_REACTORS
330
C
102
}
330
C
100
AcDbDictionary
281
     1
  3
A0
350
48
  3
A1
350
49
  3
A2
350
4A
  3
A3
350
4B
  3
A4
350
4C
  3
A5
350
4D
  3
A6
350
4E
  3
A7
350
4F
  3
A8
350
50
  3
A9
350
51
  3
B0
350
52
  3
B1
350
53
  3
B2
350
54
  3
B3
350
55
  3
B4
350
56
  3
B5
350
57
  3
B6
350
58
  0
DICTIONARY
  5
42F
102
{ACAD_REACTORS
330
C
102
}
330
C
100
AcDbDictionary
281
     1
  0
DICTIONARY
  5
59
102
{ACAD_REACTORS
330
C
102
}
330
C
100
AcDbDictionary
281
     1
  3
Standard
350
5A
  0
DICTIONARY
  5
2A
102
{ACAD_REACTORS
330
C
102
}
330
C
100
AcDbDictionary
281
     1
  3
2dWireframe
350
2F
  3
Basic
350
32
  3
Brighten
350
36
  3
ColorChange
350
3A
  3
Conceptual
350
34
  3
Dim
350
35
  3
EdgeColorOff
350
3D
  3
Facepattern
350
39
  3
Flat
350
2B
  3
FlatWithEdges
350
2C
  3
Gouraud
350
2D
  3
GouraudWithEdges
350
2E
  3
Hidden
350
31
  3
JitterOff
350
3B
  3
Linepattern
350
38
  3
OverhangOff
350
3C
  3
Realistic
350
33
  3
Shaded
350
42
  3
Shaded with edges
350
41
  3
Shades of Gray
350
3E
  3
Sketchy
350
3F
  3
Thicken
350
37
  3
Wireframe
350
30
  3
X-Ray
350
40
  0
WIPEOUTVARIABLES
  5
61
102
{ACAD_REACTORS
330
C
102
}
330
C
100
AcDbWipeoutVariables
 70
     0
  0
XRECORD
  5
42B
102
{ACAD_REACTORS
330
C
102
}
330
C
100
AcDbXrecord
280
     1
 90
        1
330
5A
  0
DICTIONARY
  5
427
102
{ACAD_REACTORS
330
C
102
}
330
C
100
AcDbDictionary
281
     1
  3
CANNOSCALE
350
428
  3
CENTEREXE
350
431
  3
CENTERLTYPEFILE
350
432
  3
CMLEADERSTYLE
350
42D
  3
CTABLESTYLE
350
42C
  3
WIPEOUTFRAME
350
430
  0
GROUP
  5
3F0
102
{ACAD_REACTORS
330
D
102
}
330
D
100
AcDbGroup
300

 70
     0
 71
     1
340
3EF
  0
GROUP
  5
3FF
102
{ACAD_REACTORS
330
D
102
}
330
D
100
AcDbGroup
300

 70
     0
 71
     1
340
3FE
  0
LAYOUT
  5
1E
102
{ACAD_REACTORS
330
1A
102
}
330
1A
100
AcDbPlotSettings
  1

  2
none_device
  4

  6

 40
0.0
 41
0.0
 42
0.0
 43
0.0
 44
0.0
 45
0.0
 46
0.0
 47
0.0
 48
0.0
 49
0.0
140
0.0
141
0.0
142
1.0
143
1.0
 70
   688
 72
     1
 73
     0
 74
     5
  7

 75
    16
 76
     0
 77
     2
 78
   300
147
1.0
148
0.0
149
0.0
100
AcDbLayout
  1
CompleteLayout
 70
     1
 71
     1
 10
0.0
 20
0.0
 11
420.0
 21
297.0
 12
0.0
 22
0.0
 32
0.0
 14
1.000000000000000E+20
 24
1.000000000000000E+20
 34
1.000000000000000E+20
 15
-1.000000000000000E+20
 25
-1.000000000000000E+20
 35
-1.000000000000000E+20
146
0.0
 13
0.0
 23
0.0
 33
0.0
 16
1.0
 26
0.0
 36
0.0
 17
0.0
 27
1.0
 37
0.0
 76
     0
330
1B
  0
LAYOUT
  5
22
102
{ACAD_REACTORS
330
1A
102
}
330
1A
100
AcDbPlotSettings
  1

  2
none_device
  4
Letter_(8.50_x_11.00_Inches)
  6

 40
6.35
 41
6.35
 42
6.35000508
 43
6.35000508
 44
215.9
 45
279.4
 46
0.0
 47
0.0
 48
0.0
 49
0.0
140
0.0
141
0.0
142
1.0
143
1.0
 70
  1712
 72
     1
 73
     0
 74
     0
  7

 75
     0
 76
     0
 77
     2
 78
   300
147
1.0
148
0.0
149
0.0
100
AcDbLayout
  1
Model
 70
     1
 71
     0
 10
0.0
 20
0.0
 11
420.0
 21
297.0
 12
0.0
 22
0.0
 32
0.0
 14
21986.49476782918
 24
-29461.47604370117
 34
-46.00000000000743
 15
22971.49476782918
 25
-28106.47604370117
 35
2500.0
146
0.0
 13
0.0
 23
0.0
 33
0.0
 16
1.0
 26
0.0
 36
0.0
 17
0.0
 27
1.0
 37
0.0
 76
     0
330
1F
331
29
  0
LAYOUT
  5
210
102
{ACAD_REACTORS
330
1A
102
}
330
1A
100
AcDbPlotSettings
  1
PlotSettings_
  2
Custom Device
  4
Custom_210.000000x297.000000_12.700000_12.700000_6.200000_6.200000
  6

 40
6.2
 41
12.7
 42
6.2
 43
12.7
 44
210.0
 45
297.0
 46
0.0000000000000142
 47
0.0
 48
0.0
 49
0.0
140
197.6
141
271.6
142
1.0
143
1.0
 70
   756
 72
     1
 73
     0
 74
     4
  7

 75
     0
 76
     0
 77
     2
 78
   300
147
1.0
148
0.0
149
0.0
100
AcDbLayout
  1
PrintFrame_10
 70
     0
 71
     2
 10
-20.0
 20
-7.5
 11
277.0
 21
202.5
 12
0.0
 22
0.0
 32
0.0
 14
-5.730400000000003
 24
-7.876400000000018
 34
0.0
 15
203.3304
 25
279.4764
 35
0.0
146
0.0
 13
0.0
 23
0.0
 33
0.0
 16
1.0
 26
0.0
 36
0.0
 17
0.0
 27
1.0
 37
0.0
 76
     0
330
20F
331
215
1001
PLOTTRANSPARENCY
1071
        1
1000
layout-user-created
1070
     1
1000
layout-line-weight-scale
1042
1.0
  0
MATERIAL
  5
45
102
{ACAD_REACTORS
330
43
102
}
330
43
100
AcDbMaterial
  1
ByBlock
 72
     1
 94
      127
  0
MATERIAL
  5
44
102
{ACAD_REACTORS
330
43
102
}
330
43
100
AcDbMaterial
  1
ByLayer
 72
     1
 94
      127
  0
MATERIAL
  5
46
102
{ACAD_REACTORS
330
43
102
}
330
43
100
AcDbMaterial
  1
Global
 72
     1
 94
      127
  0
MLEADERSTYLE
  5
5C
102
{ACAD_REACTORS
330
5B
102
}
330
5B
100
AcDbMLeaderStyle
179
     2
170
     2
171
     1
172
     0
 90
        2
 40
0.0
 41
0.0
173
     1
 91
-1056964608
340
14
 92
       -2
290
     1
 42
2.0
291
     1
 43
8.0
  3
Standard
341
0
 44
4.0
300

342
11
174
     1
178
     6
175
     1
176
     0
 93
-1056964608
 45
4.0
292
     0
297
     0
 46
4.0
343
0
 94
-1056964608
 47
1.0
 49
1.0
140
1.0
293
     1
141
0.0
294
     1
177
     0
142
1.0
295
     0
296
     0
143
3.75
271
     0
272
     9
273
     9
298
     0
  0
MLINESTYLE
  5
18
102
{ACAD_REACTORS
330
17
102
}
330
17
100
AcDbMlineStyle
  2
Standard
 70
     0
  3

 62
   256
 51
90.0
 52
90.0
 71
     2
 49
0.5
 62
   256
  6
BYLAYER
 49
-0.5
 62
   256
  6
BYLAYER
  0
PLOTSETTINGS
  5
213
102
{ACAD_REACTORS
330
19
102
}
330
19
100
AcDbPlotSettings
  1
PlotSettings_
  2
Custom Device
  4
Custom_210.000000x297.000000_12.700000_12.700000_6.200000_6.200000
  6

 40
6.2
 41
12.7
 42
6.2
 43
12.7
 44
210.0
 45
297.0
 46
0.0000000000000142
 47
0.0
 48
0.0
 49
0.0
140
197.6
141
271.6
142
1.0
143
1.0
 70
   756
 72
     1
 73
     0
 74
     4
  7

 75
     0
 76
     0
 77
     2
 78
   300
147
1.0
148
0.0
149
0.0
1001
PLOTTRANSPARENCY
1071
        1
1000
layout-user-created
1070
     1
1000
layout-line-weight-scale
1042
1.0
  0
ACDBPLACEHOLDER
  5
5F
102
{ACAD_REACTORS
330
E
102
}
330
E
  0
ACDBPLACEHOLDER
  5
F
102
{ACAD_REACTORS
330
E
102
}
330
E
  0
SCALE
  5
48
102
{ACAD_REACTORS
330
47
102
}
330
47
100
AcDbScale
 70
     0
300
1:1
140
1.0
141
1.0
290
     1
  0
SCALE
  5
49
102
{ACAD_REACTORS
330
47
102
}
330
47
100
AcDbScale
 70
     0
300
1:2
140
1.0
141
2.0
290
     0
  0
SCALE
  5
4A
102
{ACAD_REACTORS
330
47
102
}
330
47
100
AcDbScale
 70
     0
300
1:4
140
1.0
141
4.0
290
     0
  0
SCALE
  5
4B
102
{ACAD_REACTORS
330
47
102
}
330
47
100
AcDbScale
 70
     0
300
1:5
140
1.0
141
5.0
290
     0
  0
SCALE
  5
4C
102
{ACAD_REACTORS
330
47
102
}
330
47
100
AcDbScale
 70
     0
300
1:8
140
1.0
141
8.0
290
     0
  0
SCALE
  5
4D
102
{ACAD_REACTORS
330
47
102
}
330
47
100
AcDbScale
 70
     0
300
1:10
140
1.0
141
10.0
290
     0
  0
SCALE
  5
4E
102
{ACAD_REACTORS
330
47
102
}
330
47
100
AcDbScale
 70
     0
300
1:16
140
1.0
141
16.0
290
     0
  0
SCALE
  5
4F
102
{ACAD_REACTORS
330
47
102
}
330
47
100
AcDbScale
 70
     0
300
1:20
140
1.0
141
20.0
290
     0
  0
SCALE
  5
50
102
{ACAD_REACTORS
330
47
102
}
330
47
100
AcDbScale
 70
     0
300
1:30
140
1.0
141
30.0
290
     0
  0
SCALE
  5
51
102
{ACAD_REACTORS
330
47
102
}
330
47
100
AcDbScale
 70
     0
300
1:40
140
1.0
141
40.0
290
     0
  0
SCALE
  5
52
102
{ACAD_REACTORS
330
47
102
}
330
47
100
AcDbScale
 70
     0
300
1:50
140
1.0
141
50.0
290
     0
  0
SCALE
  5
53
102
{ACAD_REACTORS
330
47
102
}
330
47
100
AcDbScale
 70
     0
300
1:100
140
1.0
141
100.0
290
     0
  0
SCALE
  5
54
102
{ACAD_REACTORS
330
47
102
}
330
47
100
AcDbScale
 70
     0
300
2:1
140
2.0
141
1.0
290
     0
  0
SCALE
  5
55
102
{ACAD_REACTORS
330
47
102
}
330
47
100
AcDbScale
 70
     0
300
4:1
140
4.0
141
1.0
290
     0
  0
SCALE
  5
56
102
{ACAD_REACTORS
330
47
102
}
330
47
100
AcDbScale
 70
     0
300
8:1
140
8.0
141
1.0
290
     0
  0
SCALE
  5
57
102
{ACAD_REACTORS
330
47
102
}
330
47
100
AcDbScale
 70
     0
300
10:1
140
10.0
141
1.0
290
     0
  0
SCALE
  5
58
102
{ACAD_REACTORS
330
47
102
}
330
47
100
AcDbScale
 70
     0
300
100:1
140
100.0
141
1.0
290
     0
  0
TABLESTYLE
  5
5A
102
{ACAD_REACTORS
330
59
102
}
102
{ACAD_XDICTIONARY
360
429
102
}
330
59
100
AcDbTableStyle
  3
Standard
 70
     0
 71
     0
 40
0.06
 41
0.06
280
     0
281
     0
  7
Standard
140
4.5
170
     2
 62
     0
 63
   257
283
     0
 90
        4
 91
        0
  1

274
    -2
284
     1
 64
     0
275
    -2
285
     1
 65
     0
276
    -2
286
     1
 66
     0
277
    -2
287
     1
 67
     0
278
    -2
288
     1
 68
     0
279
    -2
289
     1
 69
     0
  7
Standard
140
6.0
170
     5
 62
     0
 63
   257
283
     0
 90
        4
 91
        0
  1

274
    -2
284
     1
 64
     0
275
    -2
285
     1
 65
     0
276
    -2
286
     1
 66
     0
277
    -2
287
     1
 67
     0
278
    -2
288
     1
 68
     0
279
    -2
289
     1
 69
     0
  7
Standard
140
4.5
170
     5
 62
     0
 63
   257
283
     0
 90
        4
 91
        0
  1

274
    -2
284
     1
 64
     0
275
    -2
285
     1
 65
     0
276
    -2
286
     1
 66
     0
277
    -2
287
     1
 67
     0
278
    -2
288
     1
 68
     0
279
    -2
289
     1
 69
     0
  0
VISUALSTYLE
  5
2F
102
{ACAD_REACTORS
330
2A
102
}
330
2A
100
AcDbVisualStyle
  2
2dWireframe
 70
     4
177
     3
291
     0
 70
    58
 90
        0
176
     1
 90
        2
176
     1
 90
        0
176
     1
 90
        0
176
     1
 40
0.6
176
     1
 40
30.0
176
     1
 62
     7
420
 16777215
176
     1
 90
        1
176
     1
 90
        4
176
     1
 62
     7
176
     1
 62
   257
176
     1
 90
        1
176
     1
 90
        1
176
     1
 40
1.0
176
     1
 90
        0
176
     1
 62
   257
176
     1
 40
1.0
176
     1
 90
        1
176
     1
 90
        6
176
     1
 90
        2
176
     1
 62
     7
176
     1
 90
        5
176
     1
 90
        0
176
     1
 90
        0
176
     1
290
     0
176
     1
 90
        1
176
     1
 40
0.0
176
     1
 90
        0
176
     1
290
     1
176
     1
290
     1
176
     1
290
     0
176
     1
290
     0
176
     1
290
     0
176
     1
290
     0
176
     1
290
     0
176
     1
290
     0
176
     1
290
     0
176
     1
 90
       50
176
     1
 40
0.0
176
     1
 40
1.0
176
     1
 90
        0
176
     1
 62
    18
420
        0
176
     1
 90
       50
176
     1
 90
        3
176
     1
 62
     5
420
      255
176
     1
290
     0
176
     1
 90
       50
176
     1
 90
       50
176
     1
 90
       50
176
     1
290
     0
176
     1
 90
       50
176
     1
 62
   256
176
     0
 40
1.0
176
     0
 90
        2
176
     1
  1
strokes_ogs.tif
176
     1
290
     0
176
     1
 40
1.0
176
     1
 40
1.0
176
     1
  0
VISUALSTYLE
  5
32
102
{ACAD_REACTORS
330
2A
102
}
330
2A
100
AcDbVisualStyle
  2
Basic
 70
     7
177
     3
291
     1
 70
    58
 90
        1
176
     1
 90
        0
176
     1
 90
        1
176
     1
 90
        0
176
     1
 40
0.6
176
     1
 40
30.0
176
     1
 62
     7
420
 16777215
176
     1
 90
        0
176
     1
 90
        4
176
     1
 62
     7
176
     1
 62
   257
176
     1
 90
        1
176
     1
 90
        1
176
     1
 40
1.0
176
     1
 90
        8
176
     1
 62
     7
176
     1
 40
1.0
176
     1
 90
        1
176
     1
 90
        6
176
     1
 90
        2
176
     1
 62
     7
176
     1
 90
        5
176
     1
 90
        0
176
     1
 90
        0
176
     1
290
     0
176
     1
 90
        1
176
     1
 40
0.0
176
     1
 90
        0
176
     1
290
     0
176
     1
290
     1
176
     1
290
     1
176
     1
290
     0
176
     1
290
     0
176
     1
290
     0
176
     1
290
     0
176
     1
290
     0
176
     1
290
     0
176
     1
 90
       50
176
     1
 40
0.0
176
     1
 40
1.0
176
     1
 90
        0
176
     1
 62
    18
420
        0
176
     1
 90
       50
176
     1
 90
        3
176
     1
 62
     5
420
      255
176
     1
290
     0
176
     1
 90
       50
176
     1
 90
       50
176
     1
 90
       50
176
     1
290
     0
176
     1
 90
       50
176
     1
 62
   256
176
     0
 40
1.0
176
     0
 90
        2
176
     1
  1
strokes_ogs.tif
176
     1
290
     0
176
     1
 40
1.0
176
     1
 40
1.0
176
     1
  0
VISUALSTYLE
  5
36
102
{ACAD_REACTORS
330
2A
102
}
330
2A
100
AcDbVisualStyle
  2
Brighten
 70
    12
177
     3
291
     1
 70
    58
 90
        2
176
     1
 90
        2
176
     1
 90
        0
176
     1
 90
        0
176
     1
 40
0.6
176
     1
 40
30.0
176
     1
 62
     7
420
 16777215
176
     1
 90
        1
176
     1
 90
        4
176
     1
 62
     7
176
     1
 62
   257
176
     1
 90
        1
176
     1
 90
        1
176
     1
 40
1.0
176
     1
 90
        8
176
     1
 62
     7
176
     1
 40
1.0
176
     1
 90
        1
176
     1
 90
        6
176
     1
 90
        2
176
     1
 62
     7
176
     1
 90
        5
176
     1
 90
        0
176
     1
 90
        0
176
     1
290
     0
176
     1
 90
        1
176
     1
 40
50.0
176
     1
 90
        0
176
     1
290
     0
176
     1
290
     1
176
     1
290
     1
176
     1
290
     0
176
     1
290
     0
176
     1
290
     0
176
     1
290
     0
176
     1
290
     0
176
     1
290
     0
176
     1
 90
       50
176
     1
 40
0.0
176
     1
 40
1.0
176
     1
 90
        0
176
     1
 62
    18
420
        0
176
     1
 90
       50
176
     1
 90
        3
176
     1
 62
     5
420
      255
176
     1
290
     0
176
     1
 90
       50
176
     1
 90
       50
176
     1
 90
       50
176
     1
290
     0
176
     1
 90
       50
176
     1
 62
   256
176
     0
 40
1.0
176
     0
 90
        2
176
     1
  1
strokes_ogs.tif
176
     1
290
     0
176
     1
 40
1.0
176
     1
 40
1.0
176
     1
  0
VISUALSTYLE
  5
3A
102
{ACAD_REACTORS
330
2A
102
}
330
2A
100
AcDbVisualStyle
  2
ColorChange
 70
    16
177
     3
291
     1
 70
    58
 90
        2
176
     1
 90
        2
176
     1
 90
        3
176
     1
 90
        0
176
     1
 40
0.6
176
     1
 40
30.0
176
     1
 62
     8
420
  8421504
176
     1
 90
        1
176
     1
 90
        4
176
     1
 62
     7
176
     1
 62
   257
176
     1
 90
        1
176
     1
 90
        1
176
     1
 40
1.0
176
     1
 90
        8
176
     1
 62
     8
420
  8421504
176
     1
 40
1.0
176
     1
 90
        1
176
     1
 90
        6
176
     1
 90
        2
176
     1
 62
     7
176
     1
 90
        5
176
     1
 90
        0
176
     1
 90
        0
176
     1
290
     0
176
     1
 90
        1
176
     1
 40
0.0
176
     1
 90
        0
176
     1
290
     0
176
     1
290
     1
176
     1
290
     1
176
     1
290
     0
176
     1
290
     0
176
     1
290
     0
176
     1
290
     0
176
     1
290
     0
176
     1
290
     0
176
     1
 90
       50
176
     1
 40
0.0
176
     1
 40
1.0
176
     1
 90
        0
176
     1
 62
    18
420
        0
176
     1
 90
       50
176
     1
 90
        3
176
     1
 62
     5
420
      255
176
     1
290
     0
176
     1
 90
       50
176
     1
 90
       50
176
     1
 90
       50
176
     1
290
     0
176
     1
 90
       50
176
     1
 62
   256
176
     0
 40
1.0
176
     0
 90
        2
176
     1
  1
strokes_ogs.tif
176
     1
290
     0
176
     1
 40
1.0
176
     1
 40
1.0
176
     1
  0
VISUALSTYLE
  5
34
102
{ACAD_REACTORS
330
2A
102
}
330
2A
100
AcDbVisualStyle
  2
Conceptual
 70
     9
177
     3
291
     0
 70
    58
 90
        3
176
     1
 90
        2
176
     1
 90
        0
176
     1
 90
        0
176
     1
 40
0.6
176
     1
 40
30.0
176
     1
 62
     7
420
 16777215
176
     1
 90
        2
176
     1
 90
        2
176
     1
 62
     7
176
     1
 62
   257
176
     1
 90
        1
176
     1
 90
        1
176
     1
 40
179.0
176
     1
 90
        8
176
     1
 62
     7
176
     1
 40
1.0
176
     1
 90
        1
176
     1
 90
        6
176
     1
 90
        2
176
     1
 62
     7
176
     1
 90
        3
176
     1
 90
        0
176
     1
 90
        0
176
     1
290
     0
176
     1
 90
        1
176
     1
 40
0.0
176
     1
 90
        0
176
     1
290
     0
176
     1
290
     1
176
     1
290
     1
176
     1
290
     0
176
     1
290
     0
176
     1
290
     0
176
     1
290
     0
176
     1
290
     0
176
     1
290
     0
176
     1
 90
       50
176
     1
 40
0.0
176
     1
 40
1.0
176
     1
 90
        0
176
     1
 62
    18
420
        0
176
     1
 90
       50
176
     1
 90
        3
176
     1
 62
     5
420
      255
176
     1
290
     0
176
     1
 90
       50
176
     1
 90
       50
176
     1
 90
       50
176
     1
290
     0
176
     1
 90
       50
176
     1
 62
   256
176
     0
 40
1.0
176
     0
 90
        2
176
     1
  1
strokes_ogs.tif
176
     1
290
     0
176
     1
 40
1.0
176
     1
 40
1.0
176
     1
  0
VISUALSTYLE
  5
35
102
{ACAD_REACTORS
330
2A
102
}
330
2A
100
AcDbVisualStyle
  2
Dim
 70
    11
177
     3
291
     1
 70
    58
 90
        2
176
     1
 90
        2
176
     1
 90
        0
176
     1
 90
        0
176
     1
 40
0.6
176
     1
 40
30.0
176
     1
 62
     7
420
 16777215
176
     1
 90
        1
176
     1
 90
        4
176
     1
 62
     7
176
     1
 62
   257
176
     1
 90
        1
176
     1
 90
        1
176
     1
 40
1.0
176
     1
 90
        8
176
     1
 62
     7
176
     1
 40
1.0
176
     1
 90
        1
176
     1
 90
        6
176
     1
 90
        2
176
     1
 62
     7
176
     1
 90
        5
176
     1
 90
        0
176
     1
 90
        0
176
     1
290
     0
176
     1
 90
        1
176
     1
 40
-50.0
176
     1
 90
        0
176
     1
290
     0
176
     1
290
     1
176
     1
290
     1
176
     1
290
     0
176
     1
290
     0
176
     1
290
     0
176
     1
290
     0
176
     1
290
     0
176
     1
290
     0
176
     1
 90
       50
176
     1
 40
0.0
176
     1
 40
1.0
176
     1
 90
        0
176
     1
 62
    18
420
        0
176
     1
 90
       50
176
     1
 90
        3
176
     1
 62
     5
420
      255
176
     1
290
     0
176
     1
 90
       50
176
     1
 90
       50
176
     1
 90
       50
176
     1
290
     0
176
     1
 90
       50
176
     1
 62
   256
176
     0
 40
1.0
176
     0
 90
        2
176
     1
  1
strokes_ogs.tif
176
     1
290
     0
176
     1
 40
1.0
176
     1
 40
1.0
176
     1
  0
VISUALSTYLE
  5
3D
102
{ACAD_REACTORS
330
2A
102
}
330
2A
100
AcDbVisualStyle
  2
EdgeColorOff
 70
    22
177
     3
291
     1
 70
    58
 90
        2
176
     0
 90
        2
176
     0
 90
        0
176
     0
 90
        0
176
     0
 40
0.6
176
     0
 40
30.0
176
     0
 62
     7
420
 16777215
176
     0
 90
        1
176
     0
 90
        4
176
     0
 62
     7
176
     0
 62
   257
176
     0
 90
        1
176
     0
 90
        1
176
     0
 40
1.0
176
     0
 90
        8
176
     2
 62
     7
176
     0
 40
1.0
176
     0
 90
        1
176
     0
 90
        6
176
     0
 90
        2
176
     0
 62
     7
176
     0
 90
        5
176
     0
 90
        0
176
     0
 90
        0
176
     0
290
     0
176
     0
 90
        1
176
     0
 40
0.0
176
     0
 90
        0
176
     0
290
     0
176
     0
290
     1
176
     0
290
     1
176
     0
290
     0
176
     0
290
     0
176
     0
290
     0
176
     0
290
     0
176
     0
290
     0
176
     0
290
     0
176
     0
 90
       50
176
     0
 40
0.0
176
     0
 40
1.0
176
     0
 90
        0
176
     0
 62
    18
420
        0
176
     0
 90
       50
176
     0
 90
        3
176
     0
 62
     5
420
      255
176
     0
290
     0
176
     0
 90
       50
176
     0
 90
       50
176
     0
 90
       50
176
     0
290
     0
176
     0
 90
       50
176
     0
 62
   256
176
     0
 40
1.0
176
     0
 90
        2
176
     0
  1
strokes_ogs.tif
176
     0
290
     0
176
     0
 40
1.0
176
     0
 40
1.0
176
     0
  0
VISUALSTYLE
  5
39
102
{ACAD_REACTORS
330
2A
102
}
330
2A
100
AcDbVisualStyle
  2
Facepattern
 70
    15
177
     3
291
     1
 70
    58
 90
        2
176
     1
 90
        2
176
     1
 90
        0
176
     1
 90
        0
176
     1
 40
0.6
176
     1
 40
30.0
176
     1
 62
     7
420
 16777215
176
     1
 90
        1
176
     1
 90
        4
176
     1
 62
     7
176
     1
 62
   257
176
     1
 90
        1
176
     1
 90
        1
176
     1
 40
1.0
176
     1
 90
        8
176
     1
 62
     7
176
     1
 40
1.0
176
     1
 90
        1
176
     1
 90
        6
176
     1
 90
        2
176
     1
 62
     7
176
     1
 90
        5
176
     1
 90
        0
176
     1
 90
        0
176
     1
290
     0
176
     1
 90
        1
176
     1
 40
0.0
176
     1
 90
        0
176
     1
290
     0
176
     1
290
     1
176
     1
290
     1
176
     1
290
     0
176
     1
290
     0
176
     1
290
     0
176
     1
290
     0
176
     1
290
     0
176
     1
290
     0
176
     1
 90
       50
176
     1
 40
0.0
176
     1
 40
1.0
176
     1
 90
        0
176
     1
 62
    18
420
        0
176
     1
 90
       50
176
     1
 90
        3
176
     1
 62
     5
420
      255
176
     1
290
     0
176
     1
 90
       50
176
     1
 90
       50
176
     1
 90
       50
176
     1
290
     0
176
     1
 90
       50
176
     1
 62
   256
176
     0
 40
1.0
176
     0
 90
        2
176
     1
  1
strokes_ogs.tif
176
     1
290
     0
176
     1
 40
1.0
176
     1
 40
1.0
176
     1
  0
VISUALSTYLE
  5
2B
102
{ACAD_REACTORS
330
2A
102
}
330
2A
100
AcDbVisualStyle
  2
Flat
 70
     0
177
     3
291
     1
 70
    58
 90
        2
176
     1
 90
        1
176
     1
 90
        1
176
     1
 90
        2
176
     1
 40
0.6
176
     1
 40
30.0
176
     1
 62
     7
420
 16777215
176
     1
 90
        0
176
     1
 90
        0
176
     1
 62
     7
176
     1
 62
   257
176
     1
 90
        1
176
     1
 90
        1
176
     1
 40
1.0
176
     1
 90
        8
176
     1
 62
     7
176
     1
 40
1.0
176
     1
 90
        1
176
     1
 90
        6
176
     1
 90
        2
176
     1
 62
     7
176
     1
 90
        5
176
     1
 90
        0
176
     1
 90
        0
176
     1
290
     0
176
     1
 90
       13
176
     1
 40
0.0
176
     1
 90
        0
176
     1
290
     0
176
     1
290
     1
176
     1
290
     1
176
     1
290
     0
176
     1
290
     0
176
     1
290
     0
176
     1
290
     0
176
     1
290
     0
176
     1
290
     0
176
     1
 90
       50
176
     1
 40
0.0
176
     1
 40
1.0
176
     1
 90
        0
176
     1
 62
    18
420
        0
176
     1
 90
       50
176
     1
 90
        3
176
     1
 62
     5
420
      255
176
     1
290
     0
176
     1
 90
       50
176
     1
 90
       50
176
     1
 90
       50
176
     1
290
     0
176
     1
 90
       50
176
     1
 62
   256
176
     0
 40
1.0
176
     0
 90
        2
176
     1
  1
strokes_ogs.tif
176
     1
290
     0
176
     1
 40
1.0
176
     1
 40
1.0
176
     1
  0
VISUALSTYLE
  5
2C
102
{ACAD_REACTORS
330
2A
102
}
330
2A
100
AcDbVisualStyle
  2
FlatWithEdges
 70
     1
177
     3
291
     1
 70
    58
 90
        2
176
     1
 90
        1
176
     1
 90
        1
176
     1
 90
        2
176
     1
 40
0.6
176
     1
 40
30.0
176
     1
 62
     7
420
 16777215
176
     1
 90
        1
176
     1
 90
        0
176
     1
 62
     7
176
     1
 62
   257
176
     1
 90
        1
176
     1
 90
        1
176
     1
 40
1.0
176
     1
 90
        0
176
     1
 62
   257
176
     1
 40
1.0
176
     1
 90
        1
176
     1
 90
        6
176
     1
 90
        2
176
     1
 62
     7
176
     1
 90
        5
176
     1
 90
        0
176
     1
 90
        0
176
     1
290
     0
176
     1
 90
       13
176
     1
 40
0.0
176
     1
 90
        0
176
     1
290
     0
176
     1
290
     1
176
     1
290
     1
176
     1
290
     0
176
     1
290
     0
176
     1
290
     0
176
     1
290
     0
176
     1
290
     0
176
     1
290
     0
176
     1
 90
       50
176
     1
 40
0.0
176
     1
 40
1.0
176
     1
 90
        0
176
     1
 62
    18
420
        0
176
     1
 90
       50
176
     1
 90
        3
176
     1
 62
     5
420
      255
176
     1
290
     0
176
     1
 90
       50
176
     1
 90
       50
176
     1
 90
       50
176
     1
290
     0
176
     1
 90
       50
176
     1
 62
   256
176
     0
 40
1.0
176
     0
 90
        2
176
     1
  1
strokes_ogs.tif
176
     1
290
     0
176
     1
 40
1.0
176
     1
 40
1.0
176
     1
  0
VISUALSTYLE
  5
2D
102
{ACAD_REACTORS
330
2A
102
}
330
2A
100
AcDbVisualStyle
  2
Gouraud
 70
     2
177
     3
291
     1
 70
    58
 90
        2
176
     1
 90
        2
176
     1
 90
        1
176
     1
 90
        2
176
     1
 40
0.6
176
     1
 40
30.0
176
     1
 62
     7
420
 16777215
176
     1
 90
        0
176
     1
 90
        0
176
     1
 62
     7
176
     1
 62
   257
176
     1
 90
        1
176
     1
 90
        1
176
     1
 40
1.0
176
     1
 90
        0
176
     1
 62
     7
176
     1
 40
1.0
176
     1
 90
        1
176
     1
 90
        6
176
     1
 90
        2
176
     1
 62
     7
176
     1
 90
        5
176
     1
 90
        0
176
     1
 90
        0
176
     1
290
     0
176
     1
 90
       13
176
     1
 40
0.0
176
     1
 90
        0
176
     1
290
     0
176
     1
290
     1
176
     1
290
     1
176
     1
290
     0
176
     1
290
     0
176
     1
290
     0
176
     1
290
     0
176
     1
290
     0
176
     1
290
     0
176
     1
 90
       50
176
     1
 40
0.0
176
     1
 40
1.0
176
     1
 90
        0
176
     1
 62
    18
420
        0
176
     1
 90
       50
176
     1
 90
        3
176
     1
 62
     5
420
      255
176
     1
290
     0
176
     1
 90
       50
176
     1
 90
       50
176
     1
 90
       50
176
     1
290
     0
176
     1
 90
       50
176
     1
 62
   256
176
     0
 40
1.0
176
     0
 90
        2
176
     1
  1
strokes_ogs.tif
176
     1
290
     0
176
     1
 40
1.0
176
     1
 40
1.0
176
     1
  0
VISUALSTYLE
  5
2E
102
{ACAD_REACTORS
330
2A
102
}
330
2A
100
AcDbVisualStyle
  2
GouraudWithEdges
 70
     3
177
     3
291
     1
 70
    58
 90
        2
176
     1
 90
        2
176
     1
 90
        1
176
     1
 90
        2
176
     1
 40
0.6
176
     1
 40
30.0
176
     1
 62
     7
420
 16777215
176
     1
 90
        1
176
     1
 90
        0
176
     1
 62
     7
176
     1
 62
   257
176
     1
 90
        1
176
     1
 90
        1
176
     1
 40
1.0
176
     1
 90
        0
176
     1
 62
   257
176
     1
 40
1.0
176
     1
 90
        1
176
     1
 90
        6
176
     1
 90
        2
176
     1
 62
     7
176
     1
 90
        5
176
     1
 90
        0
176
     1
 90
        0
176
     1
290
     0
176
     1
 90
       13
176
     1
 40
0.0
176
     1
 90
        0
176
     1
290
     0
176
     1
290
     1
176
     1
290
     1
176
     1
290
     0
176
     1
290
     0
176
     1
290
     0
176
     1
290
     0
176
     1
290
     0
176
     1
290
     0
176
     1
 90
       50
176
     1
 40
0.0
176
     1
 40
1.0
176
     1
 90
        0
176
     1
 62
    18
420
        0
176
     1
 90
       50
176
     1
 90
        3
176
     1
 62
     5
420
      255
176
     1
290
     0
176
     1
 90
       50
176
     1
 90
       50
176
     1
 90
       50
176
     1
290
     0
176
     1
 90
       50
176
     1
 62
   256
176
     0
 40
1.0
176
     0
 90
        2
176
     1
  1
strokes_ogs.tif
176
     1
290
     0
176
     1
 40
1.0
176
     1
 40
1.0
176
     1
  0
VISUALSTYLE
  5
31
102
{ACAD_REACTORS
330
2A
102
}
330
2A
100
AcDbVisualStyle
  2
Hidden
 70
     6
177
     3
291
     0
 70
    58
 90
        1
176
     1
 90
        2
176
     1
 90
        2
176
     1
 90
        0
176
     1
 40
0.6
176
     1
 40
30.0
176
     1
 62
     7
420
 16777215
176
     1
 90
        2
176
     1
 90
        2
176
     1
 62
     7
176
     1
 62
   257
176
     1
 90
        2
176
     1
 90
        1
176
     1
 40
40.0
176
     1
 90
        0
176
     1
 62
   257
176
     1
 40
1.0
176
     1
 90
        1
176
     1
 90
        6
176
     1
 90
        2
176
     1
 62
     7
176
     1
 90
        3
176
     1
 90
        0
176
     1
 90
        0
176
     1
290
     0
176
     1
 90
        1
176
     1
 40
0.0
176
     1
 90
        0
176
     1
290
     0
176
     1
290
     1
176
     1
290
     1
176
     1
290
     0
176
     1
290
     0
176
     1
290
     0
176
     1
290
     0
176
     1
290
     0
176
     1
290
     0
176
     1
 90
       50
176
     1
 40
0.0
176
     1
 40
1.0
176
     1
 90
        0
176
     1
 62
    18
420
        0
176
     1
 90
       50
176
     1
 90
        3
176
     1
 62
     5
420
      255
176
     1
290
     0
176
     1
 90
       50
176
     1
 90
       50
176
     1
 90
       50
176
     1
290
     0
176
     1
 90
       50
176
     1
 62
   256
176
     0
 40
1.0
176
     0
 90
        2
176
     1
  1
strokes_ogs.tif
176
     1
290
     0
176
     1
 40
1.0
176
     1
 40
1.0
176
     1
  0
VISUALSTYLE
  5
3B
102
{ACAD_REACTORS
330
2A
102
}
330
2A
100
AcDbVisualStyle
  2
JitterOff
 70
    20
177
     3
291
     1
 70
    58
 90
        2
176
     0
 90
        2
176
     0
 90
        0
176
     0
 90
        0
176
     0
 40
0.6
176
     0
 40
30.0
176
     0
 62
     7
420
 16777215
176
     0
 90
        1
176
     0
 90
        4
176
     0
 62
     7
176
     0
 62
   257
176
     0
 90
        1
176
     0
 90
        1
176
     0
 40
1.0
176
     0
 90
       10
176
     2
 62
     7
176
     0
 40
1.0
176
     0
 90
        1
176
     0
 90
        6
176
     0
 90
        2
176
     0
 62
     7
176
     0
 90
        5
176
     0
 90
        0
176
     0
 90
        0
176
     0
290
     0
176
     0
 90
        1
176
     0
 40
0.0
176
     0
 90
        0
176
     0
290
     0
176
     0
290
     1
176
     0
290
     1
176
     0
290
     0
176
     0
290
     0
176
     0
290
     0
176
     0
290
     0
176
     0
290
     0
176
     0
290
     0
176
     0
 90
       50
176
     0
 40
0.0
176
     0
 40
1.0
176
     0
 90
        0
176
     0
 62
    18
420
        0
176
     0
 90
       50
176
     0
 90
        3
176
     0
 62
     5
420
      255
176
     0
290
     0
176
     0
 90
       50
176
     0
 90
       50
176
     0
 90
       50
176
     0
290
     0
176
     0
 90
       50
176
     0
 62
   256
176
     0
 40
1.0
176
     0
 90
        2
176
     0
  1
strokes_ogs.tif
176
     0
290
     0
176
     0
 40
1.0
176
     0
 40
1.0
176
     0
  0
VISUALSTYLE
  5
38
102
{ACAD_REACTORS
330
2A
102
}
330
2A
100
AcDbVisualStyle
  2
Linepattern
 70
    14
177
     3
291
     1
 70
    58
 90
        2
176
     1
 90
        2
176
     1
 90
        0
176
     1
 90
        0
176
     1
 40
0.6
176
     1
 40
30.0
176
     1
 62
     7
420
 16777215
176
     1
 90
        1
176
     1
 90
        4
176
     1
 62
     7
176
     1
 62
   257
176
     1
 90
        7
176
     1
 90
        7
176
     1
 40
1.0
176
     1
 90
        8
176
     1
 62
     7
176
     1
 40
1.0
176
     1
 90
        1
176
     1
 90
        6
176
     1
 90
        2
176
     1
 62
     7
176
     1
 90
        5
176
     1
 90
        0
176
     1
 90
        0
176
     1
290
     0
176
     1
 90
        1
176
     1
 40
0.0
176
     1
 90
        0
176
     1
290
     0
176
     1
290
     1
176
     1
290
     1
176
     1
290
     0
176
     1
290
     0
176
     1
290
     0
176
     1
290
     0
176
     1
290
     0
176
     1
290
     0
176
     1
 90
       50
176
     1
 40
0.0
176
     1
 40
1.0
176
     1
 90
        0
176
     1
 62
    18
420
        0
176
     1
 90
       50
176
     1
 90
        3
176
     1
 62
     5
420
      255
176
     1
290
     0
176
     1
 90
       50
176
     1
 90
       50
176
     1
 90
       50
176
     1
290
     0
176
     1
 90
       50
176
     1
 62
   256
176
     0
 40
1.0
176
     0
 90
        2
176
     1
  1
strokes_ogs.tif
176
     1
290
     0
176
     1
 40
1.0
176
     1
 40
1.0
176
     1
  0
VISUALSTYLE
  5
3C
102
{ACAD_REACTORS
330
2A
102
}
330
2A
100
AcDbVisualStyle
  2
OverhangOff
 70
    21
177
     3
291
     1
 70
    58
 90
        2
176
     0
 90
        2
176
     0
 90
        0
176
     0
 90
        0
176
     0
 40
0.6
176
     0
 40
30.0
176
     0
 62
     7
420
 16777215
176
     0
 90
        1
176
     0
 90
        4
176
     0
 62
     7
176
     0
 62
   257
176
     0
 90
        1
176
     0
 90
        1
176
     0
 40
1.0
176
     0
 90
        9
176
     2
 62
     7
176
     0
 40
1.0
176
     0
 90
        1
176
     0
 90
        6
176
     0
 90
        2
176
     0
 62
     7
176
     0
 90
        5
176
     0
 90
        0
176
     0
 90
        0
176
     0
290
     0
176
     0
 90
        1
176
     0
 40
0.0
176
     0
 90
        0
176
     0
290
     0
176
     0
290
     1
176
     0
290
     1
176
     0
290
     0
176
     0
290
     0
176
     0
290
     0
176
     0
290
     0
176
     0
290
     0
176
     0
290
     0
176
     0
 90
       50
176
     0
 40
0.0
176
     0
 40
1.0
176
     0
 90
        0
176
     0
 62
    18
420
        0
176
     0
 90
       50
176
     0
 90
        3
176
     0
 62
     5
420
      255
176
     0
290
     0
176
     0
 90
       50
176
     0
 90
       50
176
     0
 90
       50
176
     0
290
     0
176
     0
 90
       50
176
     0
 62
   256
176
     0
 40
1.0
176
     0
 90
        2
176
     0
  1
strokes_ogs.tif
176
     0
290
     0
176
     0
 40
1.0
176
     0
 40
1.0
176
     0
  0
VISUALSTYLE
  5
33
102
{ACAD_REACTORS
330
2A
102
}
330
2A
100
AcDbVisualStyle
  2
Realistic
 70
     8
177
     3
291
     0
 70
    58
 90
        2
176
     1
 90
        3
176
     1
 90
        0
176
     1
 90
        2
176
     1
 40
0.6
176
     1
 40
30.0
176
     1
 62
     7
420
 16777215
176
     1
 90
        0
176
     1
 90
        0
176
     1
 62
     7
176
     1
 62
   257
176
     1
 90
        1
176
     1
 90
        1
176
     1
 40
1.0
176
     1
 90
        8
176
     1
 62
   257
176
     1
 40
1.0
176
     1
 90
        1
176
     1
 90
        6
176
     1
 90
        2
176
     1
 62
     7
176
     1
 90
        3
176
     1
 90
        0
176
     1
 90
        0
176
     1
290
     0
176
     1
 90
       13
176
     1
 40
0.0
176
     1
 90
        0
176
     1
290
     0
176
     1
290
     1
176
     1
290
     1
176
     1
290
     0
176
     1
290
     0
176
     1
290
     0
176
     1
290
     0
176
     1
290
     0
176
     1
290
     0
176
     1
 90
       50
176
     1
 40
0.0
176
     1
 40
1.0
176
     1
 90
        0
176
     1
 62
    18
420
        0
176
     1
 90
       50
176
     1
 90
        3
176
     1
 62
     5
420
      255
176
     1
290
     0
176
     1
 90
       50
176
     1
 90
       50
176
     1
 90
       50
176
     1
290
     0
176
     1
 90
       50
176
     1
 62
   256
176
     0
 40
1.0
176
     0
 90
        2
176
     1
  1
strokes_ogs.tif
176
     1
290
     0
176
     1
 40
1.0
176
     1
 40
1.0
176
     1
  0
VISUALSTYLE
  5
42
102
{ACAD_REACTORS
330
2A
102
}
330
2A
100
AcDbVisualStyle
  2
Shaded
 70
    27
177
     3
291
     0
 70
    58
 90
        2
176
     1
 90
        2
176
     1
 90
        1
176
     1
 90
        2
176
     1
 40
0.6
176
     1
 40
30.0
176
     1
 62
     7
420
 16777215
176
     1
 90
        0
176
     1
 90
        4
176
     1
 62
     7
176
     1
 62
   257
176
     1
 90
        1
176
     1
 90
        1
176
     1
 40
1.0
176
     1
 90
        8
176
     1
 62
   257
176
     1
 40
1.0
176
     1
 90
        1
176
     1
 90
        6
176
     1
 90
        2
176
     1
 62
     8
420
  7895160
176
     1
 90
        3
176
     1
 90
        0
176
     1
 90
        0
176
     1
290
     0
176
     1
 90
        5
176
     1
 40
0.0
176
     1
 90
        0
176
     1
290
     0
176
     1
290
     1
176
     1
290
     1
176
     1
290
     0
176
     1
290
     0
176
     1
290
     0
176
     1
290
     0
176
     1
290
     0
176
     1
290
     0
176
     1
 90
       50
176
     1
 40
0.0
176
     1
 40
1.0
176
     1
 90
        0
176
     1
 62
    18
420
        0
176
     1
 90
       50
176
     1
 90
        3
176
     1
 62
     5
420
      255
176
     1
290
     0
176
     1
 90
       50
176
     1
 90
       50
176
     1
 90
       50
176
     1
290
     0
176
     1
 90
       50
176
     1
 62
   256
176
     0
 40
1.0
176
     0
 90
        2
176
     1
  1
strokes_ogs.tif
176
     1
290
     0
176
     1
 40
1.0
176
     1
 40
1.0
176
     1
  0
VISUALSTYLE
  5
41
102
{ACAD_REACTORS
330
2A
102
}
330
2A
100
AcDbVisualStyle
  2
Shaded with edges
 70
    26
177
     3
291
     0
 70
    58
 90
        2
176
     1
 90
        2
176
     1
 90
        1
176
     1
 90
        2
176
     1
 40
0.6
176
     1
 40
30.0
176
     1
 62
     7
420
 16777215
176
     1
 90
        1
176
     1
 90
       10
176
     1
 62
     7
176
     1
 62
   257
176
     1
 90
        2
176
     1
 90
        1
176
     1
 40
1.0
176
     1
 90
        8
176
     1
 62
   257
176
     1
 40
1.0
176
     1
 90
        1
176
     1
 90
        6
176
     1
 90
        2
176
     1
 62
     7
176
     1
 90
        3
176
     1
 90
        0
176
     1
 90
        0
176
     1
290
     0
176
     1
 90
        5
176
     1
 40
0.0
176
     1
 90
        0
176
     1
290
     0
176
     1
290
     1
176
     1
290
     1
176
     1
290
     0
176
     1
290
     0
176
     1
290
     0
176
     1
290
     0
176
     1
290
     0
176
     1
290
     0
176
     1
 90
       50
176
     1
 40
0.0
176
     1
 40
1.0
176
     1
 90
        0
176
     1
 62
    18
420
        0
176
     1
 90
       50
176
     1
 90
        3
176
     1
 62
     5
420
      255
176
     1
290
     0
176
     1
 90
       50
176
     1
 90
       50
176
     1
 90
       50
176
     1
290
     0
176
     1
 90
       50
176
     1
 62
   256
176
     0
 40
1.0
176
     0
 90
        2
176
     1
  1
strokes_ogs.tif
176
     1
290
     0
176
     1
 40
1.0
176
     1
 40
1.0
176
     1
  0
VISUALSTYLE
  5
3E
102
{ACAD_REACTORS
330
2A
102
}
330
2A
100
AcDbVisualStyle
  2
Shades of Gray
 70
    23
177
     3
291
     0
 70
    58
 90
        2
176
     1
 90
        2
176
     1
 90
        3
176
     1
 90
        0
176
     1
 40
0.6
176
     1
 40
30.0
176
     1
 62
     7
420
 16777215
176
     1
 90
        2
176
     1
 90
        2
176
     1
 62
     7
176
     1
 62
     7
176
     1
 90
        1
176
     1
 90
        1
176
     1
 40
40.0
176
     1
 90
        8
176
     1
 62
     7
176
     1
 40
1.0
176
     1
 90
        1
176
     1
 90
        6
176
     1
 90
        2
176
     1
 62
     7
176
     1
 90
        3
176
     1
 90
        0
176
     1
 90
        0
176
     1
290
     0
176
     1
 90
        1
176
     1
 40
0.0
176
     1
 90
        0
176
     1
290
     0
176
     1
290
     1
176
     1
290
     1
176
     1
290
     0
176
     1
290
     0
176
     1
290
     0
176
     1
290
     0
176
     1
290
     0
176
     1
290
     0
176
     1
 90
       50
176
     1
 40
0.0
176
     1
 40
1.0
176
     1
 90
        0
176
     1
 62
    18
420
        0
176
     1
 90
       50
176
     1
 90
        3
176
     1
 62
     5
420
      255
176
     1
290
     0
176
     1
 90
       50
176
     1
 90
       50
176
     1
 90
       50
176
     1
290
     0
176
     1
 90
       50
176
     1
 62
   256
176
     0
 40
1.0
176
     0
 90
        2
176
     1
  1
strokes_ogs.tif
176
     1
290
     0
176
     1
 40
1.0
176
     1
 40
1.0
176
     1
  0
VISUALSTYLE
  5
3F
102
{ACAD_REACTORS
330
2A
102
}
330
2A
100
AcDbVisualStyle
  2
Sketchy
 70
    24
177
     3
291
     0
 70
    58
 90
        1
176
     1
 90
        2
176
     1
 90
        2
176
     1
 90
        0
176
     1
 40
0.6
176
     1
 40
30.0
176
     1
 62
     7
420
 16777215
176
     1
 90
        2
176
     1
 90
        2
176
     1
 62
     7
176
     1
 62
     7
176
     1
 90
        1
176
     1
 90
        1
176
     1
 40
40.0
176
     1
 90
       11
176
     1
 62
     7
176
     1
 40
1.0
176
     1
 90
        1
176
     1
 90
        6
176
     1
 90
        2
176
     1
 62
     7
176
     1
 90
        6
176
     1
 90
        0
176
     1
 90
        0
176
     1
290
     0
176
     1
 90
        1
176
     1
 40
0.0
176
     1
 90
        0
176
     1
290
     0
176
     1
290
     1
176
     1
290
     1
176
     1
290
     0
176
     1
290
     0
176
     1
290
     0
176
     1
290
     0
176
     1
290
     0
176
     1
290
     0
176
     1
 90
       50
176
     1
 40
0.0
176
     1
 40
1.0
176
     1
 90
        0
176
     1
 62
    18
420
        0
176
     1
 90
       50
176
     1
 90
        3
176
     1
 62
     5
420
      255
176
     1
290
     0
176
     1
 90
       50
176
     1
 90
       50
176
     1
 90
       50
176
     1
290
     0
176
     1
 90
       50
176
     1
 62
   256
176
     0
 40
1.0
176
     0
 90
        2
176
     1
  1
strokes_ogs.tif
176
     1
290
     0
176
     1
 40
1.0
176
     1
 40
1.0
176
     1
  0
VISUALSTYLE
  5
37
102
{ACAD_REACTORS
330
2A
102
}
330
2A
100
AcDbVisualStyle
  2
Thicken
 70
    13
177
     3
291
     1
 70
    58
 90
        2
176
     1
 90
        2
176
     1
 90
        0
176
     1
 90
        0
176
     1
 40
0.6
176
     1
 40
30.0
176
     1
 62
     7
420
 16777215
176
     1
 90
        1
176
     1
 90
        4
176
     1
 62
     7
176
     1
 62
   257
176
     1
 90
        1
176
     1
 90
        1
176
     1
 40
1.0
176
     1
 90
       12
176
     1
 62
     7
176
     1
 40
1.0
176
     1
 90
        1
176
     1
 90
        6
176
     1
 90
        2
176
     1
 62
     7
176
     1
 90
        5
176
     1
 90
        0
176
     1
 90
        0
176
     1
290
     0
176
     1
 90
        1
176
     1
 40
0.0
176
     1
 90
        0
176
     1
290
     0
176
     1
290
     1
176
     1
290
     1
176
     1
290
     0
176
     1
290
     0
176
     1
290
     0
176
     1
290
     0
176
     1
290
     0
176
     1
290
     0
176
     1
 90
       50
176
     1
 40
0.0
176
     1
 40
1.0
176
     1
 90
        0
176
     1
 62
    18
420
        0
176
     1
 90
       50
176
     1
 90
        3
176
     1
 62
     5
420
      255
176
     1
290
     0
176
     1
 90
       50
176
     1
 90
       50
176
     1
 90
       50
176
     1
290
     0
176
     1
 90
       50
176
     1
 62
   256
176
     0
 40
1.0
176
     0
 90
        2
176
     1
  1
strokes_ogs.tif
176
     1
290
     0
176
     1
 40
1.0
176
     1
 40
1.0
176
     1
  0
VISUALSTYLE
  5
30
102
{ACAD_REACTORS
330
2A
102
}
330
2A
100
AcDbVisualStyle
  2
Wireframe
 70
     5
177
     3
291
     0
 70
    58
 90
        0
176
     1
 90
        2
176
     1
 90
        0
176
     1
 90
        0
176
     1
 40
0.6
176
     1
 40
30.0
176
     1
 62
     7
420
 16777215
176
     1
 90
        1
176
     1
 90
        4
176
     1
 62
     7
176
     1
 62
   257
176
     1
 90
        1
176
     1
 90
        1
176
     1
 40
1.0
176
     1
 90
        0
176
     1
 62
   257
176
     1
 40
1.0
176
     1
 90
        1
176
     1
 90
        6
176
     1
 90
        2
176
     1
 62
     7
176
     1
 90
        3
176
     1
 90
        0
176
     1
 90
        0
176
     1
290
     0
176
     1
 90
        1
176
     1
 40
0.0
176
     1
 90
        0
176
     1
290
     0
176
     1
290
     1
176
     1
290
     1
176
     1
290
     0
176
     1
290
     0
176
     1
290
     0
176
     1
290
     0
176
     1
290
     0
176
     1
290
     0
176
     1
 90
       50
176
     1
 40
0.0
176
     1
 40
1.0
176
     1
 90
        0
176
     1
 62
    18
420
        0
176
     1
 90
       50
176
     1
 90
        3
176
     1
 62
     5
420
      255
176
     1
290
     0
176
     1
 90
       50
176
     1
 90
       50
176
     1
 90
       50
176
     1
290
     0
176
     1
 90
       50
176
     1
 62
   256
176
     0
 40
1.0
176
     0
 90
        2
176
     1
  1
strokes_ogs.tif
176
     1
290
     0
176
     1
 40
1.0
176
     1
 40
1.0
176
     1
  0
VISUALSTYLE
  5
40
102
{ACAD_REACTORS
330
2A
102
}
330
2A
100
AcDbVisualStyle
  2
X-Ray
 70
    25
177
     3
291
     0
 70
    58
 90
        2
176
     1
 90
        2
176
     1
 90
        1
176
     1
 90
        1
176
     1
 40
0.5
176
     1
 40
30.0
176
     1
 62
     7
420
 16777215
176
     1
 90
        1
176
     1
 90
        0
176
     1
 62
     7
176
     1
 62
   257
176
     1
 90
        1
176
     1
 90
        1
176
     1
 40
1.0
176
     1
 90
        8
176
     1
 62
     7
176
     1
 40
1.0
176
     1
 90
        1
176
     1
 90
        6
176
     1
 90
        2
176
     1
 62
     7
176
     1
 90
        3
176
     1
 90
        0
176
     1
 90
        0
176
     1
290
     0
176
     1
 90
       13
176
     1
 40
0.0
176
     1
 90
        0
176
     1
290
     0
176
     1
290
     1
176
     1
290
     1
176
     1
290
     0
176
     1
290
     0
176
     1
290
     0
176
     1
290
     0
176
     1
290
     0
176
     1
290
     0
176
     1
 90
       50
176
     1
 40
0.0
176
     1
 40
1.0
176
     1
 90
        0
176
     1
 62
    18
420
        0
176
     1
 90
       50
176
     1
 90
        3
176
     1
 62
     5
420
      255
176
     1
290
     0
176
     1
 90
       50
176
     1
 90
       50
176
     1
 90
       50
176
     1
290
     0
176
     1
 90
       50
176
     1
 62
   256
176
     0
 40
1.0
176
     0
 90
        2
176
     1
  1
strokes_ogs.tif
176
     1
290
     0
176
     1
 40
1.0
176
     1
 40
1.0
176
     1
  0
DICTIONARYVAR
  5
428
102
{ACAD_REACTORS
330
427
102
}
330
427
100
DictionaryVariables
280
     0
  1
1:1
  0
DICTIONARYVAR
  5
431
102
{ACAD_REACTORS
330
427
102
}
330
427
100
DictionaryVariables
280
     0
  1
3.500000
  0
DICTIONARYVAR
  5
432
102
{ACAD_REACTORS
330
427
102
}
330
427
100
DictionaryVariables
280
     0
  1
acadiso.lin
  0
DICTIONARYVAR
  5
42D
102
{ACAD_REACTORS
330
427
102
}
330
427
100
DictionaryVariables
280
     0
  1
Standard
  0
DICTIONARYVAR
  5
42C
102
{ACAD_REACTORS
330
427
102
}
330
427
100
DictionaryVariables
280
     0
  1
Standard
  0
DICTIONARYVAR
  5
430
102
{ACAD_REACTORS
330
427
102
}
330
427
100
DictionaryVariables
280
     0
  1
0
  0
DICTIONARY
  5
429
330
5A
100
AcDbDictionary
280
     1
281
     1
  3
ACAD_ROUNDTRIP_2008_TABLESTYLE_CELLSTYLEMAP
360
42A
  0
CELLSTYLEMAP
  5
42A
102
{ACAD_REACTORS
330
429
102
}
330
429
100
AcDbCellStyleMap
 90
        3
300
CELLSTYLE
  1
TABLEFORMAT_BEGIN
 90
        5
170
     1
 91
        0
 92
    32768
 62
   257
 93
        1
300
CONTENTFORMAT
  1
CONTENTFORMAT_BEGIN
 90
        0
 91
        0
 92
        4
 93
        0
300

 40
0.0
140
1.0
 94
        5
 62
     0
340
11
144
6.0
309
CONTENTFORMAT_END
171
     1
301
MARGIN
  1
CELLMARGIN_BEGIN
 40
1.5
 40
1.5
 40
1.5
 40
1.5
 40
1.5
 40
1.5
309
CELLMARGIN_END
 94
        6
 95
        1
302
GRIDFORMAT
  1
GRIDFORMAT_BEGIN
 90
        0
 91
        1
 62
     0
 92
       -2
340
14
 93
        0
 40
0.045
309
GRIDFORMAT_END
 95
        2
302
GRIDFORMAT
  1
GRIDFORMAT_BEGIN
 90
        0
 91
        1
 62
     0
 92
       -2
340
14
 93
        0
 40
0.045
309
GRIDFORMAT_END
 95
        4
302
GRIDFORMAT
  1
GRIDFORMAT_BEGIN
 90
        0
 91
        1
 62
     0
 92
       -2
340
14
 93
        0
 40
0.045
309
GRIDFORMAT_END
 95
        8
302
GRIDFORMAT
  1
GRIDFORMAT_BEGIN
 90
        0
 91
        1
 62
     0
 92
       -2
340
14
 93
        0
 40
0.045
309
GRIDFORMAT_END
 95
       16
302
GRIDFORMAT
  1
GRIDFORMAT_BEGIN
 90
        0
 91
        1
 62
     0
 92
       -2
340
14
 93
        0
 40
0.045
309
GRIDFORMAT_END
 95
       32
302
GRIDFORMAT
  1
GRIDFORMAT_BEGIN
 90
        0
 91
        1
 62
     0
 92
       -2
340
14
 93
        0
 40
0.045
309
GRIDFORMAT_END
309
TABLEFORMAT_END
  1
CELLSTYLE_BEGIN
 90
        1
 91
        1
300
_TITLE
309
CELLSTYLE_END
300
CELLSTYLE
  1
TABLEFORMAT_BEGIN
 90
        5
170
     1
 91
        0
 92
        0
 62
   257
 93
        1
300
CONTENTFORMAT
  1
CONTENTFORMAT_BEGIN
 90
        0
 91
        0
 92
        4
 93
        0
300

 40
0.0
140
1.0
 94
        5
 62
     0
340
11
144
4.5
309
CONTENTFORMAT_END
171
     1
301
MARGIN
  1
CELLMARGIN_BEGIN
 40
1.5
 40
1.5
 40
1.5
 40
1.5
 40
1.5
 40
1.5
309
CELLMARGIN_END
 94
        6
 95
        1
302
GRIDFORMAT
  1
GRIDFORMAT_BEGIN
 90
        0
 91
        1
 62
     0
 92
       -2
340
14
 93
        0
 40
0.045
309
GRIDFORMAT_END
 95
        2
302
GRIDFORMAT
  1
GRIDFORMAT_BEGIN
 90
        0
 91
        1
 62
     0
 92
       -2
340
14
 93
        0
 40
0.045
309
GRIDFORMAT_END
 95
        4
302
GRIDFORMAT
  1
GRIDFORMAT_BEGIN
 90
        0
 91
        1
 62
     0
 92
       -2
340
14
 93
        0
 40
0.045
309
GRIDFORMAT_END
 95
        8
302
GRIDFORMAT
  1
GRIDFORMAT_BEGIN
 90
        0
 91
        1
 62
     0
 92
       -2
340
14
 93
        0
 40
0.045
309
GRIDFORMAT_END
 95
       16
302
GRIDFORMAT
  1
GRIDFORMAT_BEGIN
 90
        0
 91
        1
 62
     0
 92
       -2
340
14
 93
        0
 40
0.045
309
GRIDFORMAT_END
 95
       32
302
GRIDFORMAT
  1
GRIDFORMAT_BEGIN
 90
        0
 91
        1
 62
     0
 92
       -2
340
14
 93
        0
 40
0.045
309
GRIDFORMAT_END
309
TABLEFORMAT_END
  1
CELLSTYLE_BEGIN
 90
        2
 91
        1
300
_HEADER
309
CELLSTYLE_END
300
CELLSTYLE
  1
TABLEFORMAT_BEGIN
 90
        5
170
     1
 91
        0
 92
        0
 62
   257
 93
        1
300
CONTENTFORMAT
  1
CONTENTFORMAT_BEGIN
 90
        0
 91
        0
 92
        4
 93
        0
300

 40
0.0
140
1.0
 94
        2
 62
     0
340
11
144
4.5
309
CONTENTFORMAT_END
171
     1
301
MARGIN
  1
CELLMARGIN_BEGIN
 40
1.5
 40
1.5
 40
1.5
 40
1.5
 40
1.5
 40
1.5
309
CELLMARGIN_END
 94
        6
 95
        1
302
GRIDFORMAT
  1
GRIDFORMAT_BEGIN
 90
        0
 91
        1
 62
     0
 92
       -2
340
14
 93
        0
 40
0.045
309
GRIDFORMAT_END
 95
        2
302
GRIDFORMAT
  1
GRIDFORMAT_BEGIN
 90
        0
 91
        1
 62
     0
 92
       -2
340
14
 93
        0
 40
0.045
309
GRIDFORMAT_END
 95
        4
302
GRIDFORMAT
  1
GRIDFORMAT_BEGIN
 90
        0
 91
        1
 62
     0
 92
       -2
340
14
 93
        0
 40
0.045
309
GRIDFORMAT_END
 95
        8
302
GRIDFORMAT
  1
GRIDFORMAT_BEGIN
 90
        0
 91
        1
 62
     0
 92
       -2
340
14
 93
        0
 40
0.045
309
GRIDFORMAT_END
 95
       16
302
GRIDFORMAT
  1
GRIDFORMAT_BEGIN
 90
        0
 91
        1
 62
     0
 92
       -2
340
14
 93
        0
 40
0.045
309
GRIDFORMAT_END
 95
       32
302
GRIDFORMAT
  1
GRIDFORMAT_BEGIN
 90
        0
 91
        1
 62
     0
 92
       -2
340
14
 93
        0
 40
0.045
309
GRIDFORMAT_END
309
TABLEFORMAT_END
  1
CELLSTYLE_BEGIN
 90
        3
 91
        2
300
_DATA
309
CELLSTYLE_END
  0
ENDSEC
  0
EOF
