  0
SECTION
  2
HEADER
  9
$ACADVER
  1
AC1027
  9
$ACADMAINTVER
 70
   105
  9
$DWGCODEPAGE
  3
ANSI_1252
  9
$LASTSAVEDBY
  1
martinG
  9
$REQUIREDVERSIONS
160
                 0
  9
$INSBASE
 10
0.0
 20
0.0
 30
0.0
  9
$EXTMIN
 10
29984.44666503078
 20
-49461.47604370117
 30
-46.00000000000743
  9
$EXTMAX
 10
30971.49476782918
 20
-48106.47604370117
 30
2500.0
  9
$LIMMIN
 10
0.0
 20
0.0
  9
$LIMMAX
 10
420.0
 20
297.0
  9
$ORTHOMODE
 70
     0
  9
$REGENMODE
 70
     1
  9
$FILLMODE
 70
     1
  9
$QTEXTMODE
 70
     0
  9
$MIRRTEXT
 70
     1
  9
$LTSCALE
 40
5.0
  9
$ATTMODE
 70
     1
  9
$TEXTSIZE
 40
2.5
  9
$TRACEWID
 40
1.0
  9
$TEXTSTYLE
  7
Standard
  9
$CLAYER
  8
0
  9
$CELTYPE
  6
Continuous
  9
$CECOLOR
 62
   256
  9
$CELTSCALE
 40
1.0
  9
$DISPSILH
 70
     0
  9
$DIMSCALE
 40
1.0
  9
$DIMASZ
 40
2.5
  9
$DIMEXO
 40
0.625
  9
$DIMDLI
 40
3.75
  9
$DIMRND
 40
0.0
  9
$DIMDLE
 40
0.0
  9
$DIMEXE
 40
1.25
  9
$DIMTP
 40
0.0
  9
$DIMTM
 40
0.0
  9
$DIMTXT
 40
2.5
  9
$DIMCEN
 40
2.5
  9
$DIMTSZ
 40
0.0
  9
$DIMTOL
 70
     0
  9
$DIMLIM
 70
     0
  9
$DIMTIH
 70
     0
  9
$DIMTOH
 70
     0
  9
$DIMSE1
 70
     0
  9
$DIMSE2
 70
     0
  9
$DIMTAD
 70
     1
  9
$DIMZIN
 70
     8
  9
$DIMBLK
  1

  9
$DIMASO
 70
     1
  9
$DIMSHO
 70
     1
  9
$DIMPOST
  1

  9
$DIMAPOST
  1

  9
$DIMALT
 70
     0
  9
$DIMALTD
 70
     3
  9
$DIMALTF
 40
0.03937007874016
  9
$DIMLFAC
 40
1.0
  9
$DIMTOFL
 70
     1
  9
$DIMTVP
 40
0.0
  9
$DIMTIX
 70
     0
  9
$DIMSOXD
 70
     1
  9
$DIMSAH
 70
     0
  9
$DIMBLK1
  1

  9
$DIMBLK2
  1

  9
$DIMSTYLE
  2
ISO-25
  9
$DIMCLRD
 70
     0
  9
$DIMCLRE
 70
     0
  9
$DIMCLRT
 70
     0
  9
$DIMTFAC
 40
1.0
  9
$DIMGAP
 40
0.625
  9
$DIMJUST
 70
     0
  9
$DIMSD1
 70
     0
  9
$DIMSD2
 70
     0
  9
$DIMTOLJ
 70
     0
  9
$DIMTZIN
 70
     8
  9
$DIMALTZ
 70
     0
  9
$DIMALTTZ
 70
     0
  9
$DIMUPT
 70
     0
  9
$DIMDEC
 70
     2
  9
$DIMTDEC
 70
     2
  9
$DIMALTU
 70
     2
  9
$DIMALTTD
 70
     3
  9
$DIMTXSTY
  7
Standard
  9
$DIMAUNIT
 70
     0
  9
$DIMADEC
 70
     0
  9
$DIMALTRND
 40
0.0
  9
$DIMAZIN
 70
     0
  9
$DIMDSEP
 70
    44
  9
$DIMATFIT
 70
     3
  9
$DIMFRAC
 70
     0
  9
$DIMLDRBLK
  1

  9
$DIMLUNIT
 70
     2
  9
$DIMLWD
 70
    -2
  9
$DIMLWE
 70
    -2
  9
$DIMTMOVE
 70
     2
  9
$DIMFXL
 40
1.0
  9
$DIMFXLON
 70
     0
  9
$DIMJOGANG
 40
0.7853981633974483
  9
$DIMTFILL
 70
     0
  9
$DIMTFILLCLR
 70
     0
  9
$DIMARCSYM
 70
     0
  9
$DIMLTYPE
  6

  9
$DIMLTEX1
  6

  9
$DIMLTEX2
  6

  9
$DIMTXTDIRECTION
 70
     0
  9
$LUNITS
 70
     2
  9
$LUPREC
 70
     4
  9
$SKETCHINC
 40
1.0
  9
$FILLETRAD
 40
0.0
  9
$AUNITS
 70
     0
  9
$AUPREC
 70
     0
  9
$MENU
  1
.
  9
$ELEVATION
 40
0.0
  9
$PELEVATION
 40
0.0
  9
$THICKNESS
 40
0.0
  9
$LIMCHECK
 70
     0
  9
$CHAMFERA
 40
0.0
  9
$CHAMFERB
 40
0.0
  9
$CHAMFERC
 40
0.0
  9
$CHAMFERD
 40
0.0
  9
$SKPOLY
 70
     0
  9
$TDCREATE
 40
2460173.447755799
  9
$TDUCREATE
 40
2460173.364422465
  9
$TDUPDATE
 40
2460173.447757963
  9
$TDUUPDATE
 40
2460173.36442463
  9
$TDINDWG
 40
0.0000000116
  9
$TDUSRTIMER
 40
0.0000000116
  9
$USRTIMER
 70
     1
  9
$ANGBASE
 50
0.0
  9
$ANGDIR
 70
     0
  9
$PDMODE
 70
     0
  9
$PDSIZE
 40
0.0
  9
$PLINEWID
 40
0.0
  9
$SPLFRAME
 70
     0
  9
$SPLINETYPE
 70
     6
  9
$SPLINESEGS
 70
     8
  9
$HANDSEED
  5
465
  9
$SURFTAB1
 70
     6
  9
$SURFTAB2
 70
     6
  9
$SURFTYPE
 70
     6
  9
$SURFU
 70
     6
  9
$SURFV
 70
     6
  9
$UCSBASE
  2

  9
$UCSNAME
  2

  9
$UCSORG
 10
0.0
 20
0.0
 30
0.0
  9
$UCSXDIR
 10
1.0
 20
0.0
 30
0.0
  9
$UCSYDIR
 10
0.0
 20
1.0
 30
0.0
  9
$UCSORTHOREF
  2

  9
$UCSORTHOVIEW
 70
     0
  9
$UCSORGTOP
 10
0.0
 20
0.0
 30
0.0
  9
$UCSORGBOTTOM
 10
0.0
 20
0.0
 30
0.0
  9
$UCSORGLEFT
 10
0.0
 20
0.0
 30
0.0
  9
$UCSORGRIGHT
 10
0.0
 20
0.0
 30
0.0
  9
$UCSORGFRONT
 10
0.0
 20
0.0
 30
0.0
  9
$UCSORGBACK
 10
0.0
 20
0.0
 30
0.0
  9
$PUCSBASE
  2

  9
$PUCSNAME
  2

  9
$PUCSORG
 10
0.0
 20
0.0
 30
0.0
  9
$PUCSXDIR
 10
1.0
 20
0.0
 30
0.0
  9
$PUCSYDIR
 10
0.0
 20
1.0
 30
0.0
  9
$PUCSORTHOREF
  2

  9
$PUCSORTHOVIEW
 70
     0
  9
$PUCSORGTOP
 10
0.0
 20
0.0
 30
0.0
  9
$PUCSORGBOTTOM
 10
0.0
 20
0.0
 30
0.0
  9
$PUCSORGLEFT
 10
0.0
 20
0.0
 30
0.0
  9
$PUCSORGRIGHT
 10
0.0
 20
0.0
 30
0.0
  9
$PUCSORGFRONT
 10
0.0
 20
0.0
 30
0.0
  9
$PUCSORGBACK
 10
0.0
 20
0.0
 30
0.0
  9
$USERI1
 70
     0
  9
$USERI2
 70
     0
  9
$USERI3
 70
     0
  9
$USERI4
 70
     0
  9
$USERI5
 70
     0
  9
$USERR1
 40
0.0
  9
$USERR2
 40
0.0
  9
$USERR3
 40
0.0
  9
$USERR4
 40
0.0
  9
$USERR5
 40
0.0
  9
$WORLDVIEW
 70
     1
  9
$SHADEDGE
 70
     3
  9
$SHADEDIF
 70
    70
  9
$TILEMODE
 70
     1
  9
$MAXACTVP
 70
    64
  9
$PINSBASE
 10
0.0
 20
0.0
 30
0.0
  9
$PLIMCHECK
 70
     0
  9
$PEXTMIN
 10
-5.730400000000003
 20
-7.876400000000018
 30
0.0
  9
$PEXTMAX
 10
203.3304
 20
279.4764
 30
0.0
  9
$PLIMMIN
 10
-20.0
 20
-7.5
  9
$PLIMMAX
 10
277.0
 20
202.5
  9
$UNITMODE
 70
     0
  9
$VISRETAIN
 70
     1
  9
$PLINEGEN
 70
     0
  9
$PSLTSCALE
 70
     0
  9
$TREEDEPTH
 70
  3020
  9
$CMLSTYLE
  2
Standard
  9
$CMLJUST
 70
     0
  9
$CMLSCALE
 40
20.0
  9
$PROXYGRAPHICS
 70
     1
  9
$MEASUREMENT
 70
     1
  9
$CELWEIGHT
370
    -1
  9
$ENDCAPS
280
     0
  9
$JOINSTYLE
280
     0
  9
$LWDISPLAY
290
     0
  9
$INSUNITS
 70
     4
  9
$HYPERLINKBASE
  1

  9
$STYLESHEET
  1

  9
$XEDIT
290
     1
  9
$CEPSNTYPE
380
     3
  9
$CEPSNID
390
5F
  9
$PSTYLEMODE
290
     0
  9
$FINGERPRINTGUID
  2
{e4231aeb-6e49-44d4-a6b9-27d2f0114d09}
  9
$VERSIONGUID
  2
{FAEB1C32-E019-11D5-929B-00C0DF256EC4}
  9
$EXTNAMES
290
     1
  9
$PSVPSCALE
 40
0.0
  9
$OLESTARTUP
290
     0
  9
$SORTENTS
280
   127
  9
$INDEXCTL
280
     0
  9
$HIDETEXT
280
     1
  9
$XCLIPFRAME
280
     2
  9
$HALOGAP
280
     0
  9
$OBSCOLOR
 70
   257
  9
$OBSLTYPE
280
     0
  9
$INTERSECTIONDISPLAY
280
     0
  9
$INTERSECTIONCOLOR
 70
   257
  9
$DIMASSOC
280
     2
  9
$PROJECTNAME
  1

  9
$CAMERADISPLAY
290
     0
  9
$LENSLENGTH
 40
50.0
  9
$CAMERAHEIGHT
 40
0.0
  9
$STEPSPERSEC
 40
2.0
  9
$STEPSIZE
 40
6.0
  9
$3DDWFPREC
 40
2.0
  9
$PSOLWIDTH
 40
5.0
  9
$PSOLHEIGHT
 40
80.0
  9
$LOFTANG1
 40
1.570796326794897
  9
$LOFTANG2
 40
1.570796326794897
  9
$LOFTMAG1
 40
0.0
  9
$LOFTMAG2
 40
0.0
  9
$LOFTPARAM
 70
     7
  9
$LOFTNORMALS
280
     1
  9
$LATITUDE
 40
37.795
  9
$LONGITUDE
 40
-122.394
  9
$NORTHDIRECTION
 40
0.0
  9
$TIMEZONE
 70
 -8000
  9
$LIGHTGLYPHDISPLAY
280
     1
  9
$TILEMODELIGHTSYNCH
280
     1
  9
$CMATERIAL
347
44
  9
$SOLIDHIST
280
     0
  9
$SHOWHIST
280
     1
  9
$DWFFRAME
280
     2
  9
$DGNFRAME
280
     2
  9
$REALWORLDSCALE
290
     1
  9
$INTERFERECOLOR
 62
   256
  9
$CSHADOW
280
     0
  9
$SHADOWPLANELOCATION
 40
0.0
  0
ENDSEC
  0
SECTION
  2
CLASSES
  0
CLASS
  1
ACDBDICTIONARYWDFLT
  2
AcDbDictionaryWithDefault
  3
ObjectDBX Classes
 90
        0
 91
        3
280
     0
281
     0
  0
CLASS
  1
VISUALSTYLE
  2
AcDbVisualStyle
  3
ObjectDBX Classes
 90
     4095
 91
        3
280
     0
281
     0
  0
CLASS
  1
MATERIAL
  2
AcDbMaterial
  3
ObjectDBX Classes
 90
     1153
 91
        3
280
     0
281
     0
  0
CLASS
  1
SCALE
  2
AcDbScale
  3
ObjectDBX Classes
 90
     1153
 91
        3
280
     0
281
     0
  0
CLASS
  1
TABLESTYLE
  2
AcDbTableStyle
  3
ObjectDBX Classes
 90
     4095
 91
        3
280
     0
281
     0
  0
CLASS
  1
MLEADERSTYLE
  2
AcDbMLeaderStyle
  3
ACDB_MLEADERSTYLE_CLASS
 90
     4095
 91
        3
280
     0
281
     0
  0
CLASS
  1
SUN
  2
AcDbSun
  3
SCENEOE
 90
     1153
 91
        3
280
     0
281
     0
  0
CLASS
  1
RASTERVARIABLES
  2
AcDbRasterVariables
  3
ISM
 90
        0
 91
        3
280
     0
281
     0
  0
CLASS
  1
WIPEOUTVARIABLES
  2
AcDbWipeoutVariables
  3
WipeOut|AutoCAD Express Tool|expresstools@autodesk.com
 90
        0
 91
        3
280
     0
281
     0
  0
CLASS
  1
PLOTSETTINGS
  2
AcDbPlotSettings
  3
ObjectDBX Classes
 90
        0
 91
        3
280
     0
281
     0
  0
CLASS
  1
DICTIONARYVAR
  2
AcDbDictionaryVar
  3
ObjectDBX Classes
 90
        0
 91
        3
280
     0
281
     0
  0
CLASS
  1
CELLSTYLEMAP
  2
AcDbCellStyleMap
  3
ObjectDBX Classes
 90
     1152
 91
        3
280
     0
281
     0
  0
ENDSEC
  0
SECTION
  2
TABLES
  0
TABLE
  2
VPORT
  5
8
330
0
100
AcDbSymbolTable
 70
     1
  0
VPORT
  5
29
330
8
100
AcDbSymbolTableRecord
100
AcDbViewportTableRecord
  2
*Active
 70
     0
 10
0.0
 20
0.0
 11
1.0
 21
1.0
 12
30478.99476782918
 22
-48783.97604370117
 13
0.0
 23
0.0
 14
10.0
 24
10.0
 15
10.0
 25
10.0
 16
0.0
 26
0.0
 36
1.0
 17
0.0
 27
0.0
 37
0.0
 40
1382.1
 41
0.726937269372699
 42
50.0
 43
0.0
 44
0.0
 50
0.0
 51
0.0
 71
     0
 72
   100
 73
     1
 74
     3
 75
     0
 76
     0
 77
     0
 78
     0
281
     0
 65
     1
110
0.0
120
0.0
130
0.0
111
1.0
121
0.0
131
0.0
112
0.0
122
1.0
132
0.0
 79
     0
146
0.0
348
2F
 60
     3
 61
     5
292
     1
282
     1
141
0.0
142
0.0
 63
   250
361
5D
  0
ENDTAB
  0
TABLE
  2
LTYPE
  5
5
330
0
100
AcDbSymbolTable
 70
     4
  0
LTYPE
  5
14
330
5
100
AcDbSymbolTableRecord
100
AcDbLinetypeTableRecord
  2
ByBlock
 70
     0
  3

 72
    65
 73
     0
 40
0.0
  0
LTYPE
  5
15
330
5
100
AcDbSymbolTableRecord
100
AcDbLinetypeTableRecord
  2
ByLayer
 70
     0
  3

 72
    65
 73
     0
 40
0.0
  0
LTYPE
  5
16
330
5
100
AcDbSymbolTableRecord
100
AcDbLinetypeTableRecord
  2
Continuous
 70
     0
  3
Solid line
 72
    65
 73
     0
 40
0.0
  0
LTYPE
  5
164
330
5
100
AcDbSymbolTableRecord
100
AcDbLinetypeTableRecord
  2
CADWORK_3
 70
     0
  3

 72
    65
 73
     2
 40
4.0
 49
2.0
 74
     0
 49
-2.0
 74
     0
  0
LTYPE
  5
31E
330
5
100
AcDbSymbolTableRecord
100
AcDbLinetypeTableRecord
  2
CADWORK_6
 70
     0
  3

 72
    65
 73
     4
 40
14.0
 49
8.75
 74
     0
 49
-1.75
 74
     0
 49
1.75
 74
     0
 49
-1.75
 74
     0
  0
LTYPE
  5
401
330
5
100
AcDbSymbolTableRecord
100
AcDbLinetypeTableRecord
  2
CADWORK_22
 70
     0
  3

 72
    65
 73
     0
 40
0.0
  0
ENDTAB
  0
TABLE
  2
LAYER
  5
2
330
0
100
AcDbSymbolTable
 70
     3
  0
LAYER
  5
10
330
2
100
AcDbSymbolTableRecord
100
AcDbLayerTableRecord
  2
0
 70
     0
 62
     7
  6
Continuous
370
    -3
390
F
347
46
348
0
  0
LAYER
  5
67
330
2
100
AcDbSymbolTableRecord
100
AcDbLayerTableRecord
  2
Ech.1_5
 70
     0
 62
     7
  6
Continuous
370
    -3
390
F
347
46
348
0
  0
LAYER
  5
425
330
2
100
AcDbSymbolTableRecord
100
AcDbLayerTableRecord
  2
Defpoints
 70
     0
 62
     7
  6
Continuous
290
     0
370
    -3
390
F
347
46
348
0
  0
ENDTAB
  0
TABLE
  2
STYLE
  5
3
330
0
100
AcDbSymbolTable
 70
    11
  0
STYLE
  5
11
330
3
100
AcDbSymbolTableRecord
100
AcDbTextStyleTableRecord
  2
Standard
 70
     0
 40
0.0
 41
1.0
 50
0.0
 71
     0
 42
2.5
  3
txt
  4

  0
STYLE
  5
62
330
3
100
AcDbSymbolTableRecord
100
AcDbTextStyleTableRecord
  2
CwStyleShx
 70
     0
 40
1.0
 41
1.0
 50
0.0
 71
     0
 42
2.5
  3

  4

  0
STYLE
  5
63
330
3
100
AcDbSymbolTableRecord
100
AcDbTextStyleTableRecord
  2
CwStyleShx16
 70
     0
 40
1.0
 41
1.0
 50
0.0
 71
     0
 42
2.5
  3

  4

  0
STYLE
  5
64
330
3
100
AcDbSymbolTableRecord
100
AcDbTextStyleTableRecord
  2
MONOTXT
 70
     0
 40
0.0
 41
1.0
 50
0.0
 71
     0
 42
2.5
  3
MONOTXT
  4

  0
STYLE
  5
65
330
3
100
AcDbSymbolTableRecord
100
AcDbTextStyleTableRecord
  2
SYMAP
 70
     0
 40
1.0
 41
1.0
 50
0.0
 71
     0
 42
2.5
  3
SYMAP
  4

  0
STYLE
  5
66
330
3
100
AcDbSymbolTableRecord
100
AcDbTextStyleTableRecord
  2
CwStyleTtf
 70
     0
 40
1.0
 41
1.0
 50
0.0
 71
     0
 42
2.5
  3
arial.ttf
  4

  0
STYLE
  5
422
330
3
100
AcDbSymbolTableRecord
100
AcDbTextStyleTableRecord
  2
arial-z
 70
     0
 40
0.0
 41
1.0
 50
0.0
 71
     0
 42
2.5
  3
arial.ttf
  4

1001
ACAD
1000
Arial
1071
        0
  0
STYLE
  5
430
330
3
100
AcDbSymbolTableRecord
100
AcDbTextStyleTableRecord
  2
arial-
 70
     0
 40
1.0
 41
1.0
 50
0.0
 71
     0
 42
2.5
  3

  4

1001
ACAD
1000
Arial
1071
        0
  0
STYLE
  5
433
330
3
100
AcDbSymbolTableRecord
100
AcDbTextStyleTableRecord
  2
arial-i
 70
     0
 40
1.0
 41
1.0
 50
0.0
 71
     0
 42
2.5
  3
ariali.ttf
  4

1001
ACAD
1000
Arial
1071
 16777216
  0
STYLE
  5
436
330
3
100
AcDbSymbolTableRecord
100
AcDbTextStyleTableRecord
  2
arial-b
 70
     0
 40
1.0
 41
1.0
 50
0.0
 71
     0
 42
2.5
  3
arialbd.ttf
  4

1001
ACAD
1000
Arial
1071
 33554432
  0
STYLE
  5
449
330
3
100
AcDbSymbolTableRecord
100
AcDbTextStyleTableRecord
  2
tahoma-
 70
     0
 40
1.0
 41
1.0
 50
0.0
 71
     0
 42
2.5
  3
tahoma.ttf
  4

1001
ACAD
1000
Tahoma
1071
        0
  0
ENDTAB
  0
TABLE
  2
VIEW
  5
6
330
0
100
AcDbSymbolTable
 70
     0
  0
ENDTAB
  0
TABLE
  2
UCS
  5
7
330
0
100
AcDbSymbolTable
 70
     0
  0
ENDTAB
  0
TABLE
  2
APPID
  5
9
330
0
100
AcDbSymbolTable
 70
     3
  0
APPID
  5
12
330
9
100
AcDbSymbolTableRecord
100
AcDbRegAppTableRecord
  2
ACAD
 70
     0
  0
APPID
  5
5E
330
9
100
AcDbSymbolTableRecord
100
AcDbRegAppTableRecord
  2
Cadwork
 70
     0
  0
APPID
  5
214
330
9
100
AcDbSymbolTableRecord
100
AcDbRegAppTableRecord
  2
PLOTTRANSPARENCY
 70
     0
  0
ENDTAB
  0
TABLE
  2
DIMSTYLE
  5
A
330
0
100
AcDbSymbolTable
 70
     1
100
AcDbDimStyleTable
  0
DIMSTYLE
105
27
102
{ACAD_REACTORS
330
423
102
}
330
A
100
AcDbSymbolTableRecord
100
AcDbDimStyleTableRecord
  2
ISO-25
 70
     0
 41
2.5
 42
0.625
 43
3.75
 44
1.25
 73
     0
 74
     0
 77
     1
 78
     8
140
2.5
141
2.5
143
0.03937007874016
147
0.625
171
     3
172
     1
178
     0
271
     2
272
     2
274
     3
278
    44
283
     0
284
     8
340
11
  0
ENDTAB
  0
TABLE
  2
BLOCK_RECORD
  5
1
330
0
100
AcDbSymbolTable
 70
    70
  0
BLOCK_RECORD
  5
1F
330
1
100
AcDbSymbolTableRecord
100
AcDbBlockTableRecord
  2
*Model_Space
340
22
 70
     0
280
     1
281
     0
  0
BLOCK_RECORD
  5
20F
330
1
100
AcDbSymbolTableRecord
100
AcDbBlockTableRecord
  2
*Paper_Space
340
210
 70
     0
280
     1
281
     0
  0
BLOCK_RECORD
  5
68
330
1
100
AcDbSymbolTableRecord
100
AcDbBlockTableRecord
  2
CDWK_PTTYP1
340
0
 70
     0
280
     1
281
     1
  0
BLOCK_RECORD
  5
6F
330
1
100
AcDbSymbolTableRecord
100
AcDbBlockTableRecord
  2
CDWK_PTTYP2
340
0
 70
     0
280
     1
281
     1
  0
BLOCK_RECORD
  5
74
330
1
100
AcDbSymbolTableRecord
100
AcDbBlockTableRecord
  2
CDWK_PTTYP4
340
0
 70
     0
280
     1
281
     1
  0
BLOCK_RECORD
  5
78
330
1
100
AcDbSymbolTableRecord
100
AcDbBlockTableRecord
  2
CDWK_PTTYP5
340
0
 70
     0
280
     1
281
     1
  0
BLOCK_RECORD
  5
81
330
1
100
AcDbSymbolTableRecord
100
AcDbBlockTableRecord
  2
CDWK_PTTYP6
340
0
 70
     0
280
     1
281
     1
  0
BLOCK_RECORD
  5
89
330
1
100
AcDbSymbolTableRecord
100
AcDbBlockTableRecord
  2
CDWK_PTTYP7
340
0
 70
     0
280
     1
281
     1
  0
BLOCK_RECORD
  5
92
330
1
100
AcDbSymbolTableRecord
100
AcDbBlockTableRecord
  2
CDWK_PTTYP8
340
0
 70
     0
280
     1
281
     1
  0
BLOCK_RECORD
  5
96
330
1
100
AcDbSymbolTableRecord
100
AcDbBlockTableRecord
  2
CDWK_PTTYP9
340
0
 70
     0
280
     1
281
     1
  0
BLOCK_RECORD
  5
9B
330
1
100
AcDbSymbolTableRecord
100
AcDbBlockTableRecord
  2
CDWK_PTTYP10
340
0
 70
     0
280
     1
281
     1
  0
BLOCK_RECORD
  5
9F
330
1
100
AcDbSymbolTableRecord
100
AcDbBlockTableRecord
  2
CDWK_PTTYP11
340
0
 70
     0
280
     1
281
     1
  0
BLOCK_RECORD
  5
A4
330
1
100
AcDbSymbolTableRecord
100
AcDbBlockTableRecord
  2
CDWK_PTTYP12
340
0
 70
     0
280
     1
281
     1
  0
BLOCK_RECORD
  5
A9
330
1
100
AcDbSymbolTableRecord
100
AcDbBlockTableRecord
  2
CDWK_PTTYP13
340
0
 70
     0
280
     1
281
     1
  0
BLOCK_RECORD
  5
AF
330
1
100
AcDbSymbolTableRecord
100
AcDbBlockTableRecord
  2
CDWK_PTTYP16
340
0
 70
     0
280
     1
281
     1
  0
BLOCK_RECORD
  5
B6
330
1
100
AcDbSymbolTableRecord
100
AcDbBlockTableRecord
  2
CDWK_PTTYP17
340
0
 70
     0
280
     1
281
     1
  0
BLOCK_RECORD
  5
BB
330
1
100
AcDbSymbolTableRecord
100
AcDbBlockTableRecord
  2
CDWK_PTTYP18
340
0
 70
     0
280
     1
281
     1
  0
BLOCK_RECORD
  5
C0
330
1
100
AcDbSymbolTableRecord
100
AcDbBlockTableRecord
  2
CDWK_PTTYP19
340
0
 70
     0
280
     1
281
     1
  0
BLOCK_RECORD
  5
C6
330
1
100
AcDbSymbolTableRecord
100
AcDbBlockTableRecord
  2
CDWK_PTTYP20
340
0
 70
     0
280
     1
281
     1
  0
BLOCK_RECORD
  5
CB
330
1
100
AcDbSymbolTableRecord
100
AcDbBlockTableRecord
  2
CDWK_PTTYP21
340
0
 70
     0
280
     1
281
     1
  0
BLOCK_RECORD
  5
D0
330
1
100
AcDbSymbolTableRecord
100
AcDbBlockTableRecord
  2
CDWK_PTTYP25
340
0
 70
     0
280
     1
281
     1
  0
BLOCK_RECORD
  5
D7
330
1
100
AcDbSymbolTableRecord
100
AcDbBlockTableRecord
  2
CDWK_PTTYP26
340
0
 70
     0
280
     1
281
     1
  0
BLOCK_RECORD
  5
DE
330
1
100
AcDbSymbolTableRecord
100
AcDbBlockTableRecord
  2
CDWK_PTTYP27
340
0
 70
     0
280
     1
281
     1
  0
BLOCK_RECORD
  5
E6
330
1
100
AcDbSymbolTableRecord
100
AcDbBlockTableRecord
  2
CDWK_PTTYP28
340
0
 70
     0
280
     1
281
     1
  0
BLOCK_RECORD
  5
ED
330
1
100
AcDbSymbolTableRecord
100
AcDbBlockTableRecord
  2
CDWK_PTTYP29
340
0
 70
     0
280
     1
281
     1
  0
BLOCK_RECORD
  5
F3
330
1
100
AcDbSymbolTableRecord
100
AcDbBlockTableRecord
  2
CDWK_PTTYP30
340
0
 70
     0
280
     1
281
     1
  0
BLOCK_RECORD
  5
FA
330
1
100
AcDbSymbolTableRecord
100
AcDbBlockTableRecord
  2
CDWK_PTTYP31
340
0
 70
     0
280
     1
281
     1
  0
BLOCK_RECORD
  5
102
330
1
100
AcDbSymbolTableRecord
100
AcDbBlockTableRecord
  2
CDWK_PTTYP32
340
0
 70
     0
280
     1
281
     1
  0
BLOCK_RECORD
  5
10B
330
1
100
AcDbSymbolTableRecord
100
AcDbBlockTableRecord
  2
CDWK_PTTYP33
340
0
 70
     0
280
     1
281
     1
  0
BLOCK_RECORD
  5
111
330
1
100
AcDbSymbolTableRecord
100
AcDbBlockTableRecord
  2
CDWK_PTTYP34
340
0
 70
     0
280
     1
281
     1
  0
BLOCK_RECORD
  5
117
330
1
100
AcDbSymbolTableRecord
100
AcDbBlockTableRecord
  2
CDWK_PTTYP35
340
0
 70
     0
280
     1
281
     1
  0
BLOCK_RECORD
  5
11D
330
1
100
AcDbSymbolTableRecord
100
AcDbBlockTableRecord
  2
CDWK_PTTYP36
340
0
 70
     0
280
     1
281
     1
  0
BLOCK_RECORD
  5
125
330
1
100
AcDbSymbolTableRecord
100
AcDbBlockTableRecord
  2
CDWK_PTTYP37
340
0
 70
     0
280
     1
281
     1
  0
BLOCK_RECORD
  5
12A
330
1
100
AcDbSymbolTableRecord
100
AcDbBlockTableRecord
  2
CDWK_PTTYP38
340
0
 70
     0
280
     1
281
     1
  0
BLOCK_RECORD
  5
130
330
1
100
AcDbSymbolTableRecord
100
AcDbBlockTableRecord
  2
CDWK_PTTYP41
340
0
 70
     0
280
     1
281
     1
  0
BLOCK_RECORD
  5
13A
330
1
100
AcDbSymbolTableRecord
100
AcDbBlockTableRecord
  2
CDWK_PTTYP42
340
0
 70
     0
280
     1
281
     1
  0
BLOCK_RECORD
  5
143
330
1
100
AcDbSymbolTableRecord
100
AcDbBlockTableRecord
  2
CDWK_PTTYP43
340
0
 70
     0
280
     1
281
     1
  0
BLOCK_RECORD
  5
149
330
1
100
AcDbSymbolTableRecord
100
AcDbBlockTableRecord
  2
CDWK_PTTYP44
340
0
 70
     0
280
     1
281
     1
  0
BLOCK_RECORD
  5
152
330
1
100
AcDbSymbolTableRecord
100
AcDbBlockTableRecord
  2
CDWK_PTTYP45
340
0
 70
     0
280
     1
281
     1
  0
BLOCK_RECORD
  5
157
330
1
100
AcDbSymbolTableRecord
100
AcDbBlockTableRecord
  2
CDWK_PTTYP46
340
0
 70
     0
280
     1
281
     1
  0
BLOCK_RECORD
  5
15C
330
1
100
AcDbSymbolTableRecord
100
AcDbBlockTableRecord
  2
CDWK_PTTYP47
340
0
 70
     0
280
     1
281
     1
  0
BLOCK_RECORD
  5
165
330
1
100
AcDbSymbolTableRecord
100
AcDbBlockTableRecord
  2
CDWK_PTTYP48
340
0
 70
     0
280
     1
281
     1
  0
BLOCK_RECORD
  5
16A
330
1
100
AcDbSymbolTableRecord
100
AcDbBlockTableRecord
  2
CDWK_PTTYP49
340
0
 70
     0
280
     1
281
     1
  0
BLOCK_RECORD
  5
171
330
1
100
AcDbSymbolTableRecord
100
AcDbBlockTableRecord
  2
CDWK_PTTYP50
340
0
 70
     0
280
     1
281
     1
  0
BLOCK_RECORD
  5
17B
330
1
100
AcDbSymbolTableRecord
100
AcDbBlockTableRecord
  2
CDWK_PTTYP51
340
0
 70
     0
280
     1
281
     1
  0
BLOCK_RECORD
  5
180
330
1
100
AcDbSymbolTableRecord
100
AcDbBlockTableRecord
  2
CDWK_PTTYP52
340
0
 70
     0
280
     1
281
     1
  0
BLOCK_RECORD
  5
186
330
1
100
AcDbSymbolTableRecord
100
AcDbBlockTableRecord
  2
cw-dimension-symbol1
340
0
 70
     0
280
     1
281
     0
  0
BLOCK_RECORD
  5
18D
330
1
100
AcDbSymbolTableRecord
100
AcDbBlockTableRecord
  2
cw-dimension-symbol2
340
0
 70
     0
280
     1
281
     0
  0
BLOCK_RECORD
  5
192
330
1
100
AcDbSymbolTableRecord
100
AcDbBlockTableRecord
  2
cw-dimension-symbol3
340
0
 70
     0
280
     1
281
     0
  0
BLOCK_RECORD
  5
197
330
1
100
AcDbSymbolTableRecord
100
AcDbBlockTableRecord
  2
cw-dimension-symbol5
340
0
 70
     0
280
     1
281
     0
  0
BLOCK_RECORD
  5
19E
330
1
100
AcDbSymbolTableRecord
100
AcDbBlockTableRecord
  2
cw-dimension-symbol6
340
0
 70
     0
280
     1
281
     0
  0
BLOCK_RECORD
  5
1A4
330
1
100
AcDbSymbolTableRecord
100
AcDbBlockTableRecord
  2
cw-dimension-symbol11
340
0
 70
     0
280
     1
281
     0
  0
BLOCK_RECORD
  5
1AA
330
1
100
AcDbSymbolTableRecord
100
AcDbBlockTableRecord
  2
cw-dimension-symbol13
340
0
 70
     0
280
     1
281
     0
  0
BLOCK_RECORD
  5
1B0
330
1
100
AcDbSymbolTableRecord
100
AcDbBlockTableRecord
  2
cw-dimension-symbol15
340
0
 70
     0
280
     1
281
     0
  0
BLOCK_RECORD
  5
1B7
330
1
100
AcDbSymbolTableRecord
100
AcDbBlockTableRecord
  2
cw-dimension-symbol16
340
0
 70
     0
280
     1
281
     0
  0
BLOCK_RECORD
  5
1BE
330
1
100
AcDbSymbolTableRecord
100
AcDbBlockTableRecord
  2
cw-dimension-symbol17
340
0
 70
     0
280
     1
281
     0
  0
BLOCK_RECORD
  5
1C5
330
1
100
AcDbSymbolTableRecord
100
AcDbBlockTableRecord
  2
cw-dimension-symbol18
340
0
 70
     0
280
     1
281
     0
  0
BLOCK_RECORD
  5
1CC
330
1
100
AcDbSymbolTableRecord
100
AcDbBlockTableRecord
  2
cw-dimension-symbol19
340
0
 70
     0
280
     1
281
     0
  0
BLOCK_RECORD
  5
1CF
330
1
100
AcDbSymbolTableRecord
100
AcDbBlockTableRecord
  2
cw-dimension-symbol20
340
0
 70
     0
280
     1
281
     0
  0
BLOCK_RECORD
  5
1D6
330
1
100
AcDbSymbolTableRecord
100
AcDbBlockTableRecord
  2
cw-dimension-symbol21
340
0
 70
     0
280
     1
281
     0
  0
BLOCK_RECORD
  5
1DD
330
1
100
AcDbSymbolTableRecord
100
AcDbBlockTableRecord
  2
cw-line-extremity0
340
0
 70
     0
280
     1
281
     0
  0
BLOCK_RECORD
  5
1E1
330
1
100
AcDbSymbolTableRecord
100
AcDbBlockTableRecord
  2
cw-line-extremity2
340
0
 70
     0
280
     1
281
     0
  0
BLOCK_RECORD
  5
1E6
330
1
100
AcDbSymbolTableRecord
100
AcDbBlockTableRecord
  2
cw-line-extremity3
340
0
 70
     0
280
     1
281
     0
  0
BLOCK_RECORD
  5
1EB
330
1
100
AcDbSymbolTableRecord
100
AcDbBlockTableRecord
  2
cw-line-extremity301
340
0
 70
     0
280
     1
281
     0
  0
BLOCK_RECORD
  5
1ED
330
1
100
AcDbSymbolTableRecord
100
AcDbBlockTableRecord
  2
cw-line-extremity4
340
0
102
{BLKREFS
331
411
331
413
331
415
331
417
331
419
331
41B
331
41D
331
41F
331
421
102
}
 70
     0
280
     1
281
     0
  0
BLOCK_RECORD
  5
1EF
330
1
100
AcDbSymbolTableRecord
100
AcDbBlockTableRecord
  2
cw-line-extremity5
340
0
 70
     0
280
     1
281
     0
  0
BLOCK_RECORD
  5
1F1
330
1
100
AcDbSymbolTableRecord
100
AcDbBlockTableRecord
  2
cw-line-extremity6
340
0
 70
     0
280
     1
281
     0
  0
BLOCK_RECORD
  5
1F3
330
1
100
AcDbSymbolTableRecord
100
AcDbBlockTableRecord
  2
cw-line-extremity9
340
0
 70
     0
280
     1
281
     0
  0
BLOCK_RECORD
  5
1F5
330
1
100
AcDbSymbolTableRecord
100
AcDbBlockTableRecord
  2
cw-line-extremity10
340
0
 70
     0
280
     1
281
     0
  0
BLOCK_RECORD
  5
1F7
330
1
100
AcDbSymbolTableRecord
100
AcDbBlockTableRecord
  2
cw-line-extremity1
340
0
 70
     0
280
     1
281
     0
  0
BLOCK_RECORD
  5
1B
330
1
100
AcDbSymbolTableRecord
100
AcDbBlockTableRecord
  2
*Paper_Space69
340
1E
 70
     0
280
     1
281
     0
  0
BLOCK_RECORD
  5
426
330
1
100
AcDbSymbolTableRecord
100
AcDbBlockTableRecord
  2
*D70
340
0
 70
     0
280
     1
281
     0
  0
ENDTAB
  0
ENDSEC
  0
SECTION
  2
BLOCKS
  0
BLOCK
  5
20
330
1F
100
AcDbEntity
  8
0
100
AcDbBlockBegin
  2
*Model_Space
 70
     0
 10
0.0
 20
0.0
 30
0.0
  3
*Model_Space
  1

  0
ENDBLK
  5
21
330
1F
100
AcDbEntity
  8
0
100
AcDbBlockEnd
  0
BLOCK
  5
211
330
20F
100
AcDbEntity
 67
     1
  8
0
100
AcDbBlockBegin
  2
*Paper_Space
 70
     0
 10
0.0
 20
0.0
 30
0.0
  3
*Paper_Space
  1

  0
ENDBLK
  5
212
330
20F
100
AcDbEntity
 67
     1
  8
0
100
AcDbBlockEnd
  0
BLOCK
  5
6D
330
68
100
AcDbEntity
  8
0
100
AcDbBlockBegin
  2
CDWK_PTTYP1
 70
     0
 10
0.0
 20
0.0
 30
0.0
  3
CDWK_PTTYP1
  1

  0
LINE
  5
69
330
68
100
AcDbEntity
  8
0
  6
Continuous
 62
     0
370
    -2
390
5F
100
AcDbLine
 10
-0.5
 20
0.5
 30
0.0
 11
0.5
 21
0.5
 31
0.0
  0
LINE
  5
6A
330
68
100
AcDbEntity
  8
0
  6
Continuous
 62
     0
370
    -2
390
5F
100
AcDbLine
 10
0.5
 20
0.5
 30
0.0
 11
0.5
 21
-0.5
 31
0.0
  0
LINE
  5
6B
330
68
100
AcDbEntity
  8
0
  6
Continuous
 62
     0
370
    -2
390
5F
100
AcDbLine
 10
0.5
 20
-0.5
 30
0.0
 11
-0.5
 21
-0.5
 31
0.0
  0
LINE
  5
6C
330
68
100
AcDbEntity
  8
0
  6
Continuous
 62
     0
370
    -2
390
5F
100
AcDbLine
 10
-0.5
 20
-0.5
 30
0.0
 11
-0.5
 21
0.5
 31
0.0
  0
ENDBLK
  5
6E
330
68
100
AcDbEntity
  8
0
100
AcDbBlockEnd
  0
BLOCK
  5
72
330
6F
100
AcDbEntity
  8
0
100
AcDbBlockBegin
  2
CDWK_PTTYP2
 70
     0
 10
0.0
 20
0.0
 30
0.0
  3
CDWK_PTTYP2
  1

  0
LINE
  5
70
330
6F
100
AcDbEntity
  8
0
  6
Continuous
 62
     0
370
    -2
390
5F
100
AcDbLine
 10
0.0
 20
0.5
 30
0.0
 11
0.0
 21
-0.5
 31
0.0
  0
LINE
  5
71
330
6F
100
AcDbEntity
  8
0
  6
Continuous
 62
     0
370
    -2
390
5F
100
AcDbLine
 10
0.5
 20
0.0
 30
0.0
 11
-0.5
 21
0.0
 31
0.0
  0
ENDBLK
  5
73
330
6F
100
AcDbEntity
  8
0
100
AcDbBlockEnd
  0
BLOCK
  5
76
330
74
100
AcDbEntity
  8
0
100
AcDbBlockBegin
  2
CDWK_PTTYP4
 70
     0
 10
0.0
 20
0.0
 30
0.0
  3
CDWK_PTTYP4
  1

  0
HATCH
  5
75
330
74
100
AcDbEntity
  8
0
  6
Continuous
 62
     0
370
    -2
390
5F
100
AcDbHatch
 10
0.0
 20
0.0
 30
0.0
210
0.0
220
0.0
230
1.0
  2
SOLID
 70
     1
 71
     0
 91
        1
 92
        1
 93
        1
 72
     2
 10
0.0
 20
0.0
 40
0.5
 50
0.0
 51
360.0
 73
     1
 97
        0
 75
     0
 76
     1
 98
        0
  0
ENDBLK
  5
77
330
74
100
AcDbEntity
  8
0
100
AcDbBlockEnd
  0
BLOCK
  5
7F
330
78
100
AcDbEntity
  8
0
100
AcDbBlockBegin
  2
CDWK_PTTYP5
 70
     0
 10
0.0
 20
0.0
 30
0.0
  3
CDWK_PTTYP5
  1

  0
LINE
  5
79
330
78
100
AcDbEntity
  8
0
  6
Continuous
 62
     0
370
    -2
390
5F
100
AcDbLine
 10
-0.5
 20
0.5
 30
0.0
 11
0.5
 21
0.5
 31
0.0
  0
LINE
  5
7A
330
78
100
AcDbEntity
  8
0
  6
Continuous
 62
     0
370
    -2
390
5F
100
AcDbLine
 10
0.5
 20
0.5
 30
0.0
 11
0.5
 21
-0.5
 31
0.0
  0
LINE
  5
7B
330
78
100
AcDbEntity
  8
0
  6
Continuous
 62
     0
370
    -2
390
5F
100
AcDbLine
 10
0.5
 20
-0.5
 30
0.0
 11
-0.5
 21
-0.5
 31
0.0
  0
LINE
  5
7C
330
78
100
AcDbEntity
  8
0
  6
Continuous
 62
     0
370
    -2
390
5F
100
AcDbLine
 10
-0.5
 20
-0.5
 30
0.0
 11
-0.5
 21
0.5
 31
0.0
  0
HATCH
  5
7D
330
78
100
AcDbEntity
  8
0
  6
Continuous
 62
     0
370
    -2
390
5F
100
AcDbHatch
 10
0.0
 20
0.0
 30
0.0
210
0.0
220
0.0
230
1.0
  2
SOLID
 70
     1
 71
     0
 91
        1
 92
        3
 72
     0
 73
     1
 93
        4
 10
-0.5
 20
0.0
 10
0.0
 20
0.0
 10
0.0
 20
-0.5
 10
-0.5
 20
-0.5
 97
        0
 75
     0
 76
     1
 98
        0
  0
HATCH
  5
7E
330
78
100
AcDbEntity
  8
0
  6
Continuous
 62
     0
370
    -2
390
5F
100
AcDbHatch
 10
0.0
 20
0.0
 30
0.0
210
0.0
220
0.0
230
1.0
  2
SOLID
 70
     1
 71
     0
 91
        1
 92
        3
 72
     0
 73
     1
 93
        4
 10
0.0
 20
0.0
 10
0.5
 20
0.0
 10
0.5
 20
0.5
 10
0.0
 20
0.5
 97
        0
 75
     0
 76
     1
 98
        0
  0
ENDBLK
  5
80
330
78
100
AcDbEntity
  8
0
100
AcDbBlockEnd
  0
BLOCK
  5
87
330
81
100
AcDbEntity
  8
0
100
AcDbBlockBegin
  2
CDWK_PTTYP6
 70
     0
 10
0.0
 20
0.0
 30
0.0
  3
CDWK_PTTYP6
  1

  0
LINE
  5
82
330
81
100
AcDbEntity
  8
0
  6
Continuous
 62
     0
370
    -2
390
5F
100
AcDbLine
 10
-0.5
 20
0.5
 30
0.0
 11
0.5
 21
0.5
 31
0.0
  0
LINE
  5
83
330
81
100
AcDbEntity
  8
0
  6
Continuous
 62
     0
370
    -2
390
5F
100
AcDbLine
 10
0.5
 20
0.5
 30
0.0
 11
0.5
 21
-0.5
 31
0.0
  0
LINE
  5
84
330
81
100
AcDbEntity
  8
0
  6
Continuous
 62
     0
370
    -2
390
5F
100
AcDbLine
 10
0.5
 20
-0.5
 30
0.0
 11
-0.5
 21
-0.5
 31
0.0
  0
LINE
  5
85
330
81
100
AcDbEntity
  8
0
  6
Continuous
 62
     0
370
    -2
390
5F
100
AcDbLine
 10
-0.5
 20
-0.5
 30
0.0
 11
-0.5
 21
0.5
 31
0.0
  0
HATCH
  5
86
330
81
100
AcDbEntity
  8
0
  6
Continuous
 62
     0
370
    -2
390
5F
100
AcDbHatch
 10
0.0
 20
0.0
 30
0.0
210
0.0
220
0.0
230
1.0
  2
SOLID
 70
     1
 71
     0
 91
        1
 92
        3
 72
     0
 73
     1
 93
        3
 10
-0.5
 20
-0.5
 10
-0.5
 20
0.5
 10
0.5
 20
0.5
 97
        0
 75
     0
 76
     1
 98
        0
  0
ENDBLK
  5
88
330
81
100
AcDbEntity
  8
0
100
AcDbBlockEnd
  0
BLOCK
  5
90
330
89
100
AcDbEntity
  8
0
100
AcDbBlockBegin
  2
CDWK_PTTYP7
 70
     0
 10
0.0
 20
0.0
 30
0.0
  3
CDWK_PTTYP7
  1

  0
LINE
  5
8A
330
89
100
AcDbEntity
  8
0
  6
Continuous
 62
     0
370
    -2
390
5F
100
AcDbLine
 10
-0.5
 20
0.5
 30
0.0
 11
0.5
 21
0.5
 31
0.0
  0
LINE
  5
8B
330
89
100
AcDbEntity
  8
0
  6
Continuous
 62
     0
370
    -2
390
5F
100
AcDbLine
 10
0.5
 20
0.5
 30
0.0
 11
0.5
 21
-0.5
 31
0.0
  0
LINE
  5
8C
330
89
100
AcDbEntity
  8
0
  6
Continuous
 62
     0
370
    -2
390
5F
100
AcDbLine
 10
0.5
 20
-0.5
 30
0.0
 11
-0.5
 21
-0.5
 31
0.0
  0
LINE
  5
8D
330
89
100
AcDbEntity
  8
0
  6
Continuous
 62
     0
370
    -2
390
5F
100
AcDbLine
 10
-0.5
 20
-0.5
 30
0.0
 11
-0.5
 21
0.5
 31
0.0
  0
LINE
  5
8E
330
89
100
AcDbEntity
  8
0
  6
Continuous
 62
     0
370
    -2
390
5F
100
AcDbLine
 10
0.0
 20
0.5
 30
0.0
 11
0.0
 21
-0.5
 31
0.0
  0
LINE
  5
8F
330
89
100
AcDbEntity
  8
0
  6
Continuous
 62
     0
370
    -2
390
5F
100
AcDbLine
 10
0.5
 20
0.0
 30
0.0
 11
-0.5
 21
0.0
 31
0.0
  0
ENDBLK
  5
91
330
89
100
AcDbEntity
  8
0
100
AcDbBlockEnd
  0
BLOCK
  5
94
330
92
100
AcDbEntity
  8
0
100
AcDbBlockBegin
  2
CDWK_PTTYP8
 70
     0
 10
0.0
 20
0.0
 30
0.0
  3
CDWK_PTTYP8
  1

  0
HATCH
  5
93
330
92
100
AcDbEntity
  8
0
  6
Continuous
 62
     0
370
    -2
390
5F
100
AcDbHatch
 10
0.0
 20
0.0
 30
0.0
210
0.0
220
0.0
230
1.0
  2
SOLID
 70
     1
 71
     0
 91
        1
 92
        3
 72
     0
 73
     1
 93
        4
 10
0.5
 20
0.5
 10
0.5
 20
-0.5
 10
-0.5
 20
-0.5
 10
-0.5
 20
0.5
 97
        0
 75
     0
 76
     1
 98
        0
  0
ENDBLK
  5
95
330
92
100
AcDbEntity
  8
0
100
AcDbBlockEnd
  0
BLOCK
  5
99
330
96
100
AcDbEntity
  8
0
100
AcDbBlockBegin
  2
CDWK_PTTYP9
 70
     0
 10
0.0
 20
0.0
 30
0.0
  3
CDWK_PTTYP9
  1

  0
CIRCLE
  5
97
330
96
100
AcDbEntity
  8
0
  6
Continuous
 62
     0
370
    -2
390
5F
100
AcDbCircle
 10
0.0
 20
0.0
 30
0.0
 40
0.1666666666666667
  0
CIRCLE
  5
98
330
96
100
AcDbEntity
  8
0
  6
Continuous
 62
     0
370
    -2
390
5F
100
AcDbCircle
 10
0.0
 20
0.0
 30
0.0
 40
0.5
  0
ENDBLK
  5
9A
330
96
100
AcDbEntity
  8
0
100
AcDbBlockEnd
  0
BLOCK
  5
9D
330
9B
100
AcDbEntity
  8
0
100
AcDbBlockBegin
  2
CDWK_PTTYP10
 70
     0
 10
0.0
 20
0.0
 30
0.0
  3
CDWK_PTTYP10
  1

  0
CIRCLE
  5
9C
330
9B
100
AcDbEntity
  8
0
  6
Continuous
 62
     0
370
    -2
390
5F
100
AcDbCircle
 10
0.0
 20
0.0
 30
0.0
 40
0.5
  0
ENDBLK
  5
9E
330
9B
100
AcDbEntity
  8
0
100
AcDbBlockEnd
  0
BLOCK
  5
A2
330
9F
100
AcDbEntity
  8
0
100
AcDbBlockBegin
  2
CDWK_PTTYP11
 70
     0
 10
0.0
 20
0.0
 30
0.0
  3
CDWK_PTTYP11
  1

  0
CIRCLE
  5
A0
330
9F
100
AcDbEntity
  8
0
  6
Continuous
 62
     0
370
    -2
390
5F
100
AcDbCircle
 10
0.0
 20
0.0
 30
0.0
 40
0.25
  0
CIRCLE
  5
A1
330
9F
100
AcDbEntity
  8
0
  6
Continuous
 62
     0
370
    -2
390
5F
100
AcDbCircle
 10
0.0
 20
0.0
 30
0.0
 40
0.5
  0
ENDBLK
  5
A3
330
9F
100
AcDbEntity
  8
0
100
AcDbBlockEnd
  0
BLOCK
  5
A7
330
A4
100
AcDbEntity
  8
0
100
AcDbBlockBegin
  2
CDWK_PTTYP12
 70
     0
 10
0.0
 20
0.0
 30
0.0
  3
CDWK_PTTYP12
  1

  0
CIRCLE
  5
A5
330
A4
100
AcDbEntity
  8
0
  6
Continuous
 62
     0
370
    -2
390
5F
100
AcDbCircle
 10
0.25
 20
0.0
 30
0.0
 40
0.25
  0
CIRCLE
  5
A6
330
A4
100
AcDbEntity
  8
0
  6
Continuous
 62
     0
370
    -2
390
5F
100
AcDbCircle
 10
0.0
 20
0.0
 30
0.0
 40
0.5
  0
ENDBLK
  5
A8
330
A4
100
AcDbEntity
  8
0
100
AcDbBlockEnd
  0
BLOCK
  5
AD
330
A9
100
AcDbEntity
  8
0
100
AcDbBlockBegin
  2
CDWK_PTTYP13
 70
     0
 10
0.0
 20
0.0
 30
0.0
  3
CDWK_PTTYP13
  1

  0
CIRCLE
  5
AA
330
A9
100
AcDbEntity
  8
0
  6
Continuous
 62
     0
370
    -2
390
5F
100
AcDbCircle
 10
-0.25
 20
0.0
 30
0.0
 40
0.25
  0
CIRCLE
  5
AB
330
A9
100
AcDbEntity
  8
0
  6
Continuous
 62
     0
370
    -2
390
5F
100
AcDbCircle
 10
0.25
 20
0.0
 30
0.0
 40
0.25
  0
CIRCLE
  5
AC
330
A9
100
AcDbEntity
  8
0
  6
Continuous
 62
     0
370
    -2
390
5F
100
AcDbCircle
 10
0.0
 20
0.0
 30
0.0
 40
0.5
  0
ENDBLK
  5
AE
330
A9
100
AcDbEntity
  8
0
100
AcDbBlockEnd
  0
BLOCK
  5
B4
330
AF
100
AcDbEntity
  8
0
100
AcDbBlockBegin
  2
CDWK_PTTYP16
 70
     0
 10
0.0
 20
0.0
 30
0.0
  3
CDWK_PTTYP16
  1

  0
LINE
  5
B0
330
AF
100
AcDbEntity
  8
0
  6
Continuous
 62
     0
370
    -2
390
5F
100
AcDbLine
 10
-0.5
 20
-0.289
 30
0.0
 11
0.5
 21
-0.289
 31
0.0
  0
LINE
  5
B1
330
AF
100
AcDbEntity
  8
0
  6
Continuous
 62
     0
370
    -2
390
5F
100
AcDbLine
 10
0.5
 20
-0.289
 30
0.0
 11
0.0
 21
0.577
 31
0.0
  0
LINE
  5
B2
330
AF
100
AcDbEntity
  8
0
  6
Continuous
 62
     0
370
    -2
390
5F
100
AcDbLine
 10
0.0
 20
0.577
 30
0.0
 11
-0.5
 21
-0.289
 31
0.0
  0
CIRCLE
  5
B3
330
AF
100
AcDbEntity
  8
0
  6
Continuous
 62
     0
370
    -2
390
5F
100
AcDbCircle
 10
0.0
 20
0.0
 30
0.0
 40
0.289
  0
ENDBLK
  5
B5
330
AF
100
AcDbEntity
  8
0
100
AcDbBlockEnd
  0
BLOCK
  5
B9
330
B6
100
AcDbEntity
  8
0
100
AcDbBlockBegin
  2
CDWK_PTTYP17
 70
     0
 10
0.0
 20
0.0
 30
0.0
  3
CDWK_PTTYP17
  1

  0
CIRCLE
  5
B7
330
B6
100
AcDbEntity
  8
0
  6
Continuous
 62
     0
370
    -2
390
5F
100
AcDbCircle
 10
0.0
 20
0.0
 30
0.0
 40
0.5
  0
HATCH
  5
B8
330
B6
100
AcDbEntity
  8
0
  6
Continuous
 62
     0
370
    -2
390
5F
100
AcDbHatch
 10
0.0
 20
0.0
 30
0.0
210
0.0
220
0.0
230
1.0
  2
SOLID
 70
     1
 71
     0
 91
        1
 92
        1
 93
        1
 72
     2
 10
0.0
 20
0.0
 40
0.25
 50
0.0
 51
360.0
 73
     1
 97
        0
 75
     0
 76
     1
 98
        0
  0
ENDBLK
  5
BA
330
B6
100
AcDbEntity
  8
0
100
AcDbBlockEnd
  0
BLOCK
  5
BE
330
BB
100
AcDbEntity
  8
0
100
AcDbBlockBegin
  2
CDWK_PTTYP18
 70
     0
 10
0.0
 20
0.0
 30
0.0
  3
CDWK_PTTYP18
  1

  0
CIRCLE
  5
BC
330
BB
100
AcDbEntity
  8
0
  6
Continuous
 62
     0
370
    -2
390
5F
100
AcDbCircle
 10
0.0
 20
0.0
 30
0.0
 40
0.5
  0
CIRCLE
  5
BD
330
BB
100
AcDbEntity
  8
0
  6
Continuous
 62
     0
370
    -2
390
5F
100
AcDbCircle
 10
0.0
 20
0.0
 30
0.0
 40
0.208
  0
ENDBLK
  5
BF
330
BB
100
AcDbEntity
  8
0
100
AcDbBlockEnd
  0
BLOCK
  5
C4
330
C0
100
AcDbEntity
  8
0
100
AcDbBlockBegin
  2
CDWK_PTTYP19
 70
     0
 10
0.0
 20
0.0
 30
0.0
  3
CDWK_PTTYP19
  1

  0
CIRCLE
  5
C1
330
C0
100
AcDbEntity
  8
0
  6
Continuous
 62
     0
370
    -2
390
5F
100
AcDbCircle
 10
0.0
 20
0.0
 30
0.0
 40
0.25
  0
CIRCLE
  5
C2
330
C0
100
AcDbEntity
  8
0
  6
Continuous
 62
     0
370
    -2
390
5F
100
AcDbCircle
 10
0.0
 20
0.0
 30
0.0
 40
0.35
  0
LINE
  5
C3
330
C0
100
AcDbEntity
  8
0
  6
Continuous
 62
     0
370
    -2
390
5F
100
AcDbLine
 10
-0.25
 20
0.0
 30
0.0
 11
0.25
 21
0.0
 31
0.0
  0
ENDBLK
  5
C5
330
C0
100
AcDbEntity
  8
0
100
AcDbBlockEnd
  0
BLOCK
  5
C9
330
C6
100
AcDbEntity
  8
0
100
AcDbBlockBegin
  2
CDWK_PTTYP20
 70
     0
 10
0.0
 20
0.0
 30
0.0
  3
CDWK_PTTYP20
  1

  0
CIRCLE
  5
C7
330
C6
100
AcDbEntity
  8
0
  6
Continuous
 62
     0
370
    -2
390
5F
100
AcDbCircle
 10
0.0
 20
0.0
 30
0.0
 40
0.3333333333333333
  0
CIRCLE
  5
C8
330
C6
100
AcDbEntity
  8
0
  6
Continuous
 62
     0
370
    -2
390
5F
100
AcDbCircle
 10
0.0
 20
0.0
 30
0.0
 40
0.5
  0
ENDBLK
  5
CA
330
C6
100
AcDbEntity
  8
0
100
AcDbBlockEnd
  0
BLOCK
  5
CE
330
CB
100
AcDbEntity
  8
0
100
AcDbBlockBegin
  2
CDWK_PTTYP21
 70
     0
 10
0.0
 20
0.0
 30
0.0
  3
CDWK_PTTYP21
  1

  0
CIRCLE
  5
CC
330
CB
100
AcDbEntity
  8
0
  6
Continuous
 62
     0
370
    -2
390
5F
100
AcDbCircle
 10
0.0
 20
0.0
 30
0.0
 40
0.5
  0
LINE
  5
CD
330
CB
100
AcDbEntity
  8
0
  6
Continuous
 62
     0
370
    -2
390
5F
100
AcDbLine
 10
-0.5
 20
0.0
 30
0.0
 11
0.5
 21
0.0
 31
0.0
  0
ENDBLK
  5
CF
330
CB
100
AcDbEntity
  8
0
100
AcDbBlockEnd
  0
BLOCK
  5
D5
330
D0
100
AcDbEntity
  8
0
100
AcDbBlockBegin
  2
CDWK_PTTYP25
 70
     0
 10
0.0
 20
0.0
 30
0.0
  3
CDWK_PTTYP25
  1

  0
LINE
  5
D1
330
D0
100
AcDbEntity
  8
0
  6
Continuous
 62
     0
370
    -2
390
5F
100
AcDbLine
 10
0.0
 20
0.5
 30
0.0
 11
-0.4330127018922193
 21
-0.25
 31
0.0
  0
LINE
  5
D2
330
D0
100
AcDbEntity
  8
0
  6
Continuous
 62
     0
370
    -2
390
5F
100
AcDbLine
 10
-0.4330127018922193
 20
-0.25
 30
0.0
 11
0.4330127018922193
 21
-0.25
 31
0.0
  0
LINE
  5
D3
330
D0
100
AcDbEntity
  8
0
  6
Continuous
 62
     0
370
    -2
390
5F
100
AcDbLine
 10
0.4330127018922193
 20
-0.25
 30
0.0
 11
0.0
 21
0.5
 31
0.0
  0
CIRCLE
  5
D4
330
D0
100
AcDbEntity
  8
0
  6
Continuous
 62
     0
370
    -2
390
5F
100
AcDbCircle
 10
0.0
 20
0.0
 30
0.0
 40
0.5
  0
ENDBLK
  5
D6
330
D0
100
AcDbEntity
  8
0
100
AcDbBlockEnd
  0
BLOCK
  5
DC
330
D7
100
AcDbEntity
  8
0
100
AcDbBlockBegin
  2
CDWK_PTTYP26
 70
     0
 10
0.0
 20
0.0
 30
0.0
  3
CDWK_PTTYP26
  1

  0
LINE
  5
D8
330
D7
100
AcDbEntity
  8
0
  6
Continuous
 62
     0
370
    -2
390
5F
100
AcDbLine
 10
-0.5
 20
-0.289
 30
0.0
 11
0.5
 21
-0.289
 31
0.0
  0
LINE
  5
D9
330
D7
100
AcDbEntity
  8
0
  6
Continuous
 62
     0
370
    -2
390
5F
100
AcDbLine
 10
0.5
 20
-0.289
 30
0.0
 11
0.0
 21
0.577
 31
0.0
  0
LINE
  5
DA
330
D7
100
AcDbEntity
  8
0
  6
Continuous
 62
     0
370
    -2
390
5F
100
AcDbLine
 10
0.0
 20
0.577
 30
0.0
 11
-0.5
 21
-0.289
 31
0.0
  0
CIRCLE
  5
DB
330
D7
100
AcDbEntity
  8
0
  6
Continuous
 62
     0
370
    -2
390
5F
100
AcDbCircle
 10
0.0
 20
0.0
 30
0.0
 40
0.125
  0
ENDBLK
  5
DD
330
D7
100
AcDbEntity
  8
0
100
AcDbBlockEnd
  0
BLOCK
  5
E4
330
DE
100
AcDbEntity
  8
0
100
AcDbBlockBegin
  2
CDWK_PTTYP27
 70
     0
 10
0.0
 20
0.0
 30
0.0
  3
CDWK_PTTYP27
  1

  0
LINE
  5
DF
330
DE
100
AcDbEntity
  8
0
  6
Continuous
 62
     0
370
    -2
390
5F
100
AcDbLine
 10
0.0
 20
0.5
 30
0.0
 11
-0.4330127018922193
 21
-0.25
 31
0.0
  0
LINE
  5
E0
330
DE
100
AcDbEntity
  8
0
  6
Continuous
 62
     0
370
    -2
390
5F
100
AcDbLine
 10
-0.4330127018922193
 20
-0.25
 30
0.0
 11
0.4330127018922193
 21
-0.25
 31
0.0
  0
LINE
  5
E1
330
DE
100
AcDbEntity
  8
0
  6
Continuous
 62
     0
370
    -2
390
5F
100
AcDbLine
 10
0.4330127018922193
 20
-0.25
 30
0.0
 11
0.0
 21
0.5
 31
0.0
  0
CIRCLE
  5
E2
330
DE
100
AcDbEntity
  8
0
  6
Continuous
 62
     0
370
    -2
390
5F
100
AcDbCircle
 10
0.0
 20
0.0
 30
0.0
 40
0.125
  0
CIRCLE
  5
E3
330
DE
100
AcDbEntity
  8
0
  6
Continuous
 62
     0
370
    -2
390
5F
100
AcDbCircle
 10
0.0
 20
0.0
 30
0.0
 40
0.5
  0
ENDBLK
  5
E5
330
DE
100
AcDbEntity
  8
0
100
AcDbBlockEnd
  0
BLOCK
  5
EB
330
E6
100
AcDbEntity
  8
0
100
AcDbBlockBegin
  2
CDWK_PTTYP28
 70
     0
 10
0.0
 20
0.0
 30
0.0
  3
CDWK_PTTYP28
  1

  0
LINE
  5
E7
330
E6
100
AcDbEntity
  8
0
  6
Continuous
 62
     0
370
    -2
390
5F
100
AcDbLine
 10
-0.5
 20
0.5
 30
0.0
 11
0.5
 21
0.5
 31
0.0
  0
LINE
  5
E8
330
E6
100
AcDbEntity
  8
0
  6
Continuous
 62
     0
370
    -2
390
5F
100
AcDbLine
 10
0.5
 20
0.5
 30
0.0
 11
-0.5
 21
-0.5
 31
0.0
  0
LINE
  5
E9
330
E6
100
AcDbEntity
  8
0
  6
Continuous
 62
     0
370
    -2
390
5F
100
AcDbLine
 10
0.5
 20
-0.5
 30
0.0
 11
-0.5
 21
-0.5
 31
0.0
  0
LINE
  5
EA
330
E6
100
AcDbEntity
  8
0
  6
Continuous
 62
     0
370
    -2
390
5F
100
AcDbLine
 10
-0.5
 20
0.5
 30
0.0
 11
0.5
 21
-0.5
 31
0.0
  0
ENDBLK
  5
EC
330
E6
100
AcDbEntity
  8
0
100
AcDbBlockEnd
  0
BLOCK
  5
F1
330
ED
100
AcDbEntity
  8
0
100
AcDbBlockBegin
  2
CDWK_PTTYP29
 70
     0
 10
0.0
 20
0.0
 30
0.0
  3
CDWK_PTTYP29
  1

  0
CIRCLE
  5
EE
330
ED
100
AcDbEntity
  8
0
  6
Continuous
 62
     0
370
    -2
390
5F
100
AcDbCircle
 10
0.0
 20
0.0
 30
0.0
 40
0.2
  0
CIRCLE
  5
EF
330
ED
100
AcDbEntity
  8
0
  6
Continuous
 62
     0
370
    -2
390
5F
100
AcDbCircle
 10
0.0
 20
0.0
 30
0.0
 40
0.35
  0
CIRCLE
  5
F0
330
ED
100
AcDbEntity
  8
0
  6
Continuous
 62
     0
370
    -2
390
5F
100
AcDbCircle
 10
0.0
 20
0.0
 30
0.0
 40
0.5
  0
ENDBLK
  5
F2
330
ED
100
AcDbEntity
  8
0
100
AcDbBlockEnd
  0
BLOCK
  5
F8
330
F3
100
AcDbEntity
  8
0
100
AcDbBlockBegin
  2
CDWK_PTTYP30
 70
     0
 10
0.0
 20
0.0
 30
0.0
  3
CDWK_PTTYP30
  1

  0
LINE
  5
F4
330
F3
100
AcDbEntity
  8
0
  6
Continuous
 62
     0
370
    -2
390
5F
100
AcDbLine
 10
-0.5
 20
0.5
 30
0.0
 11
-0.1
 21
0.1
 31
0.0
  0
LINE
  5
F5
330
F3
100
AcDbEntity
  8
0
  6
Continuous
 62
     0
370
    -2
390
5F
100
AcDbLine
 10
0.5
 20
0.5
 30
0.0
 11
0.1
 21
0.1
 31
0.0
  0
LINE
  5
F6
330
F3
100
AcDbEntity
  8
0
  6
Continuous
 62
     0
370
    -2
390
5F
100
AcDbLine
 10
0.5
 20
-0.5
 30
0.0
 11
0.1
 21
-0.1
 31
0.0
  0
LINE
  5
F7
330
F3
100
AcDbEntity
  8
0
  6
Continuous
 62
     0
370
    -2
390
5F
100
AcDbLine
 10
-0.5
 20
-0.5
 30
0.0
 11
-0.1
 21
-0.1
 31
0.0
  0
ENDBLK
  5
F9
330
F3
100
AcDbEntity
  8
0
100
AcDbBlockEnd
  0
BLOCK
  5
100
330
FA
100
AcDbEntity
  8
0
100
AcDbBlockBegin
  2
CDWK_PTTYP31
 70
     0
 10
0.0
 20
0.0
 30
0.0
  3
CDWK_PTTYP31
  1

  0
LINE
  5
FB
330
FA
100
AcDbEntity
  8
0
  6
Continuous
 62
     0
370
    -2
390
5F
100
AcDbLine
 10
-0.5
 20
0.0
 30
0.0
 11
-0.1
 21
0.0
 31
0.0
  0
LINE
  5
FC
330
FA
100
AcDbEntity
  8
0
  6
Continuous
 62
     0
370
    -2
390
5F
100
AcDbLine
 10
0.1
 20
0.0
 30
0.0
 11
0.5
 21
0.0
 31
0.0
  0
LINE
  5
FD
330
FA
100
AcDbEntity
  8
0
  6
Continuous
 62
     0
370
    -2
390
5F
100
AcDbLine
 10
0.0
 20
0.5
 30
0.0
 11
0.0
 21
0.1
 31
0.0
  0
LINE
  5
FE
330
FA
100
AcDbEntity
  8
0
  6
Continuous
 62
     0
370
    -2
390
5F
100
AcDbLine
 10
0.0
 20
-0.1
 30
0.0
 11
0.0
 21
-0.5
 31
0.0
  0
CIRCLE
  5
FF
330
FA
100
AcDbEntity
  8
0
  6
Continuous
 62
     0
370
    -2
390
5F
100
AcDbCircle
 10
0.0
 20
0.0
 30
0.0
 40
0.1
  0
ENDBLK
  5
101
330
FA
100
AcDbEntity
  8
0
100
AcDbBlockEnd
  0
BLOCK
  5
109
330
102
100
AcDbEntity
  8
0
100
AcDbBlockBegin
  2
CDWK_PTTYP32
 70
     0
 10
0.0
 20
0.0
 30
0.0
  3
CDWK_PTTYP32
  1

  0
CIRCLE
  5
103
330
102
100
AcDbEntity
  8
0
  6
Continuous
 62
     0
370
    -2
390
5F
100
AcDbCircle
 10
0.0
 20
0.0
 30
0.0
 40
0.2
  0
CIRCLE
  5
104
330
102
100
AcDbEntity
  8
0
  6
Continuous
 62
     0
370
    -2
390
5F
100
AcDbCircle
 10
0.0
 20
0.0
 30
0.0
 40
0.5
  0
LINE
  5
105
330
102
100
AcDbEntity
  8
0
  6
Continuous
 62
     0
370
    -2
390
5F
100
AcDbLine
 10
0.1414213562373095
 20
0.1414213562373095
 30
0.0
 11
0.3535533905932738
 21
0.3535533905932738
 31
0.0
  0
LINE
  5
106
330
102
100
AcDbEntity
  8
0
  6
Continuous
 62
     0
370
    -2
390
5F
100
AcDbLine
 10
-0.1414213562373095
 20
0.1414213562373095
 30
0.0
 11
-0.3535533905932738
 21
0.3535533905932738
 31
0.0
  0
LINE
  5
107
330
102
100
AcDbEntity
  8
0
  6
Continuous
 62
     0
370
    -2
390
5F
100
AcDbLine
 10
0.1414213562373095
 20
-0.1414213562373095
 30
0.0
 11
0.3535533905932738
 21
-0.3535533905932738
 31
0.0
  0
LINE
  5
108
330
102
100
AcDbEntity
  8
0
  6
Continuous
 62
     0
370
    -2
390
5F
100
AcDbLine
 10
-0.1414213562373095
 20
-0.1414213562373095
 30
0.0
 11
-0.3535533905932738
 21
-0.3535533905932738
 31
0.0
  0
ENDBLK
  5
10A
330
102
100
AcDbEntity
  8
0
100
AcDbBlockEnd
  0
BLOCK
  5
10F
330
10B
100
AcDbEntity
  8
0
100
AcDbBlockBegin
  2
CDWK_PTTYP33
 70
     0
 10
0.0
 20
0.0
 30
0.0
  3
CDWK_PTTYP33
  1

  0
LINE
  5
10C
330
10B
100
AcDbEntity
  8
0
  6
Continuous
 62
     0
370
    -2
390
5F
100
AcDbLine
 10
0.0
 20
-0.5
 30
0.0
 11
0.0
 21
0.5
 31
0.0
  0
LINE
  5
10D
330
10B
100
AcDbEntity
  8
0
  6
Continuous
 62
     0
370
    -2
390
5F
100
AcDbLine
 10
0.5
 20
0.0
 30
0.0
 11
-0.5
 21
0.0
 31
0.0
  0
CIRCLE
  5
10E
330
10B
100
AcDbEntity
  8
0
  6
Continuous
 62
     0
370
    -2
390
5F
100
AcDbCircle
 10
0.0
 20
0.0
 30
0.0
 40
0.5
  0
ENDBLK
  5
110
330
10B
100
AcDbEntity
  8
0
100
AcDbBlockEnd
  0
BLOCK
  5
115
330
111
100
AcDbEntity
  8
0
100
AcDbBlockBegin
  2
CDWK_PTTYP34
 70
     0
 10
0.0
 20
0.0
 30
0.0
  3
CDWK_PTTYP34
  1

  0
CIRCLE
  5
112
330
111
100
AcDbEntity
  8
0
  6
Continuous
 62
     0
370
    -2
390
5F
100
AcDbCircle
 10
0.0
 20
0.0
 30
0.0
 40
0.5
  0
LINE
  5
113
330
111
100
AcDbEntity
  8
0
  6
Continuous
 62
     0
370
    -2
390
5F
100
AcDbLine
 10
-0.4
 20
-0.3
 30
0.0
 11
0.3
 21
0.4
 31
0.0
  0
LINE
  5
114
330
111
100
AcDbEntity
  8
0
  6
Continuous
 62
     0
370
    -2
390
5F
100
AcDbLine
 10
-0.3
 20
-0.4
 30
0.0
 11
0.4
 21
0.3
 31
0.0
  0
ENDBLK
  5
116
330
111
100
AcDbEntity
  8
0
100
AcDbBlockEnd
  0
BLOCK
  5
11B
330
117
100
AcDbEntity
  8
0
100
AcDbBlockBegin
  2
CDWK_PTTYP35
 70
     0
 10
0.0
 20
0.0
 30
0.0
  3
CDWK_PTTYP35
  1

  0
LINE
  5
118
330
117
100
AcDbEntity
  8
0
  6
Continuous
 62
     0
370
    -2
390
5F
100
AcDbLine
 10
0.0
 20
0.2
 30
0.0
 11
0.0
 21
0.5
 31
0.0
  0
LINE
  5
119
330
117
100
AcDbEntity
  8
0
  6
Continuous
 62
     0
370
    -2
390
5F
100
AcDbLine
 10
0.0
 20
-0.2
 30
0.0
 11
0.0
 21
-0.5
 31
0.0
  0
CIRCLE
  5
11A
330
117
100
AcDbEntity
  8
0
  6
Continuous
 62
     0
370
    -2
390
5F
100
AcDbCircle
 10
0.0
 20
0.0
 30
0.0
 40
0.2
  0
ENDBLK
  5
11C
330
117
100
AcDbEntity
  8
0
100
AcDbBlockEnd
  0
BLOCK
  5
123
330
11D
100
AcDbEntity
  8
0
100
AcDbBlockBegin
  2
CDWK_PTTYP36
 70
     0
 10
0.0
 20
0.0
 30
0.0
  3
CDWK_PTTYP36
  1

  0
LINE
  5
11E
330
11D
100
AcDbEntity
  8
0
  6
Continuous
 62
     0
370
    -2
390
5F
100
AcDbLine
 10
-0.5
 20
0.2
 30
0.0
 11
0.5
 21
0.2
 31
0.0
  0
LINE
  5
11F
330
11D
100
AcDbEntity
  8
0
  6
Continuous
 62
     0
370
    -2
390
5F
100
AcDbLine
 10
0.5
 20
0.2
 30
0.0
 11
0.5
 21
-0.2
 31
0.0
  0
LINE
  5
120
330
11D
100
AcDbEntity
  8
0
  6
Continuous
 62
     0
370
    -2
390
5F
100
AcDbLine
 10
0.5
 20
-0.2
 30
0.0
 11
-0.5
 21
-0.2
 31
0.0
  0
LINE
  5
121
330
11D
100
AcDbEntity
  8
0
  6
Continuous
 62
     0
370
    -2
390
5F
100
AcDbLine
 10
-0.5
 20
-0.2
 30
0.0
 11
-0.5
 21
0.2
 31
0.0
  0
HATCH
  5
122
330
11D
100
AcDbEntity
  8
0
  6
Continuous
 62
     0
370
    -2
390
5F
100
AcDbHatch
 10
0.0
 20
0.0
 30
0.0
210
0.0
220
0.0
230
1.0
  2
SOLID
 70
     1
 71
     0
 91
        1
 92
        3
 72
     0
 73
     1
 93
        3
 10
-0.5
 20
-0.2
 10
0.5
 20
-0.2
 10
0.5
 20
0.2
 97
        0
 75
     0
 76
     1
 98
        0
  0
ENDBLK
  5
124
330
11D
100
AcDbEntity
  8
0
100
AcDbBlockEnd
  0
BLOCK
  5
128
330
125
100
AcDbEntity
  8
0
100
AcDbBlockBegin
  2
CDWK_PTTYP37
 70
     0
 10
0.0
 20
0.0
 30
0.0
  3
CDWK_PTTYP37
  1

  0
HATCH
  5
126
330
125
100
AcDbEntity
  8
0
  6
Continuous
 62
     0
370
    -2
390
5F
100
AcDbHatch
 10
0.0
 20
0.0
 30
0.0
210
0.0
220
0.0
230
1.0
  2
SOLID
 70
     1
 71
     0
 91
        1
 92
        3
 72
     0
 73
     1
 93
      202
 10
-0.3535533905932738
 20
-0.3535533905932738
 10
-0.3485533905932738
 20
-0.3535533905932737
 10
-0.3435533905932738
 20
-0.3584836591895546
 10
-0.3385533905932738
 20
-0.3632782236961988
 10
-0.3335533905932738
 20
-0.367942389128785
 10
-0.3285533905932738
 20
-0.372481054046687
 10
-0.3235533905932738
 20
-0.3768987523588579
 10
-0.3185533905932738
 20
-0.3811996897107819
 10
-0.3135533905932738
 20
-0.3853877752881235
 10
-0.3085533905932737
 20
-0.3894666497242888
 10
-0.3035533905932737
 20
-0.3934397096803965
 10
-0.2985533905932737
 20
-0.3973101295704999
 10
-0.2935533905932737
 20
-0.4010808808273714
 10
-0.2885533905932737
 20
-0.4047547490409382
 10
-0.2835533905932737
 20
-0.4083343492496384
 10
-0.2785533905932737
 20
-0.4118221396222626
 10
-0.2735533905932737
 20
-0.4152204337324827
 10
-0.2685533905932737
 20
-0.4185314115988474
 10
-0.2635533905932737
 20
-0.4217571296384408
 10
-0.2585533905932737
 20
-0.4248995296617653
 10
-0.2535533905932737
 20
-0.4279604470190231
 10
-0.2485533905932737
 20
-0.4309416179932669
 10
-0.2435533905932737
 20
-0.4338446865234004
 10
-0.2385533905932737
 20
-0.4366712103293738
 10
-0.2335533905932737
 20
-0.439422666502825
 10
-0.2285533905932737
 20
-0.4421004566186126
 10
-0.2235533905932737
 20
-0.4447059114159811
 10
-0.2185533905932737
 20
-0.4472402950923041
 10
-0.2135533905932737
 20
-0.4497048092473372
 10
-0.2085533905932737
 20
-0.4521005965115692
 10
-0.2035533905932737
 20
-0.4544287438884664
 10
-0.1985533905932736
 20
-0.456690285837111
 10
-0.1935533905932736
 20
-0.45888620711884
 10
-0.1885533905932736
 20
-0.4610174454289638
 10
-0.1835533905932736
 20
-0.4630848938324164
 10
-0.1785533905932736
 20
-0.4650894030202291
 10
-0.1735533905932736
 20
-0.4670317834019928
 10
-0.1685533905932736
 20
-0.46891280704794
 10
-0.1635533905932736
 20
-0.4707332094929264
 10
-0.1585533905932736
 20
-0.4724936914133818
 10
-0.1535533905932736
 20
-0.4741949201872336
 10
-0.1485533905932736
 20
-0.4758375313458466
 10
-0.1435533905932736
 20
-0.4774221299261716
 10
-0.1385533905932736
 20
-0.4789492917305286
 10
-0.1335533905932736
 20
-0.4804195645007682
 10
-0.1285533905932736
 20
-0.4818334690129366
 10
-0.1235533905932736
 20
-0.4831915000980183
 10
-0.1185533905932736
 20
-0.4844941275938295
 10
-0.1135533905932736
 20
-0.4857417972326848
 10
-0.1085533905932736
 20
-0.4869349314690531
 10
-0.1035533905932736
 20
-0.4880739302510473
 10
-0.0985533905932736
 20
-0.489159171739258
 10
-0.0935533905932736
 20
-0.4901910129761353
 10
-0.0885533905932736
 20
-0.4911697905088447
 10
-0.0835533905932735
 20
-0.4920958209682695
 10
-0.0785533905932735
 20
-0.4929694016065986
 10
-0.0735533905932735
 20
-0.4937908107957261
 10
-0.0685533905932735
 20
-0.494560308488493
 10
-0.0635533905932735
 20
-0.4952781366446192
 10
-0.0585533905932735
 20
-0.4959445196230107
 10
-0.0535533905932735
 20
-0.4965596645419678
 10
-0.0485533905932735
 20
-0.4971237616086806
 10
-0.0435533905932735
 20
-0.4976369844192622
 10
-0.0385533905932735
 20
-0.4980994902304456
 10
-0.0335533905932735
 20
-0.4985114202039533
 10
-0.0285533905932735
 20
-0.4988728996244386
 10
-0.0235533905932735
 20
-0.4991840380917923
 10
-0.0185533905932735
 20
-0.49944492968851
 10
-0.0135533905932735
 20
-0.4996556531227215
 10
-0.0085533905932735
 20
-0.4998162718473921
 10
-0.0035533905932735
 20
-0.4999268341561182
 10
0.0014466094067265
 20
-0.499987373255857
 10
0.0064466094067265
 20
-0.4999979073168451
 10
0.0114466094067265
 20
-0.4999584394998819
 10
0.0164466094067265
 20
-0.4998689579610739
 10
0.0214466094067265
 20
-0.4997294358340547
 10
0.0264466094067265
 20
-0.4995398311896213
 10
0.0314466094067265
 20
-0.4993000869726422
 10
0.0364466094067265
 20
-0.4990101309160174
 10
0.0414466094067265
 20
-0.4986698754313855
 10
0.0464466094067265
 20
-0.498279217476192
 10
0.0514466094067265
 20
-0.4978380383966446
 10
0.0564466094067265
 20
-0.497346203745994
 10
0.0614466094067265
 20
-0.4968035630774849
 10
0.0664466094067264
 20
-0.4962099497112257
 10
0.0714466094067265
 20
-0.4955651804741228
 10
0.0764466094067265
 20
-0.4948690554119167
 10
0.0814466094067265
 20
-0.4941213574722463
 10
0.0864466094067265
 20
-0.4933218521575424
 10
0.0914466094067265
 20
-0.4924702871464235
 10
0.0964466094067265
 20
-0.4915663918821278
 10
0.1014466094067265
 20
-0.4906098771263643
 10
0.1064466094067265
 20
-0.4896004344768079
 10
0.1114466094067265
 20
-0.4885377358462822
 10
0.1164466094067265
 20
-0.4874214329014929
 10
0.1214466094067265
 20
-0.4862511564589613
 10
0.1264466094067265
 20
-0.4850265158355881
 10
0.1314466094067265
 20
-0.4837470981510305
 10
0.1364466094067265
 20
-0.482412467578809
 10
0.1414466094067265
 20
-0.4810221645427664
 10
0.1464466094067265
 20
-0.4795757048551781
 10
0.1514466094067265
 20
-0.4780725787924608
 10
0.1564466094067265
 20
-0.4765122501040308
 10
0.1614466094067265
 20
-0.4748941549494363
 10
0.1664466094067265
 20
-0.4732177007584056
 10
0.1714466094067265
 20
-0.4714822650079264
 10
0.1764466094067265
 20
-0.4696871939098801
 10
0.1814466094067266
 20
-0.4678318010021017
 10
0.1864466094067266
 20
-0.4659153656350076
 10
0.1914466094067266
 20
-0.4639371313451162
 10
0.1964466094067266
 20
-0.4618963041058764
 10
0.2014466094067266
 20
-0.4597920504451997
 10
0.2064466094067266
 20
-0.4576234954179405
 10
0.2114466094067266
 20
-0.4553897204202862
 10
0.2164466094067266
 20
-0.4530897608315588
 10
0.2214466094067266
 20
-0.45072260346729
 10
0.2264466094067266
 20
-0.4482871838255748
 10
0.2314466094067266
 20
-0.4457823831065977
 10
0.2364466094067266
 20
-0.4432070249828292
 10
0.2414466094067266
 20
-0.4405598720946596
 10
0.2464466094067266
 20
-0.4378396222431172
 10
0.2514466094067266
 20
-0.4350449042477435
 10
0.2564466094067266
 20
-0.4321742734336012
 10
0.2614466094067266
 20
-0.4292262067066663
 10
0.2664466094067266
 20
-0.4261990971714118
 10
0.2714466094067266
 20
-0.4230912482380831
 10
0.2764466094067266
 20
-0.4199008671598476
 10
0.2814466094067266
 20
-0.4166260579314797
 10
0.2864466094067266
 20
-0.4132648134712868
 10
0.2914466094067266
 20
-0.4098150069963156
 10
0.2964466094067266
 20
-0.4062743824871597
 10
0.3014466094067266
 20
-0.4026405441224911
 10
0.3064466094067266
 20
-0.3989109445442534
 10
0.3114466094067266
 20
-0.3950828717916294
 10
0.3164466094067266
 20
-0.391153434714632
 10
0.3214466094067266
 20
-0.3871195466454601
 10
0.3264466094067267
 20
-0.3829779070663467
 10
0.3314466094067267
 20
-0.3787249809648844
 10
0.3364466094067267
 20
-0.3743569755097196
 10
0.3414466094067267
 20
-0.3698698136084067
 10
0.3464466094067267
 20
-0.3652591038217257
 10
0.3514466094067267
 20
-0.3605201060004601
 10
0.3564466094067267
 20
-0.3556476918757041
 10
0.3614466094067267
 20
-0.3506362996645505
 10
0.3664466094067267
 20
-0.34547988153926
 10
0.3714466094067267
 20
-0.3401718425359658
 10
0.3764466094067267
 20
-0.334704969129899
 10
0.3814466094067267
 20
-0.3290713452523318
 10
0.3864466094067267
 20
-0.3232622529342269
 10
0.3914466094067267
 20
-0.3172680539828188
 10
0.3964466094067267
 20
-0.3110780480586465
 10
0.4014466094067267
 20
-0.304680301118911
 10
0.4064466094067267
 20
-0.2980614362775617
 10
0.4114466094067267
 20
-0.291206376478565
 10
0.4164466094067267
 20
-0.2840980246459106
 10
0.4214466094067267
 20
-0.276716861635935
 10
0.4264466094067267
 20
-0.2690404345439063
 10
0.4314466094067267
 20
-0.2610426963649944
 10
0.4364466094067267
 20
-0.2526931404518915
 10
0.4414466094067268
 20
-0.2439556458403291
 10
0.4464466094067268
 20
-0.2347869056044327
 10
0.4514466094067268
 20
-0.2251342376211081
 10
0.4564466094067268
 20
-0.2149324518428296
 10
0.4614466094067268
 20
-0.2040992228331676
 10
0.4664466094067268
 20
-0.1925279893081412
 10
0.4714466094067268
 20
-0.1800765408735088
 10
0.4764466094067268
 20
-0.1665475742210051
 10
0.4814466094067268
 20
-0.1516529867323223
 10
0.4864466094067268
 20
-0.1349413290684758
 10
0.4914466094067268
 20
-0.1156274024472547
 10
0.4964466094067268
 20
-0.0920881648347501
 10
0.5
 20
0.0
 10
0.495
 20
0.0
 10
0.49
 20
0.0705336798983295
 10
0.485
 20
0.0994987437106621
 10
0.48
 20
0.1215524578114322
 10
0.475
 20
0.14
 10
0.47
 20
0.15612494995996
 10
0.465
 20
0.1705872210923199
 10
0.46
 20
0.1837797594948911
 10
0.455
 20
0.1959591794226544
 10
0.45
 20
0.2073041244162789
 10
0.445
 20
0.2179449471770338
 10
0.4399999999999999
 20
0.2279802623035601
 10
0.4349999999999999
 20
0.2374868417407584
 10
0.4299999999999999
 20
0.2465258607124211
 10
0.4249999999999999
 20
0.2551470164434615
 10
0.4199999999999999
 20
0.2633913438213186
 10
0.4149999999999999
 20
0.2712931993250108
 10
0.4099999999999999
 20
0.2788816953476869
 10
0.4049999999999999
 20
0.2861817604250838
 10
0.3999999999999999
 20
0.2932149382279151
 10
0.3949999999999999
 20
0.3000000000000002
 10
0.3899999999999999
 20
0.3065534211193868
 10
0.3849999999999999
 20
0.3128897569432404
 10
0.3799999999999999
 20
0.3190219428189855
 10
0.3749999999999999
 20
0.3249615361854385
 10
0.3699999999999999
 20
0.330718913883074
 10
0.3649999999999999
 20
0.3363034344160049
 10
0.3599999999999999
 20
0.3417235724968357
 10
0.3549999999999999
 20
0.3469870314579496
 10
0.3535533905932738
 20
0.3535533905932738
 97
        0
 75
     0
 76
     1
 98
        0
  0
CIRCLE
  5
127
330
125
100
AcDbEntity
  8
0
  6
Continuous
 62
     0
370
    -2
390
5F
100
AcDbCircle
 10
0.0
 20
0.0
 30
0.0
 40
0.5
  0
ENDBLK
  5
129
330
125
100
AcDbEntity
  8
0
100
AcDbBlockEnd
  0
BLOCK
  5
12E
330
12A
100
AcDbEntity
  8
0
100
AcDbBlockBegin
  2
CDWK_PTTYP38
 70
     0
 10
0.0
 20
0.0
 30
0.0
  3
CDWK_PTTYP38
  1

  0
HATCH
  5
12B
330
12A
100
AcDbEntity
  8
0
  6
Continuous
 62
     0
370
    -2
390
5F
100
AcDbHatch
 10
0.0
 20
0.0
 30
0.0
210
0.0
220
0.0
230
1.0
  2
SOLID
 70
     1
 71
     0
 91
        1
 92
        3
 72
     0
 73
     1
 93
      102
 10
0.0
 20
0.0
 10
0.0
 20
0.5
 10
0.005
 20
0.5
 10
0.01
 20
0.4999749993749688
 10
0.015
 20
0.4998999899979995
 10
0.02
 20
0.4997749493522059
 10
0.025
 20
0.4995998398718718
 10
0.03
 20
0.4993746088859545
 10
0.035
 20
0.4990991885387112
 10
0.04
 20
0.4987734956871706
 10
0.045
 20
0.4983974317750845
 10
0.05
 20
0.4979708826829135
 10
0.055
 20
0.49749371855331
 10
0.06
 20
0.4969657935914704
 10
0.065
 20
0.4963869458396343
 10
0.07
 20
0.4957569969249047
 10
0.075
 20
0.4950757517794626
 10
0.08
 20
0.4943429983321297
 10
0.085
 20
0.4935585071701227
 10
0.09
 20
0.4927220311697053
 10
0.095
 20
0.4918333050943175
 10
0.1
 20
0.4908920451586071
 10
0.105
 20
0.4898979485566356
 10
0.11
 20
0.4888506929523574
 10
0.115
 20
0.4877499359302879
 10
0.12
 20
0.4865953144040744
 10
0.125
 20
0.4853864439804639
 10
0.13
 20
0.4841229182759271
 10
0.135
 20
0.4828043081829325
 10
0.14
 20
0.4814301610825811
 10
0.145
 20
0.48
 10
0.15
 20
0.478513322698543
 10
0.1550000000000001
 20
0.4769696007084728
 10
0.1600000000000001
 20
0.4753682782853731
 10
0.1650000000000001
 20
0.4737087712930804
 10
0.1700000000000001
 20
0.4719904660054056
 10
0.1750000000000001
 20
0.4702127178203498
 10
0.1800000000000001
 20
0.4683748498798799
 10
0.1850000000000001
 20
0.466476151587624
 10
0.1900000000000001
 20
0.4645158770160606
 10
0.1950000000000001
 20
0.4624932431938871
 10
0.2000000000000001
 20
0.460407428263272
 10
0.2050000000000001
 20
0.4582575694955839
 10
0.2100000000000001
 20
0.4560427611529427
 10
0.2150000000000001
 20
0.4537620521815371
 10
0.2200000000000001
 20
0.4514144437210665
 10
0.2250000000000001
 20
0.4489988864128729
 10
0.2300000000000001
 20
0.4465142774872937
 10
0.2350000000000001
 20
0.4439594576084622
 10
0.2400000000000001
 20
0.4413332074521472
 10
0.2450000000000001
 20
0.4386342439892261
 10
0.2500000000000001
 20
0.4358612164439502
 10
0.2550000000000001
 20
0.4330127018922192
 10
0.2600000000000001
 20
0.4300872004605577
 10
0.2650000000000001
 20
0.4270831300812524
 10
0.2700000000000001
 20
0.423998820753077
 10
0.2750000000000001
 20
0.4208325082500162
 10
0.2800000000000001
 20
0.4175823272122516
 10
0.2850000000000001
 20
0.4142463035441595
 10
0.2900000000000001
 20
0.4108223460329293
 10
0.2950000000000002
 20
0.4073082370883259
 10
0.3000000000000002
 20
0.403701622488689
 10
0.3050000000000002
 20
0.3999999999999999
 10
0.3100000000000002
 20
0.3962007067131506
 10
0.3150000000000002
 20
0.3923009049186605
 10
0.3200000000000002
 20
0.3882975663070783
 10
0.3250000000000002
 20
0.3841874542459708
 10
0.3300000000000002
 20
0.3799671038392664
 10
0.3350000000000002
 20
0.3756327994198588
 10
0.3400000000000002
 20
0.3711805490593491
 10
0.3450000000000002
 20
0.366606055596467
 10
0.3500000000000002
 20
0.3619046835839512
 10
0.3550000000000002
 20
0.3570714214271423
 10
0.3600000000000002
 20
0.3521008378291649
 10
0.3650000000000002
 20
0.3469870314579492
 10
0.3700000000000002
 20
0.3417235724968353
 10
0.3750000000000002
 20
0.3363034344160045
 10
0.3800000000000002
 20
0.3307189138830736
 10
0.3850000000000002
 20
0.3249615361854382
 10
0.3900000000000002
 20
0.3190219428189851
 10
0.3950000000000002
 20
0.31288975694324
 10
0.4000000000000002
 20
0.3065534211193863
 10
0.4050000000000002
 20
0.2999999999999997
 10
0.4100000000000003
 20
0.2932149382279147
 10
0.4150000000000003
 20
0.2861817604250834
 10
0.4200000000000003
 20
0.2788816953476864
 10
0.4250000000000003
 20
0.2712931993250103
 10
0.4300000000000003
 20
0.263391343821318
 10
0.4350000000000003
 20
0.255147016443461
 10
0.4400000000000003
 20
0.2465258607124206
 10
0.4450000000000003
 20
0.2374868417407578
 10
0.4500000000000003
 20
0.2279802623035594
 10
0.4550000000000003
 20
0.2179449471770331
 10
0.4600000000000003
 20
0.2073041244162782
 10
0.4650000000000003
 20
0.1959591794226536
 10
0.4700000000000003
 20
0.1837797594948903
 10
0.4750000000000003
 20
0.170587221092319
 10
0.4800000000000003
 20
0.156124949959959
 10
0.4850000000000003
 20
0.1399999999999989
 10
0.4900000000000003
 20
0.1215524578114309
 10
0.4950000000000003
 20
0.0994987437106604
 10
0.5
 20
0.0
 97
        0
 75
     0
 76
     1
 98
        0
  0
HATCH
  5
12C
330
12A
100
AcDbEntity
  8
0
  6
Continuous
 62
     0
370
    -2
390
5F
100
AcDbHatch
 10
0.0
 20
0.0
 30
0.0
210
0.0
220
0.0
230
1.0
  2
SOLID
 70
     1
 71
     0
 91
        1
 92
        3
 72
     0
 73
     1
 93
      102
 10
0.0
 20
0.0
 10
-0.5
 20
0.0
 10
-0.495
 20
0.0
 10
-0.49
 20
-0.0705336798983295
 10
-0.485
 20
-0.0994987437106621
 10
-0.48
 20
-0.1215524578114322
 10
-0.475
 20
-0.14
 10
-0.47
 20
-0.15612494995996
 10
-0.465
 20
-0.1705872210923199
 10
-0.46
 20
-0.1837797594948911
 10
-0.455
 20
-0.1959591794226544
 10
-0.45
 20
-0.2073041244162789
 10
-0.445
 20
-0.2179449471770338
 10
-0.4399999999999999
 20
-0.2279802623035601
 10
-0.4349999999999999
 20
-0.2374868417407584
 10
-0.4299999999999999
 20
-0.2465258607124211
 10
-0.4249999999999999
 20
-0.2551470164434615
 10
-0.4199999999999999
 20
-0.2633913438213186
 10
-0.4149999999999999
 20
-0.2712931993250108
 10
-0.4099999999999999
 20
-0.2788816953476869
 10
-0.4049999999999999
 20
-0.2861817604250838
 10
-0.3999999999999999
 20
-0.2932149382279151
 10
-0.3949999999999999
 20
-0.3000000000000002
 10
-0.3899999999999999
 20
-0.3065534211193868
 10
-0.3849999999999999
 20
-0.3128897569432404
 10
-0.3799999999999999
 20
-0.3190219428189855
 10
-0.3749999999999999
 20
-0.3249615361854385
 10
-0.3699999999999999
 20
-0.330718913883074
 10
-0.3649999999999999
 20
-0.3363034344160049
 10
-0.3599999999999999
 20
-0.3417235724968357
 10
-0.3549999999999999
 20
-0.3469870314579496
 10
-0.3499999999999999
 20
-0.3521008378291652
 10
-0.3449999999999999
 20
-0.3570714214271427
 10
-0.3399999999999999
 20
-0.3619046835839516
 10
-0.3349999999999999
 20
-0.3666060555964674
 10
-0.3299999999999998
 20
-0.3711805490593494
 10
-0.3249999999999998
 20
-0.3756327994198591
 10
-0.3199999999999998
 20
-0.3799671038392667
 10
-0.3149999999999998
 20
-0.3841874542459711
 10
-0.3099999999999998
 20
-0.3882975663070786
 10
-0.3049999999999998
 20
-0.3923009049186608
 10
-0.2999999999999998
 20
-0.3962007067131507
 10
-0.2949999999999998
 20
-0.4000000000000001
 10
-0.2899999999999998
 20
-0.4037016224886891
 10
-0.2849999999999998
 20
-0.4073082370883261
 10
-0.2799999999999998
 20
-0.4108223460329296
 10
-0.2749999999999998
 20
-0.4142463035441597
 10
-0.2699999999999998
 20
-0.4175823272122518
 10
-0.2649999999999998
 20
-0.4208325082500164
 10
-0.2599999999999998
 20
-0.4239988207530773
 10
-0.2549999999999998
 20
-0.4270831300812526
 10
-0.2499999999999998
 20
-0.4300872004605579
 10
-0.2449999999999998
 20
-0.4330127018922195
 10
-0.2399999999999998
 20
-0.4358612164439503
 10
-0.2349999999999998
 20
-0.4386342439892263
 10
-0.2299999999999998
 20
-0.4413332074521473
 10
-0.2249999999999998
 20
-0.4439594576084624
 10
-0.2199999999999998
 20
-0.4465142774872939
 10
-0.2149999999999997
 20
-0.4489988864128731
 10
-0.2099999999999997
 20
-0.4514144437210667
 10
-0.2049999999999997
 20
-0.4537620521815372
 10
-0.1999999999999997
 20
-0.4560427611529429
 10
-0.1949999999999997
 20
-0.4582575694955841
 10
-0.1899999999999997
 20
-0.4604074282632722
 10
-0.1849999999999997
 20
-0.4624932431938872
 10
-0.1799999999999997
 20
-0.4645158770160608
 10
-0.1749999999999997
 20
-0.4664761515876241
 10
-0.1699999999999997
 20
-0.46837484987988
 10
-0.1649999999999997
 20
-0.47021271782035
 10
-0.1599999999999997
 20
-0.4719904660054058
 10
-0.1549999999999997
 20
-0.4737087712930805
 10
-0.1499999999999997
 20
-0.4753682782853733
 10
-0.1449999999999997
 20
-0.4769696007084729
 10
-0.1399999999999997
 20
-0.4785133226985431
 10
-0.1349999999999997
 20
-0.4800000000000001
 10
-0.1299999999999997
 20
-0.4814301610825812
 10
-0.1249999999999997
 20
-0.4828043081829325
 10
-0.1199999999999997
 20
-0.4841229182759272
 10
-0.1149999999999997
 20
-0.485386443980464
 10
-0.1099999999999997
 20
-0.4865953144040744
 10
-0.1049999999999996
 20
-0.487749935930288
 10
-0.0999999999999996
 20
-0.4888506929523574
 10
-0.0949999999999996
 20
-0.4898979485566357
 10
-0.0899999999999996
 20
-0.4908920451586072
 10
-0.0849999999999996
 20
-0.4918333050943176
 10
-0.0799999999999996
 20
-0.4927220311697053
 10
-0.0749999999999996
 20
-0.4935585071701227
 10
-0.0699999999999996
 20
-0.4943429983321298
 10
-0.0649999999999996
 20
-0.4950757517794626
 10
-0.0599999999999996
 20
-0.4957569969249048
 10
-0.0549999999999996
 20
-0.4963869458396343
 10
-0.0499999999999996
 20
-0.4969657935914705
 10
-0.0449999999999996
 20
-0.49749371855331
 10
-0.0399999999999996
 20
-0.4979708826829135
 10
-0.0349999999999996
 20
-0.4983974317750846
 10
-0.0299999999999996
 20
-0.4987734956871706
 10
-0.0249999999999996
 20
-0.4990991885387112
 10
-0.0199999999999996
 20
-0.4993746088859545
 10
-0.0149999999999996
 20
-0.4995998398718719
 10
-0.0099999999999996
 20
-0.499774949352206
 10
-0.0049999999999996
 20
-0.4998999899979995
 10
0.0
 20
-0.5
 97
        0
 75
     0
 76
     1
 98
        0
  0
CIRCLE
  5
12D
330
12A
100
AcDbEntity
  8
0
  6
Continuous
 62
     0
370
    -2
390
5F
100
AcDbCircle
 10
0.0
 20
0.0
 30
0.0
 40
0.5
  0
ENDBLK
  5
12F
330
12A
100
AcDbEntity
  8
0
100
AcDbBlockEnd
  0
BLOCK
  5
138
330
130
100
AcDbEntity
  8
0
100
AcDbBlockBegin
  2
CDWK_PTTYP41
 70
     0
 10
0.0
 20
0.0
 30
0.0
  3
CDWK_PTTYP41
  1

  0
LINE
  5
131
330
130
100
AcDbEntity
  8
0
  6
Continuous
 62
     0
370
    -2
390
5F
100
AcDbLine
 10
-0.5
 20
0.5
 30
0.0
 11
0.5
 21
0.5
 31
0.0
  0
LINE
  5
132
330
130
100
AcDbEntity
  8
0
  6
Continuous
 62
     0
370
    -2
390
5F
100
AcDbLine
 10
0.5
 20
0.5
 30
0.0
 11
0.5
 21
-0.5
 31
0.0
  0
LINE
  5
133
330
130
100
AcDbEntity
  8
0
  6
Continuous
 62
     0
370
    -2
390
5F
100
AcDbLine
 10
0.5
 20
-0.5
 30
0.0
 11
-0.5
 21
-0.5
 31
0.0
  0
LINE
  5
134
330
130
100
AcDbEntity
  8
0
  6
Continuous
 62
     0
370
    -2
390
5F
100
AcDbLine
 10
-0.5
 20
-0.5
 30
0.0
 11
-0.5
 21
0.5
 31
0.0
  0
LINE
  5
135
330
130
100
AcDbEntity
  8
0
  6
Continuous
 62
     0
370
    -2
390
5F
100
AcDbLine
 10
-0.375
 20
0.25
 30
0.0
 11
0.375
 21
0.25
 31
0.0
  0
LINE
  5
136
330
130
100
AcDbEntity
  8
0
  6
Continuous
 62
     0
370
    -2
390
5F
100
AcDbLine
 10
-0.375
 20
0.0
 30
0.0
 11
0.375
 21
0.0
 31
0.0
  0
LINE
  5
137
330
130
100
AcDbEntity
  8
0
  6
Continuous
 62
     0
370
    -2
390
5F
100
AcDbLine
 10
-0.375
 20
-0.25
 30
0.0
 11
0.375
 21
-0.25
 31
0.0
  0
ENDBLK
  5
139
330
130
100
AcDbEntity
  8
0
100
AcDbBlockEnd
  0
BLOCK
  5
141
330
13A
100
AcDbEntity
  8
0
100
AcDbBlockBegin
  2
CDWK_PTTYP42
 70
     0
 10
0.0
 20
0.0
 30
0.0
  3
CDWK_PTTYP42
  1

  0
LINE
  5
13B
330
13A
100
AcDbEntity
  8
0
  6
Continuous
 62
     0
370
    -2
390
5F
100
AcDbLine
 10
-0.5
 20
0.5
 30
0.0
 11
0.5
 21
0.5
 31
0.0
  0
LINE
  5
13C
330
13A
100
AcDbEntity
  8
0
  6
Continuous
 62
     0
370
    -2
390
5F
100
AcDbLine
 10
0.5
 20
0.5
 30
0.0
 11
0.5
 21
-0.5
 31
0.0
  0
LINE
  5
13D
330
13A
100
AcDbEntity
  8
0
  6
Continuous
 62
     0
370
    -2
390
5F
100
AcDbLine
 10
0.5
 20
-0.5
 30
0.0
 11
-0.5
 21
-0.5
 31
0.0
  0
LINE
  5
13E
330
13A
100
AcDbEntity
  8
0
  6
Continuous
 62
     0
370
    -2
390
5F
100
AcDbLine
 10
-0.5
 20
-0.5
 30
0.0
 11
-0.5
 21
0.5
 31
0.0
  0
LINE
  5
13F
330
13A
100
AcDbEntity
  8
0
  6
Continuous
 62
     0
370
    -2
390
5F
100
AcDbLine
 10
-0.375
 20
0.125
 30
0.0
 11
0.375
 21
0.125
 31
0.0
  0
LINE
  5
140
330
13A
100
AcDbEntity
  8
0
  6
Continuous
 62
     0
370
    -2
390
5F
100
AcDbLine
 10
-0.375
 20
-0.125
 30
0.0
 11
0.375
 21
-0.125
 31
0.0
  0
ENDBLK
  5
142
330
13A
100
AcDbEntity
  8
0
100
AcDbBlockEnd
  0
BLOCK
  5
147
330
143
100
AcDbEntity
  8
0
100
AcDbBlockBegin
  2
CDWK_PTTYP43
 70
     0
 10
0.0
 20
0.0
 30
0.0
  3
CDWK_PTTYP43
  1

  0
CIRCLE
  5
144
330
143
100
AcDbEntity
  8
0
  6
Continuous
 62
     0
370
    -2
390
5F
100
AcDbCircle
 10
0.0
 20
0.0
 30
0.0
 40
0.5
  0
LINE
  5
145
330
143
100
AcDbEntity
  8
0
  6
Continuous
 62
     0
370
    -2
390
5F
100
AcDbLine
 10
-0.375
 20
0.166
 30
0.0
 11
0.375
 21
0.166
 31
0.0
  0
LINE
  5
146
330
143
100
AcDbEntity
  8
0
  6
Continuous
 62
     0
370
    -2
390
5F
100
AcDbLine
 10
-0.375
 20
-0.166
 30
0.0
 11
0.375
 21
-0.166
 31
0.0
  0
ENDBLK
  5
148
330
143
100
AcDbEntity
  8
0
100
AcDbBlockEnd
  0
BLOCK
  5
150
330
149
100
AcDbEntity
  8
0
100
AcDbBlockBegin
  2
CDWK_PTTYP44
 70
     0
 10
0.0
 20
0.0
 30
0.0
  3
CDWK_PTTYP44
  1

  0
CIRCLE
  5
14A
330
149
100
AcDbEntity
  8
0
  6
Continuous
 62
     0
370
    -2
390
5F
100
AcDbCircle
 10
0.0
 20
0.0
 30
0.0
 40
0.5
  0
LINE
  5
14B
330
149
100
AcDbEntity
  8
0
  6
Continuous
 62
     0
370
    -2
390
5F
100
AcDbLine
 10
-0.375
 20
0.333
 30
0.0
 11
0.375
 21
0.333
 31
0.0
  0
LINE
  5
14C
330
149
100
AcDbEntity
  8
0
  6
Continuous
 62
     0
370
    -2
390
5F
100
AcDbLine
 10
-0.375
 20
0.166
 30
0.0
 11
0.375
 21
0.166
 31
0.0
  0
LINE
  5
14D
330
149
100
AcDbEntity
  8
0
  6
Continuous
 62
     0
370
    -2
390
5F
100
AcDbLine
 10
-0.375
 20
0.0
 30
0.0
 11
0.375
 21
0.0
 31
0.0
  0
LINE
  5
14E
330
149
100
AcDbEntity
  8
0
  6
Continuous
 62
     0
370
    -2
390
5F
100
AcDbLine
 10
-0.375
 20
-0.166
 30
0.0
 11
0.375
 21
-0.166
 31
0.0
  0
LINE
  5
14F
330
149
100
AcDbEntity
  8
0
  6
Continuous
 62
     0
370
    -2
390
5F
100
AcDbLine
 10
-0.375
 20
-0.333
 30
0.0
 11
0.375
 21
-0.333
 31
0.0
  0
ENDBLK
  5
151
330
149
100
AcDbEntity
  8
0
100
AcDbBlockEnd
  0
BLOCK
  5
155
330
152
100
AcDbEntity
  8
0
100
AcDbBlockBegin
  2
CDWK_PTTYP45
 70
     0
 10
0.0
 20
0.0
 30
0.0
  3
CDWK_PTTYP45
  1

  0
ELLIPSE
  5
153
330
152
100
AcDbEntity
  8
0
  6
Continuous
 62
     0
370
    -2
390
5F
100
AcDbEllipse
 10
0.0
 20
0.0
 30
0.0
 11
0.5
 21
0.0
 31
0.0
210
0.0
220
0.0
230
1.0
 40
0.82
 41
0.0
 42
6.283185307179586
  0
CIRCLE
  5
154
330
152
100
AcDbEntity
  8
0
  6
Continuous
 62
     0
370
    -2
390
5F
100
AcDbCircle
 10
-0.235
 20
0.0
 30
0.0
 40
0.26
  0
ENDBLK
  5
156
330
152
100
AcDbEntity
  8
0
100
AcDbBlockEnd
  0
BLOCK
  5
15A
330
157
100
AcDbEntity
  8
0
100
AcDbBlockBegin
  2
CDWK_PTTYP46
 70
     0
 10
0.0
 20
0.0
 30
0.0
  3
CDWK_PTTYP46
  1

  0
ELLIPSE
  5
158
330
157
100
AcDbEntity
  8
0
  6
Continuous
 62
     0
370
    -2
390
5F
100
AcDbEllipse
 10
0.0
 20
0.0
 30
0.0
 11
0.5
 21
0.0
 31
0.0
210
0.0
220
0.0
230
1.0
 40
0.82
 41
0.0
 42
6.283185307179586
  0
CIRCLE
  5
159
330
157
100
AcDbEntity
  8
0
  6
Continuous
 62
     0
370
    -2
390
5F
100
AcDbCircle
 10
0.0
 20
0.15
 30
0.0
 40
0.26
  0
ENDBLK
  5
15B
330
157
100
AcDbEntity
  8
0
100
AcDbBlockEnd
  0
BLOCK
  5
162
330
15C
100
AcDbEntity
  8
0
100
AcDbBlockBegin
  2
CDWK_PTTYP47
 70
     0
 10
0.0
 20
0.0
 30
0.0
  3
CDWK_PTTYP47
  1

  0
LINE
  5
15D
330
15C
100
AcDbEntity
  8
0
  6
Continuous
 62
     0
370
    -2
390
5F
100
AcDbLine
 10
-0.5
 20
0.166
 30
0.0
 11
0.5
 21
0.166
 31
0.0
  0
LINE
  5
15E
330
15C
100
AcDbEntity
  8
0
  6
Continuous
 62
     0
370
    -2
390
5F
100
AcDbLine
 10
0.5
 20
0.166
 30
0.0
 11
0.5
 21
-0.166
 31
0.0
  0
LINE
  5
15F
330
15C
100
AcDbEntity
  8
0
  6
Continuous
 62
     0
370
    -2
390
5F
100
AcDbLine
 10
0.5
 20
-0.166
 30
0.0
 11
-0.5
 21
-0.166
 31
0.0
  0
LINE
  5
160
330
15C
100
AcDbEntity
  8
0
  6
Continuous
 62
     0
370
    -2
390
5F
100
AcDbLine
 10
-0.5
 20
-0.166
 30
0.0
 11
-0.5
 21
0.166
 31
0.0
  0
CIRCLE
  5
161
330
15C
100
AcDbEntity
  8
0
  6
Continuous
 62
     0
370
    -2
390
5F
100
AcDbCircle
 10
0.0
 20
-0.313
 30
0.0
 40
0.4
  0
ENDBLK
  5
163
330
15C
100
AcDbEntity
  8
0
100
AcDbBlockEnd
  0
BLOCK
  5
168
330
165
100
AcDbEntity
  8
0
100
AcDbBlockBegin
  2
CDWK_PTTYP48
 70
     0
 10
0.0
 20
0.0
 30
0.0
  3
CDWK_PTTYP48
  1

  0
CIRCLE
  5
166
330
165
100
AcDbEntity
  8
0
  6
CADWORK_3
 62
     0
 48
0.1
370
    -2
390
5F
100
AcDbCircle
 10
0.0
 20
0.0
 30
0.0
 40
0.5
  0
CIRCLE
  5
167
330
165
100
AcDbEntity
  8
0
  6
Continuous
 62
     0
370
    -2
390
5F
100
AcDbCircle
 10
0.0
 20
0.0
 30
0.0
 40
0.25
  0
ENDBLK
  5
169
330
165
100
AcDbEntity
  8
0
100
AcDbBlockEnd
  0
BLOCK
  5
16F
330
16A
100
AcDbEntity
  8
0
100
AcDbBlockBegin
  2
CDWK_PTTYP49
 70
     0
 10
0.0
 20
0.0
 30
0.0
  3
CDWK_PTTYP49
  1

  0
LINE
  5
16B
330
16A
100
AcDbEntity
  8
0
  6
Continuous
 62
     0
370
    -2
390
5F
100
AcDbLine
 10
-0.5
 20
0.166
 30
0.0
 11
0.5
 21
0.166
 31
0.0
  0
LINE
  5
16C
330
16A
100
AcDbEntity
  8
0
  6
Continuous
 62
     0
370
    -2
390
5F
100
AcDbLine
 10
0.5
 20
0.166
 30
0.0
 11
0.5
 21
-0.166
 31
0.0
  0
LINE
  5
16D
330
16A
100
AcDbEntity
  8
0
  6
Continuous
 62
     0
370
    -2
390
5F
100
AcDbLine
 10
0.5
 20
-0.166
 30
0.0
 11
-0.5
 21
-0.166
 31
0.0
  0
LINE
  5
16E
330
16A
100
AcDbEntity
  8
0
  6
Continuous
 62
     0
370
    -2
390
5F
100
AcDbLine
 10
-0.5
 20
-0.166
 30
0.0
 11
-0.5
 21
0.166
 31
0.0
  0
ENDBLK
  5
170
330
16A
100
AcDbEntity
  8
0
100
AcDbBlockEnd
  0
BLOCK
  5
179
330
171
100
AcDbEntity
  8
0
100
AcDbBlockBegin
  2
CDWK_PTTYP50
 70
     0
 10
0.0
 20
0.0
 30
0.0
  3
CDWK_PTTYP50
  1

  0
LINE
  5
172
330
171
100
AcDbEntity
  8
0
  6
Continuous
 62
     0
370
    -2
390
5F
100
AcDbLine
 10
-0.5
 20
0.166
 30
0.0
 11
0.5
 21
0.166
 31
0.0
  0
LINE
  5
173
330
171
100
AcDbEntity
  8
0
  6
Continuous
 62
     0
370
    -2
390
5F
100
AcDbLine
 10
0.5
 20
0.166
 30
0.0
 11
0.5
 21
-0.166
 31
0.0
  0
LINE
  5
174
330
171
100
AcDbEntity
  8
0
  6
Continuous
 62
     0
370
    -2
390
5F
100
AcDbLine
 10
0.5
 20
-0.166
 30
0.0
 11
-0.5
 21
-0.166
 31
0.0
  0
LINE
  5
175
330
171
100
AcDbEntity
  8
0
  6
Continuous
 62
     0
370
    -2
390
5F
100
AcDbLine
 10
-0.5
 20
-0.166
 30
0.0
 11
-0.5
 21
0.166
 31
0.0
  0
LINE
  5
176
330
171
100
AcDbEntity
  8
0
  6
Continuous
 62
     0
370
    -2
390
5F
100
AcDbLine
 10
-0.25
 20
-0.166
 30
0.0
 11
-0.25
 21
0.166
 31
0.0
  0
LINE
  5
177
330
171
100
AcDbEntity
  8
0
  6
Continuous
 62
     0
370
    -2
390
5F
100
AcDbLine
 10
0.0
 20
-0.166
 30
0.0
 11
0.0
 21
0.166
 31
0.0
  0
LINE
  5
178
330
171
100
AcDbEntity
  8
0
  6
Continuous
 62
     0
370
    -2
390
5F
100
AcDbLine
 10
0.25
 20
-0.166
 30
0.0
 11
0.25
 21
0.166
 31
0.0
  0
ENDBLK
  5
17A
330
171
100
AcDbEntity
  8
0
100
AcDbBlockEnd
  0
BLOCK
  5
17E
330
17B
100
AcDbEntity
  8
0
100
AcDbBlockBegin
  2
CDWK_PTTYP51
 70
     0
 10
0.0
 20
0.0
 30
0.0
  3
CDWK_PTTYP51
  1

  0
SPLINE
  5
17C
330
17B
100
AcDbEntity
  8
0
  6
Continuous
 62
     0
370
    -2
390
5F
100
AcDbSpline
210
0.0
220
0.0
230
1.0
 70
  1064
 71
     3
 72
    12
 73
     8
 74
     6
 42
0.0000000001
 43
0.0000000001
 44
0.0000000001
 40
0.0
 40
0.0
 40
0.0
 40
0.0
 40
0.1690118339052032
 40
0.5175774661755118
 40
0.8011704844252565
 40
0.9154070810132151
 40
0.975822310881188
 40
0.975822310881188
 40
0.975822310881188
 40
0.975822310881188
 10
-0.5
 20
-0.077
 30
0.0
 10
-0.443824324006723
 20
-0.0900581618560981
 30
0.0
 10
-0.2717933876546281
 20
-0.1300471387828842
 30
0.0
 10
-0.0276699186086479
 20
-0.0006977790990417
 30
0.0
 10
0.2303349729129116
 20
0.0817803270207037
 30
0.0
 10
0.3686157174766292
 20
0.0066250198607167
 30
0.0
 10
0.4216533294581816
 20
-0.0168719667726145
 30
0.0
 10
0.44
 20
-0.025
 30
0.0
 11
-0.5
 21
-0.077
 31
0.0
 11
-0.333
 21
-0.103
 31
0.0
 11
0.0
 21
0.0
 31
0.0
 11
0.28
 21
0.045
 31
0.0
 11
0.385
 21
0.0
 31
0.0
 11
0.44
 21
-0.025
 31
0.0
  0
HATCH
  5
17D
330
17B
100
AcDbEntity
  8
0
  6
Continuous
 62
     0
370
    -2
390
5F
100
AcDbHatch
 10
0.0
 20
0.0
 30
0.0
210
0.0
220
0.0
230
1.0
  2
SOLID
 70
     1
 71
     0
 91
        1
 92
        3
 72
     0
 73
     1
 93
        3
 10
0.365
 20
-0.05
 10
0.5
 20
-0.042
 10
0.395
 20
0.045
 97
        0
 75
     0
 76
     1
 98
        0
  0
ENDBLK
  5
17F
330
17B
100
AcDbEntity
  8
0
100
AcDbBlockEnd
  0
BLOCK
  5
184
330
180
100
AcDbEntity
  8
0
100
AcDbBlockBegin
  2
CDWK_PTTYP52
 70
     0
 10
0.0
 20
0.0
 30
0.0
  3
CDWK_PTTYP52
  1

  0
LINE
  5
181
330
180
100
AcDbEntity
  8
0
  6
Continuous
 62
     0
370
    -2
390
5F
100
AcDbLine
 10
-0.5
 20
-0.289
 30
0.0
 11
0.5
 21
-0.289
 31
0.0
  0
LINE
  5
182
330
180
100
AcDbEntity
  8
0
  6
Continuous
 62
     0
370
    -2
390
5F
100
AcDbLine
 10
0.5
 20
-0.289
 30
0.0
 11
0.0
 21
0.577
 31
0.0
  0
LINE
  5
183
330
180
100
AcDbEntity
  8
0
  6
Continuous
 62
     0
370
    -2
390
5F
100
AcDbLine
 10
0.0
 20
0.577
 30
0.0
 11
-0.5
 21
-0.289
 31
0.0
  0
ENDBLK
  5
185
330
180
100
AcDbEntity
  8
0
100
AcDbBlockEnd
  0
BLOCK
  5
18B
330
186
100
AcDbEntity
  8
0
100
AcDbBlockBegin
  2
cw-dimension-symbol1
 70
     0
 10
0.0
 20
0.0
 30
0.0
  3
cw-dimension-symbol1
  1

  0
LINE
  5
187
330
186
100
AcDbEntity
  8
0
  6
Continuous
 62
     0
370
    -2
390
5F
100
AcDbLine
 10
0.0
 20
0.0
 30
0.0
 11
-1.0
 21
0.25
 31
0.0
  0
LINE
  5
188
330
186
100
AcDbEntity
  8
0
  6
Continuous
 62
     0
370
    -2
390
5F
100
AcDbLine
 10
0.0
 20
0.0
 30
0.0
 11
-1.0
 21
-0.25
 31
0.0
  0
LINE
  5
189
330
186
100
AcDbEntity
  8
0
  6
Continuous
 62
     0
370
    -2
390
5F
100
AcDbLine
 10
-1.0
 20
0.25
 30
0.0
 11
-1.0
 21
-0.25
 31
0.0
  0
LINE
  5
18A
330
186
100
AcDbEntity
  8
0
  6
Continuous
 62
     0
370
    -2
390
5F
100
AcDbLine
 10
0.0
 20
0.0
 30
0.0
 11
-1.0
 21
0.0
 31
0.0
  0
ENDBLK
  5
18C
330
186
100
AcDbEntity
  8
0
100
AcDbBlockEnd
  0
BLOCK
  5
190
330
18D
100
AcDbEntity
  8
0
100
AcDbBlockBegin
  2
cw-dimension-symbol2
 70
     0
 10
0.0
 20
0.0
 30
0.0
  3
cw-dimension-symbol2
  1

  0
LINE
  5
18E
330
18D
100
AcDbEntity
  8
0
  6
Continuous
 62
     0
370
    -2
390
5F
100
AcDbLine
 10
-1.0
 20
0.0
 30
0.0
 11
1.0
 21
0.0
 31
0.0
  0
LINE
  5
18F
330
18D
100
AcDbEntity
  8
0
  6
Continuous
 62
     0
370
    -2
390
5F
100
AcDbLine
 10
-0.5
 20
-0.5
 30
0.0
 11
0.5
 21
0.5
 31
0.0
  0
ENDBLK
  5
191
330
18D
100
AcDbEntity
  8
0
100
AcDbBlockEnd
  0
BLOCK
  5
195
330
192
100
AcDbEntity
  8
0
100
AcDbBlockBegin
  2
cw-dimension-symbol3
 70
     0
 10
0.0
 20
0.0
 30
0.0
  3
cw-dimension-symbol3
  1

  0
LINE
  5
193
330
192
100
AcDbEntity
  8
0
  6
Continuous
 62
     0
370
    -2
390
5F
100
AcDbLine
 10
-1.0
 20
0.0
 30
0.0
 11
1.0
 21
0.0
 31
0.0
  0
CIRCLE
  5
194
330
192
100
AcDbEntity
  8
0
  6
Continuous
 62
     0
370
    -2
390
5F
100
AcDbCircle
 10
0.0
 20
0.0
 30
0.0
 40
0.25
  0
ENDBLK
  5
196
330
192
100
AcDbEntity
  8
0
100
AcDbBlockEnd
  0
BLOCK
  5
19C
330
197
100
AcDbEntity
  8
0
100
AcDbBlockBegin
  2
cw-dimension-symbol5
 70
     0
 10
0.0
 20
0.0
 30
0.0
  3
cw-dimension-symbol5
  1

  0
HATCH
  5
198
330
197
100
AcDbEntity
  8
0
  6
Continuous
 62
     0
370
    -2
390
5F
100
AcDbHatch
 10
0.0
 20
0.0
 30
0.0
210
0.0
220
0.0
230
1.0
  2
SOLID
 70
     1
 71
     0
 91
        1
 92
        3
 72
     0
 73
     1
 93
        3
 10
0.0
 20
0.0
 10
-1.0
 20
0.25
 10
-1.0
 20
-0.25
 97
        0
 75
     0
 76
     1
 98
        0
  0
LINE
  5
199
330
197
100
AcDbEntity
  8
0
  6
Continuous
 62
     0
370
    -2
390
5F
100
AcDbLine
 10
0.0
 20
0.0
 30
0.0
 11
-1.0
 21
0.25
 31
0.0
  0
LINE
  5
19A
330
197
100
AcDbEntity
  8
0
  6
Continuous
 62
     0
370
    -2
390
5F
100
AcDbLine
 10
-1.0
 20
0.25
 30
0.0
 11
-1.0
 21
-0.25
 31
0.0
  0
LINE
  5
19B
330
197
100
AcDbEntity
  8
0
  6
Continuous
 62
     0
370
    -2
390
5F
100
AcDbLine
 10
-1.0
 20
-0.25
 30
0.0
 11
0.0
 21
0.0
 31
0.0
  0
ENDBLK
  5
19D
330
197
100
AcDbEntity
  8
0
100
AcDbBlockEnd
  0
BLOCK
  5
1A2
330
19E
100
AcDbEntity
  8
0
100
AcDbBlockBegin
  2
cw-dimension-symbol6
 70
     0
 10
0.0
 20
0.0
 30
0.0
  3
cw-dimension-symbol6
  1

  0
LINE
  5
19F
330
19E
100
AcDbEntity
  8
0
  6
Continuous
 62
     0
370
    -2
390
5F
100
AcDbLine
 10
0.0
 20
0.0
 30
0.0
 11
-1.0
 21
0.25
 31
0.0
  0
LINE
  5
1A0
330
19E
100
AcDbEntity
  8
0
  6
Continuous
 62
     0
370
    -2
390
5F
100
AcDbLine
 10
0.0
 20
0.0
 30
0.0
 11
-1.0
 21
-0.25
 31
0.0
  0
LINE
  5
1A1
330
19E
100
AcDbEntity
  8
0
  6
Continuous
 62
     0
370
    -2
390
5F
100
AcDbLine
 10
0.0
 20
0.0
 30
0.0
 11
-1.0
 21
0.0
 31
0.0
  0
ENDBLK
  5
1A3
330
19E
100
AcDbEntity
  8
0
100
AcDbBlockEnd
  0
BLOCK
  5
1A8
330
1A4
100
AcDbEntity
  8
0
100
AcDbBlockBegin
  2
cw-dimension-symbol11
 70
     0
 10
0.0
 20
0.0
 30
0.0
  3
cw-dimension-symbol11
  1

  0
LINE
  5
1A5
330
1A4
100
AcDbEntity
  8
0
  6
Continuous
 62
     0
370
    -2
390
5F
100
AcDbLine
 10
-1.0
 20
1.0
 30
0.0
 11
1.0
 21
1.0
 31
0.0
  0
LINE
  5
1A6
330
1A4
100
AcDbEntity
  8
0
  6
Continuous
 62
     0
370
    -2
390
5F
100
AcDbLine
 10
0.0
 20
0.0
 30
0.0
 11
-1.0
 21
1.0
 31
0.0
  0
LINE
  5
1A7
330
1A4
100
AcDbEntity
  8
0
  6
Continuous
 62
     0
370
    -2
390
5F
100
AcDbLine
 10
0.0
 20
0.0
 30
0.0
 11
1.0
 21
1.0
 31
0.0
  0
ENDBLK
  5
1A9
330
1A4
100
AcDbEntity
  8
0
100
AcDbBlockEnd
  0
BLOCK
  5
1AE
330
1AA
100
AcDbEntity
  8
0
100
AcDbBlockBegin
  2
cw-dimension-symbol13
 70
     0
 10
0.0
 20
0.0
 30
0.0
  3
cw-dimension-symbol13
  1

  0
LINE
  5
1AB
330
1AA
100
AcDbEntity
  8
0
  6
Continuous
 62
     0
370
    -2
390
5F
100
AcDbLine
 10
-1.0
 20
-1.0
 30
0.0
 11
1.0
 21
-1.0
 31
0.0
  0
LINE
  5
1AC
330
1AA
100
AcDbEntity
  8
0
  6
Continuous
 62
     0
370
    -2
390
5F
100
AcDbLine
 10
0.0
 20
0.0
 30
0.0
 11
-1.0
 21
-1.0
 31
0.0
  0
LINE
  5
1AD
330
1AA
100
AcDbEntity
  8
0
  6
Continuous
 62
     0
370
    -2
390
5F
100
AcDbLine
 10
0.0
 20
0.0
 30
0.0
 11
1.0
 21
-1.0
 31
0.0
  0
ENDBLK
  5
1AF
330
1AA
100
AcDbEntity
  8
0
100
AcDbBlockEnd
  0
BLOCK
  5
1B5
330
1B0
100
AcDbEntity
  8
0
100
AcDbBlockBegin
  2
cw-dimension-symbol15
 70
     0
 10
0.0
 20
0.0
 30
0.0
  3
cw-dimension-symbol15
  1

  0
HATCH
  5
1B1
330
1B0
100
AcDbEntity
  8
0
  6
Continuous
 62
     0
370
    -2
390
5F
100
AcDbHatch
 10
0.0
 20
0.0
 30
0.0
210
0.0
220
0.0
230
1.0
  2
SOLID
 70
     1
 71
     0
 91
        1
 92
        3
 72
     0
 73
     1
 93
        3
 10
0.0
 20
0.0
 10
-1.0
 20
1.0
 10
1.0
 20
1.0
 97
        0
 75
     0
 76
     1
 98
        0
  0
LINE
  5
1B2
330
1B0
100
AcDbEntity
  8
0
  6
Continuous
 62
     0
370
    -2
390
5F
100
AcDbLine
 10
0.0
 20
0.0
 30
0.0
 11
-1.0
 21
1.0
 31
0.0
  0
LINE
  5
1B3
330
1B0
100
AcDbEntity
  8
0
  6
Continuous
 62
     0
370
    -2
390
5F
100
AcDbLine
 10
-1.0
 20
1.0
 30
0.0
 11
1.0
 21
1.0
 31
0.0
  0
LINE
  5
1B4
330
1B0
100
AcDbEntity
  8
0
  6
Continuous
 62
     0
370
    -2
390
5F
100
AcDbLine
 10
1.0
 20
1.0
 30
0.0
 11
0.0
 21
0.0
 31
0.0
  0
ENDBLK
  5
1B6
330
1B0
100
AcDbEntity
  8
0
100
AcDbBlockEnd
  0
BLOCK
  5
1BC
330
1B7
100
AcDbEntity
  8
0
100
AcDbBlockBegin
  2
cw-dimension-symbol16
 70
     0
 10
0.0
 20
0.0
 30
0.0
  3
cw-dimension-symbol16
  1

  0
HATCH
  5
1B8
330
1B7
100
AcDbEntity
  8
0
  6
Continuous
 62
     0
370
    -2
390
5F
100
AcDbHatch
 10
0.0
 20
0.0
 30
0.0
210
0.0
220
0.0
230
1.0
  2
SOLID
 70
     1
 71
     0
 91
        1
 92
        3
 72
     0
 73
     1
 93
        3
 10
0.0
 20
0.0
 10
-1.0
 20
-1.0
 10
1.0
 20
-1.0
 97
        0
 75
     0
 76
     1
 98
        0
  0
LINE
  5
1B9
330
1B7
100
AcDbEntity
  8
0
  6
Continuous
 62
     0
370
    -2
390
5F
100
AcDbLine
 10
0.0
 20
0.0
 30
0.0
 11
-1.0
 21
-1.0
 31
0.0
  0
LINE
  5
1BA
330
1B7
100
AcDbEntity
  8
0
  6
Continuous
 62
     0
370
    -2
390
5F
100
AcDbLine
 10
-1.0
 20
-1.0
 30
0.0
 11
1.0
 21
-1.0
 31
0.0
  0
LINE
  5
1BB
330
1B7
100
AcDbEntity
  8
0
  6
Continuous
 62
     0
370
    -2
390
5F
100
AcDbLine
 10
1.0
 20
-1.0
 30
0.0
 11
0.0
 21
0.0
 31
0.0
  0
ENDBLK
  5
1BD
330
1B7
100
AcDbEntity
  8
0
100
AcDbBlockEnd
  0
BLOCK
  5
1C3
330
1BE
100
AcDbEntity
  8
0
100
AcDbBlockBegin
  2
cw-dimension-symbol17
 70
     0
 10
0.0
 20
0.0
 30
0.0
  3
cw-dimension-symbol17
  1

  0
LINE
  5
1BF
330
1BE
100
AcDbEntity
  8
0
  6
Continuous
 62
     0
370
    -2
390
5F
100
AcDbLine
 10
0.0
 20
0.0
 30
0.0
 11
1.0
 21
1.0
 31
0.0
  0
LINE
  5
1C0
330
1BE
100
AcDbEntity
  8
0
  6
Continuous
 62
     0
370
    -2
390
5F
100
AcDbLine
 10
1.0
 20
1.0
 30
0.0
 11
-1.0
 21
1.0
 31
0.0
  0
LINE
  5
1C1
330
1BE
100
AcDbEntity
  8
0
  6
Continuous
 62
     0
370
    -2
390
5F
100
AcDbLine
 10
-1.0
 20
1.0
 30
0.0
 11
0.0
 21
0.0
 31
0.0
  0
HATCH
  5
1C2
330
1BE
100
AcDbEntity
  8
0
  6
Continuous
 62
     0
370
    -2
390
5F
100
AcDbHatch
 10
0.0
 20
0.0
 30
0.0
210
0.0
220
0.0
230
1.0
  2
SOLID
 70
     1
 71
     0
 91
        1
 92
        3
 72
     0
 73
     1
 93
        3
 10
0.0
 20
0.0
 10
-1.0
 20
1.0
 10
0.0
 20
1.0
 97
        0
 75
     0
 76
     1
 98
        0
  0
ENDBLK
  5
1C4
330
1BE
100
AcDbEntity
  8
0
100
AcDbBlockEnd
  0
BLOCK
  5
1CA
330
1C5
100
AcDbEntity
  8
0
100
AcDbBlockBegin
  2
cw-dimension-symbol18
 70
     0
 10
0.0
 20
0.0
 30
0.0
  3
cw-dimension-symbol18
  1

  0
LINE
  5
1C6
330
1C5
100
AcDbEntity
  8
0
  6
Continuous
 62
     0
370
    -2
390
5F
100
AcDbLine
 10
0.0
 20
0.0
 30
0.0
 11
1.0
 21
-1.0
 31
0.0
  0
LINE
  5
1C7
330
1C5
100
AcDbEntity
  8
0
  6
Continuous
 62
     0
370
    -2
390
5F
100
AcDbLine
 10
1.0
 20
-1.0
 30
0.0
 11
-1.0
 21
-1.0
 31
0.0
  0
LINE
  5
1C8
330
1C5
100
AcDbEntity
  8
0
  6
Continuous
 62
     0
370
    -2
390
5F
100
AcDbLine
 10
-1.0
 20
-1.0
 30
0.0
 11
0.0
 21
0.0
 31
0.0
  0
HATCH
  5
1C9
330
1C5
100
AcDbEntity
  8
0
  6
Continuous
 62
     0
370
    -2
390
5F
100
AcDbHatch
 10
0.0
 20
0.0
 30
0.0
210
0.0
220
0.0
230
1.0
  2
SOLID
 70
     1
 71
     0
 91
        1
 92
        3
 72
     0
 73
     1
 93
        3
 10
0.0
 20
0.0
 10
-1.0
 20
-1.0
 10
0.0
 20
-1.0
 97
        0
 75
     0
 76
     1
 98
        0
  0
ENDBLK
  5
1CB
330
1C5
100
AcDbEntity
  8
0
100
AcDbBlockEnd
  0
BLOCK
  5
1CD
330
1CC
100
AcDbEntity
  8
0
100
AcDbBlockBegin
  2
cw-dimension-symbol19
 70
     0
 10
0.0
 20
0.0
 30
0.0
  3
cw-dimension-symbol19
  1

  0
ENDBLK
  5
1CE
330
1CC
100
AcDbEntity
  8
0
100
AcDbBlockEnd
  0
BLOCK
  5
1D4
330
1CF
100
AcDbEntity
  8
0
100
AcDbBlockBegin
  2
cw-dimension-symbol20
 70
     0
 10
0.0
 20
0.0
 30
0.0
  3
cw-dimension-symbol20
  1

  0
LINE
  5
1D0
330
1CF
100
AcDbEntity
  8
0
  6
Continuous
 62
     0
370
    -2
390
5F
100
AcDbLine
 10
0.0
 20
0.0
 30
0.0
 11
0.0
 21
2.0
 31
0.0
  0
LINE
  5
1D1
330
1CF
100
AcDbEntity
  8
0
  6
Continuous
 62
     0
370
    -2
390
5F
100
AcDbLine
 10
0.0
 20
0.0
 30
0.0
 11
-1.0
 21
0.33
 31
0.0
  0
LINE
  5
1D2
330
1CF
100
AcDbEntity
  8
0
  6
Continuous
 62
     0
370
    -2
390
5F
100
AcDbLine
 10
0.0
 20
0.0
 30
0.0
 11
1.0
 21
0.33
 31
0.0
  0
LINE
  5
1D3
330
1CF
100
AcDbEntity
  8
0
  6
Continuous
 62
     0
370
    -2
390
5F
100
AcDbLine
 10
0.0
 20
2.0
 30
0.0
 11
4.15
 21
2.0
 31
0.0
  0
ENDBLK
  5
1D5
330
1CF
100
AcDbEntity
  8
0
100
AcDbBlockEnd
  0
BLOCK
  5
1DB
330
1D6
100
AcDbEntity
  8
0
100
AcDbBlockBegin
  2
cw-dimension-symbol21
 70
     0
 10
0.0
 20
0.0
 30
0.0
  3
cw-dimension-symbol21
  1

  0
LINE
  5
1D7
330
1D6
100
AcDbEntity
  8
0
  6
Continuous
 62
     0
370
    -2
390
5F
100
AcDbLine
 10
0.0
 20
0.0
 30
0.0
 11
0.0
 21
-2.0
 31
0.0
  0
LINE
  5
1D8
330
1D6
100
AcDbEntity
  8
0
  6
Continuous
 62
     0
370
    -2
390
5F
100
AcDbLine
 10
0.0
 20
0.0
 30
0.0
 11
-1.0
 21
-0.33
 31
0.0
  0
LINE
  5
1D9
330
1D6
100
AcDbEntity
  8
0
  6
Continuous
 62
     0
370
    -2
390
5F
100
AcDbLine
 10
0.0
 20
0.0
 30
0.0
 11
1.0
 21
-0.33
 31
0.0
  0
LINE
  5
1DA
330
1D6
100
AcDbEntity
  8
0
  6
Continuous
 62
     0
370
    -2
390
5F
100
AcDbLine
 10
0.0
 20
-2.0
 30
0.0
 11
4.15
 21
-2.0
 31
0.0
  0
ENDBLK
  5
1DC
330
1D6
100
AcDbEntity
  8
0
100
AcDbBlockEnd
  0
BLOCK
  5
20D
330
1DD
100
AcDbEntity
  8
0
100
AcDbBlockBegin
  2
cw-line-extremity0
 70
     0
 10
0.0
 20
0.0
 30
0.0
  3
cw-line-extremity0
  1

  0
LINE
  5
1DE
330
1DD
100
AcDbEntity
  8
0
  6
Continuous
 62
     0
370
    -2
390
5F
100
AcDbLine
 10
0.0
 20
0.0
 30
0.0
 11
10.0
 21
2.5
 31
0.0
  0
LINE
  5
1DF
330
1DD
100
AcDbEntity
  8
0
  6
Continuous
 62
     0
370
    -2
390
5F
100
AcDbLine
 10
0.0
 20
0.0
 30
0.0
 11
10.0
 21
-2.5
 31
0.0
  0
LINE
  5
1E0
330
1DD
100
AcDbEntity
  8
0
  6
Continuous
 62
     0
370
    -2
390
5F
100
AcDbLine
 10
10.0
 20
2.5
 30
0.0
 11
10.0
 21
-2.5
 31
0.0
  0
ENDBLK
  5
20E
330
1DD
100
AcDbEntity
  8
0
100
AcDbBlockEnd
  0
BLOCK
  5
20B
330
1E1
100
AcDbEntity
  8
0
100
AcDbBlockBegin
  2
cw-line-extremity2
 70
     0
 10
0.0
 20
0.0
 30
0.0
  3
cw-line-extremity2
  1

  0
HATCH
  5
1E2
330
1E1
100
AcDbEntity
  8
0
  6
Continuous
 62
     0
370
     0
390
5F
100
AcDbHatch
 10
0.0
 20
0.0
 30
0.0
210
0.0
220
0.0
230
1.0
  2
SOLID
 70
     1
 71
     0
 91
        1
 92
        3
 72
     0
 73
     1
 93
        3
 10
0.0
 20
0.0
 10
10.0
 20
2.5
 10
10.0
 20
-2.5
 97
        0
 75
     0
 76
     1
 98
        0
  0
LINE
  5
1E3
330
1E1
100
AcDbEntity
  8
0
  6
Continuous
 62
     0
370
    -2
390
5F
100
AcDbLine
 10
0.0
 20
0.0
 30
0.0
 11
10.0
 21
2.5
 31
0.0
  0
LINE
  5
1E4
330
1E1
100
AcDbEntity
  8
0
  6
Continuous
 62
     0
370
    -2
390
5F
100
AcDbLine
 10
10.0
 20
2.5
 30
0.0
 11
10.0
 21
-2.5
 31
0.0
  0
LINE
  5
1E5
330
1E1
100
AcDbEntity
  8
0
  6
Continuous
 62
     0
370
    -2
390
5F
100
AcDbLine
 10
10.0
 20
-2.5
 30
0.0
 11
0.0
 21
0.0
 31
0.0
  0
ENDBLK
  5
20C
330
1E1
100
AcDbEntity
  8
0
100
AcDbBlockEnd
  0
BLOCK
  5
209
330
1E6
100
AcDbEntity
  8
0
100
AcDbBlockBegin
  2
cw-line-extremity3
 70
     0
 10
0.0
 20
0.0
 30
0.0
  3
cw-line-extremity3
  1

  0
HATCH
  5
1E7
330
1E6
100
AcDbEntity
  8
0
  6
Continuous
 62
     0
370
     0
390
5F
100
AcDbHatch
 10
0.0
 20
0.0
 30
0.0
210
0.0
220
0.0
230
1.0
  2
SOLID
 70
     1
 71
     0
 91
        1
 92
        3
 72
     0
 73
     1
 93
        3
 10
0.0
 20
0.0
 10
10.0
 20
2.5
 10
10.0
 20
-2.5
 97
        0
 75
     0
 76
     1
 98
        0
  0
LINE
  5
1E8
330
1E6
100
AcDbEntity
  8
0
  6
Continuous
 62
     0
370
    -2
390
5F
100
AcDbLine
 10
0.0
 20
0.0
 30
0.0
 11
10.0
 21
2.5
 31
0.0
  0
LINE
  5
1E9
330
1E6
100
AcDbEntity
  8
0
  6
Continuous
 62
     0
370
    -2
390
5F
100
AcDbLine
 10
10.0
 20
2.5
 30
0.0
 11
10.0
 21
-2.5
 31
0.0
  0
LINE
  5
1EA
330
1E6
100
AcDbEntity
  8
0
  6
Continuous
 62
     0
370
    -2
390
5F
100
AcDbLine
 10
10.0
 20
-2.5
 30
0.0
 11
0.0
 21
0.0
 31
0.0
  0
ENDBLK
  5
20A
330
1E6
100
AcDbEntity
  8
0
100
AcDbBlockEnd
  0
BLOCK
  5
207
330
1EB
100
AcDbEntity
  8
0
100
AcDbBlockBegin
  2
cw-line-extremity301
 70
     0
 10
0.0
 20
0.0
 30
0.0
  3
cw-line-extremity301
  1

  0
LINE
  5
1EC
330
1EB
100
AcDbEntity
  8
0
  6
Continuous
 62
     0
370
    -2
390
5F
100
AcDbLine
 10
0.0
 20
6.66665
 30
0.0
 11
0.0
 21
-6.66665
 31
0.0
  0
ENDBLK
  5
208
330
1EB
100
AcDbEntity
  8
0
100
AcDbBlockEnd
  0
BLOCK
  5
205
330
1ED
100
AcDbEntity
  8
0
100
AcDbBlockBegin
  2
cw-line-extremity4
 70
     0
 10
0.0
 20
0.0
 30
0.0
  3
cw-line-extremity4
  1

  0
HATCH
  5
1EE
330
1ED
100
AcDbEntity
  8
0
  6
Continuous
 62
     0
370
     5
390
5F
100
AcDbHatch
 10
0.0
 20
0.0
 30
0.0
210
0.0
220
0.0
230
1.0
  2
SOLID
 70
     1
 71
     0
 91
        1
 92
        1
 93
        1
 72
     2
 10
0.0
 20
0.0
 40
2.5
 50
0.0
 51
360.0
 73
     1
 97
        0
 75
     0
 76
     1
 98
        0
  0
ENDBLK
  5
206
330
1ED
100
AcDbEntity
  8
0
100
AcDbBlockEnd
  0
BLOCK
  5
203
330
1EF
100
AcDbEntity
  8
0
100
AcDbBlockBegin
  2
cw-line-extremity5
 70
     0
 10
0.0
 20
0.0
 30
0.0
  3
cw-line-extremity5
  1

  0
LINE
  5
1F0
330
1EF
100
AcDbEntity
  8
0
  6
Continuous
 62
     0
370
    -2
390
5F
100
AcDbLine
 10
0.0
 20
0.0
 30
0.0
 11
-2.5
 21
0.0
 31
0.0
  0
ENDBLK
  5
204
330
1EF
100
AcDbEntity
  8
0
100
AcDbBlockEnd
  0
BLOCK
  5
201
330
1F1
100
AcDbEntity
  8
0
100
AcDbBlockBegin
  2
cw-line-extremity6
 70
     0
 10
0.0
 20
0.0
 30
0.0
  3
cw-line-extremity6
  1

  0
LINE
  5
1F2
330
1F1
100
AcDbEntity
  8
0
  6
Continuous
 62
     0
370
    18
390
5F
100
AcDbLine
 10
0.0
 20
2.5
 30
0.0
 11
0.0
 21
-2.5
 31
0.0
  0
ENDBLK
  5
202
330
1F1
100
AcDbEntity
  8
0
100
AcDbBlockEnd
  0
BLOCK
  5
1FF
330
1F3
100
AcDbEntity
  8
0
100
AcDbBlockBegin
  2
cw-line-extremity9
 70
     0
 10
0.0
 20
0.0
 30
0.0
  3
cw-line-extremity9
  1

  0
LINE
  5
1F4
330
1F3
100
AcDbEntity
  8
0
  6
Continuous
 62
     0
370
    18
390
5F
100
AcDbLine
 10
-2.5
 20
-2.5
 30
0.0
 11
2.5
 21
2.5
 31
0.0
  0
ENDBLK
  5
200
330
1F3
100
AcDbEntity
  8
0
100
AcDbBlockEnd
  0
BLOCK
  5
1FD
330
1F5
100
AcDbEntity
  8
0
100
AcDbBlockBegin
  2
cw-line-extremity10
 70
     0
 10
0.0
 20
0.0
 30
0.0
  3
cw-line-extremity10
  1

  0
CIRCLE
  5
1F6
330
1F5
100
AcDbEntity
  8
0
  6
Continuous
 62
     0
370
    -2
390
5F
100
AcDbCircle
 10
0.0
 20
0.0
 30
0.0
 40
2.5
  0
ENDBLK
  5
1FE
330
1F5
100
AcDbEntity
  8
0
100
AcDbBlockEnd
  0
BLOCK
  5
1FB
330
1F7
100
AcDbEntity
  8
0
100
AcDbBlockBegin
  2
cw-line-extremity1
 70
     0
 10
0.0
 20
0.0
 30
0.0
  3
cw-line-extremity1
  1

  0
LINE
  5
1F8
330
1F7
100
AcDbEntity
  8
0
  6
Continuous
 62
     0
370
    -2
390
5F
100
AcDbLine
 10
0.0
 20
0.0
 30
0.0
 11
0.0
 21
2.5
 31
0.0
  0
LINE
  5
1F9
330
1F7
100
AcDbEntity
  8
0
  6
Continuous
 62
     0
370
    -2
390
5F
100
AcDbLine
 10
0.0
 20
2.5
 30
0.0
 11
1.25
 21
3.75
 31
0.0
  0
LINE
  5
1FA
330
1F7
100
AcDbEntity
  8
0
  6
Continuous
 62
     0
370
    -2
390
5F
100
AcDbLine
 10
1.25
 20
3.75
 30
0.0
 11
3.75
 21
3.75
 31
0.0
  0
ENDBLK
  5
1FC
330
1F7
100
AcDbEntity
  8
0
100
AcDbBlockEnd
  0
BLOCK
  5
1C
330
1B
100
AcDbEntity
  8
0
100
AcDbBlockBegin
  2
*Paper_Space69
 70
     0
 10
0.0
 20
0.0
 30
0.0
  3
*Paper_Space69
  1

  0
ENDBLK
  5
1D
330
1B
100
AcDbEntity
  8
0
100
AcDbBlockEnd
  0
BLOCK
  5
427
330
426
100
AcDbEntity
  8
0
100
AcDbBlockBegin
  2
*D70
 70
     1
 10
0.0
 20
0.0
 30
0.0
  3
*D70
  1

  0
LINE
  5
429
330
426
100
AcDbEntity
  8
Ech.1_5
  6
Continuous
 62
     0
370
    -2
100
AcDbLine
 10
30690.31110667251
 20
-48956.03208811664
 30
0.0
 11
30690.31110667251
 21
-49003.03824613052
 31
0.0
  0
LINE
  5
42A
330
426
100
AcDbEntity
  8
Ech.1_5
  6
Continuous
 62
     0
370
    -2
100
AcDbLine
 10
30700.31103296086
 20
-48953.03824613052
 30
0.0
 11
30700.31103296086
 21
-49003.03824613052
 31
0.0
  0
LINE
  5
42B
330
426
100
AcDbEntity
  8
Ech.1_5
  6
Continuous
 62
     0
370
    -2
100
AcDbLine
 10
30690.31110667251
 20
-48998.03824613052
 30
0.0
 11
30700.31103296086
 21
-48998.03824613052
 31
0.0
  0
MTEXT
  5
42C
330
426
100
AcDbEntity
  8
Ech.1_5
  6
Continuous
 62
   190
370
    15
390
5F
100
AcDbMText
 10
30695.31106981669
 20
-48986.78824613052
 30
0.0
 40
12.5
 41
0.0
 46
0.0
 71
     5
 72
     1
  1
max 8 mm
  7
arial-z
 73
     1
 44
1.0
  0
POINT
  5
42D
330
426
100
AcDbEntity
  8
Defpoints
 62
     0
100
AcDbPoint
 10
30690.31110667251
 20
-48956.03208811664
 30
0.0
  0
POINT
  5
42E
330
426
100
AcDbEntity
  8
Defpoints
 62
     0
100
AcDbPoint
 10
30700.31103296086
 20
-48953.03824613052
 30
0.0
  0
POINT
  5
42F
330
426
100
AcDbEntity
  8
Defpoints
 62
     0
100
AcDbPoint
 10
30700.31103296086
 20
-48998.03824613052
 30
0.0
  0
ENDBLK
  5
428
330
426
100
AcDbEntity
  8
0
100
AcDbBlockEnd
  0
ENDSEC
  0
SECTION
  2
ENTITIES
  0
HATCH
  5
218
330
1F
100
AcDbEntity
  8
Ech.1_5
  6
Continuous
 62
   254
420
 16643007
440
 33554687
370
     5
390
5F
100
AcDbHatch
 10
0.0
 20
0.0
 30
0.0
210
0.0
220
0.0
230
1.0
  2
SOLID
 70
     1
 71
     0
 91
        1
 92
        3
 72
     0
 73
     1
 93
        8
 10
30257.67706475183
 20
-48683.53429425014
 10
30021.49476782918
 20
-48683.53429425014
 10
30021.49476782918
 20
-48753.60311750749
 10
30039.4731194222
 20
-48770.08946089128
 10
30003.51641623616
 20
-48755.97912760901
 10
30021.49476782918
 20
-48772.4654709928
 10
30021.49476782918
 20
-48863.53429425014
 10
30257.67706475183
 20
-48863.53429425014
 97
        0
 75
     0
 76
     1
 98
        0
  0
HATCH
  5
219
330
1F
100
AcDbEntity
  8
Ech.1_5
  6
Continuous
 62
     8
440
 33554687
370
    20
390
5F
100
AcDbHatch
 10
0.0
 20
0.0
 30
0.0
210
0.0
220
0.0
230
1.0
  2
CwHatchPattern_201
 70
     0
 71
     0
 91
        1
 92
        3
 72
     0
 73
     1
 93
        8
 10
30257.67706475183
 20
-48683.53429425014
 10
30021.49476782918
 20
-48683.53429425014
 10
30021.49476782918
 20
-48753.60311750749
 10
30039.4731194222
 20
-48770.08946089128
 10
30003.51641623616
 20
-48755.97912760901
 10
30021.49476782918
 20
-48772.4654709928
 10
30021.49476782918
 20
-48863.53429425014
 10
30257.67706475183
 20
-48863.53429425014
 97
        0
 75
     0
 76
     2
 52
180.0
 41
3.599999904632568
 77
     0
 78
    29
 53
180.0
 43
30261.69461061369
 44
-48683.53429425014
 45
-0.000000000000022
 46
-179.9999952316284
 79
     2
 49
8.035091723731043
 49
-21.9649137400279
 53
270.0000000000059
 43
30287.67705251301
 44
-48708.6659654899
 45
59.99999268849706
 46
0.0000000000061707
 79
     2
 49
4.868333687561517
 49
-175.1316615440669
 53
270.0000000000059
 43
30257.67706475183
 44
-48833.53428455446
 45
59.99999268849706
 46
0.0000000000061707
 79
     2
 49
4.868333687561517
 49
-175.1316615440669
 53
284.9324645996163
 43
30228.39210883397
 44
-48719.96962224536
 45
60.00328374676013
 46
-179.9991321446976
 79
     2
 49
110.8734969331556
 49
-820.5769283353765
 53
255.0675354003955
 43
30226.96202798119
 44
-48719.96962224536
 45
60.00328374672294
 46
179.99913214471
 79
     2
 49
110.8734969331556
 49
-820.5769283353766
 53
195.2551193237314
 43
30253.65951888996
 44
-48683.53429425014
 45
59.99999080496843
 46
-0.0000016083868914
 79
     2
 49
8.154737554530627
 49
-675.9505054698911
 53
344.744888305675
 43
30261.69461061369
 44
-48683.53429425014
 45
59.99999080496769
 46
0.0000095978813456
 79
     2
 49
8.154737554530627
 49
-675.9505054698911
 53
195.2551193237314
 43
30239.56200919381
 44
-48861.38864248966
 45
59.99999080496843
 46
-0.0000016083868914
 79
     2
 49
8.154737554530627
 49
-675.9505054698911
 53
164.7448806762685
 43
30223.659531397
 44
-48863.53428948177
 45
-59.99999080496843
 46
-0.0000016083868754
 79
     2
 49
8.154737554530627
 49
-675.9505054698911
 53
210.9637565612813
 43
30245.79213254866
 44
-48685.679948216
 45
60.00000305622964
 46
0.0000003985823789
 79
     2
 49
7.83426562059546
 49
-342.0228219026239
 53
329.0362396240333
 43
30269.60638429436
 44
-48685.679948216
 45
60.0000030562295
 46
-0.0000043933117931
 79
     2
 49
7.83426562059546
 49
-342.0228219026239
 53
210.9637565612813
 43
30246.27982465344
 44
-48857.35793046875
 45
60.00000305622964
 46
0.0000003985823789
 79
     2
 49
7.83426562059546
 49
-342.0228219026239
 53
149.0362434387187
 43
30215.79212762135
 44
-48861.38864248966
 45
-60.00000305622964
 46
0.0000003985823917
 79
     2
 49
7.83426562059546
 49
-342.0228219026239
 53
225.0000000000029
 43
30239.07431708904
 44
-48689.71065219028
 45
60.00000851045429
 46
0.0000000000030823
 79
     2
 49
6.662321629462724
 49
-247.8961192264524
 53
315.0000000000089
 43
30276.27981241462
 44
-48689.71065219028
 45
60.00000851045429
 46
0.000000000009311
 79
     2
 49
6.662321629462724
 49
-247.8961192264524
 53
225.0000000000029
 43
30250.99078509564
 44
-48852.64697592742
 45
60.00000851045429
 46
0.0000000000030823
 79
     2
 49
6.662321629462724
 49
-247.8961192264524
 53
134.999999999997
 43
30209.07431001595
 44
-48857.35793046875
 45
-60.00000851045429
 46
0.0000000000030951
 79
     2
 49
6.662321629462724
 49
-247.8961192264524
 53
236.309932708744
 43
30234.36333894426
 44
-48694.42161209603
 45
60.00000143822563
 46
0.0000067922181726
 79
     2
 49
6.988122039685719
 49
-209.3449403618456
 53
303.6900634765706
 43
30280.9907905594
 44
-48694.42161209603
 45
60.00000143822504
 46
-0.000010786947526
 79
     2
 49
6.98812203968572
 49
-209.3449403618456
 53
236.309932708744
 43
30254.86710273244
 44
-48846.83249625356
 45
60.00000143822563
 46
0.0000067922181726
 79
     2
 49
6.988122039685719
 49
-209.3449403618456
 53
123.690067291256
 43
30204.36333401694
 44
-48852.64697592742
 45
-60.00000143822563
 46
0.0000067922181854
 79
     2
 49
6.98812203968572
 49
-209.3449403618456
 53
251.5650482177782
 43
30230.48702130746
 44
-48700.23607996817
 45
60.00000569748183
 46
0.0000030079885465
 79
     2
 49
8.885879817647933
 49
-180.8507833255453
 53
288.4349517822337
 43
30284.86710819619
 44
-48700.23607996817
 45
60.00000569748183
 46
-0.0000030079761564
 79
     2
 49
8.885879817647933
 49
-180.8507833255453
 53
251.5650482177782
 43
30257.67706475183
 44
-48838.40261824202
 45
60.00000569748183
 46
0.0000030079885465
 79
     2
 49
8.885879817647933
 49
-180.8507833255453
 53
108.4349517822219
 43
30200.48703569205
 44
-48846.83249625356
 45
-60.00000569748183
 46
0.0000030079885497
 79
     2
 49
8.885879817647933
 49
-180.8507833255453
 53
263.6598052978571
 43
30287.67705251301
 44
-48713.53428201132
 45
60.00001539520947
 46
360.0000086329781
 79
     2
 49
6.474941976204391
 49
-536.8481455684196
 53
276.3401947021548
 43
30227.67707699065
 44
-48713.53428201132
 45
60.00001539528385
 46
-360.0000086329656
 79
     2
 49
6.47494197620439
 49
-536.8481455684195
 53
83.65982055665796
 43
30257.67706475183
 44
-48833.53428455446
 45
-59.99991952133146
 46
-360.0000246119483
 79
     2
 49
6.474941976204391
 49
-536.8481455684196
 53
96.34019470214294
 43
30257.67706475183
 44
-48833.53428455446
 45
-60.00001539520938
 46
360.0000086329781
 79
     2
 49
6.474941976204391
 49
-536.8481455684196
 98
        0
1001
ACAD
1010
30257.67706475183
1020
-48683.53429425014
1030
0.0
  0
LWPOLYLINE
  5
21A
330
1F
100
AcDbEntity
  8
Ech.1_5
  6
Continuous
 62
   190
370
    15
390
5F
100
AcDbPolyline
 90
        9
 70
     0
 43
0.0
 38
2500.0
 39
-2500.0
 10
30257.67706475183
 20
-48683.53429425014
 10
30021.49476782918
 20
-48683.53429425014
 10
30021.49476782918
 20
-48753.60311750749
 10
30039.4731194222
 20
-48770.08946089128
 10
30003.51641623616
 20
-48755.97912760901
 10
30021.49476782918
 20
-48772.4654709928
 10
30021.49476782918
 20
-48863.53429425014
 10
30257.67706475183
 20
-48863.53429425014
 10
30257.67706475183
 20
-48683.53429425014
  0
HATCH
  5
21B
330
1F
100
AcDbEntity
  8
Ech.1_5
  6
Continuous
 62
   254
420
 16643007
440
 33554687
370
     5
390
5F
100
AcDbHatch
 10
0.0
 20
0.0
 30
0.0
210
0.0
220
0.0
230
1.0
  2
SOLID
 70
     1
 71
     0
 91
        1
 92
        3
 72
     0
 73
     1
 93
        8
 10
30700.31247090653
 20
-48683.53429425014
 10
30936.49476782918
 20
-48683.53429425014
 10
30936.49476782918
 20
-48753.60311750749
 10
30954.4731194222
 20
-48770.08946089128
 10
30918.51641623616
 20
-48755.97912760901
 10
30936.49476782918
 20
-48772.4654709928
 10
30936.49476782918
 20
-48863.53429425014
 10
30700.31247090653
 20
-48863.53429425014
 97
        0
 75
     0
 76
     1
 98
        0
  0
HATCH
  5
21C
330
1F
100
AcDbEntity
  8
Ech.1_5
  6
Continuous
 62
     8
440
 33554687
370
    20
390
5F
100
AcDbHatch
 10
0.0
 20
0.0
 30
0.0
210
0.0
220
0.0
230
1.0
  2
CwHatchPattern_201
 70
     0
 71
     0
 91
        1
 92
        3
 72
     0
 73
     1
 93
        8
 10
30700.31247090653
 20
-48683.53429425014
 10
30936.49476782918
 20
-48683.53429425014
 10
30936.49476782918
 20
-48753.60311750749
 10
30954.4731194222
 20
-48770.08946089128
 10
30918.51641623616
 20
-48755.97912760901
 10
30936.49476782918
 20
-48772.4654709928
 10
30936.49476782918
 20
-48863.53429425014
 10
30700.31247090653
 20
-48863.53429425014
 97
        0
 75
     0
 76
     2
 52
0.0
 41
3.599999904632568
 77
     0
 78
    29
 53
0.0
 43
30696.29492504467
 44
-48683.53429425014
 45
0.0
 46
179.9999952316284
 79
     2
 49
8.035091723731043
 49
-21.9649137400279
 53
90.00000000000594
 43
30670.31248314535
 44
-48658.40262301039
 45
-59.99999268849706
 46
-0.0000000000062047
 79
     2
 49
4.868333687561517
 49
-175.1316615440669
 53
90.00000000000594
 43
30700.31247090653
 44
-48533.53430394583
 45
-59.99999268849706
 46
-0.0000000000062047
 79
     2
 49
4.868333687561517
 49
-175.1316615440669
 53
104.9324645996163
 43
30729.5974268244
 44
-48647.09896625493
 45
-60.0032837467601
 46
179.9991321446977
 79
     2
 49
110.8734969331556
 49
-820.5769283353766
 53
75.06753540039557
 43
30731.02750767717
 44
-48647.09896625493
 45
-60.00328374672288
 46
-179.99913214471
 79
     2
 49
110.8734969331556
 49
-820.5769283353766
 53
15.25511932373147
 43
30704.3300167684
 44
-48683.53429425014
 45
-59.99999080496843
 46
0.0000016083868722
 79
     2
 49
8.154737554530627
 49
-675.9505054698911
 53
164.7448883056749
 43
30696.29492504467
 44
-48683.53429425014
 45
-59.99999080496769
 46
-0.0000095978813296
 79
     2
 49
8.154737554530627
 49
-675.9505054698911
 53
15.25511932373147
 43
30718.42752646455
 44
-48505.67994601063
 45
-59.99999080496843
 46
0.0000016083868722
 79
     2
 49
8.154737554530627
 49
-675.9505054698911
 53
344.7448806762685
 43
30734.33000426136
 44
-48503.53429901852
 45
59.99999080496843
 46
0.0000016083868722
 79
     2
 49
8.154737554530627
 49
-675.9505054698911
 53
30.96375656128134
 43
30712.1974031097
 44
-48681.38864028429
 45
-60.00000305622964
 46
-0.0000003985823885
 79
     2
 49
7.83426562059546
 49
-342.0228219026239
 53
149.0362396240333
 43
30688.383151364
 44
-48681.38864028429
 45
-60.0000030562295
 46
0.0000043933118091
 79
     2
 49
7.83426562059546
 49
-342.0228219026239
 53
30.96375656128134
 43
30711.70971100493
 44
-48509.71065803154
 45
-60.00000305622964
 46
-0.0000003985823885
 79
     2
 49
7.83426562059546
 49
-342.0228219026239
 53
329.0362434387187
 43
30742.19740803701
 44
-48505.67994601063
 45
60.00000305622964
 46
-0.0000003985823885
 79
     2
 49
7.83426562059546
 49
-342.0228219026239
 53
45.00000000000297
 43
30718.91521856932
 44
-48677.35793631001
 45
-60.00000851045429
 46
-0.0000000000031079
 79
     2
 49
6.662321629462724
 49
-247.8961192264524
 53
135.0000000000089
 43
30681.70972324374
 44
-48677.35793631001
 45
-60.00000851045429
 46
-0.0000000000093237
 79
     2
 49
6.662321629462724
 49
-247.8961192264524
 53
45.00000000000297
 43
30706.99875056273
 44
-48514.42161257287
 45
-60.00000851045429
 46
-0.0000000000031079
 79
     2
 49
6.662321629462724
 49
-247.8961192264524
 53
314.999999999997
 43
30748.91522564241
 44
-48509.71065803154
 45
60.00000851045429
 46
-0.0000000000031079
 79
     2
 49
6.662321629462724
 49
-247.8961192264524
 53
56.30993270874394
 43
30723.6261967141
 44
-48672.64697640426
 45
-60.00000143822563
 46
-0.0000067922181662
 79
     2
 49
6.98812203968572
 49
-209.3449403618456
 53
123.6900634765706
 43
30676.99874509896
 44
-48672.64697640426
 45
-60.00000143822504
 46
0.0000107869474909
 79
     2
 49
6.98812203968572
 49
-209.3449403618456
 53
56.30993270874394
 43
30703.12243292592
 44
-48520.23609224673
 45
-60.00000143822563
 46
-0.0000067922181662
 79
     2
 49
6.98812203968572
 49
-209.3449403618456
 53
303.6900672912561
 43
30753.62620164142
 44
-48514.42161257287
 45
60.00000143822563
 46
-0.0000067922181662
 79
     2
 49
6.98812203968572
 49
-209.3449403618456
 53
71.56504821777816
 43
30727.5025143509
 44
-48666.83250853212
 45
-60.00000569748183
 46
-0.0000030079885433
 79
     2
 49
8.885879817647933
 49
-180.8507833255453
 53
108.4349517822337
 43
30673.12242746217
 44
-48666.83250853212
 45
-60.00000569748183
 46
0.00000300797615
 79
     2
 49
8.885879817647933
 49
-180.8507833255453
 53
71.56504821777816
 43
30700.31247090653
 44
-48528.66597025827
 45
-60.00000569748183
 46
-0.0000030079885433
 79
     2
 49
8.885879817647933
 49
-180.8507833255453
 53
288.4349517822218
 43
30757.50249996631
 44
-48520.23609224673
 45
60.00000569748183
 46
-0.0000030079885433
 79
     2
 49
8.885879817647933
 49
-180.8507833255453
 53
83.65980529785706
 43
30670.31248314535
 44
-48653.53430648897
 45
-60.00001539520944
 46
-360.0000086329781
 79
     2
 49
6.474941976204391
 49
-536.8481455684196
 53
96.34019470215476
 43
30730.31245866771
 44
-48653.53430648897
 45
-60.00001539528381
 46
360.0000086329657
 79
     2
 49
6.474941976204391
 49
-536.8481455684196
 53
263.659820556658
 43
30700.31247090653
 44
-48533.53430394583
 45
59.9999195213314
 46
360.0000246119483
 79
     2
 49
6.474941976204391
 49
-536.8481455684196
 53
276.3401947021429
 43
30700.31247090653
 44
-48533.53430394583
 45
60.00001539520944
 46
-360.0000086329781
 79
     2
 49
6.474941976204391
 49
-536.8481455684196
 98
        0
1001
ACAD
1010
30700.31247090653
1020
-48683.53429425014
1030
0.0
  0
LWPOLYLINE
  5
21D
330
1F
100
AcDbEntity
  8
Ech.1_5
  6
Continuous
 62
   190
370
    15
390
5F
100
AcDbPolyline
 90
        9
 70
     0
 43
0.0
 38
2500.0
 39
-2500.0
 10
30700.31247090653
 20
-48683.53429425014
 10
30936.49476782918
 20
-48683.53429425014
 10
30936.49476782918
 20
-48753.60311750749
 10
30954.4731194222
 20
-48770.08946089128
 10
30918.51641623616
 20
-48755.97912760901
 10
30936.49476782918
 20
-48772.4654709928
 10
30936.49476782918
 20
-48863.53429425014
 10
30700.31247090653
 20
-48863.53429425014
 10
30700.31247090653
 20
-48683.53429425014
  0
HATCH
  5
21E
330
1F
100
AcDbEntity
  8
Ech.1_5
  6
Continuous
 62
   254
420
 13882323
440
 33554687
370
    20
390
5F
100
AcDbHatch
 10
0.0
 20
0.0
 30
0.0
210
0.0
220
0.0
230
1.0
  2
SOLID
 70
     1
 71
     0
 91
        1
 92
        3
 72
     0
 73
     1
 93
        4
 10
30021.49476782918
 20
-48899.53429425014
 10
30021.49476782918
 20
-48925.53429425014
 10
30257.67782058049
 20
-48925.53429425014
 10
30257.67782058049
 20
-48899.53429425014
 97
        0
 75
     0
 76
     1
 98
        0
  0
LWPOLYLINE
  5
21F
330
1F
100
AcDbEntity
  8
Ech.1_5
  6
Continuous
 62
     7
370
    20
390
5F
100
AcDbPolyline
 90
        5
 70
     0
 43
0.0
 10
30021.49476782918
 20
-48899.53429425014
 10
30021.49476782918
 20
-48925.53429425014
 10
30257.67782058049
 20
-48925.53429425014
 10
30257.67782058049
 20
-48899.53429425014
 10
30021.49476782918
 20
-48899.53429425014
  0
HATCH
  5
220
330
1F
100
AcDbEntity
  8
Ech.1_5
  6
Continuous
 62
   254
420
 13882323
440
 33554687
370
    20
390
5F
100
AcDbHatch
 10
0.0
 20
0.0
 30
0.0
210
0.0
220
0.0
230
1.0
  2
SOLID
 70
     1
 71
     0
 91
        1
 92
        3
 72
     0
 73
     1
 93
        4
 10
30936.49476782918
 20
-48899.53429425014
 10
30936.49476782918
 20
-48925.53429425014
 10
30700.31171507787
 20
-48925.53429425014
 10
30700.31171507787
 20
-48899.53429425014
 97
        0
 75
     0
 76
     1
 98
        0
  0
LWPOLYLINE
  5
221
330
1F
100
AcDbEntity
  8
Ech.1_5
  6
Continuous
 62
     7
370
    20
390
5F
100
AcDbPolyline
 90
        5
 70
     0
 43
0.0
 10
30936.49476782918
 20
-48899.53429425014
 10
30936.49476782918
 20
-48925.53429425014
 10
30700.31171507787
 20
-48925.53429425014
 10
30700.31171507787
 20
-48899.53429425014
 10
30936.49476782918
 20
-48899.53429425014
  0
HATCH
  5
222
330
1F
100
AcDbEntity
  8
Ech.1_5
  6
Continuous
 62
     2
440
 33554687
370
     5
390
5F
100
AcDbHatch
 10
0.0
 20
0.0
 30
0.0
210
0.0
220
0.0
230
1.0
  2
SOLID
 70
     1
 71
     0
 91
        1
 92
        3
 72
     0
 73
     1
 93
        4
 10
30700.31247090653
 20
-48872.53429425014
 10
30700.31247090653
 20
-48857.53429425014
 10
30690.31247090653
 20
-48857.53429425014
 10
30690.31247090653
 20
-48872.53429425014
 97
        0
 75
     0
 76
     1
 98
        0
  0
HATCH
  5
223
330
1F
100
AcDbEntity
  8
Ech.1_5
  6
Continuous
 62
   190
440
 33554687
370
     9
390
5F
100
AcDbHatch
 10
0.0
 20
0.0
 30
0.0
210
0.0
220
0.0
230
1.0
  2
CwHatchPattern_11
 70
     0
 71
     0
 91
        1
 92
        3
 72
     0
 73
     1
 93
        4
 10
30700.31247090653
 20
-48872.53429425014
 10
30700.31247090653
 20
-48857.53429425014
 10
30690.31247090653
 20
-48857.53429425014
 10
30690.31247090653
 20
-48872.53429425014
 97
        0
 75
     0
 76
     2
 52
0.0
 41
0.5
 77
     0
 78
     1
 53
45.00000000000297
 43
0.0
 44
0.0
 45
-1.76776695296646
 46
1.767766952966277
 79
     0
 98
        0
1001
ACAD
1010
0.0
1020
0.0
1030
0.0
  0
LWPOLYLINE
  5
224
330
1F
100
AcDbEntity
  8
Ech.1_5
  6
Continuous
 62
   190
370
     5
390
5F
100
AcDbPolyline
 90
        5
 70
     0
 43
0.0
 10
30700.31247090653
 20
-48872.53429425014
 10
30700.31247090653
 20
-48857.53429425014
 10
30690.31247090653
 20
-48857.53429425014
 10
30690.31247090653
 20
-48872.53429425014
 10
30700.31247090653
 20
-48872.53429425014
  0
HATCH
  5
225
330
1F
100
AcDbEntity
  8
Ech.1_5
  6
Continuous
 62
     2
440
 33554687
370
     5
390
5F
100
AcDbHatch
 10
0.0
 20
0.0
 30
0.0
210
0.0
220
0.0
230
1.0
  2
SOLID
 70
     1
 71
     0
 91
        1
 92
        3
 72
     0
 73
     1
 93
        4
 10
30267.67706475183
 20
-48872.53429425014
 10
30267.67706475183
 20
-48857.53429425014
 10
30257.67706475183
 20
-48857.53429425014
 10
30257.67706475183
 20
-48872.53429425014
 97
        0
 75
     0
 76
     1
 98
        0
  0
HATCH
  5
226
330
1F
100
AcDbEntity
  8
Ech.1_5
  6
Continuous
 62
   190
440
 33554687
370
     9
390
5F
100
AcDbHatch
 10
0.0
 20
0.0
 30
0.0
210
0.0
220
0.0
230
1.0
  2
CwHatchPattern_11
 70
     0
 71
     0
 91
        1
 92
        3
 72
     0
 73
     1
 93
        4
 10
30267.67706475183
 20
-48872.53429425014
 10
30267.67706475183
 20
-48857.53429425014
 10
30257.67706475183
 20
-48857.53429425014
 10
30257.67706475183
 20
-48872.53429425014
 97
        0
 75
     0
 76
     2
 52
0.0
 41
0.5
 77
     0
 78
     1
 53
45.00000000000297
 43
0.0
 44
0.0
 45
-1.76776695296646
 46
1.767766952966277
 79
     0
 98
        0
1001
ACAD
1010
0.0
1020
0.0
1030
0.0
  0
LWPOLYLINE
  5
227
330
1F
100
AcDbEntity
  8
Ech.1_5
  6
Continuous
 62
   190
370
     5
390
5F
100
AcDbPolyline
 90
        5
 70
     0
 43
0.0
 10
30267.67706475183
 20
-48872.53429425014
 10
30267.67706475183
 20
-48857.53429425014
 10
30257.67706475183
 20
-48857.53429425014
 10
30257.67706475183
 20
-48872.53429425014
 10
30267.67706475183
 20
-48872.53429425014
  0
HATCH
  5
228
330
1F
100
AcDbEntity
  8
Ech.1_5
  6
Continuous
 62
     2
440
 33554687
370
     5
390
5F
100
AcDbHatch
 10
0.0
 20
0.0
 30
0.0
210
0.0
220
0.0
230
1.0
  2
SOLID
 70
     1
 71
     0
 91
        1
 92
        3
 72
     0
 73
     1
 93
        4
 10
30279.6770647518
 20
-48671.03809955205
 10
30279.6770647518
 20
-48666.03429425014
 10
30294.6770647518
 20
-48666.03429425014
 10
30294.6770647518
 20
-48671.03809955205
 97
        0
 75
     0
 76
     1
 98
        0
  0
HATCH
  5
229
330
1F
100
AcDbEntity
  8
Ech.1_5
  6
Continuous
 62
   190
440
 33554687
370
     9
390
5F
100
AcDbHatch
 10
0.0
 20
0.0
 30
0.0
210
0.0
220
0.0
230
1.0
  2
CwHatchPattern_11
 70
     0
 71
     0
 91
        1
 92
        3
 72
     0
 73
     1
 93
        4
 10
30279.6770647518
 20
-48671.03809955205
 10
30279.6770647518
 20
-48666.03429425014
 10
30294.6770647518
 20
-48666.03429425014
 10
30294.6770647518
 20
-48671.03809955205
 97
        0
 75
     0
 76
     2
 52
0.0
 41
0.5
 77
     0
 78
     1
 53
45.00000000000297
 43
0.0
 44
0.0
 45
-1.76776695296646
 46
1.767766952966277
 79
     0
 98
        0
1001
ACAD
1010
0.0
1020
0.0
1030
0.0
  0
LWPOLYLINE
  5
22A
330
1F
100
AcDbEntity
  8
Ech.1_5
  6
Continuous
 62
   190
370
     5
390
5F
100
AcDbPolyline
 90
        5
 70
     0
 43
0.0
 10
30279.6770647518
 20
-48671.03809955205
 10
30279.6770647518
 20
-48666.03429425014
 10
30294.6770647518
 20
-48666.03429425014
 10
30294.6770647518
 20
-48671.03809955205
 10
30279.6770647518
 20
-48671.03809955205
  0
HATCH
  5
22B
330
1F
100
AcDbEntity
  8
Ech.1_5
  6
Continuous
 62
     2
440
 33554687
370
     5
390
5F
100
AcDbHatch
 10
0.0
 20
0.0
 30
0.0
210
0.0
220
0.0
230
1.0
  2
SOLID
 70
     1
 71
     0
 91
        1
 92
        3
 72
     0
 73
     1
 93
        4
 10
30678.31247090656
 20
-48671.03809955205
 10
30678.31247090656
 20
-48666.03429425014
 10
30663.31247090656
 20
-48666.03429425014
 10
30663.31247090656
 20
-48671.03809955205
 97
        0
 75
     0
 76
     1
 98
        0
  0
HATCH
  5
22C
330
1F
100
AcDbEntity
  8
Ech.1_5
  6
Continuous
 62
   190
440
 33554687
370
     9
390
5F
100
AcDbHatch
 10
0.0
 20
0.0
 30
0.0
210
0.0
220
0.0
230
1.0
  2
CwHatchPattern_11
 70
     0
 71
     0
 91
        1
 92
        3
 72
     0
 73
     1
 93
        4
 10
30678.31247090656
 20
-48671.03809955205
 10
30678.31247090656
 20
-48666.03429425014
 10
30663.31247090656
 20
-48666.03429425014
 10
30663.31247090656
 20
-48671.03809955205
 97
        0
 75
     0
 76
     2
 52
0.0
 41
0.5
 77
     0
 78
     1
 53
45.00000000000297
 43
0.0
 44
0.0
 45
-1.76776695296646
 46
1.767766952966277
 79
     0
 98
        0
1001
ACAD
1010
0.0
1020
0.0
1030
0.0
  0
LWPOLYLINE
  5
22D
330
1F
100
AcDbEntity
  8
Ech.1_5
  6
Continuous
 62
   190
370
     5
390
5F
100
AcDbPolyline
 90
        5
 70
     0
 43
0.0
 10
30678.31247090656
 20
-48671.03809955205
 10
30678.31247090656
 20
-48666.03429425014
 10
30663.31247090656
 20
-48666.03429425014
 10
30663.31247090656
 20
-48671.03809955205
 10
30678.31247090656
 20
-48671.03809955205
  0
HATCH
  5
22E
330
1F
100
AcDbEntity
  8
Ech.1_5
  6
Continuous
 62
     2
440
 33554687
370
     5
390
5F
100
AcDbHatch
 10
0.0
 20
0.0
 30
0.0
210
0.0
220
0.0
230
1.0
  2
SOLID
 70
     1
 71
     0
 91
        1
 92
        3
 72
     0
 73
     1
 93
        4
 10
30406.10113365758
 20
-49175.3989240418
 10
30406.10113365758
 20
-49165.3989240418
 10
30390.90114367037
 20
-49165.3989240418
 10
30390.90114367037
 20
-49175.3989240418
 97
        0
 75
     0
 76
     1
 98
        0
  0
HATCH
  5
22F
330
1F
100
AcDbEntity
  8
Ech.1_5
  6
Continuous
 62
   190
440
 33554687
370
     9
390
5F
100
AcDbHatch
 10
0.0
 20
0.0
 30
0.0
210
0.0
220
0.0
230
1.0
  2
CwHatchPattern_11
 70
     0
 71
     0
 91
        1
 92
        3
 72
     0
 73
     1
 93
        4
 10
30406.10113365758
 20
-49175.3989240418
 10
30406.10113365758
 20
-49165.3989240418
 10
30390.90114367037
 20
-49165.3989240418
 10
30390.90114367037
 20
-49175.3989240418
 97
        0
 75
     0
 76
     2
 52
0.0
 41
0.5
 77
     0
 78
     1
 53
45.00000000000297
 43
0.0
 44
0.0
 45
-1.76776695296646
 46
1.767766952966277
 79
     0
 98
        0
1001
ACAD
1010
0.0
1020
0.0
1030
0.0
  0
LWPOLYLINE
  5
230
330
1F
100
AcDbEntity
  8
Ech.1_5
  6
Continuous
 62
   190
370
     5
390
5F
100
AcDbPolyline
 90
        5
 70
     0
 43
0.0
 10
30406.10113365758
 20
-49175.3989240418
 10
30406.10113365758
 20
-49165.3989240418
 10
30390.90114367037
 20
-49165.3989240418
 10
30390.90114367037
 20
-49175.3989240418
 10
30406.10113365758
 20
-49175.3989240418
  0
HATCH
  5
231
330
1F
100
AcDbEntity
  8
Ech.1_5
  6
Continuous
 62
   254
420
 13882323
440
 33554687
370
     5
390
5F
100
AcDbHatch
 10
0.0
 20
0.0
 30
0.0
210
0.0
220
0.0
230
1.0
  2
SOLID
 70
     1
 71
     0
 91
        1
 92
        3
 72
     0
 73
     1
 93
        4
 10
30710.31178878952
 20
-48872.53429425014
 10
30750.31178878952
 20
-48872.53429425014
 10
30750.31178878952
 20
-48899.53429425014
 10
30710.31178878952
 20
-48899.53429425014
 97
        0
 75
     0
 76
     1
 98
        0
  0
LINE
  5
232
330
1F
100
AcDbEntity
  8
Ech.1_5
  6
Continuous
 62
   190
370
    15
390
5F
100
AcDbLine
 10
30750.31178878952
 20
-48872.53429425014
 30
0.0
 11
30710.31178878952
 21
-48899.53429425014
 31
0.0
  0
LINE
  5
233
330
1F
100
AcDbEntity
  8
Ech.1_5
  6
Continuous
 62
   190
370
    15
390
5F
100
AcDbLine
 10
30750.31178878952
 20
-48899.53429425014
 30
0.0
 11
30710.31178878952
 21
-48872.53429425014
 31
0.0
  0
LWPOLYLINE
  5
234
330
1F
100
AcDbEntity
  8
Ech.1_5
  6
Continuous
 62
     5
370
    40
390
5F
100
AcDbPolyline
 90
        5
 70
     0
 43
0.0
 10
30710.31178878952
 20
-48872.53429425014
 10
30750.31178878952
 20
-48872.53429425014
 10
30750.31178878952
 20
-48899.53429425014
 10
30710.31178878952
 20
-48899.53429425014
 10
30710.31178878952
 20
-48872.53429425014
  0
HATCH
  5
235
330
1F
100
AcDbEntity
  8
Ech.1_5
  6
Continuous
 62
   254
420
 13882323
440
 33554687
370
     5
390
5F
100
AcDbHatch
 10
0.0
 20
0.0
 30
0.0
210
0.0
220
0.0
230
1.0
  2
SOLID
 70
     1
 71
     0
 91
        1
 92
        3
 72
     0
 73
     1
 93
        4
 10
30207.67774686884
 20
-48872.53429425014
 10
30247.67774686884
 20
-48872.53429425014
 10
30247.67774686884
 20
-48899.53429425014
 10
30207.67774686884
 20
-48899.53429425014
 97
        0
 75
     0
 76
     1
 98
        0
  0
LINE
  5
236
330
1F
100
AcDbEntity
  8
Ech.1_5
  6
Continuous
 62
   190
370
    15
390
5F
100
AcDbLine
 10
30247.67774686884
 20
-48872.53429425014
 30
0.0
 11
30207.67774686884
 21
-48899.53429425014
 31
0.0
  0
LINE
  5
237
330
1F
100
AcDbEntity
  8
Ech.1_5
  6
Continuous
 62
   190
370
    15
390
5F
100
AcDbLine
 10
30247.67774686884
 20
-48899.53429425014
 30
0.0
 11
30207.67774686884
 21
-48872.53429425014
 31
0.0
  0
LWPOLYLINE
  5
238
330
1F
100
AcDbEntity
  8
Ech.1_5
  6
Continuous
 62
     5
370
    40
390
5F
100
AcDbPolyline
 90
        5
 70
     0
 43
0.0
 10
30207.67774686884
 20
-48872.53429425014
 10
30247.67774686884
 20
-48872.53429425014
 10
30247.67774686884
 20
-48899.53429425014
 10
30207.67774686884
 20
-48899.53429425014
 10
30207.67774686884
 20
-48872.53429425014
  0
HATCH
  5
239
330
1F
100
AcDbEntity
  8
Ech.1_5
  6
Continuous
 62
   254
420
 15656413
440
 33554687
370
     5
390
5F
100
AcDbHatch
 10
0.0
 20
0.0
 30
0.0
210
0.0
220
0.0
230
1.0
  2
SOLID
 70
     1
 71
     0
 91
        1
 92
        3
 72
     0
 73
     1
 93
        4
 10
30700.31247090653
 20
-48723.53429425013
 10
30700.31247090653
 20
-48683.53429425014
 10
30690.31247090653
 20
-48683.53429425014
 10
30690.31247090653
 20
-48723.53429425014
 97
        0
 75
     0
 76
     1
 98
        0
  0
LINE
  5
23A
330
1F
100
AcDbEntity
  8
Ech.1_5
  6
Continuous
 62
   190
370
    15
390
5F
100
AcDbLine
 10
30700.31247090653
 20
-48683.53429425014
 30
0.0
 11
30690.31247090653
 21
-48723.53429425014
 31
0.0
  0
LINE
  5
23B
330
1F
100
AcDbEntity
  8
Ech.1_5
  6
Continuous
 62
   190
370
    15
390
5F
100
AcDbLine
 10
30690.31247090653
 20
-48683.53429425014
 30
0.0
 11
30700.31247090653
 21
-48723.53429425013
 31
0.0
  0
LWPOLYLINE
  5
23C
330
1F
100
AcDbEntity
  8
Ech.1_5
  6
Continuous
 62
   190
370
    15
390
5F
100
AcDbPolyline
 90
        5
 70
     0
 43
0.0
 10
30700.31247090653
 20
-48723.53429425013
 10
30700.31247090653
 20
-48683.53429425014
 10
30690.31247090653
 20
-48683.53429425014
 10
30690.31247090653
 20
-48723.53429425014
 10
30700.31247090653
 20
-48723.53429425013
  0
HATCH
  5
23D
330
1F
100
AcDbEntity
  8
Ech.1_5
  6
Continuous
 62
   254
420
 15656413
440
 33554687
370
     5
390
5F
100
AcDbHatch
 10
0.0
 20
0.0
 30
0.0
210
0.0
220
0.0
230
1.0
  2
SOLID
 70
     1
 71
     0
 91
        1
 92
        3
 72
     0
 73
     1
 93
        4
 10
30267.67706475183
 20
-48723.53429425013
 10
30267.67706475183
 20
-48683.53429425014
 10
30257.67706475183
 20
-48683.53429425014
 10
30257.67706475183
 20
-48723.53429425014
 97
        0
 75
     0
 76
     1
 98
        0
  0
LINE
  5
23E
330
1F
100
AcDbEntity
  8
Ech.1_5
  6
Continuous
 62
   190
370
    15
390
5F
100
AcDbLine
 10
30267.67706475183
 20
-48683.53429425014
 30
0.0
 11
30257.67706475183
 21
-48723.53429425014
 31
0.0
  0
LINE
  5
23F
330
1F
100
AcDbEntity
  8
Ech.1_5
  6
Continuous
 62
   190
370
    15
390
5F
100
AcDbLine
 10
30257.67706475183
 20
-48683.53429425014
 30
0.0
 11
30267.67706475183
 21
-48723.53429425013
 31
0.0
  0
LWPOLYLINE
  5
240
330
1F
100
AcDbEntity
  8
Ech.1_5
  6
Continuous
 62
   190
370
    15
390
5F
100
AcDbPolyline
 90
        5
 70
     0
 43
0.0
 10
30267.67706475183
 20
-48723.53429425013
 10
30267.67706475183
 20
-48683.53429425014
 10
30257.67706475183
 20
-48683.53429425014
 10
30257.67706475183
 20
-48723.53429425014
 10
30267.67706475183
 20
-48723.53429425013
  0
HATCH
  5
241
330
1F
100
AcDbEntity
  8
Ech.1_5
  6
Continuous
 62
   254
420
 15656413
440
 33554687
370
     5
390
5F
100
AcDbHatch
 10
0.0
 20
0.0
 30
0.0
210
0.0
220
0.0
230
1.0
  2
SOLID
 70
     1
 71
     0
 91
        1
 92
        3
 72
     0
 73
     1
 93
        4
 10
30700.31247090653
 20
-48857.53429425013
 10
30700.31247090653
 20
-48817.53429425014
 10
30690.31247090653
 20
-48817.53429425014
 10
30690.31247090653
 20
-48857.53429425014
 97
        0
 75
     0
 76
     1
 98
        0
  0
LINE
  5
242
330
1F
100
AcDbEntity
  8
Ech.1_5
  6
Continuous
 62
   190
370
    15
390
5F
100
AcDbLine
 10
30700.31247090653
 20
-48817.53429425014
 30
0.0
 11
30690.31247090653
 21
-48857.53429425014
 31
0.0
  0
LINE
  5
243
330
1F
100
AcDbEntity
  8
Ech.1_5
  6
Continuous
 62
   190
370
    15
390
5F
100
AcDbLine
 10
30690.31247090653
 20
-48817.53429425014
 30
0.0
 11
30700.31247090653
 21
-48857.53429425013
 31
0.0
  0
LWPOLYLINE
  5
244
330
1F
100
AcDbEntity
  8
Ech.1_5
  6
Continuous
 62
   190
370
    15
390
5F
100
AcDbPolyline
 90
        5
 70
     0
 43
0.0
 10
30700.31247090653
 20
-48857.53429425013
 10
30700.31247090653
 20
-48817.53429425014
 10
30690.31247090653
 20
-48817.53429425014
 10
30690.31247090653
 20
-48857.53429425014
 10
30700.31247090653
 20
-48857.53429425013
  0
HATCH
  5
245
330
1F
100
AcDbEntity
  8
Ech.1_5
  6
Continuous
 62
   254
420
 15656413
440
 33554687
370
     5
390
5F
100
AcDbHatch
 10
0.0
 20
0.0
 30
0.0
210
0.0
220
0.0
230
1.0
  2
SOLID
 70
     1
 71
     0
 91
        1
 92
        3
 72
     0
 73
     1
 93
        4
 10
30267.67706475183
 20
-48857.53429425013
 10
30267.67706475183
 20
-48817.53429425014
 10
30257.67706475183
 20
-48817.53429425014
 10
30257.67706475183
 20
-48857.53429425014
 97
        0
 75
     0
 76
     1
 98
        0
  0
LINE
  5
246
330
1F
100
AcDbEntity
  8
Ech.1_5
  6
Continuous
 62
   190
370
    15
390
5F
100
AcDbLine
 10
30267.67706475183
 20
-48817.53429425014
 30
0.0
 11
30257.67706475183
 21
-48857.53429425014
 31
0.0
  0
LINE
  5
247
330
1F
100
AcDbEntity
  8
Ech.1_5
  6
Continuous
 62
   190
370
    15
390
5F
100
AcDbLine
 10
30257.67706475183
 20
-48817.53429425014
 30
0.0
 11
30267.67706475183
 21
-48857.53429425013
 31
0.0
  0
LWPOLYLINE
  5
248
330
1F
100
AcDbEntity
  8
Ech.1_5
  6
Continuous
 62
   190
370
    15
390
5F
100
AcDbPolyline
 90
        5
 70
     0
 43
0.0
 10
30267.67706475183
 20
-48857.53429425013
 10
30267.67706475183
 20
-48817.53429425014
 10
30257.67706475183
 20
-48817.53429425014
 10
30257.67706475183
 20
-48857.53429425014
 10
30267.67706475183
 20
-48857.53429425013
  0
LWPOLYLINE
  5
249
330
1F
100
AcDbEntity
  8
Ech.1_5
  6
CADWORK_3
 62
   177
370
    20
390
5F
100
AcDbPolyline
 90
        2
 70
     0
 43
0.0
 10
30488.99476782918
 20
-48708.03429425014
 10
30690.31110667251
 20
-48708.03429425014
  0
LWPOLYLINE
  5
24A
330
1F
100
AcDbEntity
  8
Ech.1_5
  6
Continuous
 62
   177
370
    20
390
5F
100
AcDbPolyline
 90
        3
 70
     0
 43
0.0
 10
30267.67774686884
 20
-48708.03429425014
 10
30267.67774686884
 20
-48940.53429425014
 10
30468.99476782918
 20
-48940.53429425014
  0
LWPOLYLINE
  5
24B
330
1F
100
AcDbEntity
  8
Ech.1_5
  6
CADWORK_3
 62
   177
370
    20
390
5F
100
AcDbPolyline
 90
        2
 70
     0
 43
0.0
 10
30468.99476782918
 20
-48708.03429425014
 10
30267.67774686884
 20
-48708.03429425014
  0
LWPOLYLINE
  5
24C
330
1F
100
AcDbEntity
  8
Ech.1_5
  6
Continuous
 62
   190
370
    15
390
5F
100
AcDbPolyline
 90
        5
 70
     0
 43
0.0
 10
29986.49476782918
 20
-49324.06297163611
 10
30971.49476782918
 20
-49324.06297163611
 10
30971.49476782918
 20
-49461.47604370117
 10
29986.49476782918
 20
-49461.47604370117
 10
29986.49476782918
 20
-49324.06297163611
  0
HATCH
  5
24D
330
1F
100
AcDbEntity
  8
Ech.1_5
  6
Continuous
 62
   190
440
 33554687
370
    15
390
5F
100
AcDbHatch
 10
0.0
 20
0.0
 30
0.0
210
0.0
220
0.0
230
1.0
  2
SOLID
 70
     1
 71
     0
 91
        1
 92
        3
 72
     0
 73
     1
 93
        4
 10
30831.8862978991
 20
-48259.2280114243
 10
30881.8862978991
 20
-48259.2280114243
 10
30881.8862978991
 20
-48251.81287389039
 10
30831.8862978991
 20
-48251.81287389039
 97
        0
 75
     0
 76
     1
 98
        0
  0
HATCH
  5
24E
330
1F
100
AcDbEntity
  8
Ech.1_5
  6
Continuous
 62
    33
420
 12426362
440
 33554687
370
    20
390
5F
100
AcDbHatch
 10
0.0
 20
0.0
 30
0.0
210
0.0
220
0.0
230
1.0
  2
SOLID
 70
     1
 71
     0
 91
        1
 92
        3
 72
     0
 73
     1
 93
        5
 10
30294.67706475183
 20
-48671.03809955205
 10
30279.6770647518
 20
-48671.03809955205
 10
30267.67706475183
 20
-48671.03809955205
 10
30267.67706475183
 20
-48935.53429425014
 10
30294.67706475183
 20
-48935.53429425014
 97
        0
 75
     0
 76
     1
 98
        0
  0
LWPOLYLINE
  5
24F
330
1F
100
AcDbEntity
  8
Ech.1_5
  6
Continuous
 62
     7
370
    20
390
5F
100
AcDbPolyline
 90
        6
 70
     0
 43
0.0
 10
30294.67706475183
 20
-48671.03809955205
 10
30279.6770647518
 20
-48671.03809955205
 10
30267.67706475183
 20
-48671.03809955205
 10
30267.67706475183
 20
-48935.53429425014
 10
30294.67706475183
 20
-48935.53429425014
 10
30294.67706475183
 20
-48671.03809955205
  0
LWPOLYLINE
  5
250
330
1F
100
AcDbEntity
  8
Ech.1_5
  6
Continuous
 62
     5
370
    40
390
5F
100
AcDbPolyline
 90
        5
 70
     0
 43
0.0
 10
30212.67774686884
 20
-48863.53208811664
 10
30212.67774686884
 20
-48683.53429425014
 10
30257.67774686884
 20
-48683.53429425014
 10
30257.67774686884
 20
-48863.53208811664
 10
30212.67774686884
 20
-48863.53208811664
  0
LWPOLYLINE
  5
251
330
1F
100
AcDbEntity
  8
Ech.1_5
  6
Continuous
 62
     5
370
    40
390
5F
100
AcDbPolyline
 90
        5
 70
     0
 43
0.0
 10
30167.67774686884
 20
-48863.53208811664
 10
30167.67774686884
 20
-48683.53429425014
 10
30212.67774686884
 20
-48683.53429425014
 10
30212.67774686884
 20
-48863.53208811664
 10
30167.67774686884
 20
-48863.53208811664
  0
HATCH
  5
252
330
1F
100
AcDbEntity
  8
Ech.1_5
  6
Continuous
 62
    33
420
 12426362
440
 33554687
370
     5
390
5F
100
AcDbHatch
 10
0.0
 20
0.0
 30
0.0
210
0.0
220
0.0
230
1.0
  2
SOLID
 70
     1
 71
     0
 91
        1
 92
        3
 72
     0
 73
     1
 93
        4
 10
30212.67706475183
 20
-48683.53429425014
 10
30257.67706475183
 20
-48683.53429425014
 10
30257.67706475183
 20
-48863.53429425014
 10
30212.67706475183
 20
-48863.53429425014
 97
        0
 75
     0
 76
     1
 98
        0
  0
LINE
  5
253
330
1F
100
AcDbEntity
  8
Ech.1_5
  6
Continuous
 62
   190
370
    15
390
5F
100
AcDbLine
 10
30257.67706475183
 20
-48683.53429425014
 30
0.0
 11
30212.67706475183
 21
-48863.53429425014
 31
0.0
  0
LINE
  5
254
330
1F
100
AcDbEntity
  8
Ech.1_5
  6
Continuous
 62
   190
370
    15
390
5F
100
AcDbLine
 10
30257.67706475183
 20
-48863.53429425014
 30
0.0
 11
30212.67706475183
 21
-48683.53429425014
 31
0.0
  0
LWPOLYLINE
  5
255
330
1F
100
AcDbEntity
  8
Ech.1_5
  6
Continuous
 62
     5
370
    40
390
5F
100
AcDbPolyline
 90
        5
 70
     0
 43
0.0
 10
30212.67706475183
 20
-48683.53429425014
 10
30257.67706475183
 20
-48683.53429425014
 10
30257.67706475183
 20
-48863.53429425014
 10
30212.67706475183
 20
-48863.53429425014
 10
30212.67706475183
 20
-48683.53429425014
  0
HATCH
  5
256
330
1F
100
AcDbEntity
  8
Ech.1_5
  6
Continuous
 62
    33
420
 12426362
440
 33554687
370
     5
390
5F
100
AcDbHatch
 10
0.0
 20
0.0
 30
0.0
210
0.0
220
0.0
230
1.0
  2
SOLID
 70
     1
 71
     0
 91
        1
 92
        3
 72
     0
 73
     1
 93
        4
 10
30167.67706475183
 20
-48683.53429425014
 10
30212.67706475183
 20
-48683.53429425014
 10
30212.67706475183
 20
-48863.53429425014
 10
30167.67706475183
 20
-48863.53429425014
 97
        0
 75
     0
 76
     1
 98
        0
  0
LINE
  5
257
330
1F
100
AcDbEntity
  8
Ech.1_5
  6
Continuous
 62
   190
370
    15
390
5F
100
AcDbLine
 10
30212.67706475183
 20
-48683.53429425014
 30
0.0
 11
30167.67706475183
 21
-48863.53429425014
 31
0.0
  0
LINE
  5
258
330
1F
100
AcDbEntity
  8
Ech.1_5
  6
Continuous
 62
   190
370
    15
390
5F
100
AcDbLine
 10
30212.67706475183
 20
-48863.53429425014
 30
0.0
 11
30167.67706475183
 21
-48683.53429425014
 31
0.0
  0
LWPOLYLINE
  5
259
330
1F
100
AcDbEntity
  8
Ech.1_5
  6
Continuous
 62
     5
370
    40
390
5F
100
AcDbPolyline
 90
        5
 70
     0
 43
0.0
 10
30167.67706475183
 20
-48683.53429425014
 10
30212.67706475183
 20
-48683.53429425014
 10
30212.67706475183
 20
-48863.53429425014
 10
30167.67706475183
 20
-48863.53429425014
 10
30167.67706475183
 20
-48683.53429425014
  0
HATCH
  5
25A
330
1F
100
AcDbEntity
  8
Ech.1_5
  6
Continuous
 62
    40
420
 16297258
440
 33554687
370
     5
390
5F
100
AcDbHatch
 10
0.0
 20
0.0
 30
0.0
210
0.0
220
0.0
230
1.0
  2
SOLID
 70
     1
 71
     0
 91
        1
 92
        3
 72
     0
 73
     1
 93
        4
 10
30021.49476782918
 20
-48863.53429425014
 10
30021.49476782918
 20
-48872.53429425014
 10
30257.67706475183
 20
-48872.53429425014
 10
30257.67706475183
 20
-48863.53429425014
 97
        0
 75
     0
 76
     1
 98
        0
  0
HATCH
  5
25B
330
1F
100
AcDbEntity
  8
Ech.1_5
  6
Continuous
 62
   190
440
 33554687
370
    15
390
5F
100
AcDbHatch
 10
0.0
 20
0.0
 30
0.0
210
0.0
220
0.0
230
1.0
  2
CwHatchPattern_74
 70
     0
 71
     0
 91
        1
 92
        3
 72
     0
 73
     1
 93
        4
 10
30021.49476782918
 20
-48863.53429425014
 10
30021.49476782918
 20
-48872.53429425014
 10
30257.67706475183
 20
-48872.53429425014
 10
30257.67706475183
 20
-48863.53429425014
 97
        0
 75
     0
 76
     2
 52
0.0
 41
0.6000000238418579
 77
     0
 78
     3
 53
45.00000000000297
 43
0.0
 44
0.0
 45
-0.0000000000043443
 46
42.00000166893005
 79
     0
 53
45.00000000000297
 43
0.0
 44
10.80000042915344
 45
-0.0000000000043443
 46
42.00000166893005
 79
     0
 53
45.00000000000297
 43
0.0
 44
21.60000085830688
 45
-0.0000000000043443
 46
42.00000166893005
 79
     0
 98
        0
1001
ACAD
1010
0.0
1020
0.0
1030
0.0
  0
LWPOLYLINE
  5
25C
330
1F
100
AcDbEntity
  8
Ech.1_5
  6
Continuous
 62
   190
370
    15
390
5F
100
AcDbPolyline
 90
        5
 70
     0
 43
0.0
 10
30021.49476782918
 20
-48863.53429425014
 10
30021.49476782918
 20
-48872.53429425014
 10
30257.67706475183
 20
-48872.53429425014
 10
30257.67706475183
 20
-48863.53429425014
 10
30021.49476782918
 20
-48863.53429425014
  0
LWPOLYLINE
  5
25D
330
1F
100
AcDbEntity
  8
Ech.1_5
  6
Continuous
 62
   177
370
    20
390
5F
100
AcDbPolyline
 90
        3
 70
     0
 43
0.0
 10
30690.31178878952
 20
-48708.03429425014
 10
30690.31178878952
 20
-48940.53429425014
 10
30488.99476782918
 20
-48940.53429425014
  0
HATCH
  5
25E
330
1F
100
AcDbEntity
  8
Ech.1_5
  6
Continuous
 62
    33
420
 12426362
440
 33554687
370
    20
390
5F
100
AcDbHatch
 10
0.0
 20
0.0
 30
0.0
210
0.0
220
0.0
230
1.0
  2
SOLID
 70
     1
 71
     0
 91
        1
 92
        3
 72
     0
 73
     1
 93
        5
 10
30663.31247090653
 20
-48935.53429425014
 10
30690.31247090653
 20
-48935.53429425014
 10
30690.31247090653
 20
-48671.03809955205
 10
30678.31247090656
 20
-48671.03809955205
 10
30663.31247090653
 20
-48671.03809955205
 97
        0
 75
     0
 76
     1
 98
        0
  0
LWPOLYLINE
  5
25F
330
1F
100
AcDbEntity
  8
Ech.1_5
  6
Continuous
 62
     7
370
    20
390
5F
100
AcDbPolyline
 90
        6
 70
     0
 43
0.0
 10
30663.31247090653
 20
-48935.53429425014
 10
30690.31247090653
 20
-48935.53429425014
 10
30690.31247090653
 20
-48671.03809955205
 10
30678.31247090656
 20
-48671.03809955205
 10
30663.31247090653
 20
-48671.03809955205
 10
30663.31247090653
 20
-48935.53429425014
  0
LWPOLYLINE
  5
260
330
1F
100
AcDbEntity
  8
Ech.1_5
  6
Continuous
 62
     5
370
    40
390
5F
100
AcDbPolyline
 90
        5
 70
     0
 43
0.0
 10
30745.31178878952
 20
-48863.53208811664
 10
30745.31178878952
 20
-48683.53429425014
 10
30700.31178878952
 20
-48683.53429425014
 10
30700.31178878952
 20
-48863.53208811664
 10
30745.31178878952
 20
-48863.53208811664
  0
LWPOLYLINE
  5
261
330
1F
100
AcDbEntity
  8
Ech.1_5
  6
Continuous
 62
     5
370
    40
390
5F
100
AcDbPolyline
 90
        5
 70
     0
 43
0.0
 10
30790.31178878952
 20
-48863.53208811664
 10
30790.31178878952
 20
-48683.53429425014
 10
30745.31178878952
 20
-48683.53429425014
 10
30745.31178878952
 20
-48863.53208811664
 10
30790.31178878952
 20
-48863.53208811664
  0
HATCH
  5
262
330
1F
100
AcDbEntity
  8
Ech.1_5
  6
Continuous
 62
    33
420
 12426362
440
 33554687
370
     5
390
5F
100
AcDbHatch
 10
0.0
 20
0.0
 30
0.0
210
0.0
220
0.0
230
1.0
  2
SOLID
 70
     1
 71
     0
 91
        1
 92
        3
 72
     0
 73
     1
 93
        4
 10
30745.31247090653
 20
-48683.53429425014
 10
30700.31247090653
 20
-48683.53429425014
 10
30700.31247090653
 20
-48863.53429425014
 10
30745.31247090653
 20
-48863.53429425014
 97
        0
 75
     0
 76
     1
 98
        0
  0
LINE
  5
263
330
1F
100
AcDbEntity
  8
Ech.1_5
  6
Continuous
 62
   190
370
    15
390
5F
100
AcDbLine
 10
30700.31247090653
 20
-48683.53429425014
 30
0.0
 11
30745.31247090653
 21
-48863.53429425014
 31
0.0
  0
LINE
  5
264
330
1F
100
AcDbEntity
  8
Ech.1_5
  6
Continuous
 62
   190
370
    15
390
5F
100
AcDbLine
 10
30700.31247090653
 20
-48863.53429425014
 30
0.0
 11
30745.31247090653
 21
-48683.53429425014
 31
0.0
  0
LWPOLYLINE
  5
265
330
1F
100
AcDbEntity
  8
Ech.1_5
  6
Continuous
 62
     5
370
    40
390
5F
100
AcDbPolyline
 90
        5
 70
     0
 43
0.0
 10
30745.31247090653
 20
-48683.53429425014
 10
30700.31247090653
 20
-48683.53429425014
 10
30700.31247090653
 20
-48863.53429425014
 10
30745.31247090653
 20
-48863.53429425014
 10
30745.31247090653
 20
-48683.53429425014
  0
HATCH
  5
266
330
1F
100
AcDbEntity
  8
Ech.1_5
  6
Continuous
 62
    33
420
 12426362
440
 33554687
370
     5
390
5F
100
AcDbHatch
 10
0.0
 20
0.0
 30
0.0
210
0.0
220
0.0
230
1.0
  2
SOLID
 70
     1
 71
     0
 91
        1
 92
        3
 72
     0
 73
     1
 93
        4
 10
30790.31247090653
 20
-48683.53429425014
 10
30745.31247090653
 20
-48683.53429425014
 10
30745.31247090653
 20
-48863.53429425014
 10
30790.31247090653
 20
-48863.53429425014
 97
        0
 75
     0
 76
     1
 98
        0
  0
LINE
  5
267
330
1F
100
AcDbEntity
  8
Ech.1_5
  6
Continuous
 62
   190
370
    15
390
5F
100
AcDbLine
 10
30745.31247090653
 20
-48683.53429425014
 30
0.0
 11
30790.31247090653
 21
-48863.53429425014
 31
0.0
  0
LINE
  5
268
330
1F
100
AcDbEntity
  8
Ech.1_5
  6
Continuous
 62
   190
370
    15
390
5F
100
AcDbLine
 10
30745.31247090653
 20
-48863.53429425014
 30
0.0
 11
30790.31247090653
 21
-48683.53429425014
 31
0.0
  0
LWPOLYLINE
  5
269
330
1F
100
AcDbEntity
  8
Ech.1_5
  6
Continuous
 62
     5
370
    40
390
5F
100
AcDbPolyline
 90
        5
 70
     0
 43
0.0
 10
30790.31247090653
 20
-48683.53429425014
 10
30745.31247090653
 20
-48683.53429425014
 10
30745.31247090653
 20
-48863.53429425014
 10
30790.31247090653
 20
-48863.53429425014
 10
30790.31247090653
 20
-48683.53429425014
  0
HATCH
  5
26A
330
1F
100
AcDbEntity
  8
Ech.1_5
  6
Continuous
 62
    40
420
 16297258
440
 33554687
370
     5
390
5F
100
AcDbHatch
 10
0.0
 20
0.0
 30
0.0
210
0.0
220
0.0
230
1.0
  2
SOLID
 70
     1
 71
     0
 91
        1
 92
        3
 72
     0
 73
     1
 93
        4
 10
30936.49476782918
 20
-48863.53429425014
 10
30936.49476782918
 20
-48872.53429425014
 10
30700.31247090653
 20
-48872.53429425014
 10
30700.31247090653
 20
-48863.53429425014
 97
        0
 75
     0
 76
     1
 98
        0
  0
HATCH
  5
26B
330
1F
100
AcDbEntity
  8
Ech.1_5
  6
Continuous
 62
   190
440
 33554687
370
    15
390
5F
100
AcDbHatch
 10
0.0
 20
0.0
 30
0.0
210
0.0
220
0.0
230
1.0
  2
CwHatchPattern_74
 70
     0
 71
     0
 91
        1
 92
        3
 72
     0
 73
     1
 93
        4
 10
30936.49476782918
 20
-48863.53429425014
 10
30936.49476782918
 20
-48872.53429425014
 10
30700.31247090653
 20
-48872.53429425014
 10
30700.31247090653
 20
-48863.53429425014
 97
        0
 75
     0
 76
     2
 52
0.0
 41
0.6000000238418579
 77
     0
 78
     3
 53
45.00000000000297
 43
0.0
 44
0.0
 45
-0.0000000000043443
 46
42.00000166893005
 79
     0
 53
45.00000000000297
 43
0.0
 44
10.80000042915344
 45
-0.0000000000043443
 46
42.00000166893005
 79
     0
 53
45.00000000000297
 43
0.0
 44
21.60000085830688
 45
-0.0000000000043443
 46
42.00000166893005
 79
     0
 98
        0
1001
ACAD
1010
0.0
1020
0.0
1030
0.0
  0
LWPOLYLINE
  5
26C
330
1F
100
AcDbEntity
  8
Ech.1_5
  6
Continuous
 62
   190
370
    15
390
5F
100
AcDbPolyline
 90
        5
 70
     0
 43
0.0
 10
30936.49476782918
 20
-48863.53429425014
 10
30936.49476782918
 20
-48872.53429425014
 10
30700.31247090653
 20
-48872.53429425014
 10
30700.31247090653
 20
-48863.53429425014
 10
30936.49476782918
 20
-48863.53429425014
  0
LWPOLYLINE
  5
26D
330
1F
100
AcDbEntity
  8
Ech.1_5
  6
Continuous
 62
     7
370
    20
390
5F
100
AcDbPolyline
 90
      115
 70
     0
 43
0.0
 10
30575.36399670954
 20
-48624.04190485015
 10
30599.11830760327
 20
-48624.04190485015
 10
30599.11830760327
 20
-48620.04190485015
 10
30595.11830760325
 20
-48620.04190485015
 10
30595.11830760325
 20
-48604.04190485015
 10
30599.11830760327
 20
-48604.04190485015
 10
30599.11830760327
 20
-48574.04190485015
 10
30651.11830760327
 20
-48574.04190485015
 10
30651.46693060327
 20
-48574.05712605016
 10
30651.81290030326
 20
-48574.10267385015
 10
30652.15358380325
 20
-48574.17820155014
 10
30652.48638820326
 20
-48574.28313445013
 10
30652.80878060326
 20
-48574.41667375014
 10
30653.11830760327
 20
-48574.57780325015
 10
30653.41261330326
 20
-48574.76529675013
 10
30653.68945800325
 20
-48574.97772715015
 10
30653.94673470327
 20
-48575.21347775015
 10
30654.18248540327
 20
-48575.47075445014
 10
30654.39491580326
 20
-48575.74759915016
 10
30654.58240920326
 20
-48576.04190485015
 10
30654.74353870325
 20
-48576.35143185015
 10
30654.87707810326
 20
-48576.67382435013
 10
30654.98201090325
 20
-48577.00662875014
 10
30655.05753860327
 20
-48577.34731215016
 10
30655.10308640326
 20
-48577.69328195015
 10
30655.11830760327
 20
-48578.04190485015
 10
30655.11830760327
 20
-48587.54190485015
 10
30655.11259960326
 20
-48587.67263855015
 10
30655.09551920326
 20
-48587.80237715015
 10
30655.06719630326
 20
-48587.93013345015
 10
30655.02784650325
 20
-48588.05493515015
 10
30654.97776930326
 20
-48588.17583225014
 10
30654.91734570327
 20
-48588.29190485015
 10
30654.84703570326
 20
-48588.40226955015
 10
30654.76737430326
 20
-48588.50608635014
 10
30654.67896780326
 20
-48588.60256505014
 10
30654.58248900326
 20
-48588.69097155014
 10
30654.47867220327
 20
-48588.77063295014
 10
30654.36830760327
 20
-48588.84094295015
 10
30654.25223500326
 20
-48588.90136655014
 10
30654.13133780327
 20
-48588.95144385014
 10
30654.00653620327
 20
-48588.99079365014
 10
30653.87877990327
 20
-48589.01911655015
 10
30653.74904120327
 20
-48589.03619695014
 10
30653.61830760327
 20
-48589.04190485015
 10
30638.61830760327
 20
-48589.04190485015
 10
30638.48757400327
 20
-48589.04761285013
 10
30638.35783530327
 20
-48589.06469325015
 10
30638.23007900327
 20
-48589.09301615016
 10
30638.10527740327
 20
-48589.13236595014
 10
30637.98438020325
 20
-48589.18244325016
 10
30637.86830760327
 20
-48589.24286675015
 10
30637.75794290327
 20
-48589.31317685016
 10
30637.65412620325
 20
-48589.39283825016
 10
30637.55764740325
 20
-48589.48124475016
 10
30637.46924090325
 20
-48589.57772345016
 10
30637.38957950325
 20
-48589.68154025015
 10
30637.31926950327
 20
-48589.79190485015
 10
30637.25884590325
 20
-48589.90797745016
 10
30637.20876870325
 20
-48590.02887465015
 10
30637.16941880325
 20
-48590.15367635015
 10
30637.14109600327
 20
-48590.28143265015
 10
30637.12401550325
 20
-48590.41117125015
 10
30637.11830760327
 20
-48590.54190485015
 10
30637.11830760327
 20
-48626.04190485015
 10
30637.11069700326
 20
-48626.21621635013
 10
30637.08792310325
 20
-48626.38920125015
 10
30637.05015920325
 20
-48626.55954295014
 10
30636.99769280325
 20
-48626.72594515014
 10
30636.93092320325
 20
-48626.88714145015
 10
30636.85035840327
 20
-48627.04190485015
 10
30636.75661170326
 20
-48627.18905775015
 10
30636.65039650325
 20
-48627.32748015014
 10
30636.53252120325
 20
-48627.45611845014
 10
30636.40388280326
 20
-48627.57399375013
 10
30636.26546050327
 20
-48627.68020895014
 10
30636.11830760327
 20
-48627.77395565015
 10
30635.96354410327
 20
-48627.85452045016
 10
30635.80234790326
 20
-48627.92129015016
 10
30635.63594570326
 20
-48627.97375655016
 10
30635.46560390326
 20
-48628.01152035013
 10
30635.29261910325
 20
-48628.03429425014
 10
30635.11830760327
 20
-48628.04190485015
 10
30625.11830760327
 20
-48628.04190485015
 10
30625.11830760327
 20
-48628.34190485014
 10
30617.11830760327
 20
-48628.34190485014
 10
30617.11830760327
 20
-48632.34190485014
 10
30625.11830760327
 20
-48632.34190485014
 10
30625.11830760327
 20
-48637.27457785014
 10
30620.85948850326
 20
-48639.18305205014
 10
30620.31127513773
 20
-48641.95805055015
 10
30620.11830760327
 20
-48642.93483195016
 10
30624.37712660325
 20
-48644.84330605016
 10
30625.11830760327
 20
-48647.04190485015
 10
30625.10689170325
 20
-48647.30337215016
 10
30625.07273080326
 20
-48647.56284945014
 10
30625.01608510325
 20
-48647.81836205015
 10
30624.93738550327
 20
-48648.06796535016
 10
30624.83723090325
 20
-48648.30975965016
 10
30624.71638380326
 20
-48648.54190485015
 10
30624.57576370327
 20
-48648.76263415015
 10
30624.41644090325
 20
-48648.97026775013
 10
30624.23962790325
 20
-48649.16322525016
 10
30624.04667040325
 20
-48649.34003825016
 10
30623.83903690326
 20
-48649.49936105016
 10
30623.61830760327
 20
-48649.63998105015
 10
30623.38616240325
 20
-48649.76082825016
 10
30623.14436800325
 20
-48649.86098275015
 10
30622.89476470327
 20
-48649.93968235016
 10
30622.63925210326
 20
-48649.99632815014
 10
30622.37977480324
 20
-48650.03048895016
 10
30622.11830760327
 20
-48650.04190485015
 10
30591.82929818255
 20
-48650.04190485015
 42
-0.3152987888792792
 10
30582.4323719747
 20
-48643.4621062834
 10
30575.36399670954
 20
-48624.04190485015
  0
LWPOLYLINE
  5
26E
330
1F
100
AcDbEntity
  8
Ech.1_5
  6
Continuous
 62
     7
370
    20
390
5F
100
AcDbPolyline
 90
        6
 70
     0
 43
0.0
 10
30599.11830760327
 20
-48600.04190485015
 10
30599.11830760327
 20
-48574.04190485015
 10
30591.82929818255
 20
-48574.04190485015
 42
0.3152987888792792
 10
30582.4323719747
 20
-48580.62170341689
 10
30575.36399670954
 20
-48600.04190485015
 10
30599.11830760327
 20
-48600.04190485015
  0
LWPOLYLINE
  5
26F
330
1F
100
AcDbEntity
  8
Ech.1_5
  6
Continuous
 62
     7
370
    20
390
5F
100
AcDbPolyline
 90
      115
 70
     0
 43
0.0
 10
30382.62553894881
 20
-48624.04190485015
 10
30358.87122805509
 20
-48624.04190485015
 10
30358.87122805509
 20
-48620.04190485015
 10
30362.8712280551
 20
-48620.04190485015
 10
30362.8712280551
 20
-48604.04190485015
 10
30358.87122805509
 20
-48604.04190485015
 10
30358.87122805509
 20
-48574.04190485015
 10
30306.87122805509
 20
-48574.04190485015
 10
30306.52260505509
 20
-48574.05712605016
 10
30306.1766353551
 20
-48574.10267385015
 10
30305.83595185511
 20
-48574.17820155014
 10
30305.5031474551
 20
-48574.28313445013
 10
30305.18075505509
 20
-48574.41667375014
 10
30304.87122805509
 20
-48574.57780325015
 10
30304.5769223551
 20
-48574.76529675013
 10
30304.30007765511
 20
-48574.97772715015
 10
30304.04280095509
 20
-48575.21347775015
 10
30303.80705025509
 20
-48575.47075445014
 10
30303.5946198551
 20
-48575.74759915016
 10
30303.40712645509
 20
-48576.04190485015
 10
30303.24599695511
 20
-48576.35143185015
 10
30303.1124575551
 20
-48576.67382435013
 10
30303.00752475511
 20
-48577.00662875014
 10
30302.93199705509
 20
-48577.34731215016
 10
30302.8864492551
 20
-48577.69328195015
 10
30302.87122805509
 20
-48578.04190485015
 10
30302.87122805509
 20
-48587.54190485015
 10
30302.8769360551
 20
-48587.67263855015
 10
30302.89401645509
 20
-48587.80237715015
 10
30302.9223393551
 20
-48587.93013345015
 10
30302.9616891551
 20
-48588.05493515015
 10
30303.0117663551
 20
-48588.17583225014
 10
30303.07218995509
 20
-48588.29190485015
 10
30303.1424999551
 20
-48588.40226955015
 10
30303.2221613551
 20
-48588.50608635014
 10
30303.3105678551
 20
-48588.60256505014
 10
30303.4070466551
 20
-48588.69097155014
 10
30303.51086345509
 20
-48588.77063295014
 10
30303.62122805509
 20
-48588.84094295015
 10
30303.7373006551
 20
-48588.90136655014
 10
30303.85819785509
 20
-48588.95144385014
 10
30303.98299945509
 20
-48588.99079365014
 10
30304.11075575509
 20
-48589.01911655015
 10
30304.24049445509
 20
-48589.03619695014
 10
30304.37122805509
 20
-48589.04190485015
 10
30319.37122805509
 20
-48589.04190485015
 10
30319.50196165509
 20
-48589.04761285013
 10
30319.63170035509
 20
-48589.06469325015
 10
30319.75945665509
 20
-48589.09301615016
 10
30319.88425825509
 20
-48589.13236595014
 10
30320.00515545511
 20
-48589.18244325016
 10
30320.12122805509
 20
-48589.24286675015
 10
30320.23159275509
 20
-48589.31317685016
 10
30320.33540945511
 20
-48589.39283825016
 10
30320.43188825511
 20
-48589.48124475016
 10
30320.52029475511
 20
-48589.57772345016
 10
30320.59995615511
 20
-48589.68154025015
 10
30320.67026615509
 20
-48589.79190485015
 10
30320.73068975511
 20
-48589.90797745016
 10
30320.7807669551
 20
-48590.02887465015
 10
30320.82011685511
 20
-48590.15367635015
 10
30320.84843965508
 20
-48590.28143265015
 10
30320.86552015511
 20
-48590.41117125015
 10
30320.87122805509
 20
-48590.54190485015
 10
30320.87122805509
 20
-48626.04190485015
 10
30320.8788386551
 20
-48626.21621635013
 10
30320.90161255511
 20
-48626.38920125015
 10
30320.93937645511
 20
-48626.55954295014
 10
30320.99184285511
 20
-48626.72594515014
 10
30321.05861245511
 20
-48626.88714145015
 10
30321.13917725509
 20
-48627.04190485015
 10
30321.2329239551
 20
-48627.18905775015
 10
30321.3391391551
 20
-48627.32748015014
 10
30321.4570144551
 20
-48627.45611845014
 10
30321.5856528551
 20
-48627.57399375013
 10
30321.72407515509
 20
-48627.68020895014
 10
30321.87122805509
 20
-48627.77395565015
 10
30322.02599155509
 20
-48627.85452045016
 10
30322.18718775509
 20
-48627.92129015016
 10
30322.3535899551
 20
-48627.97375655016
 10
30322.52393175509
 20
-48628.01152035013
 10
30322.69691655511
 20
-48628.03429425014
 10
30322.87122805509
 20
-48628.04190485015
 10
30332.87122805509
 20
-48628.04190485015
 10
30332.87122805509
 20
-48628.34190485014
 10
30340.87122805509
 20
-48628.34190485014
 10
30340.87122805509
 20
-48632.34190485014
 10
30332.87122805509
 20
-48632.34190485014
 10
30332.87122805509
 20
-48637.27457785014
 10
30337.1300471551
 20
-48639.18305205014
 10
30337.67826052062
 20
-48641.95805055015
 10
30337.87122805509
 20
-48642.93483195016
 10
30333.61240905511
 20
-48644.84330605016
 10
30332.87122805509
 20
-48647.04190485015
 10
30332.88264395511
 20
-48647.30337215016
 10
30332.9168048551
 20
-48647.56284945014
 10
30332.97345055511
 20
-48647.81836205015
 10
30333.05215015509
 20
-48648.06796535016
 10
30333.15230475511
 20
-48648.30975965016
 10
30333.27315185509
 20
-48648.54190485015
 10
30333.41377195509
 20
-48648.76263415015
 10
30333.57309475511
 20
-48648.97026775013
 10
30333.74990775511
 20
-48649.16322525016
 10
30333.94286525511
 20
-48649.34003825016
 10
30334.15049875509
 20
-48649.49936105016
 10
30334.37122805509
 20
-48649.63998105015
 10
30334.60337325511
 20
-48649.76082825016
 10
30334.84516765511
 20
-48649.86098275015
 10
30335.09477095509
 20
-48649.93968235016
 10
30335.3502835551
 20
-48649.99632815014
 10
30335.60976085511
 20
-48650.03048895016
 10
30335.87122805509
 20
-48650.04190485015
 10
30366.16023747581
 20
-48650.04190485015
 42
0.3152987888792795
 10
30375.55716368366
 20
-48643.4621062834
 10
30382.62553894881
 20
-48624.04190485015
  0
LWPOLYLINE
  5
270
330
1F
100
AcDbEntity
  8
Ech.1_5
  6
Continuous
 62
     7
370
    20
390
5F
100
AcDbPolyline
 90
        6
 70
     0
 43
0.0
 10
30358.87122805509
 20
-48600.04190485015
 10
30358.87122805509
 20
-48574.04190485015
 10
30366.16023747581
 20
-48574.04190485015
 42
-0.3152987888792795
 10
30375.55716368366
 20
-48580.62170341689
 10
30382.62553894882
 20
-48600.04190485015
 10
30358.87122805509
 20
-48600.04190485015
  0
POLYLINE
  5
271
330
1F
100
AcDbEntity
  8
Ech.1_5
  6
Continuous
 62
     7
370
    20
390
5F
100
AcDb3dPolyline
 66
     1
 10
0.0
 20
0.0
 30
0.0
 70
     8
  0
VERTEX
  5
272
330
271
100
AcDbEntity
  8
Ech.1_5
  6
Continuous
 62
     7
370
    20
100
AcDbVertex
100
AcDb3dPolylineVertex
 10
30340.16772345508
 20
-48664.60544475015
 30
28.57115049999372
 70
    32
  0
VERTEX
  5
273
330
271
100
AcDbEntity
  8
Ech.1_5
  6
Continuous
 62
     7
370
    20
100
AcDbVertex
100
AcDb3dPolylineVertex
 10
30339.93197285508
 20
-48664.86272145015
 30
28.82842719999114
 70
    32
  0
VERTEX
  5
274
330
271
100
AcDbEntity
  8
Ech.1_5
  6
Continuous
 62
     7
370
    20
100
AcDbVertex
100
AcDb3dPolylineVertex
 10
30339.67469615509
 20
-48665.09847205014
 30
29.06417779999281
 70
    32
  0
VERTEX
  5
275
330
271
100
AcDbEntity
  8
Ech.1_5
  6
Continuous
 62
     7
370
    20
100
AcDbVertex
100
AcDb3dPolylineVertex
 10
30339.39785145511
 20
-48665.31090245016
 30
29.2766081999918
 70
    32
  0
VERTEX
  5
276
330
271
100
AcDbEntity
  8
Ech.1_5
  6
Continuous
 62
     7
370
    20
100
AcDbVertex
100
AcDb3dPolylineVertex
 10
30339.10354565508
 20
-48665.49839595014
 30
29.46410169999096
 70
    32
  0
VERTEX
  5
277
330
271
100
AcDbEntity
  8
Ech.1_5
  6
Continuous
 62
     7
370
    20
100
AcDbVertex
100
AcDb3dPolylineVertex
 10
30338.79401875511
 20
-48665.65952545016
 30
29.62523119999393
 70
    32
  0
VERTEX
  5
278
330
271
100
AcDbEntity
  8
Ech.1_5
  6
Continuous
 62
     7
370
    20
100
AcDbVertex
100
AcDb3dPolylineVertex
 10
30338.4716262551
 20
-48665.79306475016
 30
29.75877049999433
 70
    32
  0
VERTEX
  5
279
330
271
100
AcDbEntity
  8
Ech.1_5
  6
Continuous
 62
     7
370
    20
100
AcDbVertex
100
AcDb3dPolylineVertex
 10
30338.13882185509
 20
-48665.89799755016
 30
29.86370329999197
 70
    32
  0
VERTEX
  5
27A
330
271
100
AcDbEntity
  8
Ech.1_5
  6
Continuous
 62
     7
370
    20
100
AcDbVertex
100
AcDb3dPolylineVertex
 10
30337.7981383551
 20
-48665.97352525014
 30
29.9392309999918
 70
    32
  0
VERTEX
  5
27B
330
271
100
AcDbEntity
  8
Ech.1_5
  6
Continuous
 62
     7
370
    20
100
AcDbVertex
100
AcDb3dPolylineVertex
 10
30337.45216865508
 20
-48666.01907305016
 30
29.98477879999352
 70
    32
  0
VERTEX
  5
27C
330
271
100
AcDbEntity
  8
Ech.1_5
  6
Continuous
 62
     7
370
    20
100
AcDbVertex
100
AcDb3dPolylineVertex
 10
30337.10354565511
 20
-48666.03429425014
 30
29.99999999999836
 70
    32
  0
VERTEX
  5
27D
330
271
100
AcDbEntity
  8
Ech.1_5
  6
Continuous
 62
     7
370
    20
100
AcDbVertex
100
AcDb3dPolylineVertex
 10
30263.82011685511
 20
-48666.03429425014
 30
0.0
 70
    32
  0
VERTEX
  5
27E
330
271
100
AcDbEntity
  8
Ech.1_5
  6
Continuous
 62
     7
370
    20
100
AcDbVertex
100
AcDb3dPolylineVertex
 10
30263.82011685511
 20
-48600.53429425014
 30
0.0
 70
    32
  0
VERTEX
  5
27F
330
271
100
AcDbEntity
  8
Ech.1_5
  6
Continuous
 62
     7
370
    20
100
AcDbVertex
100
AcDb3dPolylineVertex
 10
30253.82011685511
 20
-48600.53429425014
 30
-36.00000000000558
 70
    32
  0
VERTEX
  5
280
330
271
100
AcDbEntity
  8
Ech.1_5
  6
Continuous
 62
     7
370
    20
100
AcDbVertex
100
AcDb3dPolylineVertex
 10
30253.82011685511
 20
-48592.53429425014
 30
-43.50000000001331
 70
    32
  0
VERTEX
  5
281
330
271
100
AcDbEntity
  8
Ech.1_5
  6
Continuous
 62
     7
370
    20
100
AcDbVertex
100
AcDb3dPolylineVertex
 10
30253.83807715511
 20
-48592.14931175015
 30
-43.88498250000761
 70
    32
  0
VERTEX
  5
282
330
271
100
AcDbEntity
  8
Ech.1_5
  6
Continuous
 62
     7
370
    20
100
AcDbVertex
100
AcDb3dPolylineVertex
 10
30253.9615237551
 20
-48591.66674745014
 30
-44.36754680000799
 70
    32
  0
VERTEX
  5
283
330
271
100
AcDbEntity
  8
Ech.1_5
  6
Continuous
 62
     7
370
    20
100
AcDbVertex
100
AcDb3dPolylineVertex
 10
30254.23086205511
 20
-48591.16173825016
 30
-44.87255600000584
 70
    32
  0
VERTEX
  5
284
330
271
100
AcDbEntity
  8
Ech.1_5
  6
Continuous
 62
     7
370
    20
100
AcDbVertex
100
AcDb3dPolylineVertex
 10
30254.60120205511
 20
-48590.72406365014
 30
-45.31023060000793
 70
    32
  0
VERTEX
  5
285
330
271
100
AcDbEntity
  8
Ech.1_5
  6
Continuous
 62
     7
370
    20
100
AcDbVertex
100
AcDb3dPolylineVertex
 10
30255.34188215509
 20
-48590.21905445015
 30
-45.8152398000076
 70
    32
  0
VERTEX
  5
286
330
271
100
AcDbEntity
  8
Ech.1_5
  6
Continuous
 62
     7
370
    20
100
AcDbVertex
100
AcDb3dPolylineVertex
 10
30256.32011685511
 20
-48590.03429425014
 30
-46.0000000000074
 70
    32
  0
VERTEX
  5
287
330
271
100
AcDbEntity
  8
Ech.1_5
  6
Continuous
 62
     7
370
    20
100
AcDbVertex
100
AcDb3dPolylineVertex
 10
30306.87122805509
 20
-48590.03429425014
 30
-46.00000000000743
 70
    32
  0
VERTEX
  5
288
330
271
100
AcDbEntity
  8
Ech.1_5
  6
Continuous
 62
     7
370
    20
100
AcDbVertex
100
AcDb3dPolylineVertex
 10
30307.0455395551
 20
-48590.04190485015
 30
0.0
 70
    32
  0
VERTEX
  5
289
330
271
100
AcDbEntity
  8
Ech.1_5
  6
Continuous
 62
     7
370
    20
100
AcDbVertex
100
AcDb3dPolylineVertex
 10
30307.21852445509
 20
-48590.06467875013
 30
0.0
 70
    32
  0
VERTEX
  5
28A
330
271
100
AcDbEntity
  8
Ech.1_5
  6
Continuous
 62
     7
370
    20
100
AcDbVertex
100
AcDb3dPolylineVertex
 10
30307.38886615511
 20
-48590.10244265014
 30
0.0
 70
    32
  0
VERTEX
  5
28B
330
271
100
AcDbEntity
  8
Ech.1_5
  6
Continuous
 62
     7
370
    20
100
AcDbVertex
100
AcDb3dPolylineVertex
 10
30307.55526835511
 20
-48590.15490905014
 30
0.0
 70
    32
  0
VERTEX
  5
28C
330
271
100
AcDbEntity
  8
Ech.1_5
  6
Continuous
 62
     7
370
    20
100
AcDbVertex
100
AcDb3dPolylineVertex
 10
30307.71646455509
 20
-48590.22167875014
 30
0.0
 70
    32
  0
VERTEX
  5
28D
330
271
100
AcDbEntity
  8
Ech.1_5
  6
Continuous
 62
     7
370
    20
100
AcDbVertex
100
AcDb3dPolylineVertex
 10
30307.87122805509
 20
-48590.30224345015
 30
0.0
 70
    32
  0
VERTEX
  5
28E
330
271
100
AcDbEntity
  8
Ech.1_5
  6
Continuous
 62
     7
370
    20
100
AcDbVertex
100
AcDb3dPolylineVertex
 10
30308.01838095509
 20
-48590.39599015015
 30
0.0
 70
    32
  0
VERTEX
  5
28F
330
271
100
AcDbEntity
  8
Ech.1_5
  6
Continuous
 62
     7
370
    20
100
AcDbVertex
100
AcDb3dPolylineVertex
 10
30308.15680325511
 20
-48590.50220545013
 30
0.0
 70
    32
  0
VERTEX
  5
290
330
271
100
AcDbEntity
  8
Ech.1_5
  6
Continuous
 62
     7
370
    20
100
AcDbVertex
100
AcDb3dPolylineVertex
 10
30308.28544165511
 20
-48590.62008075013
 30
0.0
 70
    32
  0
VERTEX
  5
291
330
271
100
AcDbEntity
  8
Ech.1_5
  6
Continuous
 62
     7
370
    20
100
AcDbVertex
100
AcDb3dPolylineVertex
 10
30308.4033169551
 20
-48590.74871905013
 30
0.0
 70
    32
  0
VERTEX
  5
292
330
271
100
AcDbEntity
  8
Ech.1_5
  6
Continuous
 62
     7
370
    20
100
AcDbVertex
100
AcDb3dPolylineVertex
 10
30308.50953215511
 20
-48590.88714145015
 30
0.0
 70
    32
  0
VERTEX
  5
293
330
271
100
AcDbEntity
  8
Ech.1_5
  6
Continuous
 62
     7
370
    20
100
AcDbVertex
100
AcDb3dPolylineVertex
 10
30308.60327885509
 20
-48591.03429425014
 30
0.0
 70
    32
  0
VERTEX
  5
294
330
271
100
AcDbEntity
  8
Ech.1_5
  6
Continuous
 62
     7
370
    20
100
AcDbVertex
100
AcDb3dPolylineVertex
 10
30308.6838436551
 20
-48591.18905775015
 30
0.0
 70
    32
  0
VERTEX
  5
295
330
271
100
AcDbEntity
  8
Ech.1_5
  6
Continuous
 62
     7
370
    20
100
AcDbVertex
100
AcDb3dPolylineVertex
 10
30308.7506133551
 20
-48591.35025405015
 30
0.0
 70
    32
  0
VERTEX
  5
296
330
271
100
AcDbEntity
  8
Ech.1_5
  6
Continuous
 62
     7
370
    20
100
AcDbVertex
100
AcDb3dPolylineVertex
 10
30308.8030797551
 20
-48591.51665615015
 30
0.0
 70
    32
  0
VERTEX
  5
297
330
271
100
AcDbEntity
  8
Ech.1_5
  6
Continuous
 62
     7
370
    20
100
AcDbVertex
100
AcDb3dPolylineVertex
 10
30308.8408435551
 20
-48591.68699795015
 30
0.0
 70
    32
  0
VERTEX
  5
298
330
271
100
AcDbEntity
  8
Ech.1_5
  6
Continuous
 62
     7
370
    20
100
AcDbVertex
100
AcDb3dPolylineVertex
 10
30308.86361745511
 20
-48591.85998285013
 30
0.0
 70
    32
  0
VERTEX
  5
299
330
271
100
AcDbEntity
  8
Ech.1_5
  6
Continuous
 62
     7
370
    20
100
AcDbVertex
100
AcDb3dPolylineVertex
 10
30308.87122805509
 20
-48592.03429425014
 30
0.0
 70
    32
  0
VERTEX
  5
29A
330
271
100
AcDbEntity
  8
Ech.1_5
  6
Continuous
 62
     7
370
    20
100
AcDbVertex
100
AcDb3dPolylineVertex
 10
30308.87122805509
 20
-48627.03429425014
 30
0.0
 70
    32
  0
VERTEX
  5
29B
330
271
100
AcDbEntity
  8
Ech.1_5
  6
Continuous
 62
     7
370
    20
100
AcDbVertex
100
AcDb3dPolylineVertex
 10
30315.37122805509
 20
-48627.03429425014
 30
0.0
 70
    32
  0
VERTEX
  5
29C
330
271
100
AcDbEntity
  8
Ech.1_5
  6
Continuous
 62
     7
370
    20
100
AcDbVertex
100
AcDb3dPolylineVertex
 10
30315.50196165509
 20
-48627.04000225016
 30
0.0
 70
    32
  0
VERTEX
  5
29D
330
271
100
AcDbEntity
  8
Ech.1_5
  6
Continuous
 62
     7
370
    20
100
AcDbVertex
100
AcDb3dPolylineVertex
 10
30315.63170035509
 20
-48627.05708265015
 30
0.0
 70
    32
  0
VERTEX
  5
29E
330
271
100
AcDbEntity
  8
Ech.1_5
  6
Continuous
 62
     7
370
    20
100
AcDbVertex
100
AcDb3dPolylineVertex
 10
30315.75945665509
 20
-48627.08540555015
 30
0.0
 70
    32
  0
VERTEX
  5
29F
330
271
100
AcDbEntity
  8
Ech.1_5
  6
Continuous
 62
     7
370
    20
100
AcDbVertex
100
AcDb3dPolylineVertex
 10
30315.88425825509
 20
-48627.12475535013
 30
0.0
 70
    32
  0
VERTEX
  5
2A0
330
271
100
AcDbEntity
  8
Ech.1_5
  6
Continuous
 62
     7
370
    20
100
AcDbVertex
100
AcDb3dPolylineVertex
 10
30316.00515545511
 20
-48627.17483265013
 30
0.0
 70
    32
  0
VERTEX
  5
2A1
330
271
100
AcDbEntity
  8
Ech.1_5
  6
Continuous
 62
     7
370
    20
100
AcDbVertex
100
AcDb3dPolylineVertex
 10
30316.12122805509
 20
-48627.23525615015
 30
0.0
 70
    32
  0
VERTEX
  5
2A2
330
271
100
AcDbEntity
  8
Ech.1_5
  6
Continuous
 62
     7
370
    20
100
AcDbVertex
100
AcDb3dPolylineVertex
 10
30316.23159275509
 20
-48627.30556625013
 30
0.0
 70
    32
  0
VERTEX
  5
2A3
330
271
100
AcDbEntity
  8
Ech.1_5
  6
Continuous
 62
     7
370
    20
100
AcDbVertex
100
AcDb3dPolylineVertex
 10
30316.33540945511
 20
-48627.38522765016
 30
0.0
 70
    32
  0
VERTEX
  5
2A4
330
271
100
AcDbEntity
  8
Ech.1_5
  6
Continuous
 62
     7
370
    20
100
AcDbVertex
100
AcDb3dPolylineVertex
 10
30316.43188825511
 20
-48627.47363415016
 30
0.0
 70
    32
  0
VERTEX
  5
2A5
330
271
100
AcDbEntity
  8
Ech.1_5
  6
Continuous
 62
     7
370
    20
100
AcDbVertex
100
AcDb3dPolylineVertex
 10
30316.52029475511
 20
-48627.57011285015
 30
0.0
 70
    32
  0
VERTEX
  5
2A6
330
271
100
AcDbEntity
  8
Ech.1_5
  6
Continuous
 62
     7
370
    20
100
AcDbVertex
100
AcDb3dPolylineVertex
 10
30316.59995615511
 20
-48627.67392965015
 30
0.0
 70
    32
  0
VERTEX
  5
2A7
330
271
100
AcDbEntity
  8
Ech.1_5
  6
Continuous
 62
     7
370
    20
100
AcDbVertex
100
AcDb3dPolylineVertex
 10
30316.67026615509
 20
-48627.78429425014
 30
0.0
 70
    32
  0
VERTEX
  5
2A8
330
271
100
AcDbEntity
  8
Ech.1_5
  6
Continuous
 62
     7
370
    20
100
AcDbVertex
100
AcDb3dPolylineVertex
 10
30316.73068975511
 20
-48627.90036685012
 30
0.0
 70
    32
  0
VERTEX
  5
2A9
330
271
100
AcDbEntity
  8
Ech.1_5
  6
Continuous
 62
     7
370
    20
100
AcDbVertex
100
AcDb3dPolylineVertex
 10
30316.7807669551
 20
-48628.02126405014
 30
0.0
 70
    32
  0
VERTEX
  5
2AA
330
271
100
AcDbEntity
  8
Ech.1_5
  6
Continuous
 62
     7
370
    20
100
AcDbVertex
100
AcDb3dPolylineVertex
 10
30316.82011685511
 20
-48628.14606575014
 30
0.0
 70
    32
  0
VERTEX
  5
2AB
330
271
100
AcDbEntity
  8
Ech.1_5
  6
Continuous
 62
     7
370
    20
100
AcDbVertex
100
AcDb3dPolylineVertex
 10
30316.84843965508
 20
-48628.27382205015
 30
0.0
 70
    32
  0
VERTEX
  5
2AC
330
271
100
AcDbEntity
  8
Ech.1_5
  6
Continuous
 62
     7
370
    20
100
AcDbVertex
100
AcDb3dPolylineVertex
 10
30316.86552015511
 20
-48628.40356065014
 30
0.0
 70
    32
  0
VERTEX
  5
2AD
330
271
100
AcDbEntity
  8
Ech.1_5
  6
Continuous
 62
     7
370
    20
100
AcDbVertex
100
AcDb3dPolylineVertex
 10
30316.87122805509
 20
-48628.53429425014
 30
0.0
 70
    32
  0
VERTEX
  5
2AE
330
271
100
AcDbEntity
  8
Ech.1_5
  6
Continuous
 62
     7
370
    20
100
AcDbVertex
100
AcDb3dPolylineVertex
 10
30316.87122805509
 20
-48631.53429425014
 30
0.0
 70
    32
  0
VERTEX
  5
2AF
330
271
100
AcDbEntity
  8
Ech.1_5
  6
Continuous
 62
     7
370
    20
100
AcDbVertex
100
AcDb3dPolylineVertex
 10
30316.8788386551
 20
-48631.70860575016
 30
0.0
 70
    32
  0
VERTEX
  5
2B0
330
271
100
AcDbEntity
  8
Ech.1_5
  6
Continuous
 62
     7
370
    20
100
AcDbVertex
100
AcDb3dPolylineVertex
 10
30316.90161255511
 20
-48631.88159065014
 30
0.0
 70
    32
  0
VERTEX
  5
2B1
330
271
100
AcDbEntity
  8
Ech.1_5
  6
Continuous
 62
     7
370
    20
100
AcDbVertex
100
AcDb3dPolylineVertex
 10
30316.93937645508
 20
-48632.05193235014
 30
0.0
 70
    32
  0
VERTEX
  5
2B2
330
271
100
AcDbEntity
  8
Ech.1_5
  6
Continuous
 62
     7
370
    20
100
AcDbVertex
100
AcDb3dPolylineVertex
 10
30316.99184285511
 20
-48632.21833455014
 30
0.0
 70
    32
  0
VERTEX
  5
2B3
330
271
100
AcDbEntity
  8
Ech.1_5
  6
Continuous
 62
     7
370
    20
100
AcDbVertex
100
AcDb3dPolylineVertex
 10
30317.05861245511
 20
-48632.37953085014
 30
0.0
 70
    32
  0
VERTEX
  5
2B4
330
271
100
AcDbEntity
  8
Ech.1_5
  6
Continuous
 62
     7
370
    20
100
AcDbVertex
100
AcDb3dPolylineVertex
 10
30317.13917725509
 20
-48632.53429425014
 30
0.0
 70
    32
  0
VERTEX
  5
2B5
330
271
100
AcDbEntity
  8
Ech.1_5
  6
Continuous
 62
     7
370
    20
100
AcDbVertex
100
AcDb3dPolylineVertex
 10
30317.2329239551
 20
-48632.68144715014
 30
0.0
 70
    32
  0
VERTEX
  5
2B6
330
271
100
AcDbEntity
  8
Ech.1_5
  6
Continuous
 62
     7
370
    20
100
AcDbVertex
100
AcDb3dPolylineVertex
 10
30317.3391391551
 20
-48632.81986955013
 30
0.0
 70
    32
  0
VERTEX
  5
2B7
330
271
100
AcDbEntity
  8
Ech.1_5
  6
Continuous
 62
     7
370
    20
100
AcDbVertex
100
AcDb3dPolylineVertex
 10
30317.4570144551
 20
-48632.94850785013
 30
0.0
 70
    32
  0
VERTEX
  5
2B8
330
271
100
AcDbEntity
  8
Ech.1_5
  6
Continuous
 62
     7
370
    20
100
AcDbVertex
100
AcDb3dPolylineVertex
 10
30317.5856528551
 20
-48633.06638315013
 30
0.0
 70
    32
  0
VERTEX
  5
2B9
330
271
100
AcDbEntity
  8
Ech.1_5
  6
Continuous
 62
     7
370
    20
100
AcDbVertex
100
AcDb3dPolylineVertex
 10
30317.72407515509
 20
-48633.17259835014
 30
0.0
 70
    32
  0
VERTEX
  5
2BA
330
271
100
AcDbEntity
  8
Ech.1_5
  6
Continuous
 62
     7
370
    20
100
AcDbVertex
100
AcDb3dPolylineVertex
 10
30317.87122805509
 20
-48633.26634505014
 30
0.0
 70
    32
  0
VERTEX
  5
2BB
330
271
100
AcDbEntity
  8
Ech.1_5
  6
Continuous
 62
     7
370
    20
100
AcDbVertex
100
AcDb3dPolylineVertex
 10
30318.02599155509
 20
-48633.34690985015
 30
0.0
 70
    32
  0
VERTEX
  5
2BC
330
271
100
AcDbEntity
  8
Ech.1_5
  6
Continuous
 62
     7
370
    20
100
AcDbVertex
100
AcDb3dPolylineVertex
 10
30318.18718775509
 20
-48633.41367955015
 30
0.0
 70
    32
  0
VERTEX
  5
2BD
330
271
100
AcDbEntity
  8
Ech.1_5
  6
Continuous
 62
     7
370
    20
100
AcDbVertex
100
AcDb3dPolylineVertex
 10
30318.3535899551
 20
-48633.46614595012
 30
0.0
 70
    32
  0
VERTEX
  5
2BE
330
271
100
AcDbEntity
  8
Ech.1_5
  6
Continuous
 62
     7
370
    20
100
AcDbVertex
100
AcDb3dPolylineVertex
 10
30318.52393175509
 20
-48633.50390975013
 30
0.0
 70
    32
  0
VERTEX
  5
2BF
330
271
100
AcDbEntity
  8
Ech.1_5
  6
Continuous
 62
     7
370
    20
100
AcDbVertex
100
AcDb3dPolylineVertex
 10
30318.69691655511
 20
-48633.52668365014
 30
0.0
 70
    32
  0
VERTEX
  5
2C0
330
271
100
AcDbEntity
  8
Ech.1_5
  6
Continuous
 62
     7
370
    20
100
AcDbVertex
100
AcDb3dPolylineVertex
 10
30318.87122805509
 20
-48633.53429425014
 30
0.0
 70
    32
  0
VERTEX
  5
2C1
330
271
100
AcDbEntity
  8
Ech.1_5
  6
Continuous
 62
     7
370
    20
100
AcDbVertex
100
AcDb3dPolylineVertex
 10
30327.37122805509
 20
-48633.53429425014
 30
0.0
 70
    32
  0
VERTEX
  5
2C2
330
271
100
AcDbEntity
  8
Ech.1_5
  6
Continuous
 62
     7
370
    20
100
AcDbVertex
100
AcDb3dPolylineVertex
 10
30327.50196165509
 20
-48633.54000225016
 30
0.0
 70
    32
  0
VERTEX
  5
2C3
330
271
100
AcDbEntity
  8
Ech.1_5
  6
Continuous
 62
     7
370
    20
100
AcDbVertex
100
AcDb3dPolylineVertex
 10
30327.63170035509
 20
-48633.55708265015
 30
0.0
 70
    32
  0
VERTEX
  5
2C4
330
271
100
AcDbEntity
  8
Ech.1_5
  6
Continuous
 62
     7
370
    20
100
AcDbVertex
100
AcDb3dPolylineVertex
 10
30327.75945665509
 20
-48633.58540555015
 30
0.0
 70
    32
  0
VERTEX
  5
2C5
330
271
100
AcDbEntity
  8
Ech.1_5
  6
Continuous
 62
     7
370
    20
100
AcDbVertex
100
AcDb3dPolylineVertex
 10
30327.88425825509
 20
-48633.62475535013
 30
0.0
 70
    32
  0
VERTEX
  5
2C6
330
271
100
AcDbEntity
  8
Ech.1_5
  6
Continuous
 62
     7
370
    20
100
AcDbVertex
100
AcDb3dPolylineVertex
 10
30328.00515545511
 20
-48633.67483265015
 30
0.0
 70
    32
  0
VERTEX
  5
2C7
330
271
100
AcDbEntity
  8
Ech.1_5
  6
Continuous
 62
     7
370
    20
100
AcDbVertex
100
AcDb3dPolylineVertex
 10
30328.12122805509
 20
-48633.73525615015
 30
0.0
 70
    32
  0
VERTEX
  5
2C8
330
271
100
AcDbEntity
  8
Ech.1_5
  6
Continuous
 62
     7
370
    20
100
AcDbVertex
100
AcDb3dPolylineVertex
 10
30328.23159275509
 20
-48633.80556625013
 30
0.0
 70
    32
  0
VERTEX
  5
2C9
330
271
100
AcDbEntity
  8
Ech.1_5
  6
Continuous
 62
     7
370
    20
100
AcDbVertex
100
AcDb3dPolylineVertex
 10
30328.33540945511
 20
-48633.88522765013
 30
0.0
 70
    32
  0
VERTEX
  5
2CA
330
271
100
AcDbEntity
  8
Ech.1_5
  6
Continuous
 62
     7
370
    20
100
AcDbVertex
100
AcDb3dPolylineVertex
 10
30328.43188825511
 20
-48633.97363415013
 30
0.0
 70
    32
  0
VERTEX
  5
2CB
330
271
100
AcDbEntity
  8
Ech.1_5
  6
Continuous
 62
     7
370
    20
100
AcDbVertex
100
AcDb3dPolylineVertex
 10
30328.52029475511
 20
-48634.07011285015
 30
0.0
 70
    32
  0
VERTEX
  5
2CC
330
271
100
AcDbEntity
  8
Ech.1_5
  6
Continuous
 62
     7
370
    20
100
AcDbVertex
100
AcDb3dPolylineVertex
 10
30328.59995615511
 20
-48634.17392965015
 30
0.0
 70
    32
  0
VERTEX
  5
2CD
330
271
100
AcDbEntity
  8
Ech.1_5
  6
Continuous
 62
     7
370
    20
100
AcDbVertex
100
AcDb3dPolylineVertex
 10
30328.67026615509
 20
-48634.28429425014
 30
0.0
 70
    32
  0
VERTEX
  5
2CE
330
271
100
AcDbEntity
  8
Ech.1_5
  6
Continuous
 62
     7
370
    20
100
AcDbVertex
100
AcDb3dPolylineVertex
 10
30328.73068975511
 20
-48634.40036685015
 30
0.0
 70
    32
  0
VERTEX
  5
2CF
330
271
100
AcDbEntity
  8
Ech.1_5
  6
Continuous
 62
     7
370
    20
100
AcDbVertex
100
AcDb3dPolylineVertex
 10
30328.7807669551
 20
-48634.52126405014
 30
0.0
 70
    32
  0
VERTEX
  5
2D0
330
271
100
AcDbEntity
  8
Ech.1_5
  6
Continuous
 62
     7
370
    20
100
AcDbVertex
100
AcDb3dPolylineVertex
 10
30328.82011685511
 20
-48634.64606575014
 30
0.0
 70
    32
  0
VERTEX
  5
2D1
330
271
100
AcDbEntity
  8
Ech.1_5
  6
Continuous
 62
     7
370
    20
100
AcDbVertex
100
AcDb3dPolylineVertex
 10
30328.84843965508
 20
-48634.77382205015
 30
0.0
 70
    32
  0
VERTEX
  5
2D2
330
271
100
AcDbEntity
  8
Ech.1_5
  6
Continuous
 62
     7
370
    20
100
AcDbVertex
100
AcDb3dPolylineVertex
 10
30328.86552015511
 20
-48634.90356065014
 30
0.0
 70
    32
  0
VERTEX
  5
2D3
330
271
100
AcDbEntity
  8
Ech.1_5
  6
Continuous
 62
     7
370
    20
100
AcDbVertex
100
AcDb3dPolylineVertex
 10
30328.87122805509
 20
-48635.03429425014
 30
0.0
 70
    32
  0
VERTEX
  5
2D4
330
271
100
AcDbEntity
  8
Ech.1_5
  6
Continuous
 62
     7
370
    20
100
AcDbVertex
100
AcDb3dPolylineVertex
 10
30328.86552015511
 20
-48635.16502795015
 30
0.0
 70
    32
  0
VERTEX
  5
2D5
330
271
100
AcDbEntity
  8
Ech.1_5
  6
Continuous
 62
     7
370
    20
100
AcDbVertex
100
AcDb3dPolylineVertex
 10
30328.84843965508
 20
-48635.29476655014
 30
0.0
 70
    32
  0
VERTEX
  5
2D6
330
271
100
AcDbEntity
  8
Ech.1_5
  6
Continuous
 62
     7
370
    20
100
AcDbVertex
100
AcDb3dPolylineVertex
 10
30328.56589865509
 20
-48636.89713625015
 30
0.0
 70
    32
  0
VERTEX
  5
2D7
330
271
100
AcDbEntity
  8
Ech.1_5
  6
Continuous
 62
     7
370
    20
100
AcDbVertex
100
AcDb3dPolylineVertex
 10
30328.52813485509
 20
-48637.06747795014
 30
0.0
 70
    32
  0
VERTEX
  5
2D8
330
271
100
AcDbEntity
  8
Ech.1_5
  6
Continuous
 62
     7
370
    20
100
AcDbVertex
100
AcDb3dPolylineVertex
 10
30328.47566845509
 20
-48637.23388015015
 30
0.0
 70
    32
  0
VERTEX
  5
2D9
330
271
100
AcDbEntity
  8
Ech.1_5
  6
Continuous
 62
     7
370
    20
100
AcDbVertex
100
AcDb3dPolylineVertex
 10
30328.40889875509
 20
-48637.39507645015
 30
0.0
 70
    32
  0
VERTEX
  5
2DA
330
271
100
AcDbEntity
  8
Ech.1_5
  6
Continuous
 62
     7
370
    20
100
AcDbVertex
100
AcDb3dPolylineVertex
 10
30328.32833395511
 20
-48637.54983985015
 30
0.0
 70
    32
  0
VERTEX
  5
2DB
330
271
100
AcDbEntity
  8
Ech.1_5
  6
Continuous
 62
     7
370
    20
100
AcDbVertex
100
AcDb3dPolylineVertex
 10
30328.2345872551
 20
-48637.69699275015
 30
0.0
 70
    32
  0
VERTEX
  5
2DC
330
271
100
AcDbEntity
  8
Ech.1_5
  6
Continuous
 62
     7
370
    20
100
AcDbVertex
100
AcDb3dPolylineVertex
 10
30328.12837205509
 20
-48637.83541515014
 30
0.0
 70
    32
  0
VERTEX
  5
2DD
330
271
100
AcDbEntity
  8
Ech.1_5
  6
Continuous
 62
     7
370
    20
100
AcDbVertex
100
AcDb3dPolylineVertex
 10
30328.01049675509
 20
-48637.96405345014
 30
0.0
 70
    32
  0
VERTEX
  5
2DE
330
271
100
AcDbEntity
  8
Ech.1_5
  6
Continuous
 62
     7
370
    20
100
AcDbVertex
100
AcDb3dPolylineVertex
 10
30327.8818583551
 20
-48638.08192875014
 30
0.0
 70
    32
  0
VERTEX
  5
2DF
330
271
100
AcDbEntity
  8
Ech.1_5
  6
Continuous
 62
     7
370
    20
100
AcDbVertex
100
AcDb3dPolylineVertex
 10
30327.74343605511
 20
-48638.18814395014
 30
0.0
 70
    32
  0
VERTEX
  5
2E0
330
271
100
AcDbEntity
  8
Ech.1_5
  6
Continuous
 62
     7
370
    20
100
AcDbVertex
100
AcDb3dPolylineVertex
 10
30327.59628315511
 20
-48638.28189065015
 30
0.0
 70
    32
  0
VERTEX
  5
2E1
330
271
100
AcDbEntity
  8
Ech.1_5
  6
Continuous
 62
     7
370
    20
100
AcDbVertex
100
AcDb3dPolylineVertex
 10
30324.85888565511
 20
-48639.86232785015
 30
0.0
 70
    32
  0
VERTEX
  5
2E2
330
271
100
AcDbEntity
  8
Ech.1_5
  6
Continuous
 62
     7
370
    20
100
AcDbVertex
100
AcDb3dPolylineVertex
 10
30324.41742705509
 20
-48640.14356805013
 30
0.0
 70
    32
  0
VERTEX
  5
2E3
330
271
100
AcDbEntity
  8
Ech.1_5
  6
Continuous
 62
     7
370
    20
100
AcDbVertex
100
AcDb3dPolylineVertex
 10
30324.00216005509
 20
-48640.46221365013
 30
0.0
 70
    32
  0
VERTEX
  5
2E4
330
271
100
AcDbEntity
  8
Ech.1_5
  6
Continuous
 62
     7
370
    20
100
AcDbVertex
100
AcDb3dPolylineVertex
 10
30323.6162450551
 20
-48640.81583965015
 30
0.0
 70
    32
  0
VERTEX
  5
2E5
330
271
100
AcDbEntity
  8
Ech.1_5
  6
Continuous
 62
     7
370
    20
100
AcDbVertex
100
AcDb3dPolylineVertex
 10
30323.2626190551
 20
-48641.20175465014
 30
0.0
 70
    32
  0
VERTEX
  5
2E6
330
271
100
AcDbEntity
  8
Ech.1_5
  6
Continuous
 62
     7
370
    20
100
AcDbVertex
100
AcDb3dPolylineVertex
 10
30322.94397345511
 20
-48641.61702165015
 30
0.0
 70
    32
  0
VERTEX
  5
2E7
330
271
100
AcDbEntity
  8
Ech.1_5
  6
Continuous
 62
     7
370
    20
100
AcDbVertex
100
AcDb3dPolylineVertex
 10
30322.66273325509
 20
-48642.05848025014
 30
0.0
 70
    32
  0
VERTEX
  5
2E8
330
271
100
AcDbEntity
  8
Ech.1_5
  6
Continuous
 62
     7
370
    20
100
AcDbVertex
100
AcDb3dPolylineVertex
 10
30322.42103895509
 20
-48642.52277075015
 30
0.0
 70
    32
  0
VERTEX
  5
2E9
330
271
100
AcDbEntity
  8
Ech.1_5
  6
Continuous
 62
     7
370
    20
100
AcDbVertex
100
AcDb3dPolylineVertex
 10
30322.22072995509
 20
-48643.00635945016
 30
0.0
 70
    32
  0
VERTEX
  5
2EA
330
271
100
AcDbEntity
  8
Ech.1_5
  6
Continuous
 62
     7
370
    20
100
AcDbVertex
100
AcDb3dPolylineVertex
 10
30322.0633307551
 20
-48643.50556605014
 30
0.0
 70
    32
  0
VERTEX
  5
2EB
330
271
100
AcDbEntity
  8
Ech.1_5
  6
Continuous
 62
     7
370
    20
100
AcDbVertex
100
AcDb3dPolylineVertex
 10
30321.9500391551
 20
-48644.01659125015
 30
0.0
 70
    32
  0
VERTEX
  5
2EC
330
271
100
AcDbEntity
  8
Ech.1_5
  6
Continuous
 62
     7
370
    20
100
AcDbVertex
100
AcDb3dPolylineVertex
 10
30321.1112110551
 20
-48648.77382205015
 30
0.0
 70
    32
  0
VERTEX
  5
2ED
330
271
100
AcDbEntity
  8
Ech.1_5
  6
Continuous
 62
     7
370
    20
100
AcDbVertex
100
AcDb3dPolylineVertex
 10
30321.0941306551
 20
-48648.90356065014
 30
0.0
 70
    32
  0
VERTEX
  5
2EE
330
271
100
AcDbEntity
  8
Ech.1_5
  6
Continuous
 62
     7
370
    20
100
AcDbVertex
100
AcDb3dPolylineVertex
 10
30321.08842265509
 20
-48649.03429425014
 30
0.0
 70
    32
  0
VERTEX
  5
2EF
330
271
100
AcDbEntity
  8
Ech.1_5
  6
Continuous
 62
     7
370
    20
100
AcDbVertex
100
AcDb3dPolylineVertex
 10
30321.0941306551
 20
-48649.16502795015
 30
0.0
 70
    32
  0
VERTEX
  5
2F0
330
271
100
AcDbEntity
  8
Ech.1_5
  6
Continuous
 62
     7
370
    20
100
AcDbVertex
100
AcDb3dPolylineVertex
 10
30321.1112110551
 20
-48649.29476655014
 30
0.0
 70
    32
  0
VERTEX
  5
2F1
330
271
100
AcDbEntity
  8
Ech.1_5
  6
Continuous
 62
     7
370
    20
100
AcDbVertex
100
AcDb3dPolylineVertex
 10
30321.1395339551
 20
-48649.42252285015
 30
0.0
 70
    32
  0
VERTEX
  5
2F2
330
271
100
AcDbEntity
  8
Ech.1_5
  6
Continuous
 62
     7
370
    20
100
AcDbVertex
100
AcDb3dPolylineVertex
 10
30321.17888375511
 20
-48649.54732455015
 30
0.0
 70
    32
  0
VERTEX
  5
2F3
330
271
100
AcDbEntity
  8
Ech.1_5
  6
Continuous
 62
     7
370
    20
100
AcDbVertex
100
AcDb3dPolylineVertex
 10
30321.2289609551
 20
-48649.66822165014
 30
0.0
 70
    32
  0
VERTEX
  5
2F4
330
271
100
AcDbEntity
  8
Ech.1_5
  6
Continuous
 62
     7
370
    20
100
AcDbVertex
100
AcDb3dPolylineVertex
 10
30321.28938455509
 20
-48649.78429425014
 30
0.0
 70
    32
  0
VERTEX
  5
2F5
330
271
100
AcDbEntity
  8
Ech.1_5
  6
Continuous
 62
     7
370
    20
100
AcDbVertex
100
AcDb3dPolylineVertex
 10
30321.3596945551
 20
-48649.89465895014
 30
0.0
 70
    32
  0
VERTEX
  5
2F6
330
271
100
AcDbEntity
  8
Ech.1_5
  6
Continuous
 62
     7
370
    20
100
AcDbVertex
100
AcDb3dPolylineVertex
 10
30321.4393559551
 20
-48649.99847575014
 30
0.0
 70
    32
  0
VERTEX
  5
2F7
330
271
100
AcDbEntity
  8
Ech.1_5
  6
Continuous
 62
     7
370
    20
100
AcDbVertex
100
AcDb3dPolylineVertex
 10
30321.5277624551
 20
-48650.09495445013
 30
0.0
 70
    32
  0
VERTEX
  5
2F8
330
271
100
AcDbEntity
  8
Ech.1_5
  6
Continuous
 62
     7
370
    20
100
AcDbVertex
100
AcDb3dPolylineVertex
 10
30321.6242412551
 20
-48650.18336095013
 30
0.0
 70
    32
  0
VERTEX
  5
2F9
330
271
100
AcDbEntity
  8
Ech.1_5
  6
Continuous
 62
     7
370
    20
100
AcDbVertex
100
AcDb3dPolylineVertex
 10
30321.72805805509
 20
-48650.26302235013
 30
0.0
 70
    32
  0
VERTEX
  5
2FA
330
271
100
AcDbEntity
  8
Ech.1_5
  6
Continuous
 62
     7
370
    20
100
AcDbVertex
100
AcDb3dPolylineVertex
 10
30321.83842265509
 20
-48650.33333235014
 30
0.0
 70
    32
  0
VERTEX
  5
2FB
330
271
100
AcDbEntity
  8
Ech.1_5
  6
Continuous
 62
     7
370
    20
100
AcDbVertex
100
AcDb3dPolylineVertex
 10
30321.9544952551
 20
-48650.39375595014
 30
0.0
 70
    32
  0
VERTEX
  5
2FC
330
271
100
AcDbEntity
  8
Ech.1_5
  6
Continuous
 62
     7
370
    20
100
AcDbVertex
100
AcDb3dPolylineVertex
 10
30322.07539245509
 20
-48650.44383325013
 30
0.0
 70
    32
  0
VERTEX
  5
2FD
330
271
100
AcDbEntity
  8
Ech.1_5
  6
Continuous
 62
     7
370
    20
100
AcDbVertex
100
AcDb3dPolylineVertex
 10
30322.20019405509
 20
-48650.48318305014
 30
0.0
 70
    32
  0
VERTEX
  5
2FE
330
271
100
AcDbEntity
  8
Ech.1_5
  6
Continuous
 62
     7
370
    20
100
AcDbVertex
100
AcDb3dPolylineVertex
 10
30322.32795035509
 20
-48650.51150595014
 30
0.0
 70
    32
  0
VERTEX
  5
2FF
330
271
100
AcDbEntity
  8
Ech.1_5
  6
Continuous
 62
     7
370
    20
100
AcDbVertex
100
AcDb3dPolylineVertex
 10
30322.45768905509
 20
-48650.52858635013
 30
0.0
 70
    32
  0
VERTEX
  5
300
330
271
100
AcDbEntity
  8
Ech.1_5
  6
Continuous
 62
     7
370
    20
100
AcDbVertex
100
AcDb3dPolylineVertex
 10
30322.58842265509
 20
-48650.53429425014
 30
0.0
 70
    32
  0
VERTEX
  5
301
330
271
100
AcDbEntity
  8
Ech.1_5
  6
Continuous
 62
     7
370
    20
100
AcDbVertex
100
AcDb3dPolylineVertex
 10
30342.37122805509
 20
-48650.53429425014
 30
0.0
 70
    32
  0
VERTEX
  5
302
330
271
100
AcDbEntity
  8
Ech.1_5
  6
Continuous
 62
     7
370
    20
100
AcDbVertex
100
AcDb3dPolylineVertex
 10
30342.50196165509
 20
-48650.54000225013
 30
0.0
 70
    32
  0
VERTEX
  5
303
330
271
100
AcDbEntity
  8
Ech.1_5
  6
Continuous
 62
     7
370
    20
100
AcDbVertex
100
AcDb3dPolylineVertex
 10
30342.63170035509
 20
-48650.55708265015
 30
0.0
 70
    32
  0
VERTEX
  5
304
330
271
100
AcDbEntity
  8
Ech.1_5
  6
Continuous
 62
     7
370
    20
100
AcDbVertex
100
AcDb3dPolylineVertex
 10
30342.75945665509
 20
-48650.58540555015
 30
0.0
 70
    32
  0
VERTEX
  5
305
330
271
100
AcDbEntity
  8
Ech.1_5
  6
Continuous
 62
     7
370
    20
100
AcDbVertex
100
AcDb3dPolylineVertex
 10
30342.88425825509
 20
-48650.62475535013
 30
0.0
 70
    32
  0
VERTEX
  5
306
330
271
100
AcDbEntity
  8
Ech.1_5
  6
Continuous
 62
     7
370
    20
100
AcDbVertex
100
AcDb3dPolylineVertex
 10
30343.00515545511
 20
-48650.67483265015
 30
0.0
 70
    32
  0
VERTEX
  5
307
330
271
100
AcDbEntity
  8
Ech.1_5
  6
Continuous
 62
     7
370
    20
100
AcDbVertex
100
AcDb3dPolylineVertex
 10
30343.12122805509
 20
-48650.73525615015
 30
0.0
 70
    32
  0
VERTEX
  5
308
330
271
100
AcDbEntity
  8
Ech.1_5
  6
Continuous
 62
     7
370
    20
100
AcDbVertex
100
AcDb3dPolylineVertex
 10
30343.23159275509
 20
-48650.80556625013
 30
0.0
 70
    32
  0
VERTEX
  5
309
330
271
100
AcDbEntity
  8
Ech.1_5
  6
Continuous
 62
     7
370
    20
100
AcDbVertex
100
AcDb3dPolylineVertex
 10
30343.33540945511
 20
-48650.88522765013
 30
0.0
 70
    32
  0
VERTEX
  5
30A
330
271
100
AcDbEntity
  8
Ech.1_5
  6
Continuous
 62
     7
370
    20
100
AcDbVertex
100
AcDb3dPolylineVertex
 10
30343.43188825511
 20
-48650.97363415016
 30
0.0
 70
    32
  0
VERTEX
  5
30B
330
271
100
AcDbEntity
  8
Ech.1_5
  6
Continuous
 62
     7
370
    20
100
AcDbVertex
100
AcDb3dPolylineVertex
 10
30343.52029475511
 20
-48651.07011285015
 30
0.0
 70
    32
  0
VERTEX
  5
30C
330
271
100
AcDbEntity
  8
Ech.1_5
  6
Continuous
 62
     7
370
    20
100
AcDbVertex
100
AcDb3dPolylineVertex
 10
30343.59995615511
 20
-48651.17392965015
 30
0.0
 70
    32
  0
VERTEX
  5
30D
330
271
100
AcDbEntity
  8
Ech.1_5
  6
Continuous
 62
     7
370
    20
100
AcDbVertex
100
AcDb3dPolylineVertex
 10
30343.67026615509
 20
-48651.28429425014
 30
0.0
 70
    32
  0
VERTEX
  5
30E
330
271
100
AcDbEntity
  8
Ech.1_5
  6
Continuous
 62
     7
370
    20
100
AcDbVertex
100
AcDb3dPolylineVertex
 10
30343.73068975511
 20
-48651.40036685015
 30
0.0
 70
    32
  0
VERTEX
  5
30F
330
271
100
AcDbEntity
  8
Ech.1_5
  6
Continuous
 62
     7
370
    20
100
AcDbVertex
100
AcDb3dPolylineVertex
 10
30343.7807669551
 20
-48651.52126405014
 30
0.0
 70
    32
  0
VERTEX
  5
310
330
271
100
AcDbEntity
  8
Ech.1_5
  6
Continuous
 62
     7
370
    20
100
AcDbVertex
100
AcDb3dPolylineVertex
 10
30343.82011685511
 20
-48651.64606575014
 30
0.0
 70
    32
  0
VERTEX
  5
311
330
271
100
AcDbEntity
  8
Ech.1_5
  6
Continuous
 62
     7
370
    20
100
AcDbVertex
100
AcDb3dPolylineVertex
 10
30343.84843965511
 20
-48651.77382205015
 30
0.0
 70
    32
  0
VERTEX
  5
312
330
271
100
AcDbEntity
  8
Ech.1_5
  6
Continuous
 62
     7
370
    20
100
AcDbVertex
100
AcDb3dPolylineVertex
 10
30343.86552015511
 20
-48651.90356065014
 30
0.0
 70
    32
  0
VERTEX
  5
313
330
271
100
AcDbEntity
  8
Ech.1_5
  6
Continuous
 62
     7
370
    20
100
AcDbVertex
100
AcDb3dPolylineVertex
 10
30343.87122805509
 20
-48652.03429425014
 30
0.0
 70
    32
  0
VERTEX
  5
314
330
271
100
AcDbEntity
  8
Ech.1_5
  6
Continuous
 62
     7
370
    20
100
AcDbVertex
100
AcDb3dPolylineVertex
 10
30343.86552015511
 20
-48652.16502795015
 30
0.0
 70
    32
  0
VERTEX
  5
315
330
271
100
AcDbEntity
  8
Ech.1_5
  6
Continuous
 62
     7
370
    20
100
AcDbVertex
100
AcDb3dPolylineVertex
 10
30343.84843965511
 20
-48652.29476655014
 30
0.0
 70
    32
  0
VERTEX
  5
316
330
271
100
AcDbEntity
  8
Ech.1_5
  6
Continuous
 62
     7
370
    20
100
AcDbVertex
100
AcDb3dPolylineVertex
 10
30343.82011685511
 20
-48652.42252285015
 30
0.0
 70
    32
  0
VERTEX
  5
317
330
271
100
AcDbEntity
  8
Ech.1_5
  6
Continuous
 62
     7
370
    20
100
AcDbVertex
100
AcDb3dPolylineVertex
 10
30340.96724895509
 20
-48663.06957045016
 30
27.03527619999356
 70
    32
  0
VERTEX
  5
318
330
271
100
AcDbEntity
  8
Ech.1_5
  6
Continuous
 62
     7
370
    20
100
AcDbVertex
100
AcDb3dPolylineVertex
 10
30340.8623161551
 20
-48663.40237485016
 30
27.368080599994
 70
    32
  0
VERTEX
  5
319
330
271
100
AcDbEntity
  8
Ech.1_5
  6
Continuous
 62
     7
370
    20
100
AcDbVertex
100
AcDb3dPolylineVertex
 10
30340.7287768551
 20
-48663.72476735014
 30
27.69047309999329
 70
    32
  0
VERTEX
  5
31A
330
271
100
AcDbEntity
  8
Ech.1_5
  6
Continuous
 62
     7
370
    20
100
AcDbVertex
100
AcDb3dPolylineVertex
 10
30340.56764735511
 20
-48664.03429425014
 30
27.99999999999106
 70
    32
  0
VERTEX
  5
31B
330
271
100
AcDbEntity
  8
Ech.1_5
  6
Continuous
 62
     7
370
    20
100
AcDbVertex
100
AcDb3dPolylineVertex
 10
30340.3801538551
 20
-48664.32860005014
 30
28.29430579999432
 70
    32
  0
VERTEX
  5
31C
330
271
100
AcDbEntity
  8
Ech.1_5
  6
Continuous
 62
     7
370
    20
100
AcDbVertex
100
AcDb3dPolylineVertex
 10
30340.16772345508
 20
-48664.60544475015
 30
28.57115049999372
 70
    32
  0
SEQEND
  5
31D
330
271
100
AcDbEntity
  8
Ech.1_5
  6
Continuous
 62
     7
370
    20
390
5F
  0
LWPOLYLINE
  5
31F
330
1F
100
AcDbEntity
  8
Ech.1_5
  6
CADWORK_6
 62
     7
370
    18
390
5F
100
AcDbPolyline
 90
        2
 70
     0
 43
0.0
 10
30468.99476782918
 20
-48595.04190485015
 10
30468.99476782918
 20
-48945.53429425014
  0
LWPOLYLINE
  5
320
330
1F
100
AcDbEntity
  8
Ech.1_5
  6
CADWORK_6
 62
     7
370
    18
390
5F
100
AcDbPolyline
 90
        2
 70
     0
 43
0.0
 10
30488.99476782918
 20
-48595.04190485015
 10
30488.99476782918
 20
-48945.53429425014
  0
POLYLINE
  5
321
330
1F
100
AcDbEntity
  8
Ech.1_5
  6
Continuous
 62
     7
370
    20
390
5F
100
AcDb3dPolyline
 66
     1
 10
0.0
 20
0.0
 30
0.0
 70
     8
  0
VERTEX
  5
322
330
321
100
AcDbEntity
  8
Ech.1_5
  6
Continuous
 62
     7
370
    20
100
AcDbVertex
100
AcDb3dPolylineVertex
 10
30617.82181220328
 20
-48664.60544475015
 30
28.57115049999372
 70
    32
  0
VERTEX
  5
323
330
321
100
AcDbEntity
  8
Ech.1_5
  6
Continuous
 62
     7
370
    20
100
AcDbVertex
100
AcDb3dPolylineVertex
 10
30618.05756280327
 20
-48664.86272145015
 30
28.82842719999114
 70
    32
  0
VERTEX
  5
324
330
321
100
AcDbEntity
  8
Ech.1_5
  6
Continuous
 62
     7
370
    20
100
AcDbVertex
100
AcDb3dPolylineVertex
 10
30618.31483950327
 20
-48665.09847205014
 30
29.06417779999281
 70
    32
  0
VERTEX
  5
325
330
321
100
AcDbEntity
  8
Ech.1_5
  6
Continuous
 62
     7
370
    20
100
AcDbVertex
100
AcDb3dPolylineVertex
 10
30618.59168420325
 20
-48665.31090245016
 30
29.2766081999918
 70
    32
  0
VERTEX
  5
326
330
321
100
AcDbEntity
  8
Ech.1_5
  6
Continuous
 62
     7
370
    20
100
AcDbVertex
100
AcDb3dPolylineVertex
 10
30618.88599000328
 20
-48665.49839595014
 30
29.46410169999096
 70
    32
  0
VERTEX
  5
327
330
321
100
AcDbEntity
  8
Ech.1_5
  6
Continuous
 62
     7
370
    20
100
AcDbVertex
100
AcDb3dPolylineVertex
 10
30619.19551690325
 20
-48665.65952545016
 30
29.62523119999393
 70
    32
  0
VERTEX
  5
328
330
321
100
AcDbEntity
  8
Ech.1_5
  6
Continuous
 62
     7
370
    20
100
AcDbVertex
100
AcDb3dPolylineVertex
 10
30619.51790940326
 20
-48665.79306475016
 30
29.75877049999433
 70
    32
  0
VERTEX
  5
329
330
321
100
AcDbEntity
  8
Ech.1_5
  6
Continuous
 62
     7
370
    20
100
AcDbVertex
100
AcDb3dPolylineVertex
 10
30619.85071380327
 20
-48665.89799755016
 30
29.86370329999197
 70
    32
  0
VERTEX
  5
32A
330
321
100
AcDbEntity
  8
Ech.1_5
  6
Continuous
 62
     7
370
    20
100
AcDbVertex
100
AcDb3dPolylineVertex
 10
30620.19139730326
 20
-48665.97352525014
 30
29.9392309999918
 70
    32
  0
VERTEX
  5
32B
330
321
100
AcDbEntity
  8
Ech.1_5
  6
Continuous
 62
     7
370
    20
100
AcDbVertex
100
AcDb3dPolylineVertex
 10
30620.53736700328
 20
-48666.01907305016
 30
29.98477879999352
 70
    32
  0
VERTEX
  5
32C
330
321
100
AcDbEntity
  8
Ech.1_5
  6
Continuous
 62
     7
370
    20
100
AcDbVertex
100
AcDb3dPolylineVertex
 10
30620.88599000325
 20
-48666.03429425014
 30
29.99999999999836
 70
    32
  0
VERTEX
  5
32D
330
321
100
AcDbEntity
  8
Ech.1_5
  6
Continuous
 62
     7
370
    20
100
AcDbVertex
100
AcDb3dPolylineVertex
 10
30694.16941880325
 20
-48666.03429425014
 30
0.0
 70
    32
  0
VERTEX
  5
32E
330
321
100
AcDbEntity
  8
Ech.1_5
  6
Continuous
 62
     7
370
    20
100
AcDbVertex
100
AcDb3dPolylineVertex
 10
30694.16941880325
 20
-48600.53429425014
 30
0.0
 70
    32
  0
VERTEX
  5
32F
330
321
100
AcDbEntity
  8
Ech.1_5
  6
Continuous
 62
     7
370
    20
100
AcDbVertex
100
AcDb3dPolylineVertex
 10
30704.16941880325
 20
-48600.53429425014
 30
-36.00000000000558
 70
    32
  0
VERTEX
  5
330
330
321
100
AcDbEntity
  8
Ech.1_5
  6
Continuous
 62
     7
370
    20
100
AcDbVertex
100
AcDb3dPolylineVertex
 10
30704.16941880325
 20
-48592.53429425014
 30
-43.50000000001331
 70
    32
  0
VERTEX
  5
331
330
321
100
AcDbEntity
  8
Ech.1_5
  6
Continuous
 62
     7
370
    20
100
AcDbVertex
100
AcDb3dPolylineVertex
 10
30704.15145850325
 20
-48592.14931175015
 30
-43.88498250000761
 70
    32
  0
VERTEX
  5
332
330
321
100
AcDbEntity
  8
Ech.1_5
  6
Continuous
 62
     7
370
    20
100
AcDbVertex
100
AcDb3dPolylineVertex
 10
30704.02801190326
 20
-48591.66674745014
 30
-44.36754680000799
 70
    32
  0
VERTEX
  5
333
330
321
100
AcDbEntity
  8
Ech.1_5
  6
Continuous
 62
     7
370
    20
100
AcDbVertex
100
AcDb3dPolylineVertex
 10
30703.75867360325
 20
-48591.16173825016
 30
-44.87255600000584
 70
    32
  0
VERTEX
  5
334
330
321
100
AcDbEntity
  8
Ech.1_5
  6
Continuous
 62
     7
370
    20
100
AcDbVertex
100
AcDb3dPolylineVertex
 10
30703.38833360325
 20
-48590.72406365014
 30
-45.31023060000793
 70
    32
  0
VERTEX
  5
335
330
321
100
AcDbEntity
  8
Ech.1_5
  6
Continuous
 62
     7
370
    20
100
AcDbVertex
100
AcDb3dPolylineVertex
 10
30702.64765350326
 20
-48590.21905445015
 30
-45.8152398000076
 70
    32
  0
VERTEX
  5
336
330
321
100
AcDbEntity
  8
Ech.1_5
  6
Continuous
 62
     7
370
    20
100
AcDbVertex
100
AcDb3dPolylineVertex
 10
30701.66941880325
 20
-48590.03429425014
 30
-46.0000000000074
 70
    32
  0
VERTEX
  5
337
330
321
100
AcDbEntity
  8
Ech.1_5
  6
Continuous
 62
     7
370
    20
100
AcDbVertex
100
AcDb3dPolylineVertex
 10
30651.11830760327
 20
-48590.03429425014
 30
-46.00000000000743
 70
    32
  0
VERTEX
  5
338
330
321
100
AcDbEntity
  8
Ech.1_5
  6
Continuous
 62
     7
370
    20
100
AcDbVertex
100
AcDb3dPolylineVertex
 10
30650.94399610325
 20
-48590.04190485015
 30
0.0
 70
    32
  0
VERTEX
  5
339
330
321
100
AcDbEntity
  8
Ech.1_5
  6
Continuous
 62
     7
370
    20
100
AcDbVertex
100
AcDb3dPolylineVertex
 10
30650.77101120327
 20
-48590.06467875013
 30
0.0
 70
    32
  0
VERTEX
  5
33A
330
321
100
AcDbEntity
  8
Ech.1_5
  6
Continuous
 62
     7
370
    20
100
AcDbVertex
100
AcDb3dPolylineVertex
 10
30650.60066950325
 20
-48590.10244265014
 30
0.0
 70
    32
  0
VERTEX
  5
33B
330
321
100
AcDbEntity
  8
Ech.1_5
  6
Continuous
 62
     7
370
    20
100
AcDbVertex
100
AcDb3dPolylineVertex
 10
30650.43426730324
 20
-48590.15490905014
 30
0.0
 70
    32
  0
VERTEX
  5
33C
330
321
100
AcDbEntity
  8
Ech.1_5
  6
Continuous
 62
     7
370
    20
100
AcDbVertex
100
AcDb3dPolylineVertex
 10
30650.27307110327
 20
-48590.22167875014
 30
0.0
 70
    32
  0
VERTEX
  5
33D
330
321
100
AcDbEntity
  8
Ech.1_5
  6
Continuous
 62
     7
370
    20
100
AcDbVertex
100
AcDb3dPolylineVertex
 10
30650.11830760327
 20
-48590.30224345015
 30
0.0
 70
    32
  0
VERTEX
  5
33E
330
321
100
AcDbEntity
  8
Ech.1_5
  6
Continuous
 62
     7
370
    20
100
AcDbVertex
100
AcDb3dPolylineVertex
 10
30649.97115470327
 20
-48590.39599015015
 30
0.0
 70
    32
  0
VERTEX
  5
33F
330
321
100
AcDbEntity
  8
Ech.1_5
  6
Continuous
 62
     7
370
    20
100
AcDbVertex
100
AcDb3dPolylineVertex
 10
30649.83273240325
 20
-48590.50220545013
 30
0.0
 70
    32
  0
VERTEX
  5
340
330
321
100
AcDbEntity
  8
Ech.1_5
  6
Continuous
 62
     7
370
    20
100
AcDbVertex
100
AcDb3dPolylineVertex
 10
30649.70409400325
 20
-48590.62008075013
 30
0.0
 70
    32
  0
VERTEX
  5
341
330
321
100
AcDbEntity
  8
Ech.1_5
  6
Continuous
 62
     7
370
    20
100
AcDbVertex
100
AcDb3dPolylineVertex
 10
30649.58621870325
 20
-48590.74871905013
 30
0.0
 70
    32
  0
VERTEX
  5
342
330
321
100
AcDbEntity
  8
Ech.1_5
  6
Continuous
 62
     7
370
    20
100
AcDbVertex
100
AcDb3dPolylineVertex
 10
30649.48000350325
 20
-48590.88714145015
 30
0.0
 70
    32
  0
VERTEX
  5
343
330
321
100
AcDbEntity
  8
Ech.1_5
  6
Continuous
 62
     7
370
    20
100
AcDbVertex
100
AcDb3dPolylineVertex
 10
30649.38625680327
 20
-48591.03429425014
 30
0.0
 70
    32
  0
VERTEX
  5
344
330
321
100
AcDbEntity
  8
Ech.1_5
  6
Continuous
 62
     7
370
    20
100
AcDbVertex
100
AcDb3dPolylineVertex
 10
30649.30569200326
 20
-48591.18905775015
 30
0.0
 70
    32
  0
VERTEX
  5
345
330
321
100
AcDbEntity
  8
Ech.1_5
  6
Continuous
 62
     7
370
    20
100
AcDbVertex
100
AcDb3dPolylineVertex
 10
30649.23892230326
 20
-48591.35025405015
 30
0.0
 70
    32
  0
VERTEX
  5
346
330
321
100
AcDbEntity
  8
Ech.1_5
  6
Continuous
 62
     7
370
    20
100
AcDbVertex
100
AcDb3dPolylineVertex
 10
30649.18645590326
 20
-48591.51665615015
 30
0.0
 70
    32
  0
VERTEX
  5
347
330
321
100
AcDbEntity
  8
Ech.1_5
  6
Continuous
 62
     7
370
    20
100
AcDbVertex
100
AcDb3dPolylineVertex
 10
30649.14869210326
 20
-48591.68699795015
 30
0.0
 70
    32
  0
VERTEX
  5
348
330
321
100
AcDbEntity
  8
Ech.1_5
  6
Continuous
 62
     7
370
    20
100
AcDbVertex
100
AcDb3dPolylineVertex
 10
30649.12591820324
 20
-48591.85998285013
 30
0.0
 70
    32
  0
VERTEX
  5
349
330
321
100
AcDbEntity
  8
Ech.1_5
  6
Continuous
 62
     7
370
    20
100
AcDbVertex
100
AcDb3dPolylineVertex
 10
30649.11830760327
 20
-48592.03429425014
 30
0.0
 70
    32
  0
VERTEX
  5
34A
330
321
100
AcDbEntity
  8
Ech.1_5
  6
Continuous
 62
     7
370
    20
100
AcDbVertex
100
AcDb3dPolylineVertex
 10
30649.11830760327
 20
-48627.03429425014
 30
0.0
 70
    32
  0
VERTEX
  5
34B
330
321
100
AcDbEntity
  8
Ech.1_5
  6
Continuous
 62
     7
370
    20
100
AcDbVertex
100
AcDb3dPolylineVertex
 10
30642.61830760327
 20
-48627.03429425014
 30
0.0
 70
    32
  0
VERTEX
  5
34C
330
321
100
AcDbEntity
  8
Ech.1_5
  6
Continuous
 62
     7
370
    20
100
AcDbVertex
100
AcDb3dPolylineVertex
 10
30642.48757400327
 20
-48627.04000225016
 30
0.0
 70
    32
  0
VERTEX
  5
34D
330
321
100
AcDbEntity
  8
Ech.1_5
  6
Continuous
 62
     7
370
    20
100
AcDbVertex
100
AcDb3dPolylineVertex
 10
30642.35783530327
 20
-48627.05708265015
 30
0.0
 70
    32
  0
VERTEX
  5
34E
330
321
100
AcDbEntity
  8
Ech.1_5
  6
Continuous
 62
     7
370
    20
100
AcDbVertex
100
AcDb3dPolylineVertex
 10
30642.23007900327
 20
-48627.08540555015
 30
0.0
 70
    32
  0
VERTEX
  5
34F
330
321
100
AcDbEntity
  8
Ech.1_5
  6
Continuous
 62
     7
370
    20
100
AcDbVertex
100
AcDb3dPolylineVertex
 10
30642.10527740327
 20
-48627.12475535013
 30
0.0
 70
    32
  0
VERTEX
  5
350
330
321
100
AcDbEntity
  8
Ech.1_5
  6
Continuous
 62
     7
370
    20
100
AcDbVertex
100
AcDb3dPolylineVertex
 10
30641.98438020325
 20
-48627.17483265013
 30
0.0
 70
    32
  0
VERTEX
  5
351
330
321
100
AcDbEntity
  8
Ech.1_5
  6
Continuous
 62
     7
370
    20
100
AcDbVertex
100
AcDb3dPolylineVertex
 10
30641.86830760327
 20
-48627.23525615015
 30
0.0
 70
    32
  0
VERTEX
  5
352
330
321
100
AcDbEntity
  8
Ech.1_5
  6
Continuous
 62
     7
370
    20
100
AcDbVertex
100
AcDb3dPolylineVertex
 10
30641.75794290327
 20
-48627.30556625013
 30
0.0
 70
    32
  0
VERTEX
  5
353
330
321
100
AcDbEntity
  8
Ech.1_5
  6
Continuous
 62
     7
370
    20
100
AcDbVertex
100
AcDb3dPolylineVertex
 10
30641.65412620325
 20
-48627.38522765016
 30
0.0
 70
    32
  0
VERTEX
  5
354
330
321
100
AcDbEntity
  8
Ech.1_5
  6
Continuous
 62
     7
370
    20
100
AcDbVertex
100
AcDb3dPolylineVertex
 10
30641.55764740325
 20
-48627.47363415016
 30
0.0
 70
    32
  0
VERTEX
  5
355
330
321
100
AcDbEntity
  8
Ech.1_5
  6
Continuous
 62
     7
370
    20
100
AcDbVertex
100
AcDb3dPolylineVertex
 10
30641.46924090325
 20
-48627.57011285015
 30
0.0
 70
    32
  0
VERTEX
  5
356
330
321
100
AcDbEntity
  8
Ech.1_5
  6
Continuous
 62
     7
370
    20
100
AcDbVertex
100
AcDb3dPolylineVertex
 10
30641.38957950325
 20
-48627.67392965015
 30
0.0
 70
    32
  0
VERTEX
  5
357
330
321
100
AcDbEntity
  8
Ech.1_5
  6
Continuous
 62
     7
370
    20
100
AcDbVertex
100
AcDb3dPolylineVertex
 10
30641.31926950327
 20
-48627.78429425014
 30
0.0
 70
    32
  0
VERTEX
  5
358
330
321
100
AcDbEntity
  8
Ech.1_5
  6
Continuous
 62
     7
370
    20
100
AcDbVertex
100
AcDb3dPolylineVertex
 10
30641.25884590325
 20
-48627.90036685012
 30
0.0
 70
    32
  0
VERTEX
  5
359
330
321
100
AcDbEntity
  8
Ech.1_5
  6
Continuous
 62
     7
370
    20
100
AcDbVertex
100
AcDb3dPolylineVertex
 10
30641.20876870325
 20
-48628.02126405014
 30
0.0
 70
    32
  0
VERTEX
  5
35A
330
321
100
AcDbEntity
  8
Ech.1_5
  6
Continuous
 62
     7
370
    20
100
AcDbVertex
100
AcDb3dPolylineVertex
 10
30641.16941880325
 20
-48628.14606575014
 30
0.0
 70
    32
  0
VERTEX
  5
35B
330
321
100
AcDbEntity
  8
Ech.1_5
  6
Continuous
 62
     7
370
    20
100
AcDbVertex
100
AcDb3dPolylineVertex
 10
30641.14109600327
 20
-48628.27382205015
 30
0.0
 70
    32
  0
VERTEX
  5
35C
330
321
100
AcDbEntity
  8
Ech.1_5
  6
Continuous
 62
     7
370
    20
100
AcDbVertex
100
AcDb3dPolylineVertex
 10
30641.12401550325
 20
-48628.40356065014
 30
0.0
 70
    32
  0
VERTEX
  5
35D
330
321
100
AcDbEntity
  8
Ech.1_5
  6
Continuous
 62
     7
370
    20
100
AcDbVertex
100
AcDb3dPolylineVertex
 10
30641.11830760327
 20
-48628.53429425014
 30
0.0
 70
    32
  0
VERTEX
  5
35E
330
321
100
AcDbEntity
  8
Ech.1_5
  6
Continuous
 62
     7
370
    20
100
AcDbVertex
100
AcDb3dPolylineVertex
 10
30641.11830760327
 20
-48631.53429425014
 30
0.0
 70
    32
  0
VERTEX
  5
35F
330
321
100
AcDbEntity
  8
Ech.1_5
  6
Continuous
 62
     7
370
    20
100
AcDbVertex
100
AcDb3dPolylineVertex
 10
30641.11069700326
 20
-48631.70860575016
 30
0.0
 70
    32
  0
VERTEX
  5
360
330
321
100
AcDbEntity
  8
Ech.1_5
  6
Continuous
 62
     7
370
    20
100
AcDbVertex
100
AcDb3dPolylineVertex
 10
30641.08792310325
 20
-48631.88159065014
 30
0.0
 70
    32
  0
VERTEX
  5
361
330
321
100
AcDbEntity
  8
Ech.1_5
  6
Continuous
 62
     7
370
    20
100
AcDbVertex
100
AcDb3dPolylineVertex
 10
30641.05015920327
 20
-48632.05193235014
 30
0.0
 70
    32
  0
VERTEX
  5
362
330
321
100
AcDbEntity
  8
Ech.1_5
  6
Continuous
 62
     7
370
    20
100
AcDbVertex
100
AcDb3dPolylineVertex
 10
30640.99769280325
 20
-48632.21833455014
 30
0.0
 70
    32
  0
VERTEX
  5
363
330
321
100
AcDbEntity
  8
Ech.1_5
  6
Continuous
 62
     7
370
    20
100
AcDbVertex
100
AcDb3dPolylineVertex
 10
30640.93092320325
 20
-48632.37953085014
 30
0.0
 70
    32
  0
VERTEX
  5
364
330
321
100
AcDbEntity
  8
Ech.1_5
  6
Continuous
 62
     7
370
    20
100
AcDbVertex
100
AcDb3dPolylineVertex
 10
30640.85035840327
 20
-48632.53429425014
 30
0.0
 70
    32
  0
VERTEX
  5
365
330
321
100
AcDbEntity
  8
Ech.1_5
  6
Continuous
 62
     7
370
    20
100
AcDbVertex
100
AcDb3dPolylineVertex
 10
30640.75661170326
 20
-48632.68144715014
 30
0.0
 70
    32
  0
VERTEX
  5
366
330
321
100
AcDbEntity
  8
Ech.1_5
  6
Continuous
 62
     7
370
    20
100
AcDbVertex
100
AcDb3dPolylineVertex
 10
30640.65039650325
 20
-48632.81986955013
 30
0.0
 70
    32
  0
VERTEX
  5
367
330
321
100
AcDbEntity
  8
Ech.1_5
  6
Continuous
 62
     7
370
    20
100
AcDbVertex
100
AcDb3dPolylineVertex
 10
30640.53252120325
 20
-48632.94850785013
 30
0.0
 70
    32
  0
VERTEX
  5
368
330
321
100
AcDbEntity
  8
Ech.1_5
  6
Continuous
 62
     7
370
    20
100
AcDbVertex
100
AcDb3dPolylineVertex
 10
30640.40388280326
 20
-48633.06638315013
 30
0.0
 70
    32
  0
VERTEX
  5
369
330
321
100
AcDbEntity
  8
Ech.1_5
  6
Continuous
 62
     7
370
    20
100
AcDbVertex
100
AcDb3dPolylineVertex
 10
30640.26546050327
 20
-48633.17259835014
 30
0.0
 70
    32
  0
VERTEX
  5
36A
330
321
100
AcDbEntity
  8
Ech.1_5
  6
Continuous
 62
     7
370
    20
100
AcDbVertex
100
AcDb3dPolylineVertex
 10
30640.11830760327
 20
-48633.26634505014
 30
0.0
 70
    32
  0
VERTEX
  5
36B
330
321
100
AcDbEntity
  8
Ech.1_5
  6
Continuous
 62
     7
370
    20
100
AcDbVertex
100
AcDb3dPolylineVertex
 10
30639.96354410327
 20
-48633.34690985015
 30
0.0
 70
    32
  0
VERTEX
  5
36C
330
321
100
AcDbEntity
  8
Ech.1_5
  6
Continuous
 62
     7
370
    20
100
AcDbVertex
100
AcDb3dPolylineVertex
 10
30639.80234790326
 20
-48633.41367955015
 30
0.0
 70
    32
  0
VERTEX
  5
36D
330
321
100
AcDbEntity
  8
Ech.1_5
  6
Continuous
 62
     7
370
    20
100
AcDbVertex
100
AcDb3dPolylineVertex
 10
30639.63594570326
 20
-48633.46614595012
 30
0.0
 70
    32
  0
VERTEX
  5
36E
330
321
100
AcDbEntity
  8
Ech.1_5
  6
Continuous
 62
     7
370
    20
100
AcDbVertex
100
AcDb3dPolylineVertex
 10
30639.46560390326
 20
-48633.50390975013
 30
0.0
 70
    32
  0
VERTEX
  5
36F
330
321
100
AcDbEntity
  8
Ech.1_5
  6
Continuous
 62
     7
370
    20
100
AcDbVertex
100
AcDb3dPolylineVertex
 10
30639.29261910325
 20
-48633.52668365014
 30
0.0
 70
    32
  0
VERTEX
  5
370
330
321
100
AcDbEntity
  8
Ech.1_5
  6
Continuous
 62
     7
370
    20
100
AcDbVertex
100
AcDb3dPolylineVertex
 10
30639.11830760327
 20
-48633.53429425014
 30
0.0
 70
    32
  0
VERTEX
  5
371
330
321
100
AcDbEntity
  8
Ech.1_5
  6
Continuous
 62
     7
370
    20
100
AcDbVertex
100
AcDb3dPolylineVertex
 10
30630.61830760327
 20
-48633.53429425014
 30
0.0
 70
    32
  0
VERTEX
  5
372
330
321
100
AcDbEntity
  8
Ech.1_5
  6
Continuous
 62
     7
370
    20
100
AcDbVertex
100
AcDb3dPolylineVertex
 10
30630.48757400327
 20
-48633.54000225016
 30
0.0
 70
    32
  0
VERTEX
  5
373
330
321
100
AcDbEntity
  8
Ech.1_5
  6
Continuous
 62
     7
370
    20
100
AcDbVertex
100
AcDb3dPolylineVertex
 10
30630.35783530327
 20
-48633.55708265015
 30
0.0
 70
    32
  0
VERTEX
  5
374
330
321
100
AcDbEntity
  8
Ech.1_5
  6
Continuous
 62
     7
370
    20
100
AcDbVertex
100
AcDb3dPolylineVertex
 10
30630.23007900327
 20
-48633.58540555015
 30
0.0
 70
    32
  0
VERTEX
  5
375
330
321
100
AcDbEntity
  8
Ech.1_5
  6
Continuous
 62
     7
370
    20
100
AcDbVertex
100
AcDb3dPolylineVertex
 10
30630.10527740327
 20
-48633.62475535013
 30
0.0
 70
    32
  0
VERTEX
  5
376
330
321
100
AcDbEntity
  8
Ech.1_5
  6
Continuous
 62
     7
370
    20
100
AcDbVertex
100
AcDb3dPolylineVertex
 10
30629.98438020325
 20
-48633.67483265015
 30
0.0
 70
    32
  0
VERTEX
  5
377
330
321
100
AcDbEntity
  8
Ech.1_5
  6
Continuous
 62
     7
370
    20
100
AcDbVertex
100
AcDb3dPolylineVertex
 10
30629.86830760327
 20
-48633.73525615015
 30
0.0
 70
    32
  0
VERTEX
  5
378
330
321
100
AcDbEntity
  8
Ech.1_5
  6
Continuous
 62
     7
370
    20
100
AcDbVertex
100
AcDb3dPolylineVertex
 10
30629.75794290327
 20
-48633.80556625013
 30
0.0
 70
    32
  0
VERTEX
  5
379
330
321
100
AcDbEntity
  8
Ech.1_5
  6
Continuous
 62
     7
370
    20
100
AcDbVertex
100
AcDb3dPolylineVertex
 10
30629.65412620325
 20
-48633.88522765013
 30
0.0
 70
    32
  0
VERTEX
  5
37A
330
321
100
AcDbEntity
  8
Ech.1_5
  6
Continuous
 62
     7
370
    20
100
AcDbVertex
100
AcDb3dPolylineVertex
 10
30629.55764740325
 20
-48633.97363415013
 30
0.0
 70
    32
  0
VERTEX
  5
37B
330
321
100
AcDbEntity
  8
Ech.1_5
  6
Continuous
 62
     7
370
    20
100
AcDbVertex
100
AcDb3dPolylineVertex
 10
30629.46924090325
 20
-48634.07011285015
 30
0.0
 70
    32
  0
VERTEX
  5
37C
330
321
100
AcDbEntity
  8
Ech.1_5
  6
Continuous
 62
     7
370
    20
100
AcDbVertex
100
AcDb3dPolylineVertex
 10
30629.38957950325
 20
-48634.17392965015
 30
0.0
 70
    32
  0
VERTEX
  5
37D
330
321
100
AcDbEntity
  8
Ech.1_5
  6
Continuous
 62
     7
370
    20
100
AcDbVertex
100
AcDb3dPolylineVertex
 10
30629.31926950327
 20
-48634.28429425014
 30
0.0
 70
    32
  0
VERTEX
  5
37E
330
321
100
AcDbEntity
  8
Ech.1_5
  6
Continuous
 62
     7
370
    20
100
AcDbVertex
100
AcDb3dPolylineVertex
 10
30629.25884590325
 20
-48634.40036685015
 30
0.0
 70
    32
  0
VERTEX
  5
37F
330
321
100
AcDbEntity
  8
Ech.1_5
  6
Continuous
 62
     7
370
    20
100
AcDbVertex
100
AcDb3dPolylineVertex
 10
30629.20876870325
 20
-48634.52126405014
 30
0.0
 70
    32
  0
VERTEX
  5
380
330
321
100
AcDbEntity
  8
Ech.1_5
  6
Continuous
 62
     7
370
    20
100
AcDbVertex
100
AcDb3dPolylineVertex
 10
30629.16941880325
 20
-48634.64606575014
 30
0.0
 70
    32
  0
VERTEX
  5
381
330
321
100
AcDbEntity
  8
Ech.1_5
  6
Continuous
 62
     7
370
    20
100
AcDbVertex
100
AcDb3dPolylineVertex
 10
30629.14109600327
 20
-48634.77382205015
 30
0.0
 70
    32
  0
VERTEX
  5
382
330
321
100
AcDbEntity
  8
Ech.1_5
  6
Continuous
 62
     7
370
    20
100
AcDbVertex
100
AcDb3dPolylineVertex
 10
30629.12401550325
 20
-48634.90356065014
 30
0.0
 70
    32
  0
VERTEX
  5
383
330
321
100
AcDbEntity
  8
Ech.1_5
  6
Continuous
 62
     7
370
    20
100
AcDbVertex
100
AcDb3dPolylineVertex
 10
30629.11830760327
 20
-48635.03429425014
 30
0.0
 70
    32
  0
VERTEX
  5
384
330
321
100
AcDbEntity
  8
Ech.1_5
  6
Continuous
 62
     7
370
    20
100
AcDbVertex
100
AcDb3dPolylineVertex
 10
30629.12401550325
 20
-48635.16502795015
 30
0.0
 70
    32
  0
VERTEX
  5
385
330
321
100
AcDbEntity
  8
Ech.1_5
  6
Continuous
 62
     7
370
    20
100
AcDbVertex
100
AcDb3dPolylineVertex
 10
30629.14109600327
 20
-48635.29476655014
 30
0.0
 70
    32
  0
VERTEX
  5
386
330
321
100
AcDbEntity
  8
Ech.1_5
  6
Continuous
 62
     7
370
    20
100
AcDbVertex
100
AcDb3dPolylineVertex
 10
30629.42363700327
 20
-48636.89713625015
 30
0.0
 70
    32
  0
VERTEX
  5
387
330
321
100
AcDbEntity
  8
Ech.1_5
  6
Continuous
 62
     7
370
    20
100
AcDbVertex
100
AcDb3dPolylineVertex
 10
30629.46140080327
 20
-48637.06747795014
 30
0.0
 70
    32
  0
VERTEX
  5
388
330
321
100
AcDbEntity
  8
Ech.1_5
  6
Continuous
 62
     7
370
    20
100
AcDbVertex
100
AcDb3dPolylineVertex
 10
30629.51386720327
 20
-48637.23388015015
 30
0.0
 70
    32
  0
VERTEX
  5
389
330
321
100
AcDbEntity
  8
Ech.1_5
  6
Continuous
 62
     7
370
    20
100
AcDbVertex
100
AcDb3dPolylineVertex
 10
30629.58063690327
 20
-48637.39507645015
 30
0.0
 70
    32
  0
VERTEX
  5
38A
330
321
100
AcDbEntity
  8
Ech.1_5
  6
Continuous
 62
     7
370
    20
100
AcDbVertex
100
AcDb3dPolylineVertex
 10
30629.66120170325
 20
-48637.54983985015
 30
0.0
 70
    32
  0
VERTEX
  5
38B
330
321
100
AcDbEntity
  8
Ech.1_5
  6
Continuous
 62
     7
370
    20
100
AcDbVertex
100
AcDb3dPolylineVertex
 10
30629.75494840326
 20
-48637.69699275015
 30
0.0
 70
    32
  0
VERTEX
  5
38C
330
321
100
AcDbEntity
  8
Ech.1_5
  6
Continuous
 62
     7
370
    20
100
AcDbVertex
100
AcDb3dPolylineVertex
 10
30629.86116360327
 20
-48637.83541515014
 30
0.0
 70
    32
  0
VERTEX
  5
38D
330
321
100
AcDbEntity
  8
Ech.1_5
  6
Continuous
 62
     7
370
    20
100
AcDbVertex
100
AcDb3dPolylineVertex
 10
30629.97903890326
 20
-48637.96405345014
 30
0.0
 70
    32
  0
VERTEX
  5
38E
330
321
100
AcDbEntity
  8
Ech.1_5
  6
Continuous
 62
     7
370
    20
100
AcDbVertex
100
AcDb3dPolylineVertex
 10
30630.10767730326
 20
-48638.08192875014
 30
0.0
 70
    32
  0
VERTEX
  5
38F
330
321
100
AcDbEntity
  8
Ech.1_5
  6
Continuous
 62
     7
370
    20
100
AcDbVertex
100
AcDb3dPolylineVertex
 10
30630.24609960325
 20
-48638.18814395014
 30
0.0
 70
    32
  0
VERTEX
  5
390
330
321
100
AcDbEntity
  8
Ech.1_5
  6
Continuous
 62
     7
370
    20
100
AcDbVertex
100
AcDb3dPolylineVertex
 10
30630.39325250325
 20
-48638.28189065015
 30
0.0
 70
    32
  0
VERTEX
  5
391
330
321
100
AcDbEntity
  8
Ech.1_5
  6
Continuous
 62
     7
370
    20
100
AcDbVertex
100
AcDb3dPolylineVertex
 10
30633.13065000324
 20
-48639.86232785015
 30
0.0
 70
    32
  0
VERTEX
  5
392
330
321
100
AcDbEntity
  8
Ech.1_5
  6
Continuous
 62
     7
370
    20
100
AcDbVertex
100
AcDb3dPolylineVertex
 10
30633.57210860326
 20
-48640.14356805013
 30
0.0
 70
    32
  0
VERTEX
  5
393
330
321
100
AcDbEntity
  8
Ech.1_5
  6
Continuous
 62
     7
370
    20
100
AcDbVertex
100
AcDb3dPolylineVertex
 10
30633.98737560327
 20
-48640.46221365013
 30
0.0
 70
    32
  0
VERTEX
  5
394
330
321
100
AcDbEntity
  8
Ech.1_5
  6
Continuous
 62
     7
370
    20
100
AcDbVertex
100
AcDb3dPolylineVertex
 10
30634.37329060326
 20
-48640.81583965015
 30
0.0
 70
    32
  0
VERTEX
  5
395
330
321
100
AcDbEntity
  8
Ech.1_5
  6
Continuous
 62
     7
370
    20
100
AcDbVertex
100
AcDb3dPolylineVertex
 10
30634.72691660326
 20
-48641.20175465014
 30
0.0
 70
    32
  0
VERTEX
  5
396
330
321
100
AcDbEntity
  8
Ech.1_5
  6
Continuous
 62
     7
370
    20
100
AcDbVertex
100
AcDb3dPolylineVertex
 10
30635.04556220325
 20
-48641.61702165015
 30
0.0
 70
    32
  0
VERTEX
  5
397
330
321
100
AcDbEntity
  8
Ech.1_5
  6
Continuous
 62
     7
370
    20
100
AcDbVertex
100
AcDb3dPolylineVertex
 10
30635.32680240327
 20
-48642.05848025014
 30
0.0
 70
    32
  0
VERTEX
  5
398
330
321
100
AcDbEntity
  8
Ech.1_5
  6
Continuous
 62
     7
370
    20
100
AcDbVertex
100
AcDb3dPolylineVertex
 10
30635.56849670326
 20
-48642.52277075015
 30
0.0
 70
    32
  0
VERTEX
  5
399
330
321
100
AcDbEntity
  8
Ech.1_5
  6
Continuous
 62
     7
370
    20
100
AcDbVertex
100
AcDb3dPolylineVertex
 10
30635.76880570327
 20
-48643.00635945016
 30
0.0
 70
    32
  0
VERTEX
  5
39A
330
321
100
AcDbEntity
  8
Ech.1_5
  6
Continuous
 62
     7
370
    20
100
AcDbVertex
100
AcDb3dPolylineVertex
 10
30635.92620490326
 20
-48643.50556605014
 30
0.0
 70
    32
  0
VERTEX
  5
39B
330
321
100
AcDbEntity
  8
Ech.1_5
  6
Continuous
 62
     7
370
    20
100
AcDbVertex
100
AcDb3dPolylineVertex
 10
30636.03949650325
 20
-48644.01659125015
 30
0.0
 70
    32
  0
VERTEX
  5
39C
330
321
100
AcDbEntity
  8
Ech.1_5
  6
Continuous
 62
     7
370
    20
100
AcDbVertex
100
AcDb3dPolylineVertex
 10
30636.87832460326
 20
-48648.77382205015
 30
0.0
 70
    32
  0
VERTEX
  5
39D
330
321
100
AcDbEntity
  8
Ech.1_5
  6
Continuous
 62
     7
370
    20
100
AcDbVertex
100
AcDb3dPolylineVertex
 10
30636.89540500326
 20
-48648.90356065014
 30
0.0
 70
    32
  0
VERTEX
  5
39E
330
321
100
AcDbEntity
  8
Ech.1_5
  6
Continuous
 62
     7
370
    20
100
AcDbVertex
100
AcDb3dPolylineVertex
 10
30636.90111300327
 20
-48649.03429425014
 30
0.0
 70
    32
  0
VERTEX
  5
39F
330
321
100
AcDbEntity
  8
Ech.1_5
  6
Continuous
 62
     7
370
    20
100
AcDbVertex
100
AcDb3dPolylineVertex
 10
30636.89540500326
 20
-48649.16502795015
 30
0.0
 70
    32
  0
VERTEX
  5
3A0
330
321
100
AcDbEntity
  8
Ech.1_5
  6
Continuous
 62
     7
370
    20
100
AcDbVertex
100
AcDb3dPolylineVertex
 10
30636.87832460326
 20
-48649.29476655014
 30
0.0
 70
    32
  0
VERTEX
  5
3A1
330
321
100
AcDbEntity
  8
Ech.1_5
  6
Continuous
 62
     7
370
    20
100
AcDbVertex
100
AcDb3dPolylineVertex
 10
30636.85000170326
 20
-48649.42252285015
 30
0.0
 70
    32
  0
VERTEX
  5
3A2
330
321
100
AcDbEntity
  8
Ech.1_5
  6
Continuous
 62
     7
370
    20
100
AcDbVertex
100
AcDb3dPolylineVertex
 10
30636.81065190325
 20
-48649.54732455015
 30
0.0
 70
    32
  0
VERTEX
  5
3A3
330
321
100
AcDbEntity
  8
Ech.1_5
  6
Continuous
 62
     7
370
    20
100
AcDbVertex
100
AcDb3dPolylineVertex
 10
30636.76057470326
 20
-48649.66822165014
 30
0.0
 70
    32
  0
VERTEX
  5
3A4
330
321
100
AcDbEntity
  8
Ech.1_5
  6
Continuous
 62
     7
370
    20
100
AcDbVertex
100
AcDb3dPolylineVertex
 10
30636.70015110326
 20
-48649.78429425014
 30
0.0
 70
    32
  0
VERTEX
  5
3A5
330
321
100
AcDbEntity
  8
Ech.1_5
  6
Continuous
 62
     7
370
    20
100
AcDbVertex
100
AcDb3dPolylineVertex
 10
30636.62984110325
 20
-48649.89465895014
 30
0.0
 70
    32
  0
VERTEX
  5
3A6
330
321
100
AcDbEntity
  8
Ech.1_5
  6
Continuous
 62
     7
370
    20
100
AcDbVertex
100
AcDb3dPolylineVertex
 10
30636.55017970326
 20
-48649.99847575014
 30
0.0
 70
    32
  0
VERTEX
  5
3A7
330
321
100
AcDbEntity
  8
Ech.1_5
  6
Continuous
 62
     7
370
    20
100
AcDbVertex
100
AcDb3dPolylineVertex
 10
30636.46177320326
 20
-48650.09495445013
 30
0.0
 70
    32
  0
VERTEX
  5
3A8
330
321
100
AcDbEntity
  8
Ech.1_5
  6
Continuous
 62
     7
370
    20
100
AcDbVertex
100
AcDb3dPolylineVertex
 10
30636.36529440326
 20
-48650.18336095013
 30
0.0
 70
    32
  0
VERTEX
  5
3A9
330
321
100
AcDbEntity
  8
Ech.1_5
  6
Continuous
 62
     7
370
    20
100
AcDbVertex
100
AcDb3dPolylineVertex
 10
30636.26147760326
 20
-48650.26302235013
 30
0.0
 70
    32
  0
VERTEX
  5
3AA
330
321
100
AcDbEntity
  8
Ech.1_5
  6
Continuous
 62
     7
370
    20
100
AcDbVertex
100
AcDb3dPolylineVertex
 10
30636.15111300327
 20
-48650.33333235014
 30
0.0
 70
    32
  0
VERTEX
  5
3AB
330
321
100
AcDbEntity
  8
Ech.1_5
  6
Continuous
 62
     7
370
    20
100
AcDbVertex
100
AcDb3dPolylineVertex
 10
30636.03504040326
 20
-48650.39375595014
 30
0.0
 70
    32
  0
VERTEX
  5
3AC
330
321
100
AcDbEntity
  8
Ech.1_5
  6
Continuous
 62
     7
370
    20
100
AcDbVertex
100
AcDb3dPolylineVertex
 10
30635.91414320327
 20
-48650.44383325013
 30
0.0
 70
    32
  0
VERTEX
  5
3AD
330
321
100
AcDbEntity
  8
Ech.1_5
  6
Continuous
 62
     7
370
    20
100
AcDbVertex
100
AcDb3dPolylineVertex
 10
30635.78934160327
 20
-48650.48318305014
 30
0.0
 70
    32
  0
VERTEX
  5
3AE
330
321
100
AcDbEntity
  8
Ech.1_5
  6
Continuous
 62
     7
370
    20
100
AcDbVertex
100
AcDb3dPolylineVertex
 10
30635.66158530326
 20
-48650.51150595014
 30
0.0
 70
    32
  0
VERTEX
  5
3AF
330
321
100
AcDbEntity
  8
Ech.1_5
  6
Continuous
 62
     7
370
    20
100
AcDbVertex
100
AcDb3dPolylineVertex
 10
30635.53184660327
 20
-48650.52858635013
 30
0.0
 70
    32
  0
VERTEX
  5
3B0
330
321
100
AcDbEntity
  8
Ech.1_5
  6
Continuous
 62
     7
370
    20
100
AcDbVertex
100
AcDb3dPolylineVertex
 10
30635.40111300327
 20
-48650.53429425014
 30
0.0
 70
    32
  0
VERTEX
  5
3B1
330
321
100
AcDbEntity
  8
Ech.1_5
  6
Continuous
 62
     7
370
    20
100
AcDbVertex
100
AcDb3dPolylineVertex
 10
30615.61830760327
 20
-48650.53429425014
 30
0.0
 70
    32
  0
VERTEX
  5
3B2
330
321
100
AcDbEntity
  8
Ech.1_5
  6
Continuous
 62
     7
370
    20
100
AcDbVertex
100
AcDb3dPolylineVertex
 10
30615.48757400327
 20
-48650.54000225013
 30
0.0
 70
    32
  0
VERTEX
  5
3B3
330
321
100
AcDbEntity
  8
Ech.1_5
  6
Continuous
 62
     7
370
    20
100
AcDbVertex
100
AcDb3dPolylineVertex
 10
30615.35783530327
 20
-48650.55708265015
 30
0.0
 70
    32
  0
VERTEX
  5
3B4
330
321
100
AcDbEntity
  8
Ech.1_5
  6
Continuous
 62
     7
370
    20
100
AcDbVertex
100
AcDb3dPolylineVertex
 10
30615.23007900327
 20
-48650.58540555015
 30
0.0
 70
    32
  0
VERTEX
  5
3B5
330
321
100
AcDbEntity
  8
Ech.1_5
  6
Continuous
 62
     7
370
    20
100
AcDbVertex
100
AcDb3dPolylineVertex
 10
30615.10527740327
 20
-48650.62475535013
 30
0.0
 70
    32
  0
VERTEX
  5
3B6
330
321
100
AcDbEntity
  8
Ech.1_5
  6
Continuous
 62
     7
370
    20
100
AcDbVertex
100
AcDb3dPolylineVertex
 10
30614.98438020325
 20
-48650.67483265015
 30
0.0
 70
    32
  0
VERTEX
  5
3B7
330
321
100
AcDbEntity
  8
Ech.1_5
  6
Continuous
 62
     7
370
    20
100
AcDbVertex
100
AcDb3dPolylineVertex
 10
30614.86830760327
 20
-48650.73525615015
 30
0.0
 70
    32
  0
VERTEX
  5
3B8
330
321
100
AcDbEntity
  8
Ech.1_5
  6
Continuous
 62
     7
370
    20
100
AcDbVertex
100
AcDb3dPolylineVertex
 10
30614.75794290327
 20
-48650.80556625013
 30
0.0
 70
    32
  0
VERTEX
  5
3B9
330
321
100
AcDbEntity
  8
Ech.1_5
  6
Continuous
 62
     7
370
    20
100
AcDbVertex
100
AcDb3dPolylineVertex
 10
30614.65412620325
 20
-48650.88522765013
 30
0.0
 70
    32
  0
VERTEX
  5
3BA
330
321
100
AcDbEntity
  8
Ech.1_5
  6
Continuous
 62
     7
370
    20
100
AcDbVertex
100
AcDb3dPolylineVertex
 10
30614.55764740325
 20
-48650.97363415016
 30
0.0
 70
    32
  0
VERTEX
  5
3BB
330
321
100
AcDbEntity
  8
Ech.1_5
  6
Continuous
 62
     7
370
    20
100
AcDbVertex
100
AcDb3dPolylineVertex
 10
30614.46924090325
 20
-48651.07011285015
 30
0.0
 70
    32
  0
VERTEX
  5
3BC
330
321
100
AcDbEntity
  8
Ech.1_5
  6
Continuous
 62
     7
370
    20
100
AcDbVertex
100
AcDb3dPolylineVertex
 10
30614.38957950325
 20
-48651.17392965015
 30
0.0
 70
    32
  0
VERTEX
  5
3BD
330
321
100
AcDbEntity
  8
Ech.1_5
  6
Continuous
 62
     7
370
    20
100
AcDbVertex
100
AcDb3dPolylineVertex
 10
30614.31926950327
 20
-48651.28429425014
 30
0.0
 70
    32
  0
VERTEX
  5
3BE
330
321
100
AcDbEntity
  8
Ech.1_5
  6
Continuous
 62
     7
370
    20
100
AcDbVertex
100
AcDb3dPolylineVertex
 10
30614.25884590325
 20
-48651.40036685015
 30
0.0
 70
    32
  0
VERTEX
  5
3BF
330
321
100
AcDbEntity
  8
Ech.1_5
  6
Continuous
 62
     7
370
    20
100
AcDbVertex
100
AcDb3dPolylineVertex
 10
30614.20876870325
 20
-48651.52126405014
 30
0.0
 70
    32
  0
VERTEX
  5
3C0
330
321
100
AcDbEntity
  8
Ech.1_5
  6
Continuous
 62
     7
370
    20
100
AcDbVertex
100
AcDb3dPolylineVertex
 10
30614.16941880325
 20
-48651.64606575014
 30
0.0
 70
    32
  0
VERTEX
  5
3C1
330
321
100
AcDbEntity
  8
Ech.1_5
  6
Continuous
 62
     7
370
    20
100
AcDbVertex
100
AcDb3dPolylineVertex
 10
30614.14109600324
 20
-48651.77382205015
 30
0.0
 70
    32
  0
VERTEX
  5
3C2
330
321
100
AcDbEntity
  8
Ech.1_5
  6
Continuous
 62
     7
370
    20
100
AcDbVertex
100
AcDb3dPolylineVertex
 10
30614.12401550325
 20
-48651.90356065014
 30
0.0
 70
    32
  0
VERTEX
  5
3C3
330
321
100
AcDbEntity
  8
Ech.1_5
  6
Continuous
 62
     7
370
    20
100
AcDbVertex
100
AcDb3dPolylineVertex
 10
30614.11830760327
 20
-48652.03429425014
 30
0.0
 70
    32
  0
VERTEX
  5
3C4
330
321
100
AcDbEntity
  8
Ech.1_5
  6
Continuous
 62
     7
370
    20
100
AcDbVertex
100
AcDb3dPolylineVertex
 10
30614.12401550325
 20
-48652.16502795015
 30
0.0
 70
    32
  0
VERTEX
  5
3C5
330
321
100
AcDbEntity
  8
Ech.1_5
  6
Continuous
 62
     7
370
    20
100
AcDbVertex
100
AcDb3dPolylineVertex
 10
30614.14109600324
 20
-48652.29476655014
 30
0.0
 70
    32
  0
VERTEX
  5
3C6
330
321
100
AcDbEntity
  8
Ech.1_5
  6
Continuous
 62
     7
370
    20
100
AcDbVertex
100
AcDb3dPolylineVertex
 10
30614.16941880325
 20
-48652.42252285015
 30
0.0
 70
    32
  0
VERTEX
  5
3C7
330
321
100
AcDbEntity
  8
Ech.1_5
  6
Continuous
 62
     7
370
    20
100
AcDbVertex
100
AcDb3dPolylineVertex
 10
30617.02228670326
 20
-48663.06957045016
 30
27.03527619999356
 70
    32
  0
VERTEX
  5
3C8
330
321
100
AcDbEntity
  8
Ech.1_5
  6
Continuous
 62
     7
370
    20
100
AcDbVertex
100
AcDb3dPolylineVertex
 10
30617.12721950326
 20
-48663.40237485016
 30
27.368080599994
 70
    32
  0
VERTEX
  5
3C9
330
321
100
AcDbEntity
  8
Ech.1_5
  6
Continuous
 62
     7
370
    20
100
AcDbVertex
100
AcDb3dPolylineVertex
 10
30617.26075880326
 20
-48663.72476735014
 30
27.69047309999329
 70
    32
  0
VERTEX
  5
3CA
330
321
100
AcDbEntity
  8
Ech.1_5
  6
Continuous
 62
     7
370
    20
100
AcDbVertex
100
AcDb3dPolylineVertex
 10
30617.42188830325
 20
-48664.03429425014
 30
27.99999999999106
 70
    32
  0
VERTEX
  5
3CB
330
321
100
AcDbEntity
  8
Ech.1_5
  6
Continuous
 62
     7
370
    20
100
AcDbVertex
100
AcDb3dPolylineVertex
 10
30617.60938180326
 20
-48664.32860005014
 30
28.29430579999432
 70
    32
  0
VERTEX
  5
3CC
330
321
100
AcDbEntity
  8
Ech.1_5
  6
Continuous
 62
     7
370
    20
100
AcDbVertex
100
AcDb3dPolylineVertex
 10
30617.82181220328
 20
-48664.60544475015
 30
28.57115049999372
 70
    32
  0
SEQEND
  5
3CD
330
321
100
AcDbEntity
  8
Ech.1_5
  6
Continuous
 62
     7
370
    20
390
5F
  0
LINE
  5
3CE
330
1F
100
AcDbEntity
  8
Ech.1_5
  6
Continuous
 62
     7
370
    20
390
5F
100
AcDbLine
 10
30359.03116556988
 20
-48624.04190485015
 30
0.0
 11
30468.99476782918
 21
-48624.04190485015
 31
0.0
  0
LINE
  5
3CF
330
1F
100
AcDbEntity
  8
Ech.1_5
  6
Continuous
 62
     7
370
    20
390
5F
100
AcDbLine
 10
30488.99476782918
 20
-48624.04190485015
 30
0.0
 11
30599.11830760327
 21
-48624.04190485015
 31
0.0
  0
LINE
  5
3D0
330
1F
100
AcDbEntity
  8
Ech.1_5
  6
Continuous
 62
     7
370
    20
390
5F
100
AcDbLine
 10
30359.03116556988
 20
-48620.04190485015
 30
0.0
 11
30468.99476782918
 21
-48620.04190485015
 31
0.0
  0
LINE
  5
3D1
330
1F
100
AcDbEntity
  8
Ech.1_5
  6
Continuous
 62
     7
370
    20
390
5F
100
AcDbLine
 10
30488.99476782918
 20
-48620.04190485015
 30
0.0
 11
30599.11830760327
 21
-48620.04190485015
 31
0.0
  0
LINE
  5
3D2
330
1F
100
AcDbEntity
  8
Ech.1_5
  6
Continuous
 62
     7
370
    20
390
5F
100
AcDbLine
 10
30359.03116556988
 20
-48600.04190485015
 30
0.0
 11
30468.99476782918
 21
-48600.04190485015
 31
0.0
  0
LINE
  5
3D3
330
1F
100
AcDbEntity
  8
Ech.1_5
  6
Continuous
 62
     7
370
    20
390
5F
100
AcDbLine
 10
30488.99476782918
 20
-48600.04190485015
 30
0.0
 11
30599.11830760327
 21
-48600.04190485015
 31
0.0
  0
LINE
  5
3D4
330
1F
100
AcDbEntity
  8
Ech.1_5
  6
Continuous
 62
     7
370
    20
390
5F
100
AcDbLine
 10
30359.03116556988
 20
-48604.04190485015
 30
0.0
 11
30468.99476782918
 21
-48604.04190485015
 31
0.0
  0
LINE
  5
3D5
330
1F
100
AcDbEntity
  8
Ech.1_5
  6
Continuous
 62
     7
370
    20
390
5F
100
AcDbLine
 10
30488.99476782918
 20
-48604.04190485015
 30
0.0
 11
30599.11830760327
 21
-48604.04190485015
 31
0.0
  0
HATCH
  5
3D6
330
1F
100
AcDbEntity
  8
Ech.1_5
  6
Continuous
 62
     9
440
 33554687
370
    15
390
5F
100
AcDbHatch
 10
0.0
 20
0.0
 30
0.0
210
0.0
220
0.0
230
1.0
  2
SOLID
 70
     1
 71
     0
 91
        1
 92
        3
 72
     0
 73
     1
 93
       12
 10
30739.16941905375
 20
-48619.53429425015
 10
30739.16941905375
 20
-48613.5384141232
 10
30709.16941880325
 20
-48613.53429425015
 10
30709.16941880325
 20
-48661.53429425015
 10
30739.16941905375
 20
-48661.53429425015
 10
30739.16941905375
 20
-48655.53429425015
 10
30737.16941905375
 20
-48655.53429425015
 10
30737.16941905375
 20
-48659.53429425015
 10
30711.16941905375
 20
-48659.53429425015
 10
30711.16941905375
 20
-48615.53429425015
 10
30737.16941905375
 20
-48615.53429425015
 10
30737.16941905375
 20
-48619.53429425015
 97
        0
 75
     0
 76
     1
 98
        0
  0
LWPOLYLINE
  5
3D7
330
1F
100
AcDbEntity
  8
Ech.1_5
  6
Continuous
 62
     7
370
    20
390
5F
100
AcDbPolyline
 90
       13
 70
     0
 43
0.0
 10
30739.16941905375
 20
-48619.53429425015
 10
30739.16941905375
 20
-48613.5384141232
 10
30709.16941880325
 20
-48613.53429425015
 10
30709.16941880325
 20
-48661.53429425015
 10
30739.16941905375
 20
-48661.53429425015
 10
30739.16941905375
 20
-48655.53429425015
 10
30737.16941905375
 20
-48655.53429425015
 10
30737.16941905375
 20
-48659.53429425015
 10
30711.16941905375
 20
-48659.53429425015
 10
30711.16941905375
 20
-48615.53429425015
 10
30737.16941905375
 20
-48615.53429425015
 10
30737.16941905375
 20
-48619.53429425015
 10
30739.16941905375
 20
-48619.53429425015
  0
HATCH
  5
3D9
330
1F
100
AcDbEntity
  8
Ech.1_5
  6
Continuous
 62
   254
420
 14407639
440
 33554687
370
     5
390
5F
100
AcDbHatch
 10
0.0
 20
0.0
 30
0.0
210
0.0
220
0.0
230
1.0
  2
SOLID
 70
     1
 71
     0
 91
        1
 92
        3
 72
     0
 73
     1
 93
        4
 10
30696.16941880325
 20
-48600.53429425014
 10
30696.16941880325
 20
-48613.53429425014
 10
30936.49476782918
 20
-48613.53429425014
 10
30936.49476782918
 20
-48600.53429425014
 97
        0
 75
     0
 76
     1
 98
        0
  0
HATCH
  5
3DA
330
1F
100
AcDbEntity
  8
Ech.1_5
  6
Continuous
 62
     9
440
 33554687
370
    15
390
3D8
100
AcDbHatch
 10
0.0
 20
0.0
 30
0.0
210
0.0
220
0.0
230
1.0
  2
CwHatchPattern_84
 70
     0
 71
     0
 91
        1
 92
        3
 72
     0
 73
     1
 93
        4
 10
30696.16941880325
 20
-48600.53429425014
 10
30696.16941880325
 20
-48613.53429425014
 10
30936.49476782918
 20
-48613.53429425014
 10
30936.49476782918
 20
-48600.53429425014
 97
        0
 75
     0
 76
     2
 52
0.0
 41
1.0
 77
     0
 78
     2
 53
0.0
 43
0.0
 44
0.0
 45
0.0
 46
70.0
 79
     2
 49
0.0
 49
-70.0
 53
0.0
 43
35.0
 44
35.0
 45
0.0
 46
70.0
 79
     2
 49
0.0
 49
-70.0
 98
        0
1001
ACAD
1010
0.0
1020
0.0
1030
0.0
  0
LWPOLYLINE
  5
3DB
330
1F
100
AcDbEntity
  8
Ech.1_5
  6
Continuous
 62
     9
370
    15
390
5F
100
AcDbPolyline
 90
        5
 70
     0
 43
0.0
 10
30696.16941880325
 20
-48600.53429425014
 10
30696.16941880325
 20
-48613.53429425014
 10
30936.49476782918
 20
-48613.53429425014
 10
30936.49476782918
 20
-48600.53429425014
 10
30696.16941880325
 20
-48600.53429425014
  0
HATCH
  5
3DC
330
1F
100
AcDbEntity
  8
Ech.1_5
  6
Continuous
 62
     9
440
 33554687
370
    15
390
5F
100
AcDbHatch
 10
0.0
 20
0.0
 30
0.0
210
0.0
220
0.0
230
1.0
  2
SOLID
 70
     1
 71
     0
 91
        1
 92
        3
 72
     0
 73
     1
 93
       12
 10
30218.82011660461
 20
-48619.53429425015
 10
30218.82011660461
 20
-48613.5384141232
 10
30248.82011685511
 20
-48613.53429425015
 10
30248.82011685511
 20
-48661.53429425015
 10
30218.82011660461
 20
-48661.53429425015
 10
30218.82011660461
 20
-48655.53429425015
 10
30220.82011660461
 20
-48655.53429425015
 10
30220.82011660461
 20
-48659.53429425015
 10
30246.82011660461
 20
-48659.53429425015
 10
30246.82011660461
 20
-48615.53429425015
 10
30220.82011660461
 20
-48615.53429425015
 10
30220.82011660461
 20
-48619.53429425015
 97
        0
 75
     0
 76
     1
 98
        0
  0
LWPOLYLINE
  5
3DD
330
1F
100
AcDbEntity
  8
Ech.1_5
  6
Continuous
 62
     7
370
    20
390
5F
100
AcDbPolyline
 90
       13
 70
     0
 43
0.0
 10
30218.82011660461
 20
-48619.53429425015
 10
30218.82011660461
 20
-48613.5384141232
 10
30248.82011685511
 20
-48613.53429425015
 10
30248.82011685511
 20
-48661.53429425015
 10
30218.82011660461
 20
-48661.53429425015
 10
30218.82011660461
 20
-48655.53429425015
 10
30220.82011660461
 20
-48655.53429425015
 10
30220.82011660461
 20
-48659.53429425015
 10
30246.82011660461
 20
-48659.53429425015
 10
30246.82011660461
 20
-48615.53429425015
 10
30220.82011660461
 20
-48615.53429425015
 10
30220.82011660461
 20
-48619.53429425015
 10
30218.82011660461
 20
-48619.53429425015
  0
HATCH
  5
3DE
330
1F
100
AcDbEntity
  8
Ech.1_5
  6
Continuous
 62
   254
420
 14407639
440
 33554687
370
     5
390
5F
100
AcDbHatch
 10
0.0
 20
0.0
 30
0.0
210
0.0
220
0.0
230
1.0
  2
SOLID
 70
     1
 71
     0
 91
        1
 92
        3
 72
     0
 73
     1
 93
        4
 10
30261.82011685511
 20
-48600.53429425014
 10
30261.82011685511
 20
-48613.53429425014
 10
30021.49476782918
 20
-48613.53429425014
 10
30021.49476782918
 20
-48600.53429425014
 97
        0
 75
     0
 76
     1
 98
        0
  0
HATCH
  5
3DF
330
1F
100
AcDbEntity
  8
Ech.1_5
  6
Continuous
 62
     9
440
 33554687
370
    15
390
3D8
100
AcDbHatch
 10
0.0
 20
0.0
 30
0.0
210
0.0
220
0.0
230
1.0
  2
CwHatchPattern_84
 70
     0
 71
     0
 91
        1
 92
        3
 72
     0
 73
     1
 93
        4
 10
30261.82011685511
 20
-48600.53429425014
 10
30261.82011685511
 20
-48613.53429425014
 10
30021.49476782918
 20
-48613.53429425014
 10
30021.49476782918
 20
-48600.53429425014
 97
        0
 75
     0
 76
     2
 52
0.0
 41
1.0
 77
     0
 78
     2
 53
0.0
 43
0.0
 44
0.0
 45
0.0
 46
70.0
 79
     2
 49
0.0
 49
-70.0
 53
0.0
 43
35.0
 44
35.0
 45
0.0
 46
70.0
 79
     2
 49
0.0
 49
-70.0
 98
        0
1001
ACAD
1010
0.0
1020
0.0
1030
0.0
  0
LWPOLYLINE
  5
3E0
330
1F
100
AcDbEntity
  8
Ech.1_5
  6
Continuous
 62
     9
370
    15
390
5F
100
AcDbPolyline
 90
        5
 70
     0
 43
0.0
 10
30261.82011685511
 20
-48600.53429425014
 10
30261.82011685511
 20
-48613.53429425014
 10
30021.49476782918
 20
-48613.53429425014
 10
30021.49476782918
 20
-48600.53429425014
 10
30261.82011685511
 20
-48600.53429425014
  0
HATCH
  5
3E1
330
1F
100
AcDbEntity
  8
Ech.1_5
  6
Continuous
 62
   254
420
 15656413
440
 33554687
370
     5
390
5F
100
AcDbHatch
 10
0.0
 20
0.0
 30
0.0
210
0.0
220
0.0
230
1.0
  2
SOLID
 70
     1
 71
     0
 91
        1
 92
        3
 72
     0
 73
     1
 93
        4
 10
30366.10113365758
 20
-49201.38923513101
 10
30406.10113365758
 20
-49201.38879413438
 10
30406.10113365758
 20
-49191.38879413438
 10
30366.10113365756
 20
-49191.38923513101
 97
        0
 75
     0
 76
     1
 98
        0
  0
LINE
  5
3E2
330
1F
100
AcDbEntity
  8
Ech.1_5
  6
Continuous
 62
   190
370
    15
390
5F
100
AcDbLine
 10
30406.10113365758
 20
-49201.38879413438
 30
0.0
 11
30366.10113365756
 21
-49191.38923513101
 31
0.0
  0
LINE
  5
3E3
330
1F
100
AcDbEntity
  8
Ech.1_5
  6
Continuous
 62
   190
370
    15
390
5F
100
AcDbLine
 10
30406.10113365758
 20
-49191.38879413438
 30
0.0
 11
30366.10113365758
 21
-49201.38923513101
 31
0.0
  0
LWPOLYLINE
  5
3E4
330
1F
100
AcDbEntity
  8
Ech.1_5
  6
Continuous
 62
   190
370
    15
390
5F
100
AcDbPolyline
 90
        5
 70
     0
 43
0.0
 10
30366.10113365758
 20
-49201.38923513101
 10
30406.10113365758
 20
-49201.38879413438
 10
30406.10113365758
 20
-49191.38879413438
 10
30366.10113365756
 20
-49191.38923513101
 10
30366.10113365758
 20
-49201.38923513101
  0
LWPOLYLINE
  5
3E5
330
1F
100
AcDbEntity
  8
Ech.1_5
 62
     3
370
    70
390
5F
100
AcDbPolyline
 90
        4
 70
     0
 43
0.0
 10
30406.10113365758
 20
-49289.42718959745
 10
30393.11200023747
 20
-49289.42718959745
 10
30389.17726809661
 20
-49295.10780255945
 10
30375.69883809566
 20
-49295.10780255945
  0
LWPOLYLINE
  5
3E6
330
1F
100
AcDbEntity
  8
Ech.1_5
  6
Continuous
 62
   190
370
    15
390
5F
100
AcDbPolyline
 90
        5
 70
     0
 43
0.0
 10
30971.49476782918
 20
-48201.99300670694
 10
29986.49476782918
 20
-48201.99300670694
 10
29986.49476782918
 20
-48106.47604370129
 10
30971.49476782918
 20
-48106.47604370129
 10
30971.49476782918
 20
-48201.99300670694
  0
LWPOLYLINE
  5
3E7
330
1F
100
AcDbEntity
  8
Ech.1_5
  6
Continuous
 62
   190
370
    15
390
5F
100
AcDbPolyline
 90
        5
 70
     0
 43
0.0
 10
30971.49476782918
 20
-49346.06297163611
 10
29986.49476782918
 20
-49346.06297163611
 10
29986.49476782918
 20
-49324.06297163611
 10
30971.49476782918
 20
-49324.06297163611
 10
30971.49476782918
 20
-49346.06297163611
  0
LWPOLYLINE
  5
3E8
330
1F
100
AcDbEntity
  8
Ech.1_5
  6
Continuous
 62
   190
370
    15
390
5F
100
AcDbPolyline
 90
        5
 70
     0
 43
0.0
 10
30971.49476782918
 20
-49402.93411686644
 10
29986.49476782918
 20
-49402.93411686644
 10
29986.49476782918
 20
-49379.20708855572
 10
30971.49476782918
 20
-49379.20708855572
 10
30971.49476782918
 20
-49402.93411686644
  0
LWPOLYLINE
  5
3E9
330
1F
100
AcDbEntity
  8
Ech.1_5
  6
Continuous
 62
   190
370
    15
390
5F
100
AcDbPolyline
 90
        5
 70
     0
 43
0.0
 10
30971.49476782918
 20
-49461.47604370117
 10
30971.49476782918
 20
-48106.47604370117
 10
29986.49476782918
 20
-48106.47604370117
 10
29986.49476782918
 20
-49461.47604370117
 10
30971.49476782918
 20
-49461.47604370117
  0
LINE
  5
3EA
330
1F
100
AcDbEntity
  8
Ech.1_5
  6
Continuous
 62
   190
370
    15
390
5F
100
AcDbLine
 10
30174.69932979213
 20
-49324.06297163611
 30
0.0
 11
30174.69932979213
 21
-49346.06297163611
 31
0.0
  0
LINE
  5
3EB
330
1F
100
AcDbEntity
  8
Ech.1_5
  6
Continuous
 62
   190
370
    15
390
5F
100
AcDbLine
 10
30831.69743242268
 20
-49324.06297163611
 30
0.0
 11
30831.69743242268
 21
-49346.06297163611
 31
0.0
  0
LINE
  5
3EC
330
1F
100
AcDbEntity
  8
Ech.1_5
  6
Continuous
 62
   190
370
    15
390
5F
100
AcDbLine
 10
30330.85454778749
 20
-49324.06297163611
 30
0.0
 11
30330.85454778749
 21
-49346.06297163611
 31
0.0
  0
LINE
  5
3ED
330
1F
100
AcDbEntity
  8
Ech.1_5
  6
Continuous
 62
   190
370
    15
390
5F
100
AcDbLine
 10
30971.49476782918
 20
-48136.47604370129
 30
0.0
 11
29986.49476782918
 21
-48136.47604370129
 31
0.0
  0
LWPOLYLINE
  5
3EE
330
1F
100
AcDbEntity
  8
Ech.1_5
 62
   190
370
    15
390
5F
100
AcDbPolyline
 90
        5
 70
     0
 43
0.0
 10
30813.60625211378
 20
-48225.57120029535
 10
30948.03503109973
 20
-48225.57120029535
 10
30948.03503109973
 20
-48282.2941591072
 10
30813.60625211378
 20
-48282.2941591072
 10
30813.60625211378
 20
-48225.57120029535
  0
LWPOLYLINE
  5
3EF
330
1F
100
AcDbEntity
  8
Ech.1_5
 62
   190
370
    15
390
5F
100
AcDbPolyline
 90
        5
 70
     0
 43
0.0
 10
30831.8862978991
 20
-48259.2280114243
 10
30881.8862978991
 20
-48259.2280114243
 10
30881.8862978991
 20
-48251.81287389039
 10
30831.8862978991
 20
-48251.81287389039
 10
30831.8862978991
 20
-48259.2280114243
  0
LWPOLYLINE
  5
3F0
330
1F
100
AcDbEntity
  8
Ech.1_5
 62
   190
370
    15
390
5F
100
AcDbPolyline
 90
        5
 70
     0
 43
0.0
 10
30881.8862978991
 20
-48259.2280114243
 10
30931.8862978991
 20
-48259.2280114243
 10
30931.8862978991
 20
-48251.81287389039
 10
30881.8862978991
 20
-48251.81287389039
 10
30881.8862978991
 20
-48259.2280114243
  0
LWPOLYLINE
  5
3F1
330
1F
100
AcDbEntity
  8
Ech.1_5
  6
Continuous
 62
   190
370
    15
390
5F
100
AcDbPolyline
 90
        6
 70
     0
 43
0.0
 10
30021.49476782918
 20
-48945.53429425015
 10
30021.49476782918
 20
-48772.4654709928
 10
30003.51641623616
 20
-48755.97912760901
 10
30039.4731194222
 20
-48770.08946089128
 10
30021.49476782918
 20
-48753.60311750749
 10
30021.49476782918
 20
-48580.53429425014
  0
LWPOLYLINE
  5
3F2
330
1F
100
AcDbEntity
  8
Ech.1_5
  6
Continuous
 62
   190
370
    15
390
5F
100
AcDbPolyline
 90
        6
 70
     0
 43
0.0
 10
30936.49476782918
 20
-48945.53429425015
 10
30936.49476782918
 20
-48772.4654709928
 10
30918.51641623616
 20
-48755.97912760901
 10
30954.4731194222
 20
-48770.08946089128
 10
30936.49476782918
 20
-48753.60311750749
 10
30936.49476782918
 20
-48580.53429425014
  0
LINE
  5
3F3
330
1F
100
AcDbEntity
  8
Ech.1_5
  6
Continuous
 62
   190
370
    15
390
5F
100
AcDbLine
 10
30021.49476782918
 20
-48659.5384141232
 30
0.0
 11
30218.82011660461
 21
-48659.5384141232
 31
0.0
  0
LINE
  5
3F4
330
1F
100
AcDbEntity
  8
Ech.1_5
  6
Continuous
 62
   190
370
    15
390
5F
100
AcDbLine
 10
30021.49476782918
 20
-48661.53429425015
 30
0.0
 11
30218.82011660461
 21
-48661.53429425015
 31
0.0
  0
LINE
  5
3F5
330
1F
100
AcDbEntity
  8
Ech.1_5
  6
Continuous
 62
   190
370
    15
390
5F
100
AcDbLine
 10
30021.49476782918
 20
-48613.5384141232
 30
0.0
 11
30218.82011660461
 21
-48613.5384141232
 31
0.0
  0
LINE
  5
3F6
330
1F
100
AcDbEntity
  8
Ech.1_5
  6
Continuous
 62
   190
370
    15
390
5F
100
AcDbLine
 10
30021.49476782918
 20
-48615.5384141232
 30
0.0
 11
30218.82011660461
 21
-48615.5384141232
 31
0.0
  0
LINE
  5
3F7
330
1F
100
AcDbEntity
  8
Ech.1_5
  6
Continuous
 62
   190
370
    15
390
5F
100
AcDbLine
 10
30936.49476782918
 20
-48659.5384141232
 30
0.0
 11
30739.16941905375
 21
-48659.5384141232
 31
0.0
  0
LINE
  5
3F8
330
1F
100
AcDbEntity
  8
Ech.1_5
  6
Continuous
 62
   190
370
    15
390
5F
100
AcDbLine
 10
30936.49476782918
 20
-48661.53429425015
 30
0.0
 11
30739.16941905375
 21
-48661.53429425015
 31
0.0
  0
LINE
  5
3F9
330
1F
100
AcDbEntity
  8
Ech.1_5
  6
Continuous
 62
   190
370
    15
390
5F
100
AcDbLine
 10
30936.49476782918
 20
-48613.5384141232
 30
0.0
 11
30739.16941905375
 21
-48613.5384141232
 31
0.0
  0
LINE
  5
3FA
330
1F
100
AcDbEntity
  8
Ech.1_5
  6
Continuous
 62
   190
370
    15
390
5F
100
AcDbLine
 10
30936.49476782918
 20
-48615.5384141232
 30
0.0
 11
30739.16941905375
 21
-48615.5384141232
 31
0.0
  0
LWPOLYLINE
  5
3FB
330
1F
100
AcDbEntity
  8
Ech.1_5
 62
     3
370
    70
390
5F
100
AcDbPolyline
 90
        4
 70
     0
 43
0.0
 10
30791.01575389805
 20
-48683.53429425014
 10
30778.02662047794
 20
-48683.53429425014
 10
30774.09188833708
 20
-48677.85368128815
 10
30760.61345833613
 20
-48677.85368128815
  0
LWPOLYLINE
  5
3FC
330
1F
100
AcDbEntity
  8
Ech.1_5
 62
     3
370
    70
390
5F
100
AcDbPolyline
 90
        4
 70
     0
 43
0.0
 10
30699.85003176524
 20
-48630.93658981206
 10
30699.85003176524
 20
-48617.94745639195
 10
30694.16941880325
 20
-48614.01272425109
 10
30694.16941880325
 20
-48600.53429425014
  0
HATCH
  5
3FD
330
1F
100
AcDbEntity
  8
Ech.1_5
  6
Continuous
 62
   190
440
 33554687
370
    15
390
5F
100
AcDbHatch
 10
0.0
 20
0.0
 30
0.0
210
0.0
220
0.0
230
1.0
  2
SOLID
 70
     1
 71
     0
 91
        1
 92
        3
 72
     0
 73
     1
 93
        6
 10
30749.16897780661
 20
-48679.53429425014
 10
30698.16941880325
 20
-48679.53429425014
 10
30698.16941880325
 20
-48635.19034093528
 10
30694.16941880325
 20
-48635.19034093528
 10
30694.16941880325
 20
-48683.53429425014
 10
30749.16897780661
 20
-48683.53429425014
 97
        0
 75
     0
 76
     1
 98
        0
  0
LWPOLYLINE
  5
3FE
330
1F
100
AcDbEntity
  8
Ech.1_5
 62
     3
370
    70
390
5F
100
AcDbPolyline
 90
        4
 70
     0
 43
0.0
 10
30166.97378176031
 20
-48683.53429425014
 10
30179.96291518042
 20
-48683.53429425014
 10
30183.89764732128
 20
-48677.85368128815
 10
30197.37607732222
 20
-48677.85368128815
  0
LWPOLYLINE
  5
3FF
330
1F
100
AcDbEntity
  8
Ech.1_5
 62
     3
370
    70
390
5F
100
AcDbPolyline
 90
        4
 70
     0
 43
0.0
 10
30258.13950389312
 20
-48630.93658981206
 10
30258.13950389312
 20
-48617.94745639195
 10
30263.82011685511
 20
-48614.01272425109
 10
30263.82011685511
 20
-48600.53429425014
  0
HATCH
  5
400
330
1F
100
AcDbEntity
  8
Ech.1_5
  6
Continuous
 62
   190
440
 33554687
370
    15
390
5F
100
AcDbHatch
 10
0.0
 20
0.0
 30
0.0
210
0.0
220
0.0
230
1.0
  2
SOLID
 70
     1
 71
     0
 91
        1
 92
        3
 72
     0
 73
     1
 93
        6
 10
30208.82055785174
 20
-48679.53429425014
 10
30259.82011685511
 20
-48679.53429425014
 10
30259.82011685511
 20
-48635.19034093528
 10
30263.82011685511
 20
-48635.19034093528
 10
30263.82011685511
 20
-48683.53429425014
 10
30208.82055785174
 20
-48683.53429425014
 97
        0
 75
     0
 76
     1
 98
        0
  0
LWPOLYLINE
  5
402
330
1F
100
AcDbEntity
  8
Ech.1_5
  6
CADWORK_22
 62
   140
420
  1483507
 48
0.6
370
    20
390
5F
100
AcDbPolyline
 90
        4
 70
   128
 43
0.0
 10
30259.17774686884
 20
-48772.53429425014
 10
30259.17774686884
 20
-48871.53429425014
 10
30259.17774686884
 20
-48872.53429425014
 10
30021.49476782918
 20
-48872.53429425014
  0
LWPOLYLINE
  5
403
330
1F
100
AcDbEntity
  8
Ech.1_5
  6
CADWORK_22
 62
   140
420
  1483507
 48
0.6
370
    20
390
5F
100
AcDbPolyline
 90
        4
 70
   128
 43
0.0
 10
30698.81178878952
 20
-48772.53429425014
 10
30698.81178878952
 20
-48871.53429425014
 10
30698.81178878952
 20
-48872.53429425014
 10
30936.49476782918
 20
-48872.53429425014
  0
LWPOLYLINE
  5
404
330
1F
100
AcDbEntity
  8
Ech.1_5
  6
CADWORK_22
 62
     1
 48
0.6
370
    20
390
5F
100
AcDbPolyline
 90
        3
 70
   128
 43
0.0
 10
30936.49476782918
 20
-48683.53429425014
 10
30701.81247090653
 20
-48683.53429425014
 10
30701.81247090653
 20
-48783.53824613052
  0
LWPOLYLINE
  5
405
330
1F
100
AcDbEntity
  8
Ech.1_5
  6
CADWORK_22
 62
     1
 48
0.6
370
    20
390
5F
100
AcDbPolyline
 90
        3
 70
   128
 43
0.0
 10
30021.49476782918
 20
-48683.53429425014
 10
30256.17706475183
 20
-48683.53429425014
 10
30256.17706475183
 20
-48783.53824613052
  0
LWPOLYLINE
  5
406
330
1F
100
AcDbEntity
  8
Ech.1_5
  6
CADWORK_22
 62
   140
420
  1483507
 48
0.6
370
    20
390
5F
100
AcDbPolyline
 90
        2
 70
   128
 43
0.0
 38
2500.0
 10
30366.10113365756
 20
-49245.60869855014
 10
30406.10113365758
 20
-49245.60869855014
  0
LWPOLYLINE
  5
407
330
1F
100
AcDbEntity
  8
Ech.1_5
  6
CADWORK_22
 62
     1
 48
0.6
370
    20
390
5F
100
AcDbPolyline
 90
        2
 70
   128
 43
0.0
 10
30366.10113365756
 20
-49220.98893506597
 10
30406.10113365758
 20
-49220.98893506597
  0
LWPOLYLINE
  5
408
330
1F
100
AcDbEntity
  8
Ech.1_5
  6
CADWORK_22
 62
   106
 48
0.6
370
    20
390
5F
100
AcDbPolyline
 90
        2
 70
   128
 43
0.0
 38
2500.0
 10
30366.10113365756
 20
-49270.2803635118
 10
30406.10113365758
 20
-49270.2803635118
  0
LWPOLYLINE
  5
409
330
1F
100
AcDbEntity
  8
Ech.1_5
  6
CADWORK_22
 62
   106
 48
0.6
370
    20
390
5F
100
AcDbPolyline
 90
        7
 70
   128
 43
0.0
 10
30696.16941880325
 20
-48617.94745639195
 10
30696.16941880325
 20
-48632.09126654569
 10
30700.16941880325
 20
-48635.19034093528
 10
30700.16941880325
 20
-48677.53429425014
 10
30749.16897780661
 20
-48677.53429425014
 10
30753.51679159833
 20
-48681.53429425014
 10
30774.09188833708
 20
-48681.53429425014
  0
LWPOLYLINE
  5
40A
330
1F
100
AcDbEntity
  8
Ech.1_5
  6
CADWORK_22
 62
   106
 48
0.6
370
    20
390
5F
100
AcDbPolyline
 90
        7
 70
   128
 43
0.0
 10
30261.82011685511
 20
-48617.94745639195
 10
30261.82011685511
 20
-48632.09126654569
 10
30257.82011685511
 20
-48635.19034093528
 10
30257.82011685511
 20
-48677.53429425014
 10
30208.82055785174
 20
-48677.53429425014
 10
30204.47274406003
 20
-48681.53429425014
 10
30183.89764732128
 20
-48681.53429425014
  0
CIRCLE
  5
40B
330
1F
100
AcDbEntity
  8
Ech.1_5
  6
Continuous
 62
   154
420
    21156
370
    50
390
5F
100
AcDbCircle
 10
30111.48713299015
 20
-49199.07060647515
 30
0.0
 40
74.99236516096425
  0
LWPOLYLINE
  5
40C
330
1F
100
AcDbEntity
  8
Ech.1_5
  6
Continuous
 62
   154
420
    21156
370
    20
390
5F
100
AcDbPolyline
 90
       95
 70
     0
 43
0.0
 10
30153.29034678305
 20
-49197.65944791218
 10
30153.24340662701
 20
-49198.99643402017
 10
30153.19596972597
 20
-49200.35690980376
 10
30153.17190976329
 20
-49201.05329684755
 10
30153.14753933498
 20
-49201.76436493859
 10
30153.12279634795
 20
-49202.49305028634
 10
30153.09761870906
 20
-49203.24228910026
 10
30153.07194432519
 20
-49204.01501758981
 10
30153.04571110322
 20
-49204.81417196442
 10
30153.01885695002
 20
-49205.64268843355
 10
30152.99131977248
 20
-49206.50350320664
 10
30152.96303747747
 20
-49207.39955249317
 10
30152.93394797188
 20
-49208.33377250258
 10
30152.919081111
 20
-49208.8161140938
 10
30152.90398916256
 20
-49209.3090994443
 10
30152.87336386381
 20
-49210.32661091779
 10
30152.84381180504
 20
-49211.37660141095
 10
30152.81762561142
 20
-49212.44548625424
 10
30152.79709863655
 20
-49213.51967566721
 10
30152.78452423401
 20
-49214.58557986942
 10
30152.78219575741
 20
-49215.62960908042
 10
30152.78559041432
 20
-49216.13917375784
 10
30152.79240656031
 20
-49216.63817351978
 10
30152.80293086461
 20
-49217.12490964369
 10
30152.81744999636
 20
-49217.59768340705
 10
30152.83625062481
 20
-49218.05479608725
 10
30152.85961941913
 20
-49218.49454896177
 10
30152.88784304855
 20
-49218.91524330806
 10
30152.92120818223
 20
-49219.31518040353
 10
30152.96000148939
 20
-49219.69266152565
 10
30153.00450963924
 20
-49220.04598795187
 10
30153.05501930097
 20
-49220.37346095962
 10
30153.11181714377
 20
-49220.67338182635
 10
30153.17518983684
 20
-49220.9440518295
 10
30153.2454240494
 20
-49221.18377224652
 10
30153.32280645064
 20
-49221.39084435486
 10
30153.40762370975
 20
-49221.56356943195
 10
30153.50016249593
 20
-49221.70024875524
 10
30153.6007094784
 20
-49221.79918360218
 10
30153.65407562736
 20
-49221.83396599622
 10
30153.70955132633
 20
-49221.85867525022
 10
30153.76717240897
 20
-49221.87309902385
 10
30153.82697470895
 20
-49221.87702497679
 10
30153.88899233013
 20
-49221.87024633159
 10
30153.95319892533
 20
-49221.85275072107
 10
30154.0194933374
 20
-49221.82476636625
 10
30154.08776976676
 20
-49221.7865364182
 10
30154.22984547897
 20
-49221.68031234682
 10
30154.37857966522
 20
-49221.53602371567
 10
30154.53312592879
 20
-49221.3556157335
 10
30154.69263787295
 20
-49221.14103360905
 10
30154.85626910096
 20
-49220.89422255107
 10
30155.02317321609
 20
-49220.61712776829
 10
30155.19250382163
 20
-49220.31169446946
 10
30155.36341452082
 20
-49219.97986786332
 10
30155.53505891695
 20
-49219.62359315863
 10
30155.70659061328
 20
-49219.24481556411
 10
30155.8771632131
 20
-49218.84548028852
 10
30156.04593031965
 20
-49218.42753254061
 10
30156.21204553622
 20
-49217.9929175291
 10
30156.37466246609
 20
-49217.54358046275
 10
30156.53293471249
 20
-49217.08146655031
 10
30156.68601587873
 20
-49216.6085210005
 10
30156.97321938377
 20
-49215.6379158238
 10
30157.22950180733
 20
-49214.6473266026
 10
30157.34393162176
 20
-49214.14940099718
 10
30157.44809197562
 20
-49213.65231500685
 10
30157.54113647219
 20
-49213.15801384039
 10
30157.62221871475
 20
-49212.6684427065
 10
30157.69049387155
 20
-49212.18554398067
 10
30157.74545289492
 20
-49211.71065211933
 10
30157.7873378943
 20
-49211.24374164967
 10
30157.816492923
 20
-49210.78460253502
 10
30157.83326203421
 20
-49210.33302473879
 10
30157.83798928125
 20
-49209.88879822435
 10
30157.83101871738
 20
-49209.45171295507
 10
30157.81269439582
 20
-49209.02155889434
 10
30157.78336036988
 20
-49208.59812600553
 10
30157.74336069278
 20
-49208.181204252
 10
30157.69303941783
 20
-49207.77058359716
 10
30157.63274059826
 20
-49207.36605400437
 10
30157.56280828733
 20
-49206.96740543701
 10
30157.48358653831
 20
-49206.57442785845
 10
30157.39541940448
 20
-49206.18691123209
 10
30157.29865093906
 20
-49205.80464552128
 10
30157.08068622662
 20
-49205.05502669987
 10
30156.83244482707
 20
-49204.32389110123
 10
30156.55667916653
 20
-49203.60955843239
 10
30156.25614167108
 20
-49202.91034840039
 10
30155.93358476683
 20
-49202.22458071221
 10
30155.59176087988
 20
-49201.5505750749
 10
30155.23342243631
 20
-49200.88665119545
 10
30154.86132186228
 20
-49200.23112878093
 10
30154.08684402706
 20
-49198.93856717463
 10
30153.29034678305
 20
-49197.65944791218
  0
LWPOLYLINE
  5
40D
330
1F
100
AcDbEntity
  8
Ech.1_5
  6
Continuous
 62
   154
420
    21156
370
    20
390
5F
100
AcDbPolyline
 90
      171
 70
     0
 43
0.0
 10
30078.44303234445
 20
-49183.51352626117
 10
30079.27646451531
 20
-49186.41074151806
 10
30079.67602871326
 20
-49187.86252557097
 10
30080.05501064626
 20
-49189.31812133326
 10
30080.40654955932
 20
-49190.77879937469
 10
30080.72378469745
 20
-49192.24583026507
 10
30080.86739436498
 20
-49192.98212508167
 10
30080.99985530566
 20
-49193.72048457419
 10
30081.12030992511
 20
-49194.46106756383
 10
30081.22790062898
 20
-49195.20403287183
 10
30081.32176982285
 20
-49195.94953931941
 10
30081.4010599124
 20
-49196.69774572778
 10
30081.46491330322
 20
-49197.44881091818
 10
30081.51247240095
 20
-49198.20289371183
 10
30081.54287961122
 20
-49198.96015292996
 10
30081.55527733966
 20
-49199.72074739377
 10
30081.54880799187
 20
-49200.48483592452
 10
30081.52261397352
 20
-49201.2525773434
 10
30081.47659583057
 20
-49202.02396575385
 10
30081.41486994446
 20
-49202.79807930331
 10
30081.26658945436
 20
-49204.34952797119
 10
30081.12236848054
 20
-49205.89701413987
 10
30081.06571698979
 20
-49206.66617456534
 10
30081.02680439116
 20
-49207.4306283
 10
30081.01120535569
 20
-49208.18913665519
 10
30081.0244945544
 20
-49208.94046094223
 10
30081.07224665828
 20
-49209.68336247247
 10
30081.11078838437
 20
-49210.05126761357
 10
30081.16003633839
 20
-49210.41660255722
 10
30081.22068735422
 20
-49210.77921246733
 10
30081.29343826573
 20
-49211.13894250782
 10
30081.37898590681
 20
-49211.4956378426
 10
30081.47802711131
 20
-49211.8491436356
 10
30081.59125871315
 20
-49212.19930505072
 10
30081.71937754619
 20
-49212.54596725189
 10
30081.86308044429
 20
-49212.88897540302
 10
30082.02301560913
 20
-49213.22816872883
 10
30082.19915243813
 20
-49213.56330355548
 10
30082.39096170594
 20
-49213.89407531499
 10
30082.59790266966
 20
-49214.22017803292
 10
30082.8194345864
 20
-49214.54130573473
 10
30083.05501671332
 20
-49214.85715244595
 10
30083.30410830751
 20
-49215.16741219208
 10
30083.56616862609
 20
-49215.47177899862
 10
30083.84065692619
 20
-49215.76994689106
 10
30084.12703246492
 20
-49216.06160989492
 10
30084.42475449943
 20
-49216.34646203572
 10
30084.73328228679
 20
-49216.62419733894
 10
30085.05207508417
 20
-49216.89450983009
 10
30085.38059214865
 20
-49217.15709353467
 10
30085.71829273738
 20
-49217.4116424782
 10
30086.06463610746
 20
-49217.65785068617
 10
30086.41908151603
 20
-49217.89541218408
 10
30086.78108822019
 20
-49218.12402099746
 10
30087.15011547707
 20
-49218.34337115179
 10
30087.52562254379
 20
-49218.55315667257
 10
30087.90706867748
 20
-49218.75307158533
 10
30088.29391313523
 20
-49218.94280991555
 10
30088.6856151742
 20
-49219.12206568875
 10
30089.08163405149
 20
-49219.29053293042
 10
30089.48142902421
 20
-49219.44790566608
 10
30089.88445934949
 20
-49219.59387792123
 10
30090.29018428444
 20
-49219.72814372137
 10
30090.69806308621
 20
-49219.850397092
 10
30091.1075550119
 20
-49219.96033205863
 10
30091.51811931863
 20
-49220.05764264676
 10
30091.92921526352
 20
-49220.1420228819
 10
30092.34030210369
 20
-49220.21316678956
 10
30092.75083909628
 20
-49220.27076839522
 10
30093.16028549836
 20
-49220.31452172442
 10
30093.56810056711
 20
-49220.34412080263
 10
30093.9737435596
 20
-49220.35925965538
 10
30094.376673733
 20
-49220.35963230816
 10
30094.77635034439
 20
-49220.34493278647
 10
30095.1722326509
 20
-49220.31485511582
 10
30095.56377990967
 20
-49220.26909332173
 10
30095.95045137779
 20
-49220.20734142968
 10
30096.3317063124
 20
-49220.12929346519
 10
30096.70700397062
 20
-49220.03464345375
 10
30097.07580360955
 20
-49219.92308542089
 10
30097.43756448633
 20
-49219.79431339208
 10
30097.79174585809
 20
-49219.64802139284
 10
30098.1378080407
 20
-49219.4839057114
 10
30098.47534740857
 20
-49219.30195340444
 10
30098.80422896733
 20
-49219.10272561637
 10
30099.1243492076
 20
-49218.88685077767
 10
30099.43560461998
 20
-49218.65495731882
 10
30099.73789169511
 20
-49218.4076736703
 10
30100.03110692358
 20
-49218.14562826259
 10
30100.31514679603
 20
-49217.86944952617
 10
30100.58990780306
 20
-49217.57976589153
 10
30100.85528643531
 20
-49217.27720578913
 10
30101.11117918338
 20
-49216.96239764948
 10
30101.35748253789
 20
-49216.63596990303
 10
30101.59409298946
 20
-49216.29855098028
 10
30101.8209070287
 20
-49215.9507693117
 10
30102.03782114624
 20
-49215.5932533278
 10
30102.24473183269
 20
-49215.22663145902
 10
30102.44153557866
 20
-49214.85153213586
 10
30102.62812887479
 20
-49214.4685837888
 10
30102.80440821167
 20
-49214.07841484832
 10
30102.97027007992
 20
-49213.6816537449
 10
30103.12561097018
 20
-49213.27892890901
 10
30103.27032737306
 20
-49212.87086877116
 10
30103.40431577917
 20
-49212.4581017618
 10
30103.52747267912
 20
-49212.04125631144
 10
30103.63969456354
 20
-49211.62096085053
 10
30103.74087792305
 20
-49211.19784380957
 10
30103.83091924826
 20
-49210.77253361903
 10
30103.90971502976
 20
-49210.3456587094
 10
30103.97716175822
 20
-49209.91784751116
 10
30104.03315592423
 20
-49209.48972845479
 10
30104.07759401841
 20
-49209.06192997076
 10
30104.11037253137
 20
-49208.63508048956
 10
30104.13138795375
 20
-49208.20980844168
 10
30104.14053677613
 20
-49207.78674225758
 10
30104.13771548917
 20
-49207.36651036776
 10
30104.12282058345
 20
-49206.94974120268
 10
30104.0957485496
 20
-49206.53706319285
 10
30104.05639587824
 20
-49206.12910476873
 10
30104.00465906001
 20
-49205.72649436079
 10
30103.94043458549
 20
-49205.32986039954
 10
30103.86361894531
 20
-49204.93983131544
 10
30103.7741086301
 20
-49204.55703553896
 10
30103.67180013045
 20
-49204.18210150063
 10
30103.55658993701
 20
-49203.81565763088
 10
30103.42837454038
 20
-49203.45833236021
 10
30103.28705043117
 20
-49203.1107541191
 10
30103.13251410001
 20
-49202.77355133803
 10
30102.96466203751
 20
-49202.44735244748
 10
30102.78341001752
 20
-49202.13275059019
 10
30102.58898384245
 20
-49201.8297715658
 10
30102.3818594695
 20
-49201.53798339798
 10
30102.16251999128
 20
-49201.25694105289
 10
30101.93144850041
 20
-49200.98619949664
 10
30101.68912808948
 20
-49200.72531369539
 10
30101.43604185109
 20
-49200.47383861527
 10
30101.17267287786
 20
-49200.23132922244
 10
30100.8995042624
 20
-49199.99734048303
 10
30100.61701909728
 20
-49199.77142736319
 10
30100.32570047514
 20
-49199.55314482904
 10
30100.02603148857
 20
-49199.34204784676
 10
30099.71849523016
 20
-49199.13769138245
 10
30099.08175326831
 20
-49198.74741987238
 10
30098.41933933039
 20
-49198.37877002799
 10
30097.73511815726
 20
-49198.02818157838
 10
30097.03295448974
 20
-49197.69209425272
 10
30096.31671306868
 20
-49197.36694778012
 10
30094.8574559292
 20
-49196.73523631068
 10
30093.38826466554
 20
-49196.10456500315
 10
30092.65960558923
 20
-49195.78071873295
 10
30091.94005720435
 20
-49195.44645169062
 10
30091.23348425176
 20
-49195.09820360532
 10
30090.54357342627
 20
-49194.73258164029
 10
30089.87146324012
 20
-49194.34858926471
 10
30089.21638825278
 20
-49193.94702042117
 10
30088.57753726433
 20
-49193.52871208432
 10
30087.95409907478
 20
-49193.09450122883
 10
30087.34526248423
 20
-49192.64522482937
 10
30086.75021629273
 20
-49192.1817198606
 10
30086.16814930033
 20
-49191.70482329719
 10
30085.59825030707
 20
-49191.2153721138
 10
30085.03970811304
 20
-49190.7142032851
 10
30084.49171151828
 20
-49190.20215378575
 10
30083.95344932283
 20
-49189.68006059041
 10
30083.42411032676
 20
-49189.14876067376
 10
30082.90288333014
 20
-49188.60909101047
 10
30082.38895713301
 20
-49188.06188857518
 10
30081.37976233744
 20
-49186.9482332873
 10
30080.39003634053
 20
-49185.81449060746
 10
30078.44303234445
 20
-49183.51352626117
  0
LWPOLYLINE
  5
40E
330
1F
100
AcDbEntity
  8
Ech.1_5
  6
Continuous
 62
   154
420
    21156
370
    20
390
5F
100
AcDbPolyline
 90
       70
 70
     0
 43
0.0
 10
30100.387484897
 20
-49202.14697907302
 10
30100.27956641186
 20
-49202.82524764483
 10
30100.17167963566
 20
-49203.51484679087
 10
30100.06385627737
 20
-49204.22710708539
 10
30099.95612804592
 20
-49204.97335910259
 10
30099.90230951182
 20
-49205.36277281166
 10
30099.84852665027
 20
-49205.76493341672
 10
30099.79478342492
 20
-49206.18125723959
 10
30099.74108379937
 20
-49206.61316060202
 10
30099.68743173726
 20
-49207.0620598258
 10
30099.63383120217
 20
-49207.52937123271
 10
30099.58028615775
 20
-49208.01651114453
 10
30099.52692452565
 20
-49208.52429614242
 10
30099.47492384641
 20
-49209.04846448348
 10
30099.42598993974
 20
-49209.58219847552
 10
30099.3441617856
 20
-49210.6510149278
 10
30099.31468720893
 20
-49211.17242314568
 10
30099.29511874638
 20
-49211.67604852976
 10
30099.28716623333
 20
-49212.15505395889
 10
30099.2925395052
 20
-49212.60260231188
 10
30099.30075763405
 20
-49212.81244348444
 10
30099.31294839738
 20
-49213.01185646752
 10
30099.32932552462
 20
-49213.19998662097
 10
30099.35010274523
 20
-49213.37597930463
 10
30099.3754937886
 20
-49213.53897987837
 10
30099.40571238415
 20
-49213.68813370203
 10
30099.44097226133
 20
-49213.82258613546
 10
30099.48148714956
 20
-49213.94148253852
 10
30099.52747077825
 20
-49214.04396827106
 10
30099.57913687683
 20
-49214.12918869291
 10
30099.63669917472
 20
-49214.19628916396
 10
30099.70037140136
 20
-49214.24441504402
 10
30099.77036728614
 20
-49214.27271169297
 10
30099.84688194808
 20
-49214.2803674831
 10
30099.92973683489
 20
-49214.26743441529
 10
30100.01840764332
 20
-49214.23476358986
 10
30100.11235705423
 20
-49214.18323618939
 10
30100.21104774845
 20
-49214.11373339644
 10
30100.31394240689
 20
-49214.02713639358
 10
30100.4205037104
 20
-49213.92432636337
 10
30100.53019433979
 20
-49213.80618448838
 10
30100.64247697601
 20
-49213.67359195116
 10
30100.75681429985
 20
-49213.52742993429
 10
30100.8726689922
 20
-49213.36857962034
 10
30100.98950373394
 20
-49213.19792219184
 10
30101.1067812059
 20
-49213.0163388314
 10
30101.34051506402
 20
-49212.62391904488
 10
30101.56957201344
 20
-49212.1983697213
 10
30101.78965350107
 20
-49211.74674032117
 10
30101.99646097381
 20
-49211.27608030502
 10
30102.18569587858
 20
-49210.79343913334
 10
30102.35305966227
 20
-49210.30586626668
 10
30102.49425377179
 20
-49209.82041116554
 10
30102.60499380391
 20
-49209.34410504323
 10
30102.68286727149
 20
-49208.88156514904
 10
30102.72918650189
 20
-49208.432605329
 10
30102.74570450827
 20
-49207.99647113451
 10
30102.73417430381
 20
-49207.57240811705
 10
30102.69634890169
 20
-49207.15966182802
 10
30102.63398131508
 20
-49206.75747781887
 10
30102.54882455718
 20
-49206.36510164104
 10
30102.44263164114
 20
-49205.98177884597
 10
30102.31715558015
 20
-49205.60675498508
 10
30102.17414938739
 20
-49205.23927560984
 10
30102.01536607604
 20
-49204.87858627165
 10
30101.84255865926
 20
-49204.52393252197
 10
30101.65748015024
 20
-49204.17455991224
 10
30101.25752190819
 20
-49203.48864031832
 10
30100.82951545531
 20
-49202.81479190142
 10
30100.387484897
 20
-49202.14697907302
  0
LWPOLYLINE
  5
40F
330
1F
100
AcDbEntity
  8
Ech.1_5
  6
Continuous
 62
   154
420
    21156
370
    20
390
5F
100
AcDbPolyline
 90
      194
 70
     0
 43
0.0
 10
30109.40143885986
 20
-49168.44758500656
 10
30110.32818991372
 20
-49171.12278147816
 10
30111.2360650037
 20
-49173.80152594756
 10
30111.67702532354
 20
-49175.14333743075
 10
30112.10618816596
 20
-49176.48736641256
 10
30112.52119403546
 20
-49177.83405639272
 10
30112.91968343659
 20
-49179.18385087096
 10
30113.29929687384
 20
-49180.537193347
 10
30113.65767485174
 20
-49181.89452732057
 10
30113.99245787479
 20
-49183.25629629138
 10
30114.30128644753
 20
-49184.62294375918
 10
30114.58180107446
 20
-49185.99491322367
 10
30114.83164226011
 20
-49187.37264818459
 10
30115.04845050897
 20
-49188.75659214166
 10
30115.22986632558
 20
-49190.14718859461
 10
30115.37353021445
 20
-49191.54488104316
 10
30115.43046784363
 20
-49192.24652685945
 10
30115.47708268008
 20
-49192.95011298703
 10
30115.51307978685
 20
-49193.65569486338
 10
30115.53816422701
 20
-49194.36332792597
 10
30115.55204106362
 20
-49195.07306761223
 10
30115.55441535974
 20
-49195.78496935967
 10
30115.54506074174
 20
-49196.49907385895
 10
30115.52461552442
 20
-49197.21523582126
 10
30115.45538508488
 20
-49198.65263939825
 10
30115.35664514528
 20
-49200.0949822461
 10
30115.23832831351
 20
-49201.54006404597
 10
30114.98269440483
 20
-49204.42964322661
 10
30114.86524254362
 20
-49205.86973996979
 10
30114.76794422163
 20
-49207.30377438979
 10
30114.70073204671
 20
-49208.72954616783
 10
30114.68151220435
 20
-49209.43864596647
 10
30114.67353862671
 20
-49210.14485498508
 10
30114.67805288975
 20
-49210.8478981838
 10
30114.69629656947
 20
-49211.54750052276
 10
30114.72951124185
 20
-49212.24338696214
 10
30114.77893848285
 20
-49212.93528246207
 10
30114.84581986848
 20
-49213.6229119827
 10
30114.9313969747
 20
-49214.30600048419
 10
30115.03691137751
 20
-49214.98427292668
 10
30115.16360465286
 20
-49215.65745427033
 10
30115.31271837676
 20
-49216.32526947528
 10
30115.4854941252
 20
-49216.98744350169
 10
30115.68317347411
 20
-49217.6437013097
 10
30115.90699799954
 20
-49218.29376785946
 10
30116.15820927742
 20
-49218.93736811113
 10
30116.43804194056
 20
-49219.57422633281
 10
30116.74702882426
 20
-49220.2039968438
 10
30117.08440847529
 20
-49220.82620496041
 10
30117.44927989529
 20
-49221.44036209034
 10
30117.84074208594
 20
-49222.04597964131
 10
30118.25789404893
 20
-49222.64256902102
 10
30118.69983478592
 20
-49223.22964163721
 10
30119.16566329858
 20
-49223.80670889758
 10
30119.65447858858
 20
-49224.37328220984
 10
30120.1653796576
 20
-49224.92887298171
 10
30120.6974655073
 20
-49225.4729926209
 10
30121.24983513937
 20
-49226.00515253513
 10
30121.82158755547
 20
-49226.52486413211
 10
30122.41182175727
 20
-49227.03163881955
 10
30123.01963674645
 20
-49227.52498800516
 10
30123.64413152469
 20
-49228.00442309667
 10
30124.28440509364
 20
-49228.46945550179
 10
30124.93955645498
 20
-49228.91959662823
 10
30125.6086846104
 20
-49229.35435788369
 10
30126.29088856155
 20
-49229.77325067591
 10
30126.98526731011
 20
-49230.17578641258
 10
30127.69091985775
 20
-49230.56147650143
 10
30128.40694520614
 20
-49230.92983235017
 10
30129.13244235696
 20
-49231.28036536652
 10
30129.86651031188
 20
-49231.61258695817
 10
30130.60824807257
 20
-49231.92600853286
 10
30131.35675464071
 20
-49232.22014149829
 10
30132.11112901797
 20
-49232.49449726218
 10
30132.87047020599
 20
-49232.74858723224
 10
30133.63387720651
 20
-49232.98192281619
 10
30134.40044902112
 20
-49233.19401542174
 10
30135.16928465157
 20
-49233.3843764566
 10
30135.93948309947
 20
-49233.55251732848
 10
30136.71014336652
 20
-49233.69794944512
 10
30137.4803644544
 20
-49233.8201842142
 10
30138.24924536476
 20
-49233.91873304345
 10
30139.01588509929
 20
-49233.99310734059
 10
30139.77938265966
 20
-49234.04281851332
 10
30140.53883704754
 20
-49234.06737796936
 10
30141.2933472646
 20
-49234.06629711643
 10
30142.04201231251
 20
-49234.03908736224
 10
30142.78393119294
 20
-49233.9852601145
 10
30143.51820290757
 20
-49233.90432678092
 10
30144.24392645808
 20
-49233.79579876922
 10
30144.96020084612
 20
-49233.65918748712
 10
30145.66612507337
 20
-49233.49400434233
 10
30146.36079814153
 20
-49233.29976074255
 10
30147.04331905222
 20
-49233.07596809552
 10
30147.71278680715
 20
-49232.82213780893
 10
30148.36830040799
 20
-49232.53778129051
 10
30149.00898652201
 20
-49232.22246468541
 10
30149.63437886919
 20
-49231.87655950777
 10
30150.24432102412
 20
-49231.50105033068
 10
30150.83866433262
 20
-49231.09693710288
 10
30151.4172601405
 20
-49230.66521977312
 10
30151.97995979359
 20
-49230.20689829014
 10
30152.5266146377
 20
-49229.7229726027
 10
30153.05707601864
 20
-49229.21444265953
 10
30153.57119528225
 20
-49228.68230840941
 10
30154.06882377432
 20
-49228.12756980107
 10
30154.54981284069
 20
-49227.55122678325
 10
30155.01401382715
 20
-49226.95427930472
 10
30155.46127807957
 20
-49226.33772731421
 10
30155.89145694372
 20
-49225.70257076049
 10
30156.30440176543
 20
-49225.04980959229
 10
30156.69996389054
 20
-49224.38044375836
 10
30157.07799466483
 20
-49223.69547320745
 10
30157.43834543414
 20
-49222.99589788832
 10
30157.78086754429
 20
-49222.28271774971
 10
30158.1054123411
 20
-49221.55693274036
 10
30158.41183117038
 20
-49220.81954280905
 10
30158.69997537795
 20
-49220.07154790449
 10
30158.96969630962
 20
-49219.31394797545
 10
30159.22084531123
 20
-49218.54774297068
 10
30159.45327372856
 20
-49217.77393283891
 10
30159.66683290747
 20
-49216.99351752891
 10
30159.86137419376
 20
-49216.20749698943
 10
30160.03674893324
 20
-49215.4168711692
 10
30160.19280847175
 20
-49214.62264001698
 10
30160.32940415507
 20
-49213.82580348152
 10
30160.44638732907
 20
-49213.02736151157
 10
30160.54360933951
 20
-49212.22831405586
 10
30160.62092153226
 20
-49211.42966106317
 10
30160.6781752531
 20
-49210.63240248222
 10
30160.71522184787
 20
-49209.83753826178
 10
30160.73191266238
 20
-49209.04606835059
 10
30160.72809904245
 20
-49208.25899269739
 10
30160.7036323339
 20
-49207.47731125094
 10
30160.65836388254
 20
-49206.70202396
 10
30160.59214503418
 20
-49205.9341307733
 10
30160.50482713469
 20
-49205.17463163958
 10
30160.39626152982
 20
-49204.42452650762
 10
30160.26629956542
 20
-49203.68481532614
 10
30160.11479258731
 20
-49202.9564980439
 10
30159.9415919413
 20
-49202.24057460966
 10
30159.74654897321
 20
-49201.53804497214
 10
30159.52951502886
 20
-49200.84990908012
 10
30159.29034145406
 20
-49200.17716688233
 10
30159.02887959465
 20
-49199.52081832753
 10
30158.74498079641
 20
-49198.88186336446
 10
30158.4384964052
 20
-49198.26130194188
 10
30158.10930272222
 20
-49197.66008694482
 10
30157.75771559229
 20
-49197.07834231755
 10
30157.38442659841
 20
-49196.51548339508
 10
30156.99013941933
 20
-49195.97090270079
 10
30156.57555773383
 20
-49195.4439927581
 10
30156.14138522069
 20
-49194.93414609036
 10
30155.68832555869
 20
-49194.44075522099
 10
30155.21708242658
 20
-49193.96321267336
 10
30154.72835950316
 20
-49193.50091097087
 10
30154.22286046718
 20
-49193.0532426369
 10
30153.70128899744
 20
-49192.61960019486
 10
30153.1643487727
 20
-49192.19937616812
 10
30152.61274347173
 20
-49191.79196308007
 10
30152.04717677333
 20
-49191.3967534541
 10
30151.46835235623
 20
-49191.01313981361
 10
30150.87697389924
 20
-49190.64051468197
 10
30150.27374508111
 20
-49190.2782705826
 10
30149.65936958064
 20
-49189.92580003887
 10
30149.03455107659
 20
-49189.58249557416
 10
30148.39999324772
 20
-49189.24774971187
 10
30147.75639977283
 20
-49188.92095497539
 10
30147.10447433068
 20
-49188.60150388811
 10
30145.77844225972
 20
-49187.98220275469
 10
30144.42752646499
 20
-49187.38498649875
 10
30143.05735637674
 20
-49186.80499530738
 10
30141.67356142512
 20
-49186.23736936771
 10
30138.88761465262
 20
-49185.11977399189
 10
30137.49672169209
 20
-49184.56008492999
 10
30136.11472158899
 20
-49183.99332186823
 10
30134.74724377351
 20
-49183.41462499374
 10
30133.39940151747
 20
-49182.81957783665
 10
30132.07216772798
 20
-49182.20732020355
 10
30130.76452403951
 20
-49181.57870226147
 10
30129.47543939411
 20
-49180.93458507929
 10
30128.20388273383
 20
-49180.27582972591
 10
30126.94882300073
 20
-49179.60329727024
 10
30125.70922913683
 20
-49178.91784878115
 10
30124.48407008423
 20
-49178.22034532755
 10
30123.27231478495
 20
-49177.51164797833
 10
30122.07293218104
 20
-49176.79261780238
 10
30120.88489121456
 20
-49176.06411586859
 10
30119.70716082757
 20
-49175.32700324587
 10
30118.5387099621
 20
-49174.58214100309
 10
30116.225522564
 20
-49173.07261193299
 10
30113.93708055664
 20
-49171.54241720944
 10
30111.66513547646
 20
-49169.99844538358
 10
30109.40143885986
 20
-49168.44758500656
  0
LWPOLYLINE
  5
410
330
1F
100
AcDbEntity
  8
Ech.1_5
  6
Continuous
 62
   190
370
    15
390
5F
100
AcDbPolyline
 90
        3
 70
     0
 43
0.0
 10
30328.93402402016
 20
-48574.04190485015
 10
30328.93402402016
 20
-48509.54585673052
 10
30348.93402402016
 20
-48509.54585673052
  0
INSERT
  5
411
330
1F
100
AcDbEntity
  8
Ech.1_5
 62
   190
370
    15
100
AcDbBlockReference
  2
cw-line-extremity4
 10
30328.93402402016
 20
-48574.04190485015
 30
0.0
 50
90.0
  0
LWPOLYLINE
  5
412
330
1F
100
AcDbEntity
  8
Ech.1_5
  6
Continuous
 62
   190
370
    15
390
5F
100
AcDbPolyline
 90
        3
 70
     0
 43
0.0
 10
30303.44771159114
 20
-48940.53429425014
 10
30303.44771159114
 20
-48988.03824613052
 10
30348.93402402016
 20
-48988.03824613052
  0
INSERT
  5
413
330
1F
100
AcDbEntity
  8
Ech.1_5
 62
   190
370
    15
100
AcDbBlockReference
  2
cw-line-extremity4
 10
30303.44771159114
 20
-48940.53429425014
 30
0.0
 50
270.0
  0
LWPOLYLINE
  5
414
330
1F
100
AcDbEntity
  8
Ech.1_5
  6
Continuous
 62
   190
370
    15
390
5F
100
AcDbPolyline
 90
        3
 70
     0
 43
0.0
 10
30281.17774686884
 20
-48847.03429425014
 10
30337.21056074885
 20
-48847.03429425014
 10
30348.93402402016
 20
-48847.03429425014
  0
INSERT
  5
415
330
1F
100
AcDbEntity
  8
Ech.1_5
 62
   190
370
    15
100
AcDbBlockReference
  2
cw-line-extremity4
 10
30281.17774686884
 20
-48847.03429425014
 30
0.0
  0
LWPOLYLINE
  5
416
330
1F
100
AcDbEntity
  8
Ech.1_5
  6
Continuous
 62
   190
370
    15
390
5F
100
AcDbPolyline
 90
        3
 70
     0
 43
0.0
 10
30249.24761512016
 20
-48912.53429425014
 10
30249.24761512016
 20
-48988.03824613052
 10
30229.24761512016
 20
-48988.03824613052
  0
INSERT
  5
417
330
1F
100
AcDbEntity
  8
Ech.1_5
 62
   190
370
    15
100
AcDbBlockReference
  2
cw-line-extremity4
 10
30249.24761512016
 20
-48912.53429425014
 30
0.0
 50
270.0
  0
LWPOLYLINE
  5
418
330
1F
100
AcDbEntity
  8
Ech.1_5
  6
Continuous
 62
   190
370
    15
390
5F
100
AcDbPolyline
 90
        3
 70
     0
 43
0.0
 10
30177.83708713264
 20
-48659.5384141232
 10
30177.83708713264
 20
-48409.54585673052
 10
30348.93402402016
 20
-48409.54585673052
  0
INSERT
  5
419
330
1F
100
AcDbEntity
  8
Ech.1_5
 62
   190
370
    15
100
AcDbBlockReference
  2
cw-line-extremity4
 10
30177.83708713264
 20
-48659.5384141232
 30
0.0
 50
90.0
  0
LWPOLYLINE
  5
41A
330
1F
100
AcDbEntity
  8
Ech.1_5
  6
Continuous
 62
   190
370
    15
390
5F
100
AcDbPolyline
 90
        3
 70
     0
 43
0.0
 10
30741.62961574345
 20
-48886.03429425014
 10
30741.62961574345
 20
-48988.03824613052
 10
30775.79810121853
 20
-48988.03824613052
  0
INSERT
  5
41B
330
1F
100
AcDbEntity
  8
Ech.1_5
 62
   190
370
    15
100
AcDbBlockReference
  2
cw-line-extremity4
 10
30741.62961574345
 20
-48886.03429425014
 30
0.0
 50
270.0
  0
LWPOLYLINE
  5
41C
330
1F
100
AcDbEntity
  8
Ech.1_5
  6
Continuous
 62
   190
370
    15
390
5F
100
AcDbPolyline
 90
        3
 70
     0
 43
0.0
 10
30131.36350543695
 20
-48773.53429425014
 10
30131.36350543695
 20
-48359.54585673052
 10
30348.93402402016
 20
-48359.54585673052
  0
INSERT
  5
41D
330
1F
100
AcDbEntity
  8
Ech.1_5
 62
   190
370
    15
100
AcDbBlockReference
  2
cw-line-extremity4
 10
30131.36350543695
 20
-48773.53429425014
 30
0.0
 50
90.0
  0
LWPOLYLINE
  5
41E
330
1F
100
AcDbEntity
  8
Ech.1_5
  6
Continuous
 62
   190
370
    15
390
5F
100
AcDbPolyline
 90
        3
 70
     0
 43
0.0
 10
30227.3834251429
 20
-48607.03429425014
 10
30227.3834251429
 20
-48459.54585673052
 10
30348.93402402016
 20
-48459.54585673052
  0
INSERT
  5
41F
330
1F
100
AcDbEntity
  8
Ech.1_5
 62
   190
370
    15
100
AcDbBlockReference
  2
cw-line-extremity4
 10
30227.3834251429
 20
-48607.03429425014
 30
0.0
 50
90.0
  0
LWPOLYLINE
  5
420
330
1F
100
AcDbEntity
  8
Ech.1_5
  6
Continuous
 62
   190
370
    15
390
5F
100
AcDbPolyline
 90
        3
 70
     0
 43
0.0
 10
30743.53923712561
 20
-48679.53429425026
 10
30743.53923712561
 20
-48509.54585673064
 10
30723.53923712561
 20
-48509.54585673064
  0
INSERT
  5
421
330
1F
100
AcDbEntity
  8
Ech.1_5
 62
   190
370
    15
100
AcDbBlockReference
  2
cw-line-extremity4
 10
30743.53923712561
 20
-48679.53429425026
 30
0.0
 50
90.0
  0
DIMENSION
  5
423
102
{ACAD_REACTORS
330
424
102
}
330
1F
100
AcDbEntity
  8
Ech.1_5
  6
Continuous
 62
   190
370
    15
390
5F
100
AcDbDimension
280
     0
  2
*D70
 10
30700.31103296086
 20
-48998.03824613052
 30
0.0
 11
30695.31106981669
 21
-48986.78824613052
 31
0.0
 70
   160
  1
max 8 mm
 71
     5
 42
9.999926288350252
 73
     0
 74
     0
 75
     0
  3
ISO-25
100
AcDbAlignedDimension
 13
30690.31110667251
 23
-48956.03208811664
 33
0.0
 14
30700.31103296086
 24
-48953.03824613052
 34
0.0
 50
180.0
100
AcDbRotatedDimension
1001
ACAD
1000
DSTYLE
1002
{
1070
   178
1070
   190
1070
   271
1070
     0
1070
   147
1040
0.0
1070
   140
1040
12.5
1070
   340
1005
422
1070
   144
1040
1.0
1070
    42
1040
0.0
1070
    44
1040
5.0
1070
    41
1040
5.0
1070
   342
1005
18D
1070
   175
1070
     1
1070
   279
1070
     2
1002
}
  0
MTEXT
  5
431
330
1F
100
AcDbEntity
  8
Ech.1_5
  6
Continuous
 62
     4
420
    65535
390
5F
100
AcDbMText
 10
30581.27599010508
 20
-49328.81297302247
 30
0.0
 40
12.5
 41
488.342884635189
 46
0.0
 71
     2
 72
     1
  1
{\fArial|b0|i0;\W1.000000;\H12.500000;\c16711848;Vue en coupe horizontale}
  7
arial-
 73
     1
 44
1.07999975538982
  0
MTEXT
  5
432
330
1F
100
AcDbEntity
  8
Ech.1_5
  6
Continuous
 62
     4
420
    65535
390
5F
100
AcDbMText
 10
30902.27110012482
 20
-49328.9204988993
 30
0.0
 40
12.5
 41
62.88904266246027
 46
0.0
 71
     2
 72
     1
  1
{\fArial|b0|i0;\W1.000000;\H12.500000;\c16711848;Ech 1/5 }
  7
arial-
 73
     1
 44
1.07999975538982
  0
MTEXT
  5
434
330
1F
100
AcDbEntity
  8
Ech.1_5
  6
Continuous
 62
   200
420
 11010303
390
5F
100
AcDbMText
 10
30479.35726782807
 20
-49349.08208897295
 30
0.0
 40
6.25
 41
762.8659533727987
 46
0.0
 71
     2
 72
     1
  3
{\fArial|b0|i1;\W1.000000;\H6.250000;\c16711848; Il est rappelé à l'utilisateur qui consulte le site et utilise les informations qu'il contient, qu'il doit les utiliser sous sa seule responsabilité en vérifiant leur pertinence, leur cohérence et leur
  1
 non obsolescence.}
  7
arial-i
 73
     1
 44
1.07999975538982
  0
MTEXT
  5
435
330
1F
100
AcDbEntity
  8
Ech.1_5
  6
Continuous
 62
     4
420
    65535
390
5F
100
AcDbMText
 10
30478.99476782918
 20
-48178.01101612421
 30
0.0
 40
16.25
 41
968.7500000000073
 46
0.0
 71
     2
 72
     1
  1
{\fArial|b0|i0;\W1.000000;\H16.250000;\c16711848;Détail sur menuiserie avec encadrement bois}
  7
arial-
 73
     1
 44
1.07999975538982
  0
MTEXT
  5
437
330
1F
100
AcDbEntity
  8
Ech.1_5
  6
Continuous
 62
     4
420
    65535
390
5F
100
AcDbMText
 10
30478.99476782918
 20
-48112.5824432373
 30
0.0
 40
13.75
 41
743.6745018756956
 46
0.0
 71
     2
 72
     1
  1
{\fArial|b1|i0;\W1.000000;\H13.750000;\c16711848;FACADE OSSATURE BOIS}
  7
arial-b
 73
     1
 44
1.07999975538982
  0
MTEXT
  5
438
330
1F
100
AcDbEntity
  8
Ech.1_5
  6
Continuous
 62
     4
420
    65535
390
5F
100
AcDbMText
 10
30478.99476782918
 20
-48144.95347595215
 30
0.0
 40
13.75
 41
971.2499999999927
 46
0.0
 71
     2
 72
     1
  1
{\fArial|b1|i0;\W1.000000;\H13.750000;\c16711848;sans exigences globales feu façade - isolant en âme}
  7
arial-b
 73
     1
 44
1.07999975538982
  0
MTEXT
  5
439
330
1F
100
AcDbEntity
  8
Ech.1_5
  6
Continuous
 62
     4
420
    65535
390
5F
100
AcDbMText
 10
30254.31718324904
 20
-49328.81297302247
 30
0.0
 40
12.5
 41
113.1564852837946
 46
0.0
 71
     2
 72
     1
  1
{\fArial|b0|i0;\W1.000000;\H12.500000;\c16711848;FOB01-14}
  7
arial-
 73
     1
 44
1.07999975538982
  0
MTEXT
  5
43A
330
1F
100
AcDbEntity
  8
Ech.1_5
  6
Continuous
 62
   200
420
 11010303
390
5F
100
AcDbMText
 10
30355.80902402016
 20
-48502.67085673053
 30
0.0
 40
13.75
 41
108.9382213251629
 46
0.0
 71
     1
 72
     1
  1
{\fArial|b0|i0;\W1.000000;\H13.750000;\c16711848;Menuiserie}
  7
arial-
 73
     1
 44
1.07999975538982
  0
MTEXT
  5
43B
330
1F
100
AcDbEntity
  8
Ech.1_5
  6
Continuous
 62
     4
420
    65535
390
5F
100
AcDbMText
 10
30355.80902402016
 20
-48840.15929425014
 30
0.0
 40
13.75
 41
291.2981292731856
 46
0.0
 71
     1
 72
     1
  1
{\fArial|b0|i0;\W1.000000;\H13.750000;\c16711848;Pièce d'encadrement en bois}
  7
arial-
 73
     1
 44
1.07999975538982
 90
        3
 63
     9
421
 13158600
 45
1.5
441
 33554687
  0
MTEXT
  5
43C
330
1F
100
AcDbEntity
  8
Ech.1_5
  6
Continuous
 62
     4
420
    65535
390
5F
100
AcDbMText
 10
30364.44494678406
 20
-49131.19745069253
 30
0.0
 40
13.75
 41
229.0996420902229
 46
0.0
 71
     1
 72
     1
  1
{\fArial|b1|i0;\W1.000000;\H13.750000;\c16711848;COMPLEMENT LEGENDE}
  7
arial-b
 73
     1
 44
1.07999975538982
 90
        3
 63
     9
421
 13158600
 45
1.5
441
 33554687
  0
MTEXT
  5
43D
330
1F
100
AcDbEntity
  8
Ech.1_5
  6
Continuous
 62
     4
420
    65535
390
5F
100
AcDbMText
 10
30422.97613365758
 20
-49162.87131066753
 30
0.0
 40
13.75
 41
186.8491641404398
 46
0.0
 71
     1
 72
     1
  3
{\fArial|b0|i0;\W1.000000;\H13.750000;\c16711848;Calfeutrement  }\P{\fArial|b0|i0;\W1.000000;\H13.750000;\c16711848;Cale}\P{\fArial|b0|i0;\W1.000000;\H13.750000;\c16711848;Pare-vapeur}\P{\fArial|b0|i0;\W1.000000;\H13.750000;\c16711848;Pare-pluie}\P{\
  1
fArial|b0|i0;\W1.000000;\H13.750000;\c16711848;Bande de pare-vapeur}\P{\fArial|b0|i0;\W1.000000;\H13.750000;\c16711848;Bande adhésive}
  7
arial-
 73
     1
 44
1.07999975538982
 90
        3
 63
     9
421
 13158600
 45
1.5
441
 33554687
  0
MTEXT
  5
43E
330
1F
100
AcDbEntity
  8
Ech.1_5
  6
Continuous
 62
   200
420
 11010303
390
5F
100
AcDbMText
 10
30355.80902402016
 20
-48390.35128310689
 30
0.0
 40
13.75
 41
268.2499999999964
 46
0.0
 71
     1
 72
     1
  1
{\fArial|b0|i0;\W1.000000;\H13.750000;\c16711848;Ossature métallique de contre-cloison}
  7
arial-
 73
     1
 44
1.07999975538982
  0
MTEXT
  5
43F
330
1F
100
AcDbEntity
  8
Ech.1_5
  6
Continuous
 62
   200
420
 11010303
390
5F
100
AcDbMText
 10
30355.80902402016
 20
-48452.67085673053
 30
0.0
 40
13.75
 41
268.2499999999964
 46
0.0
 71
     1
 72
     1
  1
{\fArial|b0|i0;\W1.000000;\H13.750000;\c16711848;Parement mural intérieur}
  7
arial-
 73
     1
 44
1.07999975538982
  0
MTEXT
  5
440
330
1F
100
AcDbEntity
  8
Ech.1_5
  6
Continuous
 62
   200
420
 11010303
390
5F
100
AcDbMText
 10
30355.80902402016
 20
-48352.67085673053
 30
0.0
 40
13.75
 41
268.2499999999964
 46
0.0
 71
     1
 72
     1
  1
{\fArial|b0|i0;\W1.000000;\H13.750000;\c16711848;Isolant}
  7
arial-
 73
     1
 44
1.07999975538982
  0
MTEXT
  5
441
330
1F
100
AcDbEntity
  8
Ech.1_5
  6
Continuous
 62
     4
420
    65535
390
5F
100
AcDbMText
 10
30782.67310121853
 20
-48981.16324613052
 30
0.0
 40
13.75
 41
176.7714837751955
 46
0.0
 71
     1
 72
     1
  1
{\fArial|b0|i0;\W1.000000;\H13.750000;\c16711848;Support de bardage}
  7
arial-
 73
     1
 44
1.07999975538982
 90
        3
 63
     9
421
 13158600
 45
1.5
441
 33554687
  0
MTEXT
  5
442
330
1F
100
AcDbEntity
  8
Ech.1_5
  6
Continuous
 62
   200
420
 11010303
390
5F
100
AcDbMText
 10
30716.66423712562
 20
-48502.67085673065
 30
0.0
 40
13.75
 41
206.5753490259303
 46
0.0
 71
     3
 72
     1
  1
{\fArial|b0|i0;\W1.000000;\H13.750000;\c16711848;Patte équerre}
  7
arial-
 73
     1
 44
1.07999975538982
  0
MTEXT
  5
443
330
1F
100
AcDbEntity
  8
Ech.1_5
  6
Continuous
 62
     4
420
    65535
390
5F
100
AcDbMText
 10
30355.80902402016
 20
-48956.41324678617
 30
0.0
 40
13.75
 41
209.8318194711464
 46
0.0
 71
     1
 72
     1
  1
{\fArial|b0|i0;\W1.000000;\H13.750000;\c16711848;Bavette métallique d'habillage de la pièce d'appui (pente 10% min)}
  7
arial-
 73
     1
 44
1.07999975538982
  0
MTEXT
  5
444
330
1F
100
AcDbEntity
  8
Ech.1_5
  6
Continuous
 62
     4
420
    65535
390
5F
100
AcDbMText
 10
30222.37261512017
 20
-48981.17320646696
 30
0.0
 40
13.75
 41
237.9259500893859
 46
0.0
 71
     3
 72
     1
  1
{\fArial|b0|i0;\W1.000000;\H13.750000;\c16711848;Bardage ventilé}
  7
arial-
 73
     1
 44
1.07999975538982
  0
TEXT
  5
445
330
1F
100
AcDbEntity
  8
Ech.1_5
  6
Continuous
 62
   190
390
5F
100
AcDbText
 10
30843.18059052483
 20
-48242.2268708084
 30
0.0
 40
8.0
  1
Echelle en mm
  7
arial-
100
AcDbText
  0
TEXT
  5
446
330
1F
100
AcDbEntity
  8
Ech.1_5
  6
Continuous
 62
   190
390
5F
100
AcDbText
 10
30829.2000057754
 20
-48270.43670633808
 30
0.0
 40
8.0
  1
0
  7
arial-
100
AcDbText
  0
TEXT
  5
447
330
1F
100
AcDbEntity
  8
Ech.1_5
  6
Continuous
 62
   190
390
5F
100
AcDbText
 10
30915.79706366812
 20
-48270.43670633808
 30
0.0
 40
8.0
  1
100
  7
arial-
100
AcDbText
  0
TEXT
  5
448
330
1F
100
AcDbEntity
  8
Ech.1_5
  6
Continuous
 62
   190
390
5F
100
AcDbText
 10
30877.05663210224
 20
-48270.43670633808
 30
0.0
 40
8.0
  1
50
  7
arial-
100
AcDbText
  0
TEXT
  5
44A
330
1F
100
AcDbEntity
  8
Ech.1_5
  6
Continuous
 62
   154
420
    21156
390
5F
100
AcDbText
 10
30090.09269563288
 20
-49150.9417892066
 30
0.0
 40
15.0
  1
m
 50
8.975659904277393
 41
0.7999999999999999
  7
tahoma-
100
AcDbText
  0
TEXT
  5
44B
330
1F
100
AcDbEntity
  8
Ech.1_5
  6
Continuous
 62
   154
420
    21156
390
5F
100
AcDbText
 10
30072.96399958905
 20
-49156.55978106178
 30
0.0
 40
15.0
  1
C
 50
20.66888961040036
 41
0.8000000000000002
  7
tahoma-
100
AcDbText
  0
TEXT
  5
44C
330
1F
100
AcDbEntity
  8
Ech.1_5
  6
Continuous
 62
   154
420
    21156
390
5F
100
AcDbText
 10
30081.84497225182
 20
-49153.20945072094
 30
0.0
 40
15.0
  1
o
 50
15.37326472331918
 41
0.7999999999999999
  7
tahoma-
100
AcDbText
  0
TEXT
  5
44D
330
1F
100
AcDbEntity
  8
Ech.1_5
  6
Continuous
 62
   154
420
    21156
390
5F
100
AcDbText
 10
30103.17255184704
 20
-49148.87583902307
 30
0.0
 40
15.0
  1
p
 50
2.547444553646317
 41
0.7999999999999999
  7
tahoma-
100
AcDbText
  0
TEXT
  5
44E
330
1F
100
AcDbEntity
  8
Ech.1_5
  6
Continuous
 62
   154
420
    21156
390
5F
100
AcDbText
 10
30111.82202657812
 20
-49148.49101857038
 30
0.0
 40
15.0
  1
a
 50
357.5885357786727
 41
0.7999999999999999
  7
tahoma-
100
AcDbText
  0
TEXT
  5
44F
330
1F
100
AcDbEntity
  8
Ech.1_5
  6
Continuous
 62
   154
420
    21156
390
5F
100
AcDbText
 10
30120.055759307
 20
-49148.83776460092
 30
0.0
 40
15.0
  1
t
 50
353.6091644148833
 41
0.7999999999999999
  7
tahoma-
100
AcDbText
  0
TEXT
  5
450
330
1F
100
AcDbEntity
  8
Ech.1_5
  6
Continuous
 62
   154
420
    21156
390
5F
100
AcDbText
 10
30125.3437734215
 20
-49149.43005398037
 30
0.0
 40
15.0
  1
i
 50
350.9766571715204
 41
0.8
  7
tahoma-
100
AcDbText
  0
TEXT
  5
451
330
1F
100
AcDbEntity
  8
Ech.1_5
  6
Continuous
 62
   154
420
    21156
390
5F
100
AcDbText
 10
30128.9505396484
 20
-49150.00281601925
 30
0.0
 40
15.0
  1
b
 50
347.3646125171509
 41
0.7999999999999999
  7
tahoma-
100
AcDbText
  0
TEXT
  5
452
330
1F
100
AcDbEntity
  8
Ech.1_5
  6
Continuous
 62
   154
420
    21156
390
5F
100
AcDbText
 10
30137.39888905628
 20
-49151.89672525326
 30
0.0
 40
15.0
  1
l
 50
343.7525678626286
 41
0.7999999999999999
  7
tahoma-
100
AcDbText
  0
TEXT
  5
453
330
1F
100
AcDbEntity
  8
Ech.1_5
  6
Continuous
 62
   154
420
    21156
390
5F
100
AcDbText
 10
30140.90499945605
 20
-49152.91849275776
 30
0.0
 40
15.0
  1
e
 50
340.2629653357052
 41
0.8
  7
tahoma-
100
AcDbText
  0
TEXT
  5
454
330
1F
100
AcDbEntity
  8
Ech.1_5
  6
Continuous
 62
   154
420
    21156
390
5F
100
AcDbText
 10
30087.22626396397
 20
-49259.41556360292
 30
0.0
 40
25.0
  1
E
 50
345.2222144971133
 41
0.8000000000000002
  7
tahoma-
100
AcDbText
  0
TEXT
  5
455
330
1F
100
AcDbEntity
  8
Ech.1_5
  6
Continuous
 62
   154
420
    21156
390
5F
100
AcDbText
 10
30102.82491645137
 20
-49263.5304359916
 30
0.0
 40
25.0
  1
e
 50
359.2406769518657
 41
0.7999999999999999
  7
tahoma-
100
AcDbText
  0
TEXT
  5
456
330
1F
100
AcDbEntity
  8
Ech.1_5
  6
Continuous
 62
   154
420
    21156
390
5F
100
AcDbText
 10
30118.43797507114
 20
-49263.7373630895
 30
0.0
 40
25.0
  1
1
 50
13.48894999978543
 41
0.8
  7
tahoma-
100
AcDbText
  0
TEXT
  5
457
330
1F
100
AcDbEntity
  8
Ech.1_5
  6
Continuous
 62
   190
390
5F
100
AcDbText
 10
30037.78882890099
 20
-49341.31297302247
 30
0.0
 40
12.5
  1
30/08/2023
  7
arial-
100
AcDbText
  0
TEXT
  5
458
330
1F
100
AcDbEntity
  8
Ech.1_5
  6
Continuous
 62
   190
390
5F
100
AcDbText
 10
30369.44567267537
 20
-49397.07061004511
 30
0.0
 40
12.0
  1
catalogue-bois-construction.fr
  7
arial-i
100
AcDbText
  0
VIEWPORT
  5
215
330
20F
100
AcDbEntity
 67
     1
  8
0
  6
Continuous
390
5F
100
AcDbViewport
 10
98.8
 20
135.8
 30
0.0
 40
209.0608
 41
287.3528000000001
 68
     1
 69
     1
 12
128.5
 22
97.5
 13
0.0
 23
0.0
 14
10.0
 24
10.0
 15
10.0
 25
10.0
 16
0.0
 26
0.0
 36
1.0
 17
0.0
 27
0.0
 37
0.0
 42
50.0
 43
0.0
 44
0.0
 45
222.18
 50
0.0
 51
0.0
 72
   100
 90
   557152
  1

281
     0
 71
     1
 74
     0
110
0.0
120
0.0
130
0.0
111
1.0
121
0.0
131
0.0
112
0.0
122
1.0
132
0.0
 79
     0
146
0.0
170
     0
 61
     5
348
2F
292
     1
282
     1
141
0.0
142
0.0
 63
   256
361
216
  0
VIEWPORT
  5
217
330
20F
100
AcDbEntity
 67
     1
  8
0
  6
Continuous
 60
     1
390
5F
100
AcDbViewport
 10
98.8
 20
135.8
 30
0.0
 40
197.6
 41
271.6
 68
     2
 69
     2
 12
30478.99476782918
 22
-48783.97604370117
 13
0.0
 23
0.0
 14
10.0
 24
10.0
 15
10.0
 25
10.0
 16
0.0
 26
0.0
 36
1.0
 17
0.0
 27
0.0
 37
0.0
 42
50.0
 43
0.0
 44
0.0
 45
1358.0
 50
0.0
 51
0.0
 72
   100
 90
   557152
  1

281
     0
 71
     1
 74
     0
110
0.0
120
0.0
130
0.0
111
1.0
121
0.0
131
0.0
112
0.0
122
1.0
132
0.0
 79
     0
146
0.0
170
     0
 61
     5
348
2F
292
     1
282
     1
141
0.0
142
0.0
 63
   256
  0
ENDSEC
  0
SECTION
  2
OBJECTS
  0
DICTIONARY
  5
C
330
0
100
AcDbDictionary
281
     1
  3
ACAD_DETAILVIEWSTYLE
350
460
  3
ACAD_GROUP
350
D
  3
ACAD_IMAGE_VARS
350
60
  3
ACAD_LAYOUT
350
1A
  3
ACAD_MATERIAL
350
43
  3
ACAD_MLEADERSTYLE
350
5B
  3
ACAD_MLINESTYLE
350
17
  3
ACAD_PLOTSETTINGS
350
19
  3
ACAD_PLOTSTYLENAME
350
E
  3
ACAD_SCALELIST
350
47
  3
ACAD_SECTIONVIEWSTYLE
350
461
  3
ACAD_TABLESTYLE
350
59
  3
ACAD_VISUALSTYLE
350
2A
  3
ACAD_WIPEOUT_VARS
350
61
  3
ACDB_RECOMPOSE_DATA
350
45D
  3
AcDbVariableDictionary
350
459
  0
SUN
  5
5D
330
29
100
AcDbSun
 90
        1
290
     0
 63
     7
421
 16777215
 40
1.0
291
     1
 91
  2455826
 92
 54000000
292
     0
 70
     2
 71
   256
280
     1
  0
SUN
  5
216
330
215
100
AcDbSun
 90
        1
290
     0
 63
     7
421
 16777215
 40
1.0
291
     1
 91
  2455826
 92
 54000000
292
     0
 70
     2
 71
   256
280
     1
  0
DICTIONARY
  5
460
102
{ACAD_REACTORS
330
C
102
}
330
C
100
AcDbDictionary
281
     1
  0
DICTIONARY
  5
D
102
{ACAD_REACTORS
330
C
102
}
330
C
100
AcDbDictionary
281
     1
  3
DIM215
350
424
  0
RASTERVARIABLES
  5
60
102
{ACAD_REACTORS
330
C
102
}
330
C
100
AcDbRasterVariables
 90
        0
 70
     0
 71
     1
 72
     1
  0
DICTIONARY
  5
1A
102
{ACAD_REACTORS
330
C
102
}
330
C
100
AcDbDictionary
281
     1
  3
CompleteLayout
350
1E
  3
Model
350
22
  3
PrintFrame_264
350
210
  0
DICTIONARY
  5
43
102
{ACAD_REACTORS
330
C
102
}
330
C
100
AcDbDictionary
281
     1
  3
ByBlock
350
45
  3
ByLayer
350
44
  3
Global
350
46
  0
DICTIONARY
  5
5B
102
{ACAD_REACTORS
330
C
102
}
330
C
100
AcDbDictionary
281
     1
  3
Standard
350
5C
  0
DICTIONARY
  5
17
102
{ACAD_REACTORS
330
C
102
}
330
C
100
AcDbDictionary
281
     1
  3
Standard
350
18
  0
DICTIONARY
  5
19
102
{ACAD_REACTORS
330
C
102
}
330
C
100
AcDbDictionary
281
     1
  3
PlotSettings_
350
213
  0
ACDBDICTIONARYWDFLT
  5
E
102
{ACAD_REACTORS
330
C
102
}
330
C
100
AcDbDictionary
281
     1
  3
flat
350
5F
  3
Normal
350
F
  3
round
350
3D8
100
AcDbDictionaryWithDefault
340
F
  0
DICTIONARY
  5
47
102
{ACAD_REACTORS
330
C
102
}
330
C
100
AcDbDictionary
281
     1
  3
A0
350
48
  3
A1
350
49
  3
A2
350
4A
  3
A3
350
4B
  3
A4
350
4C
  3
A5
350
4D
  3
A6
350
4E
  3
A7
350
4F
  3
A8
350
50
  3
A9
350
51
  3
B0
350
52
  3
B1
350
53
  3
B2
350
54
  3
B3
350
55
  3
B4
350
56
  3
B5
350
57
  3
B6
350
58
  0
DICTIONARY
  5
461
102
{ACAD_REACTORS
330
C
102
}
330
C
100
AcDbDictionary
281
     1
  0
DICTIONARY
  5
59
102
{ACAD_REACTORS
330
C
102
}
330
C
100
AcDbDictionary
281
     1
  3
Standard
350
5A
  0
DICTIONARY
  5
2A
102
{ACAD_REACTORS
330
C
102
}
330
C
100
AcDbDictionary
281
     1
  3
2dWireframe
350
2F
  3
Basic
350
32
  3
Brighten
350
36
  3
ColorChange
350
3A
  3
Conceptual
350
34
  3
Dim
350
35
  3
EdgeColorOff
350
3D
  3
Facepattern
350
39
  3
Flat
350
2B
  3
FlatWithEdges
350
2C
  3
Gouraud
350
2D
  3
GouraudWithEdges
350
2E
  3
Hidden
350
31
  3
JitterOff
350
3B
  3
Linepattern
350
38
  3
OverhangOff
350
3C
  3
Realistic
350
33
  3
Shaded
350
42
  3
Shaded with edges
350
41
  3
Shades of Gray
350
3E
  3
Sketchy
350
3F
  3
Thicken
350
37
  3
Wireframe
350
30
  3
X-Ray
350
40
  0
WIPEOUTVARIABLES
  5
61
102
{ACAD_REACTORS
330
C
102
}
330
C
100
AcDbWipeoutVariables
 70
     0
  0
XRECORD
  5
45D
102
{ACAD_REACTORS
330
C
102
}
330
C
100
AcDbXrecord
280
     1
 90
        1
330
5A
  0
DICTIONARY
  5
459
102
{ACAD_REACTORS
330
C
102
}
330
C
100
AcDbDictionary
281
     1
  3
CANNOSCALE
350
45A
  3
CENTEREXE
350
463
  3
CENTERLTYPEFILE
350
464
  3
CMLEADERSTYLE
350
45F
  3
CTABLESTYLE
350
45E
  3
WIPEOUTFRAME
350
462
  0
GROUP
  5
424
102
{ACAD_REACTORS
330
D
102
}
330
D
100
AcDbGroup
300

 70
     0
 71
     1
340
423
  0
LAYOUT
  5
1E
102
{ACAD_REACTORS
330
1A
102
}
330
1A
100
AcDbPlotSettings
  1

  2
none_device
  4

  6

 40
0.0
 41
0.0
 42
0.0
 43
0.0
 44
0.0
 45
0.0
 46
0.0
 47
0.0
 48
0.0
 49
0.0
140
0.0
141
0.0
142
1.0
143
1.0
 70
   688
 72
     1
 73
     0
 74
     5
  7

 75
    16
 76
     0
 77
     2
 78
   300
147
1.0
148
0.0
149
0.0
100
AcDbLayout
  1
CompleteLayout
 70
     1
 71
     1
 10
0.0
 20
0.0
 11
420.0
 21
297.0
 12
0.0
 22
0.0
 32
0.0
 14
1.000000000000000E+20
 24
1.000000000000000E+20
 34
1.000000000000000E+20
 15
-1.000000000000000E+20
 25
-1.000000000000000E+20
 35
-1.000000000000000E+20
146
0.0
 13
0.0
 23
0.0
 33
0.0
 16
1.0
 26
0.0
 36
0.0
 17
0.0
 27
1.0
 37
0.0
 76
     0
330
1B
  0
LAYOUT
  5
22
102
{ACAD_REACTORS
330
1A
102
}
330
1A
100
AcDbPlotSettings
  1

  2
none_device
  4
Letter_(8.50_x_11.00_Inches)
  6

 40
6.35
 41
6.35
 42
6.35000508
 43
6.35000508
 44
215.9
 45
279.4
 46
0.0
 47
0.0
 48
0.0
 49
0.0
140
0.0
141
0.0
142
1.0
143
1.0
 70
  1712
 72
     1
 73
     0
 74
     0
  7

 75
     0
 76
     0
 77
     2
 78
   300
147
1.0
148
0.0
149
0.0
100
AcDbLayout
  1
Model
 70
     1
 71
     0
 10
0.0
 20
0.0
 11
420.0
 21
297.0
 12
0.0
 22
0.0
 32
0.0
 14
29984.44666503078
 24
-49461.47604370117
 34
-46.00000000000743
 15
30971.49476782918
 25
-48106.47604370117
 35
2500.0
146
0.0
 13
0.0
 23
0.0
 33
0.0
 16
1.0
 26
0.0
 36
0.0
 17
0.0
 27
1.0
 37
0.0
 76
     0
330
1F
331
29
  0
LAYOUT
  5
210
102
{ACAD_REACTORS
330
1A
102
}
330
1A
100
AcDbPlotSettings
  1
PlotSettings_
  2
Custom Device
  4
Custom_210.000000x297.000000_12.700000_12.700000_6.200000_6.200000
  6

 40
6.2
 41
12.7
 42
6.2
 43
12.7
 44
210.0
 45
297.0
 46
0.0000000000000142
 47
0.0
 48
0.0
 49
0.0
140
197.6
141
271.6
142
1.0
143
1.0
 70
   756
 72
     1
 73
     0
 74
     4
  7
linecaps.stb
 75
     0
 76
     0
 77
     2
 78
   300
147
1.0
148
0.0
149
0.0
100
AcDbLayout
  1
PrintFrame_264
 70
     0
 71
     2
 10
-20.0
 20
-7.5
 11
277.0
 21
202.5
 12
0.0
 22
0.0
 32
0.0
 14
-5.730400000000003
 24
-7.876400000000018
 34
0.0
 15
203.3304
 25
279.4764
 35
0.0
146
0.0
 13
0.0
 23
0.0
 33
0.0
 16
1.0
 26
0.0
 36
0.0
 17
0.0
 27
1.0
 37
0.0
 76
     0
330
20F
331
215
1001
PLOTTRANSPARENCY
1071
        1
1000
layout-user-created
1070
     1
1000
layout-line-weight-scale
1042
1.0
  0
MATERIAL
  5
45
102
{ACAD_REACTORS
330
43
102
}
330
43
100
AcDbMaterial
  1
ByBlock
 72
     1
 94
      127
  0
MATERIAL
  5
44
102
{ACAD_REACTORS
330
43
102
}
330
43
100
AcDbMaterial
  1
ByLayer
 72
     1
 94
      127
  0
MATERIAL
  5
46
102
{ACAD_REACTORS
330
43
102
}
330
43
100
AcDbMaterial
  1
Global
 72
     1
 94
      127
  0
MLEADERSTYLE
  5
5C
102
{ACAD_REACTORS
330
5B
102
}
330
5B
100
AcDbMLeaderStyle
179
     2
170
     2
171
     1
172
     0
 90
        2
 40
0.0
 41
0.0
173
     1
 91
-1056964608
340
14
 92
       -2
290
     1
 42
2.0
291
     1
 43
8.0
  3
Standard
341
0
 44
4.0
300

342
11
174
     1
178
     6
175
     1
176
     0
 93
-1056964608
 45
4.0
292
     0
297
     0
 46
4.0
343
0
 94
-1056964608
 47
1.0
 49
1.0
140
1.0
293
     1
141
0.0
294
     1
177
     0
142
1.0
295
     0
296
     0
143
3.75
271
     0
272
     9
273
     9
298
     0
  0
MLINESTYLE
  5
18
102
{ACAD_REACTORS
330
17
102
}
330
17
100
AcDbMlineStyle
  2
Standard
 70
     0
  3

 62
   256
 51
90.0
 52
90.0
 71
     2
 49
0.5
 62
   256
  6
BYLAYER
 49
-0.5
 62
   256
  6
BYLAYER
  0
PLOTSETTINGS
  5
213
102
{ACAD_REACTORS
330
19
102
}
330
19
100
AcDbPlotSettings
  1
PlotSettings_
  2
Custom Device
  4
Custom_210.000000x297.000000_12.700000_12.700000_6.200000_6.200000
  6

 40
6.2
 41
12.7
 42
6.2
 43
12.7
 44
210.0
 45
297.0
 46
0.0000000000000142
 47
0.0
 48
0.0
 49
0.0
140
197.6
141
271.6
142
1.0
143
1.0
 70
   756
 72
     1
 73
     0
 74
     4
  7
linecaps.stb
 75
     0
 76
     0
 77
     2
 78
   300
147
1.0
148
0.0
149
0.0
1001
PLOTTRANSPARENCY
1071
        1
1000
layout-user-created
1070
     1
1000
layout-line-weight-scale
1042
1.0
  0
ACDBPLACEHOLDER
  5
5F
102
{ACAD_REACTORS
330
E
102
}
330
E
  0
ACDBPLACEHOLDER
  5
F
102
{ACAD_REACTORS
330
E
102
}
330
E
  0
ACDBPLACEHOLDER
  5
3D8
102
{ACAD_REACTORS
330
E
102
}
330
E
  0
SCALE
  5
48
102
{ACAD_REACTORS
330
47
102
}
330
47
100
AcDbScale
 70
     0
300
1:1
140
1.0
141
1.0
290
     1
  0
SCALE
  5
49
102
{ACAD_REACTORS
330
47
102
}
330
47
100
AcDbScale
 70
     0
300
1:2
140
1.0
141
2.0
290
     0
  0
SCALE
  5
4A
102
{ACAD_REACTORS
330
47
102
}
330
47
100
AcDbScale
 70
     0
300
1:4
140
1.0
141
4.0
290
     0
  0
SCALE
  5
4B
102
{ACAD_REACTORS
330
47
102
}
330
47
100
AcDbScale
 70
     0
300
1:5
140
1.0
141
5.0
290
     0
  0
SCALE
  5
4C
102
{ACAD_REACTORS
330
47
102
}
330
47
100
AcDbScale
 70
     0
300
1:8
140
1.0
141
8.0
290
     0
  0
SCALE
  5
4D
102
{ACAD_REACTORS
330
47
102
}
330
47
100
AcDbScale
 70
     0
300
1:10
140
1.0
141
10.0
290
     0
  0
SCALE
  5
4E
102
{ACAD_REACTORS
330
47
102
}
330
47
100
AcDbScale
 70
     0
300
1:16
140
1.0
141
16.0
290
     0
  0
SCALE
  5
4F
102
{ACAD_REACTORS
330
47
102
}
330
47
100
AcDbScale
 70
     0
300
1:20
140
1.0
141
20.0
290
     0
  0
SCALE
  5
50
102
{ACAD_REACTORS
330
47
102
}
330
47
100
AcDbScale
 70
     0
300
1:30
140
1.0
141
30.0
290
     0
  0
SCALE
  5
51
102
{ACAD_REACTORS
330
47
102
}
330
47
100
AcDbScale
 70
     0
300
1:40
140
1.0
141
40.0
290
     0
  0
SCALE
  5
52
102
{ACAD_REACTORS
330
47
102
}
330
47
100
AcDbScale
 70
     0
300
1:50
140
1.0
141
50.0
290
     0
  0
SCALE
  5
53
102
{ACAD_REACTORS
330
47
102
}
330
47
100
AcDbScale
 70
     0
300
1:100
140
1.0
141
100.0
290
     0
  0
SCALE
  5
54
102
{ACAD_REACTORS
330
47
102
}
330
47
100
AcDbScale
 70
     0
300
2:1
140
2.0
141
1.0
290
     0
  0
SCALE
  5
55
102
{ACAD_REACTORS
330
47
102
}
330
47
100
AcDbScale
 70
     0
300
4:1
140
4.0
141
1.0
290
     0
  0
SCALE
  5
56
102
{ACAD_REACTORS
330
47
102
}
330
47
100
AcDbScale
 70
     0
300
8:1
140
8.0
141
1.0
290
     0
  0
SCALE
  5
57
102
{ACAD_REACTORS
330
47
102
}
330
47
100
AcDbScale
 70
     0
300
10:1
140
10.0
141
1.0
290
     0
  0
SCALE
  5
58
102
{ACAD_REACTORS
330
47
102
}
330
47
100
AcDbScale
 70
     0
300
100:1
140
100.0
141
1.0
290
     0
  0
TABLESTYLE
  5
5A
102
{ACAD_REACTORS
330
59
102
}
102
{ACAD_XDICTIONARY
360
45B
102
}
330
59
100
AcDbTableStyle
  3
Standard
 70
     0
 71
     0
 40
0.06
 41
0.06
280
     0
281
     0
  7
Standard
140
4.5
170
     2
 62
     0
 63
   257
283
     0
 90
        4
 91
        0
  1

274
    -2
284
     1
 64
     0
275
    -2
285
     1
 65
     0
276
    -2
286
     1
 66
     0
277
    -2
287
     1
 67
     0
278
    -2
288
     1
 68
     0
279
    -2
289
     1
 69
     0
  7
Standard
140
6.0
170
     5
 62
     0
 63
   257
283
     0
 90
        4
 91
        0
  1

274
    -2
284
     1
 64
     0
275
    -2
285
     1
 65
     0
276
    -2
286
     1
 66
     0
277
    -2
287
     1
 67
     0
278
    -2
288
     1
 68
     0
279
    -2
289
     1
 69
     0
  7
Standard
140
4.5
170
     5
 62
     0
 63
   257
283
     0
 90
        4
 91
        0
  1

274
    -2
284
     1
 64
     0
275
    -2
285
     1
 65
     0
276
    -2
286
     1
 66
     0
277
    -2
287
     1
 67
     0
278
    -2
288
     1
 68
     0
279
    -2
289
     1
 69
     0
  0
VISUALSTYLE
  5
2F
102
{ACAD_REACTORS
330
2A
102
}
330
2A
100
AcDbVisualStyle
  2
2dWireframe
 70
     4
177
     3
291
     0
 70
    58
 90
        0
176
     1
 90
        2
176
     1
 90
        0
176
     1
 90
        0
176
     1
 40
0.6
176
     1
 40
30.0
176
     1
 62
     7
420
 16777215
176
     1
 90
        1
176
     1
 90
        4
176
     1
 62
     7
176
     1
 62
   257
176
     1
 90
        1
176
     1
 90
        1
176
     1
 40
1.0
176
     1
 90
        0
176
     1
 62
   257
176
     1
 40
1.0
176
     1
 90
        1
176
     1
 90
        6
176
     1
 90
        2
176
     1
 62
     7
176
     1
 90
        5
176
     1
 90
        0
176
     1
 90
        0
176
     1
290
     0
176
     1
 90
        1
176
     1
 40
0.0
176
     1
 90
        0
176
     1
290
     1
176
     1
290
     1
176
     1
290
     0
176
     1
290
     0
176
     1
290
     0
176
     1
290
     0
176
     1
290
     0
176
     1
290
     0
176
     1
290
     0
176
     1
 90
       50
176
     1
 40
0.0
176
     1
 40
1.0
176
     1
 90
        0
176
     1
 62
    18
420
        0
176
     1
 90
       50
176
     1
 90
        3
176
     1
 62
     5
420
      255
176
     1
290
     0
176
     1
 90
       50
176
     1
 90
       50
176
     1
 90
       50
176
     1
290
     0
176
     1
 90
       50
176
     1
 62
   256
176
     0
 40
1.0
176
     0
 90
        2
176
     1
  1
strokes_ogs.tif
176
     1
290
     0
176
     1
 40
1.0
176
     1
 40
1.0
176
     1
  0
VISUALSTYLE
  5
32
102
{ACAD_REACTORS
330
2A
102
}
330
2A
100
AcDbVisualStyle
  2
Basic
 70
     7
177
     3
291
     1
 70
    58
 90
        1
176
     1
 90
        0
176
     1
 90
        1
176
     1
 90
        0
176
     1
 40
0.6
176
     1
 40
30.0
176
     1
 62
     7
420
 16777215
176
     1
 90
        0
176
     1
 90
        4
176
     1
 62
     7
176
     1
 62
   257
176
     1
 90
        1
176
     1
 90
        1
176
     1
 40
1.0
176
     1
 90
        8
176
     1
 62
     7
176
     1
 40
1.0
176
     1
 90
        1
176
     1
 90
        6
176
     1
 90
        2
176
     1
 62
     7
176
     1
 90
        5
176
     1
 90
        0
176
     1
 90
        0
176
     1
290
     0
176
     1
 90
        1
176
     1
 40
0.0
176
     1
 90
        0
176
     1
290
     0
176
     1
290
     1
176
     1
290
     1
176
     1
290
     0
176
     1
290
     0
176
     1
290
     0
176
     1
290
     0
176
     1
290
     0
176
     1
290
     0
176
     1
 90
       50
176
     1
 40
0.0
176
     1
 40
1.0
176
     1
 90
        0
176
     1
 62
    18
420
        0
176
     1
 90
       50
176
     1
 90
        3
176
     1
 62
     5
420
      255
176
     1
290
     0
176
     1
 90
       50
176
     1
 90
       50
176
     1
 90
       50
176
     1
290
     0
176
     1
 90
       50
176
     1
 62
   256
176
     0
 40
1.0
176
     0
 90
        2
176
     1
  1
strokes_ogs.tif
176
     1
290
     0
176
     1
 40
1.0
176
     1
 40
1.0
176
     1
  0
VISUALSTYLE
  5
36
102
{ACAD_REACTORS
330
2A
102
}
330
2A
100
AcDbVisualStyle
  2
Brighten
 70
    12
177
     3
291
     1
 70
    58
 90
        2
176
     1
 90
        2
176
     1
 90
        0
176
     1
 90
        0
176
     1
 40
0.6
176
     1
 40
30.0
176
     1
 62
     7
420
 16777215
176
     1
 90
        1
176
     1
 90
        4
176
     1
 62
     7
176
     1
 62
   257
176
     1
 90
        1
176
     1
 90
        1
176
     1
 40
1.0
176
     1
 90
        8
176
     1
 62
     7
176
     1
 40
1.0
176
     1
 90
        1
176
     1
 90
        6
176
     1
 90
        2
176
     1
 62
     7
176
     1
 90
        5
176
     1
 90
        0
176
     1
 90
        0
176
     1
290
     0
176
     1
 90
        1
176
     1
 40
50.0
176
     1
 90
        0
176
     1
290
     0
176
     1
290
     1
176
     1
290
     1
176
     1
290
     0
176
     1
290
     0
176
     1
290
     0
176
     1
290
     0
176
     1
290
     0
176
     1
290
     0
176
     1
 90
       50
176
     1
 40
0.0
176
     1
 40
1.0
176
     1
 90
        0
176
     1
 62
    18
420
        0
176
     1
 90
       50
176
     1
 90
        3
176
     1
 62
     5
420
      255
176
     1
290
     0
176
     1
 90
       50
176
     1
 90
       50
176
     1
 90
       50
176
     1
290
     0
176
     1
 90
       50
176
     1
 62
   256
176
     0
 40
1.0
176
     0
 90
        2
176
     1
  1
strokes_ogs.tif
176
     1
290
     0
176
     1
 40
1.0
176
     1
 40
1.0
176
     1
  0
VISUALSTYLE
  5
3A
102
{ACAD_REACTORS
330
2A
102
}
330
2A
100
AcDbVisualStyle
  2
ColorChange
 70
    16
177
     3
291
     1
 70
    58
 90
        2
176
     1
 90
        2
176
     1
 90
        3
176
     1
 90
        0
176
     1
 40
0.6
176
     1
 40
30.0
176
     1
 62
     8
420
  8421504
176
     1
 90
        1
176
     1
 90
        4
176
     1
 62
     7
176
     1
 62
   257
176
     1
 90
        1
176
     1
 90
        1
176
     1
 40
1.0
176
     1
 90
        8
176
     1
 62
     8
420
  8421504
176
     1
 40
1.0
176
     1
 90
        1
176
     1
 90
        6
176
     1
 90
        2
176
     1
 62
     7
176
     1
 90
        5
176
     1
 90
        0
176
     1
 90
        0
176
     1
290
     0
176
     1
 90
        1
176
     1
 40
0.0
176
     1
 90
        0
176
     1
290
     0
176
     1
290
     1
176
     1
290
     1
176
     1
290
     0
176
     1
290
     0
176
     1
290
     0
176
     1
290
     0
176
     1
290
     0
176
     1
290
     0
176
     1
 90
       50
176
     1
 40
0.0
176
     1
 40
1.0
176
     1
 90
        0
176
     1
 62
    18
420
        0
176
     1
 90
       50
176
     1
 90
        3
176
     1
 62
     5
420
      255
176
     1
290
     0
176
     1
 90
       50
176
     1
 90
       50
176
     1
 90
       50
176
     1
290
     0
176
     1
 90
       50
176
     1
 62
   256
176
     0
 40
1.0
176
     0
 90
        2
176
     1
  1
strokes_ogs.tif
176
     1
290
     0
176
     1
 40
1.0
176
     1
 40
1.0
176
     1
  0
VISUALSTYLE
  5
34
102
{ACAD_REACTORS
330
2A
102
}
330
2A
100
AcDbVisualStyle
  2
Conceptual
 70
     9
177
     3
291
     0
 70
    58
 90
        3
176
     1
 90
        2
176
     1
 90
        0
176
     1
 90
        0
176
     1
 40
0.6
176
     1
 40
30.0
176
     1
 62
     7
420
 16777215
176
     1
 90
        2
176
     1
 90
        2
176
     1
 62
     7
176
     1
 62
   257
176
     1
 90
        1
176
     1
 90
        1
176
     1
 40
179.0
176
     1
 90
        8
176
     1
 62
     7
176
     1
 40
1.0
176
     1
 90
        1
176
     1
 90
        6
176
     1
 90
        2
176
     1
 62
     7
176
     1
 90
        3
176
     1
 90
        0
176
     1
 90
        0
176
     1
290
     0
176
     1
 90
        1
176
     1
 40
0.0
176
     1
 90
        0
176
     1
290
     0
176
     1
290
     1
176
     1
290
     1
176
     1
290
     0
176
     1
290
     0
176
     1
290
     0
176
     1
290
     0
176
     1
290
     0
176
     1
290
     0
176
     1
 90
       50
176
     1
 40
0.0
176
     1
 40
1.0
176
     1
 90
        0
176
     1
 62
    18
420
        0
176
     1
 90
       50
176
     1
 90
        3
176
     1
 62
     5
420
      255
176
     1
290
     0
176
     1
 90
       50
176
     1
 90
       50
176
     1
 90
       50
176
     1
290
     0
176
     1
 90
       50
176
     1
 62
   256
176
     0
 40
1.0
176
     0
 90
        2
176
     1
  1
strokes_ogs.tif
176
     1
290
     0
176
     1
 40
1.0
176
     1
 40
1.0
176
     1
  0
VISUALSTYLE
  5
35
102
{ACAD_REACTORS
330
2A
102
}
330
2A
100
AcDbVisualStyle
  2
Dim
 70
    11
177
     3
291
     1
 70
    58
 90
        2
176
     1
 90
        2
176
     1
 90
        0
176
     1
 90
        0
176
     1
 40
0.6
176
     1
 40
30.0
176
     1
 62
     7
420
 16777215
176
     1
 90
        1
176
     1
 90
        4
176
     1
 62
     7
176
     1
 62
   257
176
     1
 90
        1
176
     1
 90
        1
176
     1
 40
1.0
176
     1
 90
        8
176
     1
 62
     7
176
     1
 40
1.0
176
     1
 90
        1
176
     1
 90
        6
176
     1
 90
        2
176
     1
 62
     7
176
     1
 90
        5
176
     1
 90
        0
176
     1
 90
        0
176
     1
290
     0
176
     1
 90
        1
176
     1
 40
-50.0
176
     1
 90
        0
176
     1
290
     0
176
     1
290
     1
176
     1
290
     1
176
     1
290
     0
176
     1
290
     0
176
     1
290
     0
176
     1
290
     0
176
     1
290
     0
176
     1
290
     0
176
     1
 90
       50
176
     1
 40
0.0
176
     1
 40
1.0
176
     1
 90
        0
176
     1
 62
    18
420
        0
176
     1
 90
       50
176
     1
 90
        3
176
     1
 62
     5
420
      255
176
     1
290
     0
176
     1
 90
       50
176
     1
 90
       50
176
     1
 90
       50
176
     1
290
     0
176
     1
 90
       50
176
     1
 62
   256
176
     0
 40
1.0
176
     0
 90
        2
176
     1
  1
strokes_ogs.tif
176
     1
290
     0
176
     1
 40
1.0
176
     1
 40
1.0
176
     1
  0
VISUALSTYLE
  5
3D
102
{ACAD_REACTORS
330
2A
102
}
330
2A
100
AcDbVisualStyle
  2
EdgeColorOff
 70
    22
177
     3
291
     1
 70
    58
 90
        2
176
     0
 90
        2
176
     0
 90
        0
176
     0
 90
        0
176
     0
 40
0.6
176
     0
 40
30.0
176
     0
 62
     7
420
 16777215
176
     0
 90
        1
176
     0
 90
        4
176
     0
 62
     7
176
     0
 62
   257
176
     0
 90
        1
176
     0
 90
        1
176
     0
 40
1.0
176
     0
 90
        8
176
     2
 62
     7
176
     0
 40
1.0
176
     0
 90
        1
176
     0
 90
        6
176
     0
 90
        2
176
     0
 62
     7
176
     0
 90
        5
176
     0
 90
        0
176
     0
 90
        0
176
     0
290
     0
176
     0
 90
        1
176
     0
 40
0.0
176
     0
 90
        0
176
     0
290
     0
176
     0
290
     1
176
     0
290
     1
176
     0
290
     0
176
     0
290
     0
176
     0
290
     0
176
     0
290
     0
176
     0
290
     0
176
     0
290
     0
176
     0
 90
       50
176
     0
 40
0.0
176
     0
 40
1.0
176
     0
 90
        0
176
     0
 62
    18
420
        0
176
     0
 90
       50
176
     0
 90
        3
176
     0
 62
     5
420
      255
176
     0
290
     0
176
     0
 90
       50
176
     0
 90
       50
176
     0
 90
       50
176
     0
290
     0
176
     0
 90
       50
176
     0
 62
   256
176
     0
 40
1.0
176
     0
 90
        2
176
     0
  1
strokes_ogs.tif
176
     0
290
     0
176
     0
 40
1.0
176
     0
 40
1.0
176
     0
  0
VISUALSTYLE
  5
39
102
{ACAD_REACTORS
330
2A
102
}
330
2A
100
AcDbVisualStyle
  2
Facepattern
 70
    15
177
     3
291
     1
 70
    58
 90
        2
176
     1
 90
        2
176
     1
 90
        0
176
     1
 90
        0
176
     1
 40
0.6
176
     1
 40
30.0
176
     1
 62
     7
420
 16777215
176
     1
 90
        1
176
     1
 90
        4
176
     1
 62
     7
176
     1
 62
   257
176
     1
 90
        1
176
     1
 90
        1
176
     1
 40
1.0
176
     1
 90
        8
176
     1
 62
     7
176
     1
 40
1.0
176
     1
 90
        1
176
     1
 90
        6
176
     1
 90
        2
176
     1
 62
     7
176
     1
 90
        5
176
     1
 90
        0
176
     1
 90
        0
176
     1
290
     0
176
     1
 90
        1
176
     1
 40
0.0
176
     1
 90
        0
176
     1
290
     0
176
     1
290
     1
176
     1
290
     1
176
     1
290
     0
176
     1
290
     0
176
     1
290
     0
176
     1
290
     0
176
     1
290
     0
176
     1
290
     0
176
     1
 90
       50
176
     1
 40
0.0
176
     1
 40
1.0
176
     1
 90
        0
176
     1
 62
    18
420
        0
176
     1
 90
       50
176
     1
 90
        3
176
     1
 62
     5
420
      255
176
     1
290
     0
176
     1
 90
       50
176
     1
 90
       50
176
     1
 90
       50
176
     1
290
     0
176
     1
 90
       50
176
     1
 62
   256
176
     0
 40
1.0
176
     0
 90
        2
176
     1
  1
strokes_ogs.tif
176
     1
290
     0
176
     1
 40
1.0
176
     1
 40
1.0
176
     1
  0
VISUALSTYLE
  5
2B
102
{ACAD_REACTORS
330
2A
102
}
330
2A
100
AcDbVisualStyle
  2
Flat
 70
     0
177
     3
291
     1
 70
    58
 90
        2
176
     1
 90
        1
176
     1
 90
        1
176
     1
 90
        2
176
     1
 40
0.6
176
     1
 40
30.0
176
     1
 62
     7
420
 16777215
176
     1
 90
        0
176
     1
 90
        0
176
     1
 62
     7
176
     1
 62
   257
176
     1
 90
        1
176
     1
 90
        1
176
     1
 40
1.0
176
     1
 90
        8
176
     1
 62
     7
176
     1
 40
1.0
176
     1
 90
        1
176
     1
 90
        6
176
     1
 90
        2
176
     1
 62
     7
176
     1
 90
        5
176
     1
 90
        0
176
     1
 90
        0
176
     1
290
     0
176
     1
 90
       13
176
     1
 40
0.0
176
     1
 90
        0
176
     1
290
     0
176
     1
290
     1
176
     1
290
     1
176
     1
290
     0
176
     1
290
     0
176
     1
290
     0
176
     1
290
     0
176
     1
290
     0
176
     1
290
     0
176
     1
 90
       50
176
     1
 40
0.0
176
     1
 40
1.0
176
     1
 90
        0
176
     1
 62
    18
420
        0
176
     1
 90
       50
176
     1
 90
        3
176
     1
 62
     5
420
      255
176
     1
290
     0
176
     1
 90
       50
176
     1
 90
       50
176
     1
 90
       50
176
     1
290
     0
176
     1
 90
       50
176
     1
 62
   256
176
     0
 40
1.0
176
     0
 90
        2
176
     1
  1
strokes_ogs.tif
176
     1
290
     0
176
     1
 40
1.0
176
     1
 40
1.0
176
     1
  0
VISUALSTYLE
  5
2C
102
{ACAD_REACTORS
330
2A
102
}
330
2A
100
AcDbVisualStyle
  2
FlatWithEdges
 70
     1
177
     3
291
     1
 70
    58
 90
        2
176
     1
 90
        1
176
     1
 90
        1
176
     1
 90
        2
176
     1
 40
0.6
176
     1
 40
30.0
176
     1
 62
     7
420
 16777215
176
     1
 90
        1
176
     1
 90
        0
176
     1
 62
     7
176
     1
 62
   257
176
     1
 90
        1
176
     1
 90
        1
176
     1
 40
1.0
176
     1
 90
        0
176
     1
 62
   257
176
     1
 40
1.0
176
     1
 90
        1
176
     1
 90
        6
176
     1
 90
        2
176
     1
 62
     7
176
     1
 90
        5
176
     1
 90
        0
176
     1
 90
        0
176
     1
290
     0
176
     1
 90
       13
176
     1
 40
0.0
176
     1
 90
        0
176
     1
290
     0
176
     1
290
     1
176
     1
290
     1
176
     1
290
     0
176
     1
290
     0
176
     1
290
     0
176
     1
290
     0
176
     1
290
     0
176
     1
290
     0
176
     1
 90
       50
176
     1
 40
0.0
176
     1
 40
1.0
176
     1
 90
        0
176
     1
 62
    18
420
        0
176
     1
 90
       50
176
     1
 90
        3
176
     1
 62
     5
420
      255
176
     1
290
     0
176
     1
 90
       50
176
     1
 90
       50
176
     1
 90
       50
176
     1
290
     0
176
     1
 90
       50
176
     1
 62
   256
176
     0
 40
1.0
176
     0
 90
        2
176
     1
  1
strokes_ogs.tif
176
     1
290
     0
176
     1
 40
1.0
176
     1
 40
1.0
176
     1
  0
VISUALSTYLE
  5
2D
102
{ACAD_REACTORS
330
2A
102
}
330
2A
100
AcDbVisualStyle
  2
Gouraud
 70
     2
177
     3
291
     1
 70
    58
 90
        2
176
     1
 90
        2
176
     1
 90
        1
176
     1
 90
        2
176
     1
 40
0.6
176
     1
 40
30.0
176
     1
 62
     7
420
 16777215
176
     1
 90
        0
176
     1
 90
        0
176
     1
 62
     7
176
     1
 62
   257
176
     1
 90
        1
176
     1
 90
        1
176
     1
 40
1.0
176
     1
 90
        0
176
     1
 62
     7
176
     1
 40
1.0
176
     1
 90
        1
176
     1
 90
        6
176
     1
 90
        2
176
     1
 62
     7
176
     1
 90
        5
176
     1
 90
        0
176
     1
 90
        0
176
     1
290
     0
176
     1
 90
       13
176
     1
 40
0.0
176
     1
 90
        0
176
     1
290
     0
176
     1
290
     1
176
     1
290
     1
176
     1
290
     0
176
     1
290
     0
176
     1
290
     0
176
     1
290
     0
176
     1
290
     0
176
     1
290
     0
176
     1
 90
       50
176
     1
 40
0.0
176
     1
 40
1.0
176
     1
 90
        0
176
     1
 62
    18
420
        0
176
     1
 90
       50
176
     1
 90
        3
176
     1
 62
     5
420
      255
176
     1
290
     0
176
     1
 90
       50
176
     1
 90
       50
176
     1
 90
       50
176
     1
290
     0
176
     1
 90
       50
176
     1
 62
   256
176
     0
 40
1.0
176
     0
 90
        2
176
     1
  1
strokes_ogs.tif
176
     1
290
     0
176
     1
 40
1.0
176
     1
 40
1.0
176
     1
  0
VISUALSTYLE
  5
2E
102
{ACAD_REACTORS
330
2A
102
}
330
2A
100
AcDbVisualStyle
  2
GouraudWithEdges
 70
     3
177
     3
291
     1
 70
    58
 90
        2
176
     1
 90
        2
176
     1
 90
        1
176
     1
 90
        2
176
     1
 40
0.6
176
     1
 40
30.0
176
     1
 62
     7
420
 16777215
176
     1
 90
        1
176
     1
 90
        0
176
     1
 62
     7
176
     1
 62
   257
176
     1
 90
        1
176
     1
 90
        1
176
     1
 40
1.0
176
     1
 90
        0
176
     1
 62
   257
176
     1
 40
1.0
176
     1
 90
        1
176
     1
 90
        6
176
     1
 90
        2
176
     1
 62
     7
176
     1
 90
        5
176
     1
 90
        0
176
     1
 90
        0
176
     1
290
     0
176
     1
 90
       13
176
     1
 40
0.0
176
     1
 90
        0
176
     1
290
     0
176
     1
290
     1
176
     1
290
     1
176
     1
290
     0
176
     1
290
     0
176
     1
290
     0
176
     1
290
     0
176
     1
290
     0
176
     1
290
     0
176
     1
 90
       50
176
     1
 40
0.0
176
     1
 40
1.0
176
     1
 90
        0
176
     1
 62
    18
420
        0
176
     1
 90
       50
176
     1
 90
        3
176
     1
 62
     5
420
      255
176
     1
290
     0
176
     1
 90
       50
176
     1
 90
       50
176
     1
 90
       50
176
     1
290
     0
176
     1
 90
       50
176
     1
 62
   256
176
     0
 40
1.0
176
     0
 90
        2
176
     1
  1
strokes_ogs.tif
176
     1
290
     0
176
     1
 40
1.0
176
     1
 40
1.0
176
     1
  0
VISUALSTYLE
  5
31
102
{ACAD_REACTORS
330
2A
102
}
330
2A
100
AcDbVisualStyle
  2
Hidden
 70
     6
177
     3
291
     0
 70
    58
 90
        1
176
     1
 90
        2
176
     1
 90
        2
176
     1
 90
        0
176
     1
 40
0.6
176
     1
 40
30.0
176
     1
 62
     7
420
 16777215
176
     1
 90
        2
176
     1
 90
        2
176
     1
 62
     7
176
     1
 62
   257
176
     1
 90
        2
176
     1
 90
        1
176
     1
 40
40.0
176
     1
 90
        0
176
     1
 62
   257
176
     1
 40
1.0
176
     1
 90
        1
176
     1
 90
        6
176
     1
 90
        2
176
     1
 62
     7
176
     1
 90
        3
176
     1
 90
        0
176
     1
 90
        0
176
     1
290
     0
176
     1
 90
        1
176
     1
 40
0.0
176
     1
 90
        0
176
     1
290
     0
176
     1
290
     1
176
     1
290
     1
176
     1
290
     0
176
     1
290
     0
176
     1
290
     0
176
     1
290
     0
176
     1
290
     0
176
     1
290
     0
176
     1
 90
       50
176
     1
 40
0.0
176
     1
 40
1.0
176
     1
 90
        0
176
     1
 62
    18
420
        0
176
     1
 90
       50
176
     1
 90
        3
176
     1
 62
     5
420
      255
176
     1
290
     0
176
     1
 90
       50
176
     1
 90
       50
176
     1
 90
       50
176
     1
290
     0
176
     1
 90
       50
176
     1
 62
   256
176
     0
 40
1.0
176
     0
 90
        2
176
     1
  1
strokes_ogs.tif
176
     1
290
     0
176
     1
 40
1.0
176
     1
 40
1.0
176
     1
  0
VISUALSTYLE
  5
3B
102
{ACAD_REACTORS
330
2A
102
}
330
2A
100
AcDbVisualStyle
  2
JitterOff
 70
    20
177
     3
291
     1
 70
    58
 90
        2
176
     0
 90
        2
176
     0
 90
        0
176
     0
 90
        0
176
     0
 40
0.6
176
     0
 40
30.0
176
     0
 62
     7
420
 16777215
176
     0
 90
        1
176
     0
 90
        4
176
     0
 62
     7
176
     0
 62
   257
176
     0
 90
        1
176
     0
 90
        1
176
     0
 40
1.0
176
     0
 90
       10
176
     2
 62
     7
176
     0
 40
1.0
176
     0
 90
        1
176
     0
 90
        6
176
     0
 90
        2
176
     0
 62
     7
176
     0
 90
        5
176
     0
 90
        0
176
     0
 90
        0
176
     0
290
     0
176
     0
 90
        1
176
     0
 40
0.0
176
     0
 90
        0
176
     0
290
     0
176
     0
290
     1
176
     0
290
     1
176
     0
290
     0
176
     0
290
     0
176
     0
290
     0
176
     0
290
     0
176
     0
290
     0
176
     0
290
     0
176
     0
 90
       50
176
     0
 40
0.0
176
     0
 40
1.0
176
     0
 90
        0
176
     0
 62
    18
420
        0
176
     0
 90
       50
176
     0
 90
        3
176
     0
 62
     5
420
      255
176
     0
290
     0
176
     0
 90
       50
176
     0
 90
       50
176
     0
 90
       50
176
     0
290
     0
176
     0
 90
       50
176
     0
 62
   256
176
     0
 40
1.0
176
     0
 90
        2
176
     0
  1
strokes_ogs.tif
176
     0
290
     0
176
     0
 40
1.0
176
     0
 40
1.0
176
     0
  0
VISUALSTYLE
  5
38
102
{ACAD_REACTORS
330
2A
102
}
330
2A
100
AcDbVisualStyle
  2
Linepattern
 70
    14
177
     3
291
     1
 70
    58
 90
        2
176
     1
 90
        2
176
     1
 90
        0
176
     1
 90
        0
176
     1
 40
0.6
176
     1
 40
30.0
176
     1
 62
     7
420
 16777215
176
     1
 90
        1
176
     1
 90
        4
176
     1
 62
     7
176
     1
 62
   257
176
     1
 90
        7
176
     1
 90
        7
176
     1
 40
1.0
176
     1
 90
        8
176
     1
 62
     7
176
     1
 40
1.0
176
     1
 90
        1
176
     1
 90
        6
176
     1
 90
        2
176
     1
 62
     7
176
     1
 90
        5
176
     1
 90
        0
176
     1
 90
        0
176
     1
290
     0
176
     1
 90
        1
176
     1
 40
0.0
176
     1
 90
        0
176
     1
290
     0
176
     1
290
     1
176
     1
290
     1
176
     1
290
     0
176
     1
290
     0
176
     1
290
     0
176
     1
290
     0
176
     1
290
     0
176
     1
290
     0
176
     1
 90
       50
176
     1
 40
0.0
176
     1
 40
1.0
176
     1
 90
        0
176
     1
 62
    18
420
        0
176
     1
 90
       50
176
     1
 90
        3
176
     1
 62
     5
420
      255
176
     1
290
     0
176
     1
 90
       50
176
     1
 90
       50
176
     1
 90
       50
176
     1
290
     0
176
     1
 90
       50
176
     1
 62
   256
176
     0
 40
1.0
176
     0
 90
        2
176
     1
  1
strokes_ogs.tif
176
     1
290
     0
176
     1
 40
1.0
176
     1
 40
1.0
176
     1
  0
VISUALSTYLE
  5
3C
102
{ACAD_REACTORS
330
2A
102
}
330
2A
100
AcDbVisualStyle
  2
OverhangOff
 70
    21
177
     3
291
     1
 70
    58
 90
        2
176
     0
 90
        2
176
     0
 90
        0
176
     0
 90
        0
176
     0
 40
0.6
176
     0
 40
30.0
176
     0
 62
     7
420
 16777215
176
     0
 90
        1
176
     0
 90
        4
176
     0
 62
     7
176
     0
 62
   257
176
     0
 90
        1
176
     0
 90
        1
176
     0
 40
1.0
176
     0
 90
        9
176
     2
 62
     7
176
     0
 40
1.0
176
     0
 90
        1
176
     0
 90
        6
176
     0
 90
        2
176
     0
 62
     7
176
     0
 90
        5
176
     0
 90
        0
176
     0
 90
        0
176
     0
290
     0
176
     0
 90
        1
176
     0
 40
0.0
176
     0
 90
        0
176
     0
290
     0
176
     0
290
     1
176
     0
290
     1
176
     0
290
     0
176
     0
290
     0
176
     0
290
     0
176
     0
290
     0
176
     0
290
     0
176
     0
290
     0
176
     0
 90
       50
176
     0
 40
0.0
176
     0
 40
1.0
176
     0
 90
        0
176
     0
 62
    18
420
        0
176
     0
 90
       50
176
     0
 90
        3
176
     0
 62
     5
420
      255
176
     0
290
     0
176
     0
 90
       50
176
     0
 90
       50
176
     0
 90
       50
176
     0
290
     0
176
     0
 90
       50
176
     0
 62
   256
176
     0
 40
1.0
176
     0
 90
        2
176
     0
  1
strokes_ogs.tif
176
     0
290
     0
176
     0
 40
1.0
176
     0
 40
1.0
176
     0
  0
VISUALSTYLE
  5
33
102
{ACAD_REACTORS
330
2A
102
}
330
2A
100
AcDbVisualStyle
  2
Realistic
 70
     8
177
     3
291
     0
 70
    58
 90
        2
176
     1
 90
        3
176
     1
 90
        0
176
     1
 90
        2
176
     1
 40
0.6
176
     1
 40
30.0
176
     1
 62
     7
420
 16777215
176
     1
 90
        0
176
     1
 90
        0
176
     1
 62
     7
176
     1
 62
   257
176
     1
 90
        1
176
     1
 90
        1
176
     1
 40
1.0
176
     1
 90
        8
176
     1
 62
   257
176
     1
 40
1.0
176
     1
 90
        1
176
     1
 90
        6
176
     1
 90
        2
176
     1
 62
     7
176
     1
 90
        3
176
     1
 90
        0
176
     1
 90
        0
176
     1
290
     0
176
     1
 90
       13
176
     1
 40
0.0
176
     1
 90
        0
176
     1
290
     0
176
     1
290
     1
176
     1
290
     1
176
     1
290
     0
176
     1
290
     0
176
     1
290
     0
176
     1
290
     0
176
     1
290
     0
176
     1
290
     0
176
     1
 90
       50
176
     1
 40
0.0
176
     1
 40
1.0
176
     1
 90
        0
176
     1
 62
    18
420
        0
176
     1
 90
       50
176
     1
 90
        3
176
     1
 62
     5
420
      255
176
     1
290
     0
176
     1
 90
       50
176
     1
 90
       50
176
     1
 90
       50
176
     1
290
     0
176
     1
 90
       50
176
     1
 62
   256
176
     0
 40
1.0
176
     0
 90
        2
176
     1
  1
strokes_ogs.tif
176
     1
290
     0
176
     1
 40
1.0
176
     1
 40
1.0
176
     1
  0
VISUALSTYLE
  5
42
102
{ACAD_REACTORS
330
2A
102
}
330
2A
100
AcDbVisualStyle
  2
Shaded
 70
    27
177
     3
291
     0
 70
    58
 90
        2
176
     1
 90
        2
176
     1
 90
        1
176
     1
 90
        2
176
     1
 40
0.6
176
     1
 40
30.0
176
     1
 62
     7
420
 16777215
176
     1
 90
        0
176
     1
 90
        4
176
     1
 62
     7
176
     1
 62
   257
176
     1
 90
        1
176
     1
 90
        1
176
     1
 40
1.0
176
     1
 90
        8
176
     1
 62
   257
176
     1
 40
1.0
176
     1
 90
        1
176
     1
 90
        6
176
     1
 90
        2
176
     1
 62
     8
420
  7895160
176
     1
 90
        3
176
     1
 90
        0
176
     1
 90
        0
176
     1
290
     0
176
     1
 90
        5
176
     1
 40
0.0
176
     1
 90
        0
176
     1
290
     0
176
     1
290
     1
176
     1
290
     1
176
     1
290
     0
176
     1
290
     0
176
     1
290
     0
176
     1
290
     0
176
     1
290
     0
176
     1
290
     0
176
     1
 90
       50
176
     1
 40
0.0
176
     1
 40
1.0
176
     1
 90
        0
176
     1
 62
    18
420
        0
176
     1
 90
       50
176
     1
 90
        3
176
     1
 62
     5
420
      255
176
     1
290
     0
176
     1
 90
       50
176
     1
 90
       50
176
     1
 90
       50
176
     1
290
     0
176
     1
 90
       50
176
     1
 62
   256
176
     0
 40
1.0
176
     0
 90
        2
176
     1
  1
strokes_ogs.tif
176
     1
290
     0
176
     1
 40
1.0
176
     1
 40
1.0
176
     1
  0
VISUALSTYLE
  5
41
102
{ACAD_REACTORS
330
2A
102
}
330
2A
100
AcDbVisualStyle
  2
Shaded with edges
 70
    26
177
     3
291
     0
 70
    58
 90
        2
176
     1
 90
        2
176
     1
 90
        1
176
     1
 90
        2
176
     1
 40
0.6
176
     1
 40
30.0
176
     1
 62
     7
420
 16777215
176
     1
 90
        1
176
     1
 90
       10
176
     1
 62
     7
176
     1
 62
   257
176
     1
 90
        2
176
     1
 90
        1
176
     1
 40
1.0
176
     1
 90
        8
176
     1
 62
   257
176
     1
 40
1.0
176
     1
 90
        1
176
     1
 90
        6
176
     1
 90
        2
176
     1
 62
     7
176
     1
 90
        3
176
     1
 90
        0
176
     1
 90
        0
176
     1
290
     0
176
     1
 90
        5
176
     1
 40
0.0
176
     1
 90
        0
176
     1
290
     0
176
     1
290
     1
176
     1
290
     1
176
     1
290
     0
176
     1
290
     0
176
     1
290
     0
176
     1
290
     0
176
     1
290
     0
176
     1
290
     0
176
     1
 90
       50
176
     1
 40
0.0
176
     1
 40
1.0
176
     1
 90
        0
176
     1
 62
    18
420
        0
176
     1
 90
       50
176
     1
 90
        3
176
     1
 62
     5
420
      255
176
     1
290
     0
176
     1
 90
       50
176
     1
 90
       50
176
     1
 90
       50
176
     1
290
     0
176
     1
 90
       50
176
     1
 62
   256
176
     0
 40
1.0
176
     0
 90
        2
176
     1
  1
strokes_ogs.tif
176
     1
290
     0
176
     1
 40
1.0
176
     1
 40
1.0
176
     1
  0
VISUALSTYLE
  5
3E
102
{ACAD_REACTORS
330
2A
102
}
330
2A
100
AcDbVisualStyle
  2
Shades of Gray
 70
    23
177
     3
291
     0
 70
    58
 90
        2
176
     1
 90
        2
176
     1
 90
        3
176
     1
 90
        0
176
     1
 40
0.6
176
     1
 40
30.0
176
     1
 62
     7
420
 16777215
176
     1
 90
        2
176
     1
 90
        2
176
     1
 62
     7
176
     1
 62
     7
176
     1
 90
        1
176
     1
 90
        1
176
     1
 40
40.0
176
     1
 90
        8
176
     1
 62
     7
176
     1
 40
1.0
176
     1
 90
        1
176
     1
 90
        6
176
     1
 90
        2
176
     1
 62
     7
176
     1
 90
        3
176
     1
 90
        0
176
     1
 90
        0
176
     1
290
     0
176
     1
 90
        1
176
     1
 40
0.0
176
     1
 90
        0
176
     1
290
     0
176
     1
290
     1
176
     1
290
     1
176
     1
290
     0
176
     1
290
     0
176
     1
290
     0
176
     1
290
     0
176
     1
290
     0
176
     1
290
     0
176
     1
 90
       50
176
     1
 40
0.0
176
     1
 40
1.0
176
     1
 90
        0
176
     1
 62
    18
420
        0
176
     1
 90
       50
176
     1
 90
        3
176
     1
 62
     5
420
      255
176
     1
290
     0
176
     1
 90
       50
176
     1
 90
       50
176
     1
 90
       50
176
     1
290
     0
176
     1
 90
       50
176
     1
 62
   256
176
     0
 40
1.0
176
     0
 90
        2
176
     1
  1
strokes_ogs.tif
176
     1
290
     0
176
     1
 40
1.0
176
     1
 40
1.0
176
     1
  0
VISUALSTYLE
  5
3F
102
{ACAD_REACTORS
330
2A
102
}
330
2A
100
AcDbVisualStyle
  2
Sketchy
 70
    24
177
     3
291
     0
 70
    58
 90
        1
176
     1
 90
        2
176
     1
 90
        2
176
     1
 90
        0
176
     1
 40
0.6
176
     1
 40
30.0
176
     1
 62
     7
420
 16777215
176
     1
 90
        2
176
     1
 90
        2
176
     1
 62
     7
176
     1
 62
     7
176
     1
 90
        1
176
     1
 90
        1
176
     1
 40
40.0
176
     1
 90
       11
176
     1
 62
     7
176
     1
 40
1.0
176
     1
 90
        1
176
     1
 90
        6
176
     1
 90
        2
176
     1
 62
     7
176
     1
 90
        6
176
     1
 90
        0
176
     1
 90
        0
176
     1
290
     0
176
     1
 90
        1
176
     1
 40
0.0
176
     1
 90
        0
176
     1
290
     0
176
     1
290
     1
176
     1
290
     1
176
     1
290
     0
176
     1
290
     0
176
     1
290
     0
176
     1
290
     0
176
     1
290
     0
176
     1
290
     0
176
     1
 90
       50
176
     1
 40
0.0
176
     1
 40
1.0
176
     1
 90
        0
176
     1
 62
    18
420
        0
176
     1
 90
       50
176
     1
 90
        3
176
     1
 62
     5
420
      255
176
     1
290
     0
176
     1
 90
       50
176
     1
 90
       50
176
     1
 90
       50
176
     1
290
     0
176
     1
 90
       50
176
     1
 62
   256
176
     0
 40
1.0
176
     0
 90
        2
176
     1
  1
strokes_ogs.tif
176
     1
290
     0
176
     1
 40
1.0
176
     1
 40
1.0
176
     1
  0
VISUALSTYLE
  5
37
102
{ACAD_REACTORS
330
2A
102
}
330
2A
100
AcDbVisualStyle
  2
Thicken
 70
    13
177
     3
291
     1
 70
    58
 90
        2
176
     1
 90
        2
176
     1
 90
        0
176
     1
 90
        0
176
     1
 40
0.6
176
     1
 40
30.0
176
     1
 62
     7
420
 16777215
176
     1
 90
        1
176
     1
 90
        4
176
     1
 62
     7
176
     1
 62
   257
176
     1
 90
        1
176
     1
 90
        1
176
     1
 40
1.0
176
     1
 90
       12
176
     1
 62
     7
176
     1
 40
1.0
176
     1
 90
        1
176
     1
 90
        6
176
     1
 90
        2
176
     1
 62
     7
176
     1
 90
        5
176
     1
 90
        0
176
     1
 90
        0
176
     1
290
     0
176
     1
 90
        1
176
     1
 40
0.0
176
     1
 90
        0
176
     1
290
     0
176
     1
290
     1
176
     1
290
     1
176
     1
290
     0
176
     1
290
     0
176
     1
290
     0
176
     1
290
     0
176
     1
290
     0
176
     1
290
     0
176
     1
 90
       50
176
     1
 40
0.0
176
     1
 40
1.0
176
     1
 90
        0
176
     1
 62
    18
420
        0
176
     1
 90
       50
176
     1
 90
        3
176
     1
 62
     5
420
      255
176
     1
290
     0
176
     1
 90
       50
176
     1
 90
       50
176
     1
 90
       50
176
     1
290
     0
176
     1
 90
       50
176
     1
 62
   256
176
     0
 40
1.0
176
     0
 90
        2
176
     1
  1
strokes_ogs.tif
176
     1
290
     0
176
     1
 40
1.0
176
     1
 40
1.0
176
     1
  0
VISUALSTYLE
  5
30
102
{ACAD_REACTORS
330
2A
102
}
330
2A
100
AcDbVisualStyle
  2
Wireframe
 70
     5
177
     3
291
     0
 70
    58
 90
        0
176
     1
 90
        2
176
     1
 90
        0
176
     1
 90
        0
176
     1
 40
0.6
176
     1
 40
30.0
176
     1
 62
     7
420
 16777215
176
     1
 90
        1
176
     1
 90
        4
176
     1
 62
     7
176
     1
 62
   257
176
     1
 90
        1
176
     1
 90
        1
176
     1
 40
1.0
176
     1
 90
        0
176
     1
 62
   257
176
     1
 40
1.0
176
     1
 90
        1
176
     1
 90
        6
176
     1
 90
        2
176
     1
 62
     7
176
     1
 90
        3
176
     1
 90
        0
176
     1
 90
        0
176
     1
290
     0
176
     1
 90
        1
176
     1
 40
0.0
176
     1
 90
        0
176
     1
290
     0
176
     1
290
     1
176
     1
290
     1
176
     1
290
     0
176
     1
290
     0
176
     1
290
     0
176
     1
290
     0
176
     1
290
     0
176
     1
290
     0
176
     1
 90
       50
176
     1
 40
0.0
176
     1
 40
1.0
176
     1
 90
        0
176
     1
 62
    18
420
        0
176
     1
 90
       50
176
     1
 90
        3
176
     1
 62
     5
420
      255
176
     1
290
     0
176
     1
 90
       50
176
     1
 90
       50
176
     1
 90
       50
176
     1
290
     0
176
     1
 90
       50
176
     1
 62
   256
176
     0
 40
1.0
176
     0
 90
        2
176
     1
  1
strokes_ogs.tif
176
     1
290
     0
176
     1
 40
1.0
176
     1
 40
1.0
176
     1
  0
VISUALSTYLE
  5
40
102
{ACAD_REACTORS
330
2A
102
}
330
2A
100
AcDbVisualStyle
  2
X-Ray
 70
    25
177
     3
291
     0
 70
    58
 90
        2
176
     1
 90
        2
176
     1
 90
        1
176
     1
 90
        1
176
     1
 40
0.5
176
     1
 40
30.0
176
     1
 62
     7
420
 16777215
176
     1
 90
        1
176
     1
 90
        0
176
     1
 62
     7
176
     1
 62
   257
176
     1
 90
        1
176
     1
 90
        1
176
     1
 40
1.0
176
     1
 90
        8
176
     1
 62
     7
176
     1
 40
1.0
176
     1
 90
        1
176
     1
 90
        6
176
     1
 90
        2
176
     1
 62
     7
176
     1
 90
        3
176
     1
 90
        0
176
     1
 90
        0
176
     1
290
     0
176
     1
 90
       13
176
     1
 40
0.0
176
     1
 90
        0
176
     1
290
     0
176
     1
290
     1
176
     1
290
     1
176
     1
290
     0
176
     1
290
     0
176
     1
290
     0
176
     1
290
     0
176
     1
290
     0
176
     1
290
     0
176
     1
 90
       50
176
     1
 40
0.0
176
     1
 40
1.0
176
     1
 90
        0
176
     1
 62
    18
420
        0
176
     1
 90
       50
176
     1
 90
        3
176
     1
 62
     5
420
      255
176
     1
290
     0
176
     1
 90
       50
176
     1
 90
       50
176
     1
 90
       50
176
     1
290
     0
176
     1
 90
       50
176
     1
 62
   256
176
     0
 40
1.0
176
     0
 90
        2
176
     1
  1
strokes_ogs.tif
176
     1
290
     0
176
     1
 40
1.0
176
     1
 40
1.0
176
     1
  0
DICTIONARYVAR
  5
45A
102
{ACAD_REACTORS
330
459
102
}
330
459
100
DictionaryVariables
280
     0
  1
1:1
  0
DICTIONARYVAR
  5
463
102
{ACAD_REACTORS
330
459
102
}
330
459
100
DictionaryVariables
280
     0
  1
3.500000
  0
DICTIONARYVAR
  5
464
102
{ACAD_REACTORS
330
459
102
}
330
459
100
DictionaryVariables
280
     0
  1
acadiso.lin
  0
DICTIONARYVAR
  5
45F
102
{ACAD_REACTORS
330
459
102
}
330
459
100
DictionaryVariables
280
     0
  1
Standard
  0
DICTIONARYVAR
  5
45E
102
{ACAD_REACTORS
330
459
102
}
330
459
100
DictionaryVariables
280
     0
  1
Standard
  0
DICTIONARYVAR
  5
462
102
{ACAD_REACTORS
330
459
102
}
330
459
100
DictionaryVariables
280
     0
  1
0
  0
DICTIONARY
  5
45B
330
5A
100
AcDbDictionary
280
     1
281
     1
  3
ACAD_ROUNDTRIP_2008_TABLESTYLE_CELLSTYLEMAP
360
45C
  0
CELLSTYLEMAP
  5
45C
102
{ACAD_REACTORS
330
45B
102
}
330
45B
100
AcDbCellStyleMap
 90
        3
300
CELLSTYLE
  1
TABLEFORMAT_BEGIN
 90
        5
170
     1
 91
        0
 92
    32768
 62
   257
 93
        1
300
CONTENTFORMAT
  1
CONTENTFORMAT_BEGIN
 90
        0
 91
        0
 92
        4
 93
        0
300

 40
0.0
140
1.0
 94
        5
 62
     0
340
11
144
6.0
309
CONTENTFORMAT_END
171
     1
301
MARGIN
  1
CELLMARGIN_BEGIN
 40
1.5
 40
1.5
 40
1.5
 40
1.5
 40
1.5
 40
1.5
309
CELLMARGIN_END
 94
        6
 95
        1
302
GRIDFORMAT
  1
GRIDFORMAT_BEGIN
 90
        0
 91
        1
 62
     0
 92
       -2
340
14
 93
        0
 40
0.045
309
GRIDFORMAT_END
 95
        2
302
GRIDFORMAT
  1
GRIDFORMAT_BEGIN
 90
        0
 91
        1
 62
     0
 92
       -2
340
14
 93
        0
 40
0.045
309
GRIDFORMAT_END
 95
        4
302
GRIDFORMAT
  1
GRIDFORMAT_BEGIN
 90
        0
 91
        1
 62
     0
 92
       -2
340
14
 93
        0
 40
0.045
309
GRIDFORMAT_END
 95
        8
302
GRIDFORMAT
  1
GRIDFORMAT_BEGIN
 90
        0
 91
        1
 62
     0
 92
       -2
340
14
 93
        0
 40
0.045
309
GRIDFORMAT_END
 95
       16
302
GRIDFORMAT
  1
GRIDFORMAT_BEGIN
 90
        0
 91
        1
 62
     0
 92
       -2
340
14
 93
        0
 40
0.045
309
GRIDFORMAT_END
 95
       32
302
GRIDFORMAT
  1
GRIDFORMAT_BEGIN
 90
        0
 91
        1
 62
     0
 92
       -2
340
14
 93
        0
 40
0.045
309
GRIDFORMAT_END
309
TABLEFORMAT_END
  1
CELLSTYLE_BEGIN
 90
        1
 91
        1
300
_TITLE
309
CELLSTYLE_END
300
CELLSTYLE
  1
TABLEFORMAT_BEGIN
 90
        5
170
     1
 91
        0
 92
        0
 62
   257
 93
        1
300
CONTENTFORMAT
  1
CONTENTFORMAT_BEGIN
 90
        0
 91
        0
 92
        4
 93
        0
300

 40
0.0
140
1.0
 94
        5
 62
     0
340
11
144
4.5
309
CONTENTFORMAT_END
171
     1
301
MARGIN
  1
CELLMARGIN_BEGIN
 40
1.5
 40
1.5
 40
1.5
 40
1.5
 40
1.5
 40
1.5
309
CELLMARGIN_END
 94
        6
 95
        1
302
GRIDFORMAT
  1
GRIDFORMAT_BEGIN
 90
        0
 91
        1
 62
     0
 92
       -2
340
14
 93
        0
 40
0.045
309
GRIDFORMAT_END
 95
        2
302
GRIDFORMAT
  1
GRIDFORMAT_BEGIN
 90
        0
 91
        1
 62
     0
 92
       -2
340
14
 93
        0
 40
0.045
309
GRIDFORMAT_END
 95
        4
302
GRIDFORMAT
  1
GRIDFORMAT_BEGIN
 90
        0
 91
        1
 62
     0
 92
       -2
340
14
 93
        0
 40
0.045
309
GRIDFORMAT_END
 95
        8
302
GRIDFORMAT
  1
GRIDFORMAT_BEGIN
 90
        0
 91
        1
 62
     0
 92
       -2
340
14
 93
        0
 40
0.045
309
GRIDFORMAT_END
 95
       16
302
GRIDFORMAT
  1
GRIDFORMAT_BEGIN
 90
        0
 91
        1
 62
     0
 92
       -2
340
14
 93
        0
 40
0.045
309
GRIDFORMAT_END
 95
       32
302
GRIDFORMAT
  1
GRIDFORMAT_BEGIN
 90
        0
 91
        1
 62
     0
 92
       -2
340
14
 93
        0
 40
0.045
309
GRIDFORMAT_END
309
TABLEFORMAT_END
  1
CELLSTYLE_BEGIN
 90
        2
 91
        1
300
_HEADER
309
CELLSTYLE_END
300
CELLSTYLE
  1
TABLEFORMAT_BEGIN
 90
        5
170
     1
 91
        0
 92
        0
 62
   257
 93
        1
300
CONTENTFORMAT
  1
CONTENTFORMAT_BEGIN
 90
        0
 91
        0
 92
        4
 93
        0
300

 40
0.0
140
1.0
 94
        2
 62
     0
340
11
144
4.5
309
CONTENTFORMAT_END
171
     1
301
MARGIN
  1
CELLMARGIN_BEGIN
 40
1.5
 40
1.5
 40
1.5
 40
1.5
 40
1.5
 40
1.5
309
CELLMARGIN_END
 94
        6
 95
        1
302
GRIDFORMAT
  1
GRIDFORMAT_BEGIN
 90
        0
 91
        1
 62
     0
 92
       -2
340
14
 93
        0
 40
0.045
309
GRIDFORMAT_END
 95
        2
302
GRIDFORMAT
  1
GRIDFORMAT_BEGIN
 90
        0
 91
        1
 62
     0
 92
       -2
340
14
 93
        0
 40
0.045
309
GRIDFORMAT_END
 95
        4
302
GRIDFORMAT
  1
GRIDFORMAT_BEGIN
 90
        0
 91
        1
 62
     0
 92
       -2
340
14
 93
        0
 40
0.045
309
GRIDFORMAT_END
 95
        8
302
GRIDFORMAT
  1
GRIDFORMAT_BEGIN
 90
        0
 91
        1
 62
     0
 92
       -2
340
14
 93
        0
 40
0.045
309
GRIDFORMAT_END
 95
       16
302
GRIDFORMAT
  1
GRIDFORMAT_BEGIN
 90
        0
 91
        1
 62
     0
 92
       -2
340
14
 93
        0
 40
0.045
309
GRIDFORMAT_END
 95
       32
302
GRIDFORMAT
  1
GRIDFORMAT_BEGIN
 90
        0
 91
        1
 62
     0
 92
       -2
340
14
 93
        0
 40
0.045
309
GRIDFORMAT_END
309
TABLEFORMAT_END
  1
CELLSTYLE_BEGIN
 90
        3
 91
        2
300
_DATA
309
CELLSTYLE_END
  0
ENDSEC
  0
EOF
