  0
SECTION
  2
HEADER
  9
$ACADVER
  1
AC1027
  9
$ACADMAINTVER
 70
   105
  9
$DWGCODEPAGE
  3
ANSI_1252
  9
$LASTSAVEDBY
  1
mezergues
  9
$REQUIREDVERSIONS
160
                 0
  9
$INSBASE
 10
0.0
 20
0.0
 30
0.0
  9
$EXTMIN
 10
35738.1648709221
 20
-18671.04946115251
 30
0.0
  9
$EXTMAX
 10
37438.39589865287
 20
-17533.08916506578
 30
2500.0
  9
$LIMMIN
 10
0.0
 20
0.0
  9
$LIMMAX
 10
420.0
 20
297.0
  9
$ORTHOMODE
 70
     0
  9
$REGENMODE
 70
     1
  9
$FILLMODE
 70
     1
  9
$QTEXTMODE
 70
     0
  9
$MIRRTEXT
 70
     1
  9
$LTSCALE
 40
5.0
  9
$ATTMODE
 70
     1
  9
$TEXTSIZE
 40
2.5
  9
$TRACEWID
 40
1.0
  9
$TEXTSTYLE
  7
Standard
  9
$CLAYER
  8
0
  9
$CELTYPE
  6
Continuous
  9
$CECOLOR
 62
   256
  9
$CELTSCALE
 40
1.0
  9
$DISPSILH
 70
     0
  9
$DIMSCALE
 40
1.0
  9
$DIMASZ
 40
2.5
  9
$DIMEXO
 40
0.625
  9
$DIMDLI
 40
3.75
  9
$DIMRND
 40
0.0
  9
$DIMDLE
 40
0.0
  9
$DIMEXE
 40
1.25
  9
$DIMTP
 40
0.0
  9
$DIMTM
 40
0.0
  9
$DIMTXT
 40
2.5
  9
$DIMCEN
 40
2.5
  9
$DIMTSZ
 40
0.0
  9
$DIMTOL
 70
     0
  9
$DIMLIM
 70
     0
  9
$DIMTIH
 70
     0
  9
$DIMTOH
 70
     0
  9
$DIMSE1
 70
     0
  9
$DIMSE2
 70
     0
  9
$DIMTAD
 70
     1
  9
$DIMZIN
 70
     8
  9
$DIMBLK
  1

  9
$DIMASO
 70
     1
  9
$DIMSHO
 70
     1
  9
$DIMPOST
  1

  9
$DIMAPOST
  1

  9
$DIMALT
 70
     0
  9
$DIMALTD
 70
     3
  9
$DIMALTF
 40
0.03937007874016
  9
$DIMLFAC
 40
1.0
  9
$DIMTOFL
 70
     1
  9
$DIMTVP
 40
0.0
  9
$DIMTIX
 70
     0
  9
$DIMSOXD
 70
     1
  9
$DIMSAH
 70
     0
  9
$DIMBLK1
  1

  9
$DIMBLK2
  1

  9
$DIMSTYLE
  2
ISO-25
  9
$DIMCLRD
 70
     0
  9
$DIMCLRE
 70
     0
  9
$DIMCLRT
 70
     0
  9
$DIMTFAC
 40
1.0
  9
$DIMGAP
 40
0.625
  9
$DIMJUST
 70
     0
  9
$DIMSD1
 70
     0
  9
$DIMSD2
 70
     0
  9
$DIMTOLJ
 70
     0
  9
$DIMTZIN
 70
     8
  9
$DIMALTZ
 70
     0
  9
$DIMALTTZ
 70
     0
  9
$DIMUPT
 70
     0
  9
$DIMDEC
 70
     2
  9
$DIMTDEC
 70
     2
  9
$DIMALTU
 70
     2
  9
$DIMALTTD
 70
     3
  9
$DIMTXSTY
  7
Standard
  9
$DIMAUNIT
 70
     0
  9
$DIMADEC
 70
     0
  9
$DIMALTRND
 40
0.0
  9
$DIMAZIN
 70
     0
  9
$DIMDSEP
 70
    44
  9
$DIMATFIT
 70
     3
  9
$DIMFRAC
 70
     0
  9
$DIMLDRBLK
  1

  9
$DIMLUNIT
 70
     2
  9
$DIMLWD
 70
    -2
  9
$DIMLWE
 70
    -2
  9
$DIMTMOVE
 70
     2
  9
$DIMFXL
 40
1.0
  9
$DIMFXLON
 70
     0
  9
$DIMJOGANG
 40
0.7853981633974483
  9
$DIMTFILL
 70
     0
  9
$DIMTFILLCLR
 70
     0
  9
$DIMARCSYM
 70
     0
  9
$DIMLTYPE
  6

  9
$DIMLTEX1
  6

  9
$DIMLTEX2
  6

  9
$DIMTXTDIRECTION
 70
     0
  9
$LUNITS
 70
     2
  9
$LUPREC
 70
     4
  9
$SKETCHINC
 40
1.0
  9
$FILLETRAD
 40
0.0
  9
$AUNITS
 70
     0
  9
$AUPREC
 70
     0
  9
$MENU
  1
.
  9
$ELEVATION
 40
0.0
  9
$PELEVATION
 40
0.0
  9
$THICKNESS
 40
0.0
  9
$LIMCHECK
 70
     0
  9
$CHAMFERA
 40
0.0
  9
$CHAMFERB
 40
0.0
  9
$CHAMFERC
 40
0.0
  9
$CHAMFERD
 40
0.0
  9
$SKPOLY
 70
     0
  9
$TDCREATE
 40
2459984.608232847
  9
$TDUCREATE
 40
2459984.56656618
  9
$TDUPDATE
 40
2459984.608236042
  9
$TDUUPDATE
 40
2459984.566569375
  9
$TDINDWG
 40
0.0000000116
  9
$TDUSRTIMER
 40
0.0000000116
  9
$USRTIMER
 70
     1
  9
$ANGBASE
 50
0.0
  9
$ANGDIR
 70
     0
  9
$PDMODE
 70
     0
  9
$PDSIZE
 40
0.0
  9
$PLINEWID
 40
0.0
  9
$SPLFRAME
 70
     0
  9
$SPLINETYPE
 70
     6
  9
$SPLINESEGS
 70
     8
  9
$HANDSEED
  5
340
  9
$SURFTAB1
 70
     6
  9
$SURFTAB2
 70
     6
  9
$SURFTYPE
 70
     6
  9
$SURFU
 70
     6
  9
$SURFV
 70
     6
  9
$UCSBASE
  2

  9
$UCSNAME
  2

  9
$UCSORG
 10
0.0
 20
0.0
 30
0.0
  9
$UCSXDIR
 10
1.0
 20
0.0
 30
0.0
  9
$UCSYDIR
 10
0.0
 20
1.0
 30
0.0
  9
$UCSORTHOREF
  2

  9
$UCSORTHOVIEW
 70
     0
  9
$UCSORGTOP
 10
0.0
 20
0.0
 30
0.0
  9
$UCSORGBOTTOM
 10
0.0
 20
0.0
 30
0.0
  9
$UCSORGLEFT
 10
0.0
 20
0.0
 30
0.0
  9
$UCSORGRIGHT
 10
0.0
 20
0.0
 30
0.0
  9
$UCSORGFRONT
 10
0.0
 20
0.0
 30
0.0
  9
$UCSORGBACK
 10
0.0
 20
0.0
 30
0.0
  9
$PUCSBASE
  2

  9
$PUCSNAME
  2

  9
$PUCSORG
 10
0.0
 20
0.0
 30
0.0
  9
$PUCSXDIR
 10
1.0
 20
0.0
 30
0.0
  9
$PUCSYDIR
 10
0.0
 20
1.0
 30
0.0
  9
$PUCSORTHOREF
  2

  9
$PUCSORTHOVIEW
 70
     0
  9
$PUCSORGTOP
 10
0.0
 20
0.0
 30
0.0
  9
$PUCSORGBOTTOM
 10
0.0
 20
0.0
 30
0.0
  9
$PUCSORGLEFT
 10
0.0
 20
0.0
 30
0.0
  9
$PUCSORGRIGHT
 10
0.0
 20
0.0
 30
0.0
  9
$PUCSORGFRONT
 10
0.0
 20
0.0
 30
0.0
  9
$PUCSORGBACK
 10
0.0
 20
0.0
 30
0.0
  9
$USERI1
 70
     0
  9
$USERI2
 70
     0
  9
$USERI3
 70
     0
  9
$USERI4
 70
     0
  9
$USERI5
 70
     0
  9
$USERR1
 40
0.0
  9
$USERR2
 40
0.0
  9
$USERR3
 40
0.0
  9
$USERR4
 40
0.0
  9
$USERR5
 40
0.0
  9
$WORLDVIEW
 70
     1
  9
$SHADEDGE
 70
     3
  9
$SHADEDIF
 70
    70
  9
$TILEMODE
 70
     1
  9
$MAXACTVP
 70
    64
  9
$PINSBASE
 10
0.0
 20
0.0
 30
0.0
  9
$PLIMCHECK
 70
     0
  9
$PEXTMIN
 10
-7.876400000000018
 20
-5.730400000000003
 30
0.0
  9
$PEXTMAX
 10
279.4764
 20
203.3304
 30
0.0
  9
$PLIMMIN
 10
-20.0
 20
-7.5
  9
$PLIMMAX
 10
277.0
 20
202.5
  9
$UNITMODE
 70
     0
  9
$VISRETAIN
 70
     1
  9
$PLINEGEN
 70
     0
  9
$PSLTSCALE
 70
     0
  9
$TREEDEPTH
 70
  3020
  9
$CMLSTYLE
  2
Standard
  9
$CMLJUST
 70
     0
  9
$CMLSCALE
 40
20.0
  9
$PROXYGRAPHICS
 70
     1
  9
$MEASUREMENT
 70
     1
  9
$CELWEIGHT
370
    -1
  9
$ENDCAPS
280
     0
  9
$JOINSTYLE
280
     0
  9
$LWDISPLAY
290
     0
  9
$INSUNITS
 70
     4
  9
$HYPERLINKBASE
  1

  9
$STYLESHEET
  1

  9
$XEDIT
290
     1
  9
$CEPSNTYPE
380
     3
  9
$CEPSNID
390
5F
  9
$PSTYLEMODE
290
     0
  9
$FINGERPRINTGUID
  2
{d9509385-182f-4aac-b37f-418b5d3e3ae8}
  9
$VERSIONGUID
  2
{FAEB1C32-E019-11D5-929B-00C0DF256EC4}
  9
$EXTNAMES
290
     1
  9
$PSVPSCALE
 40
0.0
  9
$OLESTARTUP
290
     0
  9
$SORTENTS
280
   127
  9
$INDEXCTL
280
     0
  9
$HIDETEXT
280
     1
  9
$XCLIPFRAME
280
     2
  9
$HALOGAP
280
     0
  9
$OBSCOLOR
 70
   257
  9
$OBSLTYPE
280
     0
  9
$INTERSECTIONDISPLAY
280
     0
  9
$INTERSECTIONCOLOR
 70
   257
  9
$DIMASSOC
280
     2
  9
$PROJECTNAME
  1

  9
$CAMERADISPLAY
290
     0
  9
$LENSLENGTH
 40
50.0
  9
$CAMERAHEIGHT
 40
0.0
  9
$STEPSPERSEC
 40
2.0
  9
$STEPSIZE
 40
6.0
  9
$3DDWFPREC
 40
2.0
  9
$PSOLWIDTH
 40
5.0
  9
$PSOLHEIGHT
 40
80.0
  9
$LOFTANG1
 40
1.570796326794897
  9
$LOFTANG2
 40
1.570796326794897
  9
$LOFTMAG1
 40
0.0
  9
$LOFTMAG2
 40
0.0
  9
$LOFTPARAM
 70
     7
  9
$LOFTNORMALS
280
     1
  9
$LATITUDE
 40
37.795
  9
$LONGITUDE
 40
-122.394
  9
$NORTHDIRECTION
 40
0.0
  9
$TIMEZONE
 70
 -8000
  9
$LIGHTGLYPHDISPLAY
280
     1
  9
$TILEMODELIGHTSYNCH
280
     1
  9
$CMATERIAL
347
44
  9
$SOLIDHIST
280
     0
  9
$SHOWHIST
280
     1
  9
$DWFFRAME
280
     2
  9
$DGNFRAME
280
     2
  9
$REALWORLDSCALE
290
     1
  9
$INTERFERECOLOR
 62
   256
  9
$CSHADOW
280
     0
  9
$SHADOWPLANELOCATION
 40
0.0
  0
ENDSEC
  0
SECTION
  2
CLASSES
  0
CLASS
  1
ACDBDICTIONARYWDFLT
  2
AcDbDictionaryWithDefault
  3
ObjectDBX Classes
 90
        0
 91
        3
280
     0
281
     0
  0
CLASS
  1
VISUALSTYLE
  2
AcDbVisualStyle
  3
ObjectDBX Classes
 90
     4095
 91
        3
280
     0
281
     0
  0
CLASS
  1
MATERIAL
  2
AcDbMaterial
  3
ObjectDBX Classes
 90
     1153
 91
        3
280
     0
281
     0
  0
CLASS
  1
SCALE
  2
AcDbScale
  3
ObjectDBX Classes
 90
     1153
 91
        3
280
     0
281
     0
  0
CLASS
  1
TABLESTYLE
  2
AcDbTableStyle
  3
ObjectDBX Classes
 90
     4095
 91
        3
280
     0
281
     0
  0
CLASS
  1
MLEADERSTYLE
  2
AcDbMLeaderStyle
  3
ACDB_MLEADERSTYLE_CLASS
 90
     4095
 91
        3
280
     0
281
     0
  0
CLASS
  1
SUN
  2
AcDbSun
  3
SCENEOE
 90
     1153
 91
        3
280
     0
281
     0
  0
CLASS
  1
RASTERVARIABLES
  2
AcDbRasterVariables
  3
ISM
 90
        0
 91
        3
280
     0
281
     0
  0
CLASS
  1
WIPEOUTVARIABLES
  2
AcDbWipeoutVariables
  3
WipeOut|AutoCAD Express Tool|expresstools@autodesk.com
 90
        0
 91
        3
280
     0
281
     0
  0
CLASS
  1
PLOTSETTINGS
  2
AcDbPlotSettings
  3
ObjectDBX Classes
 90
        0
 91
        3
280
     0
281
     0
  0
CLASS
  1
DICTIONARYVAR
  2
AcDbDictionaryVar
  3
ObjectDBX Classes
 90
        0
 91
        3
280
     0
281
     0
  0
CLASS
  1
CELLSTYLEMAP
  2
AcDbCellStyleMap
  3
ObjectDBX Classes
 90
     1152
 91
        3
280
     0
281
     0
  0
ENDSEC
  0
SECTION
  2
TABLES
  0
TABLE
  2
VPORT
  5
8
330
0
100
AcDbSymbolTable
 70
     1
  0
VPORT
  5
29
330
8
100
AcDbSymbolTableRecord
100
AcDbViewportTableRecord
  2
*Active
 70
     0
 10
0.0
 20
0.0
 11
1.0
 21
1.0
 12
36588.28038478749
 22
-18102.06931310915
 13
0.0
 23
0.0
 14
10.0
 24
10.0
 15
10.0
 25
10.0
 16
0.0
 26
0.0
 36
1.0
 17
0.0
 27
0.0
 37
0.0
 40
1160.719502008469
 41
1.494103997808707
 42
50.0
 43
0.0
 44
0.0
 50
0.0
 51
0.0
 71
     0
 72
   100
 73
     1
 74
     3
 75
     0
 76
     0
 77
     0
 78
     0
281
     0
 65
     1
110
0.0
120
0.0
130
0.0
111
1.0
121
0.0
131
0.0
112
0.0
122
1.0
132
0.0
 79
     0
146
0.0
348
2F
 60
     3
 61
     5
292
     1
282
     1
141
0.0
142
0.0
 63
   250
361
5D
  0
ENDTAB
  0
TABLE
  2
LTYPE
  5
5
330
0
100
AcDbSymbolTable
 70
     4
  0
LTYPE
  5
14
330
5
100
AcDbSymbolTableRecord
100
AcDbLinetypeTableRecord
  2
ByBlock
 70
     0
  3

 72
    65
 73
     0
 40
0.0
  0
LTYPE
  5
15
330
5
100
AcDbSymbolTableRecord
100
AcDbLinetypeTableRecord
  2
ByLayer
 70
     0
  3

 72
    65
 73
     0
 40
0.0
  0
LTYPE
  5
16
330
5
100
AcDbSymbolTableRecord
100
AcDbLinetypeTableRecord
  2
Continuous
 70
     0
  3
Solid line
 72
    65
 73
     0
 40
0.0
  0
LTYPE
  5
166
330
5
100
AcDbSymbolTableRecord
100
AcDbLinetypeTableRecord
  2
CADWORK_3
 70
     0
  3

 72
    65
 73
     2
 40
4.0
 49
2.0
 74
     0
 49
-2.0
 74
     0
  0
LTYPE
  5
2B7
330
5
100
AcDbSymbolTableRecord
100
AcDbLinetypeTableRecord
  2
CADWORK_12
 70
     0
  3

 72
    65
 73
     2
 40
3.75
 49
2.5
 74
     0
 49
-1.25
 74
     0
  0
LTYPE
  5
2B9
330
5
100
AcDbSymbolTableRecord
100
AcDbLinetypeTableRecord
  2
CADWORK_22
 70
     0
  3

 72
    65
 73
     0
 40
0.0
  0
ENDTAB
  0
TABLE
  2
LAYER
  5
2
330
0
100
AcDbSymbolTable
 70
     5
  0
LAYER
  5
10
330
2
100
AcDbSymbolTableRecord
100
AcDbLayerTableRecord
  2
0
 70
     0
 62
     7
  6
Continuous
370
    -3
390
F
347
46
348
0
  0
LAYER
  5
67
330
2
100
AcDbSymbolTableRecord
100
AcDbLayerTableRecord
  2
Ech.1_5
 70
     0
 62
     7
  6
Continuous
370
    -3
390
F
347
46
348
0
  0
LAYER
  5
68
330
2
100
AcDbSymbolTableRecord
100
AcDbLayerTableRecord
  2
ECH_1_5
 70
     0
 62
     7
  6
Continuous
370
    -3
390
F
347
46
348
0
  0
LAYER
  5
69
330
2
100
AcDbSymbolTableRecord
100
AcDbLayerTableRecord
  2
0_
 70
     0
 62
     7
  6
Continuous
370
    -3
390
F
347
46
348
0
  0
LAYER
  5
2FD
330
2
100
AcDbSymbolTableRecord
100
AcDbLayerTableRecord
  2
Defpoints
 70
     0
 62
     7
  6
Continuous
290
     0
370
    -3
390
F
347
46
348
0
  0
ENDTAB
  0
TABLE
  2
STYLE
  5
3
330
0
100
AcDbSymbolTable
 70
    10
  0
STYLE
  5
11
330
3
100
AcDbSymbolTableRecord
100
AcDbTextStyleTableRecord
  2
Standard
 70
     0
 40
0.0
 41
1.0
 50
0.0
 71
     0
 42
2.5
  3
txt
  4

  0
STYLE
  5
62
330
3
100
AcDbSymbolTableRecord
100
AcDbTextStyleTableRecord
  2
CwStyleShx
 70
     0
 40
1.0
 41
1.0
 50
0.0
 71
     0
 42
2.5
  3

  4

  0
STYLE
  5
63
330
3
100
AcDbSymbolTableRecord
100
AcDbTextStyleTableRecord
  2
CwStyleShx16
 70
     0
 40
1.0
 41
1.0
 50
0.0
 71
     0
 42
2.5
  3

  4

  0
STYLE
  5
64
330
3
100
AcDbSymbolTableRecord
100
AcDbTextStyleTableRecord
  2
MONOTXT
 70
     0
 40
0.0
 41
1.0
 50
0.0
 71
     0
 42
2.5
  3
MONOTXT
  4

  0
STYLE
  5
65
330
3
100
AcDbSymbolTableRecord
100
AcDbTextStyleTableRecord
  2
SYMAP
 70
     0
 40
1.0
 41
1.0
 50
0.0
 71
     0
 42
2.5
  3
SYMAP
  4

  0
STYLE
  5
66
330
3
100
AcDbSymbolTableRecord
100
AcDbTextStyleTableRecord
  2
CwStyleTtf
 70
     0
 40
1.0
 41
1.0
 50
0.0
 71
     0
 42
2.5
  3
arial.ttf
  4

  0
STYLE
  5
2FA
330
3
100
AcDbSymbolTableRecord
100
AcDbTextStyleTableRecord
  2
arial-z
 70
     0
 40
0.0
 41
1.0
 50
0.0
 71
     0
 42
2.5
  3
arial.ttf
  4

1001
ACAD
1000
Arial
1071
        0
  0
STYLE
  5
318
330
3
100
AcDbSymbolTableRecord
100
AcDbTextStyleTableRecord
  2
arial-
 70
     0
 40
1.0
 41
1.0
 50
0.0
 71
     0
 42
2.5
  3

  4

1001
ACAD
1000
Arial
1071
        0
  0
STYLE
  5
31C
330
3
100
AcDbSymbolTableRecord
100
AcDbTextStyleTableRecord
  2
arial-i
 70
     0
 40
1.0
 41
1.0
 50
0.0
 71
     0
 42
2.5
  3
ariali.ttf
  4

1001
ACAD
1000
Arial
1071
 16777216
  0
STYLE
  5
31E
330
3
100
AcDbSymbolTableRecord
100
AcDbTextStyleTableRecord
  2
arial-b
 70
     0
 40
1.0
 41
1.0
 50
0.0
 71
     0
 42
2.5
  3
arialbd.ttf
  4

1001
ACAD
1000
Arial
1071
 33554432
  0
ENDTAB
  0
TABLE
  2
VIEW
  5
6
330
0
100
AcDbSymbolTable
 70
     0
  0
ENDTAB
  0
TABLE
  2
UCS
  5
7
330
0
100
AcDbSymbolTable
 70
     0
  0
ENDTAB
  0
TABLE
  2
APPID
  5
9
330
0
100
AcDbSymbolTable
 70
     3
  0
APPID
  5
12
330
9
100
AcDbSymbolTableRecord
100
AcDbRegAppTableRecord
  2
ACAD
 70
     0
  0
APPID
  5
5E
330
9
100
AcDbSymbolTableRecord
100
AcDbRegAppTableRecord
  2
Cadwork
 70
     0
  0
APPID
  5
216
330
9
100
AcDbSymbolTableRecord
100
AcDbRegAppTableRecord
  2
PLOTTRANSPARENCY
 70
     0
  0
ENDTAB
  0
TABLE
  2
DIMSTYLE
  5
A
330
0
100
AcDbSymbolTable
 70
     1
100
AcDbDimStyleTable
  0
DIMSTYLE
105
27
102
{ACAD_REACTORS
330
2FB
330
30A
102
}
330
A
100
AcDbSymbolTableRecord
100
AcDbDimStyleTableRecord
  2
ISO-25
 70
     0
 41
2.5
 42
0.625
 43
3.75
 44
1.25
 73
     0
 74
     0
 77
     1
 78
     8
140
2.5
141
2.5
143
0.03937007874016
147
0.625
171
     3
172
     1
178
     0
271
     2
272
     2
274
     3
278
    44
283
     0
284
     8
340
11
  0
ENDTAB
  0
TABLE
  2
BLOCK_RECORD
  5
1
330
0
100
AcDbSymbolTable
 70
    71
  0
BLOCK_RECORD
  5
1F
330
1
100
AcDbSymbolTableRecord
100
AcDbBlockTableRecord
  2
*Model_Space
340
22
 70
     0
280
     1
281
     0
  0
BLOCK_RECORD
  5
211
330
1
100
AcDbSymbolTableRecord
100
AcDbBlockTableRecord
  2
*Paper_Space
340
212
 70
     0
280
     1
281
     0
  0
BLOCK_RECORD
  5
6A
330
1
100
AcDbSymbolTableRecord
100
AcDbBlockTableRecord
  2
CDWK_PTTYP1
340
0
 70
     0
280
     1
281
     1
  0
BLOCK_RECORD
  5
71
330
1
100
AcDbSymbolTableRecord
100
AcDbBlockTableRecord
  2
CDWK_PTTYP2
340
0
 70
     0
280
     1
281
     1
  0
BLOCK_RECORD
  5
76
330
1
100
AcDbSymbolTableRecord
100
AcDbBlockTableRecord
  2
CDWK_PTTYP4
340
0
 70
     0
280
     1
281
     1
  0
BLOCK_RECORD
  5
7A
330
1
100
AcDbSymbolTableRecord
100
AcDbBlockTableRecord
  2
CDWK_PTTYP5
340
0
 70
     0
280
     1
281
     1
  0
BLOCK_RECORD
  5
83
330
1
100
AcDbSymbolTableRecord
100
AcDbBlockTableRecord
  2
CDWK_PTTYP6
340
0
 70
     0
280
     1
281
     1
  0
BLOCK_RECORD
  5
8B
330
1
100
AcDbSymbolTableRecord
100
AcDbBlockTableRecord
  2
CDWK_PTTYP7
340
0
 70
     0
280
     1
281
     1
  0
BLOCK_RECORD
  5
94
330
1
100
AcDbSymbolTableRecord
100
AcDbBlockTableRecord
  2
CDWK_PTTYP8
340
0
 70
     0
280
     1
281
     1
  0
BLOCK_RECORD
  5
98
330
1
100
AcDbSymbolTableRecord
100
AcDbBlockTableRecord
  2
CDWK_PTTYP9
340
0
 70
     0
280
     1
281
     1
  0
BLOCK_RECORD
  5
9D
330
1
100
AcDbSymbolTableRecord
100
AcDbBlockTableRecord
  2
CDWK_PTTYP10
340
0
 70
     0
280
     1
281
     1
  0
BLOCK_RECORD
  5
A1
330
1
100
AcDbSymbolTableRecord
100
AcDbBlockTableRecord
  2
CDWK_PTTYP11
340
0
 70
     0
280
     1
281
     1
  0
BLOCK_RECORD
  5
A6
330
1
100
AcDbSymbolTableRecord
100
AcDbBlockTableRecord
  2
CDWK_PTTYP12
340
0
 70
     0
280
     1
281
     1
  0
BLOCK_RECORD
  5
AB
330
1
100
AcDbSymbolTableRecord
100
AcDbBlockTableRecord
  2
CDWK_PTTYP13
340
0
 70
     0
280
     1
281
     1
  0
BLOCK_RECORD
  5
B1
330
1
100
AcDbSymbolTableRecord
100
AcDbBlockTableRecord
  2
CDWK_PTTYP16
340
0
 70
     0
280
     1
281
     1
  0
BLOCK_RECORD
  5
B8
330
1
100
AcDbSymbolTableRecord
100
AcDbBlockTableRecord
  2
CDWK_PTTYP17
340
0
 70
     0
280
     1
281
     1
  0
BLOCK_RECORD
  5
BD
330
1
100
AcDbSymbolTableRecord
100
AcDbBlockTableRecord
  2
CDWK_PTTYP18
340
0
 70
     0
280
     1
281
     1
  0
BLOCK_RECORD
  5
C2
330
1
100
AcDbSymbolTableRecord
100
AcDbBlockTableRecord
  2
CDWK_PTTYP19
340
0
 70
     0
280
     1
281
     1
  0
BLOCK_RECORD
  5
C8
330
1
100
AcDbSymbolTableRecord
100
AcDbBlockTableRecord
  2
CDWK_PTTYP20
340
0
 70
     0
280
     1
281
     1
  0
BLOCK_RECORD
  5
CD
330
1
100
AcDbSymbolTableRecord
100
AcDbBlockTableRecord
  2
CDWK_PTTYP21
340
0
 70
     0
280
     1
281
     1
  0
BLOCK_RECORD
  5
D2
330
1
100
AcDbSymbolTableRecord
100
AcDbBlockTableRecord
  2
CDWK_PTTYP25
340
0
 70
     0
280
     1
281
     1
  0
BLOCK_RECORD
  5
D9
330
1
100
AcDbSymbolTableRecord
100
AcDbBlockTableRecord
  2
CDWK_PTTYP26
340
0
 70
     0
280
     1
281
     1
  0
BLOCK_RECORD
  5
E0
330
1
100
AcDbSymbolTableRecord
100
AcDbBlockTableRecord
  2
CDWK_PTTYP27
340
0
 70
     0
280
     1
281
     1
  0
BLOCK_RECORD
  5
E8
330
1
100
AcDbSymbolTableRecord
100
AcDbBlockTableRecord
  2
CDWK_PTTYP28
340
0
 70
     0
280
     1
281
     1
  0
BLOCK_RECORD
  5
EF
330
1
100
AcDbSymbolTableRecord
100
AcDbBlockTableRecord
  2
CDWK_PTTYP29
340
0
 70
     0
280
     1
281
     1
  0
BLOCK_RECORD
  5
F5
330
1
100
AcDbSymbolTableRecord
100
AcDbBlockTableRecord
  2
CDWK_PTTYP30
340
0
 70
     0
280
     1
281
     1
  0
BLOCK_RECORD
  5
FC
330
1
100
AcDbSymbolTableRecord
100
AcDbBlockTableRecord
  2
CDWK_PTTYP31
340
0
 70
     0
280
     1
281
     1
  0
BLOCK_RECORD
  5
104
330
1
100
AcDbSymbolTableRecord
100
AcDbBlockTableRecord
  2
CDWK_PTTYP32
340
0
 70
     0
280
     1
281
     1
  0
BLOCK_RECORD
  5
10D
330
1
100
AcDbSymbolTableRecord
100
AcDbBlockTableRecord
  2
CDWK_PTTYP33
340
0
 70
     0
280
     1
281
     1
  0
BLOCK_RECORD
  5
113
330
1
100
AcDbSymbolTableRecord
100
AcDbBlockTableRecord
  2
CDWK_PTTYP34
340
0
 70
     0
280
     1
281
     1
  0
BLOCK_RECORD
  5
119
330
1
100
AcDbSymbolTableRecord
100
AcDbBlockTableRecord
  2
CDWK_PTTYP35
340
0
 70
     0
280
     1
281
     1
  0
BLOCK_RECORD
  5
11F
330
1
100
AcDbSymbolTableRecord
100
AcDbBlockTableRecord
  2
CDWK_PTTYP36
340
0
 70
     0
280
     1
281
     1
  0
BLOCK_RECORD
  5
127
330
1
100
AcDbSymbolTableRecord
100
AcDbBlockTableRecord
  2
CDWK_PTTYP37
340
0
 70
     0
280
     1
281
     1
  0
BLOCK_RECORD
  5
12C
330
1
100
AcDbSymbolTableRecord
100
AcDbBlockTableRecord
  2
CDWK_PTTYP38
340
0
 70
     0
280
     1
281
     1
  0
BLOCK_RECORD
  5
132
330
1
100
AcDbSymbolTableRecord
100
AcDbBlockTableRecord
  2
CDWK_PTTYP41
340
0
 70
     0
280
     1
281
     1
  0
BLOCK_RECORD
  5
13C
330
1
100
AcDbSymbolTableRecord
100
AcDbBlockTableRecord
  2
CDWK_PTTYP42
340
0
 70
     0
280
     1
281
     1
  0
BLOCK_RECORD
  5
145
330
1
100
AcDbSymbolTableRecord
100
AcDbBlockTableRecord
  2
CDWK_PTTYP43
340
0
 70
     0
280
     1
281
     1
  0
BLOCK_RECORD
  5
14B
330
1
100
AcDbSymbolTableRecord
100
AcDbBlockTableRecord
  2
CDWK_PTTYP44
340
0
 70
     0
280
     1
281
     1
  0
BLOCK_RECORD
  5
154
330
1
100
AcDbSymbolTableRecord
100
AcDbBlockTableRecord
  2
CDWK_PTTYP45
340
0
 70
     0
280
     1
281
     1
  0
BLOCK_RECORD
  5
159
330
1
100
AcDbSymbolTableRecord
100
AcDbBlockTableRecord
  2
CDWK_PTTYP46
340
0
 70
     0
280
     1
281
     1
  0
BLOCK_RECORD
  5
15E
330
1
100
AcDbSymbolTableRecord
100
AcDbBlockTableRecord
  2
CDWK_PTTYP47
340
0
 70
     0
280
     1
281
     1
  0
BLOCK_RECORD
  5
167
330
1
100
AcDbSymbolTableRecord
100
AcDbBlockTableRecord
  2
CDWK_PTTYP48
340
0
 70
     0
280
     1
281
     1
  0
BLOCK_RECORD
  5
16C
330
1
100
AcDbSymbolTableRecord
100
AcDbBlockTableRecord
  2
CDWK_PTTYP49
340
0
 70
     0
280
     1
281
     1
  0
BLOCK_RECORD
  5
173
330
1
100
AcDbSymbolTableRecord
100
AcDbBlockTableRecord
  2
CDWK_PTTYP50
340
0
 70
     0
280
     1
281
     1
  0
BLOCK_RECORD
  5
17D
330
1
100
AcDbSymbolTableRecord
100
AcDbBlockTableRecord
  2
CDWK_PTTYP51
340
0
 70
     0
280
     1
281
     1
  0
BLOCK_RECORD
  5
182
330
1
100
AcDbSymbolTableRecord
100
AcDbBlockTableRecord
  2
CDWK_PTTYP52
340
0
 70
     0
280
     1
281
     1
  0
BLOCK_RECORD
  5
188
330
1
100
AcDbSymbolTableRecord
100
AcDbBlockTableRecord
  2
cw-dimension-symbol1
340
0
 70
     0
280
     1
281
     0
  0
BLOCK_RECORD
  5
18F
330
1
100
AcDbSymbolTableRecord
100
AcDbBlockTableRecord
  2
cw-dimension-symbol2
340
0
102
{BLKREFS
331
304
331
305
331
312
331
313
102
}
 70
     0
280
     1
281
     0
  0
BLOCK_RECORD
  5
194
330
1
100
AcDbSymbolTableRecord
100
AcDbBlockTableRecord
  2
cw-dimension-symbol3
340
0
 70
     0
280
     1
281
     0
  0
BLOCK_RECORD
  5
199
330
1
100
AcDbSymbolTableRecord
100
AcDbBlockTableRecord
  2
cw-dimension-symbol5
340
0
 70
     0
280
     1
281
     0
  0
BLOCK_RECORD
  5
1A0
330
1
100
AcDbSymbolTableRecord
100
AcDbBlockTableRecord
  2
cw-dimension-symbol6
340
0
 70
     0
280
     1
281
     0
  0
BLOCK_RECORD
  5
1A6
330
1
100
AcDbSymbolTableRecord
100
AcDbBlockTableRecord
  2
cw-dimension-symbol11
340
0
 70
     0
280
     1
281
     0
  0
BLOCK_RECORD
  5
1AC
330
1
100
AcDbSymbolTableRecord
100
AcDbBlockTableRecord
  2
cw-dimension-symbol13
340
0
 70
     0
280
     1
281
     0
  0
BLOCK_RECORD
  5
1B2
330
1
100
AcDbSymbolTableRecord
100
AcDbBlockTableRecord
  2
cw-dimension-symbol15
340
0
 70
     0
280
     1
281
     0
  0
BLOCK_RECORD
  5
1B9
330
1
100
AcDbSymbolTableRecord
100
AcDbBlockTableRecord
  2
cw-dimension-symbol16
340
0
 70
     0
280
     1
281
     0
  0
BLOCK_RECORD
  5
1C0
330
1
100
AcDbSymbolTableRecord
100
AcDbBlockTableRecord
  2
cw-dimension-symbol17
340
0
 70
     0
280
     1
281
     0
  0
BLOCK_RECORD
  5
1C7
330
1
100
AcDbSymbolTableRecord
100
AcDbBlockTableRecord
  2
cw-dimension-symbol18
340
0
 70
     0
280
     1
281
     0
  0
BLOCK_RECORD
  5
1CE
330
1
100
AcDbSymbolTableRecord
100
AcDbBlockTableRecord
  2
cw-dimension-symbol19
340
0
 70
     0
280
     1
281
     0
  0
BLOCK_RECORD
  5
1D1
330
1
100
AcDbSymbolTableRecord
100
AcDbBlockTableRecord
  2
cw-dimension-symbol20
340
0
 70
     0
280
     1
281
     0
  0
BLOCK_RECORD
  5
1D8
330
1
100
AcDbSymbolTableRecord
100
AcDbBlockTableRecord
  2
cw-dimension-symbol21
340
0
 70
     0
280
     1
281
     0
  0
BLOCK_RECORD
  5
1DF
330
1
100
AcDbSymbolTableRecord
100
AcDbBlockTableRecord
  2
cw-line-extremity0
340
0
 70
     0
280
     1
281
     0
  0
BLOCK_RECORD
  5
1E3
330
1
100
AcDbSymbolTableRecord
100
AcDbBlockTableRecord
  2
cw-line-extremity2
340
0
 70
     0
280
     1
281
     0
  0
BLOCK_RECORD
  5
1E8
330
1
100
AcDbSymbolTableRecord
100
AcDbBlockTableRecord
  2
cw-line-extremity3
340
0
 70
     0
280
     1
281
     0
  0
BLOCK_RECORD
  5
1ED
330
1
100
AcDbSymbolTableRecord
100
AcDbBlockTableRecord
  2
cw-line-extremity301
340
0
 70
     0
280
     1
281
     0
  0
BLOCK_RECORD
  5
1EF
330
1
100
AcDbSymbolTableRecord
100
AcDbBlockTableRecord
  2
cw-line-extremity4
340
0
102
{BLKREFS
331
2BE
331
2C0
331
2C2
331
2C4
331
2C6
331
2DC
331
2DF
102
}
 70
     0
280
     1
281
     0
  0
BLOCK_RECORD
  5
1F1
330
1
100
AcDbSymbolTableRecord
100
AcDbBlockTableRecord
  2
cw-line-extremity5
340
0
 70
     0
280
     1
281
     0
  0
BLOCK_RECORD
  5
1F3
330
1
100
AcDbSymbolTableRecord
100
AcDbBlockTableRecord
  2
cw-line-extremity6
340
0
 70
     0
280
     1
281
     0
  0
BLOCK_RECORD
  5
1F5
330
1
100
AcDbSymbolTableRecord
100
AcDbBlockTableRecord
  2
cw-line-extremity9
340
0
 70
     0
280
     1
281
     0
  0
BLOCK_RECORD
  5
1F7
330
1
100
AcDbSymbolTableRecord
100
AcDbBlockTableRecord
  2
cw-line-extremity10
340
0
 70
     0
280
     1
281
     0
  0
BLOCK_RECORD
  5
1F9
330
1
100
AcDbSymbolTableRecord
100
AcDbBlockTableRecord
  2
cw-line-extremity1
340
0
 70
     0
280
     1
281
     0
  0
BLOCK_RECORD
  5
1B
330
1
100
AcDbSymbolTableRecord
100
AcDbBlockTableRecord
  2
*Paper_Space69
340
1E
 70
     0
280
     1
281
     0
  0
BLOCK_RECORD
  5
2FE
330
1
100
AcDbSymbolTableRecord
100
AcDbBlockTableRecord
  2
*D70
340
0
 70
     0
280
     1
281
     0
  0
BLOCK_RECORD
  5
30C
330
1
100
AcDbSymbolTableRecord
100
AcDbBlockTableRecord
  2
*D71
340
0
 70
     0
280
     1
281
     0
  0
ENDTAB
  0
ENDSEC
  0
SECTION
  2
BLOCKS
  0
BLOCK
  5
20
330
1F
100
AcDbEntity
  8
0
100
AcDbBlockBegin
  2
*Model_Space
 70
     0
 10
0.0
 20
0.0
 30
0.0
  3
*Model_Space
  1

  0
ENDBLK
  5
21
330
1F
100
AcDbEntity
  8
0
100
AcDbBlockEnd
  0
BLOCK
  5
213
330
211
100
AcDbEntity
 67
     1
  8
0
100
AcDbBlockBegin
  2
*Paper_Space
 70
     0
 10
0.0
 20
0.0
 30
0.0
  3
*Paper_Space
  1

  0
ENDBLK
  5
214
330
211
100
AcDbEntity
 67
     1
  8
0
100
AcDbBlockEnd
  0
BLOCK
  5
6F
330
6A
100
AcDbEntity
  8
0
100
AcDbBlockBegin
  2
CDWK_PTTYP1
 70
     0
 10
0.0
 20
0.0
 30
0.0
  3
CDWK_PTTYP1
  1

  0
LINE
  5
6B
330
6A
100
AcDbEntity
  8
0
  6
Continuous
 62
     0
370
    -2
390
5F
100
AcDbLine
 10
-0.5
 20
0.5
 30
0.0
 11
0.5
 21
0.5
 31
0.0
  0
LINE
  5
6C
330
6A
100
AcDbEntity
  8
0
  6
Continuous
 62
     0
370
    -2
390
5F
100
AcDbLine
 10
0.5
 20
0.5
 30
0.0
 11
0.5
 21
-0.5
 31
0.0
  0
LINE
  5
6D
330
6A
100
AcDbEntity
  8
0
  6
Continuous
 62
     0
370
    -2
390
5F
100
AcDbLine
 10
0.5
 20
-0.5
 30
0.0
 11
-0.5
 21
-0.5
 31
0.0
  0
LINE
  5
6E
330
6A
100
AcDbEntity
  8
0
  6
Continuous
 62
     0
370
    -2
390
5F
100
AcDbLine
 10
-0.5
 20
-0.5
 30
0.0
 11
-0.5
 21
0.5
 31
0.0
  0
ENDBLK
  5
70
330
6A
100
AcDbEntity
  8
0
100
AcDbBlockEnd
  0
BLOCK
  5
74
330
71
100
AcDbEntity
  8
0
100
AcDbBlockBegin
  2
CDWK_PTTYP2
 70
     0
 10
0.0
 20
0.0
 30
0.0
  3
CDWK_PTTYP2
  1

  0
LINE
  5
72
330
71
100
AcDbEntity
  8
0
  6
Continuous
 62
     0
370
    -2
390
5F
100
AcDbLine
 10
0.0
 20
0.5
 30
0.0
 11
0.0
 21
-0.5
 31
0.0
  0
LINE
  5
73
330
71
100
AcDbEntity
  8
0
  6
Continuous
 62
     0
370
    -2
390
5F
100
AcDbLine
 10
0.5
 20
0.0
 30
0.0
 11
-0.5
 21
0.0
 31
0.0
  0
ENDBLK
  5
75
330
71
100
AcDbEntity
  8
0
100
AcDbBlockEnd
  0
BLOCK
  5
78
330
76
100
AcDbEntity
  8
0
100
AcDbBlockBegin
  2
CDWK_PTTYP4
 70
     0
 10
0.0
 20
0.0
 30
0.0
  3
CDWK_PTTYP4
  1

  0
HATCH
  5
77
330
76
100
AcDbEntity
  8
0
  6
Continuous
 62
     0
370
    -2
390
5F
100
AcDbHatch
 10
0.0
 20
0.0
 30
0.0
210
0.0
220
0.0
230
1.0
  2
SOLID
 70
     1
 71
     0
 91
        1
 92
        1
 93
        1
 72
     2
 10
0.0
 20
0.0
 40
0.5
 50
0.0
 51
360.0
 73
     1
 97
        0
 75
     0
 76
     1
 98
        0
  0
ENDBLK
  5
79
330
76
100
AcDbEntity
  8
0
100
AcDbBlockEnd
  0
BLOCK
  5
81
330
7A
100
AcDbEntity
  8
0
100
AcDbBlockBegin
  2
CDWK_PTTYP5
 70
     0
 10
0.0
 20
0.0
 30
0.0
  3
CDWK_PTTYP5
  1

  0
LINE
  5
7B
330
7A
100
AcDbEntity
  8
0
  6
Continuous
 62
     0
370
    -2
390
5F
100
AcDbLine
 10
-0.5
 20
0.5
 30
0.0
 11
0.5
 21
0.5
 31
0.0
  0
LINE
  5
7C
330
7A
100
AcDbEntity
  8
0
  6
Continuous
 62
     0
370
    -2
390
5F
100
AcDbLine
 10
0.5
 20
0.5
 30
0.0
 11
0.5
 21
-0.5
 31
0.0
  0
LINE
  5
7D
330
7A
100
AcDbEntity
  8
0
  6
Continuous
 62
     0
370
    -2
390
5F
100
AcDbLine
 10
0.5
 20
-0.5
 30
0.0
 11
-0.5
 21
-0.5
 31
0.0
  0
LINE
  5
7E
330
7A
100
AcDbEntity
  8
0
  6
Continuous
 62
     0
370
    -2
390
5F
100
AcDbLine
 10
-0.5
 20
-0.5
 30
0.0
 11
-0.5
 21
0.5
 31
0.0
  0
HATCH
  5
7F
330
7A
100
AcDbEntity
  8
0
  6
Continuous
 62
     0
370
    -2
390
5F
100
AcDbHatch
 10
0.0
 20
0.0
 30
0.0
210
0.0
220
0.0
230
1.0
  2
SOLID
 70
     1
 71
     0
 91
        1
 92
        3
 72
     0
 73
     1
 93
        4
 10
-0.5
 20
0.0
 10
0.0
 20
0.0
 10
0.0
 20
-0.5
 10
-0.5
 20
-0.5
 97
        0
 75
     0
 76
     1
 98
        0
  0
HATCH
  5
80
330
7A
100
AcDbEntity
  8
0
  6
Continuous
 62
     0
370
    -2
390
5F
100
AcDbHatch
 10
0.0
 20
0.0
 30
0.0
210
0.0
220
0.0
230
1.0
  2
SOLID
 70
     1
 71
     0
 91
        1
 92
        3
 72
     0
 73
     1
 93
        4
 10
0.0
 20
0.0
 10
0.5
 20
0.0
 10
0.5
 20
0.5
 10
0.0
 20
0.5
 97
        0
 75
     0
 76
     1
 98
        0
  0
ENDBLK
  5
82
330
7A
100
AcDbEntity
  8
0
100
AcDbBlockEnd
  0
BLOCK
  5
89
330
83
100
AcDbEntity
  8
0
100
AcDbBlockBegin
  2
CDWK_PTTYP6
 70
     0
 10
0.0
 20
0.0
 30
0.0
  3
CDWK_PTTYP6
  1

  0
LINE
  5
84
330
83
100
AcDbEntity
  8
0
  6
Continuous
 62
     0
370
    -2
390
5F
100
AcDbLine
 10
-0.5
 20
0.5
 30
0.0
 11
0.5
 21
0.5
 31
0.0
  0
LINE
  5
85
330
83
100
AcDbEntity
  8
0
  6
Continuous
 62
     0
370
    -2
390
5F
100
AcDbLine
 10
0.5
 20
0.5
 30
0.0
 11
0.5
 21
-0.5
 31
0.0
  0
LINE
  5
86
330
83
100
AcDbEntity
  8
0
  6
Continuous
 62
     0
370
    -2
390
5F
100
AcDbLine
 10
0.5
 20
-0.5
 30
0.0
 11
-0.5
 21
-0.5
 31
0.0
  0
LINE
  5
87
330
83
100
AcDbEntity
  8
0
  6
Continuous
 62
     0
370
    -2
390
5F
100
AcDbLine
 10
-0.5
 20
-0.5
 30
0.0
 11
-0.5
 21
0.5
 31
0.0
  0
HATCH
  5
88
330
83
100
AcDbEntity
  8
0
  6
Continuous
 62
     0
370
    -2
390
5F
100
AcDbHatch
 10
0.0
 20
0.0
 30
0.0
210
0.0
220
0.0
230
1.0
  2
SOLID
 70
     1
 71
     0
 91
        1
 92
        3
 72
     0
 73
     1
 93
        3
 10
-0.5
 20
-0.5
 10
-0.5
 20
0.5
 10
0.5
 20
0.5
 97
        0
 75
     0
 76
     1
 98
        0
  0
ENDBLK
  5
8A
330
83
100
AcDbEntity
  8
0
100
AcDbBlockEnd
  0
BLOCK
  5
92
330
8B
100
AcDbEntity
  8
0
100
AcDbBlockBegin
  2
CDWK_PTTYP7
 70
     0
 10
0.0
 20
0.0
 30
0.0
  3
CDWK_PTTYP7
  1

  0
LINE
  5
8C
330
8B
100
AcDbEntity
  8
0
  6
Continuous
 62
     0
370
    -2
390
5F
100
AcDbLine
 10
-0.5
 20
0.5
 30
0.0
 11
0.5
 21
0.5
 31
0.0
  0
LINE
  5
8D
330
8B
100
AcDbEntity
  8
0
  6
Continuous
 62
     0
370
    -2
390
5F
100
AcDbLine
 10
0.5
 20
0.5
 30
0.0
 11
0.5
 21
-0.5
 31
0.0
  0
LINE
  5
8E
330
8B
100
AcDbEntity
  8
0
  6
Continuous
 62
     0
370
    -2
390
5F
100
AcDbLine
 10
0.5
 20
-0.5
 30
0.0
 11
-0.5
 21
-0.5
 31
0.0
  0
LINE
  5
8F
330
8B
100
AcDbEntity
  8
0
  6
Continuous
 62
     0
370
    -2
390
5F
100
AcDbLine
 10
-0.5
 20
-0.5
 30
0.0
 11
-0.5
 21
0.5
 31
0.0
  0
LINE
  5
90
330
8B
100
AcDbEntity
  8
0
  6
Continuous
 62
     0
370
    -2
390
5F
100
AcDbLine
 10
0.0
 20
0.5
 30
0.0
 11
0.0
 21
-0.5
 31
0.0
  0
LINE
  5
91
330
8B
100
AcDbEntity
  8
0
  6
Continuous
 62
     0
370
    -2
390
5F
100
AcDbLine
 10
0.5
 20
0.0
 30
0.0
 11
-0.5
 21
0.0
 31
0.0
  0
ENDBLK
  5
93
330
8B
100
AcDbEntity
  8
0
100
AcDbBlockEnd
  0
BLOCK
  5
96
330
94
100
AcDbEntity
  8
0
100
AcDbBlockBegin
  2
CDWK_PTTYP8
 70
     0
 10
0.0
 20
0.0
 30
0.0
  3
CDWK_PTTYP8
  1

  0
HATCH
  5
95
330
94
100
AcDbEntity
  8
0
  6
Continuous
 62
     0
370
    -2
390
5F
100
AcDbHatch
 10
0.0
 20
0.0
 30
0.0
210
0.0
220
0.0
230
1.0
  2
SOLID
 70
     1
 71
     0
 91
        1
 92
        3
 72
     0
 73
     1
 93
        4
 10
0.5
 20
0.5
 10
0.5
 20
-0.5
 10
-0.5
 20
-0.5
 10
-0.5
 20
0.5
 97
        0
 75
     0
 76
     1
 98
        0
  0
ENDBLK
  5
97
330
94
100
AcDbEntity
  8
0
100
AcDbBlockEnd
  0
BLOCK
  5
9B
330
98
100
AcDbEntity
  8
0
100
AcDbBlockBegin
  2
CDWK_PTTYP9
 70
     0
 10
0.0
 20
0.0
 30
0.0
  3
CDWK_PTTYP9
  1

  0
CIRCLE
  5
99
330
98
100
AcDbEntity
  8
0
  6
Continuous
 62
     0
370
    -2
390
5F
100
AcDbCircle
 10
0.0
 20
0.0
 30
0.0
 40
0.1666666666666667
  0
CIRCLE
  5
9A
330
98
100
AcDbEntity
  8
0
  6
Continuous
 62
     0
370
    -2
390
5F
100
AcDbCircle
 10
0.0
 20
0.0
 30
0.0
 40
0.5
  0
ENDBLK
  5
9C
330
98
100
AcDbEntity
  8
0
100
AcDbBlockEnd
  0
BLOCK
  5
9F
330
9D
100
AcDbEntity
  8
0
100
AcDbBlockBegin
  2
CDWK_PTTYP10
 70
     0
 10
0.0
 20
0.0
 30
0.0
  3
CDWK_PTTYP10
  1

  0
CIRCLE
  5
9E
330
9D
100
AcDbEntity
  8
0
  6
Continuous
 62
     0
370
    -2
390
5F
100
AcDbCircle
 10
0.0
 20
0.0
 30
0.0
 40
0.5
  0
ENDBLK
  5
A0
330
9D
100
AcDbEntity
  8
0
100
AcDbBlockEnd
  0
BLOCK
  5
A4
330
A1
100
AcDbEntity
  8
0
100
AcDbBlockBegin
  2
CDWK_PTTYP11
 70
     0
 10
0.0
 20
0.0
 30
0.0
  3
CDWK_PTTYP11
  1

  0
CIRCLE
  5
A2
330
A1
100
AcDbEntity
  8
0
  6
Continuous
 62
     0
370
    -2
390
5F
100
AcDbCircle
 10
0.0
 20
0.0
 30
0.0
 40
0.25
  0
CIRCLE
  5
A3
330
A1
100
AcDbEntity
  8
0
  6
Continuous
 62
     0
370
    -2
390
5F
100
AcDbCircle
 10
0.0
 20
0.0
 30
0.0
 40
0.5
  0
ENDBLK
  5
A5
330
A1
100
AcDbEntity
  8
0
100
AcDbBlockEnd
  0
BLOCK
  5
A9
330
A6
100
AcDbEntity
  8
0
100
AcDbBlockBegin
  2
CDWK_PTTYP12
 70
     0
 10
0.0
 20
0.0
 30
0.0
  3
CDWK_PTTYP12
  1

  0
CIRCLE
  5
A7
330
A6
100
AcDbEntity
  8
0
  6
Continuous
 62
     0
370
    -2
390
5F
100
AcDbCircle
 10
0.25
 20
0.0
 30
0.0
 40
0.25
  0
CIRCLE
  5
A8
330
A6
100
AcDbEntity
  8
0
  6
Continuous
 62
     0
370
    -2
390
5F
100
AcDbCircle
 10
0.0
 20
0.0
 30
0.0
 40
0.5
  0
ENDBLK
  5
AA
330
A6
100
AcDbEntity
  8
0
100
AcDbBlockEnd
  0
BLOCK
  5
AF
330
AB
100
AcDbEntity
  8
0
100
AcDbBlockBegin
  2
CDWK_PTTYP13
 70
     0
 10
0.0
 20
0.0
 30
0.0
  3
CDWK_PTTYP13
  1

  0
CIRCLE
  5
AC
330
AB
100
AcDbEntity
  8
0
  6
Continuous
 62
     0
370
    -2
390
5F
100
AcDbCircle
 10
-0.25
 20
0.0
 30
0.0
 40
0.25
  0
CIRCLE
  5
AD
330
AB
100
AcDbEntity
  8
0
  6
Continuous
 62
     0
370
    -2
390
5F
100
AcDbCircle
 10
0.25
 20
0.0
 30
0.0
 40
0.25
  0
CIRCLE
  5
AE
330
AB
100
AcDbEntity
  8
0
  6
Continuous
 62
     0
370
    -2
390
5F
100
AcDbCircle
 10
0.0
 20
0.0
 30
0.0
 40
0.5
  0
ENDBLK
  5
B0
330
AB
100
AcDbEntity
  8
0
100
AcDbBlockEnd
  0
BLOCK
  5
B6
330
B1
100
AcDbEntity
  8
0
100
AcDbBlockBegin
  2
CDWK_PTTYP16
 70
     0
 10
0.0
 20
0.0
 30
0.0
  3
CDWK_PTTYP16
  1

  0
LINE
  5
B2
330
B1
100
AcDbEntity
  8
0
  6
Continuous
 62
     0
370
    -2
390
5F
100
AcDbLine
 10
-0.5
 20
-0.289
 30
0.0
 11
0.5
 21
-0.289
 31
0.0
  0
LINE
  5
B3
330
B1
100
AcDbEntity
  8
0
  6
Continuous
 62
     0
370
    -2
390
5F
100
AcDbLine
 10
0.5
 20
-0.289
 30
0.0
 11
0.0
 21
0.577
 31
0.0
  0
LINE
  5
B4
330
B1
100
AcDbEntity
  8
0
  6
Continuous
 62
     0
370
    -2
390
5F
100
AcDbLine
 10
0.0
 20
0.577
 30
0.0
 11
-0.5
 21
-0.289
 31
0.0
  0
CIRCLE
  5
B5
330
B1
100
AcDbEntity
  8
0
  6
Continuous
 62
     0
370
    -2
390
5F
100
AcDbCircle
 10
0.0
 20
0.0
 30
0.0
 40
0.289
  0
ENDBLK
  5
B7
330
B1
100
AcDbEntity
  8
0
100
AcDbBlockEnd
  0
BLOCK
  5
BB
330
B8
100
AcDbEntity
  8
0
100
AcDbBlockBegin
  2
CDWK_PTTYP17
 70
     0
 10
0.0
 20
0.0
 30
0.0
  3
CDWK_PTTYP17
  1

  0
CIRCLE
  5
B9
330
B8
100
AcDbEntity
  8
0
  6
Continuous
 62
     0
370
    -2
390
5F
100
AcDbCircle
 10
0.0
 20
0.0
 30
0.0
 40
0.5
  0
HATCH
  5
BA
330
B8
100
AcDbEntity
  8
0
  6
Continuous
 62
     0
370
    -2
390
5F
100
AcDbHatch
 10
0.0
 20
0.0
 30
0.0
210
0.0
220
0.0
230
1.0
  2
SOLID
 70
     1
 71
     0
 91
        1
 92
        1
 93
        1
 72
     2
 10
0.0
 20
0.0
 40
0.25
 50
0.0
 51
360.0
 73
     1
 97
        0
 75
     0
 76
     1
 98
        0
  0
ENDBLK
  5
BC
330
B8
100
AcDbEntity
  8
0
100
AcDbBlockEnd
  0
BLOCK
  5
C0
330
BD
100
AcDbEntity
  8
0
100
AcDbBlockBegin
  2
CDWK_PTTYP18
 70
     0
 10
0.0
 20
0.0
 30
0.0
  3
CDWK_PTTYP18
  1

  0
CIRCLE
  5
BE
330
BD
100
AcDbEntity
  8
0
  6
Continuous
 62
     0
370
    -2
390
5F
100
AcDbCircle
 10
0.0
 20
0.0
 30
0.0
 40
0.5
  0
CIRCLE
  5
BF
330
BD
100
AcDbEntity
  8
0
  6
Continuous
 62
     0
370
    -2
390
5F
100
AcDbCircle
 10
0.0
 20
0.0
 30
0.0
 40
0.208
  0
ENDBLK
  5
C1
330
BD
100
AcDbEntity
  8
0
100
AcDbBlockEnd
  0
BLOCK
  5
C6
330
C2
100
AcDbEntity
  8
0
100
AcDbBlockBegin
  2
CDWK_PTTYP19
 70
     0
 10
0.0
 20
0.0
 30
0.0
  3
CDWK_PTTYP19
  1

  0
CIRCLE
  5
C3
330
C2
100
AcDbEntity
  8
0
  6
Continuous
 62
     0
370
    -2
390
5F
100
AcDbCircle
 10
0.0
 20
0.0
 30
0.0
 40
0.25
  0
CIRCLE
  5
C4
330
C2
100
AcDbEntity
  8
0
  6
Continuous
 62
     0
370
    -2
390
5F
100
AcDbCircle
 10
0.0
 20
0.0
 30
0.0
 40
0.35
  0
LINE
  5
C5
330
C2
100
AcDbEntity
  8
0
  6
Continuous
 62
     0
370
    -2
390
5F
100
AcDbLine
 10
-0.25
 20
0.0
 30
0.0
 11
0.25
 21
0.0
 31
0.0
  0
ENDBLK
  5
C7
330
C2
100
AcDbEntity
  8
0
100
AcDbBlockEnd
  0
BLOCK
  5
CB
330
C8
100
AcDbEntity
  8
0
100
AcDbBlockBegin
  2
CDWK_PTTYP20
 70
     0
 10
0.0
 20
0.0
 30
0.0
  3
CDWK_PTTYP20
  1

  0
CIRCLE
  5
C9
330
C8
100
AcDbEntity
  8
0
  6
Continuous
 62
     0
370
    -2
390
5F
100
AcDbCircle
 10
0.0
 20
0.0
 30
0.0
 40
0.3333333333333333
  0
CIRCLE
  5
CA
330
C8
100
AcDbEntity
  8
0
  6
Continuous
 62
     0
370
    -2
390
5F
100
AcDbCircle
 10
0.0
 20
0.0
 30
0.0
 40
0.5
  0
ENDBLK
  5
CC
330
C8
100
AcDbEntity
  8
0
100
AcDbBlockEnd
  0
BLOCK
  5
D0
330
CD
100
AcDbEntity
  8
0
100
AcDbBlockBegin
  2
CDWK_PTTYP21
 70
     0
 10
0.0
 20
0.0
 30
0.0
  3
CDWK_PTTYP21
  1

  0
CIRCLE
  5
CE
330
CD
100
AcDbEntity
  8
0
  6
Continuous
 62
     0
370
    -2
390
5F
100
AcDbCircle
 10
0.0
 20
0.0
 30
0.0
 40
0.5
  0
LINE
  5
CF
330
CD
100
AcDbEntity
  8
0
  6
Continuous
 62
     0
370
    -2
390
5F
100
AcDbLine
 10
-0.5
 20
0.0
 30
0.0
 11
0.5
 21
0.0
 31
0.0
  0
ENDBLK
  5
D1
330
CD
100
AcDbEntity
  8
0
100
AcDbBlockEnd
  0
BLOCK
  5
D7
330
D2
100
AcDbEntity
  8
0
100
AcDbBlockBegin
  2
CDWK_PTTYP25
 70
     0
 10
0.0
 20
0.0
 30
0.0
  3
CDWK_PTTYP25
  1

  0
LINE
  5
D3
330
D2
100
AcDbEntity
  8
0
  6
Continuous
 62
     0
370
    -2
390
5F
100
AcDbLine
 10
0.0
 20
0.5
 30
0.0
 11
-0.4330127018922193
 21
-0.25
 31
0.0
  0
LINE
  5
D4
330
D2
100
AcDbEntity
  8
0
  6
Continuous
 62
     0
370
    -2
390
5F
100
AcDbLine
 10
-0.4330127018922193
 20
-0.25
 30
0.0
 11
0.4330127018922193
 21
-0.25
 31
0.0
  0
LINE
  5
D5
330
D2
100
AcDbEntity
  8
0
  6
Continuous
 62
     0
370
    -2
390
5F
100
AcDbLine
 10
0.4330127018922193
 20
-0.25
 30
0.0
 11
0.0
 21
0.5
 31
0.0
  0
CIRCLE
  5
D6
330
D2
100
AcDbEntity
  8
0
  6
Continuous
 62
     0
370
    -2
390
5F
100
AcDbCircle
 10
0.0
 20
0.0
 30
0.0
 40
0.5
  0
ENDBLK
  5
D8
330
D2
100
AcDbEntity
  8
0
100
AcDbBlockEnd
  0
BLOCK
  5
DE
330
D9
100
AcDbEntity
  8
0
100
AcDbBlockBegin
  2
CDWK_PTTYP26
 70
     0
 10
0.0
 20
0.0
 30
0.0
  3
CDWK_PTTYP26
  1

  0
LINE
  5
DA
330
D9
100
AcDbEntity
  8
0
  6
Continuous
 62
     0
370
    -2
390
5F
100
AcDbLine
 10
-0.5
 20
-0.289
 30
0.0
 11
0.5
 21
-0.289
 31
0.0
  0
LINE
  5
DB
330
D9
100
AcDbEntity
  8
0
  6
Continuous
 62
     0
370
    -2
390
5F
100
AcDbLine
 10
0.5
 20
-0.289
 30
0.0
 11
0.0
 21
0.577
 31
0.0
  0
LINE
  5
DC
330
D9
100
AcDbEntity
  8
0
  6
Continuous
 62
     0
370
    -2
390
5F
100
AcDbLine
 10
0.0
 20
0.577
 30
0.0
 11
-0.5
 21
-0.289
 31
0.0
  0
CIRCLE
  5
DD
330
D9
100
AcDbEntity
  8
0
  6
Continuous
 62
     0
370
    -2
390
5F
100
AcDbCircle
 10
0.0
 20
0.0
 30
0.0
 40
0.125
  0
ENDBLK
  5
DF
330
D9
100
AcDbEntity
  8
0
100
AcDbBlockEnd
  0
BLOCK
  5
E6
330
E0
100
AcDbEntity
  8
0
100
AcDbBlockBegin
  2
CDWK_PTTYP27
 70
     0
 10
0.0
 20
0.0
 30
0.0
  3
CDWK_PTTYP27
  1

  0
LINE
  5
E1
330
E0
100
AcDbEntity
  8
0
  6
Continuous
 62
     0
370
    -2
390
5F
100
AcDbLine
 10
0.0
 20
0.5
 30
0.0
 11
-0.4330127018922193
 21
-0.25
 31
0.0
  0
LINE
  5
E2
330
E0
100
AcDbEntity
  8
0
  6
Continuous
 62
     0
370
    -2
390
5F
100
AcDbLine
 10
-0.4330127018922193
 20
-0.25
 30
0.0
 11
0.4330127018922193
 21
-0.25
 31
0.0
  0
LINE
  5
E3
330
E0
100
AcDbEntity
  8
0
  6
Continuous
 62
     0
370
    -2
390
5F
100
AcDbLine
 10
0.4330127018922193
 20
-0.25
 30
0.0
 11
0.0
 21
0.5
 31
0.0
  0
CIRCLE
  5
E4
330
E0
100
AcDbEntity
  8
0
  6
Continuous
 62
     0
370
    -2
390
5F
100
AcDbCircle
 10
0.0
 20
0.0
 30
0.0
 40
0.125
  0
CIRCLE
  5
E5
330
E0
100
AcDbEntity
  8
0
  6
Continuous
 62
     0
370
    -2
390
5F
100
AcDbCircle
 10
0.0
 20
0.0
 30
0.0
 40
0.5
  0
ENDBLK
  5
E7
330
E0
100
AcDbEntity
  8
0
100
AcDbBlockEnd
  0
BLOCK
  5
ED
330
E8
100
AcDbEntity
  8
0
100
AcDbBlockBegin
  2
CDWK_PTTYP28
 70
     0
 10
0.0
 20
0.0
 30
0.0
  3
CDWK_PTTYP28
  1

  0
LINE
  5
E9
330
E8
100
AcDbEntity
  8
0
  6
Continuous
 62
     0
370
    -2
390
5F
100
AcDbLine
 10
-0.5
 20
0.5
 30
0.0
 11
0.5
 21
0.5
 31
0.0
  0
LINE
  5
EA
330
E8
100
AcDbEntity
  8
0
  6
Continuous
 62
     0
370
    -2
390
5F
100
AcDbLine
 10
0.5
 20
0.5
 30
0.0
 11
-0.5
 21
-0.5
 31
0.0
  0
LINE
  5
EB
330
E8
100
AcDbEntity
  8
0
  6
Continuous
 62
     0
370
    -2
390
5F
100
AcDbLine
 10
0.5
 20
-0.5
 30
0.0
 11
-0.5
 21
-0.5
 31
0.0
  0
LINE
  5
EC
330
E8
100
AcDbEntity
  8
0
  6
Continuous
 62
     0
370
    -2
390
5F
100
AcDbLine
 10
-0.5
 20
0.5
 30
0.0
 11
0.5
 21
-0.5
 31
0.0
  0
ENDBLK
  5
EE
330
E8
100
AcDbEntity
  8
0
100
AcDbBlockEnd
  0
BLOCK
  5
F3
330
EF
100
AcDbEntity
  8
0
100
AcDbBlockBegin
  2
CDWK_PTTYP29
 70
     0
 10
0.0
 20
0.0
 30
0.0
  3
CDWK_PTTYP29
  1

  0
CIRCLE
  5
F0
330
EF
100
AcDbEntity
  8
0
  6
Continuous
 62
     0
370
    -2
390
5F
100
AcDbCircle
 10
0.0
 20
0.0
 30
0.0
 40
0.2
  0
CIRCLE
  5
F1
330
EF
100
AcDbEntity
  8
0
  6
Continuous
 62
     0
370
    -2
390
5F
100
AcDbCircle
 10
0.0
 20
0.0
 30
0.0
 40
0.35
  0
CIRCLE
  5
F2
330
EF
100
AcDbEntity
  8
0
  6
Continuous
 62
     0
370
    -2
390
5F
100
AcDbCircle
 10
0.0
 20
0.0
 30
0.0
 40
0.5
  0
ENDBLK
  5
F4
330
EF
100
AcDbEntity
  8
0
100
AcDbBlockEnd
  0
BLOCK
  5
FA
330
F5
100
AcDbEntity
  8
0
100
AcDbBlockBegin
  2
CDWK_PTTYP30
 70
     0
 10
0.0
 20
0.0
 30
0.0
  3
CDWK_PTTYP30
  1

  0
LINE
  5
F6
330
F5
100
AcDbEntity
  8
0
  6
Continuous
 62
     0
370
    -2
390
5F
100
AcDbLine
 10
-0.5
 20
0.5
 30
0.0
 11
-0.1
 21
0.1
 31
0.0
  0
LINE
  5
F7
330
F5
100
AcDbEntity
  8
0
  6
Continuous
 62
     0
370
    -2
390
5F
100
AcDbLine
 10
0.5
 20
0.5
 30
0.0
 11
0.1
 21
0.1
 31
0.0
  0
LINE
  5
F8
330
F5
100
AcDbEntity
  8
0
  6
Continuous
 62
     0
370
    -2
390
5F
100
AcDbLine
 10
0.5
 20
-0.5
 30
0.0
 11
0.1
 21
-0.1
 31
0.0
  0
LINE
  5
F9
330
F5
100
AcDbEntity
  8
0
  6
Continuous
 62
     0
370
    -2
390
5F
100
AcDbLine
 10
-0.5
 20
-0.5
 30
0.0
 11
-0.1
 21
-0.1
 31
0.0
  0
ENDBLK
  5
FB
330
F5
100
AcDbEntity
  8
0
100
AcDbBlockEnd
  0
BLOCK
  5
102
330
FC
100
AcDbEntity
  8
0
100
AcDbBlockBegin
  2
CDWK_PTTYP31
 70
     0
 10
0.0
 20
0.0
 30
0.0
  3
CDWK_PTTYP31
  1

  0
LINE
  5
FD
330
FC
100
AcDbEntity
  8
0
  6
Continuous
 62
     0
370
    -2
390
5F
100
AcDbLine
 10
-0.5
 20
0.0
 30
0.0
 11
-0.1
 21
0.0
 31
0.0
  0
LINE
  5
FE
330
FC
100
AcDbEntity
  8
0
  6
Continuous
 62
     0
370
    -2
390
5F
100
AcDbLine
 10
0.1
 20
0.0
 30
0.0
 11
0.5
 21
0.0
 31
0.0
  0
LINE
  5
FF
330
FC
100
AcDbEntity
  8
0
  6
Continuous
 62
     0
370
    -2
390
5F
100
AcDbLine
 10
0.0
 20
0.5
 30
0.0
 11
0.0
 21
0.1
 31
0.0
  0
LINE
  5
100
330
FC
100
AcDbEntity
  8
0
  6
Continuous
 62
     0
370
    -2
390
5F
100
AcDbLine
 10
0.0
 20
-0.1
 30
0.0
 11
0.0
 21
-0.5
 31
0.0
  0
CIRCLE
  5
101
330
FC
100
AcDbEntity
  8
0
  6
Continuous
 62
     0
370
    -2
390
5F
100
AcDbCircle
 10
0.0
 20
0.0
 30
0.0
 40
0.1
  0
ENDBLK
  5
103
330
FC
100
AcDbEntity
  8
0
100
AcDbBlockEnd
  0
BLOCK
  5
10B
330
104
100
AcDbEntity
  8
0
100
AcDbBlockBegin
  2
CDWK_PTTYP32
 70
     0
 10
0.0
 20
0.0
 30
0.0
  3
CDWK_PTTYP32
  1

  0
CIRCLE
  5
105
330
104
100
AcDbEntity
  8
0
  6
Continuous
 62
     0
370
    -2
390
5F
100
AcDbCircle
 10
0.0
 20
0.0
 30
0.0
 40
0.2
  0
CIRCLE
  5
106
330
104
100
AcDbEntity
  8
0
  6
Continuous
 62
     0
370
    -2
390
5F
100
AcDbCircle
 10
0.0
 20
0.0
 30
0.0
 40
0.5
  0
LINE
  5
107
330
104
100
AcDbEntity
  8
0
  6
Continuous
 62
     0
370
    -2
390
5F
100
AcDbLine
 10
0.1414213562373095
 20
0.1414213562373095
 30
0.0
 11
0.3535533905932738
 21
0.3535533905932738
 31
0.0
  0
LINE
  5
108
330
104
100
AcDbEntity
  8
0
  6
Continuous
 62
     0
370
    -2
390
5F
100
AcDbLine
 10
-0.1414213562373095
 20
0.1414213562373095
 30
0.0
 11
-0.3535533905932738
 21
0.3535533905932738
 31
0.0
  0
LINE
  5
109
330
104
100
AcDbEntity
  8
0
  6
Continuous
 62
     0
370
    -2
390
5F
100
AcDbLine
 10
0.1414213562373095
 20
-0.1414213562373095
 30
0.0
 11
0.3535533905932738
 21
-0.3535533905932738
 31
0.0
  0
LINE
  5
10A
330
104
100
AcDbEntity
  8
0
  6
Continuous
 62
     0
370
    -2
390
5F
100
AcDbLine
 10
-0.1414213562373095
 20
-0.1414213562373095
 30
0.0
 11
-0.3535533905932738
 21
-0.3535533905932738
 31
0.0
  0
ENDBLK
  5
10C
330
104
100
AcDbEntity
  8
0
100
AcDbBlockEnd
  0
BLOCK
  5
111
330
10D
100
AcDbEntity
  8
0
100
AcDbBlockBegin
  2
CDWK_PTTYP33
 70
     0
 10
0.0
 20
0.0
 30
0.0
  3
CDWK_PTTYP33
  1

  0
LINE
  5
10E
330
10D
100
AcDbEntity
  8
0
  6
Continuous
 62
     0
370
    -2
390
5F
100
AcDbLine
 10
0.0
 20
-0.5
 30
0.0
 11
0.0
 21
0.5
 31
0.0
  0
LINE
  5
10F
330
10D
100
AcDbEntity
  8
0
  6
Continuous
 62
     0
370
    -2
390
5F
100
AcDbLine
 10
0.5
 20
0.0
 30
0.0
 11
-0.5
 21
0.0
 31
0.0
  0
CIRCLE
  5
110
330
10D
100
AcDbEntity
  8
0
  6
Continuous
 62
     0
370
    -2
390
5F
100
AcDbCircle
 10
0.0
 20
0.0
 30
0.0
 40
0.5
  0
ENDBLK
  5
112
330
10D
100
AcDbEntity
  8
0
100
AcDbBlockEnd
  0
BLOCK
  5
117
330
113
100
AcDbEntity
  8
0
100
AcDbBlockBegin
  2
CDWK_PTTYP34
 70
     0
 10
0.0
 20
0.0
 30
0.0
  3
CDWK_PTTYP34
  1

  0
CIRCLE
  5
114
330
113
100
AcDbEntity
  8
0
  6
Continuous
 62
     0
370
    -2
390
5F
100
AcDbCircle
 10
0.0
 20
0.0
 30
0.0
 40
0.5
  0
LINE
  5
115
330
113
100
AcDbEntity
  8
0
  6
Continuous
 62
     0
370
    -2
390
5F
100
AcDbLine
 10
-0.4
 20
-0.3
 30
0.0
 11
0.3
 21
0.4
 31
0.0
  0
LINE
  5
116
330
113
100
AcDbEntity
  8
0
  6
Continuous
 62
     0
370
    -2
390
5F
100
AcDbLine
 10
-0.3
 20
-0.4
 30
0.0
 11
0.4
 21
0.3
 31
0.0
  0
ENDBLK
  5
118
330
113
100
AcDbEntity
  8
0
100
AcDbBlockEnd
  0
BLOCK
  5
11D
330
119
100
AcDbEntity
  8
0
100
AcDbBlockBegin
  2
CDWK_PTTYP35
 70
     0
 10
0.0
 20
0.0
 30
0.0
  3
CDWK_PTTYP35
  1

  0
LINE
  5
11A
330
119
100
AcDbEntity
  8
0
  6
Continuous
 62
     0
370
    -2
390
5F
100
AcDbLine
 10
0.0
 20
0.2
 30
0.0
 11
0.0
 21
0.5
 31
0.0
  0
LINE
  5
11B
330
119
100
AcDbEntity
  8
0
  6
Continuous
 62
     0
370
    -2
390
5F
100
AcDbLine
 10
0.0
 20
-0.2
 30
0.0
 11
0.0
 21
-0.5
 31
0.0
  0
CIRCLE
  5
11C
330
119
100
AcDbEntity
  8
0
  6
Continuous
 62
     0
370
    -2
390
5F
100
AcDbCircle
 10
0.0
 20
0.0
 30
0.0
 40
0.2
  0
ENDBLK
  5
11E
330
119
100
AcDbEntity
  8
0
100
AcDbBlockEnd
  0
BLOCK
  5
125
330
11F
100
AcDbEntity
  8
0
100
AcDbBlockBegin
  2
CDWK_PTTYP36
 70
     0
 10
0.0
 20
0.0
 30
0.0
  3
CDWK_PTTYP36
  1

  0
LINE
  5
120
330
11F
100
AcDbEntity
  8
0
  6
Continuous
 62
     0
370
    -2
390
5F
100
AcDbLine
 10
-0.5
 20
0.2
 30
0.0
 11
0.5
 21
0.2
 31
0.0
  0
LINE
  5
121
330
11F
100
AcDbEntity
  8
0
  6
Continuous
 62
     0
370
    -2
390
5F
100
AcDbLine
 10
0.5
 20
0.2
 30
0.0
 11
0.5
 21
-0.2
 31
0.0
  0
LINE
  5
122
330
11F
100
AcDbEntity
  8
0
  6
Continuous
 62
     0
370
    -2
390
5F
100
AcDbLine
 10
0.5
 20
-0.2
 30
0.0
 11
-0.5
 21
-0.2
 31
0.0
  0
LINE
  5
123
330
11F
100
AcDbEntity
  8
0
  6
Continuous
 62
     0
370
    -2
390
5F
100
AcDbLine
 10
-0.5
 20
-0.2
 30
0.0
 11
-0.5
 21
0.2
 31
0.0
  0
HATCH
  5
124
330
11F
100
AcDbEntity
  8
0
  6
Continuous
 62
     0
370
    -2
390
5F
100
AcDbHatch
 10
0.0
 20
0.0
 30
0.0
210
0.0
220
0.0
230
1.0
  2
SOLID
 70
     1
 71
     0
 91
        1
 92
        3
 72
     0
 73
     1
 93
        3
 10
-0.5
 20
-0.2
 10
0.5
 20
-0.2
 10
0.5
 20
0.2
 97
        0
 75
     0
 76
     1
 98
        0
  0
ENDBLK
  5
126
330
11F
100
AcDbEntity
  8
0
100
AcDbBlockEnd
  0
BLOCK
  5
12A
330
127
100
AcDbEntity
  8
0
100
AcDbBlockBegin
  2
CDWK_PTTYP37
 70
     0
 10
0.0
 20
0.0
 30
0.0
  3
CDWK_PTTYP37
  1

  0
HATCH
  5
128
330
127
100
AcDbEntity
  8
0
  6
Continuous
 62
     0
370
    -2
390
5F
100
AcDbHatch
 10
0.0
 20
0.0
 30
0.0
210
0.0
220
0.0
230
1.0
  2
SOLID
 70
     1
 71
     0
 91
        1
 92
        3
 72
     0
 73
     1
 93
      202
 10
-0.3535533905932738
 20
-0.3535533905932738
 10
-0.3485533905932738
 20
-0.3535533905932737
 10
-0.3435533905932738
 20
-0.3584836591895546
 10
-0.3385533905932738
 20
-0.3632782236961988
 10
-0.3335533905932738
 20
-0.367942389128785
 10
-0.3285533905932738
 20
-0.372481054046687
 10
-0.3235533905932738
 20
-0.3768987523588579
 10
-0.3185533905932738
 20
-0.3811996897107819
 10
-0.3135533905932738
 20
-0.3853877752881235
 10
-0.3085533905932737
 20
-0.3894666497242888
 10
-0.3035533905932737
 20
-0.3934397096803965
 10
-0.2985533905932737
 20
-0.3973101295704999
 10
-0.2935533905932737
 20
-0.4010808808273714
 10
-0.2885533905932737
 20
-0.4047547490409382
 10
-0.2835533905932737
 20
-0.4083343492496384
 10
-0.2785533905932737
 20
-0.4118221396222626
 10
-0.2735533905932737
 20
-0.4152204337324827
 10
-0.2685533905932737
 20
-0.4185314115988474
 10
-0.2635533905932737
 20
-0.4217571296384408
 10
-0.2585533905932737
 20
-0.4248995296617653
 10
-0.2535533905932737
 20
-0.4279604470190231
 10
-0.2485533905932737
 20
-0.4309416179932669
 10
-0.2435533905932737
 20
-0.4338446865234004
 10
-0.2385533905932737
 20
-0.4366712103293738
 10
-0.2335533905932737
 20
-0.439422666502825
 10
-0.2285533905932737
 20
-0.4421004566186126
 10
-0.2235533905932737
 20
-0.4447059114159811
 10
-0.2185533905932737
 20
-0.4472402950923041
 10
-0.2135533905932737
 20
-0.4497048092473372
 10
-0.2085533905932737
 20
-0.4521005965115692
 10
-0.2035533905932737
 20
-0.4544287438884664
 10
-0.1985533905932736
 20
-0.456690285837111
 10
-0.1935533905932736
 20
-0.45888620711884
 10
-0.1885533905932736
 20
-0.4610174454289638
 10
-0.1835533905932736
 20
-0.4630848938324164
 10
-0.1785533905932736
 20
-0.4650894030202291
 10
-0.1735533905932736
 20
-0.4670317834019928
 10
-0.1685533905932736
 20
-0.46891280704794
 10
-0.1635533905932736
 20
-0.4707332094929264
 10
-0.1585533905932736
 20
-0.4724936914133818
 10
-0.1535533905932736
 20
-0.4741949201872336
 10
-0.1485533905932736
 20
-0.4758375313458466
 10
-0.1435533905932736
 20
-0.4774221299261716
 10
-0.1385533905932736
 20
-0.4789492917305286
 10
-0.1335533905932736
 20
-0.4804195645007682
 10
-0.1285533905932736
 20
-0.4818334690129366
 10
-0.1235533905932736
 20
-0.4831915000980183
 10
-0.1185533905932736
 20
-0.4844941275938295
 10
-0.1135533905932736
 20
-0.4857417972326848
 10
-0.1085533905932736
 20
-0.4869349314690531
 10
-0.1035533905932736
 20
-0.4880739302510473
 10
-0.0985533905932736
 20
-0.489159171739258
 10
-0.0935533905932736
 20
-0.4901910129761353
 10
-0.0885533905932736
 20
-0.4911697905088447
 10
-0.0835533905932735
 20
-0.4920958209682695
 10
-0.0785533905932735
 20
-0.4929694016065986
 10
-0.0735533905932735
 20
-0.4937908107957261
 10
-0.0685533905932735
 20
-0.494560308488493
 10
-0.0635533905932735
 20
-0.4952781366446192
 10
-0.0585533905932735
 20
-0.4959445196230107
 10
-0.0535533905932735
 20
-0.4965596645419678
 10
-0.0485533905932735
 20
-0.4971237616086806
 10
-0.0435533905932735
 20
-0.4976369844192622
 10
-0.0385533905932735
 20
-0.4980994902304456
 10
-0.0335533905932735
 20
-0.4985114202039533
 10
-0.0285533905932735
 20
-0.4988728996244386
 10
-0.0235533905932735
 20
-0.4991840380917923
 10
-0.0185533905932735
 20
-0.49944492968851
 10
-0.0135533905932735
 20
-0.4996556531227215
 10
-0.0085533905932735
 20
-0.4998162718473921
 10
-0.0035533905932735
 20
-0.4999268341561182
 10
0.0014466094067265
 20
-0.499987373255857
 10
0.0064466094067265
 20
-0.4999979073168451
 10
0.0114466094067265
 20
-0.4999584394998819
 10
0.0164466094067265
 20
-0.4998689579610739
 10
0.0214466094067265
 20
-0.4997294358340547
 10
0.0264466094067265
 20
-0.4995398311896213
 10
0.0314466094067265
 20
-0.4993000869726422
 10
0.0364466094067265
 20
-0.4990101309160174
 10
0.0414466094067265
 20
-0.4986698754313855
 10
0.0464466094067265
 20
-0.498279217476192
 10
0.0514466094067265
 20
-0.4978380383966446
 10
0.0564466094067265
 20
-0.497346203745994
 10
0.0614466094067265
 20
-0.4968035630774849
 10
0.0664466094067264
 20
-0.4962099497112257
 10
0.0714466094067265
 20
-0.4955651804741228
 10
0.0764466094067265
 20
-0.4948690554119167
 10
0.0814466094067265
 20
-0.4941213574722463
 10
0.0864466094067265
 20
-0.4933218521575424
 10
0.0914466094067265
 20
-0.4924702871464235
 10
0.0964466094067265
 20
-0.4915663918821278
 10
0.1014466094067265
 20
-0.4906098771263643
 10
0.1064466094067265
 20
-0.4896004344768079
 10
0.1114466094067265
 20
-0.4885377358462822
 10
0.1164466094067265
 20
-0.4874214329014929
 10
0.1214466094067265
 20
-0.4862511564589613
 10
0.1264466094067265
 20
-0.4850265158355881
 10
0.1314466094067265
 20
-0.4837470981510305
 10
0.1364466094067265
 20
-0.482412467578809
 10
0.1414466094067265
 20
-0.4810221645427664
 10
0.1464466094067265
 20
-0.4795757048551781
 10
0.1514466094067265
 20
-0.4780725787924608
 10
0.1564466094067265
 20
-0.4765122501040308
 10
0.1614466094067265
 20
-0.4748941549494363
 10
0.1664466094067265
 20
-0.4732177007584056
 10
0.1714466094067265
 20
-0.4714822650079264
 10
0.1764466094067265
 20
-0.4696871939098801
 10
0.1814466094067266
 20
-0.4678318010021017
 10
0.1864466094067266
 20
-0.4659153656350076
 10
0.1914466094067266
 20
-0.4639371313451162
 10
0.1964466094067266
 20
-0.4618963041058764
 10
0.2014466094067266
 20
-0.4597920504451997
 10
0.2064466094067266
 20
-0.4576234954179405
 10
0.2114466094067266
 20
-0.4553897204202862
 10
0.2164466094067266
 20
-0.4530897608315588
 10
0.2214466094067266
 20
-0.45072260346729
 10
0.2264466094067266
 20
-0.4482871838255748
 10
0.2314466094067266
 20
-0.4457823831065977
 10
0.2364466094067266
 20
-0.4432070249828292
 10
0.2414466094067266
 20
-0.4405598720946596
 10
0.2464466094067266
 20
-0.4378396222431172
 10
0.2514466094067266
 20
-0.4350449042477435
 10
0.2564466094067266
 20
-0.4321742734336012
 10
0.2614466094067266
 20
-0.4292262067066663
 10
0.2664466094067266
 20
-0.4261990971714118
 10
0.2714466094067266
 20
-0.4230912482380831
 10
0.2764466094067266
 20
-0.4199008671598476
 10
0.2814466094067266
 20
-0.4166260579314797
 10
0.2864466094067266
 20
-0.4132648134712868
 10
0.2914466094067266
 20
-0.4098150069963156
 10
0.2964466094067266
 20
-0.4062743824871597
 10
0.3014466094067266
 20
-0.4026405441224911
 10
0.3064466094067266
 20
-0.3989109445442534
 10
0.3114466094067266
 20
-0.3950828717916294
 10
0.3164466094067266
 20
-0.391153434714632
 10
0.3214466094067266
 20
-0.3871195466454601
 10
0.3264466094067267
 20
-0.3829779070663467
 10
0.3314466094067267
 20
-0.3787249809648844
 10
0.3364466094067267
 20
-0.3743569755097196
 10
0.3414466094067267
 20
-0.3698698136084067
 10
0.3464466094067267
 20
-0.3652591038217257
 10
0.3514466094067267
 20
-0.3605201060004601
 10
0.3564466094067267
 20
-0.3556476918757041
 10
0.3614466094067267
 20
-0.3506362996645505
 10
0.3664466094067267
 20
-0.34547988153926
 10
0.3714466094067267
 20
-0.3401718425359658
 10
0.3764466094067267
 20
-0.334704969129899
 10
0.3814466094067267
 20
-0.3290713452523318
 10
0.3864466094067267
 20
-0.3232622529342269
 10
0.3914466094067267
 20
-0.3172680539828188
 10
0.3964466094067267
 20
-0.3110780480586465
 10
0.4014466094067267
 20
-0.304680301118911
 10
0.4064466094067267
 20
-0.2980614362775617
 10
0.4114466094067267
 20
-0.291206376478565
 10
0.4164466094067267
 20
-0.2840980246459106
 10
0.4214466094067267
 20
-0.276716861635935
 10
0.4264466094067267
 20
-0.2690404345439063
 10
0.4314466094067267
 20
-0.2610426963649944
 10
0.4364466094067267
 20
-0.2526931404518915
 10
0.4414466094067268
 20
-0.2439556458403291
 10
0.4464466094067268
 20
-0.2347869056044327
 10
0.4514466094067268
 20
-0.2251342376211081
 10
0.4564466094067268
 20
-0.2149324518428296
 10
0.4614466094067268
 20
-0.2040992228331676
 10
0.4664466094067268
 20
-0.1925279893081412
 10
0.4714466094067268
 20
-0.1800765408735088
 10
0.4764466094067268
 20
-0.1665475742210051
 10
0.4814466094067268
 20
-0.1516529867323223
 10
0.4864466094067268
 20
-0.1349413290684758
 10
0.4914466094067268
 20
-0.1156274024472547
 10
0.4964466094067268
 20
-0.0920881648347501
 10
0.5
 20
0.0
 10
0.495
 20
0.0
 10
0.49
 20
0.0705336798983295
 10
0.485
 20
0.0994987437106621
 10
0.48
 20
0.1215524578114322
 10
0.475
 20
0.14
 10
0.47
 20
0.15612494995996
 10
0.465
 20
0.1705872210923199
 10
0.46
 20
0.1837797594948911
 10
0.455
 20
0.1959591794226544
 10
0.45
 20
0.2073041244162789
 10
0.445
 20
0.2179449471770338
 10
0.4399999999999999
 20
0.2279802623035601
 10
0.4349999999999999
 20
0.2374868417407584
 10
0.4299999999999999
 20
0.2465258607124211
 10
0.4249999999999999
 20
0.2551470164434615
 10
0.4199999999999999
 20
0.2633913438213186
 10
0.4149999999999999
 20
0.2712931993250108
 10
0.4099999999999999
 20
0.2788816953476869
 10
0.4049999999999999
 20
0.2861817604250838
 10
0.3999999999999999
 20
0.2932149382279151
 10
0.3949999999999999
 20
0.3000000000000002
 10
0.3899999999999999
 20
0.3065534211193868
 10
0.3849999999999999
 20
0.3128897569432404
 10
0.3799999999999999
 20
0.3190219428189855
 10
0.3749999999999999
 20
0.3249615361854385
 10
0.3699999999999999
 20
0.330718913883074
 10
0.3649999999999999
 20
0.3363034344160049
 10
0.3599999999999999
 20
0.3417235724968357
 10
0.3549999999999999
 20
0.3469870314579496
 10
0.3535533905932738
 20
0.3535533905932738
 97
        0
 75
     0
 76
     1
 98
        0
  0
CIRCLE
  5
129
330
127
100
AcDbEntity
  8
0
  6
Continuous
 62
     0
370
    -2
390
5F
100
AcDbCircle
 10
0.0
 20
0.0
 30
0.0
 40
0.5
  0
ENDBLK
  5
12B
330
127
100
AcDbEntity
  8
0
100
AcDbBlockEnd
  0
BLOCK
  5
130
330
12C
100
AcDbEntity
  8
0
100
AcDbBlockBegin
  2
CDWK_PTTYP38
 70
     0
 10
0.0
 20
0.0
 30
0.0
  3
CDWK_PTTYP38
  1

  0
HATCH
  5
12D
330
12C
100
AcDbEntity
  8
0
  6
Continuous
 62
     0
370
    -2
390
5F
100
AcDbHatch
 10
0.0
 20
0.0
 30
0.0
210
0.0
220
0.0
230
1.0
  2
SOLID
 70
     1
 71
     0
 91
        1
 92
        3
 72
     0
 73
     1
 93
      102
 10
0.0
 20
0.0
 10
0.0
 20
0.5
 10
0.005
 20
0.5
 10
0.01
 20
0.4999749993749688
 10
0.015
 20
0.4998999899979995
 10
0.02
 20
0.4997749493522059
 10
0.025
 20
0.4995998398718718
 10
0.03
 20
0.4993746088859545
 10
0.035
 20
0.4990991885387112
 10
0.04
 20
0.4987734956871706
 10
0.045
 20
0.4983974317750845
 10
0.05
 20
0.4979708826829135
 10
0.055
 20
0.49749371855331
 10
0.06
 20
0.4969657935914704
 10
0.065
 20
0.4963869458396343
 10
0.07
 20
0.4957569969249047
 10
0.075
 20
0.4950757517794626
 10
0.08
 20
0.4943429983321297
 10
0.085
 20
0.4935585071701227
 10
0.09
 20
0.4927220311697053
 10
0.095
 20
0.4918333050943175
 10
0.1
 20
0.4908920451586071
 10
0.105
 20
0.4898979485566356
 10
0.11
 20
0.4888506929523574
 10
0.115
 20
0.4877499359302879
 10
0.12
 20
0.4865953144040744
 10
0.125
 20
0.4853864439804639
 10
0.13
 20
0.4841229182759271
 10
0.135
 20
0.4828043081829325
 10
0.14
 20
0.4814301610825811
 10
0.145
 20
0.48
 10
0.15
 20
0.478513322698543
 10
0.1550000000000001
 20
0.4769696007084728
 10
0.1600000000000001
 20
0.4753682782853731
 10
0.1650000000000001
 20
0.4737087712930804
 10
0.1700000000000001
 20
0.4719904660054056
 10
0.1750000000000001
 20
0.4702127178203498
 10
0.1800000000000001
 20
0.4683748498798799
 10
0.1850000000000001
 20
0.466476151587624
 10
0.1900000000000001
 20
0.4645158770160606
 10
0.1950000000000001
 20
0.4624932431938871
 10
0.2000000000000001
 20
0.460407428263272
 10
0.2050000000000001
 20
0.4582575694955839
 10
0.2100000000000001
 20
0.4560427611529427
 10
0.2150000000000001
 20
0.4537620521815371
 10
0.2200000000000001
 20
0.4514144437210665
 10
0.2250000000000001
 20
0.4489988864128729
 10
0.2300000000000001
 20
0.4465142774872937
 10
0.2350000000000001
 20
0.4439594576084622
 10
0.2400000000000001
 20
0.4413332074521472
 10
0.2450000000000001
 20
0.4386342439892261
 10
0.2500000000000001
 20
0.4358612164439502
 10
0.2550000000000001
 20
0.4330127018922192
 10
0.2600000000000001
 20
0.4300872004605577
 10
0.2650000000000001
 20
0.4270831300812524
 10
0.2700000000000001
 20
0.423998820753077
 10
0.2750000000000001
 20
0.4208325082500162
 10
0.2800000000000001
 20
0.4175823272122516
 10
0.2850000000000001
 20
0.4142463035441595
 10
0.2900000000000001
 20
0.4108223460329293
 10
0.2950000000000002
 20
0.4073082370883259
 10
0.3000000000000002
 20
0.403701622488689
 10
0.3050000000000002
 20
0.3999999999999999
 10
0.3100000000000002
 20
0.3962007067131506
 10
0.3150000000000002
 20
0.3923009049186605
 10
0.3200000000000002
 20
0.3882975663070783
 10
0.3250000000000002
 20
0.3841874542459708
 10
0.3300000000000002
 20
0.3799671038392664
 10
0.3350000000000002
 20
0.3756327994198588
 10
0.3400000000000002
 20
0.3711805490593491
 10
0.3450000000000002
 20
0.366606055596467
 10
0.3500000000000002
 20
0.3619046835839512
 10
0.3550000000000002
 20
0.3570714214271423
 10
0.3600000000000002
 20
0.3521008378291649
 10
0.3650000000000002
 20
0.3469870314579492
 10
0.3700000000000002
 20
0.3417235724968353
 10
0.3750000000000002
 20
0.3363034344160045
 10
0.3800000000000002
 20
0.3307189138830736
 10
0.3850000000000002
 20
0.3249615361854382
 10
0.3900000000000002
 20
0.3190219428189851
 10
0.3950000000000002
 20
0.31288975694324
 10
0.4000000000000002
 20
0.3065534211193863
 10
0.4050000000000002
 20
0.2999999999999997
 10
0.4100000000000003
 20
0.2932149382279147
 10
0.4150000000000003
 20
0.2861817604250834
 10
0.4200000000000003
 20
0.2788816953476864
 10
0.4250000000000003
 20
0.2712931993250103
 10
0.4300000000000003
 20
0.263391343821318
 10
0.4350000000000003
 20
0.255147016443461
 10
0.4400000000000003
 20
0.2465258607124206
 10
0.4450000000000003
 20
0.2374868417407578
 10
0.4500000000000003
 20
0.2279802623035594
 10
0.4550000000000003
 20
0.2179449471770331
 10
0.4600000000000003
 20
0.2073041244162782
 10
0.4650000000000003
 20
0.1959591794226536
 10
0.4700000000000003
 20
0.1837797594948903
 10
0.4750000000000003
 20
0.170587221092319
 10
0.4800000000000003
 20
0.156124949959959
 10
0.4850000000000003
 20
0.1399999999999989
 10
0.4900000000000003
 20
0.1215524578114309
 10
0.4950000000000003
 20
0.0994987437106604
 10
0.5
 20
0.0
 97
        0
 75
     0
 76
     1
 98
        0
  0
HATCH
  5
12E
330
12C
100
AcDbEntity
  8
0
  6
Continuous
 62
     0
370
    -2
390
5F
100
AcDbHatch
 10
0.0
 20
0.0
 30
0.0
210
0.0
220
0.0
230
1.0
  2
SOLID
 70
     1
 71
     0
 91
        1
 92
        3
 72
     0
 73
     1
 93
      102
 10
0.0
 20
0.0
 10
-0.5
 20
0.0
 10
-0.495
 20
0.0
 10
-0.49
 20
-0.0705336798983295
 10
-0.485
 20
-0.0994987437106621
 10
-0.48
 20
-0.1215524578114322
 10
-0.475
 20
-0.14
 10
-0.47
 20
-0.15612494995996
 10
-0.465
 20
-0.1705872210923199
 10
-0.46
 20
-0.1837797594948911
 10
-0.455
 20
-0.1959591794226544
 10
-0.45
 20
-0.2073041244162789
 10
-0.445
 20
-0.2179449471770338
 10
-0.4399999999999999
 20
-0.2279802623035601
 10
-0.4349999999999999
 20
-0.2374868417407584
 10
-0.4299999999999999
 20
-0.2465258607124211
 10
-0.4249999999999999
 20
-0.2551470164434615
 10
-0.4199999999999999
 20
-0.2633913438213186
 10
-0.4149999999999999
 20
-0.2712931993250108
 10
-0.4099999999999999
 20
-0.2788816953476869
 10
-0.4049999999999999
 20
-0.2861817604250838
 10
-0.3999999999999999
 20
-0.2932149382279151
 10
-0.3949999999999999
 20
-0.3000000000000002
 10
-0.3899999999999999
 20
-0.3065534211193868
 10
-0.3849999999999999
 20
-0.3128897569432404
 10
-0.3799999999999999
 20
-0.3190219428189855
 10
-0.3749999999999999
 20
-0.3249615361854385
 10
-0.3699999999999999
 20
-0.330718913883074
 10
-0.3649999999999999
 20
-0.3363034344160049
 10
-0.3599999999999999
 20
-0.3417235724968357
 10
-0.3549999999999999
 20
-0.3469870314579496
 10
-0.3499999999999999
 20
-0.3521008378291652
 10
-0.3449999999999999
 20
-0.3570714214271427
 10
-0.3399999999999999
 20
-0.3619046835839516
 10
-0.3349999999999999
 20
-0.3666060555964674
 10
-0.3299999999999998
 20
-0.3711805490593494
 10
-0.3249999999999998
 20
-0.3756327994198591
 10
-0.3199999999999998
 20
-0.3799671038392667
 10
-0.3149999999999998
 20
-0.3841874542459711
 10
-0.3099999999999998
 20
-0.3882975663070786
 10
-0.3049999999999998
 20
-0.3923009049186608
 10
-0.2999999999999998
 20
-0.3962007067131507
 10
-0.2949999999999998
 20
-0.4000000000000001
 10
-0.2899999999999998
 20
-0.4037016224886891
 10
-0.2849999999999998
 20
-0.4073082370883261
 10
-0.2799999999999998
 20
-0.4108223460329296
 10
-0.2749999999999998
 20
-0.4142463035441597
 10
-0.2699999999999998
 20
-0.4175823272122518
 10
-0.2649999999999998
 20
-0.4208325082500164
 10
-0.2599999999999998
 20
-0.4239988207530773
 10
-0.2549999999999998
 20
-0.4270831300812526
 10
-0.2499999999999998
 20
-0.4300872004605579
 10
-0.2449999999999998
 20
-0.4330127018922195
 10
-0.2399999999999998
 20
-0.4358612164439503
 10
-0.2349999999999998
 20
-0.4386342439892263
 10
-0.2299999999999998
 20
-0.4413332074521473
 10
-0.2249999999999998
 20
-0.4439594576084624
 10
-0.2199999999999998
 20
-0.4465142774872939
 10
-0.2149999999999997
 20
-0.4489988864128731
 10
-0.2099999999999997
 20
-0.4514144437210667
 10
-0.2049999999999997
 20
-0.4537620521815372
 10
-0.1999999999999997
 20
-0.4560427611529429
 10
-0.1949999999999997
 20
-0.4582575694955841
 10
-0.1899999999999997
 20
-0.4604074282632722
 10
-0.1849999999999997
 20
-0.4624932431938872
 10
-0.1799999999999997
 20
-0.4645158770160608
 10
-0.1749999999999997
 20
-0.4664761515876241
 10
-0.1699999999999997
 20
-0.46837484987988
 10
-0.1649999999999997
 20
-0.47021271782035
 10
-0.1599999999999997
 20
-0.4719904660054058
 10
-0.1549999999999997
 20
-0.4737087712930805
 10
-0.1499999999999997
 20
-0.4753682782853733
 10
-0.1449999999999997
 20
-0.4769696007084729
 10
-0.1399999999999997
 20
-0.4785133226985431
 10
-0.1349999999999997
 20
-0.4800000000000001
 10
-0.1299999999999997
 20
-0.4814301610825812
 10
-0.1249999999999997
 20
-0.4828043081829325
 10
-0.1199999999999997
 20
-0.4841229182759272
 10
-0.1149999999999997
 20
-0.485386443980464
 10
-0.1099999999999997
 20
-0.4865953144040744
 10
-0.1049999999999996
 20
-0.487749935930288
 10
-0.0999999999999996
 20
-0.4888506929523574
 10
-0.0949999999999996
 20
-0.4898979485566357
 10
-0.0899999999999996
 20
-0.4908920451586072
 10
-0.0849999999999996
 20
-0.4918333050943176
 10
-0.0799999999999996
 20
-0.4927220311697053
 10
-0.0749999999999996
 20
-0.4935585071701227
 10
-0.0699999999999996
 20
-0.4943429983321298
 10
-0.0649999999999996
 20
-0.4950757517794626
 10
-0.0599999999999996
 20
-0.4957569969249048
 10
-0.0549999999999996
 20
-0.4963869458396343
 10
-0.0499999999999996
 20
-0.4969657935914705
 10
-0.0449999999999996
 20
-0.49749371855331
 10
-0.0399999999999996
 20
-0.4979708826829135
 10
-0.0349999999999996
 20
-0.4983974317750846
 10
-0.0299999999999996
 20
-0.4987734956871706
 10
-0.0249999999999996
 20
-0.4990991885387112
 10
-0.0199999999999996
 20
-0.4993746088859545
 10
-0.0149999999999996
 20
-0.4995998398718719
 10
-0.0099999999999996
 20
-0.499774949352206
 10
-0.0049999999999996
 20
-0.4998999899979995
 10
0.0
 20
-0.5
 97
        0
 75
     0
 76
     1
 98
        0
  0
CIRCLE
  5
12F
330
12C
100
AcDbEntity
  8
0
  6
Continuous
 62
     0
370
    -2
390
5F
100
AcDbCircle
 10
0.0
 20
0.0
 30
0.0
 40
0.5
  0
ENDBLK
  5
131
330
12C
100
AcDbEntity
  8
0
100
AcDbBlockEnd
  0
BLOCK
  5
13A
330
132
100
AcDbEntity
  8
0
100
AcDbBlockBegin
  2
CDWK_PTTYP41
 70
     0
 10
0.0
 20
0.0
 30
0.0
  3
CDWK_PTTYP41
  1

  0
LINE
  5
133
330
132
100
AcDbEntity
  8
0
  6
Continuous
 62
     0
370
    -2
390
5F
100
AcDbLine
 10
-0.5
 20
0.5
 30
0.0
 11
0.5
 21
0.5
 31
0.0
  0
LINE
  5
134
330
132
100
AcDbEntity
  8
0
  6
Continuous
 62
     0
370
    -2
390
5F
100
AcDbLine
 10
0.5
 20
0.5
 30
0.0
 11
0.5
 21
-0.5
 31
0.0
  0
LINE
  5
135
330
132
100
AcDbEntity
  8
0
  6
Continuous
 62
     0
370
    -2
390
5F
100
AcDbLine
 10
0.5
 20
-0.5
 30
0.0
 11
-0.5
 21
-0.5
 31
0.0
  0
LINE
  5
136
330
132
100
AcDbEntity
  8
0
  6
Continuous
 62
     0
370
    -2
390
5F
100
AcDbLine
 10
-0.5
 20
-0.5
 30
0.0
 11
-0.5
 21
0.5
 31
0.0
  0
LINE
  5
137
330
132
100
AcDbEntity
  8
0
  6
Continuous
 62
     0
370
    -2
390
5F
100
AcDbLine
 10
-0.375
 20
0.25
 30
0.0
 11
0.375
 21
0.25
 31
0.0
  0
LINE
  5
138
330
132
100
AcDbEntity
  8
0
  6
Continuous
 62
     0
370
    -2
390
5F
100
AcDbLine
 10
-0.375
 20
0.0
 30
0.0
 11
0.375
 21
0.0
 31
0.0
  0
LINE
  5
139
330
132
100
AcDbEntity
  8
0
  6
Continuous
 62
     0
370
    -2
390
5F
100
AcDbLine
 10
-0.375
 20
-0.25
 30
0.0
 11
0.375
 21
-0.25
 31
0.0
  0
ENDBLK
  5
13B
330
132
100
AcDbEntity
  8
0
100
AcDbBlockEnd
  0
BLOCK
  5
143
330
13C
100
AcDbEntity
  8
0
100
AcDbBlockBegin
  2
CDWK_PTTYP42
 70
     0
 10
0.0
 20
0.0
 30
0.0
  3
CDWK_PTTYP42
  1

  0
LINE
  5
13D
330
13C
100
AcDbEntity
  8
0
  6
Continuous
 62
     0
370
    -2
390
5F
100
AcDbLine
 10
-0.5
 20
0.5
 30
0.0
 11
0.5
 21
0.5
 31
0.0
  0
LINE
  5
13E
330
13C
100
AcDbEntity
  8
0
  6
Continuous
 62
     0
370
    -2
390
5F
100
AcDbLine
 10
0.5
 20
0.5
 30
0.0
 11
0.5
 21
-0.5
 31
0.0
  0
LINE
  5
13F
330
13C
100
AcDbEntity
  8
0
  6
Continuous
 62
     0
370
    -2
390
5F
100
AcDbLine
 10
0.5
 20
-0.5
 30
0.0
 11
-0.5
 21
-0.5
 31
0.0
  0
LINE
  5
140
330
13C
100
AcDbEntity
  8
0
  6
Continuous
 62
     0
370
    -2
390
5F
100
AcDbLine
 10
-0.5
 20
-0.5
 30
0.0
 11
-0.5
 21
0.5
 31
0.0
  0
LINE
  5
141
330
13C
100
AcDbEntity
  8
0
  6
Continuous
 62
     0
370
    -2
390
5F
100
AcDbLine
 10
-0.375
 20
0.125
 30
0.0
 11
0.375
 21
0.125
 31
0.0
  0
LINE
  5
142
330
13C
100
AcDbEntity
  8
0
  6
Continuous
 62
     0
370
    -2
390
5F
100
AcDbLine
 10
-0.375
 20
-0.125
 30
0.0
 11
0.375
 21
-0.125
 31
0.0
  0
ENDBLK
  5
144
330
13C
100
AcDbEntity
  8
0
100
AcDbBlockEnd
  0
BLOCK
  5
149
330
145
100
AcDbEntity
  8
0
100
AcDbBlockBegin
  2
CDWK_PTTYP43
 70
     0
 10
0.0
 20
0.0
 30
0.0
  3
CDWK_PTTYP43
  1

  0
CIRCLE
  5
146
330
145
100
AcDbEntity
  8
0
  6
Continuous
 62
     0
370
    -2
390
5F
100
AcDbCircle
 10
0.0
 20
0.0
 30
0.0
 40
0.5
  0
LINE
  5
147
330
145
100
AcDbEntity
  8
0
  6
Continuous
 62
     0
370
    -2
390
5F
100
AcDbLine
 10
-0.375
 20
0.166
 30
0.0
 11
0.375
 21
0.166
 31
0.0
  0
LINE
  5
148
330
145
100
AcDbEntity
  8
0
  6
Continuous
 62
     0
370
    -2
390
5F
100
AcDbLine
 10
-0.375
 20
-0.166
 30
0.0
 11
0.375
 21
-0.166
 31
0.0
  0
ENDBLK
  5
14A
330
145
100
AcDbEntity
  8
0
100
AcDbBlockEnd
  0
BLOCK
  5
152
330
14B
100
AcDbEntity
  8
0
100
AcDbBlockBegin
  2
CDWK_PTTYP44
 70
     0
 10
0.0
 20
0.0
 30
0.0
  3
CDWK_PTTYP44
  1

  0
CIRCLE
  5
14C
330
14B
100
AcDbEntity
  8
0
  6
Continuous
 62
     0
370
    -2
390
5F
100
AcDbCircle
 10
0.0
 20
0.0
 30
0.0
 40
0.5
  0
LINE
  5
14D
330
14B
100
AcDbEntity
  8
0
  6
Continuous
 62
     0
370
    -2
390
5F
100
AcDbLine
 10
-0.375
 20
0.333
 30
0.0
 11
0.375
 21
0.333
 31
0.0
  0
LINE
  5
14E
330
14B
100
AcDbEntity
  8
0
  6
Continuous
 62
     0
370
    -2
390
5F
100
AcDbLine
 10
-0.375
 20
0.166
 30
0.0
 11
0.375
 21
0.166
 31
0.0
  0
LINE
  5
14F
330
14B
100
AcDbEntity
  8
0
  6
Continuous
 62
     0
370
    -2
390
5F
100
AcDbLine
 10
-0.375
 20
0.0
 30
0.0
 11
0.375
 21
0.0
 31
0.0
  0
LINE
  5
150
330
14B
100
AcDbEntity
  8
0
  6
Continuous
 62
     0
370
    -2
390
5F
100
AcDbLine
 10
-0.375
 20
-0.166
 30
0.0
 11
0.375
 21
-0.166
 31
0.0
  0
LINE
  5
151
330
14B
100
AcDbEntity
  8
0
  6
Continuous
 62
     0
370
    -2
390
5F
100
AcDbLine
 10
-0.375
 20
-0.333
 30
0.0
 11
0.375
 21
-0.333
 31
0.0
  0
ENDBLK
  5
153
330
14B
100
AcDbEntity
  8
0
100
AcDbBlockEnd
  0
BLOCK
  5
157
330
154
100
AcDbEntity
  8
0
100
AcDbBlockBegin
  2
CDWK_PTTYP45
 70
     0
 10
0.0
 20
0.0
 30
0.0
  3
CDWK_PTTYP45
  1

  0
ELLIPSE
  5
155
330
154
100
AcDbEntity
  8
0
  6
Continuous
 62
     0
370
    -2
390
5F
100
AcDbEllipse
 10
0.0
 20
0.0
 30
0.0
 11
0.5
 21
0.0
 31
0.0
210
0.0
220
0.0
230
1.0
 40
0.82
 41
0.0
 42
6.283185307179586
  0
CIRCLE
  5
156
330
154
100
AcDbEntity
  8
0
  6
Continuous
 62
     0
370
    -2
390
5F
100
AcDbCircle
 10
-0.235
 20
0.0
 30
0.0
 40
0.26
  0
ENDBLK
  5
158
330
154
100
AcDbEntity
  8
0
100
AcDbBlockEnd
  0
BLOCK
  5
15C
330
159
100
AcDbEntity
  8
0
100
AcDbBlockBegin
  2
CDWK_PTTYP46
 70
     0
 10
0.0
 20
0.0
 30
0.0
  3
CDWK_PTTYP46
  1

  0
ELLIPSE
  5
15A
330
159
100
AcDbEntity
  8
0
  6
Continuous
 62
     0
370
    -2
390
5F
100
AcDbEllipse
 10
0.0
 20
0.0
 30
0.0
 11
0.5
 21
0.0
 31
0.0
210
0.0
220
0.0
230
1.0
 40
0.82
 41
0.0
 42
6.283185307179586
  0
CIRCLE
  5
15B
330
159
100
AcDbEntity
  8
0
  6
Continuous
 62
     0
370
    -2
390
5F
100
AcDbCircle
 10
0.0
 20
0.15
 30
0.0
 40
0.26
  0
ENDBLK
  5
15D
330
159
100
AcDbEntity
  8
0
100
AcDbBlockEnd
  0
BLOCK
  5
164
330
15E
100
AcDbEntity
  8
0
100
AcDbBlockBegin
  2
CDWK_PTTYP47
 70
     0
 10
0.0
 20
0.0
 30
0.0
  3
CDWK_PTTYP47
  1

  0
LINE
  5
15F
330
15E
100
AcDbEntity
  8
0
  6
Continuous
 62
     0
370
    -2
390
5F
100
AcDbLine
 10
-0.5
 20
0.166
 30
0.0
 11
0.5
 21
0.166
 31
0.0
  0
LINE
  5
160
330
15E
100
AcDbEntity
  8
0
  6
Continuous
 62
     0
370
    -2
390
5F
100
AcDbLine
 10
0.5
 20
0.166
 30
0.0
 11
0.5
 21
-0.166
 31
0.0
  0
LINE
  5
161
330
15E
100
AcDbEntity
  8
0
  6
Continuous
 62
     0
370
    -2
390
5F
100
AcDbLine
 10
0.5
 20
-0.166
 30
0.0
 11
-0.5
 21
-0.166
 31
0.0
  0
LINE
  5
162
330
15E
100
AcDbEntity
  8
0
  6
Continuous
 62
     0
370
    -2
390
5F
100
AcDbLine
 10
-0.5
 20
-0.166
 30
0.0
 11
-0.5
 21
0.166
 31
0.0
  0
CIRCLE
  5
163
330
15E
100
AcDbEntity
  8
0
  6
Continuous
 62
     0
370
    -2
390
5F
100
AcDbCircle
 10
0.0
 20
-0.313
 30
0.0
 40
0.4
  0
ENDBLK
  5
165
330
15E
100
AcDbEntity
  8
0
100
AcDbBlockEnd
  0
BLOCK
  5
16A
330
167
100
AcDbEntity
  8
0
100
AcDbBlockBegin
  2
CDWK_PTTYP48
 70
     0
 10
0.0
 20
0.0
 30
0.0
  3
CDWK_PTTYP48
  1

  0
CIRCLE
  5
168
330
167
100
AcDbEntity
  8
0
  6
CADWORK_3
 62
     0
 48
0.1
370
    -2
390
5F
100
AcDbCircle
 10
0.0
 20
0.0
 30
0.0
 40
0.5
  0
CIRCLE
  5
169
330
167
100
AcDbEntity
  8
0
  6
Continuous
 62
     0
370
    -2
390
5F
100
AcDbCircle
 10
0.0
 20
0.0
 30
0.0
 40
0.25
  0
ENDBLK
  5
16B
330
167
100
AcDbEntity
  8
0
100
AcDbBlockEnd
  0
BLOCK
  5
171
330
16C
100
AcDbEntity
  8
0
100
AcDbBlockBegin
  2
CDWK_PTTYP49
 70
     0
 10
0.0
 20
0.0
 30
0.0
  3
CDWK_PTTYP49
  1

  0
LINE
  5
16D
330
16C
100
AcDbEntity
  8
0
  6
Continuous
 62
     0
370
    -2
390
5F
100
AcDbLine
 10
-0.5
 20
0.166
 30
0.0
 11
0.5
 21
0.166
 31
0.0
  0
LINE
  5
16E
330
16C
100
AcDbEntity
  8
0
  6
Continuous
 62
     0
370
    -2
390
5F
100
AcDbLine
 10
0.5
 20
0.166
 30
0.0
 11
0.5
 21
-0.166
 31
0.0
  0
LINE
  5
16F
330
16C
100
AcDbEntity
  8
0
  6
Continuous
 62
     0
370
    -2
390
5F
100
AcDbLine
 10
0.5
 20
-0.166
 30
0.0
 11
-0.5
 21
-0.166
 31
0.0
  0
LINE
  5
170
330
16C
100
AcDbEntity
  8
0
  6
Continuous
 62
     0
370
    -2
390
5F
100
AcDbLine
 10
-0.5
 20
-0.166
 30
0.0
 11
-0.5
 21
0.166
 31
0.0
  0
ENDBLK
  5
172
330
16C
100
AcDbEntity
  8
0
100
AcDbBlockEnd
  0
BLOCK
  5
17B
330
173
100
AcDbEntity
  8
0
100
AcDbBlockBegin
  2
CDWK_PTTYP50
 70
     0
 10
0.0
 20
0.0
 30
0.0
  3
CDWK_PTTYP50
  1

  0
LINE
  5
174
330
173
100
AcDbEntity
  8
0
  6
Continuous
 62
     0
370
    -2
390
5F
100
AcDbLine
 10
-0.5
 20
0.166
 30
0.0
 11
0.5
 21
0.166
 31
0.0
  0
LINE
  5
175
330
173
100
AcDbEntity
  8
0
  6
Continuous
 62
     0
370
    -2
390
5F
100
AcDbLine
 10
0.5
 20
0.166
 30
0.0
 11
0.5
 21
-0.166
 31
0.0
  0
LINE
  5
176
330
173
100
AcDbEntity
  8
0
  6
Continuous
 62
     0
370
    -2
390
5F
100
AcDbLine
 10
0.5
 20
-0.166
 30
0.0
 11
-0.5
 21
-0.166
 31
0.0
  0
LINE
  5
177
330
173
100
AcDbEntity
  8
0
  6
Continuous
 62
     0
370
    -2
390
5F
100
AcDbLine
 10
-0.5
 20
-0.166
 30
0.0
 11
-0.5
 21
0.166
 31
0.0
  0
LINE
  5
178
330
173
100
AcDbEntity
  8
0
  6
Continuous
 62
     0
370
    -2
390
5F
100
AcDbLine
 10
-0.25
 20
-0.166
 30
0.0
 11
-0.25
 21
0.166
 31
0.0
  0
LINE
  5
179
330
173
100
AcDbEntity
  8
0
  6
Continuous
 62
     0
370
    -2
390
5F
100
AcDbLine
 10
0.0
 20
-0.166
 30
0.0
 11
0.0
 21
0.166
 31
0.0
  0
LINE
  5
17A
330
173
100
AcDbEntity
  8
0
  6
Continuous
 62
     0
370
    -2
390
5F
100
AcDbLine
 10
0.25
 20
-0.166
 30
0.0
 11
0.25
 21
0.166
 31
0.0
  0
ENDBLK
  5
17C
330
173
100
AcDbEntity
  8
0
100
AcDbBlockEnd
  0
BLOCK
  5
180
330
17D
100
AcDbEntity
  8
0
100
AcDbBlockBegin
  2
CDWK_PTTYP51
 70
     0
 10
0.0
 20
0.0
 30
0.0
  3
CDWK_PTTYP51
  1

  0
SPLINE
  5
17E
330
17D
100
AcDbEntity
  8
0
  6
Continuous
 62
     0
370
    -2
390
5F
100
AcDbSpline
210
0.0
220
0.0
230
1.0
 70
  1064
 71
     3
 72
    12
 73
     8
 74
     6
 42
0.0000000001
 43
0.0000000001
 44
0.0000000001
 40
0.0
 40
0.0
 40
0.0
 40
0.0
 40
0.1690118339052032
 40
0.5175774661755118
 40
0.8011704844252565
 40
0.9154070810132151
 40
0.975822310881188
 40
0.975822310881188
 40
0.975822310881188
 40
0.975822310881188
 10
-0.5
 20
-0.077
 30
0.0
 10
-0.443824324006723
 20
-0.0900581618560981
 30
0.0
 10
-0.2717933876546281
 20
-0.1300471387828842
 30
0.0
 10
-0.0276699186086479
 20
-0.0006977790990417
 30
0.0
 10
0.2303349729129116
 20
0.0817803270207037
 30
0.0
 10
0.3686157174766292
 20
0.0066250198607167
 30
0.0
 10
0.4216533294581816
 20
-0.0168719667726145
 30
0.0
 10
0.44
 20
-0.025
 30
0.0
 11
-0.5
 21
-0.077
 31
0.0
 11
-0.333
 21
-0.103
 31
0.0
 11
0.0
 21
0.0
 31
0.0
 11
0.28
 21
0.045
 31
0.0
 11
0.385
 21
0.0
 31
0.0
 11
0.44
 21
-0.025
 31
0.0
  0
HATCH
  5
17F
330
17D
100
AcDbEntity
  8
0
  6
Continuous
 62
     0
370
    -2
390
5F
100
AcDbHatch
 10
0.0
 20
0.0
 30
0.0
210
0.0
220
0.0
230
1.0
  2
SOLID
 70
     1
 71
     0
 91
        1
 92
        3
 72
     0
 73
     1
 93
        3
 10
0.365
 20
-0.05
 10
0.5
 20
-0.042
 10
0.395
 20
0.045
 97
        0
 75
     0
 76
     1
 98
        0
  0
ENDBLK
  5
181
330
17D
100
AcDbEntity
  8
0
100
AcDbBlockEnd
  0
BLOCK
  5
186
330
182
100
AcDbEntity
  8
0
100
AcDbBlockBegin
  2
CDWK_PTTYP52
 70
     0
 10
0.0
 20
0.0
 30
0.0
  3
CDWK_PTTYP52
  1

  0
LINE
  5
183
330
182
100
AcDbEntity
  8
0
  6
Continuous
 62
     0
370
    -2
390
5F
100
AcDbLine
 10
-0.5
 20
-0.289
 30
0.0
 11
0.5
 21
-0.289
 31
0.0
  0
LINE
  5
184
330
182
100
AcDbEntity
  8
0
  6
Continuous
 62
     0
370
    -2
390
5F
100
AcDbLine
 10
0.5
 20
-0.289
 30
0.0
 11
0.0
 21
0.577
 31
0.0
  0
LINE
  5
185
330
182
100
AcDbEntity
  8
0
  6
Continuous
 62
     0
370
    -2
390
5F
100
AcDbLine
 10
0.0
 20
0.577
 30
0.0
 11
-0.5
 21
-0.289
 31
0.0
  0
ENDBLK
  5
187
330
182
100
AcDbEntity
  8
0
100
AcDbBlockEnd
  0
BLOCK
  5
18D
330
188
100
AcDbEntity
  8
0
100
AcDbBlockBegin
  2
cw-dimension-symbol1
 70
     0
 10
0.0
 20
0.0
 30
0.0
  3
cw-dimension-symbol1
  1

  0
LINE
  5
189
330
188
100
AcDbEntity
  8
0
  6
Continuous
 62
     0
370
    -2
390
5F
100
AcDbLine
 10
0.0
 20
0.0
 30
0.0
 11
-1.0
 21
0.25
 31
0.0
  0
LINE
  5
18A
330
188
100
AcDbEntity
  8
0
  6
Continuous
 62
     0
370
    -2
390
5F
100
AcDbLine
 10
0.0
 20
0.0
 30
0.0
 11
-1.0
 21
-0.25
 31
0.0
  0
LINE
  5
18B
330
188
100
AcDbEntity
  8
0
  6
Continuous
 62
     0
370
    -2
390
5F
100
AcDbLine
 10
-1.0
 20
0.25
 30
0.0
 11
-1.0
 21
-0.25
 31
0.0
  0
LINE
  5
18C
330
188
100
AcDbEntity
  8
0
  6
Continuous
 62
     0
370
    -2
390
5F
100
AcDbLine
 10
0.0
 20
0.0
 30
0.0
 11
-1.0
 21
0.0
 31
0.0
  0
ENDBLK
  5
18E
330
188
100
AcDbEntity
  8
0
100
AcDbBlockEnd
  0
BLOCK
  5
192
330
18F
100
AcDbEntity
  8
0
100
AcDbBlockBegin
  2
cw-dimension-symbol2
 70
     0
 10
0.0
 20
0.0
 30
0.0
  3
cw-dimension-symbol2
  1

  0
LINE
  5
190
330
18F
100
AcDbEntity
  8
0
  6
Continuous
 62
     0
370
    -2
390
5F
100
AcDbLine
 10
-1.0
 20
0.0
 30
0.0
 11
1.0
 21
0.0
 31
0.0
  0
LINE
  5
191
330
18F
100
AcDbEntity
  8
0
  6
Continuous
 62
     0
370
    -2
390
5F
100
AcDbLine
 10
-0.5
 20
-0.5
 30
0.0
 11
0.5
 21
0.5
 31
0.0
  0
ENDBLK
  5
193
330
18F
100
AcDbEntity
  8
0
100
AcDbBlockEnd
  0
BLOCK
  5
197
330
194
100
AcDbEntity
  8
0
100
AcDbBlockBegin
  2
cw-dimension-symbol3
 70
     0
 10
0.0
 20
0.0
 30
0.0
  3
cw-dimension-symbol3
  1

  0
LINE
  5
195
330
194
100
AcDbEntity
  8
0
  6
Continuous
 62
     0
370
    -2
390
5F
100
AcDbLine
 10
-1.0
 20
0.0
 30
0.0
 11
1.0
 21
0.0
 31
0.0
  0
CIRCLE
  5
196
330
194
100
AcDbEntity
  8
0
  6
Continuous
 62
     0
370
    -2
390
5F
100
AcDbCircle
 10
0.0
 20
0.0
 30
0.0
 40
0.25
  0
ENDBLK
  5
198
330
194
100
AcDbEntity
  8
0
100
AcDbBlockEnd
  0
BLOCK
  5
19E
330
199
100
AcDbEntity
  8
0
100
AcDbBlockBegin
  2
cw-dimension-symbol5
 70
     0
 10
0.0
 20
0.0
 30
0.0
  3
cw-dimension-symbol5
  1

  0
HATCH
  5
19A
330
199
100
AcDbEntity
  8
0
  6
Continuous
 62
     0
370
    -2
390
5F
100
AcDbHatch
 10
0.0
 20
0.0
 30
0.0
210
0.0
220
0.0
230
1.0
  2
SOLID
 70
     1
 71
     0
 91
        1
 92
        3
 72
     0
 73
     1
 93
        3
 10
0.0
 20
0.0
 10
-1.0
 20
0.25
 10
-1.0
 20
-0.25
 97
        0
 75
     0
 76
     1
 98
        0
  0
LINE
  5
19B
330
199
100
AcDbEntity
  8
0
  6
Continuous
 62
     0
370
    -2
390
5F
100
AcDbLine
 10
0.0
 20
0.0
 30
0.0
 11
-1.0
 21
0.25
 31
0.0
  0
LINE
  5
19C
330
199
100
AcDbEntity
  8
0
  6
Continuous
 62
     0
370
    -2
390
5F
100
AcDbLine
 10
-1.0
 20
0.25
 30
0.0
 11
-1.0
 21
-0.25
 31
0.0
  0
LINE
  5
19D
330
199
100
AcDbEntity
  8
0
  6
Continuous
 62
     0
370
    -2
390
5F
100
AcDbLine
 10
-1.0
 20
-0.25
 30
0.0
 11
0.0
 21
0.0
 31
0.0
  0
ENDBLK
  5
19F
330
199
100
AcDbEntity
  8
0
100
AcDbBlockEnd
  0
BLOCK
  5
1A4
330
1A0
100
AcDbEntity
  8
0
100
AcDbBlockBegin
  2
cw-dimension-symbol6
 70
     0
 10
0.0
 20
0.0
 30
0.0
  3
cw-dimension-symbol6
  1

  0
LINE
  5
1A1
330
1A0
100
AcDbEntity
  8
0
  6
Continuous
 62
     0
370
    -2
390
5F
100
AcDbLine
 10
0.0
 20
0.0
 30
0.0
 11
-1.0
 21
0.25
 31
0.0
  0
LINE
  5
1A2
330
1A0
100
AcDbEntity
  8
0
  6
Continuous
 62
     0
370
    -2
390
5F
100
AcDbLine
 10
0.0
 20
0.0
 30
0.0
 11
-1.0
 21
-0.25
 31
0.0
  0
LINE
  5
1A3
330
1A0
100
AcDbEntity
  8
0
  6
Continuous
 62
     0
370
    -2
390
5F
100
AcDbLine
 10
0.0
 20
0.0
 30
0.0
 11
-1.0
 21
0.0
 31
0.0
  0
ENDBLK
  5
1A5
330
1A0
100
AcDbEntity
  8
0
100
AcDbBlockEnd
  0
BLOCK
  5
1AA
330
1A6
100
AcDbEntity
  8
0
100
AcDbBlockBegin
  2
cw-dimension-symbol11
 70
     0
 10
0.0
 20
0.0
 30
0.0
  3
cw-dimension-symbol11
  1

  0
LINE
  5
1A7
330
1A6
100
AcDbEntity
  8
0
  6
Continuous
 62
     0
370
    -2
390
5F
100
AcDbLine
 10
-1.0
 20
1.0
 30
0.0
 11
1.0
 21
1.0
 31
0.0
  0
LINE
  5
1A8
330
1A6
100
AcDbEntity
  8
0
  6
Continuous
 62
     0
370
    -2
390
5F
100
AcDbLine
 10
0.0
 20
0.0
 30
0.0
 11
-1.0
 21
1.0
 31
0.0
  0
LINE
  5
1A9
330
1A6
100
AcDbEntity
  8
0
  6
Continuous
 62
     0
370
    -2
390
5F
100
AcDbLine
 10
0.0
 20
0.0
 30
0.0
 11
1.0
 21
1.0
 31
0.0
  0
ENDBLK
  5
1AB
330
1A6
100
AcDbEntity
  8
0
100
AcDbBlockEnd
  0
BLOCK
  5
1B0
330
1AC
100
AcDbEntity
  8
0
100
AcDbBlockBegin
  2
cw-dimension-symbol13
 70
     0
 10
0.0
 20
0.0
 30
0.0
  3
cw-dimension-symbol13
  1

  0
LINE
  5
1AD
330
1AC
100
AcDbEntity
  8
0
  6
Continuous
 62
     0
370
    -2
390
5F
100
AcDbLine
 10
-1.0
 20
-1.0
 30
0.0
 11
1.0
 21
-1.0
 31
0.0
  0
LINE
  5
1AE
330
1AC
100
AcDbEntity
  8
0
  6
Continuous
 62
     0
370
    -2
390
5F
100
AcDbLine
 10
0.0
 20
0.0
 30
0.0
 11
-1.0
 21
-1.0
 31
0.0
  0
LINE
  5
1AF
330
1AC
100
AcDbEntity
  8
0
  6
Continuous
 62
     0
370
    -2
390
5F
100
AcDbLine
 10
0.0
 20
0.0
 30
0.0
 11
1.0
 21
-1.0
 31
0.0
  0
ENDBLK
  5
1B1
330
1AC
100
AcDbEntity
  8
0
100
AcDbBlockEnd
  0
BLOCK
  5
1B7
330
1B2
100
AcDbEntity
  8
0
100
AcDbBlockBegin
  2
cw-dimension-symbol15
 70
     0
 10
0.0
 20
0.0
 30
0.0
  3
cw-dimension-symbol15
  1

  0
HATCH
  5
1B3
330
1B2
100
AcDbEntity
  8
0
  6
Continuous
 62
     0
370
    -2
390
5F
100
AcDbHatch
 10
0.0
 20
0.0
 30
0.0
210
0.0
220
0.0
230
1.0
  2
SOLID
 70
     1
 71
     0
 91
        1
 92
        3
 72
     0
 73
     1
 93
        3
 10
0.0
 20
0.0
 10
-1.0
 20
1.0
 10
1.0
 20
1.0
 97
        0
 75
     0
 76
     1
 98
        0
  0
LINE
  5
1B4
330
1B2
100
AcDbEntity
  8
0
  6
Continuous
 62
     0
370
    -2
390
5F
100
AcDbLine
 10
0.0
 20
0.0
 30
0.0
 11
-1.0
 21
1.0
 31
0.0
  0
LINE
  5
1B5
330
1B2
100
AcDbEntity
  8
0
  6
Continuous
 62
     0
370
    -2
390
5F
100
AcDbLine
 10
-1.0
 20
1.0
 30
0.0
 11
1.0
 21
1.0
 31
0.0
  0
LINE
  5
1B6
330
1B2
100
AcDbEntity
  8
0
  6
Continuous
 62
     0
370
    -2
390
5F
100
AcDbLine
 10
1.0
 20
1.0
 30
0.0
 11
0.0
 21
0.0
 31
0.0
  0
ENDBLK
  5
1B8
330
1B2
100
AcDbEntity
  8
0
100
AcDbBlockEnd
  0
BLOCK
  5
1BE
330
1B9
100
AcDbEntity
  8
0
100
AcDbBlockBegin
  2
cw-dimension-symbol16
 70
     0
 10
0.0
 20
0.0
 30
0.0
  3
cw-dimension-symbol16
  1

  0
HATCH
  5
1BA
330
1B9
100
AcDbEntity
  8
0
  6
Continuous
 62
     0
370
    -2
390
5F
100
AcDbHatch
 10
0.0
 20
0.0
 30
0.0
210
0.0
220
0.0
230
1.0
  2
SOLID
 70
     1
 71
     0
 91
        1
 92
        3
 72
     0
 73
     1
 93
        3
 10
0.0
 20
0.0
 10
-1.0
 20
-1.0
 10
1.0
 20
-1.0
 97
        0
 75
     0
 76
     1
 98
        0
  0
LINE
  5
1BB
330
1B9
100
AcDbEntity
  8
0
  6
Continuous
 62
     0
370
    -2
390
5F
100
AcDbLine
 10
0.0
 20
0.0
 30
0.0
 11
-1.0
 21
-1.0
 31
0.0
  0
LINE
  5
1BC
330
1B9
100
AcDbEntity
  8
0
  6
Continuous
 62
     0
370
    -2
390
5F
100
AcDbLine
 10
-1.0
 20
-1.0
 30
0.0
 11
1.0
 21
-1.0
 31
0.0
  0
LINE
  5
1BD
330
1B9
100
AcDbEntity
  8
0
  6
Continuous
 62
     0
370
    -2
390
5F
100
AcDbLine
 10
1.0
 20
-1.0
 30
0.0
 11
0.0
 21
0.0
 31
0.0
  0
ENDBLK
  5
1BF
330
1B9
100
AcDbEntity
  8
0
100
AcDbBlockEnd
  0
BLOCK
  5
1C5
330
1C0
100
AcDbEntity
  8
0
100
AcDbBlockBegin
  2
cw-dimension-symbol17
 70
     0
 10
0.0
 20
0.0
 30
0.0
  3
cw-dimension-symbol17
  1

  0
LINE
  5
1C1
330
1C0
100
AcDbEntity
  8
0
  6
Continuous
 62
     0
370
    -2
390
5F
100
AcDbLine
 10
0.0
 20
0.0
 30
0.0
 11
1.0
 21
1.0
 31
0.0
  0
LINE
  5
1C2
330
1C0
100
AcDbEntity
  8
0
  6
Continuous
 62
     0
370
    -2
390
5F
100
AcDbLine
 10
1.0
 20
1.0
 30
0.0
 11
-1.0
 21
1.0
 31
0.0
  0
LINE
  5
1C3
330
1C0
100
AcDbEntity
  8
0
  6
Continuous
 62
     0
370
    -2
390
5F
100
AcDbLine
 10
-1.0
 20
1.0
 30
0.0
 11
0.0
 21
0.0
 31
0.0
  0
HATCH
  5
1C4
330
1C0
100
AcDbEntity
  8
0
  6
Continuous
 62
     0
370
    -2
390
5F
100
AcDbHatch
 10
0.0
 20
0.0
 30
0.0
210
0.0
220
0.0
230
1.0
  2
SOLID
 70
     1
 71
     0
 91
        1
 92
        3
 72
     0
 73
     1
 93
        3
 10
0.0
 20
0.0
 10
-1.0
 20
1.0
 10
0.0
 20
1.0
 97
        0
 75
     0
 76
     1
 98
        0
  0
ENDBLK
  5
1C6
330
1C0
100
AcDbEntity
  8
0
100
AcDbBlockEnd
  0
BLOCK
  5
1CC
330
1C7
100
AcDbEntity
  8
0
100
AcDbBlockBegin
  2
cw-dimension-symbol18
 70
     0
 10
0.0
 20
0.0
 30
0.0
  3
cw-dimension-symbol18
  1

  0
LINE
  5
1C8
330
1C7
100
AcDbEntity
  8
0
  6
Continuous
 62
     0
370
    -2
390
5F
100
AcDbLine
 10
0.0
 20
0.0
 30
0.0
 11
1.0
 21
-1.0
 31
0.0
  0
LINE
  5
1C9
330
1C7
100
AcDbEntity
  8
0
  6
Continuous
 62
     0
370
    -2
390
5F
100
AcDbLine
 10
1.0
 20
-1.0
 30
0.0
 11
-1.0
 21
-1.0
 31
0.0
  0
LINE
  5
1CA
330
1C7
100
AcDbEntity
  8
0
  6
Continuous
 62
     0
370
    -2
390
5F
100
AcDbLine
 10
-1.0
 20
-1.0
 30
0.0
 11
0.0
 21
0.0
 31
0.0
  0
HATCH
  5
1CB
330
1C7
100
AcDbEntity
  8
0
  6
Continuous
 62
     0
370
    -2
390
5F
100
AcDbHatch
 10
0.0
 20
0.0
 30
0.0
210
0.0
220
0.0
230
1.0
  2
SOLID
 70
     1
 71
     0
 91
        1
 92
        3
 72
     0
 73
     1
 93
        3
 10
0.0
 20
0.0
 10
-1.0
 20
-1.0
 10
0.0
 20
-1.0
 97
        0
 75
     0
 76
     1
 98
        0
  0
ENDBLK
  5
1CD
330
1C7
100
AcDbEntity
  8
0
100
AcDbBlockEnd
  0
BLOCK
  5
1CF
330
1CE
100
AcDbEntity
  8
0
100
AcDbBlockBegin
  2
cw-dimension-symbol19
 70
     0
 10
0.0
 20
0.0
 30
0.0
  3
cw-dimension-symbol19
  1

  0
ENDBLK
  5
1D0
330
1CE
100
AcDbEntity
  8
0
100
AcDbBlockEnd
  0
BLOCK
  5
1D6
330
1D1
100
AcDbEntity
  8
0
100
AcDbBlockBegin
  2
cw-dimension-symbol20
 70
     0
 10
0.0
 20
0.0
 30
0.0
  3
cw-dimension-symbol20
  1

  0
LINE
  5
1D2
330
1D1
100
AcDbEntity
  8
0
  6
Continuous
 62
     0
370
    -2
390
5F
100
AcDbLine
 10
0.0
 20
0.0
 30
0.0
 11
0.0
 21
2.0
 31
0.0
  0
LINE
  5
1D3
330
1D1
100
AcDbEntity
  8
0
  6
Continuous
 62
     0
370
    -2
390
5F
100
AcDbLine
 10
0.0
 20
0.0
 30
0.0
 11
-1.0
 21
0.33
 31
0.0
  0
LINE
  5
1D4
330
1D1
100
AcDbEntity
  8
0
  6
Continuous
 62
     0
370
    -2
390
5F
100
AcDbLine
 10
0.0
 20
0.0
 30
0.0
 11
1.0
 21
0.33
 31
0.0
  0
LINE
  5
1D5
330
1D1
100
AcDbEntity
  8
0
  6
Continuous
 62
     0
370
    -2
390
5F
100
AcDbLine
 10
0.0
 20
2.0
 30
0.0
 11
4.15
 21
2.0
 31
0.0
  0
ENDBLK
  5
1D7
330
1D1
100
AcDbEntity
  8
0
100
AcDbBlockEnd
  0
BLOCK
  5
1DD
330
1D8
100
AcDbEntity
  8
0
100
AcDbBlockBegin
  2
cw-dimension-symbol21
 70
     0
 10
0.0
 20
0.0
 30
0.0
  3
cw-dimension-symbol21
  1

  0
LINE
  5
1D9
330
1D8
100
AcDbEntity
  8
0
  6
Continuous
 62
     0
370
    -2
390
5F
100
AcDbLine
 10
0.0
 20
0.0
 30
0.0
 11
0.0
 21
-2.0
 31
0.0
  0
LINE
  5
1DA
330
1D8
100
AcDbEntity
  8
0
  6
Continuous
 62
     0
370
    -2
390
5F
100
AcDbLine
 10
0.0
 20
0.0
 30
0.0
 11
-1.0
 21
-0.33
 31
0.0
  0
LINE
  5
1DB
330
1D8
100
AcDbEntity
  8
0
  6
Continuous
 62
     0
370
    -2
390
5F
100
AcDbLine
 10
0.0
 20
0.0
 30
0.0
 11
1.0
 21
-0.33
 31
0.0
  0
LINE
  5
1DC
330
1D8
100
AcDbEntity
  8
0
  6
Continuous
 62
     0
370
    -2
390
5F
100
AcDbLine
 10
0.0
 20
-2.0
 30
0.0
 11
4.15
 21
-2.0
 31
0.0
  0
ENDBLK
  5
1DE
330
1D8
100
AcDbEntity
  8
0
100
AcDbBlockEnd
  0
BLOCK
  5
20F
330
1DF
100
AcDbEntity
  8
0
100
AcDbBlockBegin
  2
cw-line-extremity0
 70
     0
 10
0.0
 20
0.0
 30
0.0
  3
cw-line-extremity0
  1

  0
LINE
  5
1E0
330
1DF
100
AcDbEntity
  8
0
  6
Continuous
 62
     0
370
    -2
390
5F
100
AcDbLine
 10
0.0
 20
0.0
 30
0.0
 11
10.0
 21
2.5
 31
0.0
  0
LINE
  5
1E1
330
1DF
100
AcDbEntity
  8
0
  6
Continuous
 62
     0
370
    -2
390
5F
100
AcDbLine
 10
0.0
 20
0.0
 30
0.0
 11
10.0
 21
-2.5
 31
0.0
  0
LINE
  5
1E2
330
1DF
100
AcDbEntity
  8
0
  6
Continuous
 62
     0
370
    -2
390
5F
100
AcDbLine
 10
10.0
 20
2.5
 30
0.0
 11
10.0
 21
-2.5
 31
0.0
  0
ENDBLK
  5
210
330
1DF
100
AcDbEntity
  8
0
100
AcDbBlockEnd
  0
BLOCK
  5
20D
330
1E3
100
AcDbEntity
  8
0
100
AcDbBlockBegin
  2
cw-line-extremity2
 70
     0
 10
0.0
 20
0.0
 30
0.0
  3
cw-line-extremity2
  1

  0
HATCH
  5
1E4
330
1E3
100
AcDbEntity
  8
0
  6
Continuous
 62
     0
370
     0
390
5F
100
AcDbHatch
 10
0.0
 20
0.0
 30
0.0
210
0.0
220
0.0
230
1.0
  2
SOLID
 70
     1
 71
     0
 91
        1
 92
        3
 72
     0
 73
     1
 93
        3
 10
0.0
 20
0.0
 10
10.0
 20
2.5
 10
10.0
 20
-2.5
 97
        0
 75
     0
 76
     1
 98
        0
  0
LINE
  5
1E5
330
1E3
100
AcDbEntity
  8
0
  6
Continuous
 62
     0
370
    -2
390
5F
100
AcDbLine
 10
0.0
 20
0.0
 30
0.0
 11
10.0
 21
2.5
 31
0.0
  0
LINE
  5
1E6
330
1E3
100
AcDbEntity
  8
0
  6
Continuous
 62
     0
370
    -2
390
5F
100
AcDbLine
 10
10.0
 20
2.5
 30
0.0
 11
10.0
 21
-2.5
 31
0.0
  0
LINE
  5
1E7
330
1E3
100
AcDbEntity
  8
0
  6
Continuous
 62
     0
370
    -2
390
5F
100
AcDbLine
 10
10.0
 20
-2.5
 30
0.0
 11
0.0
 21
0.0
 31
0.0
  0
ENDBLK
  5
20E
330
1E3
100
AcDbEntity
  8
0
100
AcDbBlockEnd
  0
BLOCK
  5
20B
330
1E8
100
AcDbEntity
  8
0
100
AcDbBlockBegin
  2
cw-line-extremity3
 70
     0
 10
0.0
 20
0.0
 30
0.0
  3
cw-line-extremity3
  1

  0
HATCH
  5
1E9
330
1E8
100
AcDbEntity
  8
0
  6
Continuous
 62
     0
370
     0
390
5F
100
AcDbHatch
 10
0.0
 20
0.0
 30
0.0
210
0.0
220
0.0
230
1.0
  2
SOLID
 70
     1
 71
     0
 91
        1
 92
        3
 72
     0
 73
     1
 93
        3
 10
0.0
 20
0.0
 10
10.0
 20
2.5
 10
10.0
 20
-2.5
 97
        0
 75
     0
 76
     1
 98
        0
  0
LINE
  5
1EA
330
1E8
100
AcDbEntity
  8
0
  6
Continuous
 62
     0
370
    -2
390
5F
100
AcDbLine
 10
0.0
 20
0.0
 30
0.0
 11
10.0
 21
2.5
 31
0.0
  0
LINE
  5
1EB
330
1E8
100
AcDbEntity
  8
0
  6
Continuous
 62
     0
370
    -2
390
5F
100
AcDbLine
 10
10.0
 20
2.5
 30
0.0
 11
10.0
 21
-2.5
 31
0.0
  0
LINE
  5
1EC
330
1E8
100
AcDbEntity
  8
0
  6
Continuous
 62
     0
370
    -2
390
5F
100
AcDbLine
 10
10.0
 20
-2.5
 30
0.0
 11
0.0
 21
0.0
 31
0.0
  0
ENDBLK
  5
20C
330
1E8
100
AcDbEntity
  8
0
100
AcDbBlockEnd
  0
BLOCK
  5
209
330
1ED
100
AcDbEntity
  8
0
100
AcDbBlockBegin
  2
cw-line-extremity301
 70
     0
 10
0.0
 20
0.0
 30
0.0
  3
cw-line-extremity301
  1

  0
LINE
  5
1EE
330
1ED
100
AcDbEntity
  8
0
  6
Continuous
 62
     0
370
    -2
390
5F
100
AcDbLine
 10
0.0
 20
6.66665
 30
0.0
 11
0.0
 21
-6.66665
 31
0.0
  0
ENDBLK
  5
20A
330
1ED
100
AcDbEntity
  8
0
100
AcDbBlockEnd
  0
BLOCK
  5
207
330
1EF
100
AcDbEntity
  8
0
100
AcDbBlockBegin
  2
cw-line-extremity4
 70
     0
 10
0.0
 20
0.0
 30
0.0
  3
cw-line-extremity4
  1

  0
HATCH
  5
1F0
330
1EF
100
AcDbEntity
  8
0
  6
Continuous
 62
     0
370
     5
390
5F
100
AcDbHatch
 10
0.0
 20
0.0
 30
0.0
210
0.0
220
0.0
230
1.0
  2
SOLID
 70
     1
 71
     0
 91
        1
 92
        1
 93
        1
 72
     2
 10
0.0
 20
0.0
 40
2.5
 50
0.0
 51
360.0
 73
     1
 97
        0
 75
     0
 76
     1
 98
        0
  0
ENDBLK
  5
208
330
1EF
100
AcDbEntity
  8
0
100
AcDbBlockEnd
  0
BLOCK
  5
205
330
1F1
100
AcDbEntity
  8
0
100
AcDbBlockBegin
  2
cw-line-extremity5
 70
     0
 10
0.0
 20
0.0
 30
0.0
  3
cw-line-extremity5
  1

  0
LINE
  5
1F2
330
1F1
100
AcDbEntity
  8
0
  6
Continuous
 62
     0
370
    -2
390
5F
100
AcDbLine
 10
0.0
 20
0.0
 30
0.0
 11
-2.5
 21
0.0
 31
0.0
  0
ENDBLK
  5
206
330
1F1
100
AcDbEntity
  8
0
100
AcDbBlockEnd
  0
BLOCK
  5
203
330
1F3
100
AcDbEntity
  8
0
100
AcDbBlockBegin
  2
cw-line-extremity6
 70
     0
 10
0.0
 20
0.0
 30
0.0
  3
cw-line-extremity6
  1

  0
LINE
  5
1F4
330
1F3
100
AcDbEntity
  8
0
  6
Continuous
 62
     0
370
    18
390
5F
100
AcDbLine
 10
0.0
 20
2.5
 30
0.0
 11
0.0
 21
-2.5
 31
0.0
  0
ENDBLK
  5
204
330
1F3
100
AcDbEntity
  8
0
100
AcDbBlockEnd
  0
BLOCK
  5
201
330
1F5
100
AcDbEntity
  8
0
100
AcDbBlockBegin
  2
cw-line-extremity9
 70
     0
 10
0.0
 20
0.0
 30
0.0
  3
cw-line-extremity9
  1

  0
LINE
  5
1F6
330
1F5
100
AcDbEntity
  8
0
  6
Continuous
 62
     0
370
    18
390
5F
100
AcDbLine
 10
-2.5
 20
-2.5
 30
0.0
 11
2.5
 21
2.5
 31
0.0
  0
ENDBLK
  5
202
330
1F5
100
AcDbEntity
  8
0
100
AcDbBlockEnd
  0
BLOCK
  5
1FF
330
1F7
100
AcDbEntity
  8
0
100
AcDbBlockBegin
  2
cw-line-extremity10
 70
     0
 10
0.0
 20
0.0
 30
0.0
  3
cw-line-extremity10
  1

  0
CIRCLE
  5
1F8
330
1F7
100
AcDbEntity
  8
0
  6
Continuous
 62
     0
370
    -2
390
5F
100
AcDbCircle
 10
0.0
 20
0.0
 30
0.0
 40
2.5
  0
ENDBLK
  5
200
330
1F7
100
AcDbEntity
  8
0
100
AcDbBlockEnd
  0
BLOCK
  5
1FD
330
1F9
100
AcDbEntity
  8
0
100
AcDbBlockBegin
  2
cw-line-extremity1
 70
     0
 10
0.0
 20
0.0
 30
0.0
  3
cw-line-extremity1
  1

  0
LINE
  5
1FA
330
1F9
100
AcDbEntity
  8
0
  6
Continuous
 62
     0
370
    -2
390
5F
100
AcDbLine
 10
0.0
 20
0.0
 30
0.0
 11
0.0
 21
2.5
 31
0.0
  0
LINE
  5
1FB
330
1F9
100
AcDbEntity
  8
0
  6
Continuous
 62
     0
370
    -2
390
5F
100
AcDbLine
 10
0.0
 20
2.5
 30
0.0
 11
1.25
 21
3.75
 31
0.0
  0
LINE
  5
1FC
330
1F9
100
AcDbEntity
  8
0
  6
Continuous
 62
     0
370
    -2
390
5F
100
AcDbLine
 10
1.25
 20
3.75
 30
0.0
 11
3.75
 21
3.75
 31
0.0
  0
ENDBLK
  5
1FE
330
1F9
100
AcDbEntity
  8
0
100
AcDbBlockEnd
  0
BLOCK
  5
1C
330
1B
100
AcDbEntity
  8
0
100
AcDbBlockBegin
  2
*Paper_Space69
 70
     0
 10
0.0
 20
0.0
 30
0.0
  3
*Paper_Space69
  1

  0
ENDBLK
  5
1D
330
1B
100
AcDbEntity
  8
0
100
AcDbBlockEnd
  0
BLOCK
  5
2FF
330
2FE
100
AcDbEntity
  8
0
100
AcDbBlockBegin
  2
*D70
 70
     1
 10
0.0
 20
0.0
 30
0.0
  3
*D70
  1

  0
LINE
  5
301
330
2FE
100
AcDbEntity
  8
Ech.1_5
  6
Continuous
 62
     0
370
    -2
100
AcDbLine
 10
36881.22493109528
 20
-18249.94078610103
 30
0.0
 11
36874.3058497202
 21
-18249.94078610103
 31
0.0
  0
LINE
  5
302
330
2FE
100
AcDbEntity
  8
Ech.1_5
  6
Continuous
 62
     0
370
    -2
100
AcDbLine
 10
36878.53037107691
 20
-18087.94077969976
 30
0.0
 11
36884.3058497202
 21
-18087.94077969976
 31
0.0
  0
LINE
  5
303
330
2FE
100
AcDbEntity
  8
Ech.1_5
  6
Continuous
 62
     0
370
    -2
100
AcDbLine
 10
36879.3058497202
 20
-18244.94078610103
 30
0.0
 11
36879.3058497202
 21
-18092.94077969976
 31
0.0
  0
INSERT
  5
304
330
2FE
100
AcDbEntity
  8
Ech.1_5
 62
     0
370
    -2
100
AcDbBlockReference
  2
cw-dimension-symbol2
 10
36879.3058497202
 20
-18249.94078610103
 30
0.0
 41
5.0
 42
5.0
 43
5.0
 50
270.0
  0
INSERT
  5
305
330
2FE
100
AcDbEntity
  8
Ech.1_5
 62
     0
370
    -2
100
AcDbBlockReference
  2
cw-dimension-symbol2
 10
36879.3058497202
 20
-18087.94077969976
 30
0.0
 41
5.0
 42
5.0
 43
5.0
 50
90.0
  0
MTEXT
  5
306
330
2FE
100
AcDbEntity
  8
Ech.1_5
  6
Continuous
 62
   190
370
    15
390
5F
100
AcDbMText
 10
36856.83468725304
 20
-18147.92194878632
 30
0.0
 40
25.0
 41
0.0
 46
0.0
 71
     5
 72
     1
  1
1/3 *
  7
arial-z
 11
6.123233995736766E-17
 21
1.0
 31
0.0
 73
     1
 44
1.0
  0
POINT
  5
307
330
2FE
100
AcDbEntity
  8
Defpoints
 62
     0
100
AcDbPoint
 10
36881.22493109528
 20
-18249.94078610103
 30
0.0
  0
POINT
  5
308
330
2FE
100
AcDbEntity
  8
Defpoints
 62
     0
100
AcDbPoint
 10
36878.53037107691
 20
-18087.94077969976
 30
0.0
  0
POINT
  5
309
330
2FE
100
AcDbEntity
  8
Defpoints
 62
     0
100
AcDbPoint
 10
36879.3058497202
 20
-18087.94077969976
 30
0.0
  0
ENDBLK
  5
300
330
2FE
100
AcDbEntity
  8
0
100
AcDbBlockEnd
  0
BLOCK
  5
30D
330
30C
100
AcDbEntity
  8
0
100
AcDbBlockBegin
  2
*D71
 70
     1
 10
0.0
 20
0.0
 30
0.0
  3
*D71
  1

  0
LINE
  5
30F
330
30C
100
AcDbEntity
  8
Ech.1_5
  6
Continuous
 62
     0
370
    -2
100
AcDbLine
 10
36878.53037107691
 20
-18087.94077969976
 30
0.0
 11
36884.3058497202
 21
-18087.94077969976
 31
0.0
  0
LINE
  5
310
330
30C
100
AcDbEntity
  8
Ech.1_5
  6
Continuous
 62
     0
370
    -2
100
AcDbLine
 10
36855.09522653562
 20
-17887.94075900636
 30
0.0
 11
36884.3058497202
 21
-17887.94075900636
 31
0.0
  0
LINE
  5
311
330
30C
100
AcDbEntity
  8
Ech.1_5
  6
Continuous
 62
     0
370
    -2
100
AcDbLine
 10
36879.3058497202
 20
-18082.94077969976
 30
0.0
 11
36879.3058497202
 21
-17892.94075900636
 31
0.0
  0
INSERT
  5
312
330
30C
100
AcDbEntity
  8
Ech.1_5
 62
     0
370
    -2
100
AcDbBlockReference
  2
cw-dimension-symbol2
 10
36879.3058497202
 20
-18087.94077969976
 30
0.0
 41
5.0
 42
5.0
 43
5.0
 50
270.0
  0
INSERT
  5
313
330
30C
100
AcDbEntity
  8
Ech.1_5
 62
     0
370
    -2
100
AcDbBlockReference
  2
cw-dimension-symbol2
 10
36879.3058497202
 20
-17887.94075900636
 30
0.0
 41
5.0
 42
5.0
 43
5.0
 50
90.0
  0
MTEXT
  5
314
330
30C
100
AcDbEntity
  8
Ech.1_5
  6
Continuous
 62
   190
370
    15
390
5F
100
AcDbMText
 10
36856.83468725304
 20
-17966.92193523898
 30
0.0
 40
25.0
 41
0.0
 46
0.0
 71
     5
 72
     1
  1
2/3 *
  7
arial-z
 11
6.123233995736766E-17
 21
1.0
 31
0.0
 73
     1
 44
1.0
  0
POINT
  5
315
330
30C
100
AcDbEntity
  8
Defpoints
 62
     0
100
AcDbPoint
 10
36878.53037107691
 20
-18087.94077969976
 30
0.0
  0
POINT
  5
316
330
30C
100
AcDbEntity
  8
Defpoints
 62
     0
100
AcDbPoint
 10
36855.09522653562
 20
-17887.94075900636
 30
0.0
  0
POINT
  5
317
330
30C
100
AcDbEntity
  8
Defpoints
 62
     0
100
AcDbPoint
 10
36879.3058497202
 20
-17887.94075900636
 30
0.0
  0
ENDBLK
  5
30E
330
30C
100
AcDbEntity
  8
0
100
AcDbBlockEnd
  0
ENDSEC
  0
SECTION
  2
ENTITIES
  0
HATCH
  5
21A
330
1F
100
AcDbEntity
  8
Ech.1_5
  6
Continuous
 62
   254
420
 13882323
440
 33554687
370
    20
390
5F
100
AcDbHatch
 10
0.0
 20
0.0
 30
0.0
210
0.0
220
0.0
230
1.0
  2
SOLID
 70
     1
 71
     0
 91
        1
 92
        3
 72
     0
 73
     1
 93
        4
 10
36322.53588521239
 20
-18159.24537141006
 10
36296.5358852124
 20
-18159.24537141006
 10
36296.53588521239
 20
-18421.28122799758
 10
36322.53588521239
 20
-18421.28114683136
 97
        0
 75
     0
 76
     1
 98
        0
  0
LWPOLYLINE
  5
21B
330
1F
100
AcDbEntity
  8
Ech.1_5
  6
Continuous
 62
     7
370
    20
390
5F
100
AcDbPolyline
 90
        5
 70
     0
 43
0.0
 10
36322.53588521239
 20
-18159.24537141006
 10
36296.5358852124
 20
-18159.24537141006
 10
36296.53588521239
 20
-18421.28122799758
 10
36322.53588521239
 20
-18421.28114683136
 10
36322.53588521239
 20
-18159.24537141006
  0
HATCH
  5
21C
330
1F
100
AcDbEntity
  8
Ech.1_5
  6
Continuous
 62
   254
420
 13882323
440
 33554687
370
    20
390
5F
100
AcDbHatch
 10
0.0
 20
0.0
 30
0.0
210
0.0
220
0.0
230
1.0
  2
SOLID
 70
     1
 71
     0
 91
        1
 92
        3
 72
     0
 73
     1
 93
        4
 10
36322.5358852124
 20
-18421.28114683136
 10
36349.53588521238
 20
-18421.28106254336
 10
36349.53588521238
 20
-18159.24537141006
 10
36322.5358852124
 20
-18159.24537141006
 97
        0
 75
     0
 76
     1
 98
        0
  0
LWPOLYLINE
  5
21D
330
1F
100
AcDbEntity
  8
Ech.1_5
  6
Continuous
 62
   190
370
    15
390
5F
100
AcDbPolyline
 90
        5
 70
     0
 43
0.0
 10
36322.5358852124
 20
-18421.28114683136
 10
36349.53588521238
 20
-18421.28106254336
 10
36349.53588521238
 20
-18159.24537141006
 10
36322.5358852124
 20
-18159.24537141006
 10
36322.5358852124
 20
-18421.28114683136
  0
HATCH
  5
21E
330
1F
100
AcDbEntity
  8
Ech.1_5
  6
Continuous
 62
    40
420
 16297258
440
 33554687
370
     5
390
5F
100
AcDbHatch
 10
0.0
 20
0.0
 30
0.0
210
0.0
220
0.0
230
1.0
  2
SOLID
 70
     1
 71
     0
 91
        1
 92
        3
 72
     0
 73
     1
 93
        4
 10
36545.34484104917
 20
-18421.28059221856
 10
36554.34484104917
 20
-18421.28059221856
 10
36554.34484104917
 20
-18087.94075900636
 10
36545.34484104917
 20
-18087.94075900636
 97
        0
 75
     0
 76
     1
 98
        0
  0
HATCH
  5
21F
330
1F
100
AcDbEntity
  8
Ech.1_5
  6
Continuous
 62
   190
440
 33554687
370
    15
390
5F
100
AcDbHatch
 10
0.0
 20
0.0
 30
0.0
210
0.0
220
0.0
230
1.0
  2
CwHatchPattern_74
 70
     0
 71
     0
 91
        1
 92
        3
 72
     0
 73
     1
 93
        4
 10
36545.34484104917
 20
-18421.28059221856
 10
36554.34484104917
 20
-18421.28059221856
 10
36554.34484104917
 20
-18087.94075900636
 10
36545.34484104917
 20
-18087.94075900636
 97
        0
 75
     0
 76
     2
 52
0.0
 41
0.6000000238418579
 77
     0
 78
     3
 53
45.00000000000297
 43
0.0
 44
0.0
 45
-0.0000000000043443
 46
42.00000166893005
 79
     0
 53
45.00000000000297
 43
0.0
 44
10.80000042915344
 45
-0.0000000000043443
 46
42.00000166893005
 79
     0
 53
45.00000000000297
 43
0.0
 44
21.60000085830688
 45
-0.0000000000043443
 46
42.00000166893005
 79
     0
 98
        0
1001
ACAD
1010
0.0
1020
0.0
1030
0.0
  0
LWPOLYLINE
  5
220
330
1F
100
AcDbEntity
  8
Ech.1_5
  6
Continuous
 62
   190
370
    15
390
5F
100
AcDbPolyline
 90
        5
 70
     0
 43
0.0
 10
36545.34484104917
 20
-18421.28059221856
 10
36554.34484104917
 20
-18421.28059221856
 10
36554.34484104917
 20
-18087.94075900636
 10
36545.34484104917
 20
-18087.94075900636
 10
36545.34484104917
 20
-18421.28059221856
  0
HATCH
  5
221
330
1F
100
AcDbEntity
  8
Ech.1_5
  6
Continuous
 62
    42
420
 14651399
440
 33554687
370
     5
390
5F
100
AcDbHatch
 10
0.0
 20
0.0
 30
0.0
210
0.0
220
0.0
230
1.0
  2
SOLID
 70
     1
 71
     0
 91
        1
 92
        3
 72
     0
 73
     1
 93
        4
 10
36365.53588521238
 20
-18103.29496111901
 10
36349.53588521238
 20
-18103.29496111901
 10
36349.53588521238
 20
-18421.28067949012
 10
36365.53588521238
 20
-18421.28067949012
 97
        0
 75
     0
 76
     1
 98
        0
  0
HATCH
  5
222
330
1F
100
AcDbEntity
  8
Ech.1_5
  6
Continuous
 62
   190
440
 33554687
370
    15
390
5F
100
AcDbHatch
 10
0.0
 20
0.0
 30
0.0
210
0.0
220
0.0
230
1.0
  2
CwHatchPattern_20
 70
     0
 71
     0
 91
        1
 92
        3
 72
     0
 73
     1
 93
        4
 10
36365.53588521238
 20
-18103.29496111901
 10
36349.53588521238
 20
-18103.29496111901
 10
36349.53588521238
 20
-18421.28067949012
 10
36365.53588521238
 20
-18421.28067949012
 97
        0
 75
     0
 76
     2
 52
0.0
 41
0.6000000238418579
 77
     0
 78
     2
 53
45.00000000000297
 43
0.0
 44
0.0
 45
-4.242640855706899
 46
4.24264085570646
 79
     0
 53
135.0000000000089
 43
0.0
 44
0.0
 45
-4.24264085570602
 46
-4.242640855707338
 79
     0
 98
        0
1001
ACAD
1010
0.0
1020
0.0
1030
0.0
  0
LWPOLYLINE
  5
223
330
1F
100
AcDbEntity
  8
Ech.1_5
  6
Continuous
 62
   190
370
    15
390
5F
100
AcDbPolyline
 90
        5
 70
     0
 43
0.0
 10
36365.53588521238
 20
-18103.29496111901
 10
36349.53588521238
 20
-18103.29496111901
 10
36349.53588521238
 20
-18421.28067949012
 10
36365.53588521238
 20
-18421.28067949012
 10
36365.53588521238
 20
-18103.29496111901
  0
HATCH
  5
224
330
1F
100
AcDbEntity
  8
Ech.1_5
  6
Continuous
 62
    42
420
 14651399
440
 33554687
370
    20
390
5F
100
AcDbHatch
 10
0.0
 20
0.0
 30
0.0
210
0.0
220
0.0
230
1.0
  2
SOLID
 70
     1
 71
     0
 91
        1
 92
        3
 72
     0
 73
     1
 93
        4
 10
35908.17210462998
 20
-18292.68726449116
 10
36347.88107111903
 20
-18132.65063767209
 10
36344.45935474306
 20
-18123.25426319426
 10
35904.68886863584
 20
-18283.31327873229
 97
        0
 75
     0
 76
     1
 98
        0
  0
LWPOLYLINE
  5
225
330
1F
100
AcDbEntity
  8
Ech.1_5
  6
Continuous
 62
    42
420
 14651399
370
    15
390
5F
100
AcDbPolyline
 90
        5
 70
     0
 43
0.0
 10
35908.17210462998
 20
-18292.68726449116
 10
36347.88107111903
 20
-18132.65063767209
 10
36344.45935474306
 20
-18123.25426319426
 10
35904.68886863584
 20
-18283.31327873229
 10
35908.17210462998
 20
-18292.68726449116
  0
HATCH
  5
226
330
1F
100
AcDbEntity
  8
Ech.1_5
  6
Continuous
 62
   190
440
 33554687
370
    15
390
5F
100
AcDbHatch
 10
0.0
 20
0.0
 30
0.0
210
0.0
220
0.0
230
1.0
  2
CwHatchPattern_20
 70
     0
 71
     0
 91
        1
 92
        3
 72
     0
 73
     1
 93
        4
 10
35908.17210462998
 20
-18292.68726449116
 10
36347.87947400782
 20
-18132.65121898712
 10
36344.45935474306
 20
-18123.25426319426
 10
35904.68886863584
 20
-18283.3132787323
 97
        0
 75
     0
 76
     2
 52
0.0
 41
0.6000000238418579
 77
     0
 78
     2
 53
45.00000000000297
 43
0.0
 44
0.0
 45
-4.242640855706899
 46
4.24264085570646
 79
     0
 53
135.0000000000089
 43
0.0
 44
0.0
 45
-4.24264085570602
 46
-4.242640855707338
 79
     0
 98
        0
1001
ACAD
1010
0.0
1020
0.0
1030
0.0
  0
LWPOLYLINE
  5
227
330
1F
100
AcDbEntity
  8
Ech.1_5
  6
Continuous
 62
     7
370
    20
390
5F
100
AcDbPolyline
 90
        5
 70
     0
 43
0.0
 10
35908.17210462998
 20
-18292.68726449116
 10
36347.87947400782
 20
-18132.65121898712
 10
36344.45935474306
 20
-18123.25426319426
 10
35904.68886863584
 20
-18283.3132787323
 10
35908.17210462998
 20
-18292.68726449116
  0
HATCH
  5
228
330
1F
100
AcDbEntity
  8
Ech.1_5
  6
Continuous
 62
   254
420
 15656413
440
 33554687
370
    20
390
5F
100
AcDbHatch
 10
0.0
 20
0.0
 30
0.0
210
0.0
220
0.0
230
1.0
  2
SOLID
 70
     1
 71
     0
 91
        1
 92
        3
 72
     0
 73
     1
 93
        4
 10
36596.34484104917
 20
-18147.94075900636
 10
36596.34484104917
 20
-18087.94075900636
 10
36554.34484104917
 20
-18087.94075900636
 10
36554.34484104917
 20
-18147.94075900636
 97
        0
 75
     0
 76
     1
 98
        0
  0
LWPOLYLINE
  5
229
330
1F
100
AcDbEntity
  8
Ech.1_5
  6
Continuous
 62
   190
370
    15
390
5F
100
AcDbPolyline
 90
        5
 70
     0
 43
0.0
 10
36596.34484104917
 20
-18147.94075900636
 10
36596.34484104917
 20
-18087.94075900636
 10
36554.34484104917
 20
-18087.94075900636
 10
36554.34484104917
 20
-18147.94075900636
 10
36596.34484104917
 20
-18147.94075900636
  0
LWPOLYLINE
  5
22A
330
1F
100
AcDbEntity
  8
Ech.1_5
  6
Continuous
 62
   190
370
    15
390
5F
100
AcDbPolyline
 90
        4
 70
     0
 43
0.0
 10
36554.34484104917
 20
-18147.94075900636
 10
36596.34484104917
 20
-18087.94075900636
 10
36596.34484104917
 20
-18147.94075900636
 10
36554.34484104917
 20
-18087.94075900636
  0
LWPOLYLINE
  5
22B
330
1F
100
AcDbEntity
  8
Ech.1_5
  6
Continuous
 62
     5
370
    40
390
5F
100
AcDbPolyline
 90
        5
 70
     0
 43
0.0
 10
36596.34484104917
 20
-18147.94075900636
 10
36596.34484104917
 20
-18087.94075900636
 10
36554.34484104917
 20
-18087.94075900636
 10
36554.34484104917
 20
-18147.94075900636
 10
36596.34484104917
 20
-18147.94075900636
  0
HATCH
  5
22C
330
1F
100
AcDbEntity
  8
Ech.1_5
  6
Continuous
 62
   254
420
 16643007
440
 33554687
370
    20
390
5F
100
AcDbHatch
 10
0.0
 20
0.0
 30
0.0
210
0.0
220
0.0
230
1.0
  2
SOLID
 70
     1
 71
     0
 91
        1
 92
        3
 72
     0
 73
     1
 93
        8
 10
36545.53183959125
 20
-18177.94075900636
 10
36365.53595243515
 20
-18177.94075900636
 10
36365.53607054203
 20
-18421.28067949012
 10
36472.23944485365
 20
-18421.28067949012
 10
36488.72494800955
 20
-18403.30333108274
 10
36474.61500799174
 20
-18439.25903109455
 10
36491.10136207326
 20
-18421.28067949012
 10
36545.53183959125
 20
-18421.28067949012
 97
        0
 75
     0
 76
     1
 98
        0
  0
LWPOLYLINE
  5
22D
330
1F
100
AcDbEntity
  8
Ech.1_5
  6
Continuous
 62
   190
370
    15
390
5F
100
AcDbPolyline
 90
        9
 70
     0
 43
0.0
 10
36545.53183959125
 20
-18177.94075900636
 10
36365.53595243515
 20
-18177.94075900636
 10
36365.53607054203
 20
-18421.28067949012
 10
36472.23944485365
 20
-18421.28067949012
 10
36488.72494800955
 20
-18403.30333108274
 10
36474.61500799174
 20
-18439.25903109455
 10
36491.10136207326
 20
-18421.28067949012
 10
36545.53183959125
 20
-18421.28067949012
 10
36545.53183959125
 20
-18177.94075900636
  0
HATCH
  5
22E
330
1F
100
AcDbEntity
  8
Ech.1_5
  6
Continuous
 62
   254
420
 16643007
440
 33554687
370
    20
390
5F
100
AcDbHatch
 10
0.0
 20
0.0
 30
0.0
210
0.0
220
0.0
230
1.0
  2
SOLID
 70
     1
 71
     0
 91
        1
 92
        3
 72
     0
 73
     1
 93
        4
 10
37438.39589865287
 20
-18149.94081972079
 10
36557.75712898969
 20
-18149.94075900636
 10
36557.75712898969
 20
-18249.94075900636
 10
37438.39589865287
 20
-18249.94081972079
 97
        0
 75
     0
 76
     1
 98
        0
  0
LWPOLYLINE
  5
22F
330
1F
100
AcDbEntity
  8
Ech.1_5
  6
Continuous
 62
   190
370
    15
390
5F
100
AcDbPolyline
 90
        5
 70
     0
 43
0.0
 10
37438.39589865287
 20
-18149.94081972079
 10
36557.75712898969
 20
-18149.94075900636
 10
36557.75712898969
 20
-18249.94075900636
 10
37438.39589865287
 20
-18249.94081972079
 10
37438.39589865287
 20
-18149.94081972079
  0
HATCH
  5
230
330
1F
100
AcDbEntity
  8
Ech.1_5
  6
Continuous
 62
    33
420
 12426362
440
 33554687
370
    20
390
5F
100
AcDbHatch
 10
0.0
 20
0.0
 30
0.0
210
0.0
220
0.0
230
1.0
  2
SOLID
 70
     1
 71
     0
 91
        1
 92
        3
 72
     0
 73
     1
 93
        4
 10
35926.59137147781
 20
-18140.19377741572
 10
37430.19703409179
 20
-17592.92607215017
 10
37430.19703409179
 20
-17564.19322043133
 10
35917.35682760802
 20
-18114.82207665452
 97
        0
 75
     0
 76
     1
 98
        0
  0
LWPOLYLINE
  5
231
330
1F
100
AcDbEntity
  8
Ech.1_5
  6
Continuous
 62
     7
370
    20
390
5F
100
AcDbPolyline
 90
        5
 70
     0
 43
0.0
 10
35926.59137147781
 20
-18140.19377741572
 10
37430.19703409179
 20
-17592.92607215017
 10
37430.19703409179
 20
-17564.19322043133
 10
35917.35682760802
 20
-18114.82207665452
 10
35926.59137147781
 20
-18140.19377741572
  0
HATCH
  5
232
330
1F
100
AcDbEntity
  8
Ech.1_5
  6
Continuous
 62
   254
420
 15656413
440
 33554687
370
    20
390
5F
100
AcDbHatch
 10
0.0
 20
0.0
 30
0.0
210
0.0
220
0.0
230
1.0
  2
SOLID
 70
     1
 71
     0
 91
        1
 92
        3
 72
     0
 73
     1
 93
        6
 10
35911.53579967214
 20
-18145.67355741286
 10
35911.53579967216
 20
-18252.09133466047
 10
36711.63841871604
 20
-17960.87779697007
 10
37430.19703409179
 20
-17699.34384939778
 10
37430.19703409179
 20
-17592.92607215017
 10
36711.63841871604
 20
-17854.46001972246
 97
        0
 75
     0
 76
     1
 98
        0
  0
LWPOLYLINE
  5
233
330
1F
100
AcDbEntity
  8
Ech.1_5
  6
Continuous
 62
   190
370
    15
390
5F
100
AcDbPolyline
 90
        7
 70
     0
 43
0.0
 10
35911.53579967214
 20
-18145.67355741286
 10
35911.53579967216
 20
-18252.09133466047
 10
36711.63841871604
 20
-17960.87779697007
 10
37430.19703409179
 20
-17699.34384939778
 10
37430.19703409179
 20
-17592.92607215017
 10
36711.63841871604
 20
-17854.46001972246
 10
35911.53579967214
 20
-18145.67355741286
  0
HATCH
  5
234
330
1F
100
AcDbEntity
  8
Ech.1_5
  6
Continuous
 62
    33
420
 12426362
440
 33554687
370
    20
390
5F
100
AcDbHatch
 10
0.0
 20
0.0
 30
0.0
210
0.0
220
0.0
230
1.0
  2
SOLID
 70
     1
 71
     0
 91
        1
 92
        3
 72
     0
 73
     1
 93
       11
 10
36545.53183959122
 20
-18107.94075900636
 10
36545.53183959122
 20
-18087.94075900636
 10
36482.5357996722
 20
-18087.94075900636
 10
36445.85404682667
 20
-18087.94079495238
 10
36436.86809755184
 20
-18087.94075900636
 10
36436.85410357227
 20
-18087.94075900636
 10
36428.48777036613
 20
-18087.94075900636
 10
36365.53595243512
 20
-18087.94075900636
 10
36365.53579973684
 20
-18103.29496111901
 10
36365.53595243512
 20
-18132.94075900636
 10
36545.53183959122
 20
-18132.94075900636
 97
        0
 75
     0
 76
     1
 98
        0
  0
LWPOLYLINE
  5
235
330
1F
100
AcDbEntity
  8
Ech.1_5
  6
Continuous
 62
     7
370
    20
390
5F
100
AcDbPolyline
 90
       12
 70
     0
 43
0.0
 10
36545.53183959122
 20
-18107.94075900636
 10
36545.53183959122
 20
-18087.94075900636
 10
36482.5357996722
 20
-18087.94075900636
 10
36445.85404682667
 20
-18087.94079495238
 10
36436.86809755184
 20
-18087.94075900636
 10
36436.85410357227
 20
-18087.94075900636
 10
36428.48777036613
 20
-18087.94075900636
 10
36365.53595243512
 20
-18087.94075900636
 10
36365.53579973684
 20
-18103.29496111901
 10
36365.53595243512
 20
-18132.94075900636
 10
36545.53183959122
 20
-18132.94075900636
 10
36545.53183959122
 20
-18107.94075900636
  0
HATCH
  5
236
330
1F
100
AcDbEntity
  8
Ech.1_5
  6
Continuous
 62
    33
420
 12426362
440
 33554687
370
    20
390
5F
100
AcDbHatch
 10
0.0
 20
0.0
 30
0.0
210
0.0
220
0.0
230
1.0
  2
SOLID
 70
     1
 71
     0
 91
        1
 92
        3
 72
     0
 73
     1
 93
        5
 10
36545.53183959122
 20
-18132.94075900636
 10
36365.53595243512
 20
-18132.94075900636
 10
36365.53598016022
 20
-18177.94075900636
 10
36545.53183959122
 20
-18177.94075900636
 10
36545.53183959122
 20
-18134.00046778522
 97
        0
 75
     0
 76
     1
 98
        0
  0
LWPOLYLINE
  5
237
330
1F
100
AcDbEntity
  8
Ech.1_5
  6
Continuous
 62
     7
370
    20
390
5F
100
AcDbPolyline
 90
        6
 70
     0
 43
0.0
 10
36545.53183959122
 20
-18132.94075900636
 10
36365.53595243512
 20
-18132.94075900636
 10
36365.53598016022
 20
-18177.94075900636
 10
36545.53183959122
 20
-18177.94075900636
 10
36545.53183959122
 20
-18134.00046778522
 10
36545.53183959122
 20
-18132.94075900636
  0
HATCH
  5
238
330
1F
100
AcDbEntity
  8
Ech.1_5
  6
Continuous
 62
   254
420
 15656413
440
 33554687
370
    20
390
5F
100
AcDbHatch
 10
0.0
 20
0.0
 30
0.0
210
0.0
220
0.0
230
1.0
  2
SOLID
 70
     1
 71
     0
 91
        1
 92
        3
 72
     0
 73
     1
 93
        4
 10
36554.34484104931
 20
-18327.94081972056
 10
36594.34484104943
 20
-18327.94081972061
 10
36594.34484104943
 20
-18282.94081972056
 10
36554.34484104917
 20
-18282.94081972056
 97
        0
 75
     0
 76
     1
 98
        0
  0
LWPOLYLINE
  5
239
330
1F
100
AcDbEntity
  8
Ech.1_5
  6
Continuous
 62
   190
370
    15
390
5F
100
AcDbPolyline
 90
        5
 70
     0
 43
0.0
 10
36554.34484104931
 20
-18327.94081972056
 10
36594.34484104943
 20
-18327.94081972061
 10
36594.34484104943
 20
-18282.94081972056
 10
36554.34484104917
 20
-18282.94081972056
 10
36554.34484104931
 20
-18327.94081972056
  0
LWPOLYLINE
  5
23A
330
1F
100
AcDbEntity
  8
Ech.1_5
 62
     7
370
    20
390
5F
100
AcDbPolyline
 90
       57
 70
     0
 43
0.0
 10
35823.22829198099
 20
-18235.65464449923
 10
35824.62337914211
 20
-18235.45191827974
 10
35826.01957370805
 20
-18235.24727819143
 10
35827.41798308365
 20
-18235.03881036542
 10
35828.81971467372
 20
-18234.82460093294
 10
35830.22587588309
 20
-18234.60273602505
 10
35831.63757411658
 20
-18234.37130177306
 10
35833.05591677905
 20
-18234.12838430813
 10
35834.48201127529
 20
-18233.87206976127
 10
35835.91696501015
 20
-18233.60044426377
 10
35837.36188538844
 20
-18233.31159394676
 10
35838.81787981497
 20
-18233.00360494147
 10
35840.28605569461
 20
-18232.67456337896
 10
35841.76752043217
 20
-18232.32255539047
 10
35843.26338143245
 20
-18231.94566710717
 10
35844.77472666992
 20
-18231.54202931822
 10
35846.30079038357
 20
-18231.11403336177
 10
35847.83744718073
 20
-18230.6717922149
 10
35849.38021725422
 20
-18230.22623342653
 10
35850.9246207968
 20
-18229.78828454535
 10
35852.46617800128
 20
-18229.36887312022
 10
35854.00040906045
 20
-18228.97892669989
 10
35855.5228341671
 20
-18228.62937283335
 10
35857.02897351401
 20
-18228.33113906922
 10
35858.514347294
 20
-18228.09515295648
 10
35859.97447569983
 20
-18227.93234204378
 10
35861.40487892431
 20
-18227.85363388008
 10
35862.80107716021
 20
-18227.8699560142
 10
35864.15859060036
 20
-18227.99223599483
 10
35865.47293943752
 20
-18228.23140137089
 10
35866.73964386449
 20
-18228.59837969118
 10
35867.95422494459
 20
-18229.10409477294
 10
35869.11339910132
 20
-18229.75434653035
 10
35870.21744753355
 20
-18230.53965449175
 10
35871.26731301237
 20
-18231.44770236109
 10
35872.26393830885
 20
-18232.46617384202
 10
35873.20826619411
 20
-18233.58275263831
 10
35874.1012394392
 20
-18234.78512245387
 10
35874.94380081522
 20
-18236.06096699239
 10
35875.73689309324
 20
-18237.39796995761
 10
35876.48145904436
 20
-18238.7838150534
 10
35877.17844143965
 20
-18240.20618598343
 10
35877.82878305021
 20
-18241.65276645164
 10
35878.4334266471
 20
-18243.11124016163
 10
35878.99331500141
 20
-18244.5692908173
 10
35879.50942713079
 20
-18246.01486893242
 10
35879.98375617526
 20
-18247.44338995381
 10
35880.41942110093
 20
-18248.85855650907
 10
35880.81959953767
 20
-18250.26450304867
 10
35881.18746911532
 20
-18251.66536402312
 10
35881.5262074638
 20
-18253.06527388299
 10
35881.83899221296
 20
-18254.46836707863
 10
35882.12900099266
 20
-18255.87877806054
 10
35882.39943008915
 20
-18257.3005654654
 10
35882.65429398634
 20
-18258.73446301941
 10
35882.89872715966
 20
-18260.17665313865
 10
35883.13794497101
 20
-18261.6229895405
  0
ARC
  5
23B
330
1F
100
AcDbEntity
  8
Ech.1_5
 62
     7
370
    20
390
5F
100
AcDbCircle
 10
35814.52745715321
 20
-18168.42545074493
 30
0.0
 40
67.78988877076873
100
AcDbArc
 50
176.815193873501
 51
17.93332160349137
  0
LINE
  5
23C
330
1F
100
AcDbEntity
  8
Ech.1_5
 62
     7
370
    20
390
5F
100
AcDbLine
 10
35911.53579967219
 20
-18145.67355741286
 30
0.0
 11
36711.63841871607
 21
-17854.46001972246
 31
0.0
  0
LINE
  5
23D
330
1F
100
AcDbEntity
  8
Ech.1_5
 62
     7
370
    20
390
5F
100
AcDbLine
 10
35877.72929879422
 20
-18147.5522670318
 30
0.0
 11
35889.5357996722
 21
-18147.5522670318
 31
0.0
  0
ARC
  5
23E
330
1F
100
AcDbEntity
  8
Ech.1_5
 62
     7
370
    20
390
5F
100
AcDbCircle
 10
35886.51627063348
 20
-18261.00861208932
 30
0.0
 40
3.433736148023541
100
AcDbArc
 50
190.3070861007801
 51
331.5666171222102
  0
LINE
  5
23F
330
1F
100
AcDbEntity
  8
Ech.1_5
 62
     7
370
    20
390
5F
100
AcDbLine
 10
36545.53183959122
 20
-18107.94075900636
 30
0.0
 11
36545.53183959122
 21
-18134.00046778522
 31
0.0
  0
LINE
  5
240
330
1F
100
AcDbEntity
  8
Ech.1_5
 62
     7
370
    20
390
5F
100
AcDbLine
 10
36436.86809755184
 20
-18087.94075900636
 30
0.0
 11
36482.5357996722
 21
-18087.94075900636
 31
0.0
  0
LINE
  5
241
330
1F
100
AcDbEntity
  8
Ech.1_5
 62
     7
370
    20
390
5F
100
AcDbLine
 10
36624.03200297499
 20
-18087.94075900636
 30
0.0
 11
36711.63841871607
 21
-18087.94075900636
 31
0.0
  0
LINE
  5
242
330
1F
100
AcDbEntity
  8
Ech.1_5
 62
     7
370
    20
390
5F
100
AcDbLine
 10
36484.5357996722
 20
-18087.94075900636
 30
0.0
 11
36597.03200297499
 21
-18087.94075900636
 31
0.0
  0
HATCH
  5
243
330
1F
100
AcDbEntity
  8
Ech.1_5
  6
Continuous
 62
     7
440
 33554687
370
    20
390
5F
100
AcDbHatch
 10
0.0
 20
0.0
 30
0.0
210
0.0
220
0.0
230
1.0
  2
SOLID
 70
     1
 71
     0
 91
        1
 92
        3
 72
     0
 73
     1
 93
        3
 10
35987.18062485517
 20
-18092.63695630809
 10
36008.95610037535
 20
-18087.81273509474
 10
35989.92228987138
 20
-18099.43850397877
 97
        0
 75
     0
 76
     1
 98
        0
  0
LWPOLYLINE
  5
244
330
1F
100
AcDbEntity
  8
Ech.1_5
  6
Continuous
 62
     7
370
    20
390
5F
100
AcDbPolyline
 90
        4
 70
     0
 43
0.0
 10
35987.18062485517
 20
-18092.63695630809
 10
36008.95610037535
 20
-18087.81273509474
 10
35989.92228987138
 20
-18099.43850397877
 10
35987.18062485517
 20
-18092.63695630809
  0
ARC
  5
245
330
1F
100
AcDbEntity
  8
Ech.1_5
 62
     7
370
    20
390
5F
100
AcDbCircle
 10
36356.9291862471
 20
-18919.06647282927
 30
0.0
 40
901.7086349950184
100
AcDbArc
 50
114.1127130759932
 51
118.2275041445697
  0
ARC
  5
246
330
1F
100
AcDbEntity
  8
Ech.1_5
 62
     7
370
    20
390
5F
100
AcDbCircle
 10
35882.33269153001
 20
-18030.97207883861
 30
0.0
 40
105.2591268104722
100
AcDbArc
 50
263.4867137511956
 51
297.1989192035905
  0
LWPOLYLINE
  5
247
330
1F
100
AcDbEntity
  8
Ech.1_5
  6
Continuous
 62
   190
370
    15
390
5F
100
AcDbPolyline
 90
        3
 70
   128
 43
0.0
 10
36477.96549699527
 20
-18042.74319743056
 42
0.9999999999459639
 10
36477.96549699527
 20
-18041.12739797512
 42
0.9999999999639759
 10
36477.96549699527
 20
-18042.74319743056
  0
LWPOLYLINE
  5
248
330
1F
100
AcDbEntity
  8
Ech.1_5
  6
Continuous
 62
   190
370
    15
390
5F
100
AcDbPolyline
 90
        3
 70
   128
 43
0.0
 10
36477.96549699527
 20
-18058.07003695866
 42
0.999999999981988
 10
36477.96549699527
 20
-18056.45423750328
 42
1.0
 10
36477.96549699527
 20
-18058.07003695866
  0
LWPOLYLINE
  5
249
330
1F
100
AcDbEntity
  8
Ech.1_5
  6
Continuous
 62
   190
370
    15
390
5F
100
AcDbPolyline
 90
        3
 70
   128
 43
0.0
 10
36455.74263429828
 20
-18058.07003695866
 42
1.0
 10
36455.74263429828
 20
-18056.45423750328
 42
1.0
 10
36455.74263429828
 20
-18058.07003695866
  0
LWPOLYLINE
  5
24A
330
1F
100
AcDbEntity
  8
Ech.1_5
  6
Continuous
 62
   190
370
    15
390
5F
100
AcDbPolyline
 90
        3
 70
   128
 43
0.0
 10
36455.74263429828
 20
-18042.74319743056
 42
0.9999999999639759
 10
36455.74263429828
 20
-18041.12739797512
 42
0.9999999999639759
 10
36455.74263429828
 20
-18042.74319743056
  0
LWPOLYLINE
  5
24B
330
1F
100
AcDbEntity
  8
Ech.1_5
  6
Continuous
 62
   190
370
    15
390
5F
100
AcDbPolyline
 90
        3
 70
   128
 43
0.0
 10
36467.35385416546
 20
-18066.20178267464
 42
1.0
 10
36467.35385416546
 20
-18064.58598321926
 42
1.0
 10
36467.35385416546
 20
-18066.20178267464
  0
LWPOLYLINE
  5
24C
330
1F
100
AcDbEntity
  8
Ech.1_5
  6
Continuous
 62
   190
370
    15
390
5F
100
AcDbPolyline
 90
        3
 70
   128
 43
0.0
 10
36467.35385416546
 20
-18050.87494314653
 42
1.0
 10
36467.35385416546
 20
-18049.25914369115
 42
1.0
 10
36467.35385416546
 20
-18050.87494314653
  0
HATCH
  5
24D
330
1F
100
AcDbEntity
  8
Ech.1_5
  6
Continuous
 62
   254
420
 14407639
440
 33554687
370
    20
390
5F
100
AcDbHatch
 10
0.0
 20
0.0
 30
0.0
210
0.0
220
0.0
230
1.0
  2
SOLID
 70
     1
 71
     0
 91
        1
 92
        3
 72
     0
 73
     1
 93
        4
 10
36607.34467854792
 20
-18262.94081972079
 10
36594.34467854792
 20
-18262.94081972079
 10
36594.34472650941
 20
-18421.28067949012
 10
36607.34472650941
 20
-18421.28067949012
 97
        0
 75
     0
 76
     1
 98
        0
  0
LWPOLYLINE
  5
24E
330
1F
100
AcDbEntity
  8
Ech.1_5
  6
Continuous
 62
   190
370
    15
390
5F
100
AcDbPolyline
 90
        5
 70
     0
 43
0.0
 10
36607.34467854792
 20
-18262.94081972079
 10
36594.34467854792
 20
-18262.94081972079
 10
36594.34472650941
 20
-18421.28067949012
 10
36607.34472650941
 20
-18421.28067949012
 10
36607.34467854792
 20
-18262.94081972079
  0
LWPOLYLINE
  5
24F
330
1F
100
AcDbEntity
  8
Ech.1_5
  6
Continuous
 62
   190
370
    15
390
5F
100
AcDbPolyline
 90
        4
 70
     0
 43
0.0
 10
36554.34484104917
 20
-18282.94081972056
 10
36594.34484104933
 20
-18327.94081972061
 10
36594.34484104943
 20
-18282.94081972056
 10
36554.34484104931
 20
-18327.94081972056
  0
HATCH
  5
250
330
1F
100
AcDbEntity
  8
Ech.1_5
  6
Continuous
 62
   254
420
 14407639
440
 33554687
370
    20
390
5F
100
AcDbHatch
 10
0.0
 20
0.0
 30
0.0
210
0.0
220
0.0
230
1.0
  2
SOLID
 70
     1
 71
     0
 91
        1
 92
        3
 72
     0
 73
     1
 93
        4
 10
37438.39589865287
 20
-18262.94084227998
 10
37438.39589865287
 20
-18249.94084227998
 10
36557.75712898969
 20
-18249.94098222208
 10
36557.75712898969
 20
-18262.94098222208
 97
        0
 75
     0
 76
     1
 98
        0
  0
LWPOLYLINE
  5
251
330
1F
100
AcDbEntity
  8
Ech.1_5
  6
Continuous
 62
   190
370
    15
390
5F
100
AcDbPolyline
 90
        5
 70
     0
 43
0.0
 10
37438.39589865287
 20
-18262.94084227998
 10
37438.39589865287
 20
-18249.94084227998
 10
36557.75712898969
 20
-18249.94098222208
 10
36557.75712898969
 20
-18262.94098222208
 10
37438.39589865287
 20
-18262.94084227998
  0
HATCH
  5
253
330
1F
100
AcDbEntity
  8
Ech.1_5
  6
Continuous
 62
   190
440
 33554687
370
    15
390
252
100
AcDbHatch
 10
0.0
 20
0.0
 30
0.0
210
0.0
220
0.0
230
1.0
  2
CwHatchPattern_84
 70
     0
 71
     0
 91
        1
 92
        3
 72
     0
 73
     1
 93
        4
 10
37438.39589865287
 20
-18262.94081972079
 10
37438.39589865287
 20
-18249.94081972079
 10
36557.75712898969
 20
-18249.94081972079
 10
36557.75712898969
 20
-18262.94081972079
 97
        0
 75
     0
 76
     2
 52
0.0
 41
1.0
 77
     0
 78
     2
 53
0.0
 43
0.0
 44
0.0
 45
0.0
 46
70.0
 79
     2
 49
0.0
 49
-70.0
 53
0.0
 43
35.0
 44
35.0
 45
0.0
 46
70.0
 79
     2
 49
0.0
 49
-70.0
 98
        0
1001
ACAD
1010
0.0
1020
0.0
1030
0.0
  0
LWPOLYLINE
  5
254
330
1F
100
AcDbEntity
  8
Ech.1_5
  6
Continuous
 62
     7
370
    20
390
5F
100
AcDbPolyline
 90
        5
 70
     0
 43
0.0
 10
37438.39589865287
 20
-18262.94081972079
 10
37438.39589865287
 20
-18249.94081972079
 10
36557.75712898969
 20
-18249.94081972079
 10
36557.75712898969
 20
-18262.94081972079
 10
37438.39589865287
 20
-18262.94081972079
  0
LWPOLYLINE
  5
255
330
1F
100
AcDbEntity
  8
Ech.1_5
370
    20
390
5F
100
AcDbPolyline
 90
        4
 70
     0
 43
0.0
 10
37438.39589865287
 20
-18249.94081972079
 10
36557.75712898969
 20
-18249.94081972079
 10
36557.75712898969
 20
-18262.94081972079
 10
37438.39589865287
 20
-18262.94081972079
  0
LWPOLYLINE
  5
256
330
1F
100
AcDbEntity
  8
Ech.1_5
370
    20
390
5F
100
AcDbPolyline
 90
        4
 70
     0
 43
0.0
 10
37438.39589865287
 20
-18249.94081972079
 10
36557.7571289897
 20
-18249.94081972079
 10
36557.75712898969
 20
-18225.2586496254
 10
37438.39589865287
 20
-18225.2586496254
  0
LWPOLYLINE
  5
257
330
1F
100
AcDbEntity
  8
Ech.1_5
370
    20
390
5F
100
AcDbPolyline
 90
        4
 70
     0
 43
0.0
 10
36365.53588521238
 20
-18421.28067949012
 10
36365.53595243514
 20
-18177.94075900636
 10
36545.53183959125
 20
-18177.94075900636
 10
36545.54347267258
 20
-18421.28067949012
  0
LWPOLYLINE
  5
258
330
1F
100
AcDbEntity
  8
Ech.1_5
  6
Continuous
 62
   190
370
    15
390
5F
100
AcDbPolyline
 90
        4
 70
     0
 43
0.0
 10
36365.53595243512
 20
-18132.94075900636
 10
36545.53183959122
 20
-18177.94075900636
 10
36545.53183959123
 20
-18132.94075900636
 10
36365.53595243512
 20
-18177.94075900636
  0
LWPOLYLINE
  5
259
330
1F
100
AcDbEntity
  8
Ech.1_5
  6
Continuous
 62
   190
370
    15
390
5F
100
AcDbPolyline
 90
        4
 70
     0
 43
0.0
 10
36365.53595243512
 20
-18087.94075900636
 10
36545.53183959123
 20
-18132.94075900636
 10
36545.53183959122
 20
-18087.94075900636
 10
36365.53595243514
 20
-18132.94075900636
  0
LWPOLYLINE
  5
25A
330
1F
100
AcDbEntity
  8
Ech.1_5
370
    50
390
5F
100
AcDbPolyline
 90
        3
 70
     0
 43
0.0
 10
36558.76574866324
 20
-18225.2586496254
 10
36558.76574866324
 20
-18248.33716653176
 10
36584.62793318226
 20
-18248.33716653176
  0
LWPOLYLINE
  5
25B
330
1F
100
AcDbEntity
  8
Ech.1_5
  6
Continuous
 62
     7
370
    20
390
5F
100
AcDbPolyline
 90
       10
 70
     0
 43
0.0
 10
35889.5357996722
 20
-18303.35478569048
 42
-0.4142135623755389
 10
35902.39982477351
 20
-18316.21881079178
 10
35911.53579967219
 20
-18316.21881079178
 10
35911.53579967219
 20
-18293.68991853104
 10
35902.10986047027
 20
-18293.68991853104
 10
35902.10986047027
 20
-18279.6086326944
 10
35911.53579967219
 20
-18279.6086326944
 10
35911.53579967214
 20
-18145.67355741286
 10
35889.5357996722
 20
-18145.67355741286
 10
35889.5357996722
 20
-18303.35478569048
  0
HATCH
  5
25C
330
1F
100
AcDbEntity
  8
Ech.1_5
  6
Continuous
 62
    33
420
 12426362
440
 33554687
370
    20
390
5F
100
AcDbHatch
 10
0.0
 20
0.0
 30
0.0
210
0.0
220
0.0
230
1.0
  2
SOLID
 70
     1
 71
     0
 91
        1
 92
        3
 72
     1
 73
     1
 93
        9
 10
35889.53579967219
 20
-18303.35478569048
 42
-0.4142135623755873
 10
35902.39982477351
 20
-18316.21881079178
 42
0.0
 10
35911.53579967219
 20
-18316.21881079178
 42
0.0
 10
35911.53579967219
 20
-18293.68991853104
 42
0.0
 10
35902.10986047027
 20
-18293.68991853104
 42
0.0
 10
35902.10986047027
 20
-18279.6086326944
 42
0.0
 10
35911.53579967219
 20
-18279.6086326944
 42
0.0
 10
35911.53579967214
 20
-18145.67355741286
 42
0.0
 10
35889.5357996722
 20
-18145.67355741286
 42
0.0
 97
        0
 75
     0
 76
     1
 98
        0
  0
LWPOLYLINE
  5
25D
330
1F
100
AcDbEntity
  8
Ech.1_5
  6
Continuous
 62
     7
370
    20
390
5F
100
AcDbPolyline
 90
       10
 70
     0
 43
0.0
 10
35889.53579967219
 20
-18303.35478569048
 42
-0.41421356237587
 10
35902.39982477351
 20
-18316.21881079178
 10
35911.53579967219
 20
-18316.21881079178
 10
35911.53579967219
 20
-18293.68991853104
 10
35902.10986047027
 20
-18293.68991853104
 10
35902.10986047027
 20
-18279.6086326944
 10
35911.53579967219
 20
-18279.6086326944
 10
35911.53579967214
 20
-18145.67355741286
 10
35889.5357996722
 20
-18145.67355741286
 10
35889.53579967219
 20
-18303.35478569048
  0
LWPOLYLINE
  5
25E
330
1F
100
AcDbEntity
  8
Ech.1_5
370
    20
390
5F
100
AcDbPolyline
 90
       10
 70
     0
 43
0.0
 10
35977.2919800129
 20
-18121.74026504979
 10
35976.60793972625
 20
-18119.86087980819
 10
35925.51906696703
 20
-18138.45570879481
 10
35868.25535792799
 20
-18145.9847412515
 10
35868.25535792799
 20
-18174.59256085305
 10
35872.97208396993
 20
-18169.33146404899
 10
35870.25535792799
 20
-18169.33146404899
 10
35870.25535792799
 20
-18147.73899417096
 10
35925.99711984534
 20
-18140.41006732167
 10
35977.2919800129
 20
-18121.74026504979
  0
HATCH
  5
25F
330
1F
100
AcDbEntity
  8
Ech.1_5
  6
Continuous
 62
   173
420
  6710988
440
 33554687
370
    20
390
5F
100
AcDbHatch
 10
0.0
 20
0.0
 30
0.0
210
0.0
220
0.0
230
1.0
  2
SOLID
 70
     1
 71
     0
 91
        1
 92
        3
 72
     0
 73
     1
 93
        9
 10
35977.2919800129
 20
-18121.74026504979
 10
35976.60793972625
 20
-18119.86087980819
 10
35925.51906696703
 20
-18138.45570879481
 10
35868.25535792799
 20
-18145.9847412515
 10
35868.25535792799
 20
-18174.59256085305
 10
35872.97208396993
 20
-18169.33146404899
 10
35870.25535792799
 20
-18169.33146404899
 10
35870.25535792799
 20
-18147.73899417096
 10
35925.99711984534
 20
-18140.41006732167
 97
        0
 75
     0
 76
     1
 98
        0
  0
LWPOLYLINE
  5
260
330
1F
100
AcDbEntity
  8
Ech.1_5
  6
Continuous
 62
   190
370
    15
390
5F
100
AcDbPolyline
 90
       10
 70
     0
 43
0.0
 10
35977.2919800129
 20
-18121.74026504979
 10
35976.60793972625
 20
-18119.86087980819
 10
35925.51906696703
 20
-18138.45570879481
 10
35868.25535792799
 20
-18145.9847412515
 10
35868.25535792799
 20
-18174.59256085305
 10
35872.97208396993
 20
-18169.33146404899
 10
35870.25535792799
 20
-18169.33146404899
 10
35870.25535792799
 20
-18147.73899417096
 10
35925.99711984534
 20
-18140.41006732167
 10
35977.2919800129
 20
-18121.74026504979
  0
LWPOLYLINE
  5
261
330
1F
100
AcDbEntity
  8
Ech.1_5
370
    20
390
5F
100
AcDbPolyline
 90
        4
 70
     0
 43
0.0
 10
37430.19703409179
 20
-18087.94075900636
 10
36362.5357996722
 20
-18087.94075900636
 10
36637.28354161768
 20
-17987.94075900636
 10
37430.19703409179
 20
-17987.94075900636
  0
LWPOLYLINE
  5
262
330
1F
100
AcDbEntity
  8
Ech.1_5
  6
Continuous
 62
   190
370
    15
390
5F
100
AcDbPolyline
 90
        5
 70
     0
 43
0.0
 10
36445.85404682667
 20
-17987.94079495238
 10
37430.19703409179
 20
-17987.94075900636
 10
37430.19703409179
 20
-18087.94075900636
 10
36445.85404682667
 20
-18087.94079495238
 10
36445.85404682667
 20
-17987.94079495238
  0
LWPOLYLINE
  5
263
330
1F
100
AcDbEntity
  8
Ech.1_5
  6
Continuous
 62
   190
370
    15
390
5F
100
AcDbPolyline
 90
        4
 70
     0
 43
0.0
 10
36436.85402324186
 20
-18087.94075900636
 10
36436.85402324186
 20
-17975.84578441496
 10
36445.85402330622
 20
-17975.84578441496
 10
36445.85406576574
 20
-18087.94075900636
  0
HATCH
  5
264
330
1F
100
AcDbEntity
  8
Ech.1_5
  6
Continuous
 62
    33
420
 12426362
440
 33554687
370
    20
390
5F
100
AcDbHatch
 10
0.0
 20
0.0
 30
0.0
210
0.0
220
0.0
230
1.0
  2
SOLID
 70
     1
 71
     0
 91
        1
 92
        3
 72
     0
 73
     1
 93
        4
 10
35911.53579967219
 20
-18252.09133466047
 10
35949.12350450362
 20
-18238.41052892739
 10
35958.35804837341
 20
-18263.78222968865
 10
35920.77034354198
 20
-18277.46303542167
 97
        0
 75
     0
 76
     1
 98
        0
  0
LWPOLYLINE
  5
265
330
1F
100
AcDbEntity
  8
Ech.1_5
  6
Continuous
 62
     7
370
    20
390
5F
100
AcDbPolyline
 90
        5
 70
     0
 43
0.0
 10
35911.53579967219
 20
-18252.09133466047
 10
35949.12350450362
 20
-18238.41052892739
 10
35958.35804837341
 20
-18263.78222968865
 10
35920.77034354198
 20
-18277.46303542167
 10
35911.53579967219
 20
-18252.09133466047
  0
LWPOLYLINE
  5
266
330
1F
100
AcDbEntity
  8
Ech.1_5
  6
Continuous
 62
   190
370
    15
390
5F
100
AcDbPolyline
 90
        4
 70
     0
 43
0.0
 10
35949.12350450362
 20
-18238.41052892739
 10
35920.77034354198
 20
-18277.46303542167
 10
35958.35804837341
 20
-18263.78222968865
 10
35911.53579967219
 20
-18252.09133466047
  0
HATCH
  5
267
330
1F
100
AcDbEntity
  8
Ech.1_5
  6
Continuous
 62
    33
420
 12426362
440
 33554687
370
    20
390
5F
100
AcDbHatch
 10
0.0
 20
0.0
 30
0.0
210
0.0
220
0.0
230
1.0
  2
SOLID
 70
     1
 71
     0
 91
        1
 92
        3
 72
     0
 73
     1
 93
        4
 10
36241.71355059047
 20
-18131.99312354827
 10
36279.3012554219
 20
-18118.31231781525
 10
36288.5357992917
 20
-18143.68401857645
 10
36250.94809446027
 20
-18157.36482430947
 97
        0
 75
     0
 76
     1
 98
        0
  0
LWPOLYLINE
  5
268
330
1F
100
AcDbEntity
  8
Ech.1_5
  6
Continuous
 62
     7
370
    20
390
5F
100
AcDbPolyline
 90
        5
 70
     0
 43
0.0
 10
36241.71355059047
 20
-18131.99312354827
 10
36279.3012554219
 20
-18118.31231781525
 10
36288.5357992917
 20
-18143.68401857645
 10
36250.94809446027
 20
-18157.36482430947
 10
36241.71355059047
 20
-18131.99312354827
  0
LWPOLYLINE
  5
269
330
1F
100
AcDbEntity
  8
Ech.1_5
  6
Continuous
 62
   190
370
    15
390
5F
100
AcDbPolyline
 90
        4
 70
     0
 43
0.0
 10
36279.3012554219
 20
-18118.31231781525
 10
36250.94809446027
 20
-18157.36482430947
 10
36288.5357992917
 20
-18143.68401857645
 10
36241.71355059047
 20
-18131.99312354827
  0
LWPOLYLINE
  5
26A
330
1F
100
AcDbEntity
  8
Ech.1_5
  6
Continuous
 62
   190
370
    15
390
5F
100
AcDbPolyline
 90
        5
 70
     0
 43
0.0
 10
36445.85406564677
 20
-18032.02598027308
 10
36487.85406564678
 20
-18032.02598558674
 10
36487.85406564678
 20
-18087.6267117217
 10
36445.85406564678
 20
-18087.62669232737
 10
36445.85406564677
 20
-18032.02598558674
  0
LINE
  5
26B
330
1F
100
AcDbEntity
  8
Ech.1_5
370
    20
390
5F
100
AcDbLine
 10
36362.5357996722
 20
-18087.94075900636
 30
0.0
 11
36395.8357996722
 21
-18087.94075900636
 31
0.0
  0
LWPOLYLINE
  5
26C
330
1F
100
AcDbEntity
  8
Ech.1_5
 62
     3
370
    70
390
5F
100
AcDbPolyline
 90
        4
 70
     0
 43
0.0
 10
36556.15599800859
 20
-18290.47169547959
 10
36556.15599800859
 20
-18277.48256205954
 10
36561.83661097058
 20
-18273.54782991869
 10
36561.8366109706
 20
-18260.06939991774
  0
ARC
  5
26D
330
1F
100
AcDbEntity
  8
Ech.1_5
 62
     7
370
    20
390
5F
100
AcDbCircle
 10
35813.72128191033
 20
-18160.56608767529
 30
0.0
 40
65.31757614264231
100
AcDbArc
 50
182.9351195424764
 51
11.68289665008229
  0
ARC
  5
26E
330
1F
100
AcDbEntity
  8
Ech.1_5
 62
     7
370
    20
390
5F
100
AcDbCircle
 10
35813.72128191034
 20
-18160.56608767531
 30
0.0
 40
62.81757614265042
100
AcDbArc
 50
180.1228756673916
 51
11.68289665012543
  0
CIRCLE
  5
26F
330
1F
100
AcDbEntity
  8
Ech.1_5
 62
     7
370
    20
390
5F
100
AcDbCircle
 10
35745.24421572362
 20
-18158.9566574438
 30
0.0
 40
5.922289597947383
  0
LINE
  5
270
330
1F
100
AcDbEntity
  8
Ech.1_5
 62
     7
370
    20
390
5F
100
AcDbLine
 10
35875.23748523493
 20
-18147.84584392903
 30
0.0
 11
35877.68569348739
 21
-18147.33960648224
 31
0.0
  0
LWPOLYLINE
  5
271
330
1F
100
AcDbEntity
  8
Ech.1_5
  6
Continuous
 62
   190
370
    15
390
5F
100
AcDbPolyline
 90
        5
 70
     0
 43
0.0
 10
36453.1137138014
 20
-18085.12632912402
 42
-1.000000000019016
 10
36458.47054024662
 20
-18085.12632912402
 10
36458.47054024662
 20
-18066.54484598216
 42
1.000000000019016
 10
36453.1137138014
 20
-18066.54484598216
 10
36453.1137138014
 20
-18085.12632912402
  0
LWPOLYLINE
  5
272
330
1F
100
AcDbEntity
  8
Ech.1_5
  6
Continuous
 62
   190
370
    15
390
5F
100
AcDbPolyline
 90
        5
 70
     0
 43
0.0
 10
36480.59441749216
 20
-18085.12632912402
 10
36480.59441749216
 20
-18066.54484598216
 42
1.000000000019016
 10
36475.23759104694
 20
-18066.54484598216
 10
36475.23759104694
 20
-18085.12632912402
 42
-1.000000000019016
 10
36480.59441749216
 20
-18085.12632912402
  0
HATCH
  5
273
330
1F
100
AcDbEntity
  8
Ech.1_5
  6
Continuous
 62
   190
440
 33554687
370
    15
390
252
100
AcDbHatch
 10
0.0
 20
0.0
 30
0.0
210
0.0
220
0.0
230
1.0
  2
CwHatchPattern_84
 70
     0
 71
     0
 91
        1
 92
        3
 72
     0
 73
     1
 93
        4
 10
36594.34467854796
 20
-18262.94097650557
 10
36594.34472650941
 20
-18421.28067949012
 10
36607.34472650941
 20
-18421.28067949012
 10
36607.34467854792
 20
-18262.94081972079
 97
        0
 75
     0
 76
     2
 52
0.0
 41
1.0
 77
     0
 78
     2
 53
0.0
 43
0.0
 44
0.0
 45
0.0
 46
70.0
 79
     2
 49
0.0
 49
-70.0
 53
0.0
 43
35.0
 44
35.0
 45
0.0
 46
70.0
 79
     2
 49
0.0
 49
-70.0
 98
        0
1001
ACAD
1010
0.0
1020
0.0
1030
0.0
  0
LWPOLYLINE
  5
274
330
1F
100
AcDbEntity
  8
Ech.1_5
  6
Continuous
 62
     7
370
    20
390
5F
100
AcDbPolyline
 90
        5
 70
     0
 43
0.0
 10
36594.34467854796
 20
-18262.94097650557
 10
36594.34472650941
 20
-18421.28067949012
 10
36607.34472650941
 20
-18421.28067949012
 10
36607.34467854792
 20
-18262.94081972079
 10
36594.34467854796
 20
-18262.94097650557
  0
LWPOLYLINE
  5
275
330
1F
100
AcDbEntity
  8
Ech.1_5
  6
Continuous
 62
     7
370
    20
390
5F
100
AcDbPolyline
 90
        6
 70
     0
 43
0.0
 10
37430.19703409179
 20
-17699.34384939778
 10
36711.63841871604
 20
-17960.87779697007
 10
35911.53579967216
 20
-18252.09133466047
 10
35911.53579967214
 20
-18145.67355741286
 10
36711.63841871604
 20
-17854.46001972246
 10
37430.19703409179
 20
-17592.92607215017
  0
HATCH
  5
276
330
1F
100
AcDbEntity
  8
Ech.1_5
  6
Continuous
 62
    33
420
 12426362
440
 33554687
370
    20
390
5F
100
AcDbHatch
 10
0.0
 20
0.0
 30
0.0
210
0.0
220
0.0
230
1.0
  2
SOLID
 70
     1
 71
     0
 91
        1
 92
        3
 72
     0
 73
     1
 93
        5
 10
36391.86809755184
 20
-18087.94075900636
 10
36436.86809755184
 20
-18087.94075900636
 10
36436.86809755184
 20
-17997.94075900636
 10
36413.28673854278
 20
-17997.94075900636
 10
36391.86809755184
 20
-17997.94075900636
 97
        0
 75
     0
 76
     1
 98
        0
  0
LWPOLYLINE
  5
277
330
1F
100
AcDbEntity
  8
Ech.1_5
  6
Continuous
 62
     7
370
    20
390
5F
100
AcDbPolyline
 90
        6
 70
     0
 43
0.0
 10
36391.86809755184
 20
-18087.94075900636
 10
36436.86809755184
 20
-18087.94075900636
 10
36436.86809755184
 20
-17997.94075900636
 10
36413.28673854278
 20
-17997.94075900636
 10
36391.86809755184
 20
-17997.94075900636
 10
36391.86809755184
 20
-18087.94075900636
  0
LWPOLYLINE
  5
278
330
1F
100
AcDbEntity
  8
Ech.1_5
  6
Continuous
 62
   190
370
    15
390
5F
100
AcDbPolyline
 90
        4
 70
     0
 43
0.0
 10
36391.86809755184
 20
-18087.94075900636
 10
36436.86809755184
 20
-17997.94075900636
 10
36391.86809755184
 20
-17997.94075900636
 10
36436.86809755184
 20
-18087.94075900636
  0
HATCH
  5
279
330
1F
100
AcDbEntity
  8
Ech.1_5
  6
Continuous
 62
    40
420
 16297258
440
 33554687
370
    20
390
5F
100
AcDbHatch
 10
0.0
 20
0.0
 30
0.0
210
0.0
220
0.0
230
1.0
  2
SOLID
 70
     1
 71
     0
 91
        1
 92
        3
 72
     0
 73
     1
 93
        4
 10
36445.85387060793
 20
-17957.15801582307
 10
36436.85387054356
 20
-17957.15801582307
 10
36436.85410357227
 20
-18087.94075900636
 10
36445.85410363662
 20
-18087.94075900636
 97
        0
 75
     0
 76
     1
 98
        0
  0
LWPOLYLINE
  5
27A
330
1F
100
AcDbEntity
  8
Ech.1_5
  6
Continuous
 62
   190
370
    15
390
5F
100
AcDbPolyline
 90
        5
 70
     0
 43
0.0
 10
36445.85387060793
 20
-17957.15801582307
 10
36436.85387054356
 20
-17957.15801582307
 10
36436.85410357227
 20
-18087.94075900636
 10
36445.85410363662
 20
-18087.94075900636
 10
36445.85387060793
 20
-17957.15801582307
  0
HATCH
  5
27B
330
1F
100
AcDbEntity
  8
Ech.1_5
  6
Continuous
 62
   190
440
 33554687
370
    15
390
5F
100
AcDbHatch
 10
0.0
 20
0.0
 30
0.0
210
0.0
220
0.0
230
1.0
  2
CwHatchPattern_74
 70
     0
 71
     0
 91
        1
 92
        3
 72
     0
 73
     1
 93
        4
 10
36436.85410357227
 20
-18087.94075900636
 10
36445.85410363662
 20
-18087.94075900636
 10
36445.85387060794
 20
-17957.15801582307
 10
36436.85387054356
 20
-17957.15801582307
 97
        0
 75
     0
 76
     2
 52
0.0
 41
0.6000000238418579
 77
     0
 78
     3
 53
45.00000000000297
 43
0.0
 44
0.0
 45
-0.0000000000043443
 46
42.00000166893005
 79
     0
 53
45.00000000000297
 43
0.0
 44
10.80000042915344
 45
-0.0000000000043443
 46
42.00000166893005
 79
     0
 53
45.00000000000297
 43
0.0
 44
21.60000085830688
 45
-0.0000000000043443
 46
42.00000166893005
 79
     0
 98
        0
1001
ACAD
1010
0.0
1020
0.0
1030
0.0
  0
LWPOLYLINE
  5
27C
330
1F
100
AcDbEntity
  8
Ech.1_5
  6
Continuous
 62
     7
370
    20
390
5F
100
AcDbPolyline
 90
        5
 70
     0
 43
0.0
 10
36436.85410357227
 20
-18087.94075900636
 10
36445.85410363662
 20
-18087.94075900636
 10
36445.85387060794
 20
-17957.15801582307
 10
36436.85387054356
 20
-17957.15801582307
 10
36436.85410357227
 20
-18087.94075900636
  0
LWPOLYLINE
  5
27D
330
1F
100
AcDbEntity
  8
Ech.1_5
370
    20
390
5F
100
AcDbPolyline
 90
        5
 70
     0
 43
0.0
 10
36557.75712898969
 20
-18149.94075900636
 10
37438.39589865287
 20
-18149.94081972079
 10
37438.39589865287
 20
-18249.94081972079
 10
36557.75712898969
 20
-18249.94075900636
 10
36557.75712898969
 20
-18149.94075900636
  0
LWPOLYLINE
  5
27E
330
1F
100
AcDbEntity
  8
Ech.1_5
  6
Continuous
 62
   190
370
    15
390
5F
100
AcDbPolyline
 90
        5
 70
     0
 43
0.0
 10
37430.19703409179
 20
-17592.92607215017
 10
35926.59137147781
 20
-18140.19377741572
 10
35917.35682760802
 20
-18114.82207665452
 10
37430.19703409179
 20
-17564.19322043133
 10
37430.19703409179
 20
-17592.92607215017
  0
LWPOLYLINE
  5
27F
330
1F
100
AcDbEntity
  8
Ech.1_5
  6
Continuous
 62
   190
370
    15
390
5F
100
AcDbPolyline
 90
       16
 70
     0
 43
0.0
 10
36395.53526696116
 20
-18177.940744446
 42
1.140281805120324
 10
36403.29970700799
 20
-18236.9171631906
 10
36507.76812869956
 20
-18208.9622110378
 42
-1.303226186855704
 10
36507.7681568281
 20
-18266.91642701206
 10
36403.29970800025
 20
-18238.96157626836
 42
1.303226186855453
 10
36403.29973612877
 20
-18296.91579224262
 10
36507.76815782036
 20
-18268.96084008982
 42
-1.303226186855453
 10
36507.76818594888
 20
-18326.91505606408
 10
36403.29973712104
 20
-18298.96020532038
 42
1.303226186855704
 10
36403.29976524957
 20
-18356.91442129463
 10
36507.76818694115
 20
-18328.95946914184
 42
-1.303226186855704
 10
36507.76821506968
 20
-18386.91368511609
 10
36403.29976624183
 20
-18358.9588343724
 42
1.303226186855453
 10
36403.29979437035
 20
-18416.91305034665
 10
36507.76821606194
 20
-18388.95809819386
 42
-0.5283712992459508
 10
36545.34484104917
 20
-18421.28059221856
  0
LWPOLYLINE
  5
280
330
1F
100
AcDbEntity
  8
Ech.1_5
  6
Continuous
 62
   190
370
    15
390
5F
100
AcDbPolyline
 90
        6
 70
     0
 43
0.0
 10
36272.47784806893
 20
-18421.28124141011
 10
36472.23944485365
 20
-18421.28067949012
 10
36488.72494800955
 20
-18403.30333108274
 10
36474.61500799174
 20
-18439.25903109455
 10
36491.10136207326
 20
-18421.28067949012
 10
36618.10136207326
 20
-18421.28067949012
  0
HATCH
  5
281
330
1F
100
AcDbEntity
  8
Ech.1_5
  6
Continuous
 62
   254
420
 15656413
440
 33554687
370
    20
390
5F
100
AcDbHatch
 10
0.0
 20
0.0
 30
0.0
210
0.0
220
0.0
230
1.0
  2
SOLID
 70
     1
 71
     0
 91
        1
 92
        3
 72
     0
 73
     1
 93
        4
 10
37052.78127927624
 20
-18147.94075900636
 10
37052.78127927624
 20
-18087.94075900636
 10
37010.78127927624
 20
-18087.94075900636
 10
37010.78127927624
 20
-18147.94075900636
 97
        0
 75
     0
 76
     1
 98
        0
  0
LWPOLYLINE
  5
282
330
1F
100
AcDbEntity
  8
Ech.1_5
  6
Continuous
 62
   190
370
    15
390
5F
100
AcDbPolyline
 90
        5
 70
     0
 43
0.0
 10
37052.78127927624
 20
-18147.94075900636
 10
37052.78127927624
 20
-18087.94075900636
 10
37010.78127927624
 20
-18087.94075900636
 10
37010.78127927624
 20
-18147.94075900636
 10
37052.78127927624
 20
-18147.94075900636
  0
LWPOLYLINE
  5
283
330
1F
100
AcDbEntity
  8
Ech.1_5
  6
Continuous
 62
   190
370
    15
390
5F
100
AcDbPolyline
 90
        4
 70
     0
 43
0.0
 10
37010.78127927624
 20
-18147.94075900636
 10
37052.78127927624
 20
-18087.94075900636
 10
37052.78127927624
 20
-18147.94075900636
 10
37010.78127927624
 20
-18087.94075900636
  0
HATCH
  5
284
330
1F
100
AcDbEntity
  8
Ech.1_5
  6
Continuous
 62
   254
420
 16643007
440
 33554687
370
    20
390
5F
100
AcDbHatch
 10
0.0
 20
0.0
 30
0.0
210
0.0
220
0.0
230
1.0
  2
SOLID
 70
     1
 71
     0
 91
        1
 92
        3
 72
     0
 73
     1
 93
        5
 10
37430.19703409179
 20
-17887.94075900636
 10
36619.65084354687
 20
-17887.94075900636
 10
36499.66482796379
 20
-17931.61209720678
 10
36499.66482796379
 20
-17987.94079298732
 10
37430.19703409179
 20
-17989.10106887313
 97
        0
 75
     0
 76
     1
 98
        0
  0
LWPOLYLINE
  5
285
330
1F
100
AcDbEntity
  8
Ech.1_5
  6
Continuous
 62
   190
370
    15
390
5F
100
AcDbPolyline
 90
        6
 70
     0
 43
0.0
 10
37430.19703409179
 20
-17887.94075900636
 10
36619.65084354687
 20
-17887.94075900636
 10
36499.66482796379
 20
-17931.61209720678
 10
36499.66482796379
 20
-17987.94079298732
 10
37430.19703409179
 20
-17989.10106887313
 10
37430.19703409179
 20
-17887.94075900636
  0
HATCH
  5
286
330
1F
100
AcDbEntity
  8
Ech.1_5
  6
Continuous
 62
   254
420
 16643007
440
 33554687
370
    20
390
5F
100
AcDbHatch
 10
0.0
 20
0.0
 30
0.0
210
0.0
220
0.0
230
1.0
  2
SOLID
 70
     1
 71
     0
 91
        1
 92
        3
 72
     0
 73
     1
 93
        4
 10
37430.19703409179
 20
-17987.94075900636
 10
36445.85404682667
 20
-17987.94079495238
 10
36445.85404682667
 20
-18087.94079495238
 10
37430.19703409179
 20
-18087.94075900636
 97
        0
 75
     0
 76
     1
 98
        0
  0
LWPOLYLINE
  5
287
330
1F
100
AcDbEntity
  8
Ech.1_5
  6
Continuous
 62
   190
370
    15
390
5F
100
AcDbPolyline
 90
        5
 70
     0
 43
0.0
 10
37430.19703409179
 20
-17987.94075900636
 10
36445.85404682667
 20
-17987.94079495238
 10
36445.85404682667
 20
-18087.94079495238
 10
37430.19703409179
 20
-18087.94075900636
 10
37430.19703409179
 20
-17987.94075900636
  0
LWPOLYLINE
  5
288
330
1F
100
AcDbEntity
  8
Ech.1_5
  6
Continuous
 62
   190
370
    15
390
5F
100
AcDbPolyline
 90
      118
 70
     0
 43
0.0
 10
37430.19703470042
 20
-18004.60742567304
 42
1.14028180512121
 10
37397.43160702236
 20
-18008.92108733416
 10
37412.962464813
 20
-18066.96043250447
 42
-1.303226186856507
 10
37380.76494247516
 20
-18066.96043368027
 10
37396.29579602687
 20
-18008.92108737566
 42
1.303226186856507
 10
37364.09827368903
 20
-18008.92108855145
 10
37379.62913147965
 20
-18066.96043372171
 42
-1.303226186856507
 10
37347.43160914181
 20
-18066.9604348975
 10
37362.96246269353
 20
-18008.9210885929
 42
1.303226186852891
 10
37330.76494035569
 20
-18008.92108976869
 10
37346.29579814633
 20
-18066.96043493901
 42
-1.303226186858315
 10
37314.09827580849
 20
-18066.96043611474
 10
37329.6291293602
 20
-18008.92108981014
 42
1.303226186852891
 10
37297.43160702236
 20
-18008.92109098593
 10
37312.962464813
 20
-18066.96043615625
 42
-1.303226186856507
 10
37280.76494247516
 20
-18066.96043733204
 10
37296.29579602687
 20
-18008.92109102743
 42
1.303226186854699
 10
37264.09827368903
 20
-18008.92109220317
 10
37279.62913147967
 20
-18066.96043737354
 42
-1.303226186852891
 10
37247.43160914183
 20
-18066.96043854934
 10
37262.96246269354
 20
-18008.92109224467
 42
1.303226186856507
 10
37230.7649403557
 20
-18008.92109342047
 10
37246.29579814633
 20
-18066.96043859078
 42
-1.303226186852891
 10
37214.09827580849
 20
-18066.96043976658
 10
37229.6291293602
 20
-18008.92109346197
 42
1.303226186858315
 10
37197.43160702236
 20
-18008.92109463771
 10
37212.962464813
 20
-18066.96043980802
 42
-1.303226186856507
 10
37180.76494247516
 20
-18066.96044098381
 10
37196.29579602687
 20
-18008.92109467921
 42
1.303226186856507
 10
37164.09827368903
 20
-18008.921095855
 10
37179.62913147967
 20
-18066.96044102526
 42
-1.303226186856507
 10
37147.43160914183
 20
-18066.96044220105
 10
37162.96246269354
 20
-18008.92109589645
 42
1.303226186852891
 10
37130.7649403557
 20
-18008.92109707224
 10
37146.29579814634
 20
-18066.96044224255
 42
-1.303226186858315
 10
37114.0982758085
 20
-18066.96044341829
 10
37129.62912936021
 20
-18008.92109711369
 42
1.303226186852891
 10
37097.43160702237
 20
-18008.92109828948
 10
37112.96246481301
 20
-18066.96044345979
 42
-1.303226186856507
 10
37080.76494247517
 20
-18066.96044463559
 10
37096.29579602687
 20
-18008.92109833098
 42
1.303226186854699
 10
37064.09827368903
 20
-18008.92109950672
 10
37079.62913147967
 20
-18066.96044467709
 42
-1.303226186852891
 10
37047.43160914183
 20
-18066.96044585288
 10
37062.96246269354
 20
-18008.92109954822
 42
1.303226186856507
 10
37030.7649403557
 20
-18008.92110072402
 10
37046.29579814634
 20
-18066.96044589433
 42
-1.303226186852891
 10
37014.0982758085
 20
-18066.96044707012
 10
37029.62912936021
 20
-18008.92110076552
 42
1.303226186860122
 10
36997.43160702237
 20
-18008.92110194131
 10
37012.96246481301
 20
-18066.96044711157
 42
-1.303226186856507
 10
36980.76494247517
 20
-18066.96044828736
 10
36996.29579602688
 20
-18008.92110198276
 42
1.303226186856507
 10
36964.09827368904
 20
-18008.92110315855
 10
36979.62913147968
 20
-18066.96044832881
 42
-1.303226186856507
 10
36947.43160914184
 20
-18066.9604495046
 10
36962.96246269354
 20
-18008.92110319999
 42
1.303226186852891
 10
36930.7649403557
 20
-18008.92110437579
 10
36946.29579814634
 20
-18066.9604495461
 42
-1.303226186858315
 10
36914.0982758085
 20
-18066.96045072184
 10
36929.62912936021
 20
-18008.92110441723
 42
1.303226186852891
 10
36897.43160702237
 20
-18008.92110559303
 10
36912.96246481301
 20
-18066.9604507634
 42
-1.303226186854699
 10
36880.76494247517
 20
-18066.96045193914
 10
36896.29579602688
 20
-18008.92110563453
 42
1.303226186854699
 10
36864.09827368904
 20
-18008.92110681027
 10
36879.62913147968
 20
-18066.96045198064
 42
-1.303226186852891
 10
36847.43160914184
 20
-18066.96045315643
 10
36862.96246269355
 20
-18008.92110685177
 42
1.303226186856507
 10
36830.76494035572
 20
-18008.92110802756
 10
36846.29579814636
 20
-18066.96045319788
 42
-1.303226186852891
 10
36814.09827580852
 20
-18066.96045437367
 10
36829.62912936021
 20
-18008.92110806907
 42
1.303226186856507
 10
36797.43160702237
 20
-18008.92110924486
 10
36812.96246481301
 20
-18066.96045441512
 42
-1.303226186856507
 10
36780.76494247517
 20
-18066.96045559091
 10
36796.29579602688
 20
-18008.9211092863
 42
1.303226186856507
 10
36764.09827368904
 20
-18008.9211104621
 10
36779.62913147968
 20
-18066.96045563235
 42
-1.303226186856507
 10
36747.43160914184
 20
-18066.96045680815
 10
36762.96246269355
 20
-18008.92111050354
 42
1.303226186852891
 10
36730.76494035572
 20
-18008.92111167934
 10
36746.29579814636
 20
-18066.96045684965
 42
-1.303226186856507
 10
36714.09827580852
 20
-18066.96045802545
 10
36729.62912936023
 20
-18008.92111172078
 42
1.303226186852891
 10
36697.43160702239
 20
-18008.92111289658
 10
36712.96246481303
 20
-18066.96045806695
 42
-1.303226186854699
 10
36680.76494247519
 20
-18066.96045924268
 10
36696.29579602688
 20
-18008.92111293808
 42
1.303226186856507
 10
36664.09827368904
 20
-18008.92111411387
 10
36679.62913147968
 20
-18066.96045928419
 42
-1.303226186852891
 10
36647.43160914184
 20
-18066.96046045998
 10
36662.96246269355
 20
-18008.92111415538
 42
1.303226186858315
 10
36630.76494035572
 20
-18008.92111533111
 10
36646.29579814636
 20
-18066.96046050142
 42
-1.303226186852891
 10
36614.09827580852
 20
-18066.96046167722
 10
36629.62912936023
 20
-18008.92111537261
 42
1.303226186856507
 10
36597.43160702239
 20
-18008.92111654841
 10
36612.96246481303
 20
-18066.96046171866
 42
-1.303226186856507
 10
36580.76494247519
 20
-18066.96046289446
 10
36596.2957960269
 20
-18008.92111658985
 42
1.303226186856507
 10
36564.09827368906
 20
-18008.92111776565
 10
36579.6291314797
 20
-18066.9604629359
 42
-1.303226186860122
 10
36547.43160914186
 20
-18066.9604641117
 10
36562.96246269355
 20
-18008.92111780709
 42
1.303226186852891
 10
36530.76494035572
 20
-18008.92111898289
 10
36546.29579814636
 20
-18066.9604641532
 42
-1.303226186856507
 10
36514.09827580852
 20
-18066.96046532899
 10
36529.62912936023
 20
-18008.92111902433
 42
1.303226186852891
 10
36497.43160702239
 20
-18008.92112020012
 10
36512.96246481303
 20
-18066.9604653705
 42
-1.303226186854699
 10
36480.76494247519
 20
-18066.96046654623
 10
36496.2957960269
 20
-18008.92112024163
 42
1.303226186856507
 10
36464.09827368906
 20
-18008.92112141742
 10
36479.6291314797
 20
-18066.96046658773
 42
-1.303226186852891
 10
36447.43160914186
 20
-18066.96046776353
 10
36462.96246269357
 20
-18008.92112145892
 42
0.5121283775223751
 10
36445.85404682779
 20
-17987.97140509367
  0
LINE
  5
289
330
1F
100
AcDbEntity
  8
Ech.1_5
 62
     1
370
    15
390
5F
100
AcDbLine
 10
36545.53183959122
 20
-18087.94075900636
 30
0.0
 11
36545.53183959122
 21
-18421.28067949012
 31
0.0
  0
HATCH
  5
28A
330
1F
100
AcDbEntity
  8
Ech.1_5
  6
Continuous
 62
    11
420
 15372145
440
 33554687
370
    20
390
5F
100
AcDbHatch
 10
0.0
 20
0.0
 30
0.0
210
0.0
220
0.0
230
1.0
  2
SOLID
 70
     1
 71
     0
 91
        1
 92
        3
 72
     1
 73
     1
 93
       25
 10
36579.36516892305
 20
-17844.89921781461
 42
0.0
 10
36585.47408368594
 20
-17867.6744010981
 42
0.0
 10
36609.2067479804
 20
-17861.30866425786
 42
0.0
 10
36596.60248932068
 20
-17809.11285730474
 42
0.0
 10
36587.15807085854
 20
-17811.39349822472
 42
0.0
 10
36589.73577038724
 20
-17822.06807343102
 42
0.0
 10
36572.78325005382
 20
-17826.16177297685
 42
0.0
 10
36570.2055505251
 20
-17815.4871977705
 42
0.0
 10
36560.76113206297
 20
-17817.76783869048
 42
0.0
 10
36563.33883159167
 20
-17828.44241389684
 42
0.0
 10
36540.27248280912
 20
-17834.01248251658
 42
0.0
 10
36539.8356390277
 20
-17832.20345794001
 42
0.0
 10
36539.78051429801
 20
-17832.21676947583
 42
0.0
 10
36530.73818158364
 20
-17794.77134206052
 42
0.0
 10
36527.08685824
 20
-17779.65075674786
 42
0.0
 10
36200.70659894885
 20
-17858.46515678625
 42
0.414213562373604
 10
36184.2587760438
 20
-17885.38554887438
 42
0.0
 10
36188.48627943534
 20
-17902.89216761931
 42
0.0
 10
36201.19532400604
 20
-17955.52190609741
 42
0.0
 10
36221.49787734554
 20
-17950.61923960601
 42
0.0
 10
36218.96462467394
 20
-17940.12872437783
 42
0.0
 10
36234.74928174532
 20
-17935.95790630287
 42
0.0
 10
36237.2446988656
 20
-17946.29173979471
 42
0.0
 10
36247.70389669095
 20
-17943.48630252526
 42
0.0
 10
36245.52066417501
 20
-17934.44526441173
 42
0.0
 97
        0
 75
     0
 76
     1
 98
        0
  0
LWPOLYLINE
  5
28B
330
1F
100
AcDbEntity
  8
Ech.1_5
  6
Continuous
 62
   190
370
    15
390
5F
100
AcDbPolyline
 90
       26
 70
     0
 43
0.0
 10
36579.36516892305
 20
-17844.89921781461
 10
36585.47408368594
 20
-17867.6744010981
 10
36609.2067479804
 20
-17861.30866425786
 10
36596.60248932068
 20
-17809.11285730474
 10
36587.15807085854
 20
-17811.39349822472
 10
36589.73577038724
 20
-17822.06807343102
 10
36572.78325005382
 20
-17826.16177297685
 10
36570.2055505251
 20
-17815.4871977705
 10
36560.76113206297
 20
-17817.76783869048
 10
36563.33883159167
 20
-17828.44241389684
 10
36540.27248280912
 20
-17834.01248251658
 10
36539.8356390277
 20
-17832.20345794001
 10
36539.78051429801
 20
-17832.21676947583
 10
36530.73818158364
 20
-17794.77134206052
 10
36527.08685824
 20
-17779.65075674786
 10
36200.70659894885
 20
-17858.46515678625
 42
0.4142135623737786
 10
36184.2587760438
 20
-17885.38554887438
 10
36188.48627943534
 20
-17902.89216761931
 10
36201.19532400604
 20
-17955.52190609741
 10
36221.49787734554
 20
-17950.61923960601
 10
36218.96462467394
 20
-17940.12872437783
 10
36234.74928174532
 20
-17935.95790630287
 10
36237.2446988656
 20
-17946.29173979471
 10
36247.70389669095
 20
-17943.48630252526
 10
36245.52066417501
 20
-17934.44526441173
 10
36579.36516892305
 20
-17844.89921781461
  0
HATCH
  5
28C
330
1F
100
AcDbEntity
  8
Ech.1_5
  6
Continuous
 62
    11
420
 15372145
440
 33554687
370
    20
390
5F
100
AcDbHatch
 10
0.0
 20
0.0
 30
0.0
210
0.0
220
0.0
230
1.0
  2
SOLID
 70
     1
 71
     0
 91
        1
 92
        3
 72
     1
 73
     1
 93
       26
 10
36917.950359215
 20
-17721.59408119297
 42
0.0
 10
36924.05927397788
 20
-17744.36926447646
 42
0.0
 10
36947.79193827235
 20
-17738.00352763623
 42
0.0
 10
36935.18767961265
 20
-17685.8077206831
 42
0.0
 10
36925.74326115049
 20
-17688.08836160308
 42
0.0
 10
36928.32096067918
 20
-17698.76293680944
 42
0.0
 10
36911.36844034576
 20
-17702.85663635516
 42
0.0
 10
36908.79074081706
 20
-17692.18206114892
 42
0.0
 10
36899.34632235492
 20
-17694.46270206884
 42
0.0
 10
36901.92402188362
 20
-17705.1372772752
 42
0.0
 10
36878.85767310107
 20
-17710.70734589488
 42
0.0
 10
36878.43621783231
 20
-17708.96204706834
 42
0.0
 10
36878.38826823456
 20
-17708.97362595121
 42
0.0
 10
36869.34593552018
 20
-17671.5281985359
 42
0.0
 10
36865.67922366392
 20
-17656.34388747327
 42
0.0
 10
36539.29178924081
 20
-17735.16002016456
 42
0.4142135623726116
 10
36522.84396633576
 20
-17762.08041225274
 42
0.0
 10
36527.08685824
 20
-17779.65075674786
 42
0.0
 10
36527.1419829697
 20
-17779.6374452121
 42
0.0
 10
36539.8356390277
 20
-17832.20345794001
 42
0.0
 10
36560.08306763749
 20
-17827.31410298438
 42
0.0
 10
36557.5498149659
 20
-17816.82358775613
 42
0.0
 10
36573.33447203727
 20
-17812.65276968118
 42
0.0
 10
36575.82988915754
 20
-17822.98660317307
 42
0.0
 10
36586.2890869829
 20
-17820.18116590357
 42
0.0
 10
36584.10585446696
 20
-17811.14012779004
 42
0.0
 97
        0
 75
     0
 76
     1
 98
        0
  0
LWPOLYLINE
  5
28D
330
1F
100
AcDbEntity
  8
Ech.1_5
  6
Continuous
 62
   190
370
    15
390
5F
100
AcDbPolyline
 90
       27
 70
     0
 43
0.0
 10
36917.950359215
 20
-17721.59408119297
 10
36924.05927397788
 20
-17744.36926447646
 10
36947.79193827235
 20
-17738.00352763623
 10
36935.18767961265
 20
-17685.8077206831
 10
36925.74326115049
 20
-17688.08836160308
 10
36928.32096067918
 20
-17698.76293680944
 10
36911.36844034576
 20
-17702.85663635516
 10
36908.79074081706
 20
-17692.18206114892
 10
36899.34632235492
 20
-17694.46270206884
 10
36901.92402188362
 20
-17705.1372772752
 10
36878.85767310107
 20
-17710.70734589488
 10
36878.43621783231
 20
-17708.96204706834
 10
36878.38826823456
 20
-17708.97362595121
 10
36869.34593552018
 20
-17671.5281985359
 10
36865.67922366392
 20
-17656.34388747327
 10
36539.29178924081
 20
-17735.16002016456
 42
0.4142135623724585
 10
36522.84396633576
 20
-17762.08041225274
 10
36527.08685824
 20
-17779.65075674786
 10
36527.1419829697
 20
-17779.6374452121
 10
36539.8356390277
 20
-17832.20345794001
 10
36560.08306763749
 20
-17827.31410298438
 10
36557.5498149659
 20
-17816.82358775613
 10
36573.33447203727
 20
-17812.65276968118
 10
36575.82988915754
 20
-17822.98660317307
 10
36586.2890869829
 20
-17820.18116590357
 10
36584.10585446696
 20
-17811.14012779004
 10
36917.950359215
 20
-17721.59408119297
  0
HATCH
  5
28E
330
1F
100
AcDbEntity
  8
Ech.1_5
  6
Continuous
 62
    11
420
 15372145
440
 33554687
370
    20
390
5F
100
AcDbHatch
 10
0.0
 20
0.0
 30
0.0
210
0.0
220
0.0
230
1.0
  2
SOLID
 70
     1
 71
     0
 91
        1
 92
        3
 72
     1
 73
     1
 93
       23
 10
37256.55811315156
 20
-17598.35093766834
 42
0.0
 10
37262.66702791445
 20
-17621.12612095183
 42
0.0
 10
37286.3996922089
 20
-17614.76038411154
 42
0.0
 10
37273.7954335492
 20
-17562.56457715848
 42
0.0
 10
37264.35101508704
 20
-17564.84521807846
 42
0.0
 10
37266.92871461574
 20
-17575.51979328476
 42
0.0
 10
37249.97619428232
 20
-17579.61349283053
 42
0.0
 10
37247.39849475361
 20
-17568.93891762423
 42
0.0
 10
37237.95407629147
 20
-17571.21955854422
 42
0.0
 10
37240.53177582017
 20
-17581.89413375057
 42
0.0
 10
37217.46542703762
 20
-17587.46420237025
 42
0.0
 10
37204.3349271982
 20
-17533.08916506578
 42
0.0
 10
36877.89954317737
 20
-17611.91687663993
 42
0.4142135623725762
 10
36861.45172027232
 20
-17638.83726872806
 42
0.0
 10
36865.67922366392
 20
-17656.34388747327
 42
0.0
 10
36865.72717326165
 20
-17656.33230859046
 42
0.0
 10
36878.43621783231
 20
-17708.96204706834
 42
0.0
 10
36898.69082157406
 20
-17704.07095945975
 42
0.0
 10
36896.15756890246
 20
-17693.58044423151
 42
0.0
 10
36911.94222597383
 20
-17689.40962615655
 42
0.0
 10
36914.4376430941
 20
-17699.74345964845
 42
0.0
 10
36924.89684091945
 20
-17696.93802237894
 42
0.0
 10
36922.71360840353
 20
-17687.89698426541
 42
0.0
 97
        0
 75
     0
 76
     1
 98
        0
  0
LWPOLYLINE
  5
28F
330
1F
100
AcDbEntity
  8
Ech.1_5
  6
Continuous
 62
   190
370
    15
390
5F
100
AcDbPolyline
 90
       24
 70
     0
 43
0.0
 10
37256.55811315156
 20
-17598.35093766834
 10
37262.66702791445
 20
-17621.12612095183
 10
37286.3996922089
 20
-17614.76038411154
 10
37273.7954335492
 20
-17562.56457715848
 10
37264.35101508704
 20
-17564.84521807846
 10
37266.92871461574
 20
-17575.51979328476
 10
37249.97619428232
 20
-17579.61349283053
 10
37247.39849475361
 20
-17568.93891762423
 10
37237.95407629147
 20
-17571.21955854422
 10
37240.53177582017
 20
-17581.89413375057
 10
37217.46542703762
 20
-17587.46420237025
 10
37204.3349271982
 20
-17533.08916506578
 10
36877.89954317737
 20
-17611.91687663993
 42
0.4142135623726421
 10
36861.45172027232
 20
-17638.83726872806
 10
36865.67922366392
 20
-17656.34388747327
 10
36865.72717326165
 20
-17656.33230859046
 10
36878.43621783231
 20
-17708.96204706834
 10
36898.69082157406
 20
-17704.07095945975
 10
36896.15756890246
 20
-17693.58044423151
 10
36911.94222597383
 20
-17689.40962615655
 10
36914.4376430941
 20
-17699.74345964845
 10
36924.89684091945
 20
-17696.93802237894
 10
36922.71360840353
 20
-17687.89698426541
 10
37256.55811315156
 20
-17598.35093766834
  0
LINE
  5
290
330
1F
100
AcDbEntity
  8
Ech.1_5
  6
Continuous
 62
   190
370
    15
390
5F
100
AcDbLine
 10
35853.54523735738
 20
-18041.31962220603
 30
0.0
 11
36201.61677927476
 21
-17957.26720492378
 31
0.0
  0
LWPOLYLINE
  5
291
330
1F
100
AcDbEntity
  8
Ech.1_5
  6
Continuous
 62
   190
370
    15
390
5F
100
AcDbPolyline
 90
       23
 70
     0
 43
0.0
 10
36248.55031692424
 20
-17934.63664174853
 10
36257.99473538641
 20
-17932.35600082855
 10
36270.59899404611
 20
-17984.55180778167
 10
36246.86632975165
 20
-17990.91754462191
 10
36240.75741498877
 20
-17968.14236133842
 10
35906.91291024073
 20
-18057.68840793554
 10
35909.09614275667
 20
-18066.72944604907
 10
35898.63694493131
 20
-18069.53488331858
 10
35896.14152781104
 20
-18059.20104982668
 10
35880.35687073965
 20
-18063.37186790164
 10
35882.89012341126
 20
-18073.86238312982
 10
35862.58757007176
 20
-18078.76504962128
 10
35853.54523735738
 20
-18041.31962220603
 10
35845.65102210951
 20
-18008.62869239819
 42
-0.4142135623740726
 10
35862.09884501457
 20
-17981.70830031006
 10
36188.48627943534
 20
-17902.89216761931
 10
36201.61677927476
 20
-17957.26720492378
 10
36224.73107765737
 20
-17951.68555742065
 10
36222.15337812867
 20
-17941.01098221429
 10
36231.59779659081
 20
-17938.73034129431
 10
36234.17549611953
 20
-17949.40491650067
 10
36251.12801645295
 20
-17945.31121695483
 10
36248.55031692424
 20
-17934.63664174853
  0
LINE
  5
292
330
1F
100
AcDbEntity
  8
Ech.1_5
  6
Continuous
 62
   190
370
    15
390
5F
100
AcDbLine
 10
36192.15299129167
 20
-17918.07647868222
 30
0.0
 11
36540.22453320904
 21
-17834.02406139997
 31
0.0
  0
LWPOLYLINE
  5
293
330
1F
100
AcDbEntity
  8
Ech.1_5
  6
Continuous
 62
   190
370
    15
390
5F
100
AcDbPolyline
 90
       23
 70
     0
 43
0.0
 10
36587.15807085854
 20
-17811.39349822472
 10
36596.60248932068
 20
-17809.11285730474
 10
36609.2067479804
 20
-17861.30866425786
 10
36585.47408368594
 20
-17867.6744010981
 10
36579.36516892305
 20
-17844.89921781461
 10
36245.52066417501
 20
-17934.44526441173
 10
36247.70389669095
 20
-17943.48630252526
 10
36237.2446988656
 20
-17946.29173979471
 10
36234.74928174532
 20
-17935.95790630287
 10
36218.96462467394
 20
-17940.12872437783
 10
36221.49787734554
 20
-17950.61923960601
 10
36201.19532400605
 20
-17955.52190609741
 10
36192.15299129167
 20
-17918.07647868222
 10
36184.2587760438
 20
-17885.38554887438
 42
-0.4142135623737788
 10
36200.70659894885
 20
-17858.46515678625
 10
36527.1419829697
 20
-17779.6374452121
 10
36540.27248280912
 20
-17834.01248251658
 10
36563.33883159167
 20
-17828.44241389684
 10
36560.76113206297
 20
-17817.76783869048
 10
36570.2055505251
 20
-17815.4871977705
 10
36572.78325005382
 20
-17826.16177297685
 10
36589.73577038724
 20
-17822.06807343102
 10
36587.15807085854
 20
-17811.39349822472
  0
LINE
  5
294
330
1F
100
AcDbEntity
  8
Ech.1_5
  6
Continuous
 62
   190
370
    15
390
5F
100
AcDbLine
 10
36530.73818158364
 20
-17794.77134206052
 30
0.0
 11
36878.80972350099
 21
-17710.71892477827
 31
0.0
  0
LWPOLYLINE
  5
295
330
1F
100
AcDbEntity
  8
Ech.1_5
  6
Continuous
 62
   190
370
    15
390
5F
100
AcDbPolyline
 90
       23
 70
     0
 43
0.0
 10
36925.74326115049
 20
-17688.08836160308
 10
36935.18767961265
 20
-17685.8077206831
 10
36947.79193827235
 20
-17738.00352763623
 10
36924.05927397788
 20
-17744.36926447646
 10
36917.950359215
 20
-17721.59408119297
 10
36584.10585446696
 20
-17811.14012779004
 10
36586.2890869829
 20
-17820.18116590357
 10
36575.82988915754
 20
-17822.98660317307
 10
36573.33447203727
 20
-17812.65276968118
 10
36557.5498149659
 20
-17816.82358775613
 10
36560.08306763749
 20
-17827.31410298438
 10
36539.78051429801
 20
-17832.21676947583
 10
36530.73818158364
 20
-17794.77134206052
 10
36522.84396633576
 20
-17762.08041225274
 42
-0.4142135623724588
 10
36539.29178924081
 20
-17735.16002016456
 10
36865.72717326165
 20
-17656.33230859046
 10
36878.85767310107
 20
-17710.70734589488
 10
36901.92402188362
 20
-17705.1372772752
 10
36899.34632235492
 20
-17694.46270206884
 10
36908.79074081706
 20
-17692.18206114892
 10
36911.36844034576
 20
-17702.85663635516
 10
36928.32096067918
 20
-17698.76293680944
 10
36925.74326115049
 20
-17688.08836160308
  0
LWPOLYLINE
  5
296
330
1F
100
AcDbEntity
  8
Ech.1_5
  6
Continuous
 62
   190
370
    15
390
5F
100
AcDbPolyline
 90
       23
 70
     0
 43
0.0
 10
37264.35101508704
 20
-17564.84521807846
 10
37273.7954335492
 20
-17562.56457715848
 10
37286.3996922089
 20
-17614.76038411154
 10
37262.66702791445
 20
-17621.12612095183
 10
37256.55811315156
 20
-17598.35093766834
 10
36922.71360840353
 20
-17687.89698426541
 10
36924.89684091945
 20
-17696.93802237894
 10
36914.4376430941
 20
-17699.74345964845
 10
36911.94222597383
 20
-17689.40962615655
 10
36896.15756890246
 20
-17693.58044423151
 10
36898.69082157406
 20
-17704.07095945975
 10
36878.38826823456
 20
-17708.97362595121
 10
36869.34593552018
 20
-17671.5281985359
 10
36861.45172027232
 20
-17638.83726872806
 42
-0.4142135623726421
 10
36877.89954317737
 20
-17611.91687663993
 10
37204.3349271982
 20
-17533.08916506578
 10
37217.46542703762
 20
-17587.46420237025
 10
37240.53177582017
 20
-17581.89413375057
 10
37237.95407629147
 20
-17571.21955854422
 10
37247.39849475361
 20
-17568.93891762423
 10
37249.97619428232
 20
-17579.61349283053
 10
37266.92871461574
 20
-17575.51979328476
 10
37264.35101508704
 20
-17564.84521807846
  0
LWPOLYLINE
  5
297
330
1F
100
AcDbEntity
  8
Ech.1_5
 62
     7
370
    20
390
5F
100
AcDbPolyline
 90
        5
 70
     0
 43
0.0
 10
36538.02648349779
 20
-17860.18399674148
 10
36575.61418832921
 20
-17846.50319100846
 10
36584.84873219901
 20
-17871.87489176972
 10
36547.26102736758
 20
-17885.55569750268
 10
36538.02648349779
 20
-17860.18399674148
  0
HATCH
  5
298
330
1F
100
AcDbEntity
  8
Ech.1_5
  6
Continuous
 62
   254
420
 15656413
440
 33554687
370
    20
390
5F
100
AcDbHatch
 10
0.0
 20
0.0
 30
0.0
210
0.0
220
0.0
230
1.0
  2
SOLID
 70
     1
 71
     0
 91
        1
 92
        3
 72
     0
 73
     1
 93
        4
 10
36914.23745866895
 20
-17723.14560445665
 10
36876.64975383753
 20
-17736.82641018961
 10
36885.88429770732
 20
-17762.19811095087
 10
36923.47062597726
 20
-17748.51352314627
 97
        0
 75
     0
 76
     1
 98
        0
  0
LWPOLYLINE
  5
299
330
1F
100
AcDbEntity
  8
Ech.1_5
  6
Continuous
 62
   190
370
    15
390
5F
100
AcDbPolyline
 90
        5
 70
     0
 43
0.0
 10
36914.23745866895
 20
-17723.14560445665
 10
36876.64975383753
 20
-17736.82641018961
 10
36885.88429770732
 20
-17762.19811095087
 10
36923.47062597726
 20
-17748.51352314627
 10
36914.23745866895
 20
-17723.14560445665
  0
HATCH
  5
29A
330
1F
100
AcDbEntity
  8
Ech.1_5
  6
Continuous
 62
   254
420
 15656413
440
 33554687
370
    20
390
5F
100
AcDbHatch
 10
0.0
 20
0.0
 30
0.0
210
0.0
220
0.0
230
1.0
  2
SOLID
 70
     1
 71
     0
 91
        1
 92
        3
 72
     0
 73
     1
 93
        4
 10
36575.61418832921
 20
-17846.50319100846
 10
36538.07696610881
 20
-17860.16562257369
 10
36547.28894448747
 20
-17885.47532515757
 10
36584.8247919952
 20
-17871.80911660025
 97
        0
 75
     0
 76
     1
 98
        0
  0
LWPOLYLINE
  5
29B
330
1F
100
AcDbEntity
  8
Ech.1_5
  6
Continuous
 62
   190
370
    15
390
5F
100
AcDbPolyline
 90
        5
 70
     0
 43
0.0
 10
36575.61418832921
 20
-17846.50319100846
 10
36538.07696610881
 20
-17860.16562257369
 10
36547.28894448747
 20
-17885.47532515757
 10
36584.8247919952
 20
-17871.80911660025
 10
36575.61418832921
 20
-17846.50319100846
  0
HATCH
  5
29C
330
1F
100
AcDbEntity
  8
Ech.1_5
  6
Continuous
 62
   254
420
 15656413
440
 33554687
370
    20
390
5F
100
AcDbHatch
 10
0.0
 20
0.0
 30
0.0
210
0.0
220
0.0
230
1.0
  2
SOLID
 70
     1
 71
     0
 91
        1
 92
        3
 72
     0
 73
     1
 93
        4
 10
36237.00643439493
 20
-17969.74633453227
 10
36199.41872956351
 20
-17983.42714026529
 10
36208.64311050541
 20
-18008.7709186116
 10
36246.22943877534
 20
-17995.08633080695
 97
        0
 75
     0
 76
     1
 98
        0
  0
LWPOLYLINE
  5
29D
330
1F
100
AcDbEntity
  8
Ech.1_5
  6
Continuous
 62
   190
370
    15
390
5F
100
AcDbPolyline
 90
        5
 70
     0
 43
0.0
 10
36237.00643439493
 20
-17969.74633453227
 10
36199.41872956351
 20
-17983.42714026529
 10
36208.64311050541
 20
-18008.7709186116
 10
36246.22943877534
 20
-17995.08633080695
 10
36237.00643439493
 20
-17969.74633453227
  0
HATCH
  5
29E
330
1F
100
AcDbEntity
  8
Ech.1_5
  6
Continuous
 62
   254
420
 15656413
440
 33554687
370
    20
390
5F
100
AcDbHatch
 10
0.0
 20
0.0
 30
0.0
210
0.0
220
0.0
230
1.0
  2
SOLID
 70
     1
 71
     0
 91
        1
 92
        3
 72
     0
 73
     1
 93
        4
 10
35953.41623985335
 20
-18048.48019638366
 10
35917.33970317946
 20
-18058.15689073723
 10
35917.35682758079
 20
-18114.82198657066
 10
35970.08779539606
 20
-18095.62347497604
 97
        0
 75
     0
 76
     1
 98
        0
  0
LWPOLYLINE
  5
29F
330
1F
100
AcDbEntity
  8
Ech.1_5
  6
Continuous
 62
   190
370
    15
390
5F
100
AcDbPolyline
 90
        5
 70
     0
 43
0.0
 10
35953.41623985335
 20
-18048.48019638366
 10
35917.33970317946
 20
-18058.15689073723
 10
35917.35682758079
 20
-18114.82198657066
 10
35970.08779539606
 20
-18095.62347497604
 10
35953.41623985335
 20
-18048.48019638366
  0
LWPOLYLINE
  5
2A0
330
1F
100
AcDbEntity
  8
Ech.1_5
  6
Continuous
 62
   190
370
    15
390
5F
100
AcDbPolyline
 90
        4
 70
     0
 43
0.0
 10
35953.41623985335
 20
-18048.48019638366
 10
35917.35682760802
 20
-18114.82207665452
 10
35970.08528604552
 20
-18095.6304872845
 10
35917.33970317946
 20
-18058.15689073723
  0
LWPOLYLINE
  5
2A1
330
1F
100
AcDbEntity
  8
Ech.1_5
  6
Continuous
 62
   190
370
    15
390
5F
100
AcDbPolyline
 90
        4
 70
     0
 43
0.0
 10
36237.00643439493
 20
-17969.74633453227
 10
36208.6532734333
 20
-18008.79884102649
 10
36246.24097826473
 20
-17995.11803529353
 10
36199.41872956351
 20
-17983.42714026529
  0
LWPOLYLINE
  5
2A2
330
1F
100
AcDbEntity
  8
Ech.1_5
  6
Continuous
 62
   190
370
    15
390
5F
100
AcDbPolyline
 90
        4
 70
     0
 43
0.0
 10
36575.61418832921
 20
-17846.50319100846
 10
36547.26102736758
 20
-17885.55569750268
 10
36584.84873219901
 20
-17871.87489176972
 10
36538.02648349779
 20
-17860.18399674148
  0
LWPOLYLINE
  5
2A3
330
1F
100
AcDbEntity
  8
Ech.1_5
  6
Continuous
 62
   190
370
    15
390
5F
100
AcDbPolyline
 90
        4
 70
     0
 43
0.0
 10
36914.19937862117
 20
-17723.19805438682
 10
36885.84621765953
 20
-17762.2505608811
 10
36923.43392249096
 20
-17748.56975514802
 10
36876.61167378974
 20
-17736.87886011984
  0
HATCH
  5
2A4
330
1F
100
AcDbEntity
  8
Ech.1_5
  6
Continuous
 62
    11
420
 15372145
440
 33554687
370
    20
390
5F
100
AcDbHatch
 10
0.0
 20
0.0
 30
0.0
210
0.0
220
0.0
230
1.0
  2
SOLID
 70
     1
 71
     0
 91
        1
 92
        3
 72
     1
 73
     1
 93
       23
 10
36240.75741498877
 20
-17968.14236133842
 42
0.0
 10
36246.86632975165
 20
-17990.91754462191
 42
0.0
 10
36270.59899404611
 20
-17984.55180778167
 42
0.0
 10
36257.99473538641
 20
-17932.35600082855
 42
0.0
 10
36248.55031692424
 20
-17934.63664174853
 42
0.0
 10
36251.12801645295
 20
-17945.31121695483
 42
0.0
 10
36234.17549611953
 20
-17949.40491650067
 42
0.0
 10
36231.59779659081
 20
-17938.73034129431
 42
0.0
 10
36222.15337812867
 20
-17941.01098221429
 42
0.0
 10
36224.73107765737
 20
-17951.68555742065
 42
0.0
 10
36201.61677927476
 20
-17957.26720492378
 42
0.0
 10
36192.15299129167
 20
-17918.07647868222
 42
0.0
 10
36188.48627943534
 20
-17902.89216761931
 42
0.0
 10
35862.09884501457
 20
-17981.70830031006
 42
0.4142135623729905
 10
35845.65102210951
 20
-18008.62869239819
 42
0.0
 10
35853.54523735738
 20
-18041.31962220603
 42
0.0
 10
35862.58757007176
 20
-18078.76504962128
 42
0.0
 10
35882.89012341126
 20
-18073.86238312982
 42
0.0
 10
35880.35687073965
 20
-18063.37186790164
 42
0.0
 10
35896.14152781104
 20
-18059.20104982668
 42
0.0
 10
35898.63694493131
 20
-18069.53488331858
 42
0.0
 10
35909.09614275667
 20
-18066.72944604907
 42
0.0
 10
35906.91291024073
 20
-18057.68840793554
 42
0.0
 97
        0
 75
     0
 76
     1
 98
        0
  0
LWPOLYLINE
  5
2A5
330
1F
100
AcDbEntity
  8
Ech.1_5
  6
Continuous
 62
   190
370
    15
390
5F
100
AcDbPolyline
 90
       24
 70
     0
 43
0.0
 10
36240.75741498877
 20
-17968.14236133842
 10
36246.86632975165
 20
-17990.91754462191
 10
36270.59899404611
 20
-17984.55180778167
 10
36257.99473538641
 20
-17932.35600082855
 10
36248.55031692424
 20
-17934.63664174853
 10
36251.12801645295
 20
-17945.31121695483
 10
36234.17549611953
 20
-17949.40491650067
 10
36231.59779659081
 20
-17938.73034129431
 10
36222.15337812867
 20
-17941.01098221429
 10
36224.73107765737
 20
-17951.68555742065
 10
36201.61677927476
 20
-17957.26720492378
 10
36192.15299129167
 20
-17918.07647868222
 10
36188.48627943534
 20
-17902.89216761931
 10
35862.09884501457
 20
-17981.70830031006
 42
0.4142135623732855
 10
35845.65102210951
 20
-18008.62869239819
 10
35853.54523735738
 20
-18041.31962220603
 10
35862.58757007176
 20
-18078.76504962128
 10
35882.89012341126
 20
-18073.86238312982
 10
35880.35687073965
 20
-18063.37186790164
 10
35896.14152781104
 20
-18059.20104982668
 10
35898.63694493131
 20
-18069.53488331858
 10
35909.09614275667
 20
-18066.72944604907
 10
35906.91291024073
 20
-18057.68840793554
 10
36240.75741498877
 20
-17968.14236133842
  0
LWPOLYLINE
  5
2A6
330
1F
100
AcDbEntity
  8
Ech.1_5
  6
Continuous
 62
   190
370
    15
390
5F
100
AcDbPolyline
 90
       96
 70
     0
 43
0.0
 10
37430.19703409179
 20
-17904.80081065083
 42
1.140281805119673
 10
37397.05142576413
 20
-17909.1645229434
 10
37412.76248748605
 20
-17967.87730493608
 42
-1.303226186855245
 10
37380.19137411968
 20
-17967.87730493608
 10
37395.90243584159
 20
-17909.1645229434
 42
1.303226186854663
 10
37363.33132247521
 20
-17909.1645229434
 10
37379.04238419714
 20
-17967.87730493608
 42
-1.303226186854663
 10
37346.47127083075
 20
-17967.87730493608
 10
37362.18233255266
 20
-17909.1645229434
 42
1.303226186855245
 10
37329.61121918629
 20
-17909.1645229434
 10
37345.32228090821
 20
-17967.87730493608
 42
-1.303226186854663
 10
37312.75116754182
 20
-17967.87730493608
 10
37328.46222926374
 20
-17909.1645229434
 42
1.303226186855245
 10
37295.89111589736
 20
-17909.1645229434
 10
37311.60217761928
 20
-17967.87730493608
 42
-1.303226186855245
 10
37279.03106425291
 20
-17967.87730493608
 10
37294.74212597482
 20
-17909.1645229434
 42
1.303226186854663
 10
37262.17101260844
 20
-17909.1645229434
 10
37277.88207433035
 20
-17967.87730493608
 42
-1.303226186855245
 10
37245.31096096398
 20
-17967.87730493608
 10
37261.02202268589
 20
-17909.1645229434
 42
1.303226186854663
 10
37228.45090931951
 20
-17909.1645229434
 10
37244.16197104144
 20
-17967.87730493608
 42
-1.303226186854663
 10
37211.59085767505
 20
-17967.87730493608
 10
37227.30191939697
 20
-17909.1645229434
 42
1.303226186855245
 10
37194.73080603059
 20
-17909.1645229434
 10
37210.44186775251
 20
-17967.87730493608
 42
-1.303226186854663
 10
37177.87075438612
 20
-17967.87730493608
 10
37193.58181610804
 20
-17909.1645229434
 42
1.303226186855245
 10
37161.01070274167
 20
-17909.1645229434
 10
37176.72176446358
 20
-17967.87730493608
 42
-1.303226186855245
 10
37144.15065109721
 20
-17967.87730493608
 10
37159.86171281913
 20
-17909.1645229434
 42
1.303226186854663
 10
37127.29059945274
 20
-17909.1645229434
 10
37143.00166117465
 20
-17967.87730493608
 42
-1.303226186855245
 10
37110.43054780828
 20
-17967.87730493608
 10
37126.1416095302
 20
-17909.1645229434
 42
1.303226186854663
 10
37093.57049616381
 20
-17909.1645229434
 10
37109.28155788574
 20
-17967.87730493608
 42
-1.303226186854663
 10
37076.71044451935
 20
-17967.87730493608
 10
37092.42150624127
 20
-17909.1645229434
 42
1.303226186855245
 10
37059.8503928749
 20
-17909.1645229434
 10
37075.56145459681
 20
-17967.87730493608
 42
-1.303226186854663
 10
37042.99034123043
 20
-17967.87730493608
 10
37058.70140295234
 20
-17909.1645229434
 42
1.303226186855245
 10
37026.13028958597
 20
-17909.1645229434
 10
37041.84135130788
 20
-17967.87730493608
 42
-1.303226186855245
 10
37009.27023794151
 20
-17967.87730493608
 10
37024.98129966343
 20
-17909.1645229434
 42
1.303226186854663
 10
36992.41018629704
 20
-17909.1645229434
 10
37008.12124801896
 20
-17967.87730493608
 42
-1.303226186855245
 10
36975.55013465259
 20
-17967.87730493608
 10
36991.2611963745
 20
-17909.1645229434
 42
1.303226186854663
 10
36958.69008300811
 20
-17909.1645229434
 10
36974.40114473004
 20
-17967.87730493608
 42
-1.303226186854663
 10
36941.83003136366
 20
-17967.87730493608
 10
36957.54109308557
 20
-17909.1645229434
 42
1.303226186855245
 10
36924.9699797192
 20
-17909.1645229434
 10
36940.68104144112
 20
-17967.87730493608
 42
-1.303226186854663
 10
36908.10992807473
 20
-17967.87730493608
 10
36923.82098979664
 20
-17909.1645229434
 42
1.303226186855245
 10
36891.24987643027
 20
-17909.1645229434
 10
36906.96093815219
 20
-17967.87730493608
 42
-1.303226186855245
 10
36874.38982478582
 20
-17967.87730493608
 10
36890.10088650773
 20
-17909.1645229434
 42
1.303226186854663
 10
36857.52977314134
 20
-17909.1645229434
 10
36873.24083486326
 20
-17967.87730493608
 42
-1.303226186855245
 10
36840.66972149689
 20
-17967.87730493608
 10
36856.3807832188
 20
-17909.1645229434
 42
1.303226186854663
 10
36823.80966985242
 20
-17909.1645229434
 10
36839.52073157435
 20
-17967.87730493608
 42
-1.303226186854663
 10
36806.94961820796
 20
-17967.87730493608
 10
36822.66067992988
 20
-17909.1645229434
 42
1.303226186855245
 10
36790.0895665635
 20
-17909.1645229434
 10
36805.80062828542
 20
-17967.87730493608
 42
-1.303226186854663
 10
36773.22951491903
 20
-17967.87730493608
 10
36788.94057664095
 20
-17909.1645229434
 42
1.303226186855245
 10
36756.36946327458
 20
-17909.1645229434
 10
36772.08052499649
 20
-17967.87730493608
 42
-1.303226186855245
 10
36739.50941163012
 20
-17967.87730493608
 10
36755.22047335203
 20
-17909.1645229434
 42
1.303226186854663
 10
36722.64935998565
 20
-17909.1645229434
 10
36738.36042170756
 20
-17967.87730493608
 42
-1.303226186855245
 10
36705.78930834119
 20
-17967.87730493608
 10
36721.50037006311
 20
-17909.1645229434
 42
1.303226186854663
 10
36688.92925669672
 20
-17909.1645229434
 10
36704.64031841865
 20
-17967.87730493608
 42
-1.303226186854663
 10
36672.06920505226
 20
-17967.87730493608
 10
36687.78026677418
 20
-17909.1645229434
 42
1.303226186855245
 10
36655.20915340781
 20
-17909.1645229434
 10
36670.92021512972
 20
-17967.87730493608
 42
-1.303226186854663
 10
36638.34910176334
 20
-17967.87730493608
 10
36654.06016348525
 20
-17909.1645229434
 42
1.303226186855245
 10
36621.48905011888
 20
-17909.1645229434
 10
36637.20011184079
 20
-17967.87730493608
 42
-0.5166832052130234
 10
36619.65084354687
 20
-17989.05364267559
  0
ARC
  5
2A7
330
1F
100
AcDbEntity
  8
Ech.1_5
  6
Continuous
 62
   190
370
    15
390
5F
100
AcDbCircle
 10
36548.08053669385
 20
-17976.24860374536
 30
0.0
 40
11.98593930593903
100
AcDbArc
 50
257.288946093407
 51
282.711053906593
  0
LWPOLYLINE
  5
2A8
330
1F
100
AcDbEntity
  8
Ech.1_5
  6
Continuous
 62
   190
370
    15
390
5F
100
AcDbPolyline
 90
       16
 70
     0
 43
0.0
 10
36621.78759573515
 20
-17898.40074742678
 42
1.140281805119315
 10
36600.70619447689
 20
-17909.37503838419
 10
36625.47743155214
 20
-17944.77714938841
 42
-1.303226186854811
 10
36603.71879919431
 20
-17952.69664390501
 10
36599.93862939472
 20
-17909.65440922698
 42
1.303226186856552
 10
36578.17999703689
 20
-17917.57390374355
 10
36602.95123411213
 20
-17952.97601474777
 42
-1.303226186856743
 10
36581.1926017543
 20
-17960.89550926437
 10
36577.41243195471
 20
-17917.85327458634
 42
1.303226186856188
 10
36555.65379959687
 20
-17925.77276910294
 10
36580.42503667212
 20
-17961.17488010713
 42
-1.303226186854447
 10
36558.66640431428
 20
-17969.09437462375
 10
36554.88623451471
 20
-17926.0521399457
 42
1.303226186856188
 10
36533.12760215686
 20
-17933.97163446229
 10
36557.8988392321
 20
-17969.37374546652
 42
-0.5333279133952891
 10
36550.71785574469
 20
-17987.94079298732
  0
LWPOLYLINE
  5
2A9
330
1F
100
AcDbEntity
  8
Ech.1_5
  6
Continuous
 62
   190
370
    15
390
5F
100
AcDbPolyline
 90
        6
 70
     0
 43
0.0
 10
36545.44321764301
 20
-17987.94079298732
 42
-0.3263143027955999
 10
36536.14020687428
 20
-17977.29323998311
 10
36532.36003707469
 20
-17934.25100530506
 42
1.303226186854811
 10
36510.60140471686
 20
-17942.17049982165
 10
36535.3726417921
 20
-17977.57261082588
 42
-0.2306151060404365
 10
36537.01991509265
 20
-17987.94079298732
  0
LINE
  5
2AA
330
1F
100
AcDbEntity
  8
Ech.1_5
  6
Continuous
 62
   190
370
    15
390
5F
100
AcDbLine
 10
35853.54523735738
 20
-18041.31962220603
 30
0.0
 11
36201.61677927476
 21
-17957.26720492378
 31
0.0
  0
LWPOLYLINE
  5
2AB
330
1F
100
AcDbEntity
  8
Ech.1_5
  6
Continuous
 62
     5
370
    40
390
5F
100
AcDbPolyline
 90
        5
 70
     0
 43
0.0
 10
36554.34484104931
 20
-18327.94081972056
 10
36594.34484104943
 20
-18327.94081972061
 10
36594.34484104943
 20
-18282.94081972056
 10
36554.34484104917
 20
-18282.94081972056
 10
36554.34484104931
 20
-18327.94081972056
  0
LWPOLYLINE
  5
2AC
330
1F
100
AcDbEntity
  8
Ech.1_5
  6
Continuous
 62
     5
370
    40
390
5F
100
AcDbPolyline
 90
        5
 70
     0
 43
0.0
 10
36545.53183959122
 20
-18087.94075900636
 10
36365.53595243512
 20
-18087.94075900636
 10
36365.53595243512
 20
-18132.94075900636
 10
36545.53183959122
 20
-18132.94075900636
 10
36545.53183959122
 20
-18087.94075900636
  0
LWPOLYLINE
  5
2AD
330
1F
100
AcDbEntity
  8
Ech.1_5
  6
Continuous
 62
     5
370
    40
390
5F
100
AcDbPolyline
 90
        5
 70
     0
 43
0.0
 10
36545.53183959122
 20
-18132.94075900636
 10
36365.53595243512
 20
-18132.94075900636
 10
36365.53595243512
 20
-18177.94075900636
 10
36545.53183959122
 20
-18177.94075900636
 10
36545.53183959122
 20
-18132.94075900636
  0
LWPOLYLINE
  5
2AE
330
1F
100
AcDbEntity
  8
Ech.1_5
  6
Continuous
 62
     5
370
    40
390
5F
100
AcDbPolyline
 90
        7
 70
     0
 43
0.0
 10
36391.86809755184
 20
-18087.94075900636
 10
36436.86809755184
 20
-18087.94075900636
 10
36436.86809755184
 20
-17997.94075900636
 10
36413.28673854278
 20
-17997.94075900636
 10
36391.86809755184
 20
-17997.94075900636
 10
36391.86809755184
 20
-18087.94075900636
 10
36412.89092107811
 20
-18087.94075900636
  0
LWPOLYLINE
  5
2AF
330
1F
100
AcDbEntity
  8
Ech.1_5
  6
Continuous
 62
     5
370
    40
390
5F
100
AcDbPolyline
 90
        5
 70
     0
 43
0.0
 10
35911.53579967219
 20
-18252.09133466047
 10
35949.12350450362
 20
-18238.41052892739
 10
35958.35804837341
 20
-18263.78222968865
 10
35920.77034354198
 20
-18277.46303542167
 10
35911.53579967219
 20
-18252.09133466047
  0
LWPOLYLINE
  5
2B0
330
1F
100
AcDbEntity
  8
Ech.1_5
  6
Continuous
 62
     5
370
    40
390
5F
100
AcDbPolyline
 90
        5
 70
     0
 43
0.0
 10
36241.71355059047
 20
-18131.99312354827
 10
36279.3012554219
 20
-18118.31231781525
 10
36288.5357992917
 20
-18143.68401857645
 10
36250.94809446027
 20
-18157.36482430947
 10
36241.71355059047
 20
-18131.99312354827
  0
LWPOLYLINE
  5
2B1
330
1F
100
AcDbEntity
  8
Ech.1_5
  6
Continuous
 62
     5
370
    40
390
5F
100
AcDbPolyline
 90
        5
 70
     0
 43
0.0
 10
37052.78127927624
 20
-18147.94075900636
 10
37052.78127927624
 20
-18087.94075900636
 10
37010.78127927624
 20
-18087.94075900636
 10
37010.78127927624
 20
-18147.94075900636
 10
37052.78127927624
 20
-18147.94075900636
  0
LWPOLYLINE
  5
2B2
330
1F
100
AcDbEntity
  8
Ech.1_5
  6
Continuous
 62
     5
370
    40
390
5F
100
AcDbPolyline
 90
        5
 70
     0
 43
0.0
 10
36199.41872956351
 20
-17983.42714026529
 10
36237.00643439493
 20
-17969.74633453227
 10
36246.24097826473
 20
-17995.11803529353
 10
36208.6532734333
 20
-18008.79884102649
 10
36199.41872956351
 20
-17983.42714026529
  0
LWPOLYLINE
  5
2B3
330
1F
100
AcDbEntity
  8
Ech.1_5
  6
Continuous
 62
     5
370
    40
390
5F
100
AcDbPolyline
 90
        5
 70
     0
 43
0.0
 10
35917.33970317946
 20
-18058.15689073723
 10
35953.41623985335
 20
-18048.48019638366
 10
35970.08970626112
 20
-18095.62887845758
 10
35917.35682760802
 20
-18114.82207665452
 10
35917.33970317946
 20
-18058.15689073723
  0
LWPOLYLINE
  5
2B4
330
1F
100
AcDbEntity
  8
Ech.1_5
  6
Continuous
 62
     5
370
    40
390
5F
100
AcDbPolyline
 90
        5
 70
     0
 43
0.0
 10
36538.06456354557
 20
-17860.13154681131
 10
36575.652268377
 20
-17846.45074107823
 10
36584.8868122468
 20
-17871.82244183949
 10
36547.29910741537
 20
-17885.50324757251
 10
36538.06456354557
 20
-17860.13154681131
  0
LWPOLYLINE
  5
2B5
330
1F
100
AcDbEntity
  8
Ech.1_5
  6
Continuous
 62
     5
370
    40
390
5F
100
AcDbPolyline
 90
        5
 70
     0
 43
0.0
 10
36876.64975383753
 20
-17736.82641018961
 10
36914.23745866895
 20
-17723.14560445665
 10
36923.47200253875
 20
-17748.51730521785
 10
36885.88429770732
 20
-17762.19811095087
 10
36876.64975383753
 20
-17736.82641018961
  0
LINE
  5
2B6
330
1F
100
AcDbEntity
  8
Ech.1_5
370
    35
390
5F
100
AcDbLine
 10
37056.02581606439
 20
-18226.00943569931
 30
0.0
 11
37056.02581606439
 21
-18095.44910787004
 31
0.0
  0
LWPOLYLINE
  5
2B8
330
1F
100
AcDbEntity
  8
Ech.1_5
  6
CADWORK_12
 48
0.2000000029802322
370
    35
390
5F
100
AcDbPolyline
 90
        2
 70
     0
 43
0.0
 10
37064.22468062547
 20
-18226.00943569931
 10
37064.22468062547
 20
-18249.94090173946
  0
LWPOLYLINE
  5
2BA
330
1F
100
AcDbEntity
  8
Ech.1_5
  6
CADWORK_22
 62
   140
420
  1483507
 48
0.6
370
    35
390
5F
100
AcDbPolyline
 90
        4
 70
   128
 43
0.0
 38
2500.0
 10
35924.79936448604
 20
-18136.6192028544
 10
35975.84482423235
 20
-18117.76423722022
 10
35982.77313207398
 20
-18118.14902219135
 10
37429.6840038768
 20
-17591.51653321896
  0
LWPOLYLINE
  5
2BB
330
1F
100
AcDbEntity
  8
Ech.1_5
  6
CADWORK_22
 62
     1
 48
0.6
370
    35
390
5F
100
AcDbPolyline
 90
        3
 70
   128
 43
0.0
 10
36555.42202707712
 20
-18273.07136798493
 10
36555.42202707712
 20
-18089.44075900636
 10
37096.86370441024
 20
-18089.44075900636
  0
LWPOLYLINE
  5
2BC
330
1F
100
AcDbEntity
  8
Ech.1_5
  6
CADWORK_22
 62
   140
420
  1483507
 48
0.6
370
    35
390
5F
100
AcDbPolyline
 90
        3
 70
   128
 43
0.0
 38
2500.0
 10
36349.53588521238
 20
-18221.83382397473
 10
36349.53596463166
 20
-18085.94075900636
 10
36428.98565906814
 20
-18085.94075900636
  0
LWPOLYLINE
  5
2BD
330
1F
100
AcDbEntity
  8
Ech.1_5
  6
Continuous
 62
   190
370
    15
390
5F
100
AcDbPolyline
 90
        3
 70
     0
 43
0.0
 10
37027.09913561682
 20
-18113.39511987246
 10
36969.57791890774
 20
-18330.08027913147
 10
36949.57791890774
 20
-18330.08027913147
  0
INSERT
  5
2BE
330
1F
100
AcDbEntity
  8
Ech.1_5
 62
   190
370
    15
100
AcDbBlockReference
  2
cw-line-extremity4
 10
37027.09913561682
 20
-18113.39511987246
 30
0.0
 50
255.1331554366276
  0
LWPOLYLINE
  5
2BF
330
1F
100
AcDbEntity
  8
Ech.1_5
  6
Continuous
 62
   190
370
    15
390
5F
100
AcDbPolyline
 90
        3
 70
     0
 43
0.0
 10
37015.66838855941
 20
-18254.38516588165
 10
36969.57791890774
 20
-18391.26730790786
 10
36949.57791890774
 20
-18391.26730790786
  0
INSERT
  5
2C0
330
1F
100
AcDbEntity
  8
Ech.1_5
 62
   190
370
    15
100
AcDbBlockReference
  2
cw-line-extremity4
 10
37015.66838855941
 20
-18254.38516588165
 30
0.0
 50
251.3907738482779
  0
LWPOLYLINE
  5
2C1
330
1F
100
AcDbEntity
  8
Ech.1_5
  6
Continuous
 62
   190
370
    15
390
5F
100
AcDbPolyline
 90
        3
 70
     0
 43
0.0
 10
36157.66462345405
 20
-18054.72657910285
 10
36034.73192147541
 20
-17879.45301953766
 10
36014.73192147541
 20
-17879.45301953766
  0
INSERT
  5
2C2
330
1F
100
AcDbEntity
  8
Ech.1_5
 62
   190
370
    15
100
AcDbBlockReference
  2
cw-line-extremity4
 10
36157.66462345405
 20
-18054.72657910285
 30
0.0
 50
125.044905496685
  0
LWPOLYLINE
  5
2C3
330
1F
100
AcDbEntity
  8
Ech.1_5
  6
Continuous
 62
   190
370
    15
390
5F
100
AcDbPolyline
 90
        3
 70
     0
 43
0.0
 10
36675.94973765254
 20
-18090.77808374905
 10
36721.96775935953
 20
-18281.72914827079
 10
36741.96775935953
 20
-18281.72914827079
  0
INSERT
  5
2C4
330
1F
100
AcDbEntity
  8
Ech.1_5
 62
   190
370
    15
100
AcDbBlockReference
  2
cw-line-extremity4
 10
36675.94973765254
 20
-18090.77808374905
 30
0.0
 50
283.5495602538633
  0
LWPOLYLINE
  5
2C5
330
1F
100
AcDbEntity
  8
Ech.1_5
  6
Continuous
 62
   190
370
    15
390
5F
100
AcDbPolyline
 90
        3
 70
     0
 43
0.0
 10
36441.79321696726
 20
-17981.4887915271
 10
36233.1683756492
 20
-17789.12206531071
 10
36213.1683756492
 20
-17789.12206531071
  0
INSERT
  5
2C6
330
1F
100
AcDbEntity
  8
Ech.1_5
 62
   190
370
    15
100
AcDbBlockReference
  2
cw-line-extremity4
 10
36441.79321696726
 20
-17981.4887915271
 30
0.0
 50
137.3217731249057
  0
LINE
  5
2C7
330
1F
100
AcDbEntity
  8
Ech.1_5
370
    35
390
5F
100
AcDbLine
 10
36598.75935891605
 20
-18226.00943569931
 30
0.0
 11
36598.75935891605
 21
-18095.44910787004
 31
0.0
  0
LWPOLYLINE
  5
2C8
330
1F
100
AcDbEntity
  8
Ech.1_5
  6
CADWORK_12
 48
0.2000000029802322
370
    35
390
5F
100
AcDbPolyline
 90
        2
 70
     0
 43
0.0
 10
36598.75935891605
 20
-18226.00943569931
 10
36598.75935891605
 20
-18249.94090173946
  0
LWPOLYLINE
  5
2C9
330
1F
100
AcDbEntity
  8
Ech.1_5
  6
Continuous
 62
   190
370
    15
390
5F
100
AcDbPolyline
 90
        5
 70
     0
 43
0.0
 10
37093.16487092212
 20
-18671.04946115251
 10
37093.16487092212
 20
-17686.04946115251
 10
35738.1648709221
 20
-17686.04946115251
 10
35738.1648709221
 20
-18671.04946115251
 10
37093.16487092212
 20
-18671.04946115251
  0
LWPOLYLINE
  5
2CA
330
1F
100
AcDbEntity
  8
Ech.1_5
 62
   190
370
    15
390
5F
100
AcDbPolyline
 90
        5
 70
     0
 43
0.0
 10
35802.33874195075
 20
-18471.84798183411
 10
35936.7675209367
 20
-18471.84798183411
 10
35936.7675209367
 20
-18528.5709406459
 10
35802.33874195075
 20
-18528.5709406459
 10
35802.33874195075
 20
-18471.84798183411
  0
LWPOLYLINE
  5
2CB
330
1F
100
AcDbEntity
  8
Ech.1_5
 62
   190
370
    15
390
5F
100
AcDbPolyline
 90
        5
 70
     0
 43
0.0
 10
35820.61878773606
 20
-18505.50479296306
 10
35870.61878773606
 20
-18505.50479296306
 10
35870.61878773606
 20
-18498.08965542903
 10
35820.61878773606
 20
-18498.08965542903
 10
35820.61878773606
 20
-18505.50479296306
  0
HATCH
  5
2CC
330
1F
100
AcDbEntity
  8
Ech.1_5
  6
Continuous
 62
   190
440
 33554687
370
    15
390
5F
100
AcDbHatch
 10
0.0
 20
0.0
 30
0.0
210
0.0
220
0.0
230
1.0
  2
SOLID
 70
     1
 71
     0
 91
        1
 92
        3
 72
     0
 73
     1
 93
        4
 10
35820.61878773606
 20
-18505.50479296306
 10
35870.61878773606
 20
-18505.50479296306
 10
35870.61878773606
 20
-18498.08965542903
 10
35820.61878773606
 20
-18498.08965542903
 97
        0
 75
     0
 76
     1
 98
        0
  0
LWPOLYLINE
  5
2CD
330
1F
100
AcDbEntity
  8
Ech.1_5
 62
   190
370
    15
390
5F
100
AcDbPolyline
 90
        5
 70
     0
 43
0.0
 10
35870.61878773606
 20
-18505.50479296306
 10
35920.61878773606
 20
-18505.50479296306
 10
35920.61878773606
 20
-18498.08965542903
 10
35870.61878773606
 20
-18498.08965542903
 10
35870.61878773606
 20
-18505.50479296306
  0
LWPOLYLINE
  5
2CE
330
1F
100
AcDbEntity
  8
Ech.1_5
 62
     3
370
    70
390
5F
100
AcDbPolyline
 90
        4
 70
     0
 43
0.0
 10
35802.26232737361
 20
-18607.05051859916
 10
35789.27319395353
 20
-18607.05051859916
 10
35785.33846181263
 20
-18601.36990563716
 10
35771.86003181172
 20
-18601.36990563716
  0
LWPOLYLINE
  5
2CF
330
1F
100
AcDbEntity
  8
Ech.1_5
  6
Continuous
 62
   190
370
    15
390
5F
100
AcDbPolyline
 90
        5
 70
     0
 43
0.0
 10
36108.16487092212
 20
-18438.11942608182
 10
37093.16487092212
 20
-18438.11942608182
 10
37093.16487092212
 20
-18671.04946115251
 10
36108.16487092212
 20
-18671.04946115251
 10
36108.16487092212
 20
-18438.11942608182
  0
LWPOLYLINE
  5
2D0
330
1F
100
AcDbEntity
  8
Ech.1_5
  6
Continuous
 62
   190
370
    15
390
5F
100
AcDbPolyline
 90
        5
 70
     0
 43
0.0
 10
37093.16487092212
 20
-18533.63638908747
 10
36108.16487092212
 20
-18533.63638908747
 10
36108.16487092212
 20
-18438.11942608182
 10
37093.16487092212
 20
-18438.11942608182
 10
37093.16487092212
 20
-18533.63638908747
  0
LWPOLYLINE
  5
2D1
330
1F
100
AcDbEntity
  8
Ech.1_5
  6
Continuous
 62
   190
370
    15
390
5F
100
AcDbPolyline
 90
        5
 70
     0
 43
0.0
 10
37093.16487092212
 20
-18555.63638908747
 10
36108.16487092212
 20
-18555.63638908747
 10
36108.16487092212
 20
-18533.63638908747
 10
37093.16487092212
 20
-18533.63638908747
 10
37093.16487092212
 20
-18555.63638908747
  0
LWPOLYLINE
  5
2D2
330
1F
100
AcDbEntity
  8
Ech.1_5
  6
Continuous
 62
   190
370
    15
390
5F
100
AcDbPolyline
 90
        5
 70
     0
 43
0.0
 10
37093.16487092212
 20
-18612.50753431778
 10
36108.16487092212
 20
-18612.50753431778
 10
36108.16487092212
 20
-18588.78050600708
 10
37093.16487092212
 20
-18588.78050600708
 10
37093.16487092212
 20
-18612.50753431778
  0
LINE
  5
2D3
330
1F
100
AcDbEntity
  8
Ech.1_5
  6
Continuous
 62
   190
370
    15
390
5F
100
AcDbLine
 10
36296.36943288507
 20
-18533.63638908747
 30
0.0
 11
36296.36943288507
 21
-18555.63638908747
 31
0.0
  0
LINE
  5
2D4
330
1F
100
AcDbEntity
  8
Ech.1_5
  6
Continuous
 62
   190
370
    15
390
5F
100
AcDbLine
 10
36953.36753551562
 20
-18533.63638908747
 30
0.0
 11
36953.36753551562
 21
-18555.63638908747
 31
0.0
  0
LINE
  5
2D5
330
1F
100
AcDbEntity
  8
Ech.1_5
  6
Continuous
 62
   190
370
    15
390
5F
100
AcDbLine
 10
36452.52465088043
 20
-18533.63638908747
 30
0.0
 11
36452.52465088043
 21
-18555.63638908747
 31
0.0
  0
LWPOLYLINE
  5
2D6
330
1F
100
AcDbEntity
  8
Ech.1_5
370
    20
390
5F
100
AcDbPolyline
 90
        5
 70
     0
 43
0.0
 10
35908.17210462998
 20
-18292.68726449116
 10
36347.87947400782
 20
-18132.65121898712
 10
36344.45775763184
 20
-18123.25484450929
 10
35904.68886863584
 20
-18283.31327873229
 10
35908.17210462998
 20
-18292.68726449116
  0
HATCH
  5
2D7
330
1F
100
AcDbEntity
  8
Ech.1_5
  6
Continuous
 62
   190
440
 33554687
370
    15
390
5F
100
AcDbHatch
 10
0.0
 20
0.0
 30
0.0
210
0.0
220
0.0
230
1.0
  2
SOLID
 70
     1
 71
     0
 91
        1
 92
        3
 72
     0
 73
     1
 93
        3
 10
36266.59005266943
 20
-18231.49676887027
 10
36253.36454368697
 20
-18247.96417984855
 10
36270.36613516505
 20
-18236.17709698405
 97
        0
 75
     0
 76
     1
 98
        0
  0
LWPOLYLINE
  5
2D8
330
1F
100
AcDbEntity
  8
Ech.1_5
  6
Continuous
 62
   190
370
    15
390
5F
100
AcDbPolyline
 90
        4
 70
     0
 43
0.0
 10
36266.59005266943
 20
-18231.49676887027
 10
36253.36454368697
 20
-18247.96417984855
 10
36270.36613516505
 20
-18236.17709698405
 10
36266.59005266943
 20
-18231.49676887027
  0
LWPOLYLINE
  5
2D9
330
1F
100
AcDbEntity
  8
Ech.1_5
  6
Continuous
 62
   190
370
    15
390
5F
100
AcDbPolyline
 90
      188
 70
     0
 43
0.0
 10
36331.58429735959
 20
-18232.08084523892
 10
36331.19551266556
 20
-18225.68045397326
 10
36331.0182290993
 20
-18222.48384603353
 10
36330.86147606994
 20
-18219.29154332552
 10
36330.73209708977
 20
-18216.10498092647
 10
36330.63693567111
 20
-18212.92559391362
 10
36330.60432514493
 20
-18211.33903963865
 10
36330.58283532625
 20
-18209.75481736421
 10
36330.57332165407
 20
-18208.17310647493
 10
36330.57663956746
 20
-18206.59408635548
 10
36330.59364450546
 20
-18205.0179363905
 10
36330.62519190709
 20
-18203.44483596467
 10
36330.67209735481
 20
-18201.87494722509
 10
36330.73407754303
 20
-18200.3079570621
 10
36330.80963838599
 20
-18198.74302871712
 10
36330.89722349694
 20
-18197.17929848709
 10
36331.10224097595
 20
-18194.05197755973
 10
36331.33667888625
 20
-18190.91908465564
 10
36331.58808613403
 20
-18187.77371015045
 10
36331.84401162549
 20
-18184.60894441976
 10
36332.0920042668
 20
-18181.41787783921
 10
36332.20913480183
 20
-18179.81032247261
 10
36332.31961296416
 20
-18178.19360078441
 10
36332.42188236704
 20
-18176.56684907155
 10
36332.51438662375
 20
-18174.929203631
 10
36332.59556315136
 20
-18173.27980531812
 10
36332.66100305129
 20
-18171.61988896872
 10
36332.69894670366
 20
-18169.95609720477
 10
36332.70356670308
 20
-18169.12509301261
 10
36332.69646375991
 20
-18168.29593393115
 10
36332.67602158056
 20
-18167.46955794847
 10
36332.64062387146
 20
-18166.6469030527
 10
36332.58865433905
 20
-18165.82890723193
 10
36332.51849668976
 20
-18165.01650847428
 10
36332.42853463001
 20
-18164.21064476785
 10
36332.31715186624
 20
-18163.41225410075
 10
36332.18273210488
 20
-18162.62227446109
 10
36332.02365905234
 20
-18161.84164383698
 10
36331.83831641508
 20
-18161.07130021651
 10
36331.62508789951
 20
-18160.31218158781
 10
36331.38235721205
 20
-18159.56522593897
 10
36331.10850805914
 20
-18158.8313712581
 10
36330.80192414724
 20
-18158.11155553331
 10
36330.46098918272
 20
-18157.40671675271
 10
36330.277134964
 20
-18157.06020683776
 10
36330.08408687206
 20
-18156.71779290441
 10
36329.88164287017
 20
-18156.37959220115
 10
36329.66961037278
 20
-18156.04572184486
 10
36329.44801462011
 20
-18155.71629591834
 10
36329.21709892859
 20
-18155.39142546684
 10
36328.9771161158
 20
-18155.07122140326
 10
36328.72831899933
 20
-18154.7557946405
 10
36328.20529312577
 20
-18154.13971666904
 10
36327.65004384865
 20
-18153.54407885572
 10
36327.06459370874
 20
-18152.96976850374
 10
36326.45096524679
 20
-18152.41767291634
 10
36325.81118100356
 20
-18151.88867939674
 10
36325.14726351981
 20
-18151.38367524815
 10
36324.4612353363
 20
-18150.90354777382
 10
36323.75511899377
 20
-18150.44918427697
 10
36323.03093703301
 20
-18150.02147206082
 10
36322.29071199475
 20
-18149.62129842859
 10
36321.53646641977
 20
-18149.24955068351
 10
36320.77022284881
 20
-18148.90711612881
 10
36319.99400382263
 20
-18148.59488206771
 10
36319.209831882
 20
-18148.31373580344
 10
36318.41972956767
 20
-18148.06456463922
 10
36317.62571942039
 20
-18147.84825587828
 10
36316.82982398094
 20
-18147.66569682385
 10
36316.03406579005
 20
-18147.51777477914
 10
36315.24046738851
 20
-18147.40537704738
 10
36314.45105131705
 20
-18147.32939093181
 10
36313.66751237203
 20
-18147.29041193779
 10
36312.88949340544
 20
-18147.28720868082
 10
36312.11584481632
 20
-18147.31784423857
 10
36311.34541530655
 20
-18147.38038017774
 10
36310.57705357806
 20
-18147.47287806505
 10
36309.80960833277
 20
-18147.59339946721
 10
36309.04192827259
 20
-18147.74000595092
 10
36308.27286209945
 20
-18147.9107590829
 10
36307.50125851526
 20
-18148.10372042987
 10
36306.72596622191
 20
-18148.31695155851
 10
36305.94583392137
 20
-18148.54851403556
 10
36305.15971031551
 20
-18148.79646942771
 10
36304.36644410627
 20
-18149.05887930168
 10
36303.56488399554
 20
-18149.33380522417
 10
36302.75387868528
 20
-18149.61930876191
 10
36301.93281543363
 20
-18149.91374594994
 10
36301.10440920823
 20
-18150.21729232707
 10
36300.27264460514
 20
-18150.53081763141
 10
36299.44150873814
 20
-18150.8551929777
 10
36298.61498872107
 20
-18151.19128948072
 10
36297.79707166773
 20
-18151.53997825522
 10
36296.99174469193
 20
-18151.90213041595
 10
36296.20299490748
 20
-18152.27861707768
 10
36295.4348094282
 20
-18152.67030935516
 10
36294.69117536787
 20
-18153.07807836316
 10
36293.97607984034
 20
-18153.50279521642
 10
36293.29350995938
 20
-18153.94533102971
 10
36292.96566810945
 20
-18154.17355326973
 10
36292.64745283884
 20
-18154.4065569178
 10
36292.33936253677
 20
-18154.64445086324
 10
36292.04189559249
 20
-18154.88734399542
 10
36291.75555039522
 20
-18155.13534520367
 10
36291.48082533418
 20
-18155.38856337735
 10
36291.21821879859
 20
-18155.64710740579
 10
36290.96822917768
 20
-18155.91108617833
 10
36290.7313548607
 20
-18156.18060858434
 10
36290.50809423683
 20
-18156.45578351314
 10
36290.29894569535
 20
-18156.73671985409
 10
36290.10440762544
 20
-18157.02352649652
 10
36289.92497841635
 20
-18157.31631232979
 10
36289.7611564573
 20
-18157.61518624324
 10
36289.61344013752
 20
-18157.92025712621
 10
36289.48223759908
 20
-18158.23160901048
 10
36289.36730552778
 20
-18158.54914649144
 10
36289.26811459174
 20
-18158.87269538411
 10
36289.18413423291
 20
-18159.20208116576
 10
36289.11483389331
 20
-18159.5371293137
 10
36289.05968301492
 20
-18159.87766530521
 10
36289.01815103972
 20
-18160.22351461758
 10
36288.98970740971
 20
-18160.57450272811
 10
36288.97382156687
 20
-18160.93045511408
 10
36288.9699629532
 20
-18161.29119725279
 10
36288.97760101069
 20
-18161.65655462152
 10
36288.99620518133
 20
-18162.02635269757
 10
36289.02524490708
 20
-18162.40041695822
 10
36289.06418962997
 20
-18162.77857288077
 10
36289.11250879198
 20
-18163.1606459425
 10
36289.23514820128
 20
-18163.93584539269
 10
36289.38891867091
 20
-18164.72461912711
 10
36289.56957573678
 20
-18165.52557096408
 10
36289.77287493481
 20
-18166.33730472192
 10
36289.9945718009
 20
-18167.15842421897
 10
36290.230421871
 20
-18167.98753327354
 10
36290.72760376681
 20
-18169.66413532852
 10
36291.23046490957
 20
-18171.35594143347
 10
36291.47341403835
 20
-18172.20405555049
 10
36291.70504958661
 20
-18173.05178213497
 10
36291.92112709027
 20
-18173.89772500523
 10
36292.11740208525
 20
-18174.74048797959
 10
36292.28963010745
 20
-18175.57867487639
 10
36292.43383019461
 20
-18176.41097211593
 10
36292.5491988235
 20
-18177.23706217551
 10
36292.63703800953
 20
-18178.0572875723
 10
36292.69868744406
 20
-18178.87200263402
 10
36292.73548681844
 20
-18179.68156168842
 10
36292.74877582405
 20
-18180.48631906323
 10
36292.73989415223
 20
-18181.28662908619
 10
36292.71018149437
 20
-18182.08284608503
 10
36292.66097754179
 20
-18182.87532438749
 10
36292.59362198587
 20
-18183.66441832131
 10
36292.50945451797
 20
-18184.45048221421
 10
36292.40981482946
 20
-18185.23387039395
 10
36292.29604261168
 20
-18186.01493718826
 10
36292.16947755602
 20
-18186.79403692487
 10
36292.03145935381
 20
-18187.57152393152
 10
36291.72642227523
 20
-18189.12307706588
 10
36291.39163458829
 20
-18190.67242594119
 10
36291.03454052003
 20
-18192.22119995567
 10
36290.6552001419
 20
-18193.76830967683
 10
36290.25265666127
 20
-18195.31229126493
 10
36289.82595328549
 20
-18196.85168088025
 10
36289.37413322192
 20
-18198.38501468302
 10
36288.89623967789
 20
-18199.91082883352
 10
36288.39131586077
 20
-18201.42765949201
 10
36287.85840497789
 20
-18202.93404281874
 10
36287.29655023663
 20
-18204.42851497398
 10
36286.70479484432
 20
-18205.90961211799
 10
36286.08218200833
 20
-18207.37587041103
 10
36285.42775493599
 20
-18208.82582601335
 10
36284.74055889977
 20
-18210.25801693264
 10
36284.02036835346
 20
-18211.67163349556
 10
36283.26875842476
 20
-18213.06747689527
 10
36282.48757731267
 20
-18214.44659261194
 10
36281.67867321613
 20
-18215.81002612578
 10
36280.84389433412
 20
-18217.15882291696
 10
36279.98508886558
 20
-18218.49402846568
 10
36279.10410500948
 20
-18219.81668825213
 10
36278.2027909648
 20
-18221.12784775649
 10
36277.28299493049
 20
-18222.42855245896
 10
36276.34656510551
 20
-18223.71984783972
 10
36275.39534968883
 20
-18225.00277937897
 10
36274.43119687941
 20
-18226.27839255689
 10
36273.4559548762
 20
-18227.54773285368
 10
36272.47147187819
 20
-18228.81184574952
 10
36270.48217569357
 20
-18231.32857125911
 10
36268.47809391725
 20
-18233.83693292719
  0
LWPOLYLINE
  5
2DA
330
1F
100
AcDbEntity
  8
Ech.1_5
  6
Continuous
 62
   173
420
  6710988
370
    70
390
5F
100
AcDbPolyline
 90
        6
 70
     0
 43
0.0
 10
36349.53588521238
 20
-18154.42161694715
 10
36349.53588521238
 20
-18133.04436423693
 10
36337.9542450783
 20
-18137.2595699329
 10
36349.53588521238
 20
-18133.04436423693
 10
36349.53573829486
 20
-18120.40262212775
 10
36337.9542450783
 20
-18124.61782638513
  0
LWPOLYLINE
  5
2DB
330
1F
100
AcDbEntity
  8
Ech.1_5
  6
Continuous
 62
   190
370
    15
390
5F
100
AcDbPolyline
 90
        3
 70
     0
 43
0.0
 10
36059.05478873682
 20
-18235.67445770284
 10
36105.54103418734
 20
-18286.92852956527
 10
36125.54103418734
 20
-18286.92852956527
  0
INSERT
  5
2DC
330
1F
100
AcDbEntity
  8
Ech.1_5
 62
   190
370
    15
100
AcDbBlockReference
  2
cw-line-extremity4
 10
36059.05478873682
 20
-18235.67445770284
 30
0.0
 50
312.2072940931372
  0
LWPOLYLINE
  5
2DD
330
1F
100
AcDbEntity
  8
Ech.1_5
  6
Continuous
 62
   190
370
    15
390
5F
100
AcDbPolyline
 90
      104
 70
     0
 43
0.0
 10
36557.75712591424
 20
-18233.27427835279
 42
1.140281805119553
 10
36590.52262609142
 20
-18228.96060221333
 10
36574.99172504312
 20
-18170.92112978879
 42
-1.303226186856101
 10
36607.18931925089
 20
-18170.92112384747
 10
36591.65843962223
 20
-18228.96060200372
 42
1.303226186856101
 10
36623.85603383
 20
-18228.96059606241
 10
36608.32513278168
 20
-18170.92112363787
 42
-1.303226186854293
 10
36640.52272698945
 20
-18170.92111769655
 10
36624.99184736081
 20
-18228.96059585283
 42
1.303226186856101
 10
36657.18944156858
 20
-18228.96058991152
 10
36641.65854052026
 20
-18170.92111748698
 42
-1.303226186856101
 10
36673.85613472803
 20
-18170.92111154566
 10
36658.32525509938
 20
-18228.96058970194
 42
1.303226186854293
 10
36690.52284930715
 20
-18228.96058376063
 10
36674.99194825884
 20
-18170.92111133609
 42
-1.303226186856101
 10
36707.18954246661
 20
-18170.92110539477
 10
36691.65866283796
 20
-18228.96058355102
 42
1.303226186856101
 10
36723.85625704573
 20
-18228.96057760971
 10
36708.32535599743
 20
-18170.92110518517
 42
-1.30322618685669
 10
36740.52295020518
 20
-18170.92109924385
 10
36724.99207057654
 20
-18228.96057740013
 42
1.303226186856101
 10
36757.18966478431
 20
-18228.96057145882
 10
36741.65876373599
 20
-18170.92109903428
 42
-1.303226186856101
 10
36773.85635794376
 20
-18170.92109309296
 10
36758.32547831511
 20
-18228.96057124924
 42
1.303226186854293
 10
36790.52307252288
 20
-18228.96056530793
 10
36774.99217147457
 20
-18170.92109288336
 42
-1.303226186855197
 10
36807.18976568234
 20
-18170.92108694207
 10
36791.65888605369
 20
-18228.96056509832
 42
1.303226186856101
 10
36823.85648026146
 20
-18228.96055915701
 10
36808.32557921315
 20
-18170.92108673247
 42
-1.303226186856101
 10
36840.52317342092
 20
-18170.92108079115
 10
36824.99229379227
 20
-18228.96055894743
 42
1.303226186856101
 10
36857.18988800004
 20
-18228.96055300612
 10
36841.65898695172
 20
-18170.92108058157
 42
-1.303226186856101
 10
36873.85658115949
 20
-18170.92107464026
 10
36858.32570153085
 20
-18228.96055279654
 42
1.303226186854293
 10
36890.52329573862
 20
-18228.96054685523
 10
36874.9923946903
 20
-18170.92107443065
 42
-1.303226186856101
 10
36907.18998889807
 20
-18170.92106848934
 10
36891.65910926941
 20
-18228.96054664562
 42
1.303226186856101
 10
36923.85670347718
 20
-18228.96054070431
 10
36908.32580242888
 20
-18170.92106827976
 42
-1.303226186856101
 10
36940.52339663665
 20
-18170.92106233845
 10
36924.992517008
 20
-18228.96054049473
 42
1.303226186856101
 10
36957.19011121576
 20
-18228.96053455341
 10
36941.65921016745
 20
-18170.92106212884
 42
-1.303226186854293
 10
36973.85680437522
 20
-18170.92105618753
 10
36958.32592474658
 20
-18228.96053434381
 42
1.303226186855197
 10
36990.52351895435
 20
-18228.96052840252
 10
36974.99261790603
 20
-18170.92105597795
 42
-1.303226186856101
 10
37007.1902121138
 20
-18170.92105003664
 10
36991.65933248514
 20
-18228.96052819292
 42
1.303226186856101
 10
37023.85692669291
 20
-18228.9605222516
 10
37008.32602564461
 20
-18170.92104982706
 42
-1.303226186856101
 10
37040.52361985238
 20
-18170.92104388575
 10
37024.99274022372
 20
-18228.96052204203
 42
1.303226186856101
 10
37057.19033443149
 20
-18228.96051610071
 10
37041.65943338319
 20
-18170.92104367614
 42
-1.303226186854293
 10
37073.85702759096
 20
-18170.92103773483
 10
37058.3261479623
 20
-18228.96051589111
 42
1.303226186856101
 10
37090.52374217007
 20
-18228.96050994979
 10
37074.99284112176
 20
-18170.92103752525
 42
-1.303226186856101
 10
37107.19043532952
 20
-18170.92103158394
 10
37091.65955570088
 20
-18228.96050974022
 42
1.303226186856101
 10
37123.85714990865
 20
-18228.9605037989
 10
37108.32624886034
 20
-18170.92103137436
 42
-1.303226186856101
 10
37140.52384306811
 20
-18170.92102543305
 10
37124.99296343945
 20
-18228.9605035893
 42
1.303226186855197
 10
37157.19055764722
 20
-18228.96049764801
 10
37141.65965659892
 20
-18170.92102522344
 42
-1.303226186854293
 10
37173.85725080669
 20
-18170.92101928213
 10
37158.32637117803
 20
-18228.96049743841
 42
1.303226186856101
 10
37190.5239653858
 20
-18228.96049149709
 10
37174.99306433748
 20
-18170.92101907255
 42
-1.303226186856101
 10
37207.19065854525
 20
-18170.92101313124
 10
37191.65977891661
 20
-18228.96049128751
 42
1.303226186856101
 10
37223.85737312438
 20
-18228.9604853462
 10
37208.32647207606
 20
-18170.92101292166
 42
-1.303226186856101
 10
37240.52406628383
 20
-18170.92100698034
 10
37224.99318665518
 20
-18228.96048513659
 42
1.303226186856101
 10
37257.19078086295
 20
-18228.96047919528
 10
37241.65987981464
 20
-18170.92100677074
 42
-1.303226186854293
 10
37273.85747402241
 20
-18170.92100082942
 10
37258.32659439376
 20
-18228.9604789857
 42
1.303226186856101
 10
37290.52418860153
 20
-18228.96047304439
 10
37274.99328755322
 20
-18170.92100061985
 42
-1.303226186856101
 10
37307.19088176099
 20
-18170.92099467853
 10
37291.66000213234
 20
-18228.96047283481
 42
1.303226186854293
 10
37323.85759634011
 20
-18228.9604668935
 10
37308.32669529179
 20
-18170.92099446896
 42
-1.303226186856101
 10
37340.52428949956
 20
-18170.92098852764
 10
37324.99340987092
 20
-18228.96046668389
 42
1.303226186856101
 10
37357.19100407869
 20
-18228.96046074258
 10
37341.66010303037
 20
-18170.92098831804
 42
-1.303226186854293
 10
37373.85769723814
 20
-18170.92098237672
 10
37358.32681760949
 20
-18228.960460533
 42
1.303226186856101
 10
37390.52441181726
 20
-18228.96045459169
 10
37374.99351076895
 20
-18170.92098216715
 42
-1.303226186856101
 10
37407.19110497672
 20
-18170.92097622583
 10
37391.66022534807
 20
-18228.96045438211
 42
1.303226186854293
 10
37423.85781955584
 20
-18228.9604484408
 10
37408.32691850752
 20
-18170.92097601626
 42
-0.8537142289385228
 10
37438.39588159842
 20
-18157.51810838276
  0
LWPOLYLINE
  5
2DE
330
1F
100
AcDbEntity
  8
Ech.1_5
  6
Continuous
 62
   190
370
    15
390
5F
100
AcDbPolyline
 90
        3
 70
     0
 43
0.0
 10
36348.13837371708
 20
-18173.78249592621
 10
36271.31590810059
 20
-18357.81377988558
 10
36251.31590810059
 20
-18357.81377988558
  0
INSERT
  5
2DF
330
1F
100
AcDbEntity
  8
Ech.1_5
 62
   190
370
    15
100
AcDbBlockReference
  2
cw-line-extremity4
 10
36348.13837371708
 20
-18173.78249592621
 30
0.0
 50
247.3422728636425
  0
HATCH
  5
2E0
330
1F
100
AcDbEntity
  8
Ech.1_5
  6
Continuous
 62
   158
420
    12131
440
 33554687
370
    20
390
5F
100
AcDbHatch
 10
0.0
 20
0.0
 30
0.0
210
0.0
220
0.0
230
1.0
  2
SOLID
 70
     1
 71
     0
 91
        1
 92
        3
 72
     0
 73
     1
 93
        4
 10
36176.48157632574
 20
-18655.57064432716
 10
36176.48157632574
 20
-18652.18198084716
 10
36177.02175768574
 20
-18652.18198084716
 10
36177.02175768574
 20
-18655.57064432716
 97
        0
 75
     0
 76
     1
 98
        0
  0
HATCH
  5
2E1
330
1F
100
AcDbEntity
  8
Ech.1_5
  6
Continuous
 62
   158
420
    12131
440
 33554687
370
    20
390
5F
100
AcDbHatch
 10
0.0
 20
0.0
 30
0.0
210
0.0
220
0.0
230
1.0
  2
SOLID
 70
     1
 71
     0
 91
        1
 92
        3
 72
     0
 73
     1
 93
        8
 10
36178.78987708573
 20
-18655.57064432716
 10
36178.78987708573
 20
-18652.62470680716
 10
36177.80696976573
 20
-18652.62470680716
 10
36177.80696976573
 20
-18652.18198084716
 10
36180.36308568573
 20
-18652.18198084716
 10
36180.31296576573
 20
-18652.62470680716
 10
36179.33005844573
 20
-18652.62470680716
 10
36179.33005844573
 20
-18655.57064432716
 97
        0
 75
     0
 76
     1
 98
        0
  0
HATCH
  5
2E2
330
1F
100
AcDbEntity
  8
Ech.1_5
  6
Continuous
 62
   158
420
    12131
440
 33554687
370
    20
390
5F
100
AcDbHatch
 10
0.0
 20
0.0
 30
0.0
210
0.0
220
0.0
230
1.0
  2
SOLID
 70
     1
 71
     0
 91
        1
 92
        3
 72
     0
 73
     1
 93
       32
 10
36182.27878040573
 20
-18655.62076424716
 10
36182.03096524574
 20
-18655.62076424716
 10
36181.63835920574
 20
-18655.52052440716
 10
36181.34320856573
 20
-18655.37294908716
 10
36181.14829776573
 20
-18655.12791836716
 10
36181.09817784574
 20
-18655.03046296716
 10
36181.05084236573
 20
-18654.88288764717
 10
36181.00072244574
 20
-18654.58773700716
 10
36181.00072244574
 20
-18652.18198084716
 10
36181.49078388573
 20
-18652.18198084716
 10
36181.49078388573
 20
-18654.19513096716
 10
36181.49078388573
 20
-18654.58773700716
 10
36181.54090380574
 20
-18654.78543224715
 10
36181.73859904574
 20
-18655.03046296716
 10
36181.88338992573
 20
-18655.12791836716
 10
36182.13120508574
 20
-18655.17803828716
 10
36182.27878040573
 20
-18655.17803828716
 10
36182.47369120574
 20
-18655.17803828716
 10
36182.71872192573
 20
-18655.08058288715
 10
36182.86629724574
 20
-18654.98034304716
 10
36182.96375264574
 20
-18654.83276772715
 10
36183.01387256573
 20
-18654.54040152716
 10
36183.01387256573
 20
-18652.18198084716
 10
36183.55405392573
 20
-18652.18198084716
 10
36183.55405392573
 20
-18654.34270628716
 10
36183.55405392573
 20
-18654.68519240715
 10
36183.45659852574
 20
-18655.03046296716
 10
36183.35914312574
 20
-18655.22815820715
 10
36183.25890328574
 20
-18655.27549368715
 10
36183.16144788574
 20
-18655.37294908716
 10
36182.96375264574
 20
-18655.52052440716
 10
36182.57114660574
 20
-18655.62076424716
 97
        0
 75
     0
 76
     1
 98
        0
  0
HATCH
  5
2E3
330
1F
100
AcDbEntity
  8
Ech.1_5
  6
Continuous
 62
   158
420
    12131
440
 33554687
370
    20
390
5F
100
AcDbHatch
 10
0.0
 20
0.0
 30
0.0
210
0.0
220
0.0
230
1.0
  2
SOLID
 70
     1
 71
     0
 91
        1
 92
        3
 72
     0
 73
     1
 93
        8
 10
36185.32217332574
 20
-18655.57064432716
 10
36185.32217332574
 20
-18652.62470680716
 10
36184.33926600573
 20
-18652.62470680716
 10
36184.33926600573
 20
-18652.18198084716
 10
36186.89538192573
 20
-18652.18198084716
 10
36186.84526200574
 20
-18652.62470680716
 10
36185.86235468573
 20
-18652.62470680716
 10
36185.86235468573
 20
-18655.57064432716
 97
        0
 75
     0
 76
     1
 98
        0
  0
HATCH
  5
2E4
330
1F
100
AcDbEntity
  8
Ech.1_5
  6
Continuous
 62
   158
420
    12131
440
 33554687
370
    20
390
5F
100
AcDbHatch
 10
0.0
 20
0.0
 30
0.0
210
0.0
220
0.0
230
1.0
  2
SOLID
 70
     1
 71
     0
 91
        1
 92
        3
 72
     0
 73
     1
 93
        8
 10
36165.38279848573
 20
-18662.49554660716
 10
36165.38279848573
 20
-18659.54960908717
 10
36164.39989116574
 20
-18659.54960908717
 10
36164.39989116574
 20
-18659.10688312717
 10
36167.00334256573
 20
-18659.10688312717
 10
36166.90588716573
 20
-18659.54960908717
 10
36165.92297984574
 20
-18659.54960908717
 10
36165.92297984574
 20
-18662.49554660716
 97
        0
 75
     0
 76
     1
 98
        0
  0
HATCH
  5
2E5
330
1F
100
AcDbEntity
  8
Ech.1_5
  6
Continuous
 62
   158
420
    12131
440
 33554687
370
    20
390
5F
100
AcDbHatch
 10
0.0
 20
0.0
 30
0.0
210
0.0
220
0.0
230
1.0
  2
SOLID
 70
     1
 71
     0
 91
        1
 92
        3
 72
     0
 73
     1
 93
       12
 10
36167.73843472573
 20
-18662.49554660716
 10
36167.73843472573
 20
-18659.10688312717
 10
36169.85182468573
 20
-18659.10688312717
 10
36169.75436928573
 20
-18659.54960908717
 10
36168.27861608574
 20
-18659.54960908717
 10
36168.27861608574
 20
-18660.53251640717
 10
36169.50655412574
 20
-18660.53251640717
 10
36169.50655412574
 20
-18660.92512244715
 10
36168.27861608574
 20
-18660.92512244715
 10
36168.27861608574
 20
-18662.00548516716
 10
36169.90194460574
 20
-18662.00548516716
 10
36169.90194460574
 20
-18662.49554660716
 97
        0
 75
     0
 76
     1
 98
        0
  0
HATCH
  5
2E6
330
1F
100
AcDbEntity
  8
Ech.1_5
  6
Continuous
 62
   158
420
    12131
440
 33554687
370
    20
390
5F
100
AcDbHatch
 10
0.0
 20
0.0
 30
0.0
210
0.0
220
0.0
230
1.0
  2
SOLID
 70
     1
 71
     0
 91
        1
 92
        3
 72
     0
 73
     1
 93
       38
 10
36172.25758084573
 20
-18662.54566652717
 10
36171.91509472573
 20
-18662.49554660716
 10
36171.32479344573
 20
-18662.25051588716
 10
36170.88206748573
 20
-18661.80778992717
 10
36170.68715668573
 20
-18661.17015316716
 10
36170.63703676574
 20
-18660.82488260716
 10
36170.68715668573
 20
-18660.43227656717
 10
36170.93218740574
 20
-18659.79463980716
 10
36171.37491336573
 20
-18659.30457836716
 10
36171.96243020573
 20
-18659.05676320715
 10
36172.25758084573
 20
-18659.05676320715
 10
36172.55273148573
 20
-18659.05676320715
 10
36173.04279292573
 20
-18659.20433852715
 10
36173.24048816573
 20
-18659.30457836716
 10
36172.94533752573
 20
-18659.69718440716
 10
36172.79776220574
 20
-18659.54960908717
 10
36172.45527608573
 20
-18659.44936924716
 10
36172.30770076574
 20
-18659.44936924716
 10
36172.16012544573
 20
-18659.44936924716
 10
36171.86497480574
 20
-18659.54960908717
 10
36171.61994408573
 20
-18659.69718440716
 10
36171.42224884573
 20
-18659.89209520716
 10
36171.37491336573
 20
-18660.03967052716
 10
36171.27467352574
 20
-18660.18724584716
 10
36171.22733804573
 20
-18660.57985188717
 10
36171.22733804573
 20
-18660.82488260716
 10
36171.22733804573
 20
-18661.17015316716
 10
36171.37491336573
 20
-18661.61287912716
 10
36171.52248868573
 20
-18661.75767000716
 10
36171.67006400574
 20
-18661.95536524717
 10
36172.11000552573
 20
-18662.10294056717
 10
36172.30770076574
 20
-18662.10294056717
 10
36172.50261156574
 20
-18662.10294056717
 10
36172.89800204574
 20
-18662.00548516716
 10
36173.04279292573
 20
-18661.90524532715
 10
36173.29060808574
 20
-18662.25051588716
 10
36173.09291284574
 20
-18662.39809120716
 10
36172.55273148573
 20
-18662.49554660716
 97
        0
 75
     0
 76
     1
 98
        0
  0
HATCH
  5
2E7
330
1F
100
AcDbEntity
  8
Ech.1_5
  6
Continuous
 62
   158
420
    12131
440
 33554687
370
    20
390
5F
100
AcDbHatch
 10
0.0
 20
0.0
 30
0.0
210
0.0
220
0.0
230
1.0
  2
SOLID
 70
     1
 71
     0
 91
        1
 92
        3
 72
     0
 73
     1
 93
       12
 10
36173.97836476573
 20
-18662.49554660716
 10
36173.97836476573
 20
-18659.10688312717
 10
36174.51854612574
 20
-18659.10688312717
 10
36174.51854612574
 20
-18660.48239648715
 10
36176.03885036573
 20
-18660.48239648715
 10
36176.03885036573
 20
-18659.10688312717
 10
36176.53169624573
 20
-18659.10688312717
 10
36176.53169624573
 20
-18662.49554660716
 10
36176.03885036573
 20
-18662.49554660716
 10
36176.03885036573
 20
-18660.92512244715
 10
36174.51854612574
 20
-18660.92512244715
 10
36174.51854612574
 20
-18662.49554660716
 97
        0
 75
     0
 76
     1
 98
        0
  0
HATCH
  5
2E8
330
1F
100
AcDbEntity
  8
Ech.1_5
  6
Continuous
 62
   158
420
    12131
440
 33554687
370
    20
390
5F
100
AcDbHatch
 10
0.0
 20
0.0
 30
0.0
210
0.0
220
0.0
230
1.0
  2
SOLID
 70
     1
 71
     0
 91
        1
 92
        3
 72
     0
 73
     1
 93
       18
 10
36177.70951436574
 20
-18662.49554660716
 10
36177.70951436574
 20
-18659.10688312717
 10
36178.29981564573
 20
-18659.10688312717
 10
36179.38017836574
 20
-18660.92512244715
 10
36179.72266448573
 20
-18661.51263928717
 10
36179.82290432573
 20
-18661.75767000716
 10
36179.77278440574
 20
-18661.26760856716
 10
36179.77278440574
 20
-18660.77754712716
 10
36179.77278440574
 20
-18659.10688312717
 10
36180.26284584573
 20
-18659.10688312717
 10
36180.26284584573
 20
-18662.49554660716
 10
36179.72266448573
 20
-18662.49554660716
 10
36178.64230176574
 20
-18660.67730728715
 10
36178.39727104573
 20
-18660.33482116716
 10
36178.15224032573
 20
-18659.79463980716
 10
36178.20236024573
 20
-18660.08979044717
 10
36178.20236024573
 20
-18660.77754712716
 10
36178.24969572574
 20
-18662.49554660716
 97
        0
 75
     0
 76
     1
 98
        0
  0
HATCH
  5
2E9
330
1F
100
AcDbEntity
  8
Ech.1_5
  6
Continuous
 62
   158
420
    12131
440
 33554687
370
    20
390
5F
100
AcDbHatch
 10
0.0
 20
0.0
 30
0.0
210
0.0
220
0.0
230
1.0
  2
SOLID
 70
     1
 71
     0
 91
        1
 92
        3
 72
     0
 73
     1
 93
       56
 10
36182.81896176573
 20
-18662.54566652717
 10
36182.81896176573
 20
-18662.15306048715
 10
36183.01387256573
 20
-18662.15306048715
 10
36183.25890328574
 20
-18662.05282064716
 10
36183.45659852574
 20
-18661.95536524717
 10
36183.60417384573
 20
-18661.75767000716
 10
36183.65150932573
 20
-18661.66021460717
 10
36183.75174916573
 20
-18661.36506396717
 10
36183.75174916573
 20
-18660.87500252717
 10
36183.75174916573
 20
-18660.53251640717
 10
36183.70162924573
 20
-18660.08979044717
 10
36183.60417384573
 20
-18659.89209520716
 10
36183.55405392573
 20
-18659.79463980716
 10
36183.35914312574
 20
-18659.64706448715
 10
36183.16144788574
 20
-18659.54960908717
 10
36182.91641716573
 20
-18659.44936924716
 10
36182.76884184574
 20
-18659.44936924716
 10
36182.52381112573
 20
-18659.49948916715
 10
36182.22866048574
 20
-18659.59694456716
 10
36182.08108516573
 20
-18659.74451988716
 10
36181.93350984574
 20
-18659.94221512715
 10
36181.83605444574
 20
-18660.43227656717
 10
36181.83605444574
 20
-18660.72742720717
 10
36181.83605444574
 20
-18661.07269776716
 10
36181.98362976573
 20
-18661.61287912716
 10
36182.08108516573
 20
-18661.80778992717
 10
36182.27878040573
 20
-18662.00548516716
 10
36182.57114660574
 20
-18662.15306048715
 10
36182.81896176573
 20
-18662.15306048715
 10
36182.81896176573
 20
-18662.54566652717
 10
36182.47369120574
 20
-18662.49554660716
 10
36182.03096524574
 20
-18662.39809120716
 10
36181.78593452573
 20
-18662.20039596716
 10
36181.68847912573
 20
-18662.10294056717
 10
36181.49078388573
 20
-18661.80778992717
 10
36181.29587308574
 20
-18661.17015316716
 10
36181.24575316573
 20
-18660.77754712716
 10
36181.29587308574
 20
-18660.38494108717
 10
36181.49078388573
 20
-18659.74451988716
 10
36181.78593452573
 20
-18659.40203376716
 10
36182.03096524574
 20
-18659.20433852715
 10
36182.42357128573
 20
-18659.05676320715
 10
36182.76884184574
 20
-18659.05676320715
 10
36183.21156780573
 20
-18659.05676320715
 10
36183.65150932573
 20
-18659.25445844716
 10
36183.89932448574
 20
-18659.44936924716
 10
36183.99677988574
 20
-18659.59694456716
 10
36184.19169068574
 20
-18659.79463980716
 10
36184.33926600573
 20
-18660.43227656717
 10
36184.33926600573
 20
-18660.82488260716
 10
36184.33926600573
 20
-18661.21748864718
 10
36184.19169068574
 20
-18661.80778992717
 10
36183.99677988574
 20
-18662.00548516716
 10
36183.89932448574
 20
-18662.15306048715
 10
36183.65150932573
 20
-18662.34797128716
 10
36183.21156780573
 20
-18662.49554660716
 97
        0
 75
     0
 76
     1
 98
        0
  0
HATCH
  5
2EA
330
1F
100
AcDbEntity
  8
Ech.1_5
  6
Continuous
 62
   158
420
    12131
440
 33554687
370
    20
390
5F
100
AcDbHatch
 10
0.0
 20
0.0
 30
0.0
210
0.0
220
0.0
230
1.0
  2
SOLID
 70
     1
 71
     0
 91
        1
 92
        3
 72
     0
 73
     1
 93
        6
 10
36185.37229324573
 20
-18662.49554660716
 10
36185.37229324573
 20
-18659.10688312717
 10
36185.86235468573
 20
-18659.10688312717
 10
36185.86235468573
 20
-18662.05282064716
 10
36187.33532344573
 20
-18662.05282064716
 10
36187.28798796573
 20
-18662.49554660716
 97
        0
 75
     0
 76
     1
 98
        0
  0
HATCH
  5
2EB
330
1F
100
AcDbEntity
  8
Ech.1_5
  6
Continuous
 62
   158
420
    12131
440
 33554687
370
    20
390
5F
100
AcDbHatch
 10
0.0
 20
0.0
 30
0.0
210
0.0
220
0.0
230
1.0
  2
SOLID
 70
     1
 71
     0
 91
        1
 92
        3
 72
     0
 73
     1
 93
       56
 10
36189.05610736573
 20
-18662.54566652717
 10
36189.10344284574
 20
-18662.15306048715
 10
36189.25101816573
 20
-18662.15306048715
 10
36189.49604888573
 20
-18662.05282064716
 10
36189.69374412573
 20
-18661.95536524717
 10
36189.84131944574
 20
-18661.75767000716
 10
36189.89143936573
 20
-18661.66021460717
 10
36189.98889476573
 20
-18661.36506396717
 10
36190.03623024574
 20
-18660.87500252717
 10
36190.03623024574
 20
-18660.53251640717
 10
36189.93877484574
 20
-18660.08979044717
 10
36189.84131944574
 20
-18659.89209520716
 10
36189.79119952573
 20
-18659.79463980716
 10
36189.64362420574
 20
-18659.64706448715
 10
36189.39859348573
 20
-18659.54960908717
 10
36189.15356276573
 20
-18659.44936924716
 10
36189.00598744574
 20
-18659.44936924716
 10
36188.81107664574
 20
-18659.49948916715
 10
36188.46580608573
 20
-18659.59694456716
 10
36188.31823076573
 20
-18659.74451988716
 10
36188.17065544573
 20
-18659.94221512715
 10
36188.07320004574
 20
-18660.43227656717
 10
36188.07320004574
 20
-18660.72742720717
 10
36188.07320004574
 20
-18661.07269776716
 10
36188.22077536573
 20
-18661.61287912716
 10
36188.31823076573
 20
-18661.80778992717
 10
36188.51592600573
 20
-18662.00548516716
 10
36188.81107664574
 20
-18662.15306048715
 10
36189.10344284574
 20
-18662.15306048715
 10
36189.05610736573
 20
-18662.54566652717
 10
36188.71083680574
 20
-18662.49554660716
 10
36188.31823076573
 20
-18662.39809120716
 10
36188.07320004574
 20
-18662.20039596716
 10
36187.92562472573
 20
-18662.10294056717
 10
36187.72792948573
 20
-18661.80778992717
 10
36187.53301868573
 20
-18661.17015316716
 10
36187.48289876574
 20
-18660.77754712716
 10
36187.53301868573
 20
-18660.38494108717
 10
36187.72792948573
 20
-18659.74451988716
 10
36188.02308012573
 20
-18659.40203376716
 10
36188.26811084573
 20
-18659.20433852715
 10
36188.66350132573
 20
-18659.05676320715
 10
36189.05610736573
 20
-18659.05676320715
 10
36189.44871340573
 20
-18659.05676320715
 10
36189.89143936573
 20
-18659.25445844716
 10
36190.13647008574
 20
-18659.44936924716
 10
36190.23392548574
 20
-18659.59694456716
 10
36190.43162072574
 20
-18659.79463980716
 10
36190.57919604573
 20
-18660.43227656717
 10
36190.62653152573
 20
-18660.82488260716
 10
36190.57919604573
 20
-18661.21748864718
 10
36190.43162072574
 20
-18661.80778992717
 10
36190.28404540573
 20
-18662.00548516716
 10
36190.13647008574
 20
-18662.15306048715
 10
36189.89143936573
 20
-18662.34797128716
 10
36189.44871340573
 20
-18662.49554660716
 97
        0
 75
     0
 76
     1
 98
        0
  0
HATCH
  5
2EC
330
1F
100
AcDbEntity
  8
Ech.1_5
  6
Continuous
 62
   158
420
    12131
440
 33554687
370
    20
390
5F
100
AcDbHatch
 10
0.0
 20
0.0
 30
0.0
210
0.0
220
0.0
230
1.0
  2
SOLID
 70
     1
 71
     0
 91
        1
 92
        3
 72
     0
 73
     1
 93
       46
 10
36193.08240760573
 20
-18662.54566652717
 10
36192.68980156574
 20
-18662.49554660716
 10
36192.09950028574
 20
-18662.25051588716
 10
36191.85446956573
 20
-18662.05282064716
 10
36191.75701416573
 20
-18661.95536524717
 10
36191.55931892573
 20
-18661.66021460717
 10
36191.41174360573
 20
-18661.17015316716
 10
36191.36440812574
 20
-18660.77754712716
 10
36191.41174360573
 20
-18660.28470124717
 10
36191.60943884574
 20
-18659.74451988716
 10
36191.85446956573
 20
-18659.44936924716
 10
36192.00204488574
 20
-18659.35191384716
 10
36192.24707560573
 20
-18659.20433852715
 10
36192.73992148573
 20
-18659.05676320715
 10
36192.98495220573
 20
-18659.05676320715
 10
36193.28010284573
 20
-18659.05676320715
 10
36193.82028420574
 20
-18659.25445844716
 10
36194.06531492573
 20
-18659.44936924716
 10
36193.82028420574
 20
-18659.74451988716
 10
36193.62258896574
 20
-18659.64706448715
 10
36193.28010284573
 20
-18659.49948916715
 10
36193.03228768574
 20
-18659.49948916715
 10
36192.83737688573
 20
-18659.49948916715
 10
36192.54222624573
 20
-18659.54960908717
 10
36192.34731544573
 20
-18659.69718440716
 10
36192.14962020573
 20
-18659.84475972716
 10
36192.09950028574
 20
-18659.94221512715
 10
36192.00204488574
 20
-18660.33482116716
 10
36191.95192496573
 20
-18660.82488260716
 10
36191.95192496573
 20
-18661.21748864718
 10
36192.14962020573
 20
-18661.66021460717
 10
36192.34731544573
 20
-18661.90524532715
 10
36192.44477084573
 20
-18661.95536524717
 10
36192.59234616574
 20
-18662.00548516716
 10
36192.93483228573
 20
-18662.10294056717
 10
36193.08240760573
 20
-18662.15306048715
 10
36193.28010284573
 20
-18662.10294056717
 10
36193.57246904573
 20
-18662.05282064716
 10
36193.67270888573
 20
-18662.00548516716
 10
36193.67270888573
 20
-18661.12003324716
 10
36192.93483228573
 20
-18661.12003324716
 10
36192.83737688573
 20
-18660.67730728715
 10
36194.16277032574
 20
-18660.67730728715
 10
36194.16277032574
 20
-18662.25051588716
 10
36193.91773960573
 20
-18662.39809120716
 10
36193.37755824573
 20
-18662.49554660716
 97
        0
 75
     0
 76
     1
 98
        0
  0
HATCH
  5
2ED
330
1F
100
AcDbEntity
  8
Ech.1_5
  6
Continuous
 62
   158
420
    12131
440
 33554687
370
    20
390
5F
100
AcDbHatch
 10
0.0
 20
0.0
 30
0.0
210
0.0
220
0.0
230
1.0
  2
SOLID
 70
     1
 71
     0
 91
        1
 92
        3
 72
     0
 73
     1
 93
        4
 10
36195.19579756573
 20
-18662.49554660716
 10
36195.19579756573
 20
-18659.10688312717
 10
36195.68585900574
 20
-18659.10688312717
 10
36195.68585900574
 20
-18662.49554660716
 97
        0
 75
     0
 76
     1
 98
        0
  0
HATCH
  5
2EE
330
1F
100
AcDbEntity
  8
Ech.1_5
  6
Continuous
 62
   158
420
    12131
440
 33554687
370
    20
390
5F
100
AcDbHatch
 10
0.0
 20
0.0
 30
0.0
210
0.0
220
0.0
230
1.0
  2
SOLID
 70
     1
 71
     0
 91
        1
 92
        3
 72
     0
 73
     1
 93
       64
 10
36200.00730988574
 20
-18663.23342320716
 10
36199.81239908573
 20
-18663.18330328717
 10
36199.51724844573
 20
-18663.08584788715
 10
36198.73203636573
 20
-18662.64312192715
 10
36198.43688572574
 20
-18662.54566652717
 10
36198.43688572574
 20
-18662.15306048715
 10
36198.68191644574
 20
-18662.05282064716
 10
36198.87682724574
 20
-18661.95536524717
 10
36199.02440256573
 20
-18661.75767000716
 10
36199.07452248574
 20
-18661.66021460717
 10
36199.22209780573
 20
-18661.36506396717
 10
36199.22209780573
 20
-18660.87500252717
 10
36199.22209780573
 20
-18660.53251640717
 10
36199.12464240573
 20
-18660.08979044717
 10
36198.97706708574
 20
-18659.79463980716
 10
36198.77937184574
 20
-18659.64706448715
 10
36198.58446104573
 20
-18659.54960908717
 10
36198.33664588573
 20
-18659.44936924716
 10
36198.19185500573
 20
-18659.44936924716
 10
36197.99415976573
 20
-18659.49948916715
 10
36197.69900912573
 20
-18659.59694456716
 10
36197.50409832573
 20
-18659.74451988716
 10
36197.35652300573
 20
-18659.94221512715
 10
36197.25628316573
 20
-18660.43227656717
 10
36197.25628316573
 20
-18660.72742720717
 10
36197.25628316573
 20
-18661.02257784716
 10
36197.35652300573
 20
-18661.56275920716
 10
36197.55143380574
 20
-18661.85790984716
 10
36197.69900912573
 20
-18662.00548516716
 10
36197.89670436573
 20
-18662.10294056717
 10
36198.14173508574
 20
-18662.15306048715
 10
36198.43688572574
 20
-18662.15306048715
 10
36198.43688572574
 20
-18662.54566652717
 10
36197.89670436573
 20
-18662.49554660716
 10
36197.50409832573
 20
-18662.39809120716
 10
36197.25628316573
 20
-18662.20039596716
 10
36197.15882776573
 20
-18662.10294056717
 10
36196.91379704574
 20
-18661.80778992717
 10
36196.71610180574
 20
-18661.17015316716
 10
36196.71610180574
 20
-18660.77754712716
 10
36196.71610180574
 20
-18660.38494108717
 10
36196.91379704574
 20
-18659.74451988716
 10
36197.20894768574
 20
-18659.40203376716
 10
36197.45397840573
 20
-18659.20433852715
 10
36197.89670436573
 20
-18659.05676320715
 10
36198.23919048574
 20
-18659.05676320715
 10
36198.43688572574
 20
-18659.05676320715
 10
36198.77937184574
 20
-18659.15700304715
 10
36199.22209780573
 20
-18659.35191384716
 10
36199.46712852574
 20
-18659.59694456716
 10
36199.61470384573
 20
-18659.79463980716
 10
36199.76227916573
 20
-18660.43227656717
 10
36199.81239908573
 20
-18660.82488260716
 10
36199.76227916573
 20
-18661.21748864718
 10
36199.61470384573
 20
-18661.80778992717
 10
36199.46712852574
 20
-18662.00548516716
 10
36199.27221772574
 20
-18662.25051588716
 10
36199.07452248574
 20
-18662.34797128716
 10
36199.41979304573
 20
-18662.49554660716
 10
36199.85973456573
 20
-18662.79069724716
 10
36200.10476528574
 20
-18662.88815264717
 10
36200.20500512574
 20
-18662.88815264717
 10
36200.39991592574
 20
-18662.88815264717
 10
36200.25234060573
 20
-18663.23342320716
 97
        0
 75
     0
 76
     1
 98
        0
  0
HATCH
  5
2EF
330
1F
100
AcDbEntity
  8
Ech.1_5
  6
Continuous
 62
   158
420
    12131
440
 33554687
370
    20
390
5F
100
AcDbHatch
 10
0.0
 20
0.0
 30
0.0
210
0.0
220
0.0
230
1.0
  2
SOLID
 70
     1
 71
     0
 91
        1
 92
        3
 72
     0
 73
     1
 93
       32
 10
36201.97312452573
 20
-18662.54566652717
 10
36201.72809380574
 20
-18662.54566652717
 10
36201.33270332574
 20
-18662.44542668716
 10
36201.08767260573
 20
-18662.30063580716
 10
36200.89276180574
 20
-18662.10294056717
 10
36200.84264188574
 20
-18661.95536524717
 10
36200.74518648573
 20
-18661.85790984716
 10
36200.69506656574
 20
-18661.51263928717
 10
36200.69506656574
 20
-18659.10688312717
 10
36201.23524792574
 20
-18659.10688312717
 10
36201.23524792574
 20
-18661.12003324716
 10
36201.23524792574
 20
-18661.51263928717
 10
36201.28536784573
 20
-18661.71033452715
 10
36201.43294316572
 20
-18661.90524532715
 10
36201.62785396574
 20
-18662.05282064716
 10
36201.87288468573
 20
-18662.10294056717
 10
36201.97312452573
 20
-18662.10294056717
 10
36202.21815524573
 20
-18662.10294056717
 10
36202.46318596574
 20
-18662.00548516716
 10
36202.61076128573
 20
-18661.90524532715
 10
36202.70821668573
 20
-18661.75767000716
 10
36202.75833660574
 20
-18661.46530380717
 10
36202.75833660574
 20
-18659.10688312717
 10
36203.29851796573
 20
-18659.10688312717
 10
36203.29851796573
 20
-18661.26760856716
 10
36203.29851796573
 20
-18661.61287912716
 10
36203.20106256573
 20
-18661.95536524717
 10
36203.05348724574
 20
-18662.15306048715
 10
36202.95603184574
 20
-18662.25051588716
 10
36202.90591192573
 20
-18662.30063580716
 10
36202.66088120574
 20
-18662.39809120716
 10
36202.31561064573
 20
-18662.54566652717
 97
        0
 75
     0
 76
     1
 98
        0
  0
HATCH
  5
2F0
330
1F
100
AcDbEntity
  8
Ech.1_5
  6
Continuous
 62
   158
420
    12131
440
 33554687
370
    20
390
5F
100
AcDbHatch
 10
0.0
 20
0.0
 30
0.0
210
0.0
220
0.0
230
1.0
  2
SOLID
 70
     1
 71
     0
 91
        1
 92
        3
 72
     0
 73
     1
 93
       12
 10
36204.42900060573
 20
-18662.49554660716
 10
36204.42900060573
 20
-18659.10688312717
 10
36206.53960612573
 20
-18659.10688312717
 10
36206.44215072574
 20
-18659.54960908717
 10
36204.91906204574
 20
-18659.54960908717
 10
36204.91906204574
 20
-18660.53251640717
 10
36206.19712000573
 20
-18660.53251640717
 10
36206.19712000573
 20
-18660.92512244715
 10
36204.96918196573
 20
-18660.92512244715
 10
36204.96918196573
 20
-18662.00548516716
 10
36206.58972604573
 20
-18662.00548516716
 10
36206.58972604573
 20
-18662.49554660716
 97
        0
 75
     0
 76
     1
 98
        0
  0
HATCH
  5
2F1
330
1F
100
AcDbEntity
  8
Ech.1_5
  6
Continuous
 62
   136
420
    33651
440
 33554687
370
    20
390
5F
100
AcDbHatch
 10
0.0
 20
0.0
 30
0.0
210
0.0
220
0.0
230
1.0
  2
SOLID
 70
     1
 71
     0
 91
        1
 92
        3
 72
     0
 73
     1
 93
       15
 10
36188.17065544573
 20
-18637.34926896717
 10
36188.17065544573
 20
-18635.13842360717
 10
36189.59628872573
 20
-18635.13842360717
 10
36189.93877484574
 20
-18635.13842360717
 10
36190.47895620573
 20
-18635.28599892716
 10
36190.77410684574
 20
-18635.48369416715
 10
36190.87156224574
 20
-18635.63126948714
 10
36191.01913756573
 20
-18635.92363568717
 10
36191.01913756573
 20
-18636.17145084716
 10
36191.01913756573
 20
-18636.46381704717
 10
36190.87156224574
 20
-18636.75896768717
 10
36190.72398692573
 20
-18636.95666292716
 10
36190.47895620573
 20
-18637.15157372716
 10
36190.03623024574
 20
-18637.29914904715
 10
36189.79119952573
 20
-18637.34926896717
 97
        0
 75
     0
 76
     1
 98
        0
  0
HATCH
  5
2F2
330
1F
100
AcDbEntity
  8
Ech.1_5
  6
Continuous
 62
   136
420
    33651
440
 33554687
370
    20
390
5F
100
AcDbHatch
 10
0.0
 20
0.0
 30
0.0
210
0.0
220
0.0
230
1.0
  2
SOLID
 70
     1
 71
     0
 91
        1
 92
        3
 72
     0
 73
     1
 93
       16
 10
36188.17065544573
 20
-18633.37030420716
 10
36188.17065544573
 20
-18631.35715408716
 10
36189.25101816573
 20
-18631.35715408716
 10
36189.44871340573
 20
-18631.35715408716
 10
36189.84131944574
 20
-18631.50472940717
 10
36190.08635016573
 20
-18631.65230472716
 10
36190.18380556573
 20
-18631.79988004716
 10
36190.28404540573
 20
-18631.99479084716
 10
36190.33138088573
 20
-18632.19248608717
 10
36190.33138088573
 20
-18632.28994148716
 10
36190.28404540573
 20
-18632.53497220717
 10
36190.18380556573
 20
-18632.83012284716
 10
36190.08635016573
 20
-18633.02781808716
 10
36189.89143936573
 20
-18633.22272888716
 10
36189.44871340573
 20
-18633.32296872715
 10
36189.25101816573
 20
-18633.37030420716
 97
        0
 75
     0
 76
     1
 98
        0
  0
HATCH
  5
2F3
330
1F
100
AcDbEntity
  8
Ech.1_5
  6
Continuous
 62
   158
420
    12131
440
 33554687
370
    20
390
5F
100
AcDbHatch
 10
0.0
 20
0.0
 30
0.0
210
0.0
220
0.0
230
1.0
  2
SOLID
 70
     1
 71
     0
 91
        3
 92
        3
 72
     0
 73
     1
 93
       25
 10
36165.28255864573
 20
-18644.32429116716
 10
36168.23128060573
 20
-18643.09635312716
 10
36171.76751940574
 20
-18642.21090120717
 10
36174.76357684574
 20
-18641.76817524717
 10
36178.34715112574
 20
-18641.52314452716
 10
36182.52381112573
 20
-18641.57326444717
 10
36184.92956728573
 20
-18641.72083976716
 10
36184.92956728573
 20
-18626.05279588717
 10
36188.12331996573
 20
-18625.21746388716
 10
36190.52907612573
 20
-18623.84195052716
 10
36190.97180208574
 20
-18623.35188908716
 10
36191.06925748574
 20
-18623.20431376716
 10
36191.11937740573
 20
-18623.00661852715
 10
36191.01913756573
 20
-18622.81170772715
 10
36190.82422676573
 20
-18622.56667700716
 10
36190.13647008574
 20
-18622.22140644716
 10
36188.41568616574
 20
-18621.77868048716
 10
36186.49999144573
 20
-18621.58376968716
 10
36184.24181060573
 20
-18621.43619436715
 10
36180.06793504574
 20
-18621.43619436715
 10
36174.56588160573
 20
-18621.82880040717
 10
36168.91903728573
 20
-18622.85904320715
 10
36165.33032611712
 20
-18624.04089256492
 10
36164.49734656574
 20
-18624.48237172717
 10
36164.49734656574
 20
-18644.81435260717
 97
        0
 92
        3
 72
     0
 73
     1
 93
       53
 10
36181.54090380574
 20
-18639.21484376716
 10
36180.70557180574
 20
-18639.26496368716
 10
36179.67532900574
 20
-18639.16750828717
 10
36178.00466500573
 20
-18638.42963168716
 10
36176.82684688573
 20
-18637.15157372716
 10
36176.13909020573
 20
-18635.38345432714
 10
36176.08897028574
 20
-18634.35321152717
 10
36176.13909020573
 20
-18633.32296872715
 10
36176.82684688573
 20
-18631.55484932715
 10
36178.00466500573
 20
-18630.22667144716
 10
36179.67532900574
 20
-18629.49157928717
 10
36180.70557180574
 20
-18629.44145936715
 10
36181.54090380574
 20
-18629.49157928717
 10
36182.91641716573
 20
-18629.93152080716
 10
36183.35914312574
 20
-18630.32691128715
 10
36183.55405392573
 20
-18630.71951732717
 10
36183.55405392573
 20
-18631.11212336715
 10
36183.40647860573
 20
-18631.40727400716
 10
36183.21156780573
 20
-18631.65230472716
 10
36182.91641716573
 20
-18631.79988004716
 10
36182.71872192573
 20
-18631.79988004716
 10
36182.52381112573
 20
-18631.79988004716
 10
36182.13120508574
 20
-18631.69964020717
 10
36181.44344840573
 20
-18631.40727400716
 10
36180.70557180574
 20
-18631.35715408716
 10
36180.36308568573
 20
-18631.35715408716
 10
36179.82290432573
 20
-18631.50472940717
 10
36179.38017836574
 20
-18631.74976012715
 10
36178.98757232573
 20
-18632.04491076717
 10
36178.54484636574
 20
-18632.68254752717
 10
36178.20236024573
 20
-18633.76291024717
 10
36178.15224032573
 20
-18634.40333144716
 10
36178.20236024573
 20
-18634.99084828716
 10
36178.54484636574
 20
-18636.02387552716
 10
36178.98757232573
 20
-18636.66151228716
 10
36179.38017836574
 20
-18636.95666292716
 10
36179.82290432573
 20
-18637.20169364717
 10
36180.36308568573
 20
-18637.29914904715
 10
36180.70557180574
 20
-18637.34926896717
 10
36181.44344840573
 20
-18637.25181356716
 10
36182.17854056573
 20
-18636.95666292716
 10
36182.62126652573
 20
-18636.80908760717
 10
36182.81896176573
 20
-18636.75896768717
 10
36182.91641716573
 20
-18636.75896768717
 10
36183.11132796573
 20
-18636.80908760717
 10
36183.35914312574
 20
-18636.95666292716
 10
36183.55405392573
 20
-18637.25181356716
 10
36183.70162924573
 20
-18637.54696420715
 10
36183.70162924573
 20
-18637.69175508717
 10
36183.65150932573
 20
-18637.88945032716
 10
36183.50671844573
 20
-18638.28205636716
 10
36183.21156780573
 20
-18638.62732692715
 10
36182.76884184574
 20
-18638.82223772716
 97
        0
 92
        3
 72
     0
 73
     1
 93
       37
 10
36170.63703676574
 20
-18639.01993296717
 10
36170.29455064573
 20
-18639.16750828717
 10
36169.85182468573
 20
-18639.16750828717
 10
36169.50655412574
 20
-18639.01993296717
 10
36169.26152340573
 20
-18638.77211780717
 10
36169.06661260573
 20
-18638.37951176715
 10
36169.06661260573
 20
-18630.42436668716
 10
36169.21418792574
 20
-18630.07909612716
 10
36169.50655412574
 20
-18629.78672992717
 10
36169.90194460574
 20
-18629.58903468716
 10
36170.14697532574
 20
-18629.58903468716
 10
36173.53563880574
 20
-18629.58903468716
 10
36173.73054960574
 20
-18629.58903468716
 10
36174.07582016573
 20
-18629.73661000715
 10
36174.32085088574
 20
-18630.03176064716
 10
36174.41830628573
 20
-18630.32691128715
 10
36174.41830628573
 20
-18630.66939740715
 10
36174.32085088574
 20
-18631.01466796717
 10
36174.17327556573
 20
-18631.20957876716
 10
36174.02570024574
 20
-18631.30703416715
 10
36173.73054960574
 20
-18631.40727400716
 10
36173.53563880574
 20
-18631.45460948715
 10
36171.07976272573
 20
-18631.45460948715
 10
36171.07976272573
 20
-18633.37030420716
 10
36173.14303276573
 20
-18633.37030420716
 10
36173.38806348573
 20
-18633.42042412717
 10
36173.73054960574
 20
-18633.51787952716
 10
36173.97836476573
 20
-18633.81303016716
 10
36174.12315564574
 20
-18634.10818080715
 10
36174.12315564574
 20
-18634.45066692716
 10
36173.97836476573
 20
-18634.79593748716
 10
36173.73054960574
 20
-18635.04096820715
 10
36173.38806348573
 20
-18635.18854352715
 10
36173.14303276573
 20
-18635.23587900715
 10
36171.07976272573
 20
-18635.23587900715
 10
36171.07976272573
 20
-18638.37951176715
 10
36170.93218740574
 20
-18638.77211780717
 97
        0
 75
     0
 76
     1
 98
        0
  0
HATCH
  5
2F4
330
1F
100
AcDbEntity
  8
Ech.1_5
  6
Continuous
 62
   136
420
    33651
440
 33554687
370
    20
390
5F
100
AcDbHatch
 10
0.0
 20
0.0
 30
0.0
210
0.0
220
0.0
230
1.0
  2
SOLID
 70
     1
 71
     0
 91
        3
 92
        3
 72
     0
 73
     1
 93
       18
 10
36185.0164784345
 20
-18646.28732136716
 10
36188.07320004574
 20
-18646.28732136716
 10
36193.32743832574
 20
-18645.69980452716
 10
36197.60155372573
 20
-18644.47186648716
 10
36200.94009728574
 20
-18642.94877780716
 10
36203.39597336574
 20
-18641.27811380717
 10
36205.06663736573
 20
-18639.75502512718
 10
36206.34469532574
 20
-18638.23193644716
 10
36206.58972604573
 20
-18637.69175508717
 10
36206.58972604573
 20
-18617.45722960716
 10
36206.24445548574
 20
-18617.95007548716
 10
36203.88881924574
 20
-18620.01056108717
 10
36200.15488520573
 20
-18622.31886184716
 10
36196.76622172573
 20
-18623.84195052716
 10
36192.63968164573
 20
-18625.06988856715
 10
36187.72792948573
 20
-18625.90522056717
 10
36184.92956728573
 20
-18626.05279588717
 10
36184.92956728573
 20
-18646.28732136716
 97
        0
 92
        3
 72
     0
 73
     1
 93
       30
 10
36192.73992148573
 20
-18637.69175508717
 10
36192.44477084573
 20
-18638.18460096715
 10
36191.80434964574
 20
-18638.67466240715
 10
36190.67665144574
 20
-18639.06726844716
 10
36189.98889476573
 20
-18639.06726844716
 10
36187.23786804573
 20
-18639.06726844716
 10
36187.04295724574
 20
-18639.06726844716
 10
36186.64756676574
 20
-18638.91969312717
 10
36186.35520056573
 20
-18638.67466240715
 10
36186.20762524573
 20
-18638.33217628716
 10
36186.20762524573
 20
-18630.37424676716
 10
36186.30508064573
 20
-18630.07909612716
 10
36186.40253604573
 20
-18629.93152080716
 10
36186.64756676574
 20
-18629.73661000715
 10
36186.99283732573
 20
-18629.58903468716
 10
36189.79119952573
 20
-18629.58903468716
 10
36190.33138088573
 20
-18629.63915460716
 10
36191.21683280573
 20
-18629.93152080716
 10
36191.90458948574
 20
-18630.57194200717
 10
36192.29719552574
 20
-18631.40727400716
 10
36192.29719552574
 20
-18632.28994148716
 10
36192.14962020573
 20
-18632.88024276715
 10
36191.85446956573
 20
-18633.37030420716
 10
36191.36440812574
 20
-18633.76291024717
 10
36191.06925748574
 20
-18633.91048556717
 10
36191.51198344573
 20
-18634.01072540717
 10
36192.24707560573
 20
-18634.40333144716
 10
36192.78725696573
 20
-18634.99084828716
 10
36193.08240760573
 20
-18635.77884480717
 10
36193.08240760573
 20
-18636.85920752717
 97
        0
 92
        3
 72
     0
 73
     1
 93
       35
 10
36202.31561064573
 20
-18639.06726844716
 10
36202.07057992573
 20
-18638.87235764716
 10
36201.92300460573
 20
-18638.62732692715
 10
36201.87288468573
 20
-18638.47975160716
 10
36201.48027864573
 20
-18637.20169364717
 10
36197.74912904574
 20
-18637.20169364717
 10
36197.35652300573
 20
-18638.47975160716
 10
36197.30640308573
 20
-18638.62732692715
 10
36197.15882776573
 20
-18638.87235764716
 10
36196.91379704574
 20
-18639.06726844716
 10
36196.56852648573
 20
-18639.16750828717
 10
36196.17592044573
 20
-18639.16750828717
 10
36195.83343432573
 20
-18639.01993296717
 10
36195.58840360573
 20
-18638.77211780717
 10
36195.44082828573
 20
-18638.42963168716
 10
36195.39070836574
 20
-18638.23193644716
 10
36195.44082828573
 20
-18637.93957024717
 10
36195.48816376574
 20
-18637.79199492717
 10
36198.19185500573
 20
-18630.52182208715
 10
36198.28931040573
 20
-18630.32691128715
 10
36198.53434112573
 20
-18629.93152080716
 10
36198.92694716573
 20
-18629.58903468716
 10
36199.36967312574
 20
-18629.44145936715
 10
36199.85973456573
 20
-18629.44145936715
 10
36200.30246052574
 20
-18629.58903468716
 10
36200.69506656574
 20
-18629.88418532715
 10
36200.94009728574
 20
-18630.32691128715
 10
36201.04033712573
 20
-18630.52182208715
 10
36203.64100408573
 20
-18637.79199492717
 10
36203.74124392573
 20
-18638.08714556717
 10
36203.74124392573
 20
-18638.47975160716
 10
36203.59366860572
 20
-18638.82223772716
 10
36203.34863788573
 20
-18639.01993296717
 10
36203.00336732574
 20
-18639.16750828717
 10
36202.66088120574
 20
-18639.16750828717
 97
        0
 75
     0
 76
     1
 98
        0
  0
HATCH
  5
2F5
330
1F
100
AcDbEntity
  8
Ech.1_5
  6
Continuous
 62
   158
420
    12131
440
 33554687
370
    20
390
5F
100
AcDbHatch
 10
0.0
 20
0.0
 30
0.0
210
0.0
220
0.0
230
1.0
  2
SOLID
 70
     1
 71
     0
 91
        1
 92
        3
 72
     0
 73
     1
 93
        4
 10
36164.79249720574
 20
-18655.57064432716
 10
36164.79249720574
 20
-18652.18198084716
 10
36165.28255864573
 20
-18652.18198084716
 10
36165.28255864573
 20
-18655.57064432716
 97
        0
 75
     0
 76
     1
 98
        0
  0
HATCH
  5
2F6
330
1F
100
AcDbEntity
  8
Ech.1_5
  6
Continuous
 62
   136
420
    33651
440
 33554687
370
    20
390
5F
100
AcDbHatch
 10
0.0
 20
0.0
 30
0.0
210
0.0
220
0.0
230
1.0
  2
SOLID
 70
     1
 71
     0
 91
        1
 92
        3
 72
     0
 73
     1
 93
        3
 10
36198.33664588573
 20
-18635.38345432714
 10
36199.61470384573
 20
-18631.50472940717
 10
36200.89276180574
 20
-18635.38345432714
 97
        0
 75
     0
 76
     1
 98
        0
  0
HATCH
  5
2F7
330
1F
100
AcDbEntity
  8
Ech.1_5
  6
Continuous
 62
   158
420
    12131
440
 33554687
370
    20
390
5F
100
AcDbHatch
 10
0.0
 20
0.0
 30
0.0
210
0.0
220
0.0
230
1.0
  2
SOLID
 70
     1
 71
     0
 91
        1
 92
        3
 72
     0
 73
     1
 93
       18
 10
36166.51049668573
 20
-18655.57064432716
 10
36166.51049668573
 20
-18652.18198084716
 10
36167.10079796573
 20
-18652.18198084716
 10
36168.18116068574
 20
-18654.00022016716
 10
36168.52643124573
 20
-18654.58773700716
 10
36168.62388664573
 20
-18654.78543224715
 10
36168.57376672573
 20
-18654.34270628716
 10
36168.57376672573
 20
-18653.89998032716
 10
36168.52643124573
 20
-18652.18198084716
 10
36169.01649268574
 20
-18652.18198084716
 10
36169.01649268574
 20
-18655.57064432716
 10
36168.52643124573
 20
-18655.57064432716
 10
36167.44606852574
 20
-18653.75240500716
 10
36167.19825336573
 20
-18653.40991888716
 10
36166.95322264574
 20
-18652.86973752717
 10
36166.95322264574
 20
-18653.16488816716
 10
36167.00334256573
 20
-18653.80252492716
 10
36167.00334256573
 20
-18655.57064432716
 97
        0
 75
     0
 76
     1
 98
        0
  0
HATCH
  5
2F8
330
1F
100
AcDbEntity
  8
Ech.1_5
  6
Continuous
 62
   158
420
    12131
440
 33554687
370
    20
390
5F
100
AcDbHatch
 10
0.0
 20
0.0
 30
0.0
210
0.0
220
0.0
230
1.0
  2
SOLID
 70
     1
 71
     0
 91
        1
 92
        3
 72
     0
 73
     1
 93
       62
 10
36171.12988264574
 20
-18655.62076424716
 10
36170.83473200574
 20
-18655.62076424716
 10
36170.19431080573
 20
-18655.47318892717
 10
36169.90194460574
 20
-18655.32561360716
 10
36170.09685540573
 20
-18654.88288764717
 10
36170.39200604573
 20
-18655.03046296716
 10
36170.93218740574
 20
-18655.17803828716
 10
36171.17721812574
 20
-18655.17803828716
 10
36171.37491336573
 20
-18655.17803828716
 10
36171.61994408573
 20
-18655.12791836716
 10
36171.71739948573
 20
-18655.08058288715
 10
36171.86497480574
 20
-18654.93300756715
 10
36171.96243020573
 20
-18654.83276772715
 10
36171.96243020573
 20
-18654.73531232716
 10
36171.96243020573
 20
-18654.54040152716
 10
36171.91509472573
 20
-18654.39282620716
 10
36171.76751940574
 20
-18654.24525088717
 10
36171.47236876574
 20
-18654.14501104716
 10
36171.32479344573
 20
-18654.09767556717
 10
36170.83473200574
 20
-18653.95010024717
 10
36170.68715668573
 20
-18653.89998032716
 10
36170.34188612574
 20
-18653.75240500716
 10
36170.14697532574
 20
-18653.50737428717
 10
36170.04673548574
 20
-18653.26234356716
 10
36170.04673548574
 20
-18653.06464832717
 10
36170.04673548574
 20
-18652.96719292716
 10
36170.09685540573
 20
-18652.77228212716
 10
36170.19431080573
 20
-18652.57458688717
 10
36170.29455064573
 20
-18652.42701156718
 10
36170.53958136574
 20
-18652.27943624717
 10
36170.98230732573
 20
-18652.08452544717
 10
36171.27467352574
 20
-18652.08452544717
 10
36171.61994408573
 20
-18652.08452544717
 10
36172.21024536573
 20
-18652.27943624717
 10
36172.45527608573
 20
-18652.42701156718
 10
36172.21024536573
 20
-18652.81961760716
 10
36172.01255012573
 20
-18652.67204228717
 10
36171.52248868573
 20
-18652.52446696716
 10
36171.27467352574
 20
-18652.52446696716
 10
36171.12988264574
 20
-18652.52446696716
 10
36170.88206748573
 20
-18652.57458688717
 10
36170.73449216573
 20
-18652.67204228717
 10
36170.68715668573
 20
-18652.77228212716
 10
36170.63703676574
 20
-18652.86973752717
 10
36170.58691684573
 20
-18652.96719292716
 10
36170.58691684573
 20
-18653.06464832717
 10
36170.88206748573
 20
-18653.40991888716
 10
36171.17721812574
 20
-18653.50737428717
 10
36171.61994408573
 20
-18653.60482968715
 10
36171.81485488573
 20
-18653.65494960717
 10
36172.21024536573
 20
-18653.85264484715
 10
36172.30770076574
 20
-18653.95010024717
 10
36172.40515616574
 20
-18654.04755564715
 10
36172.55273148573
 20
-18654.39282620716
 10
36172.55273148573
 20
-18654.54040152716
 10
36172.55273148573
 20
-18654.68519240715
 10
36172.45527608573
 20
-18654.93300756715
 10
36172.35503624573
 20
-18655.17803828716
 10
36172.16012544573
 20
-18655.37294908716
 10
36172.01255012573
 20
-18655.42306900716
 10
36171.81485488573
 20
-18655.52052440716
 10
36171.37491336573
 20
-18655.62076424716
 97
        0
 75
     0
 76
     1
 98
        0
  0
HATCH
  5
2F9
330
1F
100
AcDbEntity
  8
Ech.1_5
  6
Continuous
 62
   158
420
    12131
440
 33554687
370
    20
390
5F
100
AcDbHatch
 10
0.0
 20
0.0
 30
0.0
210
0.0
220
0.0
230
1.0
  2
SOLID
 70
     1
 71
     0
 91
        1
 92
        3
 72
     0
 73
     1
 93
        8
 10
36174.12315564574
 20
-18655.57064432716
 10
36174.12315564574
 20
-18652.62470680716
 10
36173.14303276573
 20
-18652.62470680716
 10
36173.14303276573
 20
-18652.18198084716
 10
36175.69636424573
 20
-18652.18198084716
 10
36175.64624432573
 20
-18652.62470680716
 10
36174.61600152573
 20
-18652.62470680716
 10
36174.61600152573
 20
-18655.57064432716
 97
        0
 75
     0
 76
     1
 98
        0
  0
DIMENSION
  5
2FB
102
{ACAD_REACTORS
330
2FC
102
}
330
1F
100
AcDbEntity
  8
Ech.1_5
  6
Continuous
 62
   190
370
    15
390
5F
100
AcDbDimension
280
     0
  2
*D70
 10
36879.3058497202
 20
-18087.94077969976
 30
0.0
 11
36856.83468725304
 21
-18147.92194878632
 31
0.0
 70
   160
  1
1/3 *
 71
     5
 42
162.0000064012711
 73
     0
 74
     0
 75
     0
 53
90.0
  3
ISO-25
100
AcDbAlignedDimension
 13
36881.22493109528
 23
-18249.94078610103
 33
0.0
 14
36878.53037107691
 24
-18087.94077969976
 34
0.0
 50
-90.0
100
AcDbRotatedDimension
1001
ACAD
1000
DSTYLE
1002
{
1070
   178
1070
   190
1070
   271
1070
     0
1070
   147
1040
0.0
1070
   140
1040
25.0
1070
   340
1005
2FA
1070
   144
1040
1.0
1070
    42
1040
0.0
1070
    44
1040
5.0
1070
    41
1040
5.0
1070
   342
1005
18F
1070
   175
1070
     1
1070
   279
1070
     2
1002
}
  0
DIMENSION
  5
30A
102
{ACAD_REACTORS
330
30B
102
}
330
1F
100
AcDbEntity
  8
Ech.1_5
  6
Continuous
 62
   190
370
    15
390
5F
100
AcDbDimension
280
     0
  2
*D71
 10
36879.3058497202
 20
-17887.94075900636
 30
0.0
 11
36856.83468725304
 21
-17966.92193523898
 31
0.0
 70
   160
  1
2/3 *
 71
     5
 42
200.0000206934055
 73
     0
 74
     0
 75
     0
 53
90.0
  3
ISO-25
100
AcDbAlignedDimension
 13
36878.53037107691
 23
-18087.94077969976
 33
0.0
 14
36855.09522653562
 24
-17887.94075900636
 34
0.0
 50
-90.0
100
AcDbRotatedDimension
1001
ACAD
1000
DSTYLE
1002
{
1070
   178
1070
   190
1070
   271
1070
     0
1070
   147
1040
0.0
1070
   140
1040
25.0
1070
   340
1005
2FA
1070
   144
1040
1.0
1070
    42
1040
0.0
1070
    44
1040
5.0
1070
    41
1040
5.0
1070
   342
1005
18F
1070
   175
1070
     1
1070
   279
1070
     2
1002
}
  0
MTEXT
  5
319
330
1F
100
AcDbEntity
  8
Ech.1_5
  6
Continuous
 62
     4
420
    65535
390
5F
100
AcDbMText
 10
36702.94609319802
 20
-18537.32532188261
 30
0.0
 40
12.5
 41
488.342884635189
 46
0.0
 71
     2
 72
     1
  1
{\fArial|b0|i0;\W1.000000;\H12.500000;\c16711848;Vue en coupe verticale}
  7
arial-
 73
     1
 44
1.07999975538982
  0
MTEXT
  5
31A
330
1F
100
AcDbEntity
  8
Ech.1_5
  6
Continuous
 62
     4
420
    65535
390
5F
100
AcDbMText
 10
37023.26620321887
 20
-18537.15814538992
 30
0.0
 40
12.5
 41
127.2973354065034
 46
0.0
 71
     2
 72
     1
  1
{\fArial|b0|i0;\W1.000000;\H12.500000;\c16711848;Ech 1/5 }
  7
arial-
 73
     1
 44
1.07999975538982
  0
MTEXT
  5
31B
330
1F
100
AcDbEntity
  8
Ech.1_5
  6
Continuous
 62
     4
420
    65535
390
5F
100
AcDbMText
 10
36374.44704188275
 20
-18536.88638908747
 30
0.0
 40
12.5
 41
143.6552179953578
 46
0.0
 71
     2
 72
     1
  1
{\fArial|b0|i0;\W1.000000;\H12.500000;\c16711848;ME10-22}
  7
arial-
 73
     1
 44
1.07999975538982
  0
MTEXT
  5
31D
330
1F
100
AcDbEntity
  8
Ech.1_5
  6
Continuous
 62
   200
420
 11010303
390
5F
100
AcDbMText
 10
36600.66487092212
 20
-18559.90550642431
 30
0.0
 40
8.75
 41
976.25
 46
0.0
 71
     2
 72
     1
  3
{\fArial|b0|i1;\W1.000000;\H8.750000;\c16711848; Il est rappelé à l'utilisateur qui consulte le site et utilise les informations qu'il contient, qu'il doit les utiliser sous sa seule responsabilité en vérifiant leur pertinence, leur cohérence et leur
  1
 non obsolescence.}
  7
arial-i
 73
     1
 44
1.07999975538982
  0
MTEXT
  5
31F
330
1F
100
AcDbEntity
  8
Ech.1_5
  6
Continuous
 62
   200
420
 11010303
390
5F
100
AcDbMText
 10
36600.66487092212
 20
-18446.24442608182
 30
0.0
 40
16.25
 41
968.75
 46
0.0
 71
     2
 72
     1
  1
{\fArial|b1|i0;\W1.000000;\H16.250000;\c16711848;MUR EXTERIEUR TYPE 10: Isolant en âme - voile travaillant intérieur sans film pare-vapeur}
  7
arial-b
 73
     1
 44
1.07999975538982
  0
MTEXT
  5
320
330
1F
100
AcDbEntity
  8
Ech.1_5
  6
Continuous
 62
     4
420
    65535
390
5F
100
AcDbMText
 10
36600.66487092212
 20
-18477.60138924006
 30
0.0
 40
16.25
 41
968.75
 46
0.0
 71
     2
 72
     1
  1
{\fArial|b0|i0;\W1.000000;\H16.250000;\c16711848;Liaison charpente industrielle}
  7
arial-
 73
     1
 44
1.07999975538982
  0
MTEXT
  5
321
330
1F
100
AcDbEntity
  8
Ech.1_5
  6
Continuous
 62
   200
420
 11010303
390
5F
100
AcDbMText
 10
36600.66487092212
 20
-18509.26138908747
 30
0.0
 40
16.25
 41
968.75
 46
0.0
 71
     2
 72
     1
  1
{\fArial|b0|i0;\W1.000000;\H16.250000;\c16711848;Détail débord de toiture type "queue de vache"}
  7
arial-
 73
     1
 44
1.07999975538982
  0
MTEXT
  5
322
330
1F
100
AcDbEntity
  8
Ech.1_5
  6
Continuous
 62
     4
420
    65535
390
5F
100
AcDbMText
 10
35859.42247181181
 20
-18102.32880967223
 30
0.0
 40
13.75
 41
100.2195228831115
 46
0.0
 71
     3
 72
     1
  1
{\fArial|b0|i0;\W1.000000;\H13.750000;\c16711848;Ventilation}
  7
arial-
 73
     1
 44
1.07999975538982
 90
        3
 63
     9
421
 13158600
 45
1.5
441
 33554687
  0
MTEXT
  5
323
330
1F
100
AcDbEntity
  8
Ech.1_5
  6
Continuous
 62
     4
420
    65535
390
5F
100
AcDbMText
 10
36244.44090810059
 20
-18350.96536476007
 30
0.0
 40
13.75
 41
184.57994786161
 46
0.0
 71
     3
 72
     1
  1
{\fArial|b0|i0;\W1.000000;\H13.750000;\c16711848;Bande de pare-pluie}
  7
arial-
 73
     1
 44
1.07999975538982
 90
        3
 63
     9
421
 13158600
 45
1.5
441
 33554687
  0
MTEXT
  5
324
330
1F
100
AcDbEntity
  8
Ech.1_5
  6
Continuous
 62
     4
420
    65535
390
5F
100
AcDbMText
 10
36748.84275935953
 20
-18274.81617682258
 30
0.0
 40
13.75
 41
111.8671684559959
 46
0.0
 71
     1
 72
     1
  1
{\fArial|b0|i0;\W1.000000;\H13.750000;\c16711848;Pare-vapeur}
  7
arial-
 73
     1
 44
1.07999975538982
 90
        3
 63
     9
421
 13158600
 45
1.5
441
 33554687
  0
MTEXT
  5
325
330
1F
100
AcDbEntity
  8
Ech.1_5
  6
Continuous
 62
     4
420
    65535
390
5F
100
AcDbMText
 10
36132.41603418734
 20
-18280.01555811712
 30
0.0
 40
13.75
 41
127.8179886075668
 46
0.0
 71
     1
 72
     1
  1
{\fArial|b0|i0;\W1.000000;\H13.750000;\c16711848;Habillage de sous-face}
  7
arial-
 73
     1
 44
1.07999975538982
 90
        3
 63
     9
421
 13158600
 45
1.5
441
 33554687
  0
MTEXT
  5
326
330
1F
100
AcDbEntity
  8
Ech.1_5
  6
Continuous
 62
     4
420
    65535
390
5F
100
AcDbMText
 10
36640.03991614835
 20
-18111.77548971079
 30
0.0
 40
13.75
 41
193.2511804089299
 46
0.0
 71
     1
 72
     1
  1
{\fArial|b0|i0;\W1.000000;\H13.750000;\c16711848;Lame d'air non ventilée}
  7
arial-
 73
     1
 44
1.07999975538982
 90
        3
 63
     9
421
 13158600
 45
1.5
441
 33554687
  0
MTEXT
  5
327
330
1F
100
AcDbEntity
  8
Ech.1_5
  6
Continuous
 62
     4
420
    65535
390
5F
100
AcDbMText
 10
36942.70291890774
 20
-18313.16730768332
 30
0.0
 40
13.75
 41
239.7624272542162
 46
0.0
 71
     3
 72
     1
  1
{\fArial|b0|i0;\W1.000000;\H13.750000;\c16711848;Ossature secondaire support de plafond}
  7
arial-
 73
     1
 44
1.07999975538982
 90
        3
 63
     9
421
 13158600
 45
1.5
441
 33554687
  0
MTEXT
  5
328
330
1F
100
AcDbEntity
  8
Ech.1_5
  6
Continuous
 62
     4
420
    65535
390
5F
100
AcDbMText
 10
36007.85692147541
 20
-17872.54004808945
 30
0.0
 40
13.75
 41
150.4574881154404
 46
0.0
 71
     3
 72
     1
  1
{\fArial|b0|i0;\W1.000000;\H13.750000;\c16711848;Ecran de sous-toiture HPV}
  7
arial-
 73
     1
 44
1.07999975538982
 90
        3
 63
     9
421
 13158600
 45
1.5
441
 33554687
  0
MTEXT
  5
329
330
1F
100
AcDbEntity
  8
Ech.1_5
  6
Continuous
 62
     4
420
    65535
390
5F
100
AcDbMText
 10
36206.2933756492
 20
-17752.82076167058
 30
0.0
 40
13.75
 41
184.5522132642509
 46
0.0
 71
     3
 72
     1
  1
{\fArial|b0|i0;\W1.000000;\H13.750000;\c16711848;Blocage de l'isolant en bas de pente}
  7
arial-
 73
     1
 44
1.07999975538982
 90
        3
 63
     9
421
 13158600
 45
1.5
441
 33554687
  0
MTEXT
  5
32A
330
1F
100
AcDbEntity
  8
Ech.1_5
  6
Continuous
 62
     4
420
    65535
390
5F
100
AcDbMText
 10
36942.70291890774
 20
-18372.01730823569
 30
0.0
 40
13.75
 41
192.0609192741103
 46
0.0
 71
     3
 72
     1
  1
{\fArial|b0|i0;\W1.000000;\H13.750000;\c16711848;Suspentes, fourrures et plaque de plâtre}
  7
arial-
 73
     1
 44
1.07999975538982
 90
        3
 63
     9
421
 13158600
 45
1.5
441
 33554687
  0
MTEXT
  5
32B
330
1F
100
AcDbEntity
  8
Ech.1_5
  6
Continuous
 62
     4
420
    65535
390
5F
100
AcDbMText
 10
36970.23597392919
 20
-17930.31333672284
 30
0.0
 40
11.25
 41
117.2829739572189
 46
0.0
 71
     2
 72
     1
  1
{\fArial|b1|i0;\W1.000000;\H11.250000;\c16711848;* en résistance thermique}
  7
arial-b
 73
     1
 44
1.07999975538982
 90
        3
 63
     9
421
 13158600
 45
1.5
441
 33554687
  0
MTEXT
  5
32C
330
1F
100
AcDbEntity
  8
Ech.1_5
  6
Continuous
 62
     4
420
    65535
390
5F
100
AcDbMText
 10
35814.42749219267
 20
-18572.00391468341
 30
0.0
 40
13.75
 41
247.6854307039612
 46
0.0
 71
     1
 72
     1
  1
{\fArial|b1|i0;\W1.000000;\H13.750000;\c16711848;COMPLEMENT LEGENDE}
  7
arial-b
 73
     1
 44
1.07999975538982
 90
        3
 63
     9
421
 13158600
 45
1.5
441
 33554687
  0
MTEXT
  5
32D
330
1F
100
AcDbEntity
  8
Ech.1_5
  6
Continuous
 62
     4
420
    65535
390
5F
100
AcDbMText
 10
35814.42749219267
 20
-18599.50391468341
 30
0.0
 40
13.75
 41
193.8487666624569
 46
0.0
 71
     1
 72
     1
  1
{\fArial|b0|i0;\W1.000000;\H13.750000;\c16711848;Bande adhésive}
  7
arial-
 73
     1
 44
1.07999975538982
 90
        3
 63
     9
421
 13158600
 45
1.5
441
 33554687
  0
TEXT
  5
32E
330
1F
100
AcDbEntity
  8
Ech.1_5
  6
Continuous
 62
   190
390
5F
100
AcDbText
 10
35831.91308036179
 20
-18488.50365234704
 30
0.0
 40
8.0
  1
Echelle en mm
  7
arial-
100
AcDbText
  0
TEXT
  5
32F
330
1F
100
AcDbEntity
  8
Ech.1_5
  6
Continuous
 62
   190
390
5F
100
AcDbText
 10
35817.93249561236
 20
-18516.71348787672
 30
0.0
 40
8.0
  1
0
  7
arial-
100
AcDbText
  0
TEXT
  5
330
330
1F
100
AcDbEntity
  8
Ech.1_5
  6
Continuous
 62
   190
390
5F
100
AcDbText
 10
35904.52955350508
 20
-18516.71348787672
 30
0.0
 40
8.0
  1
100
  7
arial-
100
AcDbText
  0
TEXT
  5
331
330
1F
100
AcDbEntity
  8
Ech.1_5
  6
Continuous
 62
   190
390
5F
100
AcDbText
 10
35865.7891219392
 20
-18516.71348787672
 30
0.0
 40
8.0
  1
50
  7
arial-
100
AcDbText
  0
TEXT
  5
332
330
1F
100
AcDbEntity
  8
Ech.1_5
  6
Continuous
 62
   190
390
5F
100
AcDbText
 10
36495.70835399997
 20
-18606.51385262925
 30
0.0
 40
12.0
  1
catalogue-bois-construction.fr
  7
arial-i
100
AcDbText
  0
TEXT
  5
333
330
1F
100
AcDbEntity
  8
Ech.1_5
  6
Continuous
 62
   190
390
5F
100
AcDbText
 10
36161.203745459
 20
-18549.59632391242
 30
0.0
 40
12.5
  1
30/01/2023
  7
arial-
100
AcDbText
  0
VIEWPORT
  5
217
330
211
100
AcDbEntity
 67
     1
  8
0
  6
Continuous
390
5F
100
AcDbViewport
 10
135.8
 20
98.8
 30
0.0
 40
287.3528000000001
 41
209.0608
 68
     1
 69
     1
 12
128.5
 22
97.5
 13
0.0
 23
0.0
 14
10.0
 24
10.0
 15
10.0
 25
10.0
 16
0.0
 26
0.0
 36
1.0
 17
0.0
 27
0.0
 37
0.0
 42
50.0
 43
0.0
 44
0.0
 45
222.18
 50
0.0
 51
0.0
 72
   100
 90
   557152
  1

281
     0
 71
     1
 74
     0
110
0.0
120
0.0
130
0.0
111
1.0
121
0.0
131
0.0
112
0.0
122
1.0
132
0.0
 79
     0
146
0.0
170
     0
 61
     5
348
2F
292
     1
282
     1
141
0.0
142
0.0
 63
   256
361
218
  0
VIEWPORT
  5
219
330
211
100
AcDbEntity
 67
     1
  8
0
  6
Continuous
 60
     1
390
5F
100
AcDbViewport
 10
135.8
 20
98.8
 30
0.0
 40
271.6
 41
197.6
 68
     2
 69
     2
 12
36415.6648709221
 22
-18178.54946115251
 13
0.0
 23
0.0
 14
10.0
 24
10.0
 15
10.0
 25
10.0
 16
0.0
 26
0.0
 36
1.0
 17
0.0
 27
0.0
 37
0.0
 42
50.0
 43
0.0
 44
0.0
 45
988.0
 50
0.0
 51
0.0
 72
   100
 90
   557152
  1

281
     0
 71
     1
 74
     0
110
0.0
120
0.0
130
0.0
111
1.0
121
0.0
131
0.0
112
0.0
122
1.0
132
0.0
 79
     0
146
0.0
170
     0
 61
     5
348
2F
292
     1
282
     1
141
0.0
142
0.0
 63
   256
  0
ENDSEC
  0
SECTION
  2
OBJECTS
  0
DICTIONARY
  5
C
330
0
100
AcDbDictionary
281
     1
  3
ACAD_DETAILVIEWSTYLE
350
33B
  3
ACAD_GROUP
350
D
  3
ACAD_IMAGE_VARS
350
60
  3
ACAD_LAYOUT
350
1A
  3
ACAD_MATERIAL
350
43
  3
ACAD_MLEADERSTYLE
350
5B
  3
ACAD_MLINESTYLE
350
17
  3
ACAD_PLOTSETTINGS
350
19
  3
ACAD_PLOTSTYLENAME
350
E
  3
ACAD_SCALELIST
350
47
  3
ACAD_SECTIONVIEWSTYLE
350
33C
  3
ACAD_TABLESTYLE
350
59
  3
ACAD_VISUALSTYLE
350
2A
  3
ACAD_WIPEOUT_VARS
350
61
  3
ACDB_RECOMPOSE_DATA
350
338
  3
AcDbVariableDictionary
350
334
  0
SUN
  5
5D
330
29
100
AcDbSun
 90
        1
290
     0
 63
     7
421
 16777215
 40
1.0
291
     1
 91
  2455826
 92
 54000000
292
     0
 70
     2
 71
   256
280
     1
  0
SUN
  5
218
330
217
100
AcDbSun
 90
        1
290
     0
 63
     7
421
 16777215
 40
1.0
291
     1
 91
  2455826
 92
 54000000
292
     0
 70
     2
 71
   256
280
     1
  0
DICTIONARY
  5
33B
102
{ACAD_REACTORS
330
C
102
}
330
C
100
AcDbDictionary
281
     1
  0
DICTIONARY
  5
D
102
{ACAD_REACTORS
330
C
102
}
330
C
100
AcDbDictionary
281
     1
  3
DIM610
350
2FC
  3
DIM611
350
30B
  0
RASTERVARIABLES
  5
60
102
{ACAD_REACTORS
330
C
102
}
330
C
100
AcDbRasterVariables
 90
        0
 70
     0
 71
     1
 72
     1
  0
DICTIONARY
  5
1A
102
{ACAD_REACTORS
330
C
102
}
330
C
100
AcDbDictionary
281
     1
  3
CompleteLayout
350
1E
  3
Model
350
22
  3
PrintFrame_381
350
212
  0
DICTIONARY
  5
43
102
{ACAD_REACTORS
330
C
102
}
330
C
100
AcDbDictionary
281
     1
  3
ByBlock
350
45
  3
ByLayer
350
44
  3
Global
350
46
  0
DICTIONARY
  5
5B
102
{ACAD_REACTORS
330
C
102
}
330
C
100
AcDbDictionary
281
     1
  3
Standard
350
5C
  0
DICTIONARY
  5
17
102
{ACAD_REACTORS
330
C
102
}
330
C
100
AcDbDictionary
281
     1
  3
Standard
350
18
  0
DICTIONARY
  5
19
102
{ACAD_REACTORS
330
C
102
}
330
C
100
AcDbDictionary
281
     1
  3
PlotSettings_
350
215
  0
ACDBDICTIONARYWDFLT
  5
E
102
{ACAD_REACTORS
330
C
102
}
330
C
100
AcDbDictionary
281
     1
  3
flat
350
5F
  3
Normal
350
F
  3
round
350
252
100
AcDbDictionaryWithDefault
340
F
  0
DICTIONARY
  5
47
102
{ACAD_REACTORS
330
C
102
}
330
C
100
AcDbDictionary
281
     1
  3
A0
350
48
  3
A1
350
49
  3
A2
350
4A
  3
A3
350
4B
  3
A4
350
4C
  3
A5
350
4D
  3
A6
350
4E
  3
A7
350
4F
  3
A8
350
50
  3
A9
350
51
  3
B0
350
52
  3
B1
350
53
  3
B2
350
54
  3
B3
350
55
  3
B4
350
56
  3
B5
350
57
  3
B6
350
58
  0
DICTIONARY
  5
33C
102
{ACAD_REACTORS
330
C
102
}
330
C
100
AcDbDictionary
281
     1
  0
DICTIONARY
  5
59
102
{ACAD_REACTORS
330
C
102
}
330
C
100
AcDbDictionary
281
     1
  3
Standard
350
5A
  0
DICTIONARY
  5
2A
102
{ACAD_REACTORS
330
C
102
}
330
C
100
AcDbDictionary
281
     1
  3
2dWireframe
350
2F
  3
Basic
350
32
  3
Brighten
350
36
  3
ColorChange
350
3A
  3
Conceptual
350
34
  3
Dim
350
35
  3
EdgeColorOff
350
3D
  3
Facepattern
350
39
  3
Flat
350
2B
  3
FlatWithEdges
350
2C
  3
Gouraud
350
2D
  3
GouraudWithEdges
350
2E
  3
Hidden
350
31
  3
JitterOff
350
3B
  3
Linepattern
350
38
  3
OverhangOff
350
3C
  3
Realistic
350
33
  3
Shaded
350
42
  3
Shaded with edges
350
41
  3
Shades of Gray
350
3E
  3
Sketchy
350
3F
  3
Thicken
350
37
  3
Wireframe
350
30
  3
X-Ray
350
40
  0
WIPEOUTVARIABLES
  5
61
102
{ACAD_REACTORS
330
C
102
}
330
C
100
AcDbWipeoutVariables
 70
     0
  0
XRECORD
  5
338
102
{ACAD_REACTORS
330
C
102
}
330
C
100
AcDbXrecord
280
     1
 90
        1
330
5A
  0
DICTIONARY
  5
334
102
{ACAD_REACTORS
330
C
102
}
330
C
100
AcDbDictionary
281
     1
  3
CANNOSCALE
350
335
  3
CENTEREXE
350
33E
  3
CENTERLTYPEFILE
350
33F
  3
CMLEADERSTYLE
350
33A
  3
CTABLESTYLE
350
339
  3
WIPEOUTFRAME
350
33D
  0
GROUP
  5
2FC
102
{ACAD_REACTORS
330
D
102
}
330
D
100
AcDbGroup
300

 70
     0
 71
     1
340
2FB
  0
GROUP
  5
30B
102
{ACAD_REACTORS
330
D
102
}
330
D
100
AcDbGroup
300

 70
     0
 71
     1
340
30A
  0
LAYOUT
  5
1E
102
{ACAD_REACTORS
330
1A
102
}
330
1A
100
AcDbPlotSettings
  1

  2
none_device
  4

  6

 40
0.0
 41
0.0
 42
0.0
 43
0.0
 44
0.0
 45
0.0
 46
0.0
 47
0.0
 48
0.0
 49
0.0
140
0.0
141
0.0
142
1.0
143
1.0
 70
   688
 72
     1
 73
     0
 74
     5
  7

 75
    16
 76
     0
 77
     2
 78
   300
147
1.0
148
0.0
149
0.0
100
AcDbLayout
  1
CompleteLayout
 70
     1
 71
     1
 10
0.0
 20
0.0
 11
420.0
 21
297.0
 12
0.0
 22
0.0
 32
0.0
 14
1.000000000000000E+20
 24
1.000000000000000E+20
 34
1.000000000000000E+20
 15
-1.000000000000000E+20
 25
-1.000000000000000E+20
 35
-1.000000000000000E+20
146
0.0
 13
0.0
 23
0.0
 33
0.0
 16
1.0
 26
0.0
 36
0.0
 17
0.0
 27
1.0
 37
0.0
 76
     0
330
1B
  0
LAYOUT
  5
22
102
{ACAD_REACTORS
330
1A
102
}
330
1A
100
AcDbPlotSettings
  1

  2
none_device
  4
Letter_(8.50_x_11.00_Inches)
  6

 40
6.35
 41
6.35
 42
6.35000508
 43
6.35000508
 44
215.9
 45
279.4
 46
0.0
 47
0.0
 48
0.0
 49
0.0
140
0.0
141
0.0
142
1.0
143
1.0
 70
  1712
 72
     1
 73
     0
 74
     0
  7

 75
     0
 76
     0
 77
     2
 78
   300
147
1.0
148
0.0
149
0.0
100
AcDbLayout
  1
Model
 70
     1
 71
     0
 10
0.0
 20
0.0
 11
420.0
 21
297.0
 12
0.0
 22
0.0
 32
0.0
 14
35738.1648709221
 24
-18671.04946115251
 34
0.0
 15
37438.39589865287
 25
-17533.08916506578
 35
2500.0
146
0.0
 13
0.0
 23
0.0
 33
0.0
 16
1.0
 26
0.0
 36
0.0
 17
0.0
 27
1.0
 37
0.0
 76
     0
330
1F
331
29
  0
LAYOUT
  5
212
102
{ACAD_REACTORS
330
1A
102
}
330
1A
100
AcDbPlotSettings
  1
PlotSettings_
  2
Custom Device
  4
Custom_297.000000x210.000000_6.200000_6.200000_12.700000_12.700000
  6

 40
12.7
 41
6.2
 42
12.7
 43
6.2
 44
297.0
 45
210.0
 46
0.0
 47
0.0000000000000142
 48
0.0
 49
0.0
140
271.6
141
197.6
142
1.0
143
1.0
 70
   756
 72
     1
 73
     0
 74
     4
  7

 75
     0
 76
     0
 77
     2
 78
   300
147
1.0
148
0.0
149
0.0
100
AcDbLayout
  1
PrintFrame_381
 70
     0
 71
     2
 10
-20.0
 20
-7.5
 11
277.0
 21
202.5
 12
0.0
 22
0.0
 32
0.0
 14
-7.876400000000018
 24
-5.730400000000003
 34
0.0
 15
279.4764
 25
203.3304
 35
0.0
146
0.0
 13
0.0
 23
0.0
 33
0.0
 16
1.0
 26
0.0
 36
0.0
 17
0.0
 27
1.0
 37
0.0
 76
     0
330
211
331
217
1001
PLOTTRANSPARENCY
1071
        1
1000
layout-user-created
1070
     1
1000
layout-line-weight-scale
1042
1.0
  0
MATERIAL
  5
45
102
{ACAD_REACTORS
330
43
102
}
330
43
100
AcDbMaterial
  1
ByBlock
 72
     1
 94
      127
  0
MATERIAL
  5
44
102
{ACAD_REACTORS
330
43
102
}
330
43
100
AcDbMaterial
  1
ByLayer
 72
     1
 94
      127
  0
MATERIAL
  5
46
102
{ACAD_REACTORS
330
43
102
}
330
43
100
AcDbMaterial
  1
Global
 72
     1
 94
      127
  0
MLEADERSTYLE
  5
5C
102
{ACAD_REACTORS
330
5B
102
}
330
5B
100
AcDbMLeaderStyle
179
     2
170
     2
171
     1
172
     0
 90
        2
 40
0.0
 41
0.0
173
     1
 91
-1056964608
340
14
 92
       -2
290
     1
 42
2.0
291
     1
 43
8.0
  3
Standard
341
0
 44
4.0
300

342
11
174
     1
178
     6
175
     1
176
     0
 93
-1056964608
 45
4.0
292
     0
297
     0
 46
4.0
343
0
 94
-1056964608
 47
1.0
 49
1.0
140
1.0
293
     1
141
0.0
294
     1
177
     0
142
1.0
295
     0
296
     0
143
3.75
271
     0
272
     9
273
     9
298
     0
  0
MLINESTYLE
  5
18
102
{ACAD_REACTORS
330
17
102
}
330
17
100
AcDbMlineStyle
  2
Standard
 70
     0
  3

 62
   256
 51
90.0
 52
90.0
 71
     2
 49
0.5
 62
   256
  6
BYLAYER
 49
-0.5
 62
   256
  6
BYLAYER
  0
PLOTSETTINGS
  5
215
102
{ACAD_REACTORS
330
19
102
}
330
19
100
AcDbPlotSettings
  1
PlotSettings_
  2
Custom Device
  4
Custom_297.000000x210.000000_6.200000_6.200000_12.700000_12.700000
  6

 40
12.7
 41
6.2
 42
12.7
 43
6.2
 44
297.0
 45
210.0
 46
0.0
 47
0.0000000000000142
 48
0.0
 49
0.0
140
271.6
141
197.6
142
1.0
143
1.0
 70
   756
 72
     1
 73
     0
 74
     4
  7

 75
     0
 76
     0
 77
     2
 78
   300
147
1.0
148
0.0
149
0.0
1001
PLOTTRANSPARENCY
1071
        1
1000
layout-user-created
1070
     1
1000
layout-line-weight-scale
1042
1.0
  0
ACDBPLACEHOLDER
  5
5F
102
{ACAD_REACTORS
330
E
102
}
330
E
  0
ACDBPLACEHOLDER
  5
F
102
{ACAD_REACTORS
330
E
102
}
330
E
  0
ACDBPLACEHOLDER
  5
252
102
{ACAD_REACTORS
330
E
102
}
330
E
  0
SCALE
  5
48
102
{ACAD_REACTORS
330
47
102
}
330
47
100
AcDbScale
 70
     0
300
1:1
140
1.0
141
1.0
290
     1
  0
SCALE
  5
49
102
{ACAD_REACTORS
330
47
102
}
330
47
100
AcDbScale
 70
     0
300
1:2
140
1.0
141
2.0
290
     0
  0
SCALE
  5
4A
102
{ACAD_REACTORS
330
47
102
}
330
47
100
AcDbScale
 70
     0
300
1:4
140
1.0
141
4.0
290
     0
  0
SCALE
  5
4B
102
{ACAD_REACTORS
330
47
102
}
330
47
100
AcDbScale
 70
     0
300
1:5
140
1.0
141
5.0
290
     0
  0
SCALE
  5
4C
102
{ACAD_REACTORS
330
47
102
}
330
47
100
AcDbScale
 70
     0
300
1:8
140
1.0
141
8.0
290
     0
  0
SCALE
  5
4D
102
{ACAD_REACTORS
330
47
102
}
330
47
100
AcDbScale
 70
     0
300
1:10
140
1.0
141
10.0
290
     0
  0
SCALE
  5
4E
102
{ACAD_REACTORS
330
47
102
}
330
47
100
AcDbScale
 70
     0
300
1:16
140
1.0
141
16.0
290
     0
  0
SCALE
  5
4F
102
{ACAD_REACTORS
330
47
102
}
330
47
100
AcDbScale
 70
     0
300
1:20
140
1.0
141
20.0
290
     0
  0
SCALE
  5
50
102
{ACAD_REACTORS
330
47
102
}
330
47
100
AcDbScale
 70
     0
300
1:30
140
1.0
141
30.0
290
     0
  0
SCALE
  5
51
102
{ACAD_REACTORS
330
47
102
}
330
47
100
AcDbScale
 70
     0
300
1:40
140
1.0
141
40.0
290
     0
  0
SCALE
  5
52
102
{ACAD_REACTORS
330
47
102
}
330
47
100
AcDbScale
 70
     0
300
1:50
140
1.0
141
50.0
290
     0
  0
SCALE
  5
53
102
{ACAD_REACTORS
330
47
102
}
330
47
100
AcDbScale
 70
     0
300
1:100
140
1.0
141
100.0
290
     0
  0
SCALE
  5
54
102
{ACAD_REACTORS
330
47
102
}
330
47
100
AcDbScale
 70
     0
300
2:1
140
2.0
141
1.0
290
     0
  0
SCALE
  5
55
102
{ACAD_REACTORS
330
47
102
}
330
47
100
AcDbScale
 70
     0
300
4:1
140
4.0
141
1.0
290
     0
  0
SCALE
  5
56
102
{ACAD_REACTORS
330
47
102
}
330
47
100
AcDbScale
 70
     0
300
8:1
140
8.0
141
1.0
290
     0
  0
SCALE
  5
57
102
{ACAD_REACTORS
330
47
102
}
330
47
100
AcDbScale
 70
     0
300
10:1
140
10.0
141
1.0
290
     0
  0
SCALE
  5
58
102
{ACAD_REACTORS
330
47
102
}
330
47
100
AcDbScale
 70
     0
300
100:1
140
100.0
141
1.0
290
     0
  0
TABLESTYLE
  5
5A
102
{ACAD_REACTORS
330
59
102
}
102
{ACAD_XDICTIONARY
360
336
102
}
330
59
100
AcDbTableStyle
  3
Standard
 70
     0
 71
     0
 40
0.06
 41
0.06
280
     0
281
     0
  7
Standard
140
4.5
170
     2
 62
     0
 63
   257
283
     0
 90
        4
 91
        0
  1

274
    -2
284
     1
 64
     0
275
    -2
285
     1
 65
     0
276
    -2
286
     1
 66
     0
277
    -2
287
     1
 67
     0
278
    -2
288
     1
 68
     0
279
    -2
289
     1
 69
     0
  7
Standard
140
6.0
170
     5
 62
     0
 63
   257
283
     0
 90
        4
 91
        0
  1

274
    -2
284
     1
 64
     0
275
    -2
285
     1
 65
     0
276
    -2
286
     1
 66
     0
277
    -2
287
     1
 67
     0
278
    -2
288
     1
 68
     0
279
    -2
289
     1
 69
     0
  7
Standard
140
4.5
170
     5
 62
     0
 63
   257
283
     0
 90
        4
 91
        0
  1

274
    -2
284
     1
 64
     0
275
    -2
285
     1
 65
     0
276
    -2
286
     1
 66
     0
277
    -2
287
     1
 67
     0
278
    -2
288
     1
 68
     0
279
    -2
289
     1
 69
     0
  0
VISUALSTYLE
  5
2F
102
{ACAD_REACTORS
330
2A
102
}
330
2A
100
AcDbVisualStyle
  2
2dWireframe
 70
     4
177
     3
291
     0
 70
    58
 90
        0
176
     1
 90
        2
176
     1
 90
        0
176
     1
 90
        0
176
     1
 40
0.6
176
     1
 40
30.0
176
     1
 62
     7
420
 16777215
176
     1
 90
        1
176
     1
 90
        4
176
     1
 62
     7
176
     1
 62
   257
176
     1
 90
        1
176
     1
 90
        1
176
     1
 40
1.0
176
     1
 90
        0
176
     1
 62
   257
176
     1
 40
1.0
176
     1
 90
        1
176
     1
 90
        6
176
     1
 90
        2
176
     1
 62
     7
176
     1
 90
        5
176
     1
 90
        0
176
     1
 90
        0
176
     1
290
     0
176
     1
 90
        1
176
     1
 40
0.0
176
     1
 90
        0
176
     1
290
     1
176
     1
290
     1
176
     1
290
     0
176
     1
290
     0
176
     1
290
     0
176
     1
290
     0
176
     1
290
     0
176
     1
290
     0
176
     1
290
     0
176
     1
 90
       50
176
     1
 40
0.0
176
     1
 40
1.0
176
     1
 90
        0
176
     1
 62
    18
420
        0
176
     1
 90
       50
176
     1
 90
        3
176
     1
 62
     5
420
      255
176
     1
290
     0
176
     1
 90
       50
176
     1
 90
       50
176
     1
 90
       50
176
     1
290
     0
176
     1
 90
       50
176
     1
 62
   256
176
     0
 40
1.0
176
     0
 90
        2
176
     1
  1
strokes_ogs.tif
176
     1
290
     0
176
     1
 40
1.0
176
     1
 40
1.0
176
     1
  0
VISUALSTYLE
  5
32
102
{ACAD_REACTORS
330
2A
102
}
330
2A
100
AcDbVisualStyle
  2
Basic
 70
     7
177
     3
291
     1
 70
    58
 90
        1
176
     1
 90
        0
176
     1
 90
        1
176
     1
 90
        0
176
     1
 40
0.6
176
     1
 40
30.0
176
     1
 62
     7
420
 16777215
176
     1
 90
        0
176
     1
 90
        4
176
     1
 62
     7
176
     1
 62
   257
176
     1
 90
        1
176
     1
 90
        1
176
     1
 40
1.0
176
     1
 90
        8
176
     1
 62
     7
176
     1
 40
1.0
176
     1
 90
        1
176
     1
 90
        6
176
     1
 90
        2
176
     1
 62
     7
176
     1
 90
        5
176
     1
 90
        0
176
     1
 90
        0
176
     1
290
     0
176
     1
 90
        1
176
     1
 40
0.0
176
     1
 90
        0
176
     1
290
     0
176
     1
290
     1
176
     1
290
     1
176
     1
290
     0
176
     1
290
     0
176
     1
290
     0
176
     1
290
     0
176
     1
290
     0
176
     1
290
     0
176
     1
 90
       50
176
     1
 40
0.0
176
     1
 40
1.0
176
     1
 90
        0
176
     1
 62
    18
420
        0
176
     1
 90
       50
176
     1
 90
        3
176
     1
 62
     5
420
      255
176
     1
290
     0
176
     1
 90
       50
176
     1
 90
       50
176
     1
 90
       50
176
     1
290
     0
176
     1
 90
       50
176
     1
 62
   256
176
     0
 40
1.0
176
     0
 90
        2
176
     1
  1
strokes_ogs.tif
176
     1
290
     0
176
     1
 40
1.0
176
     1
 40
1.0
176
     1
  0
VISUALSTYLE
  5
36
102
{ACAD_REACTORS
330
2A
102
}
330
2A
100
AcDbVisualStyle
  2
Brighten
 70
    12
177
     3
291
     1
 70
    58
 90
        2
176
     1
 90
        2
176
     1
 90
        0
176
     1
 90
        0
176
     1
 40
0.6
176
     1
 40
30.0
176
     1
 62
     7
420
 16777215
176
     1
 90
        1
176
     1
 90
        4
176
     1
 62
     7
176
     1
 62
   257
176
     1
 90
        1
176
     1
 90
        1
176
     1
 40
1.0
176
     1
 90
        8
176
     1
 62
     7
176
     1
 40
1.0
176
     1
 90
        1
176
     1
 90
        6
176
     1
 90
        2
176
     1
 62
     7
176
     1
 90
        5
176
     1
 90
        0
176
     1
 90
        0
176
     1
290
     0
176
     1
 90
        1
176
     1
 40
50.0
176
     1
 90
        0
176
     1
290
     0
176
     1
290
     1
176
     1
290
     1
176
     1
290
     0
176
     1
290
     0
176
     1
290
     0
176
     1
290
     0
176
     1
290
     0
176
     1
290
     0
176
     1
 90
       50
176
     1
 40
0.0
176
     1
 40
1.0
176
     1
 90
        0
176
     1
 62
    18
420
        0
176
     1
 90
       50
176
     1
 90
        3
176
     1
 62
     5
420
      255
176
     1
290
     0
176
     1
 90
       50
176
     1
 90
       50
176
     1
 90
       50
176
     1
290
     0
176
     1
 90
       50
176
     1
 62
   256
176
     0
 40
1.0
176
     0
 90
        2
176
     1
  1
strokes_ogs.tif
176
     1
290
     0
176
     1
 40
1.0
176
     1
 40
1.0
176
     1
  0
VISUALSTYLE
  5
3A
102
{ACAD_REACTORS
330
2A
102
}
330
2A
100
AcDbVisualStyle
  2
ColorChange
 70
    16
177
     3
291
     1
 70
    58
 90
        2
176
     1
 90
        2
176
     1
 90
        3
176
     1
 90
        0
176
     1
 40
0.6
176
     1
 40
30.0
176
     1
 62
     8
420
  8421504
176
     1
 90
        1
176
     1
 90
        4
176
     1
 62
     7
176
     1
 62
   257
176
     1
 90
        1
176
     1
 90
        1
176
     1
 40
1.0
176
     1
 90
        8
176
     1
 62
     8
420
  8421504
176
     1
 40
1.0
176
     1
 90
        1
176
     1
 90
        6
176
     1
 90
        2
176
     1
 62
     7
176
     1
 90
        5
176
     1
 90
        0
176
     1
 90
        0
176
     1
290
     0
176
     1
 90
        1
176
     1
 40
0.0
176
     1
 90
        0
176
     1
290
     0
176
     1
290
     1
176
     1
290
     1
176
     1
290
     0
176
     1
290
     0
176
     1
290
     0
176
     1
290
     0
176
     1
290
     0
176
     1
290
     0
176
     1
 90
       50
176
     1
 40
0.0
176
     1
 40
1.0
176
     1
 90
        0
176
     1
 62
    18
420
        0
176
     1
 90
       50
176
     1
 90
        3
176
     1
 62
     5
420
      255
176
     1
290
     0
176
     1
 90
       50
176
     1
 90
       50
176
     1
 90
       50
176
     1
290
     0
176
     1
 90
       50
176
     1
 62
   256
176
     0
 40
1.0
176
     0
 90
        2
176
     1
  1
strokes_ogs.tif
176
     1
290
     0
176
     1
 40
1.0
176
     1
 40
1.0
176
     1
  0
VISUALSTYLE
  5
34
102
{ACAD_REACTORS
330
2A
102
}
330
2A
100
AcDbVisualStyle
  2
Conceptual
 70
     9
177
     3
291
     0
 70
    58
 90
        3
176
     1
 90
        2
176
     1
 90
        0
176
     1
 90
        0
176
     1
 40
0.6
176
     1
 40
30.0
176
     1
 62
     7
420
 16777215
176
     1
 90
        2
176
     1
 90
        2
176
     1
 62
     7
176
     1
 62
   257
176
     1
 90
        1
176
     1
 90
        1
176
     1
 40
179.0
176
     1
 90
        8
176
     1
 62
     7
176
     1
 40
1.0
176
     1
 90
        1
176
     1
 90
        6
176
     1
 90
        2
176
     1
 62
     7
176
     1
 90
        3
176
     1
 90
        0
176
     1
 90
        0
176
     1
290
     0
176
     1
 90
        1
176
     1
 40
0.0
176
     1
 90
        0
176
     1
290
     0
176
     1
290
     1
176
     1
290
     1
176
     1
290
     0
176
     1
290
     0
176
     1
290
     0
176
     1
290
     0
176
     1
290
     0
176
     1
290
     0
176
     1
 90
       50
176
     1
 40
0.0
176
     1
 40
1.0
176
     1
 90
        0
176
     1
 62
    18
420
        0
176
     1
 90
       50
176
     1
 90
        3
176
     1
 62
     5
420
      255
176
     1
290
     0
176
     1
 90
       50
176
     1
 90
       50
176
     1
 90
       50
176
     1
290
     0
176
     1
 90
       50
176
     1
 62
   256
176
     0
 40
1.0
176
     0
 90
        2
176
     1
  1
strokes_ogs.tif
176
     1
290
     0
176
     1
 40
1.0
176
     1
 40
1.0
176
     1
  0
VISUALSTYLE
  5
35
102
{ACAD_REACTORS
330
2A
102
}
330
2A
100
AcDbVisualStyle
  2
Dim
 70
    11
177
     3
291
     1
 70
    58
 90
        2
176
     1
 90
        2
176
     1
 90
        0
176
     1
 90
        0
176
     1
 40
0.6
176
     1
 40
30.0
176
     1
 62
     7
420
 16777215
176
     1
 90
        1
176
     1
 90
        4
176
     1
 62
     7
176
     1
 62
   257
176
     1
 90
        1
176
     1
 90
        1
176
     1
 40
1.0
176
     1
 90
        8
176
     1
 62
     7
176
     1
 40
1.0
176
     1
 90
        1
176
     1
 90
        6
176
     1
 90
        2
176
     1
 62
     7
176
     1
 90
        5
176
     1
 90
        0
176
     1
 90
        0
176
     1
290
     0
176
     1
 90
        1
176
     1
 40
-50.0
176
     1
 90
        0
176
     1
290
     0
176
     1
290
     1
176
     1
290
     1
176
     1
290
     0
176
     1
290
     0
176
     1
290
     0
176
     1
290
     0
176
     1
290
     0
176
     1
290
     0
176
     1
 90
       50
176
     1
 40
0.0
176
     1
 40
1.0
176
     1
 90
        0
176
     1
 62
    18
420
        0
176
     1
 90
       50
176
     1
 90
        3
176
     1
 62
     5
420
      255
176
     1
290
     0
176
     1
 90
       50
176
     1
 90
       50
176
     1
 90
       50
176
     1
290
     0
176
     1
 90
       50
176
     1
 62
   256
176
     0
 40
1.0
176
     0
 90
        2
176
     1
  1
strokes_ogs.tif
176
     1
290
     0
176
     1
 40
1.0
176
     1
 40
1.0
176
     1
  0
VISUALSTYLE
  5
3D
102
{ACAD_REACTORS
330
2A
102
}
330
2A
100
AcDbVisualStyle
  2
EdgeColorOff
 70
    22
177
     3
291
     1
 70
    58
 90
        2
176
     0
 90
        2
176
     0
 90
        0
176
     0
 90
        0
176
     0
 40
0.6
176
     0
 40
30.0
176
     0
 62
     7
420
 16777215
176
     0
 90
        1
176
     0
 90
        4
176
     0
 62
     7
176
     0
 62
   257
176
     0
 90
        1
176
     0
 90
        1
176
     0
 40
1.0
176
     0
 90
        8
176
     2
 62
     7
176
     0
 40
1.0
176
     0
 90
        1
176
     0
 90
        6
176
     0
 90
        2
176
     0
 62
     7
176
     0
 90
        5
176
     0
 90
        0
176
     0
 90
        0
176
     0
290
     0
176
     0
 90
        1
176
     0
 40
0.0
176
     0
 90
        0
176
     0
290
     0
176
     0
290
     1
176
     0
290
     1
176
     0
290
     0
176
     0
290
     0
176
     0
290
     0
176
     0
290
     0
176
     0
290
     0
176
     0
290
     0
176
     0
 90
       50
176
     0
 40
0.0
176
     0
 40
1.0
176
     0
 90
        0
176
     0
 62
    18
420
        0
176
     0
 90
       50
176
     0
 90
        3
176
     0
 62
     5
420
      255
176
     0
290
     0
176
     0
 90
       50
176
     0
 90
       50
176
     0
 90
       50
176
     0
290
     0
176
     0
 90
       50
176
     0
 62
   256
176
     0
 40
1.0
176
     0
 90
        2
176
     0
  1
strokes_ogs.tif
176
     0
290
     0
176
     0
 40
1.0
176
     0
 40
1.0
176
     0
  0
VISUALSTYLE
  5
39
102
{ACAD_REACTORS
330
2A
102
}
330
2A
100
AcDbVisualStyle
  2
Facepattern
 70
    15
177
     3
291
     1
 70
    58
 90
        2
176
     1
 90
        2
176
     1
 90
        0
176
     1
 90
        0
176
     1
 40
0.6
176
     1
 40
30.0
176
     1
 62
     7
420
 16777215
176
     1
 90
        1
176
     1
 90
        4
176
     1
 62
     7
176
     1
 62
   257
176
     1
 90
        1
176
     1
 90
        1
176
     1
 40
1.0
176
     1
 90
        8
176
     1
 62
     7
176
     1
 40
1.0
176
     1
 90
        1
176
     1
 90
        6
176
     1
 90
        2
176
     1
 62
     7
176
     1
 90
        5
176
     1
 90
        0
176
     1
 90
        0
176
     1
290
     0
176
     1
 90
        1
176
     1
 40
0.0
176
     1
 90
        0
176
     1
290
     0
176
     1
290
     1
176
     1
290
     1
176
     1
290
     0
176
     1
290
     0
176
     1
290
     0
176
     1
290
     0
176
     1
290
     0
176
     1
290
     0
176
     1
 90
       50
176
     1
 40
0.0
176
     1
 40
1.0
176
     1
 90
        0
176
     1
 62
    18
420
        0
176
     1
 90
       50
176
     1
 90
        3
176
     1
 62
     5
420
      255
176
     1
290
     0
176
     1
 90
       50
176
     1
 90
       50
176
     1
 90
       50
176
     1
290
     0
176
     1
 90
       50
176
     1
 62
   256
176
     0
 40
1.0
176
     0
 90
        2
176
     1
  1
strokes_ogs.tif
176
     1
290
     0
176
     1
 40
1.0
176
     1
 40
1.0
176
     1
  0
VISUALSTYLE
  5
2B
102
{ACAD_REACTORS
330
2A
102
}
330
2A
100
AcDbVisualStyle
  2
Flat
 70
     0
177
     3
291
     1
 70
    58
 90
        2
176
     1
 90
        1
176
     1
 90
        1
176
     1
 90
        2
176
     1
 40
0.6
176
     1
 40
30.0
176
     1
 62
     7
420
 16777215
176
     1
 90
        0
176
     1
 90
        0
176
     1
 62
     7
176
     1
 62
   257
176
     1
 90
        1
176
     1
 90
        1
176
     1
 40
1.0
176
     1
 90
        8
176
     1
 62
     7
176
     1
 40
1.0
176
     1
 90
        1
176
     1
 90
        6
176
     1
 90
        2
176
     1
 62
     7
176
     1
 90
        5
176
     1
 90
        0
176
     1
 90
        0
176
     1
290
     0
176
     1
 90
       13
176
     1
 40
0.0
176
     1
 90
        0
176
     1
290
     0
176
     1
290
     1
176
     1
290
     1
176
     1
290
     0
176
     1
290
     0
176
     1
290
     0
176
     1
290
     0
176
     1
290
     0
176
     1
290
     0
176
     1
 90
       50
176
     1
 40
0.0
176
     1
 40
1.0
176
     1
 90
        0
176
     1
 62
    18
420
        0
176
     1
 90
       50
176
     1
 90
        3
176
     1
 62
     5
420
      255
176
     1
290
     0
176
     1
 90
       50
176
     1
 90
       50
176
     1
 90
       50
176
     1
290
     0
176
     1
 90
       50
176
     1
 62
   256
176
     0
 40
1.0
176
     0
 90
        2
176
     1
  1
strokes_ogs.tif
176
     1
290
     0
176
     1
 40
1.0
176
     1
 40
1.0
176
     1
  0
VISUALSTYLE
  5
2C
102
{ACAD_REACTORS
330
2A
102
}
330
2A
100
AcDbVisualStyle
  2
FlatWithEdges
 70
     1
177
     3
291
     1
 70
    58
 90
        2
176
     1
 90
        1
176
     1
 90
        1
176
     1
 90
        2
176
     1
 40
0.6
176
     1
 40
30.0
176
     1
 62
     7
420
 16777215
176
     1
 90
        1
176
     1
 90
        0
176
     1
 62
     7
176
     1
 62
   257
176
     1
 90
        1
176
     1
 90
        1
176
     1
 40
1.0
176
     1
 90
        0
176
     1
 62
   257
176
     1
 40
1.0
176
     1
 90
        1
176
     1
 90
        6
176
     1
 90
        2
176
     1
 62
     7
176
     1
 90
        5
176
     1
 90
        0
176
     1
 90
        0
176
     1
290
     0
176
     1
 90
       13
176
     1
 40
0.0
176
     1
 90
        0
176
     1
290
     0
176
     1
290
     1
176
     1
290
     1
176
     1
290
     0
176
     1
290
     0
176
     1
290
     0
176
     1
290
     0
176
     1
290
     0
176
     1
290
     0
176
     1
 90
       50
176
     1
 40
0.0
176
     1
 40
1.0
176
     1
 90
        0
176
     1
 62
    18
420
        0
176
     1
 90
       50
176
     1
 90
        3
176
     1
 62
     5
420
      255
176
     1
290
     0
176
     1
 90
       50
176
     1
 90
       50
176
     1
 90
       50
176
     1
290
     0
176
     1
 90
       50
176
     1
 62
   256
176
     0
 40
1.0
176
     0
 90
        2
176
     1
  1
strokes_ogs.tif
176
     1
290
     0
176
     1
 40
1.0
176
     1
 40
1.0
176
     1
  0
VISUALSTYLE
  5
2D
102
{ACAD_REACTORS
330
2A
102
}
330
2A
100
AcDbVisualStyle
  2
Gouraud
 70
     2
177
     3
291
     1
 70
    58
 90
        2
176
     1
 90
        2
176
     1
 90
        1
176
     1
 90
        2
176
     1
 40
0.6
176
     1
 40
30.0
176
     1
 62
     7
420
 16777215
176
     1
 90
        0
176
     1
 90
        0
176
     1
 62
     7
176
     1
 62
   257
176
     1
 90
        1
176
     1
 90
        1
176
     1
 40
1.0
176
     1
 90
        0
176
     1
 62
     7
176
     1
 40
1.0
176
     1
 90
        1
176
     1
 90
        6
176
     1
 90
        2
176
     1
 62
     7
176
     1
 90
        5
176
     1
 90
        0
176
     1
 90
        0
176
     1
290
     0
176
     1
 90
       13
176
     1
 40
0.0
176
     1
 90
        0
176
     1
290
     0
176
     1
290
     1
176
     1
290
     1
176
     1
290
     0
176
     1
290
     0
176
     1
290
     0
176
     1
290
     0
176
     1
290
     0
176
     1
290
     0
176
     1
 90
       50
176
     1
 40
0.0
176
     1
 40
1.0
176
     1
 90
        0
176
     1
 62
    18
420
        0
176
     1
 90
       50
176
     1
 90
        3
176
     1
 62
     5
420
      255
176
     1
290
     0
176
     1
 90
       50
176
     1
 90
       50
176
     1
 90
       50
176
     1
290
     0
176
     1
 90
       50
176
     1
 62
   256
176
     0
 40
1.0
176
     0
 90
        2
176
     1
  1
strokes_ogs.tif
176
     1
290
     0
176
     1
 40
1.0
176
     1
 40
1.0
176
     1
  0
VISUALSTYLE
  5
2E
102
{ACAD_REACTORS
330
2A
102
}
330
2A
100
AcDbVisualStyle
  2
GouraudWithEdges
 70
     3
177
     3
291
     1
 70
    58
 90
        2
176
     1
 90
        2
176
     1
 90
        1
176
     1
 90
        2
176
     1
 40
0.6
176
     1
 40
30.0
176
     1
 62
     7
420
 16777215
176
     1
 90
        1
176
     1
 90
        0
176
     1
 62
     7
176
     1
 62
   257
176
     1
 90
        1
176
     1
 90
        1
176
     1
 40
1.0
176
     1
 90
        0
176
     1
 62
   257
176
     1
 40
1.0
176
     1
 90
        1
176
     1
 90
        6
176
     1
 90
        2
176
     1
 62
     7
176
     1
 90
        5
176
     1
 90
        0
176
     1
 90
        0
176
     1
290
     0
176
     1
 90
       13
176
     1
 40
0.0
176
     1
 90
        0
176
     1
290
     0
176
     1
290
     1
176
     1
290
     1
176
     1
290
     0
176
     1
290
     0
176
     1
290
     0
176
     1
290
     0
176
     1
290
     0
176
     1
290
     0
176
     1
 90
       50
176
     1
 40
0.0
176
     1
 40
1.0
176
     1
 90
        0
176
     1
 62
    18
420
        0
176
     1
 90
       50
176
     1
 90
        3
176
     1
 62
     5
420
      255
176
     1
290
     0
176
     1
 90
       50
176
     1
 90
       50
176
     1
 90
       50
176
     1
290
     0
176
     1
 90
       50
176
     1
 62
   256
176
     0
 40
1.0
176
     0
 90
        2
176
     1
  1
strokes_ogs.tif
176
     1
290
     0
176
     1
 40
1.0
176
     1
 40
1.0
176
     1
  0
VISUALSTYLE
  5
31
102
{ACAD_REACTORS
330
2A
102
}
330
2A
100
AcDbVisualStyle
  2
Hidden
 70
     6
177
     3
291
     0
 70
    58
 90
        1
176
     1
 90
        2
176
     1
 90
        2
176
     1
 90
        0
176
     1
 40
0.6
176
     1
 40
30.0
176
     1
 62
     7
420
 16777215
176
     1
 90
        2
176
     1
 90
        2
176
     1
 62
     7
176
     1
 62
   257
176
     1
 90
        2
176
     1
 90
        1
176
     1
 40
40.0
176
     1
 90
        0
176
     1
 62
   257
176
     1
 40
1.0
176
     1
 90
        1
176
     1
 90
        6
176
     1
 90
        2
176
     1
 62
     7
176
     1
 90
        3
176
     1
 90
        0
176
     1
 90
        0
176
     1
290
     0
176
     1
 90
        1
176
     1
 40
0.0
176
     1
 90
        0
176
     1
290
     0
176
     1
290
     1
176
     1
290
     1
176
     1
290
     0
176
     1
290
     0
176
     1
290
     0
176
     1
290
     0
176
     1
290
     0
176
     1
290
     0
176
     1
 90
       50
176
     1
 40
0.0
176
     1
 40
1.0
176
     1
 90
        0
176
     1
 62
    18
420
        0
176
     1
 90
       50
176
     1
 90
        3
176
     1
 62
     5
420
      255
176
     1
290
     0
176
     1
 90
       50
176
     1
 90
       50
176
     1
 90
       50
176
     1
290
     0
176
     1
 90
       50
176
     1
 62
   256
176
     0
 40
1.0
176
     0
 90
        2
176
     1
  1
strokes_ogs.tif
176
     1
290
     0
176
     1
 40
1.0
176
     1
 40
1.0
176
     1
  0
VISUALSTYLE
  5
3B
102
{ACAD_REACTORS
330
2A
102
}
330
2A
100
AcDbVisualStyle
  2
JitterOff
 70
    20
177
     3
291
     1
 70
    58
 90
        2
176
     0
 90
        2
176
     0
 90
        0
176
     0
 90
        0
176
     0
 40
0.6
176
     0
 40
30.0
176
     0
 62
     7
420
 16777215
176
     0
 90
        1
176
     0
 90
        4
176
     0
 62
     7
176
     0
 62
   257
176
     0
 90
        1
176
     0
 90
        1
176
     0
 40
1.0
176
     0
 90
       10
176
     2
 62
     7
176
     0
 40
1.0
176
     0
 90
        1
176
     0
 90
        6
176
     0
 90
        2
176
     0
 62
     7
176
     0
 90
        5
176
     0
 90
        0
176
     0
 90
        0
176
     0
290
     0
176
     0
 90
        1
176
     0
 40
0.0
176
     0
 90
        0
176
     0
290
     0
176
     0
290
     1
176
     0
290
     1
176
     0
290
     0
176
     0
290
     0
176
     0
290
     0
176
     0
290
     0
176
     0
290
     0
176
     0
290
     0
176
     0
 90
       50
176
     0
 40
0.0
176
     0
 40
1.0
176
     0
 90
        0
176
     0
 62
    18
420
        0
176
     0
 90
       50
176
     0
 90
        3
176
     0
 62
     5
420
      255
176
     0
290
     0
176
     0
 90
       50
176
     0
 90
       50
176
     0
 90
       50
176
     0
290
     0
176
     0
 90
       50
176
     0
 62
   256
176
     0
 40
1.0
176
     0
 90
        2
176
     0
  1
strokes_ogs.tif
176
     0
290
     0
176
     0
 40
1.0
176
     0
 40
1.0
176
     0
  0
VISUALSTYLE
  5
38
102
{ACAD_REACTORS
330
2A
102
}
330
2A
100
AcDbVisualStyle
  2
Linepattern
 70
    14
177
     3
291
     1
 70
    58
 90
        2
176
     1
 90
        2
176
     1
 90
        0
176
     1
 90
        0
176
     1
 40
0.6
176
     1
 40
30.0
176
     1
 62
     7
420
 16777215
176
     1
 90
        1
176
     1
 90
        4
176
     1
 62
     7
176
     1
 62
   257
176
     1
 90
        7
176
     1
 90
        7
176
     1
 40
1.0
176
     1
 90
        8
176
     1
 62
     7
176
     1
 40
1.0
176
     1
 90
        1
176
     1
 90
        6
176
     1
 90
        2
176
     1
 62
     7
176
     1
 90
        5
176
     1
 90
        0
176
     1
 90
        0
176
     1
290
     0
176
     1
 90
        1
176
     1
 40
0.0
176
     1
 90
        0
176
     1
290
     0
176
     1
290
     1
176
     1
290
     1
176
     1
290
     0
176
     1
290
     0
176
     1
290
     0
176
     1
290
     0
176
     1
290
     0
176
     1
290
     0
176
     1
 90
       50
176
     1
 40
0.0
176
     1
 40
1.0
176
     1
 90
        0
176
     1
 62
    18
420
        0
176
     1
 90
       50
176
     1
 90
        3
176
     1
 62
     5
420
      255
176
     1
290
     0
176
     1
 90
       50
176
     1
 90
       50
176
     1
 90
       50
176
     1
290
     0
176
     1
 90
       50
176
     1
 62
   256
176
     0
 40
1.0
176
     0
 90
        2
176
     1
  1
strokes_ogs.tif
176
     1
290
     0
176
     1
 40
1.0
176
     1
 40
1.0
176
     1
  0
VISUALSTYLE
  5
3C
102
{ACAD_REACTORS
330
2A
102
}
330
2A
100
AcDbVisualStyle
  2
OverhangOff
 70
    21
177
     3
291
     1
 70
    58
 90
        2
176
     0
 90
        2
176
     0
 90
        0
176
     0
 90
        0
176
     0
 40
0.6
176
     0
 40
30.0
176
     0
 62
     7
420
 16777215
176
     0
 90
        1
176
     0
 90
        4
176
     0
 62
     7
176
     0
 62
   257
176
     0
 90
        1
176
     0
 90
        1
176
     0
 40
1.0
176
     0
 90
        9
176
     2
 62
     7
176
     0
 40
1.0
176
     0
 90
        1
176
     0
 90
        6
176
     0
 90
        2
176
     0
 62
     7
176
     0
 90
        5
176
     0
 90
        0
176
     0
 90
        0
176
     0
290
     0
176
     0
 90
        1
176
     0
 40
0.0
176
     0
 90
        0
176
     0
290
     0
176
     0
290
     1
176
     0
290
     1
176
     0
290
     0
176
     0
290
     0
176
     0
290
     0
176
     0
290
     0
176
     0
290
     0
176
     0
290
     0
176
     0
 90
       50
176
     0
 40
0.0
176
     0
 40
1.0
176
     0
 90
        0
176
     0
 62
    18
420
        0
176
     0
 90
       50
176
     0
 90
        3
176
     0
 62
     5
420
      255
176
     0
290
     0
176
     0
 90
       50
176
     0
 90
       50
176
     0
 90
       50
176
     0
290
     0
176
     0
 90
       50
176
     0
 62
   256
176
     0
 40
1.0
176
     0
 90
        2
176
     0
  1
strokes_ogs.tif
176
     0
290
     0
176
     0
 40
1.0
176
     0
 40
1.0
176
     0
  0
VISUALSTYLE
  5
33
102
{ACAD_REACTORS
330
2A
102
}
330
2A
100
AcDbVisualStyle
  2
Realistic
 70
     8
177
     3
291
     0
 70
    58
 90
        2
176
     1
 90
        3
176
     1
 90
        0
176
     1
 90
        2
176
     1
 40
0.6
176
     1
 40
30.0
176
     1
 62
     7
420
 16777215
176
     1
 90
        0
176
     1
 90
        0
176
     1
 62
     7
176
     1
 62
   257
176
     1
 90
        1
176
     1
 90
        1
176
     1
 40
1.0
176
     1
 90
        8
176
     1
 62
   257
176
     1
 40
1.0
176
     1
 90
        1
176
     1
 90
        6
176
     1
 90
        2
176
     1
 62
     7
176
     1
 90
        3
176
     1
 90
        0
176
     1
 90
        0
176
     1
290
     0
176
     1
 90
       13
176
     1
 40
0.0
176
     1
 90
        0
176
     1
290
     0
176
     1
290
     1
176
     1
290
     1
176
     1
290
     0
176
     1
290
     0
176
     1
290
     0
176
     1
290
     0
176
     1
290
     0
176
     1
290
     0
176
     1
 90
       50
176
     1
 40
0.0
176
     1
 40
1.0
176
     1
 90
        0
176
     1
 62
    18
420
        0
176
     1
 90
       50
176
     1
 90
        3
176
     1
 62
     5
420
      255
176
     1
290
     0
176
     1
 90
       50
176
     1
 90
       50
176
     1
 90
       50
176
     1
290
     0
176
     1
 90
       50
176
     1
 62
   256
176
     0
 40
1.0
176
     0
 90
        2
176
     1
  1
strokes_ogs.tif
176
     1
290
     0
176
     1
 40
1.0
176
     1
 40
1.0
176
     1
  0
VISUALSTYLE
  5
42
102
{ACAD_REACTORS
330
2A
102
}
330
2A
100
AcDbVisualStyle
  2
Shaded
 70
    27
177
     3
291
     0
 70
    58
 90
        2
176
     1
 90
        2
176
     1
 90
        1
176
     1
 90
        2
176
     1
 40
0.6
176
     1
 40
30.0
176
     1
 62
     7
420
 16777215
176
     1
 90
        0
176
     1
 90
        4
176
     1
 62
     7
176
     1
 62
   257
176
     1
 90
        1
176
     1
 90
        1
176
     1
 40
1.0
176
     1
 90
        8
176
     1
 62
   257
176
     1
 40
1.0
176
     1
 90
        1
176
     1
 90
        6
176
     1
 90
        2
176
     1
 62
     8
420
  7895160
176
     1
 90
        3
176
     1
 90
        0
176
     1
 90
        0
176
     1
290
     0
176
     1
 90
        5
176
     1
 40
0.0
176
     1
 90
        0
176
     1
290
     0
176
     1
290
     1
176
     1
290
     1
176
     1
290
     0
176
     1
290
     0
176
     1
290
     0
176
     1
290
     0
176
     1
290
     0
176
     1
290
     0
176
     1
 90
       50
176
     1
 40
0.0
176
     1
 40
1.0
176
     1
 90
        0
176
     1
 62
    18
420
        0
176
     1
 90
       50
176
     1
 90
        3
176
     1
 62
     5
420
      255
176
     1
290
     0
176
     1
 90
       50
176
     1
 90
       50
176
     1
 90
       50
176
     1
290
     0
176
     1
 90
       50
176
     1
 62
   256
176
     0
 40
1.0
176
     0
 90
        2
176
     1
  1
strokes_ogs.tif
176
     1
290
     0
176
     1
 40
1.0
176
     1
 40
1.0
176
     1
  0
VISUALSTYLE
  5
41
102
{ACAD_REACTORS
330
2A
102
}
330
2A
100
AcDbVisualStyle
  2
Shaded with edges
 70
    26
177
     3
291
     0
 70
    58
 90
        2
176
     1
 90
        2
176
     1
 90
        1
176
     1
 90
        2
176
     1
 40
0.6
176
     1
 40
30.0
176
     1
 62
     7
420
 16777215
176
     1
 90
        1
176
     1
 90
       10
176
     1
 62
     7
176
     1
 62
   257
176
     1
 90
        2
176
     1
 90
        1
176
     1
 40
1.0
176
     1
 90
        8
176
     1
 62
   257
176
     1
 40
1.0
176
     1
 90
        1
176
     1
 90
        6
176
     1
 90
        2
176
     1
 62
     7
176
     1
 90
        3
176
     1
 90
        0
176
     1
 90
        0
176
     1
290
     0
176
     1
 90
        5
176
     1
 40
0.0
176
     1
 90
        0
176
     1
290
     0
176
     1
290
     1
176
     1
290
     1
176
     1
290
     0
176
     1
290
     0
176
     1
290
     0
176
     1
290
     0
176
     1
290
     0
176
     1
290
     0
176
     1
 90
       50
176
     1
 40
0.0
176
     1
 40
1.0
176
     1
 90
        0
176
     1
 62
    18
420
        0
176
     1
 90
       50
176
     1
 90
        3
176
     1
 62
     5
420
      255
176
     1
290
     0
176
     1
 90
       50
176
     1
 90
       50
176
     1
 90
       50
176
     1
290
     0
176
     1
 90
       50
176
     1
 62
   256
176
     0
 40
1.0
176
     0
 90
        2
176
     1
  1
strokes_ogs.tif
176
     1
290
     0
176
     1
 40
1.0
176
     1
 40
1.0
176
     1
  0
VISUALSTYLE
  5
3E
102
{ACAD_REACTORS
330
2A
102
}
330
2A
100
AcDbVisualStyle
  2
Shades of Gray
 70
    23
177
     3
291
     0
 70
    58
 90
        2
176
     1
 90
        2
176
     1
 90
        3
176
     1
 90
        0
176
     1
 40
0.6
176
     1
 40
30.0
176
     1
 62
     7
420
 16777215
176
     1
 90
        2
176
     1
 90
        2
176
     1
 62
     7
176
     1
 62
     7
176
     1
 90
        1
176
     1
 90
        1
176
     1
 40
40.0
176
     1
 90
        8
176
     1
 62
     7
176
     1
 40
1.0
176
     1
 90
        1
176
     1
 90
        6
176
     1
 90
        2
176
     1
 62
     7
176
     1
 90
        3
176
     1
 90
        0
176
     1
 90
        0
176
     1
290
     0
176
     1
 90
        1
176
     1
 40
0.0
176
     1
 90
        0
176
     1
290
     0
176
     1
290
     1
176
     1
290
     1
176
     1
290
     0
176
     1
290
     0
176
     1
290
     0
176
     1
290
     0
176
     1
290
     0
176
     1
290
     0
176
     1
 90
       50
176
     1
 40
0.0
176
     1
 40
1.0
176
     1
 90
        0
176
     1
 62
    18
420
        0
176
     1
 90
       50
176
     1
 90
        3
176
     1
 62
     5
420
      255
176
     1
290
     0
176
     1
 90
       50
176
     1
 90
       50
176
     1
 90
       50
176
     1
290
     0
176
     1
 90
       50
176
     1
 62
   256
176
     0
 40
1.0
176
     0
 90
        2
176
     1
  1
strokes_ogs.tif
176
     1
290
     0
176
     1
 40
1.0
176
     1
 40
1.0
176
     1
  0
VISUALSTYLE
  5
3F
102
{ACAD_REACTORS
330
2A
102
}
330
2A
100
AcDbVisualStyle
  2
Sketchy
 70
    24
177
     3
291
     0
 70
    58
 90
        1
176
     1
 90
        2
176
     1
 90
        2
176
     1
 90
        0
176
     1
 40
0.6
176
     1
 40
30.0
176
     1
 62
     7
420
 16777215
176
     1
 90
        2
176
     1
 90
        2
176
     1
 62
     7
176
     1
 62
     7
176
     1
 90
        1
176
     1
 90
        1
176
     1
 40
40.0
176
     1
 90
       11
176
     1
 62
     7
176
     1
 40
1.0
176
     1
 90
        1
176
     1
 90
        6
176
     1
 90
        2
176
     1
 62
     7
176
     1
 90
        6
176
     1
 90
        0
176
     1
 90
        0
176
     1
290
     0
176
     1
 90
        1
176
     1
 40
0.0
176
     1
 90
        0
176
     1
290
     0
176
     1
290
     1
176
     1
290
     1
176
     1
290
     0
176
     1
290
     0
176
     1
290
     0
176
     1
290
     0
176
     1
290
     0
176
     1
290
     0
176
     1
 90
       50
176
     1
 40
0.0
176
     1
 40
1.0
176
     1
 90
        0
176
     1
 62
    18
420
        0
176
     1
 90
       50
176
     1
 90
        3
176
     1
 62
     5
420
      255
176
     1
290
     0
176
     1
 90
       50
176
     1
 90
       50
176
     1
 90
       50
176
     1
290
     0
176
     1
 90
       50
176
     1
 62
   256
176
     0
 40
1.0
176
     0
 90
        2
176
     1
  1
strokes_ogs.tif
176
     1
290
     0
176
     1
 40
1.0
176
     1
 40
1.0
176
     1
  0
VISUALSTYLE
  5
37
102
{ACAD_REACTORS
330
2A
102
}
330
2A
100
AcDbVisualStyle
  2
Thicken
 70
    13
177
     3
291
     1
 70
    58
 90
        2
176
     1
 90
        2
176
     1
 90
        0
176
     1
 90
        0
176
     1
 40
0.6
176
     1
 40
30.0
176
     1
 62
     7
420
 16777215
176
     1
 90
        1
176
     1
 90
        4
176
     1
 62
     7
176
     1
 62
   257
176
     1
 90
        1
176
     1
 90
        1
176
     1
 40
1.0
176
     1
 90
       12
176
     1
 62
     7
176
     1
 40
1.0
176
     1
 90
        1
176
     1
 90
        6
176
     1
 90
        2
176
     1
 62
     7
176
     1
 90
        5
176
     1
 90
        0
176
     1
 90
        0
176
     1
290
     0
176
     1
 90
        1
176
     1
 40
0.0
176
     1
 90
        0
176
     1
290
     0
176
     1
290
     1
176
     1
290
     1
176
     1
290
     0
176
     1
290
     0
176
     1
290
     0
176
     1
290
     0
176
     1
290
     0
176
     1
290
     0
176
     1
 90
       50
176
     1
 40
0.0
176
     1
 40
1.0
176
     1
 90
        0
176
     1
 62
    18
420
        0
176
     1
 90
       50
176
     1
 90
        3
176
     1
 62
     5
420
      255
176
     1
290
     0
176
     1
 90
       50
176
     1
 90
       50
176
     1
 90
       50
176
     1
290
     0
176
     1
 90
       50
176
     1
 62
   256
176
     0
 40
1.0
176
     0
 90
        2
176
     1
  1
strokes_ogs.tif
176
     1
290
     0
176
     1
 40
1.0
176
     1
 40
1.0
176
     1
  0
VISUALSTYLE
  5
30
102
{ACAD_REACTORS
330
2A
102
}
330
2A
100
AcDbVisualStyle
  2
Wireframe
 70
     5
177
     3
291
     0
 70
    58
 90
        0
176
     1
 90
        2
176
     1
 90
        0
176
     1
 90
        0
176
     1
 40
0.6
176
     1
 40
30.0
176
     1
 62
     7
420
 16777215
176
     1
 90
        1
176
     1
 90
        4
176
     1
 62
     7
176
     1
 62
   257
176
     1
 90
        1
176
     1
 90
        1
176
     1
 40
1.0
176
     1
 90
        0
176
     1
 62
   257
176
     1
 40
1.0
176
     1
 90
        1
176
     1
 90
        6
176
     1
 90
        2
176
     1
 62
     7
176
     1
 90
        3
176
     1
 90
        0
176
     1
 90
        0
176
     1
290
     0
176
     1
 90
        1
176
     1
 40
0.0
176
     1
 90
        0
176
     1
290
     0
176
     1
290
     1
176
     1
290
     1
176
     1
290
     0
176
     1
290
     0
176
     1
290
     0
176
     1
290
     0
176
     1
290
     0
176
     1
290
     0
176
     1
 90
       50
176
     1
 40
0.0
176
     1
 40
1.0
176
     1
 90
        0
176
     1
 62
    18
420
        0
176
     1
 90
       50
176
     1
 90
        3
176
     1
 62
     5
420
      255
176
     1
290
     0
176
     1
 90
       50
176
     1
 90
       50
176
     1
 90
       50
176
     1
290
     0
176
     1
 90
       50
176
     1
 62
   256
176
     0
 40
1.0
176
     0
 90
        2
176
     1
  1
strokes_ogs.tif
176
     1
290
     0
176
     1
 40
1.0
176
     1
 40
1.0
176
     1
  0
VISUALSTYLE
  5
40
102
{ACAD_REACTORS
330
2A
102
}
330
2A
100
AcDbVisualStyle
  2
X-Ray
 70
    25
177
     3
291
     0
 70
    58
 90
        2
176
     1
 90
        2
176
     1
 90
        1
176
     1
 90
        1
176
     1
 40
0.5
176
     1
 40
30.0
176
     1
 62
     7
420
 16777215
176
     1
 90
        1
176
     1
 90
        0
176
     1
 62
     7
176
     1
 62
   257
176
     1
 90
        1
176
     1
 90
        1
176
     1
 40
1.0
176
     1
 90
        8
176
     1
 62
     7
176
     1
 40
1.0
176
     1
 90
        1
176
     1
 90
        6
176
     1
 90
        2
176
     1
 62
     7
176
     1
 90
        3
176
     1
 90
        0
176
     1
 90
        0
176
     1
290
     0
176
     1
 90
       13
176
     1
 40
0.0
176
     1
 90
        0
176
     1
290
     0
176
     1
290
     1
176
     1
290
     1
176
     1
290
     0
176
     1
290
     0
176
     1
290
     0
176
     1
290
     0
176
     1
290
     0
176
     1
290
     0
176
     1
 90
       50
176
     1
 40
0.0
176
     1
 40
1.0
176
     1
 90
        0
176
     1
 62
    18
420
        0
176
     1
 90
       50
176
     1
 90
        3
176
     1
 62
     5
420
      255
176
     1
290
     0
176
     1
 90
       50
176
     1
 90
       50
176
     1
 90
       50
176
     1
290
     0
176
     1
 90
       50
176
     1
 62
   256
176
     0
 40
1.0
176
     0
 90
        2
176
     1
  1
strokes_ogs.tif
176
     1
290
     0
176
     1
 40
1.0
176
     1
 40
1.0
176
     1
  0
DICTIONARYVAR
  5
335
102
{ACAD_REACTORS
330
334
102
}
330
334
100
DictionaryVariables
280
     0
  1
1:1
  0
DICTIONARYVAR
  5
33E
102
{ACAD_REACTORS
330
334
102
}
330
334
100
DictionaryVariables
280
     0
  1
3.500000
  0
DICTIONARYVAR
  5
33F
102
{ACAD_REACTORS
330
334
102
}
330
334
100
DictionaryVariables
280
     0
  1
acadiso.lin
  0
DICTIONARYVAR
  5
33A
102
{ACAD_REACTORS
330
334
102
}
330
334
100
DictionaryVariables
280
     0
  1
Standard
  0
DICTIONARYVAR
  5
339
102
{ACAD_REACTORS
330
334
102
}
330
334
100
DictionaryVariables
280
     0
  1
Standard
  0
DICTIONARYVAR
  5
33D
102
{ACAD_REACTORS
330
334
102
}
330
334
100
DictionaryVariables
280
     0
  1
0
  0
DICTIONARY
  5
336
330
5A
100
AcDbDictionary
280
     1
281
     1
  3
ACAD_ROUNDTRIP_2008_TABLESTYLE_CELLSTYLEMAP
360
337
  0
CELLSTYLEMAP
  5
337
102
{ACAD_REACTORS
330
336
102
}
330
336
100
AcDbCellStyleMap
 90
        3
300
CELLSTYLE
  1
TABLEFORMAT_BEGIN
 90
        5
170
     1
 91
        0
 92
    32768
 62
   257
 93
        1
300
CONTENTFORMAT
  1
CONTENTFORMAT_BEGIN
 90
        0
 91
        0
 92
        4
 93
        0
300

 40
0.0
140
1.0
 94
        5
 62
     0
340
11
144
6.0
309
CONTENTFORMAT_END
171
     1
301
MARGIN
  1
CELLMARGIN_BEGIN
 40
1.5
 40
1.5
 40
1.5
 40
1.5
 40
1.5
 40
1.5
309
CELLMARGIN_END
 94
        6
 95
        1
302
GRIDFORMAT
  1
GRIDFORMAT_BEGIN
 90
        0
 91
        1
 62
     0
 92
       -2
340
14
 93
        0
 40
0.045
309
GRIDFORMAT_END
 95
        2
302
GRIDFORMAT
  1
GRIDFORMAT_BEGIN
 90
        0
 91
        1
 62
     0
 92
       -2
340
14
 93
        0
 40
0.045
309
GRIDFORMAT_END
 95
        4
302
GRIDFORMAT
  1
GRIDFORMAT_BEGIN
 90
        0
 91
        1
 62
     0
 92
       -2
340
14
 93
        0
 40
0.045
309
GRIDFORMAT_END
 95
        8
302
GRIDFORMAT
  1
GRIDFORMAT_BEGIN
 90
        0
 91
        1
 62
     0
 92
       -2
340
14
 93
        0
 40
0.045
309
GRIDFORMAT_END
 95
       16
302
GRIDFORMAT
  1
GRIDFORMAT_BEGIN
 90
        0
 91
        1
 62
     0
 92
       -2
340
14
 93
        0
 40
0.045
309
GRIDFORMAT_END
 95
       32
302
GRIDFORMAT
  1
GRIDFORMAT_BEGIN
 90
        0
 91
        1
 62
     0
 92
       -2
340
14
 93
        0
 40
0.045
309
GRIDFORMAT_END
309
TABLEFORMAT_END
  1
CELLSTYLE_BEGIN
 90
        1
 91
        1
300
_TITLE
309
CELLSTYLE_END
300
CELLSTYLE
  1
TABLEFORMAT_BEGIN
 90
        5
170
     1
 91
        0
 92
        0
 62
   257
 93
        1
300
CONTENTFORMAT
  1
CONTENTFORMAT_BEGIN
 90
        0
 91
        0
 92
        4
 93
        0
300

 40
0.0
140
1.0
 94
        5
 62
     0
340
11
144
4.5
309
CONTENTFORMAT_END
171
     1
301
MARGIN
  1
CELLMARGIN_BEGIN
 40
1.5
 40
1.5
 40
1.5
 40
1.5
 40
1.5
 40
1.5
309
CELLMARGIN_END
 94
        6
 95
        1
302
GRIDFORMAT
  1
GRIDFORMAT_BEGIN
 90
        0
 91
        1
 62
     0
 92
       -2
340
14
 93
        0
 40
0.045
309
GRIDFORMAT_END
 95
        2
302
GRIDFORMAT
  1
GRIDFORMAT_BEGIN
 90
        0
 91
        1
 62
     0
 92
       -2
340
14
 93
        0
 40
0.045
309
GRIDFORMAT_END
 95
        4
302
GRIDFORMAT
  1
GRIDFORMAT_BEGIN
 90
        0
 91
        1
 62
     0
 92
       -2
340
14
 93
        0
 40
0.045
309
GRIDFORMAT_END
 95
        8
302
GRIDFORMAT
  1
GRIDFORMAT_BEGIN
 90
        0
 91
        1
 62
     0
 92
       -2
340
14
 93
        0
 40
0.045
309
GRIDFORMAT_END
 95
       16
302
GRIDFORMAT
  1
GRIDFORMAT_BEGIN
 90
        0
 91
        1
 62
     0
 92
       -2
340
14
 93
        0
 40
0.045
309
GRIDFORMAT_END
 95
       32
302
GRIDFORMAT
  1
GRIDFORMAT_BEGIN
 90
        0
 91
        1
 62
     0
 92
       -2
340
14
 93
        0
 40
0.045
309
GRIDFORMAT_END
309
TABLEFORMAT_END
  1
CELLSTYLE_BEGIN
 90
        2
 91
        1
300
_HEADER
309
CELLSTYLE_END
300
CELLSTYLE
  1
TABLEFORMAT_BEGIN
 90
        5
170
     1
 91
        0
 92
        0
 62
   257
 93
        1
300
CONTENTFORMAT
  1
CONTENTFORMAT_BEGIN
 90
        0
 91
        0
 92
        4
 93
        0
300

 40
0.0
140
1.0
 94
        2
 62
     0
340
11
144
4.5
309
CONTENTFORMAT_END
171
     1
301
MARGIN
  1
CELLMARGIN_BEGIN
 40
1.5
 40
1.5
 40
1.5
 40
1.5
 40
1.5
 40
1.5
309
CELLMARGIN_END
 94
        6
 95
        1
302
GRIDFORMAT
  1
GRIDFORMAT_BEGIN
 90
        0
 91
        1
 62
     0
 92
       -2
340
14
 93
        0
 40
0.045
309
GRIDFORMAT_END
 95
        2
302
GRIDFORMAT
  1
GRIDFORMAT_BEGIN
 90
        0
 91
        1
 62
     0
 92
       -2
340
14
 93
        0
 40
0.045
309
GRIDFORMAT_END
 95
        4
302
GRIDFORMAT
  1
GRIDFORMAT_BEGIN
 90
        0
 91
        1
 62
     0
 92
       -2
340
14
 93
        0
 40
0.045
309
GRIDFORMAT_END
 95
        8
302
GRIDFORMAT
  1
GRIDFORMAT_BEGIN
 90
        0
 91
        1
 62
     0
 92
       -2
340
14
 93
        0
 40
0.045
309
GRIDFORMAT_END
 95
       16
302
GRIDFORMAT
  1
GRIDFORMAT_BEGIN
 90
        0
 91
        1
 62
     0
 92
       -2
340
14
 93
        0
 40
0.045
309
GRIDFORMAT_END
 95
       32
302
GRIDFORMAT
  1
GRIDFORMAT_BEGIN
 90
        0
 91
        1
 62
     0
 92
       -2
340
14
 93
        0
 40
0.045
309
GRIDFORMAT_END
309
TABLEFORMAT_END
  1
CELLSTYLE_BEGIN
 90
        3
 91
        2
300
_DATA
309
CELLSTYLE_END
  0
ENDSEC
  0
EOF
