  0
SECTION
  2
HEADER
  9
$ACADVER
  1
AC1027
  9
$ACADMAINTVER
 70
   105
  9
$DWGCODEPAGE
  3
ANSI_1252
  9
$LASTSAVEDBY
  1
mezergues
  9
$REQUIREDVERSIONS
160
                 0
  9
$INSBASE
 10
0.0
 20
0.0
 30
0.0
  9
$EXTMIN
 10
9116.32829549663
 20
-14457.30704422377
 30
0.0
  9
$EXTMAX
 10
31769.28913838763
 20
-12018.78313514858
 30
2500.0
  9
$LIMMIN
 10
0.0
 20
0.0
  9
$LIMMAX
 10
420.0
 20
297.0
  9
$ORTHOMODE
 70
     0
  9
$REGENMODE
 70
     1
  9
$FILLMODE
 70
     1
  9
$QTEXTMODE
 70
     0
  9
$MIRRTEXT
 70
     1
  9
$LTSCALE
 40
5.0
  9
$ATTMODE
 70
     1
  9
$TEXTSIZE
 40
2.5
  9
$TRACEWID
 40
1.0
  9
$TEXTSTYLE
  7
Standard
  9
$CLAYER
  8
0
  9
$CELTYPE
  6
Continuous
  9
$CECOLOR
 62
   256
  9
$CELTSCALE
 40
1.0
  9
$DISPSILH
 70
     0
  9
$DIMSCALE
 40
1.0
  9
$DIMASZ
 40
2.5
  9
$DIMEXO
 40
0.625
  9
$DIMDLI
 40
3.75
  9
$DIMRND
 40
0.0
  9
$DIMDLE
 40
0.0
  9
$DIMEXE
 40
1.25
  9
$DIMTP
 40
0.0
  9
$DIMTM
 40
0.0
  9
$DIMTXT
 40
2.5
  9
$DIMCEN
 40
2.5
  9
$DIMTSZ
 40
0.0
  9
$DIMTOL
 70
     0
  9
$DIMLIM
 70
     0
  9
$DIMTIH
 70
     0
  9
$DIMTOH
 70
     0
  9
$DIMSE1
 70
     0
  9
$DIMSE2
 70
     0
  9
$DIMTAD
 70
     1
  9
$DIMZIN
 70
     8
  9
$DIMBLK
  1

  9
$DIMASO
 70
     1
  9
$DIMSHO
 70
     1
  9
$DIMPOST
  1

  9
$DIMAPOST
  1

  9
$DIMALT
 70
     0
  9
$DIMALTD
 70
     3
  9
$DIMALTF
 40
0.03937007874016
  9
$DIMLFAC
 40
1.0
  9
$DIMTOFL
 70
     1
  9
$DIMTVP
 40
0.0
  9
$DIMTIX
 70
     0
  9
$DIMSOXD
 70
     1
  9
$DIMSAH
 70
     0
  9
$DIMBLK1
  1

  9
$DIMBLK2
  1

  9
$DIMSTYLE
  2
ISO-25
  9
$DIMCLRD
 70
     0
  9
$DIMCLRE
 70
     0
  9
$DIMCLRT
 70
     0
  9
$DIMTFAC
 40
1.0
  9
$DIMGAP
 40
0.625
  9
$DIMJUST
 70
     0
  9
$DIMSD1
 70
     0
  9
$DIMSD2
 70
     0
  9
$DIMTOLJ
 70
     0
  9
$DIMTZIN
 70
     8
  9
$DIMALTZ
 70
     0
  9
$DIMALTTZ
 70
     0
  9
$DIMUPT
 70
     0
  9
$DIMDEC
 70
     2
  9
$DIMTDEC
 70
     2
  9
$DIMALTU
 70
     2
  9
$DIMALTTD
 70
     3
  9
$DIMTXSTY
  7
Standard
  9
$DIMAUNIT
 70
     0
  9
$DIMADEC
 70
     0
  9
$DIMALTRND
 40
0.0
  9
$DIMAZIN
 70
     0
  9
$DIMDSEP
 70
    44
  9
$DIMATFIT
 70
     3
  9
$DIMFRAC
 70
     0
  9
$DIMLDRBLK
  1

  9
$DIMLUNIT
 70
     2
  9
$DIMLWD
 70
    -2
  9
$DIMLWE
 70
    -2
  9
$DIMTMOVE
 70
     2
  9
$DIMFXL
 40
1.0
  9
$DIMFXLON
 70
     0
  9
$DIMJOGANG
 40
0.7853981633974483
  9
$DIMTFILL
 70
     0
  9
$DIMTFILLCLR
 70
     0
  9
$DIMARCSYM
 70
     0
  9
$DIMLTYPE
  6

  9
$DIMLTEX1
  6

  9
$DIMLTEX2
  6

  9
$DIMTXTDIRECTION
 70
     0
  9
$LUNITS
 70
     2
  9
$LUPREC
 70
     4
  9
$SKETCHINC
 40
1.0
  9
$FILLETRAD
 40
0.0
  9
$AUNITS
 70
     0
  9
$AUPREC
 70
     0
  9
$MENU
  1
.
  9
$ELEVATION
 40
0.0
  9
$PELEVATION
 40
0.0
  9
$THICKNESS
 40
0.0
  9
$LIMCHECK
 70
     0
  9
$CHAMFERA
 40
0.0
  9
$CHAMFERB
 40
0.0
  9
$CHAMFERC
 40
0.0
  9
$CHAMFERD
 40
0.0
  9
$SKPOLY
 70
     0
  9
$TDCREATE
 40
2459978.67365603
  9
$TDUCREATE
 40
2459978.631989364
  9
$TDUPDATE
 40
2459978.673659005
  9
$TDUUPDATE
 40
2459978.631992338
  9
$TDINDWG
 40
0.0000000116
  9
$TDUSRTIMER
 40
0.0000000116
  9
$USRTIMER
 70
     1
  9
$ANGBASE
 50
0.0
  9
$ANGDIR
 70
     0
  9
$PDMODE
 70
     0
  9
$PDSIZE
 40
0.0
  9
$PLINEWID
 40
0.0
  9
$SPLFRAME
 70
     0
  9
$SPLINETYPE
 70
     6
  9
$SPLINESEGS
 70
     8
  9
$HANDSEED
  5
397
  9
$SURFTAB1
 70
     6
  9
$SURFTAB2
 70
     6
  9
$SURFTYPE
 70
     6
  9
$SURFU
 70
     6
  9
$SURFV
 70
     6
  9
$UCSBASE
  2

  9
$UCSNAME
  2

  9
$UCSORG
 10
0.0
 20
0.0
 30
0.0
  9
$UCSXDIR
 10
1.0
 20
0.0
 30
0.0
  9
$UCSYDIR
 10
0.0
 20
1.0
 30
0.0
  9
$UCSORTHOREF
  2

  9
$UCSORTHOVIEW
 70
     0
  9
$UCSORGTOP
 10
0.0
 20
0.0
 30
0.0
  9
$UCSORGBOTTOM
 10
0.0
 20
0.0
 30
0.0
  9
$UCSORGLEFT
 10
0.0
 20
0.0
 30
0.0
  9
$UCSORGRIGHT
 10
0.0
 20
0.0
 30
0.0
  9
$UCSORGFRONT
 10
0.0
 20
0.0
 30
0.0
  9
$UCSORGBACK
 10
0.0
 20
0.0
 30
0.0
  9
$PUCSBASE
  2

  9
$PUCSNAME
  2

  9
$PUCSORG
 10
0.0
 20
0.0
 30
0.0
  9
$PUCSXDIR
 10
1.0
 20
0.0
 30
0.0
  9
$PUCSYDIR
 10
0.0
 20
1.0
 30
0.0
  9
$PUCSORTHOREF
  2

  9
$PUCSORTHOVIEW
 70
     0
  9
$PUCSORGTOP
 10
0.0
 20
0.0
 30
0.0
  9
$PUCSORGBOTTOM
 10
0.0
 20
0.0
 30
0.0
  9
$PUCSORGLEFT
 10
0.0
 20
0.0
 30
0.0
  9
$PUCSORGRIGHT
 10
0.0
 20
0.0
 30
0.0
  9
$PUCSORGFRONT
 10
0.0
 20
0.0
 30
0.0
  9
$PUCSORGBACK
 10
0.0
 20
0.0
 30
0.0
  9
$USERI1
 70
     0
  9
$USERI2
 70
     0
  9
$USERI3
 70
     0
  9
$USERI4
 70
     0
  9
$USERI5
 70
     0
  9
$USERR1
 40
0.0
  9
$USERR2
 40
0.0
  9
$USERR3
 40
0.0
  9
$USERR4
 40
0.0
  9
$USERR5
 40
0.0
  9
$WORLDVIEW
 70
     1
  9
$SHADEDGE
 70
     3
  9
$SHADEDIF
 70
    70
  9
$TILEMODE
 70
     1
  9
$MAXACTVP
 70
    64
  9
$PINSBASE
 10
0.0
 20
0.0
 30
0.0
  9
$PLIMCHECK
 70
     0
  9
$PEXTMIN
 10
-5.730400000000003
 20
-7.876400000000018
 30
0.0
  9
$PEXTMAX
 10
203.3304
 20
279.4764
 30
0.0
  9
$PLIMMIN
 10
-20.0
 20
-7.5
  9
$PLIMMAX
 10
277.0
 20
202.5
  9
$UNITMODE
 70
     0
  9
$VISRETAIN
 70
     1
  9
$PLINEGEN
 70
     0
  9
$PSLTSCALE
 70
     0
  9
$TREEDEPTH
 70
  3020
  9
$CMLSTYLE
  2
Standard
  9
$CMLJUST
 70
     0
  9
$CMLSCALE
 40
20.0
  9
$PROXYGRAPHICS
 70
     1
  9
$MEASUREMENT
 70
     1
  9
$CELWEIGHT
370
    -1
  9
$ENDCAPS
280
     0
  9
$JOINSTYLE
280
     0
  9
$LWDISPLAY
290
     0
  9
$INSUNITS
 70
     4
  9
$HYPERLINKBASE
  1

  9
$STYLESHEET
  1

  9
$XEDIT
290
     1
  9
$CEPSNTYPE
380
     3
  9
$CEPSNID
390
5F
  9
$PSTYLEMODE
290
     0
  9
$FINGERPRINTGUID
  2
{d160253a-d780-43a1-9f61-98a7dcfea6d2}
  9
$VERSIONGUID
  2
{FAEB1C32-E019-11D5-929B-00C0DF256EC4}
  9
$EXTNAMES
290
     1
  9
$PSVPSCALE
 40
0.0
  9
$OLESTARTUP
290
     0
  9
$SORTENTS
280
   127
  9
$INDEXCTL
280
     0
  9
$HIDETEXT
280
     1
  9
$XCLIPFRAME
280
     2
  9
$HALOGAP
280
     0
  9
$OBSCOLOR
 70
   257
  9
$OBSLTYPE
280
     0
  9
$INTERSECTIONDISPLAY
280
     0
  9
$INTERSECTIONCOLOR
 70
   257
  9
$DIMASSOC
280
     2
  9
$PROJECTNAME
  1

  9
$CAMERADISPLAY
290
     0
  9
$LENSLENGTH
 40
50.0
  9
$CAMERAHEIGHT
 40
0.0
  9
$STEPSPERSEC
 40
2.0
  9
$STEPSIZE
 40
6.0
  9
$3DDWFPREC
 40
2.0
  9
$PSOLWIDTH
 40
5.0
  9
$PSOLHEIGHT
 40
80.0
  9
$LOFTANG1
 40
1.570796326794897
  9
$LOFTANG2
 40
1.570796326794897
  9
$LOFTMAG1
 40
0.0
  9
$LOFTMAG2
 40
0.0
  9
$LOFTPARAM
 70
     7
  9
$LOFTNORMALS
280
     1
  9
$LATITUDE
 40
37.795
  9
$LONGITUDE
 40
-122.394
  9
$NORTHDIRECTION
 40
0.0
  9
$TIMEZONE
 70
 -8000
  9
$LIGHTGLYPHDISPLAY
280
     1
  9
$TILEMODELIGHTSYNCH
280
     1
  9
$CMATERIAL
347
44
  9
$SOLIDHIST
280
     0
  9
$SHOWHIST
280
     1
  9
$DWFFRAME
280
     2
  9
$DGNFRAME
280
     2
  9
$REALWORLDSCALE
290
     1
  9
$INTERFERECOLOR
 62
   256
  9
$CSHADOW
280
     0
  9
$SHADOWPLANELOCATION
 40
0.0
  0
ENDSEC
  0
SECTION
  2
CLASSES
  0
CLASS
  1
ACDBDICTIONARYWDFLT
  2
AcDbDictionaryWithDefault
  3
ObjectDBX Classes
 90
        0
 91
        3
280
     0
281
     0
  0
CLASS
  1
VISUALSTYLE
  2
AcDbVisualStyle
  3
ObjectDBX Classes
 90
     4095
 91
        3
280
     0
281
     0
  0
CLASS
  1
MATERIAL
  2
AcDbMaterial
  3
ObjectDBX Classes
 90
     1153
 91
        3
280
     0
281
     0
  0
CLASS
  1
SCALE
  2
AcDbScale
  3
ObjectDBX Classes
 90
     1153
 91
        3
280
     0
281
     0
  0
CLASS
  1
TABLESTYLE
  2
AcDbTableStyle
  3
ObjectDBX Classes
 90
     4095
 91
        3
280
     0
281
     0
  0
CLASS
  1
MLEADERSTYLE
  2
AcDbMLeaderStyle
  3
ACDB_MLEADERSTYLE_CLASS
 90
     4095
 91
        3
280
     0
281
     0
  0
CLASS
  1
SUN
  2
AcDbSun
  3
SCENEOE
 90
     1153
 91
        3
280
     0
281
     0
  0
CLASS
  1
RASTERVARIABLES
  2
AcDbRasterVariables
  3
ISM
 90
        0
 91
        3
280
     0
281
     0
  0
CLASS
  1
WIPEOUTVARIABLES
  2
AcDbWipeoutVariables
  3
WipeOut|AutoCAD Express Tool|expresstools@autodesk.com
 90
        0
 91
        3
280
     0
281
     0
  0
CLASS
  1
PLOTSETTINGS
  2
AcDbPlotSettings
  3
ObjectDBX Classes
 90
        0
 91
        3
280
     0
281
     0
  0
CLASS
  1
DICTIONARYVAR
  2
AcDbDictionaryVar
  3
ObjectDBX Classes
 90
        0
 91
        3
280
     0
281
     0
  0
CLASS
  1
CELLSTYLEMAP
  2
AcDbCellStyleMap
  3
ObjectDBX Classes
 90
     1152
 91
        3
280
     0
281
     0
  0
ENDSEC
  0
SECTION
  2
TABLES
  0
TABLE
  2
VPORT
  5
8
330
0
100
AcDbSymbolTable
 70
     1
  0
VPORT
  5
29
330
8
100
AcDbSymbolTableRecord
100
AcDbViewportTableRecord
  2
*Active
 70
     0
 10
0.0
 20
0.0
 11
1.0
 21
1.0
 12
20442.80871694214
 22
-13238.04508968617
 13
0.0
 23
0.0
 14
10.0
 24
10.0
 15
10.0
 25
10.0
 16
0.0
 26
0.0
 36
1.0
 17
0.0
 27
0.0
 37
0.0
 40
2487.294387256689
 41
9.289620150364728
 42
50.0
 43
0.0
 44
0.0
 50
0.0
 51
0.0
 71
     0
 72
   100
 73
     1
 74
     3
 75
     0
 76
     0
 77
     0
 78
     0
281
     0
 65
     1
110
0.0
120
0.0
130
0.0
111
1.0
121
0.0
131
0.0
112
0.0
122
1.0
132
0.0
 79
     0
146
0.0
348
2F
 60
     3
 61
     5
292
     1
282
     1
141
0.0
142
0.0
 63
   250
361
5D
  0
ENDTAB
  0
TABLE
  2
LTYPE
  5
5
330
0
100
AcDbSymbolTable
 70
     4
  0
LTYPE
  5
14
330
5
100
AcDbSymbolTableRecord
100
AcDbLinetypeTableRecord
  2
ByBlock
 70
     0
  3

 72
    65
 73
     0
 40
0.0
  0
LTYPE
  5
15
330
5
100
AcDbSymbolTableRecord
100
AcDbLinetypeTableRecord
  2
ByLayer
 70
     0
  3

 72
    65
 73
     0
 40
0.0
  0
LTYPE
  5
16
330
5
100
AcDbSymbolTableRecord
100
AcDbLinetypeTableRecord
  2
Continuous
 70
     0
  3
Solid line
 72
    65
 73
     0
 40
0.0
  0
LTYPE
  5
166
330
5
100
AcDbSymbolTableRecord
100
AcDbLinetypeTableRecord
  2
CADWORK_3
 70
     0
  3

 72
    65
 73
     2
 40
4.0
 49
2.0
 74
     0
 49
-2.0
 74
     0
  0
LTYPE
  5
232
330
5
100
AcDbSymbolTableRecord
100
AcDbLinetypeTableRecord
  2
CADWORK_5
 70
     0
  3

 72
    65
 73
     4
 40
13.2
 49
10.0
 74
     0
 49
-1.5
 74
     0
 49
0.2
 74
     0
 49
-1.5
 74
     0
  0
LTYPE
  5
2C8
330
5
100
AcDbSymbolTableRecord
100
AcDbLinetypeTableRecord
  2
CADWORK_22
 70
     0
  3

 72
    65
 73
     0
 40
0.0
  0
ENDTAB
  0
TABLE
  2
LAYER
  5
2
330
0
100
AcDbSymbolTable
 70
     5
  0
LAYER
  5
10
330
2
100
AcDbSymbolTableRecord
100
AcDbLayerTableRecord
  2
0
 70
     0
 62
     7
  6
Continuous
370
    -3
390
F
347
46
348
0
  0
LAYER
  5
67
330
2
100
AcDbSymbolTableRecord
100
AcDbLayerTableRecord
  2
Ech.1_5
 70
     0
 62
     7
  6
Continuous
370
    -3
390
F
347
46
348
0
  0
LAYER
  5
68
330
2
100
AcDbSymbolTableRecord
100
AcDbLayerTableRecord
  2
ECH_1_5
 70
     0
 62
     7
  6
Continuous
370
    -3
390
F
347
46
348
0
  0
LAYER
  5
69
330
2
100
AcDbSymbolTableRecord
100
AcDbLayerTableRecord
  2
0_
 70
     0
 62
     7
  6
Continuous
370
    -3
390
F
347
46
348
0
  0
LAYER
  5
318
330
2
100
AcDbSymbolTableRecord
100
AcDbLayerTableRecord
  2
Defpoints
 70
     0
 62
     7
  6
Continuous
290
     0
370
    -3
390
F
347
46
348
0
  0
ENDTAB
  0
TABLE
  2
STYLE
  5
3
330
0
100
AcDbSymbolTable
 70
    10
  0
STYLE
  5
11
330
3
100
AcDbSymbolTableRecord
100
AcDbTextStyleTableRecord
  2
Standard
 70
     0
 40
0.0
 41
1.0
 50
0.0
 71
     0
 42
2.5
  3
txt
  4

  0
STYLE
  5
62
330
3
100
AcDbSymbolTableRecord
100
AcDbTextStyleTableRecord
  2
CwStyleShx
 70
     0
 40
1.0
 41
1.0
 50
0.0
 71
     0
 42
2.5
  3

  4

  0
STYLE
  5
63
330
3
100
AcDbSymbolTableRecord
100
AcDbTextStyleTableRecord
  2
CwStyleShx16
 70
     0
 40
1.0
 41
1.0
 50
0.0
 71
     0
 42
2.5
  3

  4

  0
STYLE
  5
64
330
3
100
AcDbSymbolTableRecord
100
AcDbTextStyleTableRecord
  2
MONOTXT
 70
     0
 40
0.0
 41
1.0
 50
0.0
 71
     0
 42
2.5
  3
MONOTXT
  4

  0
STYLE
  5
65
330
3
100
AcDbSymbolTableRecord
100
AcDbTextStyleTableRecord
  2
SYMAP
 70
     0
 40
1.0
 41
1.0
 50
0.0
 71
     0
 42
2.5
  3
SYMAP
  4

  0
STYLE
  5
66
330
3
100
AcDbSymbolTableRecord
100
AcDbTextStyleTableRecord
  2
CwStyleTtf
 70
     0
 40
1.0
 41
1.0
 50
0.0
 71
     0
 42
2.5
  3
arial.ttf
  4

  0
STYLE
  5
315
330
3
100
AcDbSymbolTableRecord
100
AcDbTextStyleTableRecord
  2
arial-z
 70
     0
 40
0.0
 41
1.0
 50
0.0
 71
     0
 42
2.5
  3
arial.ttf
  4

1001
ACAD
1000
Arial
1071
        0
  0
STYLE
  5
369
330
3
100
AcDbSymbolTableRecord
100
AcDbTextStyleTableRecord
  2
arial-
 70
     0
 40
1.0
 41
1.0
 50
0.0
 71
     0
 42
2.5
  3

  4

1001
ACAD
1000
Arial
1071
        0
  0
STYLE
  5
370
330
3
100
AcDbSymbolTableRecord
100
AcDbTextStyleTableRecord
  2
arial-b
 70
     0
 40
1.0
 41
1.0
 50
0.0
 71
     0
 42
2.5
  3
arialbd.ttf
  4

1001
ACAD
1000
Arial
1071
 33554432
  0
STYLE
  5
37B
330
3
100
AcDbSymbolTableRecord
100
AcDbTextStyleTableRecord
  2
arial-i
 70
     0
 40
1.0
 41
1.0
 50
0.0
 71
     0
 42
2.5
  3
ariali.ttf
  4

1001
ACAD
1000
Arial
1071
 16777216
  0
ENDTAB
  0
TABLE
  2
VIEW
  5
6
330
0
100
AcDbSymbolTable
 70
     0
  0
ENDTAB
  0
TABLE
  2
UCS
  5
7
330
0
100
AcDbSymbolTable
 70
     0
  0
ENDTAB
  0
TABLE
  2
APPID
  5
9
330
0
100
AcDbSymbolTable
 70
     3
  0
APPID
  5
12
330
9
100
AcDbSymbolTableRecord
100
AcDbRegAppTableRecord
  2
ACAD
 70
     0
  0
APPID
  5
5E
330
9
100
AcDbSymbolTableRecord
100
AcDbRegAppTableRecord
  2
Cadwork
 70
     0
  0
APPID
  5
216
330
9
100
AcDbSymbolTableRecord
100
AcDbRegAppTableRecord
  2
PLOTTRANSPARENCY
 70
     0
  0
ENDTAB
  0
TABLE
  2
DIMSTYLE
  5
A
330
0
100
AcDbSymbolTable
 70
     1
100
AcDbDimStyleTable
  0
DIMSTYLE
105
27
102
{ACAD_REACTORS
330
316
330
325
330
333
330
341
330
34F
330
35B
102
}
330
A
100
AcDbSymbolTableRecord
100
AcDbDimStyleTableRecord
  2
ISO-25
 70
     0
 41
2.5
 42
0.625
 43
3.75
 44
1.25
 73
     0
 74
     0
 77
     1
 78
     8
140
2.5
141
2.5
143
0.03937007874016
147
0.625
171
     3
172
     1
178
     0
271
     2
272
     2
274
     3
278
    44
283
     0
284
     8
340
11
  0
ENDTAB
  0
TABLE
  2
BLOCK_RECORD
  5
1
330
0
100
AcDbSymbolTable
 70
    75
  0
BLOCK_RECORD
  5
1F
330
1
100
AcDbSymbolTableRecord
100
AcDbBlockTableRecord
  2
*Model_Space
340
22
 70
     0
280
     1
281
     0
  0
BLOCK_RECORD
  5
211
330
1
100
AcDbSymbolTableRecord
100
AcDbBlockTableRecord
  2
*Paper_Space
340
212
 70
     0
280
     1
281
     0
  0
BLOCK_RECORD
  5
6A
330
1
100
AcDbSymbolTableRecord
100
AcDbBlockTableRecord
  2
CDWK_PTTYP1
340
0
 70
     0
280
     1
281
     1
  0
BLOCK_RECORD
  5
71
330
1
100
AcDbSymbolTableRecord
100
AcDbBlockTableRecord
  2
CDWK_PTTYP2
340
0
 70
     0
280
     1
281
     1
  0
BLOCK_RECORD
  5
76
330
1
100
AcDbSymbolTableRecord
100
AcDbBlockTableRecord
  2
CDWK_PTTYP4
340
0
 70
     0
280
     1
281
     1
  0
BLOCK_RECORD
  5
7A
330
1
100
AcDbSymbolTableRecord
100
AcDbBlockTableRecord
  2
CDWK_PTTYP5
340
0
 70
     0
280
     1
281
     1
  0
BLOCK_RECORD
  5
83
330
1
100
AcDbSymbolTableRecord
100
AcDbBlockTableRecord
  2
CDWK_PTTYP6
340
0
 70
     0
280
     1
281
     1
  0
BLOCK_RECORD
  5
8B
330
1
100
AcDbSymbolTableRecord
100
AcDbBlockTableRecord
  2
CDWK_PTTYP7
340
0
 70
     0
280
     1
281
     1
  0
BLOCK_RECORD
  5
94
330
1
100
AcDbSymbolTableRecord
100
AcDbBlockTableRecord
  2
CDWK_PTTYP8
340
0
 70
     0
280
     1
281
     1
  0
BLOCK_RECORD
  5
98
330
1
100
AcDbSymbolTableRecord
100
AcDbBlockTableRecord
  2
CDWK_PTTYP9
340
0
 70
     0
280
     1
281
     1
  0
BLOCK_RECORD
  5
9D
330
1
100
AcDbSymbolTableRecord
100
AcDbBlockTableRecord
  2
CDWK_PTTYP10
340
0
 70
     0
280
     1
281
     1
  0
BLOCK_RECORD
  5
A1
330
1
100
AcDbSymbolTableRecord
100
AcDbBlockTableRecord
  2
CDWK_PTTYP11
340
0
 70
     0
280
     1
281
     1
  0
BLOCK_RECORD
  5
A6
330
1
100
AcDbSymbolTableRecord
100
AcDbBlockTableRecord
  2
CDWK_PTTYP12
340
0
 70
     0
280
     1
281
     1
  0
BLOCK_RECORD
  5
AB
330
1
100
AcDbSymbolTableRecord
100
AcDbBlockTableRecord
  2
CDWK_PTTYP13
340
0
 70
     0
280
     1
281
     1
  0
BLOCK_RECORD
  5
B1
330
1
100
AcDbSymbolTableRecord
100
AcDbBlockTableRecord
  2
CDWK_PTTYP16
340
0
 70
     0
280
     1
281
     1
  0
BLOCK_RECORD
  5
B8
330
1
100
AcDbSymbolTableRecord
100
AcDbBlockTableRecord
  2
CDWK_PTTYP17
340
0
 70
     0
280
     1
281
     1
  0
BLOCK_RECORD
  5
BD
330
1
100
AcDbSymbolTableRecord
100
AcDbBlockTableRecord
  2
CDWK_PTTYP18
340
0
 70
     0
280
     1
281
     1
  0
BLOCK_RECORD
  5
C2
330
1
100
AcDbSymbolTableRecord
100
AcDbBlockTableRecord
  2
CDWK_PTTYP19
340
0
 70
     0
280
     1
281
     1
  0
BLOCK_RECORD
  5
C8
330
1
100
AcDbSymbolTableRecord
100
AcDbBlockTableRecord
  2
CDWK_PTTYP20
340
0
 70
     0
280
     1
281
     1
  0
BLOCK_RECORD
  5
CD
330
1
100
AcDbSymbolTableRecord
100
AcDbBlockTableRecord
  2
CDWK_PTTYP21
340
0
 70
     0
280
     1
281
     1
  0
BLOCK_RECORD
  5
D2
330
1
100
AcDbSymbolTableRecord
100
AcDbBlockTableRecord
  2
CDWK_PTTYP25
340
0
 70
     0
280
     1
281
     1
  0
BLOCK_RECORD
  5
D9
330
1
100
AcDbSymbolTableRecord
100
AcDbBlockTableRecord
  2
CDWK_PTTYP26
340
0
 70
     0
280
     1
281
     1
  0
BLOCK_RECORD
  5
E0
330
1
100
AcDbSymbolTableRecord
100
AcDbBlockTableRecord
  2
CDWK_PTTYP27
340
0
 70
     0
280
     1
281
     1
  0
BLOCK_RECORD
  5
E8
330
1
100
AcDbSymbolTableRecord
100
AcDbBlockTableRecord
  2
CDWK_PTTYP28
340
0
 70
     0
280
     1
281
     1
  0
BLOCK_RECORD
  5
EF
330
1
100
AcDbSymbolTableRecord
100
AcDbBlockTableRecord
  2
CDWK_PTTYP29
340
0
 70
     0
280
     1
281
     1
  0
BLOCK_RECORD
  5
F5
330
1
100
AcDbSymbolTableRecord
100
AcDbBlockTableRecord
  2
CDWK_PTTYP30
340
0
 70
     0
280
     1
281
     1
  0
BLOCK_RECORD
  5
FC
330
1
100
AcDbSymbolTableRecord
100
AcDbBlockTableRecord
  2
CDWK_PTTYP31
340
0
 70
     0
280
     1
281
     1
  0
BLOCK_RECORD
  5
104
330
1
100
AcDbSymbolTableRecord
100
AcDbBlockTableRecord
  2
CDWK_PTTYP32
340
0
 70
     0
280
     1
281
     1
  0
BLOCK_RECORD
  5
10D
330
1
100
AcDbSymbolTableRecord
100
AcDbBlockTableRecord
  2
CDWK_PTTYP33
340
0
 70
     0
280
     1
281
     1
  0
BLOCK_RECORD
  5
113
330
1
100
AcDbSymbolTableRecord
100
AcDbBlockTableRecord
  2
CDWK_PTTYP34
340
0
 70
     0
280
     1
281
     1
  0
BLOCK_RECORD
  5
119
330
1
100
AcDbSymbolTableRecord
100
AcDbBlockTableRecord
  2
CDWK_PTTYP35
340
0
 70
     0
280
     1
281
     1
  0
BLOCK_RECORD
  5
11F
330
1
100
AcDbSymbolTableRecord
100
AcDbBlockTableRecord
  2
CDWK_PTTYP36
340
0
 70
     0
280
     1
281
     1
  0
BLOCK_RECORD
  5
127
330
1
100
AcDbSymbolTableRecord
100
AcDbBlockTableRecord
  2
CDWK_PTTYP37
340
0
 70
     0
280
     1
281
     1
  0
BLOCK_RECORD
  5
12C
330
1
100
AcDbSymbolTableRecord
100
AcDbBlockTableRecord
  2
CDWK_PTTYP38
340
0
 70
     0
280
     1
281
     1
  0
BLOCK_RECORD
  5
132
330
1
100
AcDbSymbolTableRecord
100
AcDbBlockTableRecord
  2
CDWK_PTTYP41
340
0
 70
     0
280
     1
281
     1
  0
BLOCK_RECORD
  5
13C
330
1
100
AcDbSymbolTableRecord
100
AcDbBlockTableRecord
  2
CDWK_PTTYP42
340
0
 70
     0
280
     1
281
     1
  0
BLOCK_RECORD
  5
145
330
1
100
AcDbSymbolTableRecord
100
AcDbBlockTableRecord
  2
CDWK_PTTYP43
340
0
 70
     0
280
     1
281
     1
  0
BLOCK_RECORD
  5
14B
330
1
100
AcDbSymbolTableRecord
100
AcDbBlockTableRecord
  2
CDWK_PTTYP44
340
0
 70
     0
280
     1
281
     1
  0
BLOCK_RECORD
  5
154
330
1
100
AcDbSymbolTableRecord
100
AcDbBlockTableRecord
  2
CDWK_PTTYP45
340
0
 70
     0
280
     1
281
     1
  0
BLOCK_RECORD
  5
159
330
1
100
AcDbSymbolTableRecord
100
AcDbBlockTableRecord
  2
CDWK_PTTYP46
340
0
 70
     0
280
     1
281
     1
  0
BLOCK_RECORD
  5
15E
330
1
100
AcDbSymbolTableRecord
100
AcDbBlockTableRecord
  2
CDWK_PTTYP47
340
0
 70
     0
280
     1
281
     1
  0
BLOCK_RECORD
  5
167
330
1
100
AcDbSymbolTableRecord
100
AcDbBlockTableRecord
  2
CDWK_PTTYP48
340
0
 70
     0
280
     1
281
     1
  0
BLOCK_RECORD
  5
16C
330
1
100
AcDbSymbolTableRecord
100
AcDbBlockTableRecord
  2
CDWK_PTTYP49
340
0
 70
     0
280
     1
281
     1
  0
BLOCK_RECORD
  5
173
330
1
100
AcDbSymbolTableRecord
100
AcDbBlockTableRecord
  2
CDWK_PTTYP50
340
0
 70
     0
280
     1
281
     1
  0
BLOCK_RECORD
  5
17D
330
1
100
AcDbSymbolTableRecord
100
AcDbBlockTableRecord
  2
CDWK_PTTYP51
340
0
 70
     0
280
     1
281
     1
  0
BLOCK_RECORD
  5
182
330
1
100
AcDbSymbolTableRecord
100
AcDbBlockTableRecord
  2
CDWK_PTTYP52
340
0
 70
     0
280
     1
281
     1
  0
BLOCK_RECORD
  5
188
330
1
100
AcDbSymbolTableRecord
100
AcDbBlockTableRecord
  2
cw-dimension-symbol1
340
0
 70
     0
280
     1
281
     0
  0
BLOCK_RECORD
  5
18F
330
1
100
AcDbSymbolTableRecord
100
AcDbBlockTableRecord
  2
cw-dimension-symbol2
340
0
102
{BLKREFS
331
31F
331
320
331
32D
331
32E
331
33B
331
33C
331
349
331
34A
331
363
331
364
102
}
 70
     0
280
     1
281
     0
  0
BLOCK_RECORD
  5
194
330
1
100
AcDbSymbolTableRecord
100
AcDbBlockTableRecord
  2
cw-dimension-symbol3
340
0
 70
     0
280
     1
281
     0
  0
BLOCK_RECORD
  5
199
330
1
100
AcDbSymbolTableRecord
100
AcDbBlockTableRecord
  2
cw-dimension-symbol5
340
0
 70
     0
280
     1
281
     0
  0
BLOCK_RECORD
  5
1A0
330
1
100
AcDbSymbolTableRecord
100
AcDbBlockTableRecord
  2
cw-dimension-symbol6
340
0
 70
     0
280
     1
281
     0
  0
BLOCK_RECORD
  5
1A6
330
1
100
AcDbSymbolTableRecord
100
AcDbBlockTableRecord
  2
cw-dimension-symbol11
340
0
 70
     0
280
     1
281
     0
  0
BLOCK_RECORD
  5
1AC
330
1
100
AcDbSymbolTableRecord
100
AcDbBlockTableRecord
  2
cw-dimension-symbol13
340
0
 70
     0
280
     1
281
     0
  0
BLOCK_RECORD
  5
1B2
330
1
100
AcDbSymbolTableRecord
100
AcDbBlockTableRecord
  2
cw-dimension-symbol15
340
0
 70
     0
280
     1
281
     0
  0
BLOCK_RECORD
  5
1B9
330
1
100
AcDbSymbolTableRecord
100
AcDbBlockTableRecord
  2
cw-dimension-symbol16
340
0
 70
     0
280
     1
281
     0
  0
BLOCK_RECORD
  5
1C0
330
1
100
AcDbSymbolTableRecord
100
AcDbBlockTableRecord
  2
cw-dimension-symbol17
340
0
 70
     0
280
     1
281
     0
  0
BLOCK_RECORD
  5
1C7
330
1
100
AcDbSymbolTableRecord
100
AcDbBlockTableRecord
  2
cw-dimension-symbol18
340
0
 70
     0
280
     1
281
     0
  0
BLOCK_RECORD
  5
1CE
330
1
100
AcDbSymbolTableRecord
100
AcDbBlockTableRecord
  2
cw-dimension-symbol19
340
0
 70
     0
280
     1
281
     0
  0
BLOCK_RECORD
  5
1D1
330
1
100
AcDbSymbolTableRecord
100
AcDbBlockTableRecord
  2
cw-dimension-symbol20
340
0
 70
     0
280
     1
281
     0
  0
BLOCK_RECORD
  5
1D8
330
1
100
AcDbSymbolTableRecord
100
AcDbBlockTableRecord
  2
cw-dimension-symbol21
340
0
 70
     0
280
     1
281
     0
  0
BLOCK_RECORD
  5
1DF
330
1
100
AcDbSymbolTableRecord
100
AcDbBlockTableRecord
  2
cw-line-extremity0
340
0
 70
     0
280
     1
281
     0
  0
BLOCK_RECORD
  5
1E3
330
1
100
AcDbSymbolTableRecord
100
AcDbBlockTableRecord
  2
cw-line-extremity2
340
0
 70
     0
280
     1
281
     0
  0
BLOCK_RECORD
  5
1E8
330
1
100
AcDbSymbolTableRecord
100
AcDbBlockTableRecord
  2
cw-line-extremity3
340
0
 70
     0
280
     1
281
     0
  0
BLOCK_RECORD
  5
1ED
330
1
100
AcDbSymbolTableRecord
100
AcDbBlockTableRecord
  2
cw-line-extremity301
340
0
 70
     0
280
     1
281
     0
  0
BLOCK_RECORD
  5
1EF
330
1
100
AcDbSymbolTableRecord
100
AcDbBlockTableRecord
  2
cw-line-extremity4
340
0
102
{BLKREFS
331
2FF
331
301
331
303
331
305
331
307
331
309
331
30B
331
30D
331
30F
331
311
102
}
 70
     0
280
     1
281
     0
  0
BLOCK_RECORD
  5
1F1
330
1
100
AcDbSymbolTableRecord
100
AcDbBlockTableRecord
  2
cw-line-extremity5
340
0
 70
     0
280
     1
281
     0
  0
BLOCK_RECORD
  5
1F3
330
1
100
AcDbSymbolTableRecord
100
AcDbBlockTableRecord
  2
cw-line-extremity6
340
0
 70
     0
280
     1
281
     0
  0
BLOCK_RECORD
  5
1F5
330
1
100
AcDbSymbolTableRecord
100
AcDbBlockTableRecord
  2
cw-line-extremity9
340
0
 70
     0
280
     1
281
     0
  0
BLOCK_RECORD
  5
1F7
330
1
100
AcDbSymbolTableRecord
100
AcDbBlockTableRecord
  2
cw-line-extremity10
340
0
 70
     0
280
     1
281
     0
  0
BLOCK_RECORD
  5
1F9
330
1
100
AcDbSymbolTableRecord
100
AcDbBlockTableRecord
  2
cw-line-extremity1
340
0
 70
     0
280
     1
281
     0
  0
BLOCK_RECORD
  5
1B
330
1
100
AcDbSymbolTableRecord
100
AcDbBlockTableRecord
  2
*Paper_Space69
340
1E
 70
     0
280
     1
281
     0
  0
BLOCK_RECORD
  5
319
330
1
100
AcDbSymbolTableRecord
100
AcDbBlockTableRecord
  2
*D70
340
0
 70
     0
280
     1
281
     0
  0
BLOCK_RECORD
  5
327
330
1
100
AcDbSymbolTableRecord
100
AcDbBlockTableRecord
  2
*D71
340
0
 70
     0
280
     1
281
     0
  0
BLOCK_RECORD
  5
335
330
1
100
AcDbSymbolTableRecord
100
AcDbBlockTableRecord
  2
*D72
340
0
 70
     0
280
     1
281
     0
  0
BLOCK_RECORD
  5
343
330
1
100
AcDbSymbolTableRecord
100
AcDbBlockTableRecord
  2
*D73
340
0
 70
     0
280
     1
281
     0
  0
BLOCK_RECORD
  5
351
330
1
100
AcDbSymbolTableRecord
100
AcDbBlockTableRecord
  2
*D74
340
0
 70
     0
280
     1
281
     0
  0
BLOCK_RECORD
  5
35D
330
1
100
AcDbSymbolTableRecord
100
AcDbBlockTableRecord
  2
*D75
340
0
 70
     0
280
     1
281
     0
  0
ENDTAB
  0
ENDSEC
  0
SECTION
  2
BLOCKS
  0
BLOCK
  5
20
330
1F
100
AcDbEntity
  8
0
100
AcDbBlockBegin
  2
*Model_Space
 70
     0
 10
0.0
 20
0.0
 30
0.0
  3
*Model_Space
  1

  0
ENDBLK
  5
21
330
1F
100
AcDbEntity
  8
0
100
AcDbBlockEnd
  0
BLOCK
  5
213
330
211
100
AcDbEntity
 67
     1
  8
0
100
AcDbBlockBegin
  2
*Paper_Space
 70
     0
 10
0.0
 20
0.0
 30
0.0
  3
*Paper_Space
  1

  0
ENDBLK
  5
214
330
211
100
AcDbEntity
 67
     1
  8
0
100
AcDbBlockEnd
  0
BLOCK
  5
6F
330
6A
100
AcDbEntity
  8
0
100
AcDbBlockBegin
  2
CDWK_PTTYP1
 70
     0
 10
0.0
 20
0.0
 30
0.0
  3
CDWK_PTTYP1
  1

  0
LINE
  5
6B
330
6A
100
AcDbEntity
  8
0
  6
Continuous
 62
     0
370
    -2
390
5F
100
AcDbLine
 10
-0.5
 20
0.5
 30
0.0
 11
0.5
 21
0.5
 31
0.0
  0
LINE
  5
6C
330
6A
100
AcDbEntity
  8
0
  6
Continuous
 62
     0
370
    -2
390
5F
100
AcDbLine
 10
0.5
 20
0.5
 30
0.0
 11
0.5
 21
-0.5
 31
0.0
  0
LINE
  5
6D
330
6A
100
AcDbEntity
  8
0
  6
Continuous
 62
     0
370
    -2
390
5F
100
AcDbLine
 10
0.5
 20
-0.5
 30
0.0
 11
-0.5
 21
-0.5
 31
0.0
  0
LINE
  5
6E
330
6A
100
AcDbEntity
  8
0
  6
Continuous
 62
     0
370
    -2
390
5F
100
AcDbLine
 10
-0.5
 20
-0.5
 30
0.0
 11
-0.5
 21
0.5
 31
0.0
  0
ENDBLK
  5
70
330
6A
100
AcDbEntity
  8
0
100
AcDbBlockEnd
  0
BLOCK
  5
74
330
71
100
AcDbEntity
  8
0
100
AcDbBlockBegin
  2
CDWK_PTTYP2
 70
     0
 10
0.0
 20
0.0
 30
0.0
  3
CDWK_PTTYP2
  1

  0
LINE
  5
72
330
71
100
AcDbEntity
  8
0
  6
Continuous
 62
     0
370
    -2
390
5F
100
AcDbLine
 10
0.0
 20
0.5
 30
0.0
 11
0.0
 21
-0.5
 31
0.0
  0
LINE
  5
73
330
71
100
AcDbEntity
  8
0
  6
Continuous
 62
     0
370
    -2
390
5F
100
AcDbLine
 10
0.5
 20
0.0
 30
0.0
 11
-0.5
 21
0.0
 31
0.0
  0
ENDBLK
  5
75
330
71
100
AcDbEntity
  8
0
100
AcDbBlockEnd
  0
BLOCK
  5
78
330
76
100
AcDbEntity
  8
0
100
AcDbBlockBegin
  2
CDWK_PTTYP4
 70
     0
 10
0.0
 20
0.0
 30
0.0
  3
CDWK_PTTYP4
  1

  0
HATCH
  5
77
330
76
100
AcDbEntity
  8
0
  6
Continuous
 62
     0
370
    -2
390
5F
100
AcDbHatch
 10
0.0
 20
0.0
 30
0.0
210
0.0
220
0.0
230
1.0
  2
SOLID
 70
     1
 71
     0
 91
        1
 92
        1
 93
        1
 72
     2
 10
0.0
 20
0.0
 40
0.5
 50
0.0
 51
360.0
 73
     1
 97
        0
 75
     0
 76
     1
 98
        0
  0
ENDBLK
  5
79
330
76
100
AcDbEntity
  8
0
100
AcDbBlockEnd
  0
BLOCK
  5
81
330
7A
100
AcDbEntity
  8
0
100
AcDbBlockBegin
  2
CDWK_PTTYP5
 70
     0
 10
0.0
 20
0.0
 30
0.0
  3
CDWK_PTTYP5
  1

  0
LINE
  5
7B
330
7A
100
AcDbEntity
  8
0
  6
Continuous
 62
     0
370
    -2
390
5F
100
AcDbLine
 10
-0.5
 20
0.5
 30
0.0
 11
0.5
 21
0.5
 31
0.0
  0
LINE
  5
7C
330
7A
100
AcDbEntity
  8
0
  6
Continuous
 62
     0
370
    -2
390
5F
100
AcDbLine
 10
0.5
 20
0.5
 30
0.0
 11
0.5
 21
-0.5
 31
0.0
  0
LINE
  5
7D
330
7A
100
AcDbEntity
  8
0
  6
Continuous
 62
     0
370
    -2
390
5F
100
AcDbLine
 10
0.5
 20
-0.5
 30
0.0
 11
-0.5
 21
-0.5
 31
0.0
  0
LINE
  5
7E
330
7A
100
AcDbEntity
  8
0
  6
Continuous
 62
     0
370
    -2
390
5F
100
AcDbLine
 10
-0.5
 20
-0.5
 30
0.0
 11
-0.5
 21
0.5
 31
0.0
  0
HATCH
  5
7F
330
7A
100
AcDbEntity
  8
0
  6
Continuous
 62
     0
370
    -2
390
5F
100
AcDbHatch
 10
0.0
 20
0.0
 30
0.0
210
0.0
220
0.0
230
1.0
  2
SOLID
 70
     1
 71
     0
 91
        1
 92
        3
 72
     0
 73
     1
 93
        4
 10
-0.5
 20
0.0
 10
0.0
 20
0.0
 10
0.0
 20
-0.5
 10
-0.5
 20
-0.5
 97
        0
 75
     0
 76
     1
 98
        0
  0
HATCH
  5
80
330
7A
100
AcDbEntity
  8
0
  6
Continuous
 62
     0
370
    -2
390
5F
100
AcDbHatch
 10
0.0
 20
0.0
 30
0.0
210
0.0
220
0.0
230
1.0
  2
SOLID
 70
     1
 71
     0
 91
        1
 92
        3
 72
     0
 73
     1
 93
        4
 10
0.0
 20
0.0
 10
0.5
 20
0.0
 10
0.5
 20
0.5
 10
0.0
 20
0.5
 97
        0
 75
     0
 76
     1
 98
        0
  0
ENDBLK
  5
82
330
7A
100
AcDbEntity
  8
0
100
AcDbBlockEnd
  0
BLOCK
  5
89
330
83
100
AcDbEntity
  8
0
100
AcDbBlockBegin
  2
CDWK_PTTYP6
 70
     0
 10
0.0
 20
0.0
 30
0.0
  3
CDWK_PTTYP6
  1

  0
LINE
  5
84
330
83
100
AcDbEntity
  8
0
  6
Continuous
 62
     0
370
    -2
390
5F
100
AcDbLine
 10
-0.5
 20
0.5
 30
0.0
 11
0.5
 21
0.5
 31
0.0
  0
LINE
  5
85
330
83
100
AcDbEntity
  8
0
  6
Continuous
 62
     0
370
    -2
390
5F
100
AcDbLine
 10
0.5
 20
0.5
 30
0.0
 11
0.5
 21
-0.5
 31
0.0
  0
LINE
  5
86
330
83
100
AcDbEntity
  8
0
  6
Continuous
 62
     0
370
    -2
390
5F
100
AcDbLine
 10
0.5
 20
-0.5
 30
0.0
 11
-0.5
 21
-0.5
 31
0.0
  0
LINE
  5
87
330
83
100
AcDbEntity
  8
0
  6
Continuous
 62
     0
370
    -2
390
5F
100
AcDbLine
 10
-0.5
 20
-0.5
 30
0.0
 11
-0.5
 21
0.5
 31
0.0
  0
HATCH
  5
88
330
83
100
AcDbEntity
  8
0
  6
Continuous
 62
     0
370
    -2
390
5F
100
AcDbHatch
 10
0.0
 20
0.0
 30
0.0
210
0.0
220
0.0
230
1.0
  2
SOLID
 70
     1
 71
     0
 91
        1
 92
        3
 72
     0
 73
     1
 93
        3
 10
-0.5
 20
-0.5
 10
-0.5
 20
0.5
 10
0.5
 20
0.5
 97
        0
 75
     0
 76
     1
 98
        0
  0
ENDBLK
  5
8A
330
83
100
AcDbEntity
  8
0
100
AcDbBlockEnd
  0
BLOCK
  5
92
330
8B
100
AcDbEntity
  8
0
100
AcDbBlockBegin
  2
CDWK_PTTYP7
 70
     0
 10
0.0
 20
0.0
 30
0.0
  3
CDWK_PTTYP7
  1

  0
LINE
  5
8C
330
8B
100
AcDbEntity
  8
0
  6
Continuous
 62
     0
370
    -2
390
5F
100
AcDbLine
 10
-0.5
 20
0.5
 30
0.0
 11
0.5
 21
0.5
 31
0.0
  0
LINE
  5
8D
330
8B
100
AcDbEntity
  8
0
  6
Continuous
 62
     0
370
    -2
390
5F
100
AcDbLine
 10
0.5
 20
0.5
 30
0.0
 11
0.5
 21
-0.5
 31
0.0
  0
LINE
  5
8E
330
8B
100
AcDbEntity
  8
0
  6
Continuous
 62
     0
370
    -2
390
5F
100
AcDbLine
 10
0.5
 20
-0.5
 30
0.0
 11
-0.5
 21
-0.5
 31
0.0
  0
LINE
  5
8F
330
8B
100
AcDbEntity
  8
0
  6
Continuous
 62
     0
370
    -2
390
5F
100
AcDbLine
 10
-0.5
 20
-0.5
 30
0.0
 11
-0.5
 21
0.5
 31
0.0
  0
LINE
  5
90
330
8B
100
AcDbEntity
  8
0
  6
Continuous
 62
     0
370
    -2
390
5F
100
AcDbLine
 10
0.0
 20
0.5
 30
0.0
 11
0.0
 21
-0.5
 31
0.0
  0
LINE
  5
91
330
8B
100
AcDbEntity
  8
0
  6
Continuous
 62
     0
370
    -2
390
5F
100
AcDbLine
 10
0.5
 20
0.0
 30
0.0
 11
-0.5
 21
0.0
 31
0.0
  0
ENDBLK
  5
93
330
8B
100
AcDbEntity
  8
0
100
AcDbBlockEnd
  0
BLOCK
  5
96
330
94
100
AcDbEntity
  8
0
100
AcDbBlockBegin
  2
CDWK_PTTYP8
 70
     0
 10
0.0
 20
0.0
 30
0.0
  3
CDWK_PTTYP8
  1

  0
HATCH
  5
95
330
94
100
AcDbEntity
  8
0
  6
Continuous
 62
     0
370
    -2
390
5F
100
AcDbHatch
 10
0.0
 20
0.0
 30
0.0
210
0.0
220
0.0
230
1.0
  2
SOLID
 70
     1
 71
     0
 91
        1
 92
        3
 72
     0
 73
     1
 93
        4
 10
0.5
 20
0.5
 10
0.5
 20
-0.5
 10
-0.5
 20
-0.5
 10
-0.5
 20
0.5
 97
        0
 75
     0
 76
     1
 98
        0
  0
ENDBLK
  5
97
330
94
100
AcDbEntity
  8
0
100
AcDbBlockEnd
  0
BLOCK
  5
9B
330
98
100
AcDbEntity
  8
0
100
AcDbBlockBegin
  2
CDWK_PTTYP9
 70
     0
 10
0.0
 20
0.0
 30
0.0
  3
CDWK_PTTYP9
  1

  0
CIRCLE
  5
99
330
98
100
AcDbEntity
  8
0
  6
Continuous
 62
     0
370
    -2
390
5F
100
AcDbCircle
 10
0.0
 20
0.0
 30
0.0
 40
0.1666666666666667
  0
CIRCLE
  5
9A
330
98
100
AcDbEntity
  8
0
  6
Continuous
 62
     0
370
    -2
390
5F
100
AcDbCircle
 10
0.0
 20
0.0
 30
0.0
 40
0.5
  0
ENDBLK
  5
9C
330
98
100
AcDbEntity
  8
0
100
AcDbBlockEnd
  0
BLOCK
  5
9F
330
9D
100
AcDbEntity
  8
0
100
AcDbBlockBegin
  2
CDWK_PTTYP10
 70
     0
 10
0.0
 20
0.0
 30
0.0
  3
CDWK_PTTYP10
  1

  0
CIRCLE
  5
9E
330
9D
100
AcDbEntity
  8
0
  6
Continuous
 62
     0
370
    -2
390
5F
100
AcDbCircle
 10
0.0
 20
0.0
 30
0.0
 40
0.5
  0
ENDBLK
  5
A0
330
9D
100
AcDbEntity
  8
0
100
AcDbBlockEnd
  0
BLOCK
  5
A4
330
A1
100
AcDbEntity
  8
0
100
AcDbBlockBegin
  2
CDWK_PTTYP11
 70
     0
 10
0.0
 20
0.0
 30
0.0
  3
CDWK_PTTYP11
  1

  0
CIRCLE
  5
A2
330
A1
100
AcDbEntity
  8
0
  6
Continuous
 62
     0
370
    -2
390
5F
100
AcDbCircle
 10
0.0
 20
0.0
 30
0.0
 40
0.25
  0
CIRCLE
  5
A3
330
A1
100
AcDbEntity
  8
0
  6
Continuous
 62
     0
370
    -2
390
5F
100
AcDbCircle
 10
0.0
 20
0.0
 30
0.0
 40
0.5
  0
ENDBLK
  5
A5
330
A1
100
AcDbEntity
  8
0
100
AcDbBlockEnd
  0
BLOCK
  5
A9
330
A6
100
AcDbEntity
  8
0
100
AcDbBlockBegin
  2
CDWK_PTTYP12
 70
     0
 10
0.0
 20
0.0
 30
0.0
  3
CDWK_PTTYP12
  1

  0
CIRCLE
  5
A7
330
A6
100
AcDbEntity
  8
0
  6
Continuous
 62
     0
370
    -2
390
5F
100
AcDbCircle
 10
0.25
 20
0.0
 30
0.0
 40
0.25
  0
CIRCLE
  5
A8
330
A6
100
AcDbEntity
  8
0
  6
Continuous
 62
     0
370
    -2
390
5F
100
AcDbCircle
 10
0.0
 20
0.0
 30
0.0
 40
0.5
  0
ENDBLK
  5
AA
330
A6
100
AcDbEntity
  8
0
100
AcDbBlockEnd
  0
BLOCK
  5
AF
330
AB
100
AcDbEntity
  8
0
100
AcDbBlockBegin
  2
CDWK_PTTYP13
 70
     0
 10
0.0
 20
0.0
 30
0.0
  3
CDWK_PTTYP13
  1

  0
CIRCLE
  5
AC
330
AB
100
AcDbEntity
  8
0
  6
Continuous
 62
     0
370
    -2
390
5F
100
AcDbCircle
 10
-0.25
 20
0.0
 30
0.0
 40
0.25
  0
CIRCLE
  5
AD
330
AB
100
AcDbEntity
  8
0
  6
Continuous
 62
     0
370
    -2
390
5F
100
AcDbCircle
 10
0.25
 20
0.0
 30
0.0
 40
0.25
  0
CIRCLE
  5
AE
330
AB
100
AcDbEntity
  8
0
  6
Continuous
 62
     0
370
    -2
390
5F
100
AcDbCircle
 10
0.0
 20
0.0
 30
0.0
 40
0.5
  0
ENDBLK
  5
B0
330
AB
100
AcDbEntity
  8
0
100
AcDbBlockEnd
  0
BLOCK
  5
B6
330
B1
100
AcDbEntity
  8
0
100
AcDbBlockBegin
  2
CDWK_PTTYP16
 70
     0
 10
0.0
 20
0.0
 30
0.0
  3
CDWK_PTTYP16
  1

  0
LINE
  5
B2
330
B1
100
AcDbEntity
  8
0
  6
Continuous
 62
     0
370
    -2
390
5F
100
AcDbLine
 10
-0.5
 20
-0.289
 30
0.0
 11
0.5
 21
-0.289
 31
0.0
  0
LINE
  5
B3
330
B1
100
AcDbEntity
  8
0
  6
Continuous
 62
     0
370
    -2
390
5F
100
AcDbLine
 10
0.5
 20
-0.289
 30
0.0
 11
0.0
 21
0.577
 31
0.0
  0
LINE
  5
B4
330
B1
100
AcDbEntity
  8
0
  6
Continuous
 62
     0
370
    -2
390
5F
100
AcDbLine
 10
0.0
 20
0.577
 30
0.0
 11
-0.5
 21
-0.289
 31
0.0
  0
CIRCLE
  5
B5
330
B1
100
AcDbEntity
  8
0
  6
Continuous
 62
     0
370
    -2
390
5F
100
AcDbCircle
 10
0.0
 20
0.0
 30
0.0
 40
0.289
  0
ENDBLK
  5
B7
330
B1
100
AcDbEntity
  8
0
100
AcDbBlockEnd
  0
BLOCK
  5
BB
330
B8
100
AcDbEntity
  8
0
100
AcDbBlockBegin
  2
CDWK_PTTYP17
 70
     0
 10
0.0
 20
0.0
 30
0.0
  3
CDWK_PTTYP17
  1

  0
CIRCLE
  5
B9
330
B8
100
AcDbEntity
  8
0
  6
Continuous
 62
     0
370
    -2
390
5F
100
AcDbCircle
 10
0.0
 20
0.0
 30
0.0
 40
0.5
  0
HATCH
  5
BA
330
B8
100
AcDbEntity
  8
0
  6
Continuous
 62
     0
370
    -2
390
5F
100
AcDbHatch
 10
0.0
 20
0.0
 30
0.0
210
0.0
220
0.0
230
1.0
  2
SOLID
 70
     1
 71
     0
 91
        1
 92
        1
 93
        1
 72
     2
 10
0.0
 20
0.0
 40
0.25
 50
0.0
 51
360.0
 73
     1
 97
        0
 75
     0
 76
     1
 98
        0
  0
ENDBLK
  5
BC
330
B8
100
AcDbEntity
  8
0
100
AcDbBlockEnd
  0
BLOCK
  5
C0
330
BD
100
AcDbEntity
  8
0
100
AcDbBlockBegin
  2
CDWK_PTTYP18
 70
     0
 10
0.0
 20
0.0
 30
0.0
  3
CDWK_PTTYP18
  1

  0
CIRCLE
  5
BE
330
BD
100
AcDbEntity
  8
0
  6
Continuous
 62
     0
370
    -2
390
5F
100
AcDbCircle
 10
0.0
 20
0.0
 30
0.0
 40
0.5
  0
CIRCLE
  5
BF
330
BD
100
AcDbEntity
  8
0
  6
Continuous
 62
     0
370
    -2
390
5F
100
AcDbCircle
 10
0.0
 20
0.0
 30
0.0
 40
0.208
  0
ENDBLK
  5
C1
330
BD
100
AcDbEntity
  8
0
100
AcDbBlockEnd
  0
BLOCK
  5
C6
330
C2
100
AcDbEntity
  8
0
100
AcDbBlockBegin
  2
CDWK_PTTYP19
 70
     0
 10
0.0
 20
0.0
 30
0.0
  3
CDWK_PTTYP19
  1

  0
CIRCLE
  5
C3
330
C2
100
AcDbEntity
  8
0
  6
Continuous
 62
     0
370
    -2
390
5F
100
AcDbCircle
 10
0.0
 20
0.0
 30
0.0
 40
0.25
  0
CIRCLE
  5
C4
330
C2
100
AcDbEntity
  8
0
  6
Continuous
 62
     0
370
    -2
390
5F
100
AcDbCircle
 10
0.0
 20
0.0
 30
0.0
 40
0.35
  0
LINE
  5
C5
330
C2
100
AcDbEntity
  8
0
  6
Continuous
 62
     0
370
    -2
390
5F
100
AcDbLine
 10
-0.25
 20
0.0
 30
0.0
 11
0.25
 21
0.0
 31
0.0
  0
ENDBLK
  5
C7
330
C2
100
AcDbEntity
  8
0
100
AcDbBlockEnd
  0
BLOCK
  5
CB
330
C8
100
AcDbEntity
  8
0
100
AcDbBlockBegin
  2
CDWK_PTTYP20
 70
     0
 10
0.0
 20
0.0
 30
0.0
  3
CDWK_PTTYP20
  1

  0
CIRCLE
  5
C9
330
C8
100
AcDbEntity
  8
0
  6
Continuous
 62
     0
370
    -2
390
5F
100
AcDbCircle
 10
0.0
 20
0.0
 30
0.0
 40
0.3333333333333333
  0
CIRCLE
  5
CA
330
C8
100
AcDbEntity
  8
0
  6
Continuous
 62
     0
370
    -2
390
5F
100
AcDbCircle
 10
0.0
 20
0.0
 30
0.0
 40
0.5
  0
ENDBLK
  5
CC
330
C8
100
AcDbEntity
  8
0
100
AcDbBlockEnd
  0
BLOCK
  5
D0
330
CD
100
AcDbEntity
  8
0
100
AcDbBlockBegin
  2
CDWK_PTTYP21
 70
     0
 10
0.0
 20
0.0
 30
0.0
  3
CDWK_PTTYP21
  1

  0
CIRCLE
  5
CE
330
CD
100
AcDbEntity
  8
0
  6
Continuous
 62
     0
370
    -2
390
5F
100
AcDbCircle
 10
0.0
 20
0.0
 30
0.0
 40
0.5
  0
LINE
  5
CF
330
CD
100
AcDbEntity
  8
0
  6
Continuous
 62
     0
370
    -2
390
5F
100
AcDbLine
 10
-0.5
 20
0.0
 30
0.0
 11
0.5
 21
0.0
 31
0.0
  0
ENDBLK
  5
D1
330
CD
100
AcDbEntity
  8
0
100
AcDbBlockEnd
  0
BLOCK
  5
D7
330
D2
100
AcDbEntity
  8
0
100
AcDbBlockBegin
  2
CDWK_PTTYP25
 70
     0
 10
0.0
 20
0.0
 30
0.0
  3
CDWK_PTTYP25
  1

  0
LINE
  5
D3
330
D2
100
AcDbEntity
  8
0
  6
Continuous
 62
     0
370
    -2
390
5F
100
AcDbLine
 10
0.0
 20
0.5
 30
0.0
 11
-0.4330127018922193
 21
-0.25
 31
0.0
  0
LINE
  5
D4
330
D2
100
AcDbEntity
  8
0
  6
Continuous
 62
     0
370
    -2
390
5F
100
AcDbLine
 10
-0.4330127018922193
 20
-0.25
 30
0.0
 11
0.4330127018922193
 21
-0.25
 31
0.0
  0
LINE
  5
D5
330
D2
100
AcDbEntity
  8
0
  6
Continuous
 62
     0
370
    -2
390
5F
100
AcDbLine
 10
0.4330127018922193
 20
-0.25
 30
0.0
 11
0.0
 21
0.5
 31
0.0
  0
CIRCLE
  5
D6
330
D2
100
AcDbEntity
  8
0
  6
Continuous
 62
     0
370
    -2
390
5F
100
AcDbCircle
 10
0.0
 20
0.0
 30
0.0
 40
0.5
  0
ENDBLK
  5
D8
330
D2
100
AcDbEntity
  8
0
100
AcDbBlockEnd
  0
BLOCK
  5
DE
330
D9
100
AcDbEntity
  8
0
100
AcDbBlockBegin
  2
CDWK_PTTYP26
 70
     0
 10
0.0
 20
0.0
 30
0.0
  3
CDWK_PTTYP26
  1

  0
LINE
  5
DA
330
D9
100
AcDbEntity
  8
0
  6
Continuous
 62
     0
370
    -2
390
5F
100
AcDbLine
 10
-0.5
 20
-0.289
 30
0.0
 11
0.5
 21
-0.289
 31
0.0
  0
LINE
  5
DB
330
D9
100
AcDbEntity
  8
0
  6
Continuous
 62
     0
370
    -2
390
5F
100
AcDbLine
 10
0.5
 20
-0.289
 30
0.0
 11
0.0
 21
0.577
 31
0.0
  0
LINE
  5
DC
330
D9
100
AcDbEntity
  8
0
  6
Continuous
 62
     0
370
    -2
390
5F
100
AcDbLine
 10
0.0
 20
0.577
 30
0.0
 11
-0.5
 21
-0.289
 31
0.0
  0
CIRCLE
  5
DD
330
D9
100
AcDbEntity
  8
0
  6
Continuous
 62
     0
370
    -2
390
5F
100
AcDbCircle
 10
0.0
 20
0.0
 30
0.0
 40
0.125
  0
ENDBLK
  5
DF
330
D9
100
AcDbEntity
  8
0
100
AcDbBlockEnd
  0
BLOCK
  5
E6
330
E0
100
AcDbEntity
  8
0
100
AcDbBlockBegin
  2
CDWK_PTTYP27
 70
     0
 10
0.0
 20
0.0
 30
0.0
  3
CDWK_PTTYP27
  1

  0
LINE
  5
E1
330
E0
100
AcDbEntity
  8
0
  6
Continuous
 62
     0
370
    -2
390
5F
100
AcDbLine
 10
0.0
 20
0.5
 30
0.0
 11
-0.4330127018922193
 21
-0.25
 31
0.0
  0
LINE
  5
E2
330
E0
100
AcDbEntity
  8
0
  6
Continuous
 62
     0
370
    -2
390
5F
100
AcDbLine
 10
-0.4330127018922193
 20
-0.25
 30
0.0
 11
0.4330127018922193
 21
-0.25
 31
0.0
  0
LINE
  5
E3
330
E0
100
AcDbEntity
  8
0
  6
Continuous
 62
     0
370
    -2
390
5F
100
AcDbLine
 10
0.4330127018922193
 20
-0.25
 30
0.0
 11
0.0
 21
0.5
 31
0.0
  0
CIRCLE
  5
E4
330
E0
100
AcDbEntity
  8
0
  6
Continuous
 62
     0
370
    -2
390
5F
100
AcDbCircle
 10
0.0
 20
0.0
 30
0.0
 40
0.125
  0
CIRCLE
  5
E5
330
E0
100
AcDbEntity
  8
0
  6
Continuous
 62
     0
370
    -2
390
5F
100
AcDbCircle
 10
0.0
 20
0.0
 30
0.0
 40
0.5
  0
ENDBLK
  5
E7
330
E0
100
AcDbEntity
  8
0
100
AcDbBlockEnd
  0
BLOCK
  5
ED
330
E8
100
AcDbEntity
  8
0
100
AcDbBlockBegin
  2
CDWK_PTTYP28
 70
     0
 10
0.0
 20
0.0
 30
0.0
  3
CDWK_PTTYP28
  1

  0
LINE
  5
E9
330
E8
100
AcDbEntity
  8
0
  6
Continuous
 62
     0
370
    -2
390
5F
100
AcDbLine
 10
-0.5
 20
0.5
 30
0.0
 11
0.5
 21
0.5
 31
0.0
  0
LINE
  5
EA
330
E8
100
AcDbEntity
  8
0
  6
Continuous
 62
     0
370
    -2
390
5F
100
AcDbLine
 10
0.5
 20
0.5
 30
0.0
 11
-0.5
 21
-0.5
 31
0.0
  0
LINE
  5
EB
330
E8
100
AcDbEntity
  8
0
  6
Continuous
 62
     0
370
    -2
390
5F
100
AcDbLine
 10
0.5
 20
-0.5
 30
0.0
 11
-0.5
 21
-0.5
 31
0.0
  0
LINE
  5
EC
330
E8
100
AcDbEntity
  8
0
  6
Continuous
 62
     0
370
    -2
390
5F
100
AcDbLine
 10
-0.5
 20
0.5
 30
0.0
 11
0.5
 21
-0.5
 31
0.0
  0
ENDBLK
  5
EE
330
E8
100
AcDbEntity
  8
0
100
AcDbBlockEnd
  0
BLOCK
  5
F3
330
EF
100
AcDbEntity
  8
0
100
AcDbBlockBegin
  2
CDWK_PTTYP29
 70
     0
 10
0.0
 20
0.0
 30
0.0
  3
CDWK_PTTYP29
  1

  0
CIRCLE
  5
F0
330
EF
100
AcDbEntity
  8
0
  6
Continuous
 62
     0
370
    -2
390
5F
100
AcDbCircle
 10
0.0
 20
0.0
 30
0.0
 40
0.2
  0
CIRCLE
  5
F1
330
EF
100
AcDbEntity
  8
0
  6
Continuous
 62
     0
370
    -2
390
5F
100
AcDbCircle
 10
0.0
 20
0.0
 30
0.0
 40
0.35
  0
CIRCLE
  5
F2
330
EF
100
AcDbEntity
  8
0
  6
Continuous
 62
     0
370
    -2
390
5F
100
AcDbCircle
 10
0.0
 20
0.0
 30
0.0
 40
0.5
  0
ENDBLK
  5
F4
330
EF
100
AcDbEntity
  8
0
100
AcDbBlockEnd
  0
BLOCK
  5
FA
330
F5
100
AcDbEntity
  8
0
100
AcDbBlockBegin
  2
CDWK_PTTYP30
 70
     0
 10
0.0
 20
0.0
 30
0.0
  3
CDWK_PTTYP30
  1

  0
LINE
  5
F6
330
F5
100
AcDbEntity
  8
0
  6
Continuous
 62
     0
370
    -2
390
5F
100
AcDbLine
 10
-0.5
 20
0.5
 30
0.0
 11
-0.1
 21
0.1
 31
0.0
  0
LINE
  5
F7
330
F5
100
AcDbEntity
  8
0
  6
Continuous
 62
     0
370
    -2
390
5F
100
AcDbLine
 10
0.5
 20
0.5
 30
0.0
 11
0.1
 21
0.1
 31
0.0
  0
LINE
  5
F8
330
F5
100
AcDbEntity
  8
0
  6
Continuous
 62
     0
370
    -2
390
5F
100
AcDbLine
 10
0.5
 20
-0.5
 30
0.0
 11
0.1
 21
-0.1
 31
0.0
  0
LINE
  5
F9
330
F5
100
AcDbEntity
  8
0
  6
Continuous
 62
     0
370
    -2
390
5F
100
AcDbLine
 10
-0.5
 20
-0.5
 30
0.0
 11
-0.1
 21
-0.1
 31
0.0
  0
ENDBLK
  5
FB
330
F5
100
AcDbEntity
  8
0
100
AcDbBlockEnd
  0
BLOCK
  5
102
330
FC
100
AcDbEntity
  8
0
100
AcDbBlockBegin
  2
CDWK_PTTYP31
 70
     0
 10
0.0
 20
0.0
 30
0.0
  3
CDWK_PTTYP31
  1

  0
LINE
  5
FD
330
FC
100
AcDbEntity
  8
0
  6
Continuous
 62
     0
370
    -2
390
5F
100
AcDbLine
 10
-0.5
 20
0.0
 30
0.0
 11
-0.1
 21
0.0
 31
0.0
  0
LINE
  5
FE
330
FC
100
AcDbEntity
  8
0
  6
Continuous
 62
     0
370
    -2
390
5F
100
AcDbLine
 10
0.1
 20
0.0
 30
0.0
 11
0.5
 21
0.0
 31
0.0
  0
LINE
  5
FF
330
FC
100
AcDbEntity
  8
0
  6
Continuous
 62
     0
370
    -2
390
5F
100
AcDbLine
 10
0.0
 20
0.5
 30
0.0
 11
0.0
 21
0.1
 31
0.0
  0
LINE
  5
100
330
FC
100
AcDbEntity
  8
0
  6
Continuous
 62
     0
370
    -2
390
5F
100
AcDbLine
 10
0.0
 20
-0.1
 30
0.0
 11
0.0
 21
-0.5
 31
0.0
  0
CIRCLE
  5
101
330
FC
100
AcDbEntity
  8
0
  6
Continuous
 62
     0
370
    -2
390
5F
100
AcDbCircle
 10
0.0
 20
0.0
 30
0.0
 40
0.1
  0
ENDBLK
  5
103
330
FC
100
AcDbEntity
  8
0
100
AcDbBlockEnd
  0
BLOCK
  5
10B
330
104
100
AcDbEntity
  8
0
100
AcDbBlockBegin
  2
CDWK_PTTYP32
 70
     0
 10
0.0
 20
0.0
 30
0.0
  3
CDWK_PTTYP32
  1

  0
CIRCLE
  5
105
330
104
100
AcDbEntity
  8
0
  6
Continuous
 62
     0
370
    -2
390
5F
100
AcDbCircle
 10
0.0
 20
0.0
 30
0.0
 40
0.2
  0
CIRCLE
  5
106
330
104
100
AcDbEntity
  8
0
  6
Continuous
 62
     0
370
    -2
390
5F
100
AcDbCircle
 10
0.0
 20
0.0
 30
0.0
 40
0.5
  0
LINE
  5
107
330
104
100
AcDbEntity
  8
0
  6
Continuous
 62
     0
370
    -2
390
5F
100
AcDbLine
 10
0.1414213562373095
 20
0.1414213562373095
 30
0.0
 11
0.3535533905932738
 21
0.3535533905932738
 31
0.0
  0
LINE
  5
108
330
104
100
AcDbEntity
  8
0
  6
Continuous
 62
     0
370
    -2
390
5F
100
AcDbLine
 10
-0.1414213562373095
 20
0.1414213562373095
 30
0.0
 11
-0.3535533905932738
 21
0.3535533905932738
 31
0.0
  0
LINE
  5
109
330
104
100
AcDbEntity
  8
0
  6
Continuous
 62
     0
370
    -2
390
5F
100
AcDbLine
 10
0.1414213562373095
 20
-0.1414213562373095
 30
0.0
 11
0.3535533905932738
 21
-0.3535533905932738
 31
0.0
  0
LINE
  5
10A
330
104
100
AcDbEntity
  8
0
  6
Continuous
 62
     0
370
    -2
390
5F
100
AcDbLine
 10
-0.1414213562373095
 20
-0.1414213562373095
 30
0.0
 11
-0.3535533905932738
 21
-0.3535533905932738
 31
0.0
  0
ENDBLK
  5
10C
330
104
100
AcDbEntity
  8
0
100
AcDbBlockEnd
  0
BLOCK
  5
111
330
10D
100
AcDbEntity
  8
0
100
AcDbBlockBegin
  2
CDWK_PTTYP33
 70
     0
 10
0.0
 20
0.0
 30
0.0
  3
CDWK_PTTYP33
  1

  0
LINE
  5
10E
330
10D
100
AcDbEntity
  8
0
  6
Continuous
 62
     0
370
    -2
390
5F
100
AcDbLine
 10
0.0
 20
-0.5
 30
0.0
 11
0.0
 21
0.5
 31
0.0
  0
LINE
  5
10F
330
10D
100
AcDbEntity
  8
0
  6
Continuous
 62
     0
370
    -2
390
5F
100
AcDbLine
 10
0.5
 20
0.0
 30
0.0
 11
-0.5
 21
0.0
 31
0.0
  0
CIRCLE
  5
110
330
10D
100
AcDbEntity
  8
0
  6
Continuous
 62
     0
370
    -2
390
5F
100
AcDbCircle
 10
0.0
 20
0.0
 30
0.0
 40
0.5
  0
ENDBLK
  5
112
330
10D
100
AcDbEntity
  8
0
100
AcDbBlockEnd
  0
BLOCK
  5
117
330
113
100
AcDbEntity
  8
0
100
AcDbBlockBegin
  2
CDWK_PTTYP34
 70
     0
 10
0.0
 20
0.0
 30
0.0
  3
CDWK_PTTYP34
  1

  0
CIRCLE
  5
114
330
113
100
AcDbEntity
  8
0
  6
Continuous
 62
     0
370
    -2
390
5F
100
AcDbCircle
 10
0.0
 20
0.0
 30
0.0
 40
0.5
  0
LINE
  5
115
330
113
100
AcDbEntity
  8
0
  6
Continuous
 62
     0
370
    -2
390
5F
100
AcDbLine
 10
-0.4
 20
-0.3
 30
0.0
 11
0.3
 21
0.4
 31
0.0
  0
LINE
  5
116
330
113
100
AcDbEntity
  8
0
  6
Continuous
 62
     0
370
    -2
390
5F
100
AcDbLine
 10
-0.3
 20
-0.4
 30
0.0
 11
0.4
 21
0.3
 31
0.0
  0
ENDBLK
  5
118
330
113
100
AcDbEntity
  8
0
100
AcDbBlockEnd
  0
BLOCK
  5
11D
330
119
100
AcDbEntity
  8
0
100
AcDbBlockBegin
  2
CDWK_PTTYP35
 70
     0
 10
0.0
 20
0.0
 30
0.0
  3
CDWK_PTTYP35
  1

  0
LINE
  5
11A
330
119
100
AcDbEntity
  8
0
  6
Continuous
 62
     0
370
    -2
390
5F
100
AcDbLine
 10
0.0
 20
0.2
 30
0.0
 11
0.0
 21
0.5
 31
0.0
  0
LINE
  5
11B
330
119
100
AcDbEntity
  8
0
  6
Continuous
 62
     0
370
    -2
390
5F
100
AcDbLine
 10
0.0
 20
-0.2
 30
0.0
 11
0.0
 21
-0.5
 31
0.0
  0
CIRCLE
  5
11C
330
119
100
AcDbEntity
  8
0
  6
Continuous
 62
     0
370
    -2
390
5F
100
AcDbCircle
 10
0.0
 20
0.0
 30
0.0
 40
0.2
  0
ENDBLK
  5
11E
330
119
100
AcDbEntity
  8
0
100
AcDbBlockEnd
  0
BLOCK
  5
125
330
11F
100
AcDbEntity
  8
0
100
AcDbBlockBegin
  2
CDWK_PTTYP36
 70
     0
 10
0.0
 20
0.0
 30
0.0
  3
CDWK_PTTYP36
  1

  0
LINE
  5
120
330
11F
100
AcDbEntity
  8
0
  6
Continuous
 62
     0
370
    -2
390
5F
100
AcDbLine
 10
-0.5
 20
0.2
 30
0.0
 11
0.5
 21
0.2
 31
0.0
  0
LINE
  5
121
330
11F
100
AcDbEntity
  8
0
  6
Continuous
 62
     0
370
    -2
390
5F
100
AcDbLine
 10
0.5
 20
0.2
 30
0.0
 11
0.5
 21
-0.2
 31
0.0
  0
LINE
  5
122
330
11F
100
AcDbEntity
  8
0
  6
Continuous
 62
     0
370
    -2
390
5F
100
AcDbLine
 10
0.5
 20
-0.2
 30
0.0
 11
-0.5
 21
-0.2
 31
0.0
  0
LINE
  5
123
330
11F
100
AcDbEntity
  8
0
  6
Continuous
 62
     0
370
    -2
390
5F
100
AcDbLine
 10
-0.5
 20
-0.2
 30
0.0
 11
-0.5
 21
0.2
 31
0.0
  0
HATCH
  5
124
330
11F
100
AcDbEntity
  8
0
  6
Continuous
 62
     0
370
    -2
390
5F
100
AcDbHatch
 10
0.0
 20
0.0
 30
0.0
210
0.0
220
0.0
230
1.0
  2
SOLID
 70
     1
 71
     0
 91
        1
 92
        3
 72
     0
 73
     1
 93
        3
 10
-0.5
 20
-0.2
 10
0.5
 20
-0.2
 10
0.5
 20
0.2
 97
        0
 75
     0
 76
     1
 98
        0
  0
ENDBLK
  5
126
330
11F
100
AcDbEntity
  8
0
100
AcDbBlockEnd
  0
BLOCK
  5
12A
330
127
100
AcDbEntity
  8
0
100
AcDbBlockBegin
  2
CDWK_PTTYP37
 70
     0
 10
0.0
 20
0.0
 30
0.0
  3
CDWK_PTTYP37
  1

  0
HATCH
  5
128
330
127
100
AcDbEntity
  8
0
  6
Continuous
 62
     0
370
    -2
390
5F
100
AcDbHatch
 10
0.0
 20
0.0
 30
0.0
210
0.0
220
0.0
230
1.0
  2
SOLID
 70
     1
 71
     0
 91
        1
 92
        3
 72
     0
 73
     1
 93
      202
 10
-0.3535533905932738
 20
-0.3535533905932738
 10
-0.3485533905932738
 20
-0.3535533905932737
 10
-0.3435533905932738
 20
-0.3584836591895546
 10
-0.3385533905932738
 20
-0.3632782236961988
 10
-0.3335533905932738
 20
-0.367942389128785
 10
-0.3285533905932738
 20
-0.372481054046687
 10
-0.3235533905932738
 20
-0.3768987523588579
 10
-0.3185533905932738
 20
-0.3811996897107819
 10
-0.3135533905932738
 20
-0.3853877752881235
 10
-0.3085533905932737
 20
-0.3894666497242888
 10
-0.3035533905932737
 20
-0.3934397096803965
 10
-0.2985533905932737
 20
-0.3973101295704999
 10
-0.2935533905932737
 20
-0.4010808808273714
 10
-0.2885533905932737
 20
-0.4047547490409382
 10
-0.2835533905932737
 20
-0.4083343492496384
 10
-0.2785533905932737
 20
-0.4118221396222626
 10
-0.2735533905932737
 20
-0.4152204337324827
 10
-0.2685533905932737
 20
-0.4185314115988474
 10
-0.2635533905932737
 20
-0.4217571296384408
 10
-0.2585533905932737
 20
-0.4248995296617653
 10
-0.2535533905932737
 20
-0.4279604470190231
 10
-0.2485533905932737
 20
-0.4309416179932669
 10
-0.2435533905932737
 20
-0.4338446865234004
 10
-0.2385533905932737
 20
-0.4366712103293738
 10
-0.2335533905932737
 20
-0.439422666502825
 10
-0.2285533905932737
 20
-0.4421004566186126
 10
-0.2235533905932737
 20
-0.4447059114159811
 10
-0.2185533905932737
 20
-0.4472402950923041
 10
-0.2135533905932737
 20
-0.4497048092473372
 10
-0.2085533905932737
 20
-0.4521005965115692
 10
-0.2035533905932737
 20
-0.4544287438884664
 10
-0.1985533905932736
 20
-0.456690285837111
 10
-0.1935533905932736
 20
-0.45888620711884
 10
-0.1885533905932736
 20
-0.4610174454289638
 10
-0.1835533905932736
 20
-0.4630848938324164
 10
-0.1785533905932736
 20
-0.4650894030202291
 10
-0.1735533905932736
 20
-0.4670317834019928
 10
-0.1685533905932736
 20
-0.46891280704794
 10
-0.1635533905932736
 20
-0.4707332094929264
 10
-0.1585533905932736
 20
-0.4724936914133818
 10
-0.1535533905932736
 20
-0.4741949201872336
 10
-0.1485533905932736
 20
-0.4758375313458466
 10
-0.1435533905932736
 20
-0.4774221299261716
 10
-0.1385533905932736
 20
-0.4789492917305286
 10
-0.1335533905932736
 20
-0.4804195645007682
 10
-0.1285533905932736
 20
-0.4818334690129366
 10
-0.1235533905932736
 20
-0.4831915000980183
 10
-0.1185533905932736
 20
-0.4844941275938295
 10
-0.1135533905932736
 20
-0.4857417972326848
 10
-0.1085533905932736
 20
-0.4869349314690531
 10
-0.1035533905932736
 20
-0.4880739302510473
 10
-0.0985533905932736
 20
-0.489159171739258
 10
-0.0935533905932736
 20
-0.4901910129761353
 10
-0.0885533905932736
 20
-0.4911697905088447
 10
-0.0835533905932735
 20
-0.4920958209682695
 10
-0.0785533905932735
 20
-0.4929694016065986
 10
-0.0735533905932735
 20
-0.4937908107957261
 10
-0.0685533905932735
 20
-0.494560308488493
 10
-0.0635533905932735
 20
-0.4952781366446192
 10
-0.0585533905932735
 20
-0.4959445196230107
 10
-0.0535533905932735
 20
-0.4965596645419678
 10
-0.0485533905932735
 20
-0.4971237616086806
 10
-0.0435533905932735
 20
-0.4976369844192622
 10
-0.0385533905932735
 20
-0.4980994902304456
 10
-0.0335533905932735
 20
-0.4985114202039533
 10
-0.0285533905932735
 20
-0.4988728996244386
 10
-0.0235533905932735
 20
-0.4991840380917923
 10
-0.0185533905932735
 20
-0.49944492968851
 10
-0.0135533905932735
 20
-0.4996556531227215
 10
-0.0085533905932735
 20
-0.4998162718473921
 10
-0.0035533905932735
 20
-0.4999268341561182
 10
0.0014466094067265
 20
-0.499987373255857
 10
0.0064466094067265
 20
-0.4999979073168451
 10
0.0114466094067265
 20
-0.4999584394998819
 10
0.0164466094067265
 20
-0.4998689579610739
 10
0.0214466094067265
 20
-0.4997294358340547
 10
0.0264466094067265
 20
-0.4995398311896213
 10
0.0314466094067265
 20
-0.4993000869726422
 10
0.0364466094067265
 20
-0.4990101309160174
 10
0.0414466094067265
 20
-0.4986698754313855
 10
0.0464466094067265
 20
-0.498279217476192
 10
0.0514466094067265
 20
-0.4978380383966446
 10
0.0564466094067265
 20
-0.497346203745994
 10
0.0614466094067265
 20
-0.4968035630774849
 10
0.0664466094067264
 20
-0.4962099497112257
 10
0.0714466094067265
 20
-0.4955651804741228
 10
0.0764466094067265
 20
-0.4948690554119167
 10
0.0814466094067265
 20
-0.4941213574722463
 10
0.0864466094067265
 20
-0.4933218521575424
 10
0.0914466094067265
 20
-0.4924702871464235
 10
0.0964466094067265
 20
-0.4915663918821278
 10
0.1014466094067265
 20
-0.4906098771263643
 10
0.1064466094067265
 20
-0.4896004344768079
 10
0.1114466094067265
 20
-0.4885377358462822
 10
0.1164466094067265
 20
-0.4874214329014929
 10
0.1214466094067265
 20
-0.4862511564589613
 10
0.1264466094067265
 20
-0.4850265158355881
 10
0.1314466094067265
 20
-0.4837470981510305
 10
0.1364466094067265
 20
-0.482412467578809
 10
0.1414466094067265
 20
-0.4810221645427664
 10
0.1464466094067265
 20
-0.4795757048551781
 10
0.1514466094067265
 20
-0.4780725787924608
 10
0.1564466094067265
 20
-0.4765122501040308
 10
0.1614466094067265
 20
-0.4748941549494363
 10
0.1664466094067265
 20
-0.4732177007584056
 10
0.1714466094067265
 20
-0.4714822650079264
 10
0.1764466094067265
 20
-0.4696871939098801
 10
0.1814466094067266
 20
-0.4678318010021017
 10
0.1864466094067266
 20
-0.4659153656350076
 10
0.1914466094067266
 20
-0.4639371313451162
 10
0.1964466094067266
 20
-0.4618963041058764
 10
0.2014466094067266
 20
-0.4597920504451997
 10
0.2064466094067266
 20
-0.4576234954179405
 10
0.2114466094067266
 20
-0.4553897204202862
 10
0.2164466094067266
 20
-0.4530897608315588
 10
0.2214466094067266
 20
-0.45072260346729
 10
0.2264466094067266
 20
-0.4482871838255748
 10
0.2314466094067266
 20
-0.4457823831065977
 10
0.2364466094067266
 20
-0.4432070249828292
 10
0.2414466094067266
 20
-0.4405598720946596
 10
0.2464466094067266
 20
-0.4378396222431172
 10
0.2514466094067266
 20
-0.4350449042477435
 10
0.2564466094067266
 20
-0.4321742734336012
 10
0.2614466094067266
 20
-0.4292262067066663
 10
0.2664466094067266
 20
-0.4261990971714118
 10
0.2714466094067266
 20
-0.4230912482380831
 10
0.2764466094067266
 20
-0.4199008671598476
 10
0.2814466094067266
 20
-0.4166260579314797
 10
0.2864466094067266
 20
-0.4132648134712868
 10
0.2914466094067266
 20
-0.4098150069963156
 10
0.2964466094067266
 20
-0.4062743824871597
 10
0.3014466094067266
 20
-0.4026405441224911
 10
0.3064466094067266
 20
-0.3989109445442534
 10
0.3114466094067266
 20
-0.3950828717916294
 10
0.3164466094067266
 20
-0.391153434714632
 10
0.3214466094067266
 20
-0.3871195466454601
 10
0.3264466094067267
 20
-0.3829779070663467
 10
0.3314466094067267
 20
-0.3787249809648844
 10
0.3364466094067267
 20
-0.3743569755097196
 10
0.3414466094067267
 20
-0.3698698136084067
 10
0.3464466094067267
 20
-0.3652591038217257
 10
0.3514466094067267
 20
-0.3605201060004601
 10
0.3564466094067267
 20
-0.3556476918757041
 10
0.3614466094067267
 20
-0.3506362996645505
 10
0.3664466094067267
 20
-0.34547988153926
 10
0.3714466094067267
 20
-0.3401718425359658
 10
0.3764466094067267
 20
-0.334704969129899
 10
0.3814466094067267
 20
-0.3290713452523318
 10
0.3864466094067267
 20
-0.3232622529342269
 10
0.3914466094067267
 20
-0.3172680539828188
 10
0.3964466094067267
 20
-0.3110780480586465
 10
0.4014466094067267
 20
-0.304680301118911
 10
0.4064466094067267
 20
-0.2980614362775617
 10
0.4114466094067267
 20
-0.291206376478565
 10
0.4164466094067267
 20
-0.2840980246459106
 10
0.4214466094067267
 20
-0.276716861635935
 10
0.4264466094067267
 20
-0.2690404345439063
 10
0.4314466094067267
 20
-0.2610426963649944
 10
0.4364466094067267
 20
-0.2526931404518915
 10
0.4414466094067268
 20
-0.2439556458403291
 10
0.4464466094067268
 20
-0.2347869056044327
 10
0.4514466094067268
 20
-0.2251342376211081
 10
0.4564466094067268
 20
-0.2149324518428296
 10
0.4614466094067268
 20
-0.2040992228331676
 10
0.4664466094067268
 20
-0.1925279893081412
 10
0.4714466094067268
 20
-0.1800765408735088
 10
0.4764466094067268
 20
-0.1665475742210051
 10
0.4814466094067268
 20
-0.1516529867323223
 10
0.4864466094067268
 20
-0.1349413290684758
 10
0.4914466094067268
 20
-0.1156274024472547
 10
0.4964466094067268
 20
-0.0920881648347501
 10
0.5
 20
0.0
 10
0.495
 20
0.0
 10
0.49
 20
0.0705336798983295
 10
0.485
 20
0.0994987437106621
 10
0.48
 20
0.1215524578114322
 10
0.475
 20
0.14
 10
0.47
 20
0.15612494995996
 10
0.465
 20
0.1705872210923199
 10
0.46
 20
0.1837797594948911
 10
0.455
 20
0.1959591794226544
 10
0.45
 20
0.2073041244162789
 10
0.445
 20
0.2179449471770338
 10
0.4399999999999999
 20
0.2279802623035601
 10
0.4349999999999999
 20
0.2374868417407584
 10
0.4299999999999999
 20
0.2465258607124211
 10
0.4249999999999999
 20
0.2551470164434615
 10
0.4199999999999999
 20
0.2633913438213186
 10
0.4149999999999999
 20
0.2712931993250108
 10
0.4099999999999999
 20
0.2788816953476869
 10
0.4049999999999999
 20
0.2861817604250838
 10
0.3999999999999999
 20
0.2932149382279151
 10
0.3949999999999999
 20
0.3000000000000002
 10
0.3899999999999999
 20
0.3065534211193868
 10
0.3849999999999999
 20
0.3128897569432404
 10
0.3799999999999999
 20
0.3190219428189855
 10
0.3749999999999999
 20
0.3249615361854385
 10
0.3699999999999999
 20
0.330718913883074
 10
0.3649999999999999
 20
0.3363034344160049
 10
0.3599999999999999
 20
0.3417235724968357
 10
0.3549999999999999
 20
0.3469870314579496
 10
0.3535533905932738
 20
0.3535533905932738
 97
        0
 75
     0
 76
     1
 98
        0
  0
CIRCLE
  5
129
330
127
100
AcDbEntity
  8
0
  6
Continuous
 62
     0
370
    -2
390
5F
100
AcDbCircle
 10
0.0
 20
0.0
 30
0.0
 40
0.5
  0
ENDBLK
  5
12B
330
127
100
AcDbEntity
  8
0
100
AcDbBlockEnd
  0
BLOCK
  5
130
330
12C
100
AcDbEntity
  8
0
100
AcDbBlockBegin
  2
CDWK_PTTYP38
 70
     0
 10
0.0
 20
0.0
 30
0.0
  3
CDWK_PTTYP38
  1

  0
HATCH
  5
12D
330
12C
100
AcDbEntity
  8
0
  6
Continuous
 62
     0
370
    -2
390
5F
100
AcDbHatch
 10
0.0
 20
0.0
 30
0.0
210
0.0
220
0.0
230
1.0
  2
SOLID
 70
     1
 71
     0
 91
        1
 92
        3
 72
     0
 73
     1
 93
      102
 10
0.0
 20
0.0
 10
0.0
 20
0.5
 10
0.005
 20
0.5
 10
0.01
 20
0.4999749993749688
 10
0.015
 20
0.4998999899979995
 10
0.02
 20
0.4997749493522059
 10
0.025
 20
0.4995998398718718
 10
0.03
 20
0.4993746088859545
 10
0.035
 20
0.4990991885387112
 10
0.04
 20
0.4987734956871706
 10
0.045
 20
0.4983974317750845
 10
0.05
 20
0.4979708826829135
 10
0.055
 20
0.49749371855331
 10
0.06
 20
0.4969657935914704
 10
0.065
 20
0.4963869458396343
 10
0.07
 20
0.4957569969249047
 10
0.075
 20
0.4950757517794626
 10
0.08
 20
0.4943429983321297
 10
0.085
 20
0.4935585071701227
 10
0.09
 20
0.4927220311697053
 10
0.095
 20
0.4918333050943175
 10
0.1
 20
0.4908920451586071
 10
0.105
 20
0.4898979485566356
 10
0.11
 20
0.4888506929523574
 10
0.115
 20
0.4877499359302879
 10
0.12
 20
0.4865953144040744
 10
0.125
 20
0.4853864439804639
 10
0.13
 20
0.4841229182759271
 10
0.135
 20
0.4828043081829325
 10
0.14
 20
0.4814301610825811
 10
0.145
 20
0.48
 10
0.15
 20
0.478513322698543
 10
0.1550000000000001
 20
0.4769696007084728
 10
0.1600000000000001
 20
0.4753682782853731
 10
0.1650000000000001
 20
0.4737087712930804
 10
0.1700000000000001
 20
0.4719904660054056
 10
0.1750000000000001
 20
0.4702127178203498
 10
0.1800000000000001
 20
0.4683748498798799
 10
0.1850000000000001
 20
0.466476151587624
 10
0.1900000000000001
 20
0.4645158770160606
 10
0.1950000000000001
 20
0.4624932431938871
 10
0.2000000000000001
 20
0.460407428263272
 10
0.2050000000000001
 20
0.4582575694955839
 10
0.2100000000000001
 20
0.4560427611529427
 10
0.2150000000000001
 20
0.4537620521815371
 10
0.2200000000000001
 20
0.4514144437210665
 10
0.2250000000000001
 20
0.4489988864128729
 10
0.2300000000000001
 20
0.4465142774872937
 10
0.2350000000000001
 20
0.4439594576084622
 10
0.2400000000000001
 20
0.4413332074521472
 10
0.2450000000000001
 20
0.4386342439892261
 10
0.2500000000000001
 20
0.4358612164439502
 10
0.2550000000000001
 20
0.4330127018922192
 10
0.2600000000000001
 20
0.4300872004605577
 10
0.2650000000000001
 20
0.4270831300812524
 10
0.2700000000000001
 20
0.423998820753077
 10
0.2750000000000001
 20
0.4208325082500162
 10
0.2800000000000001
 20
0.4175823272122516
 10
0.2850000000000001
 20
0.4142463035441595
 10
0.2900000000000001
 20
0.4108223460329293
 10
0.2950000000000002
 20
0.4073082370883259
 10
0.3000000000000002
 20
0.403701622488689
 10
0.3050000000000002
 20
0.3999999999999999
 10
0.3100000000000002
 20
0.3962007067131506
 10
0.3150000000000002
 20
0.3923009049186605
 10
0.3200000000000002
 20
0.3882975663070783
 10
0.3250000000000002
 20
0.3841874542459708
 10
0.3300000000000002
 20
0.3799671038392664
 10
0.3350000000000002
 20
0.3756327994198588
 10
0.3400000000000002
 20
0.3711805490593491
 10
0.3450000000000002
 20
0.366606055596467
 10
0.3500000000000002
 20
0.3619046835839512
 10
0.3550000000000002
 20
0.3570714214271423
 10
0.3600000000000002
 20
0.3521008378291649
 10
0.3650000000000002
 20
0.3469870314579492
 10
0.3700000000000002
 20
0.3417235724968353
 10
0.3750000000000002
 20
0.3363034344160045
 10
0.3800000000000002
 20
0.3307189138830736
 10
0.3850000000000002
 20
0.3249615361854382
 10
0.3900000000000002
 20
0.3190219428189851
 10
0.3950000000000002
 20
0.31288975694324
 10
0.4000000000000002
 20
0.3065534211193863
 10
0.4050000000000002
 20
0.2999999999999997
 10
0.4100000000000003
 20
0.2932149382279147
 10
0.4150000000000003
 20
0.2861817604250834
 10
0.4200000000000003
 20
0.2788816953476864
 10
0.4250000000000003
 20
0.2712931993250103
 10
0.4300000000000003
 20
0.263391343821318
 10
0.4350000000000003
 20
0.255147016443461
 10
0.4400000000000003
 20
0.2465258607124206
 10
0.4450000000000003
 20
0.2374868417407578
 10
0.4500000000000003
 20
0.2279802623035594
 10
0.4550000000000003
 20
0.2179449471770331
 10
0.4600000000000003
 20
0.2073041244162782
 10
0.4650000000000003
 20
0.1959591794226536
 10
0.4700000000000003
 20
0.1837797594948903
 10
0.4750000000000003
 20
0.170587221092319
 10
0.4800000000000003
 20
0.156124949959959
 10
0.4850000000000003
 20
0.1399999999999989
 10
0.4900000000000003
 20
0.1215524578114309
 10
0.4950000000000003
 20
0.0994987437106604
 10
0.5
 20
0.0
 97
        0
 75
     0
 76
     1
 98
        0
  0
HATCH
  5
12E
330
12C
100
AcDbEntity
  8
0
  6
Continuous
 62
     0
370
    -2
390
5F
100
AcDbHatch
 10
0.0
 20
0.0
 30
0.0
210
0.0
220
0.0
230
1.0
  2
SOLID
 70
     1
 71
     0
 91
        1
 92
        3
 72
     0
 73
     1
 93
      102
 10
0.0
 20
0.0
 10
-0.5
 20
0.0
 10
-0.495
 20
0.0
 10
-0.49
 20
-0.0705336798983295
 10
-0.485
 20
-0.0994987437106621
 10
-0.48
 20
-0.1215524578114322
 10
-0.475
 20
-0.14
 10
-0.47
 20
-0.15612494995996
 10
-0.465
 20
-0.1705872210923199
 10
-0.46
 20
-0.1837797594948911
 10
-0.455
 20
-0.1959591794226544
 10
-0.45
 20
-0.2073041244162789
 10
-0.445
 20
-0.2179449471770338
 10
-0.4399999999999999
 20
-0.2279802623035601
 10
-0.4349999999999999
 20
-0.2374868417407584
 10
-0.4299999999999999
 20
-0.2465258607124211
 10
-0.4249999999999999
 20
-0.2551470164434615
 10
-0.4199999999999999
 20
-0.2633913438213186
 10
-0.4149999999999999
 20
-0.2712931993250108
 10
-0.4099999999999999
 20
-0.2788816953476869
 10
-0.4049999999999999
 20
-0.2861817604250838
 10
-0.3999999999999999
 20
-0.2932149382279151
 10
-0.3949999999999999
 20
-0.3000000000000002
 10
-0.3899999999999999
 20
-0.3065534211193868
 10
-0.3849999999999999
 20
-0.3128897569432404
 10
-0.3799999999999999
 20
-0.3190219428189855
 10
-0.3749999999999999
 20
-0.3249615361854385
 10
-0.3699999999999999
 20
-0.330718913883074
 10
-0.3649999999999999
 20
-0.3363034344160049
 10
-0.3599999999999999
 20
-0.3417235724968357
 10
-0.3549999999999999
 20
-0.3469870314579496
 10
-0.3499999999999999
 20
-0.3521008378291652
 10
-0.3449999999999999
 20
-0.3570714214271427
 10
-0.3399999999999999
 20
-0.3619046835839516
 10
-0.3349999999999999
 20
-0.3666060555964674
 10
-0.3299999999999998
 20
-0.3711805490593494
 10
-0.3249999999999998
 20
-0.3756327994198591
 10
-0.3199999999999998
 20
-0.3799671038392667
 10
-0.3149999999999998
 20
-0.3841874542459711
 10
-0.3099999999999998
 20
-0.3882975663070786
 10
-0.3049999999999998
 20
-0.3923009049186608
 10
-0.2999999999999998
 20
-0.3962007067131507
 10
-0.2949999999999998
 20
-0.4000000000000001
 10
-0.2899999999999998
 20
-0.4037016224886891
 10
-0.2849999999999998
 20
-0.4073082370883261
 10
-0.2799999999999998
 20
-0.4108223460329296
 10
-0.2749999999999998
 20
-0.4142463035441597
 10
-0.2699999999999998
 20
-0.4175823272122518
 10
-0.2649999999999998
 20
-0.4208325082500164
 10
-0.2599999999999998
 20
-0.4239988207530773
 10
-0.2549999999999998
 20
-0.4270831300812526
 10
-0.2499999999999998
 20
-0.4300872004605579
 10
-0.2449999999999998
 20
-0.4330127018922195
 10
-0.2399999999999998
 20
-0.4358612164439503
 10
-0.2349999999999998
 20
-0.4386342439892263
 10
-0.2299999999999998
 20
-0.4413332074521473
 10
-0.2249999999999998
 20
-0.4439594576084624
 10
-0.2199999999999998
 20
-0.4465142774872939
 10
-0.2149999999999997
 20
-0.4489988864128731
 10
-0.2099999999999997
 20
-0.4514144437210667
 10
-0.2049999999999997
 20
-0.4537620521815372
 10
-0.1999999999999997
 20
-0.4560427611529429
 10
-0.1949999999999997
 20
-0.4582575694955841
 10
-0.1899999999999997
 20
-0.4604074282632722
 10
-0.1849999999999997
 20
-0.4624932431938872
 10
-0.1799999999999997
 20
-0.4645158770160608
 10
-0.1749999999999997
 20
-0.4664761515876241
 10
-0.1699999999999997
 20
-0.46837484987988
 10
-0.1649999999999997
 20
-0.47021271782035
 10
-0.1599999999999997
 20
-0.4719904660054058
 10
-0.1549999999999997
 20
-0.4737087712930805
 10
-0.1499999999999997
 20
-0.4753682782853733
 10
-0.1449999999999997
 20
-0.4769696007084729
 10
-0.1399999999999997
 20
-0.4785133226985431
 10
-0.1349999999999997
 20
-0.4800000000000001
 10
-0.1299999999999997
 20
-0.4814301610825812
 10
-0.1249999999999997
 20
-0.4828043081829325
 10
-0.1199999999999997
 20
-0.4841229182759272
 10
-0.1149999999999997
 20
-0.485386443980464
 10
-0.1099999999999997
 20
-0.4865953144040744
 10
-0.1049999999999996
 20
-0.487749935930288
 10
-0.0999999999999996
 20
-0.4888506929523574
 10
-0.0949999999999996
 20
-0.4898979485566357
 10
-0.0899999999999996
 20
-0.4908920451586072
 10
-0.0849999999999996
 20
-0.4918333050943176
 10
-0.0799999999999996
 20
-0.4927220311697053
 10
-0.0749999999999996
 20
-0.4935585071701227
 10
-0.0699999999999996
 20
-0.4943429983321298
 10
-0.0649999999999996
 20
-0.4950757517794626
 10
-0.0599999999999996
 20
-0.4957569969249048
 10
-0.0549999999999996
 20
-0.4963869458396343
 10
-0.0499999999999996
 20
-0.4969657935914705
 10
-0.0449999999999996
 20
-0.49749371855331
 10
-0.0399999999999996
 20
-0.4979708826829135
 10
-0.0349999999999996
 20
-0.4983974317750846
 10
-0.0299999999999996
 20
-0.4987734956871706
 10
-0.0249999999999996
 20
-0.4990991885387112
 10
-0.0199999999999996
 20
-0.4993746088859545
 10
-0.0149999999999996
 20
-0.4995998398718719
 10
-0.0099999999999996
 20
-0.499774949352206
 10
-0.0049999999999996
 20
-0.4998999899979995
 10
0.0
 20
-0.5
 97
        0
 75
     0
 76
     1
 98
        0
  0
CIRCLE
  5
12F
330
12C
100
AcDbEntity
  8
0
  6
Continuous
 62
     0
370
    -2
390
5F
100
AcDbCircle
 10
0.0
 20
0.0
 30
0.0
 40
0.5
  0
ENDBLK
  5
131
330
12C
100
AcDbEntity
  8
0
100
AcDbBlockEnd
  0
BLOCK
  5
13A
330
132
100
AcDbEntity
  8
0
100
AcDbBlockBegin
  2
CDWK_PTTYP41
 70
     0
 10
0.0
 20
0.0
 30
0.0
  3
CDWK_PTTYP41
  1

  0
LINE
  5
133
330
132
100
AcDbEntity
  8
0
  6
Continuous
 62
     0
370
    -2
390
5F
100
AcDbLine
 10
-0.5
 20
0.5
 30
0.0
 11
0.5
 21
0.5
 31
0.0
  0
LINE
  5
134
330
132
100
AcDbEntity
  8
0
  6
Continuous
 62
     0
370
    -2
390
5F
100
AcDbLine
 10
0.5
 20
0.5
 30
0.0
 11
0.5
 21
-0.5
 31
0.0
  0
LINE
  5
135
330
132
100
AcDbEntity
  8
0
  6
Continuous
 62
     0
370
    -2
390
5F
100
AcDbLine
 10
0.5
 20
-0.5
 30
0.0
 11
-0.5
 21
-0.5
 31
0.0
  0
LINE
  5
136
330
132
100
AcDbEntity
  8
0
  6
Continuous
 62
     0
370
    -2
390
5F
100
AcDbLine
 10
-0.5
 20
-0.5
 30
0.0
 11
-0.5
 21
0.5
 31
0.0
  0
LINE
  5
137
330
132
100
AcDbEntity
  8
0
  6
Continuous
 62
     0
370
    -2
390
5F
100
AcDbLine
 10
-0.375
 20
0.25
 30
0.0
 11
0.375
 21
0.25
 31
0.0
  0
LINE
  5
138
330
132
100
AcDbEntity
  8
0
  6
Continuous
 62
     0
370
    -2
390
5F
100
AcDbLine
 10
-0.375
 20
0.0
 30
0.0
 11
0.375
 21
0.0
 31
0.0
  0
LINE
  5
139
330
132
100
AcDbEntity
  8
0
  6
Continuous
 62
     0
370
    -2
390
5F
100
AcDbLine
 10
-0.375
 20
-0.25
 30
0.0
 11
0.375
 21
-0.25
 31
0.0
  0
ENDBLK
  5
13B
330
132
100
AcDbEntity
  8
0
100
AcDbBlockEnd
  0
BLOCK
  5
143
330
13C
100
AcDbEntity
  8
0
100
AcDbBlockBegin
  2
CDWK_PTTYP42
 70
     0
 10
0.0
 20
0.0
 30
0.0
  3
CDWK_PTTYP42
  1

  0
LINE
  5
13D
330
13C
100
AcDbEntity
  8
0
  6
Continuous
 62
     0
370
    -2
390
5F
100
AcDbLine
 10
-0.5
 20
0.5
 30
0.0
 11
0.5
 21
0.5
 31
0.0
  0
LINE
  5
13E
330
13C
100
AcDbEntity
  8
0
  6
Continuous
 62
     0
370
    -2
390
5F
100
AcDbLine
 10
0.5
 20
0.5
 30
0.0
 11
0.5
 21
-0.5
 31
0.0
  0
LINE
  5
13F
330
13C
100
AcDbEntity
  8
0
  6
Continuous
 62
     0
370
    -2
390
5F
100
AcDbLine
 10
0.5
 20
-0.5
 30
0.0
 11
-0.5
 21
-0.5
 31
0.0
  0
LINE
  5
140
330
13C
100
AcDbEntity
  8
0
  6
Continuous
 62
     0
370
    -2
390
5F
100
AcDbLine
 10
-0.5
 20
-0.5
 30
0.0
 11
-0.5
 21
0.5
 31
0.0
  0
LINE
  5
141
330
13C
100
AcDbEntity
  8
0
  6
Continuous
 62
     0
370
    -2
390
5F
100
AcDbLine
 10
-0.375
 20
0.125
 30
0.0
 11
0.375
 21
0.125
 31
0.0
  0
LINE
  5
142
330
13C
100
AcDbEntity
  8
0
  6
Continuous
 62
     0
370
    -2
390
5F
100
AcDbLine
 10
-0.375
 20
-0.125
 30
0.0
 11
0.375
 21
-0.125
 31
0.0
  0
ENDBLK
  5
144
330
13C
100
AcDbEntity
  8
0
100
AcDbBlockEnd
  0
BLOCK
  5
149
330
145
100
AcDbEntity
  8
0
100
AcDbBlockBegin
  2
CDWK_PTTYP43
 70
     0
 10
0.0
 20
0.0
 30
0.0
  3
CDWK_PTTYP43
  1

  0
CIRCLE
  5
146
330
145
100
AcDbEntity
  8
0
  6
Continuous
 62
     0
370
    -2
390
5F
100
AcDbCircle
 10
0.0
 20
0.0
 30
0.0
 40
0.5
  0
LINE
  5
147
330
145
100
AcDbEntity
  8
0
  6
Continuous
 62
     0
370
    -2
390
5F
100
AcDbLine
 10
-0.375
 20
0.166
 30
0.0
 11
0.375
 21
0.166
 31
0.0
  0
LINE
  5
148
330
145
100
AcDbEntity
  8
0
  6
Continuous
 62
     0
370
    -2
390
5F
100
AcDbLine
 10
-0.375
 20
-0.166
 30
0.0
 11
0.375
 21
-0.166
 31
0.0
  0
ENDBLK
  5
14A
330
145
100
AcDbEntity
  8
0
100
AcDbBlockEnd
  0
BLOCK
  5
152
330
14B
100
AcDbEntity
  8
0
100
AcDbBlockBegin
  2
CDWK_PTTYP44
 70
     0
 10
0.0
 20
0.0
 30
0.0
  3
CDWK_PTTYP44
  1

  0
CIRCLE
  5
14C
330
14B
100
AcDbEntity
  8
0
  6
Continuous
 62
     0
370
    -2
390
5F
100
AcDbCircle
 10
0.0
 20
0.0
 30
0.0
 40
0.5
  0
LINE
  5
14D
330
14B
100
AcDbEntity
  8
0
  6
Continuous
 62
     0
370
    -2
390
5F
100
AcDbLine
 10
-0.375
 20
0.333
 30
0.0
 11
0.375
 21
0.333
 31
0.0
  0
LINE
  5
14E
330
14B
100
AcDbEntity
  8
0
  6
Continuous
 62
     0
370
    -2
390
5F
100
AcDbLine
 10
-0.375
 20
0.166
 30
0.0
 11
0.375
 21
0.166
 31
0.0
  0
LINE
  5
14F
330
14B
100
AcDbEntity
  8
0
  6
Continuous
 62
     0
370
    -2
390
5F
100
AcDbLine
 10
-0.375
 20
0.0
 30
0.0
 11
0.375
 21
0.0
 31
0.0
  0
LINE
  5
150
330
14B
100
AcDbEntity
  8
0
  6
Continuous
 62
     0
370
    -2
390
5F
100
AcDbLine
 10
-0.375
 20
-0.166
 30
0.0
 11
0.375
 21
-0.166
 31
0.0
  0
LINE
  5
151
330
14B
100
AcDbEntity
  8
0
  6
Continuous
 62
     0
370
    -2
390
5F
100
AcDbLine
 10
-0.375
 20
-0.333
 30
0.0
 11
0.375
 21
-0.333
 31
0.0
  0
ENDBLK
  5
153
330
14B
100
AcDbEntity
  8
0
100
AcDbBlockEnd
  0
BLOCK
  5
157
330
154
100
AcDbEntity
  8
0
100
AcDbBlockBegin
  2
CDWK_PTTYP45
 70
     0
 10
0.0
 20
0.0
 30
0.0
  3
CDWK_PTTYP45
  1

  0
ELLIPSE
  5
155
330
154
100
AcDbEntity
  8
0
  6
Continuous
 62
     0
370
    -2
390
5F
100
AcDbEllipse
 10
0.0
 20
0.0
 30
0.0
 11
0.5
 21
0.0
 31
0.0
210
0.0
220
0.0
230
1.0
 40
0.82
 41
0.0
 42
6.283185307179586
  0
CIRCLE
  5
156
330
154
100
AcDbEntity
  8
0
  6
Continuous
 62
     0
370
    -2
390
5F
100
AcDbCircle
 10
-0.235
 20
0.0
 30
0.0
 40
0.26
  0
ENDBLK
  5
158
330
154
100
AcDbEntity
  8
0
100
AcDbBlockEnd
  0
BLOCK
  5
15C
330
159
100
AcDbEntity
  8
0
100
AcDbBlockBegin
  2
CDWK_PTTYP46
 70
     0
 10
0.0
 20
0.0
 30
0.0
  3
CDWK_PTTYP46
  1

  0
ELLIPSE
  5
15A
330
159
100
AcDbEntity
  8
0
  6
Continuous
 62
     0
370
    -2
390
5F
100
AcDbEllipse
 10
0.0
 20
0.0
 30
0.0
 11
0.5
 21
0.0
 31
0.0
210
0.0
220
0.0
230
1.0
 40
0.82
 41
0.0
 42
6.283185307179586
  0
CIRCLE
  5
15B
330
159
100
AcDbEntity
  8
0
  6
Continuous
 62
     0
370
    -2
390
5F
100
AcDbCircle
 10
0.0
 20
0.15
 30
0.0
 40
0.26
  0
ENDBLK
  5
15D
330
159
100
AcDbEntity
  8
0
100
AcDbBlockEnd
  0
BLOCK
  5
164
330
15E
100
AcDbEntity
  8
0
100
AcDbBlockBegin
  2
CDWK_PTTYP47
 70
     0
 10
0.0
 20
0.0
 30
0.0
  3
CDWK_PTTYP47
  1

  0
LINE
  5
15F
330
15E
100
AcDbEntity
  8
0
  6
Continuous
 62
     0
370
    -2
390
5F
100
AcDbLine
 10
-0.5
 20
0.166
 30
0.0
 11
0.5
 21
0.166
 31
0.0
  0
LINE
  5
160
330
15E
100
AcDbEntity
  8
0
  6
Continuous
 62
     0
370
    -2
390
5F
100
AcDbLine
 10
0.5
 20
0.166
 30
0.0
 11
0.5
 21
-0.166
 31
0.0
  0
LINE
  5
161
330
15E
100
AcDbEntity
  8
0
  6
Continuous
 62
     0
370
    -2
390
5F
100
AcDbLine
 10
0.5
 20
-0.166
 30
0.0
 11
-0.5
 21
-0.166
 31
0.0
  0
LINE
  5
162
330
15E
100
AcDbEntity
  8
0
  6
Continuous
 62
     0
370
    -2
390
5F
100
AcDbLine
 10
-0.5
 20
-0.166
 30
0.0
 11
-0.5
 21
0.166
 31
0.0
  0
CIRCLE
  5
163
330
15E
100
AcDbEntity
  8
0
  6
Continuous
 62
     0
370
    -2
390
5F
100
AcDbCircle
 10
0.0
 20
-0.313
 30
0.0
 40
0.4
  0
ENDBLK
  5
165
330
15E
100
AcDbEntity
  8
0
100
AcDbBlockEnd
  0
BLOCK
  5
16A
330
167
100
AcDbEntity
  8
0
100
AcDbBlockBegin
  2
CDWK_PTTYP48
 70
     0
 10
0.0
 20
0.0
 30
0.0
  3
CDWK_PTTYP48
  1

  0
CIRCLE
  5
168
330
167
100
AcDbEntity
  8
0
  6
CADWORK_3
 62
     0
 48
0.1
370
    -2
390
5F
100
AcDbCircle
 10
0.0
 20
0.0
 30
0.0
 40
0.5
  0
CIRCLE
  5
169
330
167
100
AcDbEntity
  8
0
  6
Continuous
 62
     0
370
    -2
390
5F
100
AcDbCircle
 10
0.0
 20
0.0
 30
0.0
 40
0.25
  0
ENDBLK
  5
16B
330
167
100
AcDbEntity
  8
0
100
AcDbBlockEnd
  0
BLOCK
  5
171
330
16C
100
AcDbEntity
  8
0
100
AcDbBlockBegin
  2
CDWK_PTTYP49
 70
     0
 10
0.0
 20
0.0
 30
0.0
  3
CDWK_PTTYP49
  1

  0
LINE
  5
16D
330
16C
100
AcDbEntity
  8
0
  6
Continuous
 62
     0
370
    -2
390
5F
100
AcDbLine
 10
-0.5
 20
0.166
 30
0.0
 11
0.5
 21
0.166
 31
0.0
  0
LINE
  5
16E
330
16C
100
AcDbEntity
  8
0
  6
Continuous
 62
     0
370
    -2
390
5F
100
AcDbLine
 10
0.5
 20
0.166
 30
0.0
 11
0.5
 21
-0.166
 31
0.0
  0
LINE
  5
16F
330
16C
100
AcDbEntity
  8
0
  6
Continuous
 62
     0
370
    -2
390
5F
100
AcDbLine
 10
0.5
 20
-0.166
 30
0.0
 11
-0.5
 21
-0.166
 31
0.0
  0
LINE
  5
170
330
16C
100
AcDbEntity
  8
0
  6
Continuous
 62
     0
370
    -2
390
5F
100
AcDbLine
 10
-0.5
 20
-0.166
 30
0.0
 11
-0.5
 21
0.166
 31
0.0
  0
ENDBLK
  5
172
330
16C
100
AcDbEntity
  8
0
100
AcDbBlockEnd
  0
BLOCK
  5
17B
330
173
100
AcDbEntity
  8
0
100
AcDbBlockBegin
  2
CDWK_PTTYP50
 70
     0
 10
0.0
 20
0.0
 30
0.0
  3
CDWK_PTTYP50
  1

  0
LINE
  5
174
330
173
100
AcDbEntity
  8
0
  6
Continuous
 62
     0
370
    -2
390
5F
100
AcDbLine
 10
-0.5
 20
0.166
 30
0.0
 11
0.5
 21
0.166
 31
0.0
  0
LINE
  5
175
330
173
100
AcDbEntity
  8
0
  6
Continuous
 62
     0
370
    -2
390
5F
100
AcDbLine
 10
0.5
 20
0.166
 30
0.0
 11
0.5
 21
-0.166
 31
0.0
  0
LINE
  5
176
330
173
100
AcDbEntity
  8
0
  6
Continuous
 62
     0
370
    -2
390
5F
100
AcDbLine
 10
0.5
 20
-0.166
 30
0.0
 11
-0.5
 21
-0.166
 31
0.0
  0
LINE
  5
177
330
173
100
AcDbEntity
  8
0
  6
Continuous
 62
     0
370
    -2
390
5F
100
AcDbLine
 10
-0.5
 20
-0.166
 30
0.0
 11
-0.5
 21
0.166
 31
0.0
  0
LINE
  5
178
330
173
100
AcDbEntity
  8
0
  6
Continuous
 62
     0
370
    -2
390
5F
100
AcDbLine
 10
-0.25
 20
-0.166
 30
0.0
 11
-0.25
 21
0.166
 31
0.0
  0
LINE
  5
179
330
173
100
AcDbEntity
  8
0
  6
Continuous
 62
     0
370
    -2
390
5F
100
AcDbLine
 10
0.0
 20
-0.166
 30
0.0
 11
0.0
 21
0.166
 31
0.0
  0
LINE
  5
17A
330
173
100
AcDbEntity
  8
0
  6
Continuous
 62
     0
370
    -2
390
5F
100
AcDbLine
 10
0.25
 20
-0.166
 30
0.0
 11
0.25
 21
0.166
 31
0.0
  0
ENDBLK
  5
17C
330
173
100
AcDbEntity
  8
0
100
AcDbBlockEnd
  0
BLOCK
  5
180
330
17D
100
AcDbEntity
  8
0
100
AcDbBlockBegin
  2
CDWK_PTTYP51
 70
     0
 10
0.0
 20
0.0
 30
0.0
  3
CDWK_PTTYP51
  1

  0
SPLINE
  5
17E
330
17D
100
AcDbEntity
  8
0
  6
Continuous
 62
     0
370
    -2
390
5F
100
AcDbSpline
210
0.0
220
0.0
230
1.0
 70
  1064
 71
     3
 72
    12
 73
     8
 74
     6
 42
0.0000000001
 43
0.0000000001
 44
0.0000000001
 40
0.0
 40
0.0
 40
0.0
 40
0.0
 40
0.1690118339052032
 40
0.5175774661755118
 40
0.8011704844252565
 40
0.9154070810132151
 40
0.975822310881188
 40
0.975822310881188
 40
0.975822310881188
 40
0.975822310881188
 10
-0.5
 20
-0.077
 30
0.0
 10
-0.443824324006723
 20
-0.0900581618560981
 30
0.0
 10
-0.2717933876546281
 20
-0.1300471387828842
 30
0.0
 10
-0.0276699186086479
 20
-0.0006977790990417
 30
0.0
 10
0.2303349729129116
 20
0.0817803270207037
 30
0.0
 10
0.3686157174766292
 20
0.0066250198607167
 30
0.0
 10
0.4216533294581816
 20
-0.0168719667726145
 30
0.0
 10
0.44
 20
-0.025
 30
0.0
 11
-0.5
 21
-0.077
 31
0.0
 11
-0.333
 21
-0.103
 31
0.0
 11
0.0
 21
0.0
 31
0.0
 11
0.28
 21
0.045
 31
0.0
 11
0.385
 21
0.0
 31
0.0
 11
0.44
 21
-0.025
 31
0.0
  0
HATCH
  5
17F
330
17D
100
AcDbEntity
  8
0
  6
Continuous
 62
     0
370
    -2
390
5F
100
AcDbHatch
 10
0.0
 20
0.0
 30
0.0
210
0.0
220
0.0
230
1.0
  2
SOLID
 70
     1
 71
     0
 91
        1
 92
        3
 72
     0
 73
     1
 93
        3
 10
0.365
 20
-0.05
 10
0.5
 20
-0.042
 10
0.395
 20
0.045
 97
        0
 75
     0
 76
     1
 98
        0
  0
ENDBLK
  5
181
330
17D
100
AcDbEntity
  8
0
100
AcDbBlockEnd
  0
BLOCK
  5
186
330
182
100
AcDbEntity
  8
0
100
AcDbBlockBegin
  2
CDWK_PTTYP52
 70
     0
 10
0.0
 20
0.0
 30
0.0
  3
CDWK_PTTYP52
  1

  0
LINE
  5
183
330
182
100
AcDbEntity
  8
0
  6
Continuous
 62
     0
370
    -2
390
5F
100
AcDbLine
 10
-0.5
 20
-0.289
 30
0.0
 11
0.5
 21
-0.289
 31
0.0
  0
LINE
  5
184
330
182
100
AcDbEntity
  8
0
  6
Continuous
 62
     0
370
    -2
390
5F
100
AcDbLine
 10
0.5
 20
-0.289
 30
0.0
 11
0.0
 21
0.577
 31
0.0
  0
LINE
  5
185
330
182
100
AcDbEntity
  8
0
  6
Continuous
 62
     0
370
    -2
390
5F
100
AcDbLine
 10
0.0
 20
0.577
 30
0.0
 11
-0.5
 21
-0.289
 31
0.0
  0
ENDBLK
  5
187
330
182
100
AcDbEntity
  8
0
100
AcDbBlockEnd
  0
BLOCK
  5
18D
330
188
100
AcDbEntity
  8
0
100
AcDbBlockBegin
  2
cw-dimension-symbol1
 70
     0
 10
0.0
 20
0.0
 30
0.0
  3
cw-dimension-symbol1
  1

  0
LINE
  5
189
330
188
100
AcDbEntity
  8
0
  6
Continuous
 62
     0
370
    -2
390
5F
100
AcDbLine
 10
0.0
 20
0.0
 30
0.0
 11
-1.0
 21
0.25
 31
0.0
  0
LINE
  5
18A
330
188
100
AcDbEntity
  8
0
  6
Continuous
 62
     0
370
    -2
390
5F
100
AcDbLine
 10
0.0
 20
0.0
 30
0.0
 11
-1.0
 21
-0.25
 31
0.0
  0
LINE
  5
18B
330
188
100
AcDbEntity
  8
0
  6
Continuous
 62
     0
370
    -2
390
5F
100
AcDbLine
 10
-1.0
 20
0.25
 30
0.0
 11
-1.0
 21
-0.25
 31
0.0
  0
LINE
  5
18C
330
188
100
AcDbEntity
  8
0
  6
Continuous
 62
     0
370
    -2
390
5F
100
AcDbLine
 10
0.0
 20
0.0
 30
0.0
 11
-1.0
 21
0.0
 31
0.0
  0
ENDBLK
  5
18E
330
188
100
AcDbEntity
  8
0
100
AcDbBlockEnd
  0
BLOCK
  5
192
330
18F
100
AcDbEntity
  8
0
100
AcDbBlockBegin
  2
cw-dimension-symbol2
 70
     0
 10
0.0
 20
0.0
 30
0.0
  3
cw-dimension-symbol2
  1

  0
LINE
  5
190
330
18F
100
AcDbEntity
  8
0
  6
Continuous
 62
     0
370
    -2
390
5F
100
AcDbLine
 10
-1.0
 20
0.0
 30
0.0
 11
1.0
 21
0.0
 31
0.0
  0
LINE
  5
191
330
18F
100
AcDbEntity
  8
0
  6
Continuous
 62
     0
370
    -2
390
5F
100
AcDbLine
 10
-0.5
 20
-0.5
 30
0.0
 11
0.5
 21
0.5
 31
0.0
  0
ENDBLK
  5
193
330
18F
100
AcDbEntity
  8
0
100
AcDbBlockEnd
  0
BLOCK
  5
197
330
194
100
AcDbEntity
  8
0
100
AcDbBlockBegin
  2
cw-dimension-symbol3
 70
     0
 10
0.0
 20
0.0
 30
0.0
  3
cw-dimension-symbol3
  1

  0
LINE
  5
195
330
194
100
AcDbEntity
  8
0
  6
Continuous
 62
     0
370
    -2
390
5F
100
AcDbLine
 10
-1.0
 20
0.0
 30
0.0
 11
1.0
 21
0.0
 31
0.0
  0
CIRCLE
  5
196
330
194
100
AcDbEntity
  8
0
  6
Continuous
 62
     0
370
    -2
390
5F
100
AcDbCircle
 10
0.0
 20
0.0
 30
0.0
 40
0.25
  0
ENDBLK
  5
198
330
194
100
AcDbEntity
  8
0
100
AcDbBlockEnd
  0
BLOCK
  5
19E
330
199
100
AcDbEntity
  8
0
100
AcDbBlockBegin
  2
cw-dimension-symbol5
 70
     0
 10
0.0
 20
0.0
 30
0.0
  3
cw-dimension-symbol5
  1

  0
HATCH
  5
19A
330
199
100
AcDbEntity
  8
0
  6
Continuous
 62
     0
370
    -2
390
5F
100
AcDbHatch
 10
0.0
 20
0.0
 30
0.0
210
0.0
220
0.0
230
1.0
  2
SOLID
 70
     1
 71
     0
 91
        1
 92
        3
 72
     0
 73
     1
 93
        3
 10
0.0
 20
0.0
 10
-1.0
 20
0.25
 10
-1.0
 20
-0.25
 97
        0
 75
     0
 76
     1
 98
        0
  0
LINE
  5
19B
330
199
100
AcDbEntity
  8
0
  6
Continuous
 62
     0
370
    -2
390
5F
100
AcDbLine
 10
0.0
 20
0.0
 30
0.0
 11
-1.0
 21
0.25
 31
0.0
  0
LINE
  5
19C
330
199
100
AcDbEntity
  8
0
  6
Continuous
 62
     0
370
    -2
390
5F
100
AcDbLine
 10
-1.0
 20
0.25
 30
0.0
 11
-1.0
 21
-0.25
 31
0.0
  0
LINE
  5
19D
330
199
100
AcDbEntity
  8
0
  6
Continuous
 62
     0
370
    -2
390
5F
100
AcDbLine
 10
-1.0
 20
-0.25
 30
0.0
 11
0.0
 21
0.0
 31
0.0
  0
ENDBLK
  5
19F
330
199
100
AcDbEntity
  8
0
100
AcDbBlockEnd
  0
BLOCK
  5
1A4
330
1A0
100
AcDbEntity
  8
0
100
AcDbBlockBegin
  2
cw-dimension-symbol6
 70
     0
 10
0.0
 20
0.0
 30
0.0
  3
cw-dimension-symbol6
  1

  0
LINE
  5
1A1
330
1A0
100
AcDbEntity
  8
0
  6
Continuous
 62
     0
370
    -2
390
5F
100
AcDbLine
 10
0.0
 20
0.0
 30
0.0
 11
-1.0
 21
0.25
 31
0.0
  0
LINE
  5
1A2
330
1A0
100
AcDbEntity
  8
0
  6
Continuous
 62
     0
370
    -2
390
5F
100
AcDbLine
 10
0.0
 20
0.0
 30
0.0
 11
-1.0
 21
-0.25
 31
0.0
  0
LINE
  5
1A3
330
1A0
100
AcDbEntity
  8
0
  6
Continuous
 62
     0
370
    -2
390
5F
100
AcDbLine
 10
0.0
 20
0.0
 30
0.0
 11
-1.0
 21
0.0
 31
0.0
  0
ENDBLK
  5
1A5
330
1A0
100
AcDbEntity
  8
0
100
AcDbBlockEnd
  0
BLOCK
  5
1AA
330
1A6
100
AcDbEntity
  8
0
100
AcDbBlockBegin
  2
cw-dimension-symbol11
 70
     0
 10
0.0
 20
0.0
 30
0.0
  3
cw-dimension-symbol11
  1

  0
LINE
  5
1A7
330
1A6
100
AcDbEntity
  8
0
  6
Continuous
 62
     0
370
    -2
390
5F
100
AcDbLine
 10
-1.0
 20
1.0
 30
0.0
 11
1.0
 21
1.0
 31
0.0
  0
LINE
  5
1A8
330
1A6
100
AcDbEntity
  8
0
  6
Continuous
 62
     0
370
    -2
390
5F
100
AcDbLine
 10
0.0
 20
0.0
 30
0.0
 11
-1.0
 21
1.0
 31
0.0
  0
LINE
  5
1A9
330
1A6
100
AcDbEntity
  8
0
  6
Continuous
 62
     0
370
    -2
390
5F
100
AcDbLine
 10
0.0
 20
0.0
 30
0.0
 11
1.0
 21
1.0
 31
0.0
  0
ENDBLK
  5
1AB
330
1A6
100
AcDbEntity
  8
0
100
AcDbBlockEnd
  0
BLOCK
  5
1B0
330
1AC
100
AcDbEntity
  8
0
100
AcDbBlockBegin
  2
cw-dimension-symbol13
 70
     0
 10
0.0
 20
0.0
 30
0.0
  3
cw-dimension-symbol13
  1

  0
LINE
  5
1AD
330
1AC
100
AcDbEntity
  8
0
  6
Continuous
 62
     0
370
    -2
390
5F
100
AcDbLine
 10
-1.0
 20
-1.0
 30
0.0
 11
1.0
 21
-1.0
 31
0.0
  0
LINE
  5
1AE
330
1AC
100
AcDbEntity
  8
0
  6
Continuous
 62
     0
370
    -2
390
5F
100
AcDbLine
 10
0.0
 20
0.0
 30
0.0
 11
-1.0
 21
-1.0
 31
0.0
  0
LINE
  5
1AF
330
1AC
100
AcDbEntity
  8
0
  6
Continuous
 62
     0
370
    -2
390
5F
100
AcDbLine
 10
0.0
 20
0.0
 30
0.0
 11
1.0
 21
-1.0
 31
0.0
  0
ENDBLK
  5
1B1
330
1AC
100
AcDbEntity
  8
0
100
AcDbBlockEnd
  0
BLOCK
  5
1B7
330
1B2
100
AcDbEntity
  8
0
100
AcDbBlockBegin
  2
cw-dimension-symbol15
 70
     0
 10
0.0
 20
0.0
 30
0.0
  3
cw-dimension-symbol15
  1

  0
HATCH
  5
1B3
330
1B2
100
AcDbEntity
  8
0
  6
Continuous
 62
     0
370
    -2
390
5F
100
AcDbHatch
 10
0.0
 20
0.0
 30
0.0
210
0.0
220
0.0
230
1.0
  2
SOLID
 70
     1
 71
     0
 91
        1
 92
        3
 72
     0
 73
     1
 93
        3
 10
0.0
 20
0.0
 10
-1.0
 20
1.0
 10
1.0
 20
1.0
 97
        0
 75
     0
 76
     1
 98
        0
  0
LINE
  5
1B4
330
1B2
100
AcDbEntity
  8
0
  6
Continuous
 62
     0
370
    -2
390
5F
100
AcDbLine
 10
0.0
 20
0.0
 30
0.0
 11
-1.0
 21
1.0
 31
0.0
  0
LINE
  5
1B5
330
1B2
100
AcDbEntity
  8
0
  6
Continuous
 62
     0
370
    -2
390
5F
100
AcDbLine
 10
-1.0
 20
1.0
 30
0.0
 11
1.0
 21
1.0
 31
0.0
  0
LINE
  5
1B6
330
1B2
100
AcDbEntity
  8
0
  6
Continuous
 62
     0
370
    -2
390
5F
100
AcDbLine
 10
1.0
 20
1.0
 30
0.0
 11
0.0
 21
0.0
 31
0.0
  0
ENDBLK
  5
1B8
330
1B2
100
AcDbEntity
  8
0
100
AcDbBlockEnd
  0
BLOCK
  5
1BE
330
1B9
100
AcDbEntity
  8
0
100
AcDbBlockBegin
  2
cw-dimension-symbol16
 70
     0
 10
0.0
 20
0.0
 30
0.0
  3
cw-dimension-symbol16
  1

  0
HATCH
  5
1BA
330
1B9
100
AcDbEntity
  8
0
  6
Continuous
 62
     0
370
    -2
390
5F
100
AcDbHatch
 10
0.0
 20
0.0
 30
0.0
210
0.0
220
0.0
230
1.0
  2
SOLID
 70
     1
 71
     0
 91
        1
 92
        3
 72
     0
 73
     1
 93
        3
 10
0.0
 20
0.0
 10
-1.0
 20
-1.0
 10
1.0
 20
-1.0
 97
        0
 75
     0
 76
     1
 98
        0
  0
LINE
  5
1BB
330
1B9
100
AcDbEntity
  8
0
  6
Continuous
 62
     0
370
    -2
390
5F
100
AcDbLine
 10
0.0
 20
0.0
 30
0.0
 11
-1.0
 21
-1.0
 31
0.0
  0
LINE
  5
1BC
330
1B9
100
AcDbEntity
  8
0
  6
Continuous
 62
     0
370
    -2
390
5F
100
AcDbLine
 10
-1.0
 20
-1.0
 30
0.0
 11
1.0
 21
-1.0
 31
0.0
  0
LINE
  5
1BD
330
1B9
100
AcDbEntity
  8
0
  6
Continuous
 62
     0
370
    -2
390
5F
100
AcDbLine
 10
1.0
 20
-1.0
 30
0.0
 11
0.0
 21
0.0
 31
0.0
  0
ENDBLK
  5
1BF
330
1B9
100
AcDbEntity
  8
0
100
AcDbBlockEnd
  0
BLOCK
  5
1C5
330
1C0
100
AcDbEntity
  8
0
100
AcDbBlockBegin
  2
cw-dimension-symbol17
 70
     0
 10
0.0
 20
0.0
 30
0.0
  3
cw-dimension-symbol17
  1

  0
LINE
  5
1C1
330
1C0
100
AcDbEntity
  8
0
  6
Continuous
 62
     0
370
    -2
390
5F
100
AcDbLine
 10
0.0
 20
0.0
 30
0.0
 11
1.0
 21
1.0
 31
0.0
  0
LINE
  5
1C2
330
1C0
100
AcDbEntity
  8
0
  6
Continuous
 62
     0
370
    -2
390
5F
100
AcDbLine
 10
1.0
 20
1.0
 30
0.0
 11
-1.0
 21
1.0
 31
0.0
  0
LINE
  5
1C3
330
1C0
100
AcDbEntity
  8
0
  6
Continuous
 62
     0
370
    -2
390
5F
100
AcDbLine
 10
-1.0
 20
1.0
 30
0.0
 11
0.0
 21
0.0
 31
0.0
  0
HATCH
  5
1C4
330
1C0
100
AcDbEntity
  8
0
  6
Continuous
 62
     0
370
    -2
390
5F
100
AcDbHatch
 10
0.0
 20
0.0
 30
0.0
210
0.0
220
0.0
230
1.0
  2
SOLID
 70
     1
 71
     0
 91
        1
 92
        3
 72
     0
 73
     1
 93
        3
 10
0.0
 20
0.0
 10
-1.0
 20
1.0
 10
0.0
 20
1.0
 97
        0
 75
     0
 76
     1
 98
        0
  0
ENDBLK
  5
1C6
330
1C0
100
AcDbEntity
  8
0
100
AcDbBlockEnd
  0
BLOCK
  5
1CC
330
1C7
100
AcDbEntity
  8
0
100
AcDbBlockBegin
  2
cw-dimension-symbol18
 70
     0
 10
0.0
 20
0.0
 30
0.0
  3
cw-dimension-symbol18
  1

  0
LINE
  5
1C8
330
1C7
100
AcDbEntity
  8
0
  6
Continuous
 62
     0
370
    -2
390
5F
100
AcDbLine
 10
0.0
 20
0.0
 30
0.0
 11
1.0
 21
-1.0
 31
0.0
  0
LINE
  5
1C9
330
1C7
100
AcDbEntity
  8
0
  6
Continuous
 62
     0
370
    -2
390
5F
100
AcDbLine
 10
1.0
 20
-1.0
 30
0.0
 11
-1.0
 21
-1.0
 31
0.0
  0
LINE
  5
1CA
330
1C7
100
AcDbEntity
  8
0
  6
Continuous
 62
     0
370
    -2
390
5F
100
AcDbLine
 10
-1.0
 20
-1.0
 30
0.0
 11
0.0
 21
0.0
 31
0.0
  0
HATCH
  5
1CB
330
1C7
100
AcDbEntity
  8
0
  6
Continuous
 62
     0
370
    -2
390
5F
100
AcDbHatch
 10
0.0
 20
0.0
 30
0.0
210
0.0
220
0.0
230
1.0
  2
SOLID
 70
     1
 71
     0
 91
        1
 92
        3
 72
     0
 73
     1
 93
        3
 10
0.0
 20
0.0
 10
-1.0
 20
-1.0
 10
0.0
 20
-1.0
 97
        0
 75
     0
 76
     1
 98
        0
  0
ENDBLK
  5
1CD
330
1C7
100
AcDbEntity
  8
0
100
AcDbBlockEnd
  0
BLOCK
  5
1CF
330
1CE
100
AcDbEntity
  8
0
100
AcDbBlockBegin
  2
cw-dimension-symbol19
 70
     0
 10
0.0
 20
0.0
 30
0.0
  3
cw-dimension-symbol19
  1

  0
ENDBLK
  5
1D0
330
1CE
100
AcDbEntity
  8
0
100
AcDbBlockEnd
  0
BLOCK
  5
1D6
330
1D1
100
AcDbEntity
  8
0
100
AcDbBlockBegin
  2
cw-dimension-symbol20
 70
     0
 10
0.0
 20
0.0
 30
0.0
  3
cw-dimension-symbol20
  1

  0
LINE
  5
1D2
330
1D1
100
AcDbEntity
  8
0
  6
Continuous
 62
     0
370
    -2
390
5F
100
AcDbLine
 10
0.0
 20
0.0
 30
0.0
 11
0.0
 21
2.0
 31
0.0
  0
LINE
  5
1D3
330
1D1
100
AcDbEntity
  8
0
  6
Continuous
 62
     0
370
    -2
390
5F
100
AcDbLine
 10
0.0
 20
0.0
 30
0.0
 11
-1.0
 21
0.33
 31
0.0
  0
LINE
  5
1D4
330
1D1
100
AcDbEntity
  8
0
  6
Continuous
 62
     0
370
    -2
390
5F
100
AcDbLine
 10
0.0
 20
0.0
 30
0.0
 11
1.0
 21
0.33
 31
0.0
  0
LINE
  5
1D5
330
1D1
100
AcDbEntity
  8
0
  6
Continuous
 62
     0
370
    -2
390
5F
100
AcDbLine
 10
0.0
 20
2.0
 30
0.0
 11
4.15
 21
2.0
 31
0.0
  0
ENDBLK
  5
1D7
330
1D1
100
AcDbEntity
  8
0
100
AcDbBlockEnd
  0
BLOCK
  5
1DD
330
1D8
100
AcDbEntity
  8
0
100
AcDbBlockBegin
  2
cw-dimension-symbol21
 70
     0
 10
0.0
 20
0.0
 30
0.0
  3
cw-dimension-symbol21
  1

  0
LINE
  5
1D9
330
1D8
100
AcDbEntity
  8
0
  6
Continuous
 62
     0
370
    -2
390
5F
100
AcDbLine
 10
0.0
 20
0.0
 30
0.0
 11
0.0
 21
-2.0
 31
0.0
  0
LINE
  5
1DA
330
1D8
100
AcDbEntity
  8
0
  6
Continuous
 62
     0
370
    -2
390
5F
100
AcDbLine
 10
0.0
 20
0.0
 30
0.0
 11
-1.0
 21
-0.33
 31
0.0
  0
LINE
  5
1DB
330
1D8
100
AcDbEntity
  8
0
  6
Continuous
 62
     0
370
    -2
390
5F
100
AcDbLine
 10
0.0
 20
0.0
 30
0.0
 11
1.0
 21
-0.33
 31
0.0
  0
LINE
  5
1DC
330
1D8
100
AcDbEntity
  8
0
  6
Continuous
 62
     0
370
    -2
390
5F
100
AcDbLine
 10
0.0
 20
-2.0
 30
0.0
 11
4.15
 21
-2.0
 31
0.0
  0
ENDBLK
  5
1DE
330
1D8
100
AcDbEntity
  8
0
100
AcDbBlockEnd
  0
BLOCK
  5
20F
330
1DF
100
AcDbEntity
  8
0
100
AcDbBlockBegin
  2
cw-line-extremity0
 70
     0
 10
0.0
 20
0.0
 30
0.0
  3
cw-line-extremity0
  1

  0
LINE
  5
1E0
330
1DF
100
AcDbEntity
  8
0
  6
Continuous
 62
     0
370
    -2
390
5F
100
AcDbLine
 10
0.0
 20
0.0
 30
0.0
 11
10.0
 21
2.5
 31
0.0
  0
LINE
  5
1E1
330
1DF
100
AcDbEntity
  8
0
  6
Continuous
 62
     0
370
    -2
390
5F
100
AcDbLine
 10
0.0
 20
0.0
 30
0.0
 11
10.0
 21
-2.5
 31
0.0
  0
LINE
  5
1E2
330
1DF
100
AcDbEntity
  8
0
  6
Continuous
 62
     0
370
    -2
390
5F
100
AcDbLine
 10
10.0
 20
2.5
 30
0.0
 11
10.0
 21
-2.5
 31
0.0
  0
ENDBLK
  5
210
330
1DF
100
AcDbEntity
  8
0
100
AcDbBlockEnd
  0
BLOCK
  5
20D
330
1E3
100
AcDbEntity
  8
0
100
AcDbBlockBegin
  2
cw-line-extremity2
 70
     0
 10
0.0
 20
0.0
 30
0.0
  3
cw-line-extremity2
  1

  0
HATCH
  5
1E4
330
1E3
100
AcDbEntity
  8
0
  6
Continuous
 62
     0
370
     0
390
5F
100
AcDbHatch
 10
0.0
 20
0.0
 30
0.0
210
0.0
220
0.0
230
1.0
  2
SOLID
 70
     1
 71
     0
 91
        1
 92
        3
 72
     0
 73
     1
 93
        3
 10
0.0
 20
0.0
 10
10.0
 20
2.5
 10
10.0
 20
-2.5
 97
        0
 75
     0
 76
     1
 98
        0
  0
LINE
  5
1E5
330
1E3
100
AcDbEntity
  8
0
  6
Continuous
 62
     0
370
    -2
390
5F
100
AcDbLine
 10
0.0
 20
0.0
 30
0.0
 11
10.0
 21
2.5
 31
0.0
  0
LINE
  5
1E6
330
1E3
100
AcDbEntity
  8
0
  6
Continuous
 62
     0
370
    -2
390
5F
100
AcDbLine
 10
10.0
 20
2.5
 30
0.0
 11
10.0
 21
-2.5
 31
0.0
  0
LINE
  5
1E7
330
1E3
100
AcDbEntity
  8
0
  6
Continuous
 62
     0
370
    -2
390
5F
100
AcDbLine
 10
10.0
 20
-2.5
 30
0.0
 11
0.0
 21
0.0
 31
0.0
  0
ENDBLK
  5
20E
330
1E3
100
AcDbEntity
  8
0
100
AcDbBlockEnd
  0
BLOCK
  5
20B
330
1E8
100
AcDbEntity
  8
0
100
AcDbBlockBegin
  2
cw-line-extremity3
 70
     0
 10
0.0
 20
0.0
 30
0.0
  3
cw-line-extremity3
  1

  0
HATCH
  5
1E9
330
1E8
100
AcDbEntity
  8
0
  6
Continuous
 62
     0
370
     0
390
5F
100
AcDbHatch
 10
0.0
 20
0.0
 30
0.0
210
0.0
220
0.0
230
1.0
  2
SOLID
 70
     1
 71
     0
 91
        1
 92
        3
 72
     0
 73
     1
 93
        3
 10
0.0
 20
0.0
 10
10.0
 20
2.5
 10
10.0
 20
-2.5
 97
        0
 75
     0
 76
     1
 98
        0
  0
LINE
  5
1EA
330
1E8
100
AcDbEntity
  8
0
  6
Continuous
 62
     0
370
    -2
390
5F
100
AcDbLine
 10
0.0
 20
0.0
 30
0.0
 11
10.0
 21
2.5
 31
0.0
  0
LINE
  5
1EB
330
1E8
100
AcDbEntity
  8
0
  6
Continuous
 62
     0
370
    -2
390
5F
100
AcDbLine
 10
10.0
 20
2.5
 30
0.0
 11
10.0
 21
-2.5
 31
0.0
  0
LINE
  5
1EC
330
1E8
100
AcDbEntity
  8
0
  6
Continuous
 62
     0
370
    -2
390
5F
100
AcDbLine
 10
10.0
 20
-2.5
 30
0.0
 11
0.0
 21
0.0
 31
0.0
  0
ENDBLK
  5
20C
330
1E8
100
AcDbEntity
  8
0
100
AcDbBlockEnd
  0
BLOCK
  5
209
330
1ED
100
AcDbEntity
  8
0
100
AcDbBlockBegin
  2
cw-line-extremity301
 70
     0
 10
0.0
 20
0.0
 30
0.0
  3
cw-line-extremity301
  1

  0
LINE
  5
1EE
330
1ED
100
AcDbEntity
  8
0
  6
Continuous
 62
     0
370
    -2
390
5F
100
AcDbLine
 10
0.0
 20
6.66665
 30
0.0
 11
0.0
 21
-6.66665
 31
0.0
  0
ENDBLK
  5
20A
330
1ED
100
AcDbEntity
  8
0
100
AcDbBlockEnd
  0
BLOCK
  5
207
330
1EF
100
AcDbEntity
  8
0
100
AcDbBlockBegin
  2
cw-line-extremity4
 70
     0
 10
0.0
 20
0.0
 30
0.0
  3
cw-line-extremity4
  1

  0
HATCH
  5
1F0
330
1EF
100
AcDbEntity
  8
0
  6
Continuous
 62
     0
370
     5
390
5F
100
AcDbHatch
 10
0.0
 20
0.0
 30
0.0
210
0.0
220
0.0
230
1.0
  2
SOLID
 70
     1
 71
     0
 91
        1
 92
        1
 93
        1
 72
     2
 10
0.0
 20
0.0
 40
2.5
 50
0.0
 51
360.0
 73
     1
 97
        0
 75
     0
 76
     1
 98
        0
  0
ENDBLK
  5
208
330
1EF
100
AcDbEntity
  8
0
100
AcDbBlockEnd
  0
BLOCK
  5
205
330
1F1
100
AcDbEntity
  8
0
100
AcDbBlockBegin
  2
cw-line-extremity5
 70
     0
 10
0.0
 20
0.0
 30
0.0
  3
cw-line-extremity5
  1

  0
LINE
  5
1F2
330
1F1
100
AcDbEntity
  8
0
  6
Continuous
 62
     0
370
    -2
390
5F
100
AcDbLine
 10
0.0
 20
0.0
 30
0.0
 11
-2.5
 21
0.0
 31
0.0
  0
ENDBLK
  5
206
330
1F1
100
AcDbEntity
  8
0
100
AcDbBlockEnd
  0
BLOCK
  5
203
330
1F3
100
AcDbEntity
  8
0
100
AcDbBlockBegin
  2
cw-line-extremity6
 70
     0
 10
0.0
 20
0.0
 30
0.0
  3
cw-line-extremity6
  1

  0
LINE
  5
1F4
330
1F3
100
AcDbEntity
  8
0
  6
Continuous
 62
     0
370
    18
390
5F
100
AcDbLine
 10
0.0
 20
2.5
 30
0.0
 11
0.0
 21
-2.5
 31
0.0
  0
ENDBLK
  5
204
330
1F3
100
AcDbEntity
  8
0
100
AcDbBlockEnd
  0
BLOCK
  5
201
330
1F5
100
AcDbEntity
  8
0
100
AcDbBlockBegin
  2
cw-line-extremity9
 70
     0
 10
0.0
 20
0.0
 30
0.0
  3
cw-line-extremity9
  1

  0
LINE
  5
1F6
330
1F5
100
AcDbEntity
  8
0
  6
Continuous
 62
     0
370
    18
390
5F
100
AcDbLine
 10
-2.5
 20
-2.5
 30
0.0
 11
2.5
 21
2.5
 31
0.0
  0
ENDBLK
  5
202
330
1F5
100
AcDbEntity
  8
0
100
AcDbBlockEnd
  0
BLOCK
  5
1FF
330
1F7
100
AcDbEntity
  8
0
100
AcDbBlockBegin
  2
cw-line-extremity10
 70
     0
 10
0.0
 20
0.0
 30
0.0
  3
cw-line-extremity10
  1

  0
CIRCLE
  5
1F8
330
1F7
100
AcDbEntity
  8
0
  6
Continuous
 62
     0
370
    -2
390
5F
100
AcDbCircle
 10
0.0
 20
0.0
 30
0.0
 40
2.5
  0
ENDBLK
  5
200
330
1F7
100
AcDbEntity
  8
0
100
AcDbBlockEnd
  0
BLOCK
  5
1FD
330
1F9
100
AcDbEntity
  8
0
100
AcDbBlockBegin
  2
cw-line-extremity1
 70
     0
 10
0.0
 20
0.0
 30
0.0
  3
cw-line-extremity1
  1

  0
LINE
  5
1FA
330
1F9
100
AcDbEntity
  8
0
  6
Continuous
 62
     0
370
    -2
390
5F
100
AcDbLine
 10
0.0
 20
0.0
 30
0.0
 11
0.0
 21
2.5
 31
0.0
  0
LINE
  5
1FB
330
1F9
100
AcDbEntity
  8
0
  6
Continuous
 62
     0
370
    -2
390
5F
100
AcDbLine
 10
0.0
 20
2.5
 30
0.0
 11
1.25
 21
3.75
 31
0.0
  0
LINE
  5
1FC
330
1F9
100
AcDbEntity
  8
0
  6
Continuous
 62
     0
370
    -2
390
5F
100
AcDbLine
 10
1.25
 20
3.75
 30
0.0
 11
3.75
 21
3.75
 31
0.0
  0
ENDBLK
  5
1FE
330
1F9
100
AcDbEntity
  8
0
100
AcDbBlockEnd
  0
BLOCK
  5
1C
330
1B
100
AcDbEntity
  8
0
100
AcDbBlockBegin
  2
*Paper_Space69
 70
     0
 10
0.0
 20
0.0
 30
0.0
  3
*Paper_Space69
  1

  0
ENDBLK
  5
1D
330
1B
100
AcDbEntity
  8
0
100
AcDbBlockEnd
  0
BLOCK
  5
31A
330
319
100
AcDbEntity
  8
0
100
AcDbBlockBegin
  2
*D70
 70
     1
 10
0.0
 20
0.0
 30
0.0
  3
*D70
  1

  0
LINE
  5
31C
330
319
100
AcDbEntity
  8
Ech.1_5
  6
Continuous
 62
     0
370
    -2
100
AcDbLine
 10
17068.054234642
 20
-13610.37612343568
 30
0.0
 11
17077.28067751193
 21
-13610.37612343568
 31
0.0
  0
LINE
  5
31D
330
319
100
AcDbEntity
  8
Ech.1_5
  6
Continuous
 62
     0
370
    -2
100
AcDbLine
 10
17114.11873639318
 20
-13410.37543756619
 30
0.0
 11
17067.28067751193
 21
-13410.37543756619
 31
0.0
  0
LINE
  5
31E
330
319
100
AcDbEntity
  8
Ech.1_5
  6
Continuous
 62
     0
370
    -2
100
AcDbLine
 10
17072.28067751193
 20
-13605.37612343568
 30
0.0
 11
17072.28067751193
 21
-13415.37543756619
 31
0.0
  0
INSERT
  5
31F
330
319
100
AcDbEntity
  8
Ech.1_5
 62
     0
370
    -2
100
AcDbBlockReference
  2
cw-dimension-symbol2
 10
17072.28067751193
 20
-13610.37612343568
 30
0.0
 41
5.0
 42
5.0
 43
5.0
 50
270.0
  0
INSERT
  5
320
330
319
100
AcDbEntity
  8
Ech.1_5
 62
     0
370
    -2
100
AcDbBlockReference
  2
cw-dimension-symbol2
 10
17072.28067751193
 20
-13410.37543756619
 30
0.0
 41
5.0
 42
5.0
 43
5.0
 50
90.0
  0
MTEXT
  5
321
330
319
100
AcDbEntity
  8
Ech.1_5
  6
Continuous
 62
   190
370
    15
390
5F
100
AcDbMText
 10
17061.03067751193
 20
-13517.01105538802
 30
0.0
 40
12.5
 41
0.0
 46
0.0
 71
     5
 72
     1
  1
min 200
  7
arial-z
 11
6.123233995736766E-17
 21
1.0
 31
0.0
 73
     1
 44
1.0
  0
POINT
  5
322
330
319
100
AcDbEntity
  8
Defpoints
 62
     0
100
AcDbPoint
 10
17068.054234642
 20
-13610.37612343568
 30
0.0
  0
POINT
  5
323
330
319
100
AcDbEntity
  8
Defpoints
 62
     0
100
AcDbPoint
 10
17114.11873639318
 20
-13410.37543756619
 30
0.0
  0
POINT
  5
324
330
319
100
AcDbEntity
  8
Defpoints
 62
     0
100
AcDbPoint
 10
17072.28067751193
 20
-13410.37543756619
 30
0.0
  0
ENDBLK
  5
31B
330
319
100
AcDbEntity
  8
0
100
AcDbBlockEnd
  0
BLOCK
  5
328
330
327
100
AcDbEntity
  8
0
100
AcDbBlockBegin
  2
*D71
 70
     1
 10
0.0
 20
0.0
 30
0.0
  3
*D71
  1

  0
LINE
  5
32A
330
327
100
AcDbEntity
  8
Ech.1_5
  6
Continuous
 62
     0
370
    -2
100
AcDbLine
 10
17026.35328724717
 20
-13610.3754334861
 30
0.0
 11
17045.95415704547
 21
-13610.3754334861
 31
0.0
  0
LINE
  5
32B
330
327
100
AcDbEntity
  8
Ech.1_5
  6
Continuous
 62
     0
370
    -2
100
AcDbLine
 10
17037.87923243757
 20
-13440.37543348479
 30
0.0
 11
17045.95415704547
 21
-13440.37543348479
 31
0.0
  0
LINE
  5
32C
330
327
100
AcDbEntity
  8
Ech.1_5
  6
Continuous
 62
     0
370
    -2
100
AcDbLine
 10
17040.95415704547
 20
-13605.3754334861
 30
0.0
 11
17040.95415704547
 21
-13445.37543348479
 31
0.0
  0
INSERT
  5
32D
330
327
100
AcDbEntity
  8
Ech.1_5
 62
     0
370
    -2
100
AcDbBlockReference
  2
cw-dimension-symbol2
 10
17040.95415704547
 20
-13610.3754334861
 30
0.0
 41
5.0
 42
5.0
 43
5.0
 50
270.0
  0
INSERT
  5
32E
330
327
100
AcDbEntity
  8
Ech.1_5
 62
     0
370
    -2
100
AcDbBlockReference
  2
cw-dimension-symbol2
 10
17040.95415704547
 20
-13440.37543348479
 30
0.0
 41
5.0
 42
5.0
 43
5.0
 50
90.0
  0
MTEXT
  5
32F
330
327
100
AcDbEntity
  8
Ech.1_5
  6
Continuous
 62
   190
370
    15
390
5F
100
AcDbMText
 10
17029.70415704547
 20
-13509.19392542116
 30
0.0
 40
12.5
 41
0.0
 46
0.0
 71
     5
 72
     1
  1
hmin*
  7
arial-z
 11
6.123233995736766E-17
 21
1.0
 31
0.0
 73
     1
 44
1.0
  0
POINT
  5
330
330
327
100
AcDbEntity
  8
Defpoints
 62
     0
100
AcDbPoint
 10
17026.35328724717
 20
-13610.3754334861
 30
0.0
  0
POINT
  5
331
330
327
100
AcDbEntity
  8
Defpoints
 62
     0
100
AcDbPoint
 10
17037.87923243757
 20
-13440.37543348479
 30
0.0
  0
POINT
  5
332
330
327
100
AcDbEntity
  8
Defpoints
 62
     0
100
AcDbPoint
 10
17040.95415704547
 20
-13440.37543348479
 30
0.0
  0
ENDBLK
  5
329
330
327
100
AcDbEntity
  8
0
100
AcDbBlockEnd
  0
BLOCK
  5
336
330
335
100
AcDbEntity
  8
0
100
AcDbBlockBegin
  2
*D72
 70
     1
 10
0.0
 20
0.0
 30
0.0
  3
*D72
  1

  0
LINE
  5
338
330
335
100
AcDbEntity
  8
Ech.1_5
  6
Continuous
 62
     0
370
    -2
100
AcDbLine
 10
17462.40549874174
 20
-13022.07158494012
 30
0.0
 11
17471.63194161168
 21
-13022.07158494012
 31
0.0
  0
LINE
  5
339
330
335
100
AcDbEntity
  8
Ech.1_5
  6
Continuous
 62
     0
370
    -2
100
AcDbLine
 10
17462.40564399077
 20
-12821.23413413122
 30
0.0
 11
17471.63194161168
 21
-12821.23413413122
 31
0.0
  0
LINE
  5
33A
330
335
100
AcDbEntity
  8
Ech.1_5
  6
Continuous
 62
     0
370
    -2
100
AcDbLine
 10
17466.63194161168
 20
-13017.07158494012
 30
0.0
 11
17466.63194161168
 21
-12826.23413413122
 31
0.0
  0
INSERT
  5
33B
330
335
100
AcDbEntity
  8
Ech.1_5
 62
     0
370
    -2
100
AcDbBlockReference
  2
cw-dimension-symbol2
 10
17466.63194161168
 20
-13022.07158494012
 30
0.0
 41
5.0
 42
5.0
 43
5.0
 50
270.0
  0
INSERT
  5
33C
330
335
100
AcDbEntity
  8
Ech.1_5
 62
     0
370
    -2
100
AcDbBlockReference
  2
cw-dimension-symbol2
 10
17466.63194161168
 20
-12821.23413413122
 30
0.0
 41
5.0
 42
5.0
 43
5.0
 50
90.0
  0
MTEXT
  5
33D
330
335
100
AcDbEntity
  8
Ech.1_5
  6
Continuous
 62
   190
370
    15
390
5F
100
AcDbMText
 10
17455.38194161168
 20
-12921.65285953567
 30
0.0
 40
12.5
 41
0.0
 46
0.0
 71
     5
 72
     1
  1
min 200
  7
arial-z
 11
6.123233995736766E-17
 21
1.0
 31
0.0
 73
     1
 44
1.0
  0
POINT
  5
33E
330
335
100
AcDbEntity
  8
Defpoints
 62
     0
100
AcDbPoint
 10
17462.40549874174
 20
-13022.07158494012
 30
0.0
  0
POINT
  5
33F
330
335
100
AcDbEntity
  8
Defpoints
 62
     0
100
AcDbPoint
 10
17462.40564399077
 20
-12821.23413413122
 30
0.0
  0
POINT
  5
340
330
335
100
AcDbEntity
  8
Defpoints
 62
     0
100
AcDbPoint
 10
17466.63194161168
 20
-12821.23413413122
 30
0.0
  0
ENDBLK
  5
337
330
335
100
AcDbEntity
  8
0
100
AcDbBlockEnd
  0
BLOCK
  5
344
330
343
100
AcDbEntity
  8
0
100
AcDbBlockBegin
  2
*D73
 70
     1
 10
0.0
 20
0.0
 30
0.0
  3
*D73
  1

  0
LINE
  5
346
330
343
100
AcDbEntity
  8
Ech.1_5
  6
Continuous
 62
     0
370
    -2
100
AcDbLine
 10
17422.97227660316
 20
-13022.07089499054
 30
0.0
 11
17442.57314640146
 21
-13022.07089499054
 31
0.0
  0
LINE
  5
347
330
343
100
AcDbEntity
  8
Ech.1_5
  6
Continuous
 62
     0
370
    -2
100
AcDbLine
 10
17434.49822179356
 20
-12852.07089498923
 30
0.0
 11
17442.57314640146
 21
-12852.07089498923
 31
0.0
  0
LINE
  5
348
330
343
100
AcDbEntity
  8
Ech.1_5
  6
Continuous
 62
     0
370
    -2
100
AcDbLine
 10
17437.57314640146
 20
-13017.07089499054
 30
0.0
 11
17437.57314640146
 21
-12857.07089498923
 31
0.0
  0
INSERT
  5
349
330
343
100
AcDbEntity
  8
Ech.1_5
 62
     0
370
    -2
100
AcDbBlockReference
  2
cw-dimension-symbol2
 10
17437.57314640146
 20
-13022.07089499054
 30
0.0
 41
5.0
 42
5.0
 43
5.0
 50
270.0
  0
INSERT
  5
34A
330
343
100
AcDbEntity
  8
Ech.1_5
 62
     0
370
    -2
100
AcDbBlockReference
  2
cw-dimension-symbol2
 10
17437.57314640146
 20
-12852.07089498923
 30
0.0
 41
5.0
 42
5.0
 43
5.0
 50
90.0
  0
MTEXT
  5
34B
330
343
100
AcDbEntity
  8
Ech.1_5
  6
Continuous
 62
   190
370
    15
390
5F
100
AcDbMText
 10
17426.32314640146
 20
-12920.8893869256
 30
0.0
 40
12.5
 41
0.0
 46
0.0
 71
     5
 72
     1
  1
hmin*
  7
arial-z
 11
6.123233995736766E-17
 21
1.0
 31
0.0
 73
     1
 44
1.0
  0
POINT
  5
34C
330
343
100
AcDbEntity
  8
Defpoints
 62
     0
100
AcDbPoint
 10
17422.97227660316
 20
-13022.07089499054
 30
0.0
  0
POINT
  5
34D
330
343
100
AcDbEntity
  8
Defpoints
 62
     0
100
AcDbPoint
 10
17434.49822179356
 20
-12852.07089498923
 30
0.0
  0
POINT
  5
34E
330
343
100
AcDbEntity
  8
Defpoints
 62
     0
100
AcDbPoint
 10
17437.57314640146
 20
-12852.07089498923
 30
0.0
  0
ENDBLK
  5
345
330
343
100
AcDbEntity
  8
0
100
AcDbBlockEnd
  0
BLOCK
  5
352
330
351
100
AcDbEntity
  8
0
100
AcDbBlockBegin
  2
*D74
 70
     1
 10
0.0
 20
0.0
 30
0.0
  3
*D74
  1

  0
LINE
  5
354
330
351
100
AcDbEntity
  8
Ech.1_5
  6
Continuous
 62
     0
370
    -2
100
AcDbLine
 10
17390.51933865501
 20
-13410.37671687599
 30
0.0
 11
17397.03458247576
 21
-13410.37671687599
 31
0.0
  0
LINE
  5
355
330
351
100
AcDbEntity
  8
Ech.1_5
  6
Continuous
 62
     0
370
    -2
100
AcDbLine
 10
17359.49679263532
 20
-13400.86630175407
 30
0.0
 11
17397.03458247576
 21
-13400.86630175407
 31
0.0
  0
LINE
  5
356
330
351
100
AcDbEntity
  8
Ech.1_5
  6
Continuous
 62
     0
370
    -2
100
AcDbLine
 10
17392.03458247576
 20
-13410.37671687599
 30
0.0
 11
17392.03458247576
 21
-13400.86630175407
 31
0.0
  0
MTEXT
  5
357
330
351
100
AcDbEntity
  8
Ech.1_5
  6
Continuous
 62
     9
370
    15
390
5F
100
AcDbMText
 10
17405.85355375024
 20
-13412.96010349864
 30
0.0
 40
12.5
 41
0.0
 46
0.0
 71
     5
 72
     1
  1
10
  7
arial-z
 11
6.123233995736766E-17
 21
1.0
 31
0.0
 73
     1
 44
1.0
  0
POINT
  5
358
330
351
100
AcDbEntity
  8
Defpoints
 62
     0
100
AcDbPoint
 10
17390.51933865501
 20
-13410.37671687599
 30
0.0
  0
POINT
  5
359
330
351
100
AcDbEntity
  8
Defpoints
 62
     0
100
AcDbPoint
 10
17359.49679263532
 20
-13400.86630175407
 30
0.0
  0
POINT
  5
35A
330
351
100
AcDbEntity
  8
Defpoints
 62
     0
100
AcDbPoint
 10
17392.03458247576
 20
-13400.86630175407
 30
0.0
  0
ENDBLK
  5
353
330
351
100
AcDbEntity
  8
0
100
AcDbBlockEnd
  0
BLOCK
  5
35E
330
35D
100
AcDbEntity
  8
0
100
AcDbBlockBegin
  2
*D75
 70
     1
 10
0.0
 20
0.0
 30
0.0
  3
*D75
  1

  0
LINE
  5
360
330
35D
100
AcDbEntity
  8
Ech.1_5
  6
Continuous
 62
     0
370
    -2
100
AcDbLine
 10
17359.49679263532
 20
-13400.86630175407
 30
0.0
 11
17397.03458247576
 21
-13400.86630175407
 31
0.0
  0
LINE
  5
361
330
35D
100
AcDbEntity
  8
Ech.1_5
  6
Continuous
 62
     0
370
    -2
100
AcDbLine
 10
17350.25563812
 20
-13385.86630175547
 30
0.0
 11
17397.03458247576
 21
-13385.86630175547
 31
0.0
  0
LINE
  5
362
330
35D
100
AcDbEntity
  8
Ech.1_5
  6
Continuous
 62
     0
370
    -2
100
AcDbLine
 10
17392.03458247576
 20
-13395.86630175407
 30
0.0
 11
17392.03458247576
 21
-13390.86630175547
 31
0.0
  0
INSERT
  5
363
330
35D
100
AcDbEntity
  8
Ech.1_5
 62
     0
370
    -2
100
AcDbBlockReference
  2
cw-dimension-symbol2
 10
17392.03458247576
 20
-13400.86630175407
 30
0.0
 41
5.0
 42
5.0
 43
5.0
 50
270.0
  0
INSERT
  5
364
330
35D
100
AcDbEntity
  8
Ech.1_5
 62
     0
370
    -2
100
AcDbBlockReference
  2
cw-dimension-symbol2
 10
17392.03458247576
 20
-13385.86630175547
 30
0.0
 41
5.0
 42
5.0
 43
5.0
 50
90.0
  0
MTEXT
  5
365
330
35D
100
AcDbEntity
  8
Ech.1_5
  6
Continuous
 62
     9
370
    15
390
5F
100
AcDbMText
 10
17408.79474287788
 20
-13351.75521400071
 30
0.0
 40
12.5
 41
0.0
 46
0.0
 71
     5
 72
     1
  1
max 20mm
  7
arial-z
 11
6.123233995736766E-17
 21
1.0
 31
0.0
 73
     1
 44
1.0
  0
POINT
  5
366
330
35D
100
AcDbEntity
  8
Defpoints
 62
     0
100
AcDbPoint
 10
17359.49679263532
 20
-13400.86630175407
 30
0.0
  0
POINT
  5
367
330
35D
100
AcDbEntity
  8
Defpoints
 62
     0
100
AcDbPoint
 10
17350.25563812
 20
-13385.86630175547
 30
0.0
  0
POINT
  5
368
330
35D
100
AcDbEntity
  8
Defpoints
 62
     0
100
AcDbPoint
 10
17392.03458247576
 20
-13385.86630175547
 30
0.0
  0
ENDBLK
  5
35F
330
35D
100
AcDbEntity
  8
0
100
AcDbBlockEnd
  0
ENDSEC
  0
SECTION
  2
ENTITIES
  0
LWPOLYLINE
  5
21A
330
1F
100
AcDbEntity
  8
Ech.1_5
  6
Continuous
 62
   190
370
    15
390
5F
100
AcDbPolyline
 90
        5
 70
     0
 43
0.0
 10
9116.32829549663
 20
-12018.78313514858
 10
31769.28913838763
 20
-12018.78313514858
 10
31769.28913838763
 20
-14457.30704422377
 10
9116.32829549663
 20
-14457.30704422377
 10
9116.32829549663
 20
-12018.78313514858
  0
HATCH
  5
21B
330
1F
100
AcDbEntity
  8
Ech.1_5
  6
Continuous
 62
   254
420
 13882323
440
 33554687
370
    20
390
5F
100
AcDbHatch
 10
0.0
 20
0.0
 30
0.0
210
0.0
220
0.0
230
1.0
  2
SOLID
 70
     1
 71
     0
 91
        1
 92
        3
 72
     0
 73
     1
 93
        4
 10
17475.54518124728
 20
-12807.47701525981
 10
17475.54518124728
 20
-12618.14719738135
 10
17448.54518124728
 20
-12618.14719738135
 10
17448.54518124728
 20
-12807.47688537585
 97
        0
 75
     0
 76
     1
 98
        0
  0
LWPOLYLINE
  5
21C
330
1F
100
AcDbEntity
  8
Ech.1_5
  6
Continuous
 62
   190
370
    15
390
5F
100
AcDbPolyline
 90
        5
 70
     0
 43
0.0
 10
17475.54518124728
 20
-12807.47701525981
 10
17475.54518124728
 20
-12618.14719738135
 10
17448.54518124728
 20
-12618.14719738135
 10
17448.54518124728
 20
-12807.47688537585
 10
17475.54518124728
 20
-12807.47701525981
  0
HATCH
  5
21D
330
1F
100
AcDbEntity
  8
Ech.1_5
  6
Continuous
 62
   254
420
 13882323
440
 33554687
370
    20
390
5F
100
AcDbHatch
 10
0.0
 20
0.0
 30
0.0
210
0.0
220
0.0
230
1.0
  2
SOLID
 70
     1
 71
     0
 91
        1
 92
        3
 72
     0
 73
     1
 93
        4
 10
17422.54518124728
 20
-12852.07164004056
 10
17448.54518124728
 20
-12852.07156632889
 10
17448.54518124728
 20
-12618.14719738135
 10
17422.54518124728
 20
-12618.14719738135
 97
        0
 75
     0
 76
     1
 98
        0
  0
LWPOLYLINE
  5
21E
330
1F
100
AcDbEntity
  8
Ech.1_5
  6
Continuous
 62
     7
370
    20
390
5F
100
AcDbPolyline
 90
        5
 70
     0
 43
0.0
 10
17422.54518124728
 20
-12852.07164004056
 10
17448.54518124728
 20
-12852.07156632889
 10
17448.54518124728
 20
-12618.14719738135
 10
17422.54518124728
 20
-12618.14719738135
 10
17422.54518124728
 20
-12852.07164004056
  0
HATCH
  5
21F
330
1F
100
AcDbEntity
  8
Ech.1_5
  6
Continuous
 62
   254
420
 13882323
440
 33554687
370
    20
390
5F
100
AcDbHatch
 10
0.0
 20
0.0
 30
0.0
210
0.0
220
0.0
230
1.0
  2
SOLID
 70
     1
 71
     0
 91
        1
 92
        3
 72
     0
 73
     1
 93
        4
 10
17052.46542742271
 20
-13395.78203591782
 10
17079.46542742271
 20
-13395.78216580179
 10
17079.46542742271
 20
-12891.61752708587
 10
17052.46542742271
 20
-12891.61766141494
 97
        0
 75
     0
 76
     1
 98
        0
  0
LWPOLYLINE
  5
220
330
1F
100
AcDbEntity
  8
Ech.1_5
  6
Continuous
 62
   190
370
    15
390
5F
100
AcDbPolyline
 90
        5
 70
     0
 43
0.0
 10
17052.46542742271
 20
-13395.78203591782
 10
17079.46542742271
 20
-13395.78216580179
 10
17079.46542742271
 20
-12891.61752708587
 10
17052.46542742271
 20
-12891.61766141494
 10
17052.46542742271
 20
-13395.78203591782
  0
HATCH
  5
221
330
1F
100
AcDbEntity
  8
Ech.1_5
  6
Continuous
 62
   254
420
 13882323
440
 33554687
370
    20
390
5F
100
AcDbHatch
 10
0.0
 20
0.0
 30
0.0
210
0.0
220
0.0
230
1.0
  2
SOLID
 70
     1
 71
     0
 91
        1
 92
        3
 72
     0
 73
     1
 93
        4
 10
17052.46542742271
 20
-13440.37671687087
 10
17052.46542742271
 20
-12891.61802329706
 10
17026.46542742271
 20
-12891.61789122035
 10
17026.46542742271
 20
-13440.37679058253
 97
        0
 75
     0
 76
     1
 98
        0
  0
LWPOLYLINE
  5
222
330
1F
100
AcDbEntity
  8
Ech.1_5
  6
Continuous
 62
     7
370
    20
390
5F
100
AcDbPolyline
 90
        5
 70
     0
 43
0.0
 10
17052.46542742271
 20
-13440.37671687087
 10
17052.46542742271
 20
-12891.61802329706
 10
17026.46542742271
 20
-12891.61789122035
 10
17026.46542742271
 20
-13440.37679058253
 10
17052.46542742271
 20
-13440.37671687087
  0
HATCH
  5
223
330
1F
100
AcDbEntity
  8
Ech.1_5
  6
Continuous
 62
   254
420
 16643007
440
 33554687
370
    20
390
5F
100
AcDbHatch
 10
0.0
 20
0.0
 30
0.0
210
0.0
220
0.0
230
1.0
  2
SOLID
 70
     1
 71
     0
 91
        1
 92
        3
 72
     0
 73
     1
 93
        4
 10
17690.56190409952
 20
-12767.61217509543
 10
17730.56190409952
 20
-12767.61216091272
 10
17730.56190409952
 20
-12618.14719738135
 10
17690.56190409952
 20
-12618.14719738135
 97
        0
 75
     0
 76
     1
 98
        0
  0
LWPOLYLINE
  5
224
330
1F
100
AcDbEntity
  8
Ech.1_5
  6
Continuous
 62
   190
370
    15
390
5F
100
AcDbPolyline
 90
        5
 70
     0
 43
0.0
 10
17690.56190409952
 20
-12767.61217509543
 10
17730.56190409952
 20
-12767.61216091272
 10
17730.56190409952
 20
-12618.14719738135
 10
17690.56190409952
 20
-12618.14719738135
 10
17690.56190409952
 20
-12767.61217509543
  0
LWPOLYLINE
  5
225
330
1F
100
AcDbEntity
  8
Ech.1_5
  6
Continuous
 62
   190
370
    15
390
5F
100
AcDbPolyline
 90
       44
 70
     0
 43
0.0
 10
17697.22857076622
 20
-12618.14719738135
 42
1.140281805120037
 10
17698.95403495205
 20
-12631.2533685156
 10
17722.16977324707
 20
-12625.04102624714
 42
-1.303226186855928
 10
17722.16977324706
 20
-12637.92003518229
 10
17698.95403495205
 20
-12631.7076929138
 42
1.303226186855928
 10
17698.95403495205
 20
-12644.58670184895
 10
17722.16977324706
 20
-12638.37435958049
 42
-1.303226186855645
 10
17722.16977324706
 20
-12651.25336851564
 10
17698.95403495205
 20
-12645.04102624715
 42
1.303226186855645
 10
17698.95403495204
 20
-12657.9200351823
 10
17722.16977324706
 20
-12651.70769291384
 42
-1.303226186855928
 10
17722.16977324705
 20
-12664.58670184898
 10
17698.95403495204
 20
-12658.3743595805
 42
1.303226186855928
 10
17698.95403495204
 20
-12671.25336851564
 10
17722.16977324705
 20
-12665.04102624718
 42
-1.303226186855928
 10
17722.16977324704
 20
-12677.92003518233
 10
17698.95403495204
 20
-12671.70769291384
 42
1.303226186855928
 10
17698.95403495203
 20
-12684.58670184899
 10
17722.16977324704
 20
-12678.37435958053
 42
-1.303226186855928
 10
17722.16977324703
 20
-12691.25336851568
 10
17698.95403495203
 20
-12685.04102624719
 42
1.303226186855928
 10
17698.95403495202
 20
-12697.92003518234
 10
17722.16977324703
 20
-12691.70769291388
 42
-1.303226186855645
 10
17722.16977324703
 20
-12704.58670184902
 10
17698.95403495202
 20
-12698.37435958054
 42
1.303226186855928
 10
17698.95403495201
 20
-12711.25336851568
 10
17722.16977324703
 20
-12705.04102624722
 42
-1.30322618685621
 10
17722.16977324702
 20
-12717.92003518237
 10
17698.95403495201
 20
-12711.70769291388
 42
1.303226186855645
 10
17698.95403495201
 20
-12724.58670184903
 10
17722.16977324702
 20
-12718.37435958057
 42
-1.303226186855928
 10
17722.16977324702
 20
-12731.25336851572
 10
17698.95403495201
 20
-12725.04102624723
 42
1.303226186855928
 10
17698.954034952
 20
-12737.92003518238
 10
17722.16977324702
 20
-12731.70769291392
 42
-1.303226186855928
 10
17722.16977324701
 20
-12744.58670184906
 10
17698.954034952
 20
-12738.37435958058
 42
1.303226186855928
 10
17698.954034952
 20
-12751.25336851572
 10
17722.16977324701
 20
-12745.04102624726
 42
-1.303226186855928
 10
17722.169773247
 20
-12757.92003518241
 10
17698.954034952
 20
-12751.70769291392
 42
1.303226186855928
 10
17698.95403495199
 20
-12764.58670184907
 10
17722.169773247
 20
-12758.37435958061
 42
-0.6359574264579769
 10
17729.94618604463
 20
-12767.61216091271
  0
HATCH
  5
226
330
1F
100
AcDbEntity
  8
Ech.1_5
  6
Continuous
 62
     9
440
 33554687
370
    15
390
5F
100
AcDbHatch
 10
0.0
 20
0.0
 30
0.0
210
0.0
220
0.0
230
1.0
  2
AR-CONC
 70
     0
 71
     0
 91
        1
 92
        3
 72
     0
 73
     1
 93
        9
 10
17153.46094989477
 20
-13708.19780028247
 10
17240.835101688
 20
-13708.19780028247
 10
17257.3214557695
 20
-13690.21944867805
 10
17248.72101761499
 20
-13712.13554285447
 10
17256.08604880637
 20
-13712.13554285447
 10
17259.6970189076
 20
-13708.19780028241
 10
17353.46094989468
 20
-13708.19780028241
 10
17353.46094989472
 20
-13540.37671687605
 10
17153.46094989464
 20
-13540.37671687605
 97
        0
 75
     0
 76
     1
 52
45.00000000000297
 41
1.5
 77
     0
 78
    13
 53
95.00000000000298
 43
17153.46094989477
 44
-13708.19780028247
 45
210.1419755186485
 46
176.3300691072561
 79
     2
 49
28.575
 49
-314.325
 53
40.00000000000295
 43
17153.46094989477
 44
-13708.19780028247
 45
-240.0276797136709
 46
165.2650928682168
 79
     2
 49
22.86
 49
-251.460876255
 53
145.451444700003
 43
17170.97272563283
 44
-13693.50367571537
 45
-29.88569644450725
 46
341.5951532052787
 79
     2
 49
24.2850132
 49
-267.1353669
 53
91.18420000000296
 43
17099.57941316835
 44
-13654.31626355606
 45
332.1153648456931
 46
242.930119311423
 79
     2
 49
42.8625
 49
-471.4875
 53
141.635557610003
 43
17127.25564329467
 44
-13634.0720792534
 45
-10.62992621435451
 46
514.2401454229412
 79
     2
 49
36.42753471
 49
-400.70341224
 53
36.18415117000291
 43
17099.57941316835
 44
-13654.31626355606
 45
-10.62992618713426
 46
514.2401454243043
 79
     2
 49
34.289950605
 49
-377.18959788
 53
66.00000000000297
 43
17139.99056571316
 44
-13640.84587937445
 45
269.2799689640221
 46
52.34272361161125
 79
     2
 49
28.575
 49
-314.325
 53
11.00000000000292
 43
17139.99056571316
 44
-13640.84587937445
 45
-129.8098897835315
 46
260.9117897906252
 79
     2
 49
22.86
 49
-251.46
 53
116.451445000003
 43
17162.43056317489
 44
-13636.48398580044
 45
139.4700778135783
 46
313.2545140520076
 79
     2
 49
24.2850132
 49
-267.1349064
 53
82.50000000000297
 43
17153.46094989477
 44
-13708.19780028247
 45
-86.40820360172042
 46
92.96012051037602
 79
     6
 49
0.0
 49
-248.412
 49
0.0
 49
-255.27
 49
0.0
 49
-252.4125
 53
52.50000000000296
 43
17153.46094989477
 44
-13708.19780028247
 45
-35.38459097914645
 46
177.1305004120366
 79
     6
 49
0.0
 49
-145.542
 49
0.0
 49
-242.697
 49
0.0
 49
-96.20250000000001
 53
12.50000000000296
 43
17093.38303644482
 44
-13768.27571373243
 45
149.8917945487665
 46
137.7392933740781
 79
     6
 49
0.0
 49
-95.24999999999999
 49
0.0
 49
-297.1799999999999
 49
0.0
 49
-394.3349999999999
 53
2.500000000002962
 43
17066.44226808161
 44
-13795.21648209564
 45
130.1458566273156
 46
184.083589321678
 79
     6
 49
0.0
 49
-123.825
 49
0.0
 49
-197.358
 49
0.0
 49
-280.035
 98
        0
1001
ACAD
1010
17153.46094989477
1020
-13708.19780028247
1030
0.0
  0
LWPOLYLINE
  5
227
330
1F
100
AcDbEntity
  8
Ech.1_5
  6
Continuous
 62
     9
370
    15
390
5F
100
AcDbPolyline
 90
       10
 70
     0
 43
0.0
 38
2500.0
 39
-2500.0
 10
17153.46094989477
 20
-13708.19780028247
 10
17240.835101688
 20
-13708.19780028247
 10
17257.3214557695
 20
-13690.21944867805
 10
17248.72101761499
 20
-13712.13554285447
 10
17256.08604880637
 20
-13712.13554285447
 10
17259.6970189076
 20
-13708.19780028241
 10
17353.46094989468
 20
-13708.19780028241
 10
17353.46094989472
 20
-13540.37671687605
 10
17153.46094989464
 20
-13540.37671687605
 10
17153.46094989477
 20
-13708.19780028247
  0
HATCH
  5
228
330
1F
100
AcDbEntity
  8
Ech.1_5
  6
Continuous
 62
     9
440
 33554687
370
    15
390
5F
100
AcDbHatch
 10
0.0
 20
0.0
 30
0.0
210
0.0
220
0.0
230
1.0
  2
AR-CONC
 70
     0
 71
     0
 91
        1
 92
        3
 72
     0
 73
     1
 93
        4
 10
17348.88292656965
 20
-13310.37671698565
 10
17762.87141399835
 20
-13310.37671698674
 10
17762.87141399835
 20
-13260.37671698705
 10
17349.5723782647
 20
-13260.37671698705
 97
        0
 75
     0
 76
     1
 52
45.00000000000297
 41
0.800000011920929
 77
     0
 78
    13
 53
95.00000000000298
 43
17348.88292656965
 44
-13310.37671698565
 45
112.0757219466709
 46
94.04270492521542
 79
     2
 49
15.2400002270937
 49
-167.6400024980306
 53
40.00000000000295
 43
17348.88292656965
 44
-13310.37671698565
 45
-128.0147644215264
 46
88.14138417645789
 79
     2
 49
12.19200018167496
 49
-134.1124693344315
 53
145.451444700003
 43
17358.22254043579
 44
-13302.53985043308
 45
-15.93903834124737
 46
182.1840844242364
 79
     2
 49
12.95200723299994
 49
-142.4721978030012
 53
91.18420000000296
 43
17320.14610655401
 44
-13281.63989697002
 45
177.1281972237854
 46
129.5627322300607
 79
     2
 49
22.86000034064054
 49
-251.460003747046
 53
141.635557610003
 43
17334.90676284133
 44
-13270.84299851438
 45
-5.669294065468137
 46
274.2614149790488
 79
     2
 49
19.42801880150003
 49
-213.7084897125046
 53
36.18415117000291
 43
17320.14610655401
 44
-13281.63989697002
 45
-5.669294050950668
 46
274.2614149797757
 79
     2
 49
18.28797392851204
 49
-201.1677885336336
 53
66.00000000000297
 43
17341.69872156574
 44
-13274.45569196611
 45
143.6159855875234
 46
27.91611967550859
 79
     2
 49
15.2400002270937
 49
-167.6400024980307
 53
11.00000000000292
 43
17341.69872156574
 44
-13274.45569196611
 45
-69.23194224951979
 46
139.1529566285407
 79
     2
 49
12.19200018167496
 49
-134.1120019984245
 53
116.451445000003
 43
17353.66672039033
 44
-13272.12934869197
 45
74.38404260898368
 46
167.0690766505939
 79
     2
 49
12.95200723299994
 49
-142.4719522029975
 53
82.50000000000297
 43
17348.88292656965
 44
-13310.37671698565
 45
-46.08437594096159
 46
49.57873167764787
 79
     6
 49
0.0
 49
-132.4864019742012
 49
0.0
 49
-136.1440020287037
 49
0.0
 49
-134.6200020059943
 53
52.50000000000296
 43
17348.88292656965
 44
-13310.37671698565
 45
-18.87178213675623
 46
94.46960162745961
 79
     6
 49
0.0
 49
-77.6224011566639
 49
0.0
 49
-129.4384019287825
 49
0.0
 49
-51.30800076454878
 53
12.50000000000296
 43
17316.84137225222
 44
-13342.41827130308
 45
79.94229161724176
 46
73.46095756082856
 79
     6
 49
0.0
 49
-50.80000075697898
 49
0.0
 49
-158.4960023617744
 49
0.0
 49
-210.312003133893
 53
2.500000000002962
 43
17302.4729622444
 44
-13356.7866813109
 45
69.41112456887465
 46
98.17791576785987
 79
     6
 49
0.0
 49
-66.04000098407268
 49
0.0
 49
-105.2576015684605
 49
0.0
 49
-149.3520022255182
 98
        0
1001
ACAD
1010
17348.88292656965
1020
-13310.37671698565
1030
0.0
  0
3DFACE
  5
229
330
1F
100
AcDbEntity
  8
Ech.1_5
  6
Continuous
 62
     9
370
    15
390
5F
100
AcDbFace
 10
17348.88292656965
 20
-13310.37671698565
 30
2500.0
 11
17762.87141399835
 21
-13310.37671698674
 31
2500.0
 12
17762.87141399835
 22
-13260.37671698705
 32
2500.0
 13
17349.5723782647
 23
-13260.37671698705
 33
2500.0
  0
HATCH
  5
22A
330
1F
100
AcDbEntity
  8
Ech.1_5
  6
Continuous
 62
     9
440
 33554687
370
    15
390
5F
100
AcDbHatch
 10
0.0
 20
0.0
 30
0.0
210
0.0
220
0.0
230
1.0
  2
AR-CONC
 70
     0
 71
     0
 91
        1
 92
        3
 72
     0
 73
     1
 93
        4
 10
17549.54472716483
 20
-13022.07156633006
 10
17689.54518124641
 20
-13022.07156633006
 10
17689.54518124727
 20
-12822.07156632933
 10
17549.5447271657
 20
-12822.07156632933
 97
        0
 75
     0
 76
     1
 52
45.00000000000297
 41
1.5
 77
     0
 78
    13
 53
95.00000000000298
 43
17549.54472716483
 44
-13022.07156633006
 45
210.1419755186485
 46
176.3300691072561
 79
     2
 49
28.575
 49
-314.325
 53
40.00000000000295
 43
17549.54472716483
 44
-13022.07156633006
 45
-240.0276797136709
 46
165.2650928682168
 79
     2
 49
22.86
 49
-251.460876255
 53
145.451444700003
 43
17567.05650290289
 44
-13007.37744176295
 45
-29.88569644450725
 46
341.5951532052787
 79
     2
 49
24.2850132
 49
-267.1353669
 53
91.18420000000296
 43
17495.66319043841
 44
-12968.19002960365
 45
332.1153648456931
 46
242.930119311423
 79
     2
 49
42.8625
 49
-471.4875
 53
141.635557610003
 43
17523.33942056473
 44
-12947.94584530099
 45
-10.62992621435451
 46
514.2401454229412
 79
     2
 49
36.42753471
 49
-400.70341224
 53
36.18415117000291
 43
17495.66319043841
 44
-12968.19002960365
 45
-10.62992618713426
 46
514.2401454243043
 79
     2
 49
34.289950605
 49
-377.18959788
 53
66.00000000000297
 43
17536.07434298322
 44
-12954.71964542204
 45
269.2799689640221
 46
52.34272361161125
 79
     2
 49
28.575
 49
-314.325
 53
11.00000000000292
 43
17536.07434298322
 44
-12954.71964542204
 45
-129.8098897835315
 46
260.9117897906252
 79
     2
 49
22.86
 49
-251.46
 53
116.451445000003
 43
17558.51434044496
 44
-12950.35775184802
 45
139.4700778135783
 46
313.2545140520076
 79
     2
 49
24.2850132
 49
-267.1349064
 53
82.50000000000297
 43
17549.54472716483
 44
-13022.07156633006
 45
-86.40820360172042
 46
92.96012051037602
 79
     6
 49
0.0
 49
-248.412
 49
0.0
 49
-255.27
 49
0.0
 49
-252.4125
 53
52.50000000000296
 43
17549.54472716483
 44
-13022.07156633006
 45
-35.38459097914645
 46
177.1305004120366
 79
     6
 49
0.0
 49
-145.542
 49
0.0
 49
-242.697
 49
0.0
 49
-96.20250000000001
 53
12.50000000000296
 43
17489.46681371488
 44
-13082.14947978001
 45
149.8917945487665
 46
137.7392933740781
 79
     6
 49
0.0
 49
-95.24999999999999
 49
0.0
 49
-297.1799999999999
 49
0.0
 49
-394.3349999999999
 53
2.500000000002962
 43
17462.52604535167
 44
-13109.09024814322
 45
130.1458566273156
 46
184.083589321678
 79
     6
 49
0.0
 49
-123.825
 49
0.0
 49
-197.358
 49
0.0
 49
-280.035
 98
        0
1001
ACAD
1010
17549.54472716483
1020
-13022.07156633006
1030
0.0
  0
3DFACE
  5
22B
330
1F
100
AcDbEntity
  8
Ech.1_5
  6
Continuous
 62
     9
370
    15
390
5F
100
AcDbFace
 10
17549.54472716483
 20
-13022.07156633006
 30
2500.0
 11
17689.54518124641
 21
-13022.07156633006
 31
2500.0
 12
17689.54518124727
 22
-12822.07156632933
 32
2500.0
 13
17549.5447271657
 23
-12822.07156632933
 33
2500.0
  0
HATCH
  5
22C
330
1F
100
AcDbEntity
  8
Ech.1_5
  6
Continuous
 62
     9
440
 33554687
370
    15
390
5F
100
AcDbHatch
 10
0.0
 20
0.0
 30
0.0
210
0.0
220
0.0
230
1.0
  2
AR-CONC
 70
     0
 71
     0
 91
        1
 92
        3
 72
     0
 73
     1
 93
        4
 10
17549.54497861118
 20
-13109.7046163984
 10
17762.87141399809
 20
-13109.7046163984
 10
17762.87141399835
 20
-13022.07156632994
 10
17549.54534209762
 20
-13022.07156632994
 97
        0
 75
     0
 76
     1
 52
45.00000000000297
 41
1.5
 77
     0
 78
    13
 53
95.00000000000298
 43
17549.54497861118
 44
-13109.7046163984
 45
210.1419755186485
 46
176.3300691072561
 79
     2
 49
28.575
 49
-314.325
 53
40.00000000000295
 43
17549.54497861118
 44
-13109.7046163984
 45
-240.0276797136709
 46
165.2650928682168
 79
     2
 49
22.86
 49
-251.460876255
 53
145.451444700003
 43
17567.05675434924
 44
-13095.01049183129
 45
-29.88569644450725
 46
341.5951532052787
 79
     2
 49
24.2850132
 49
-267.1353669
 53
91.18420000000296
 43
17495.66344188476
 44
-13055.82307967198
 45
332.1153648456931
 46
242.930119311423
 79
     2
 49
42.8625
 49
-471.4875
 53
141.635557610003
 43
17523.33967201108
 44
-13035.57889536932
 45
-10.62992621435451
 46
514.2401454229412
 79
     2
 49
36.42753471
 49
-400.70341224
 53
36.18415117000291
 43
17495.66344188476
 44
-13055.82307967198
 45
-10.62992618713426
 46
514.2401454243043
 79
     2
 49
34.289950605
 49
-377.18959788
 53
66.00000000000297
 43
17536.07459442957
 44
-13042.35269549038
 45
269.2799689640221
 46
52.34272361161125
 79
     2
 49
28.575
 49
-314.325
 53
11.00000000000292
 43
17536.07459442957
 44
-13042.35269549038
 45
-129.8098897835315
 46
260.9117897906252
 79
     2
 49
22.86
 49
-251.46
 53
116.451445000003
 43
17558.5145918913
 44
-13037.99080191636
 45
139.4700778135783
 46
313.2545140520076
 79
     2
 49
24.2850132
 49
-267.1349064
 53
82.50000000000297
 43
17549.54497861118
 44
-13109.7046163984
 45
-86.40820360172042
 46
92.96012051037602
 79
     6
 49
0.0
 49
-248.412
 49
0.0
 49
-255.27
 49
0.0
 49
-252.4125
 53
52.50000000000296
 43
17549.54497861118
 44
-13109.7046163984
 45
-35.38459097914645
 46
177.1305004120366
 79
     6
 49
0.0
 49
-145.542
 49
0.0
 49
-242.697
 49
0.0
 49
-96.20250000000001
 53
12.50000000000296
 43
17489.46706516123
 44
-13169.78252984835
 45
149.8917945487665
 46
137.7392933740781
 79
     6
 49
0.0
 49
-95.24999999999999
 49
0.0
 49
-297.1799999999999
 49
0.0
 49
-394.3349999999999
 53
2.500000000002962
 43
17462.52629679802
 44
-13196.72329821156
 45
130.1458566273156
 46
184.083589321678
 79
     6
 49
0.0
 49
-123.825
 49
0.0
 49
-197.358
 49
0.0
 49
-280.035
 98
        0
1001
ACAD
1010
17549.54497861118
1020
-13109.7046163984
1030
0.0
  0
3DFACE
  5
22D
330
1F
100
AcDbEntity
  8
Ech.1_5
  6
Continuous
 62
     9
370
    15
390
5F
100
AcDbFace
 10
17549.54497861118
 20
-13109.7046163984
 30
2500.0
 11
17762.87141399809
 21
-13109.7046163984
 31
2500.0
 12
17762.87141399835
 22
-13022.07156632994
 32
2500.0
 13
17549.54534209762
 23
-13022.07156632994
 33
2500.0
  0
HATCH
  5
22E
330
1F
100
AcDbEntity
  8
Ech.1_5
  6
Continuous
 62
     9
440
 33554687
370
    15
390
5F
100
AcDbHatch
 10
0.0
 20
0.0
 30
0.0
210
0.0
220
0.0
230
1.0
  2
AR-CONC
 70
     0
 71
     0
 91
        1
 92
        3
 72
     0
 73
     1
 93
        4
 10
17744.24382926086
 20
-12922.07156644117
 10
17762.87141399835
 20
-12922.07156644251
 10
17762.87141399835
 20
-12872.07156644624
 10
17744.20284056621
 20
-12872.07156644624
 97
        0
 75
     0
 76
     1
 52
45.00000000000297
 41
0.800000011920929
 77
     0
 78
    13
 53
95.00000000000298
 43
17744.24382926086
 44
-12922.07156644117
 45
112.0757219466709
 46
94.04270492521542
 79
     2
 49
15.2400002270937
 49
-167.6400024980306
 53
40.00000000000295
 43
17744.24382926086
 44
-12922.07156644117
 45
-128.0147644215264
 46
88.14138417645789
 79
     2
 49
12.19200018167496
 49
-134.1124693344315
 53
145.451444700003
 43
17753.583443127
 44
-12914.23469988861
 45
-15.93903834124737
 46
182.1840844242364
 79
     2
 49
12.95200723299994
 49
-142.4721978030012
 53
91.18420000000296
 43
17715.50700924523
 44
-12893.33474642554
 45
177.1281972237854
 46
129.5627322300607
 79
     2
 49
22.86000034064054
 49
-251.460003747046
 53
141.635557610003
 43
17730.26766553255
 44
-12882.5378479699
 45
-5.669294065468137
 46
274.2614149790488
 79
     2
 49
19.42801880150003
 49
-213.7084897125046
 53
36.18415117000291
 43
17715.50700924523
 44
-12893.33474642554
 45
-5.669294050950668
 46
274.2614149797757
 79
     2
 49
18.28797392851204
 49
-201.1677885336336
 53
66.00000000000297
 43
17737.05962425696
 44
-12886.15054142163
 45
143.6159855875234
 46
27.91611967550859
 79
     2
 49
15.2400002270937
 49
-167.6400024980307
 53
11.00000000000292
 43
17737.05962425696
 44
-12886.15054142163
 45
-69.23194224951979
 46
139.1529566285407
 79
     2
 49
12.19200018167496
 49
-134.1120019984245
 53
116.451445000003
 43
17749.02762308155
 44
-12883.82419814749
 45
74.38404260898368
 46
167.0690766505939
 79
     2
 49
12.95200723299994
 49
-142.4719522029975
 53
82.50000000000297
 43
17744.24382926086
 44
-12922.07156644117
 45
-46.08437594096159
 46
49.57873167764787
 79
     6
 49
0.0
 49
-132.4864019742012
 49
0.0
 49
-136.1440020287037
 49
0.0
 49
-134.6200020059943
 53
52.50000000000296
 43
17744.24382926086
 44
-12922.07156644117
 45
-18.87178213675623
 46
94.46960162745961
 79
     6
 49
0.0
 49
-77.6224011566639
 49
0.0
 49
-129.4384019287825
 49
0.0
 49
-51.30800076454878
 53
12.50000000000296
 43
17712.20227494344
 44
-12954.11312075861
 45
79.94229161724176
 46
73.46095756082856
 79
     6
 49
0.0
 49
-50.80000075697898
 49
0.0
 49
-158.4960023617744
 49
0.0
 49
-210.312003133893
 53
2.500000000002962
 43
17697.83386493562
 44
-12968.48153076642
 45
69.41112456887465
 46
98.17791576785987
 79
     6
 49
0.0
 49
-66.04000098407268
 49
0.0
 49
-105.2576015684605
 49
0.0
 49
-149.3520022255182
 98
        0
1001
ACAD
1010
17744.24382926086
1020
-12922.07156644117
1030
0.0
  0
3DFACE
  5
22F
330
1F
100
AcDbEntity
  8
Ech.1_5
  6
Continuous
 62
     9
370
    15
390
5F
100
AcDbFace
 10
17744.24382926086
 20
-12922.07156644117
 30
2500.0
 11
17762.87141399835
 21
-12922.07156644251
 31
2500.0
 12
17762.87141399835
 22
-12872.07156644624
 32
2500.0
 13
17744.20284056621
 23
-12872.07156644624
 33
2500.0
  0
HATCH
  5
230
330
1F
100
AcDbEntity
  8
Ech.1_5
  6
Continuous
 62
     9
440
 33554687
370
    15
390
5F
100
AcDbHatch
 10
0.0
 20
0.0
 30
0.0
210
0.0
220
0.0
230
1.0
  2
AR-CONC
 70
     0
 71
     0
 91
        1
 92
        3
 72
     0
 73
     1
 93
        5
 10
17153.46101325997
 20
-13410.37671687127
 10
17153.46094989464
 20
-13540.37671687605
 10
17762.87141399835
 20
-13540.37671687595
 10
17762.87141399835
 20
-13410.3762919963
 10
17353.46124759092
 20
-13410.37481185386
 97
        0
 75
     0
 76
     1
 52
0.0
 41
1.5
 77
     0
 78
    13
 53
50.0
 43
17153.46101325997
 44
-13410.37671687127
 45
273.277003494006
 46
-23.90862830835461
 79
     2
 49
28.575
 49
-314.325
 53
355.0
 43
17153.46101325997
 44
-13410.37671687127
 45
-52.86513213745401
 46
286.5852678585527
 79
     2
 49
22.86
 49
-251.460876255
 53
100.4514447
 43
17176.23402375997
 44
-13412.36909712127
 45
220.4118706355301
 46
262.6766278682926
 79
     2
 49
24.2850132
 49
-267.1353669
 53
46.1842
 43
17153.46101325997
 44
-13334.17671687127
 45
406.6185613381949
 46
-63.06349189909072
 79
     2
 49
42.8625
 49
-471.4875
 53
96.63555760999999
 43
17187.34586325997
 44
-13339.43196687127
 45
356.1062010772545
 46
371.1391868965823
 79
     2
 49
36.42753471
 49
-400.70341224
 53
351.18415117
 43
17153.46101325997
 44
-13334.17671687127
 45
356.1062010974659
 46
371.1391868782986
 79
     2
 49
34.289950605
 49
-377.18959788
 53
21.0
 43
17191.56101325997
 44
-13353.22671687127
 45
227.4215869036987
 46
-153.3977972806314
 79
     2
 49
28.575
 49
-314.325
 53
325.9999999999999
 43
17191.56101325997
 44
-13353.22671687127
 45
92.70304252147088
 46
276.2819491834788
 79
     2
 49
22.86
 49
-251.46
 53
71.45144499999999
 43
17210.51281215997
 44
-13366.00986672127
 45
320.1246289180742
 46
122.8841533288579
 79
     2
 49
24.2850132
 49
-267.1349064
 53
37.5
 43
17153.46101325997
 44
-13410.37671687127
 45
4.632904875887725
 46
126.8325583097297
 79
     6
 49
0.0
 49
-248.412
 49
0.0
 49
-255.27
 49
0.0
 49
-252.4125
 53
7.5
 43
17153.46101325997
 44
-13410.37671687127
 45
100.2294937654586
 46
150.2708622271793
 79
     6
 49
0.0
 49
-145.542
 49
0.0
 49
-242.697
 49
0.0
 49
-96.20250000000001
 53
327.5
 43
17068.49801325997
 44
-13410.37671687127
 45
203.3858927503071
 46
-8.593115989010165
 79
     6
 49
0.0
 49
-95.25
 49
0.0
 49
-297.18
 49
0.0
 49
-394.335
 53
317.5
 43
17030.39801325997
 44
-13410.37671687127
 45
222.1937720790271
 46
38.13973654999954
 79
     6
 49
0.0
 49
-123.825
 49
0.0
 49
-197.358
 49
0.0
 49
-280.035
 98
        0
1001
ACAD
1010
17153.46101325997
1020
-13410.37671687127
1030
0.0
  0
LWPOLYLINE
  5
231
330
1F
100
AcDbEntity
  8
Ech.1_5
  6
Continuous
 62
     9
370
    15
390
5F
100
AcDbPolyline
 90
        6
 70
     0
 43
0.0
 38
2500.0
 39
-2500.0
 10
17153.46101325997
 20
-13410.37671687127
 10
17153.46094989464
 20
-13540.37671687605
 10
17762.87141399835
 20
-13540.37671687595
 10
17762.87141399835
 20
-13410.3762919963
 10
17353.46124759092
 20
-13410.37481185386
 10
17153.46101325997
 20
-13410.37671687127
  0
LWPOLYLINE
  5
233
330
1F
100
AcDbEntity
  8
Ech.1_5
  6
CADWORK_5
 62
   204
370
    70
390
5F
100
AcDbPolyline
 90
       11
 70
   128
 43
0.0
 38
2500.0
 10
17472.32926831368
 20
-12824.49540231152
 10
17537.37866141282
 20
-12824.49540231152
 10
17573.79470311919
 20
-12824.49540231152
 10
17578.6743565318
 20
-12824.49540231152
 10
17606.09241973507
 20
-12824.49540231152
 10
17611.37285910442
 20
-12824.49898382919
 10
17641.51616947552
 20
-12824.50085531032
 10
17647.56656497459
 20
-12824.49540231152
 10
17675.9049642672
 20
-12824.49540231152
 10
17681.6041132101
 20
-12824.50267522575
 10
17689.54518124727
 20
-12824.50235942424
  0
HATCH
  5
234
330
1F
100
AcDbEntity
  8
Ech.1_5
  6
Continuous
 62
   254
420
 15656413
440
 33554687
370
    20
390
5F
100
AcDbHatch
 10
0.0
 20
0.0
 30
0.0
210
0.0
220
0.0
230
1.0
  2
SOLID
 70
     1
 71
     0
 91
        1
 92
        3
 72
     0
 73
     1
 93
        4
 10
17293.46146734169
 20
-13385.86630175541
 10
17333.46146734159
 20
-13385.86630175547
 10
17333.46146734159
 20
-13340.86630175547
 10
17293.46146734155
 20
-13340.86630175547
 97
        0
 75
     0
 76
     1
 98
        0
  0
LWPOLYLINE
  5
235
330
1F
100
AcDbEntity
  8
Ech.1_5
  6
Continuous
 62
   190
370
    15
390
5F
100
AcDbPolyline
 90
        5
 70
     0
 43
0.0
 10
17293.46146734169
 20
-13385.86630175541
 10
17333.46146734159
 20
-13385.86630175547
 10
17333.46146734159
 20
-13340.86630175547
 10
17293.46146734155
 20
-13340.86630175547
 10
17293.46146734169
 20
-13385.86630175541
  0
HATCH
  5
236
330
1F
100
AcDbEntity
  8
Ech.1_5
  6
Continuous
 62
   254
420
 16643007
440
 33554687
370
    20
390
5F
100
AcDbHatch
 10
0.0
 20
0.0
 30
0.0
210
0.0
220
0.0
230
1.0
  2
SOLID
 70
     1
 71
     0
 91
        1
 92
        3
 72
     0
 73
     1
 93
        4
 10
17333.46146734151
 20
-12891.61660618521
 10
17293.46146734151
 20
-12891.61660618521
 10
17293.46146734151
 20
-13240.37673116975
 10
17333.46146734151
 20
-13240.37671698705
 97
        0
 75
     0
 76
     1
 98
        0
  0
LWPOLYLINE
  5
237
330
1F
100
AcDbEntity
  8
Ech.1_5
  6
Continuous
 62
   190
370
    15
390
5F
100
AcDbPolyline
 90
        5
 70
     0
 43
0.0
 10
17333.46146734151
 20
-12891.61660618521
 10
17293.46146734151
 20
-12891.61660618521
 10
17293.46146734151
 20
-13240.37673116975
 10
17333.46146734151
 20
-13240.37671698705
 10
17333.46146734151
 20
-12891.61660618521
  0
LWPOLYLINE
  5
238
330
1F
100
AcDbEntity
  8
Ech.1_5
  6
Continuous
 62
   190
370
    15
390
5F
100
AcDbPolyline
 90
      104
 70
     0
 43
0.0
 10
17300.12813400821
 20
-12891.61679440492
 42
1.140281805119315
 10
17301.85359819405
 20
-12904.72296553915
 10
17325.06933648903
 20
-12898.51062327069
 42
-1.303226186855706
 10
17325.06933648902
 20
-12911.38963220582
 10
17301.85359819405
 20
-12905.17728993735
 42
1.303226186855141
 10
17301.85359819405
 20
-12918.05629887248
 10
17325.06933648902
 20
-12911.84395660402
 42
-1.303226186855141
 10
17325.06933648902
 20
-12924.72296553915
 10
17301.85359819405
 20
-12918.51062327067
 42
1.303226186855706
 10
17301.85359819404
 20
-12931.38963220581
 10
17325.06933648902
 20
-12925.17728993735
 42
-1.303226186855141
 10
17325.06933648902
 20
-12938.05629887248
 10
17301.85359819404
 20
-12931.843956604
 42
1.303226186855141
 10
17301.85359819404
 20
-12944.72296553913
 10
17325.06933648902
 20
-12938.51062327067
 42
-1.303226186855706
 10
17325.06933648902
 20
-12951.38963220581
 10
17301.85359819404
 20
-12945.17728993733
 42
1.303226186855141
 10
17301.85359819404
 20
-12958.05629887246
 10
17325.06933648902
 20
-12951.843956604
 42
-1.303226186855141
 10
17325.06933648902
 20
-12964.72296553913
 10
17301.85359819404
 20
-12958.51062327066
 42
1.303226186855706
 10
17301.85359819404
 20
-12971.38963220579
 10
17325.06933648902
 20
-12965.17728993733
 42
-1.303226186855706
 10
17325.06933648901
 20
-12978.05629887246
 10
17301.85359819404
 20
-12971.84395660399
 42
1.303226186855141
 10
17301.85359819404
 20
-12984.72296553912
 10
17325.06933648901
 20
-12978.51062327066
 42
-1.30322618685627
 10
17325.06933648901
 20
-12991.38963220579
 10
17301.85359819404
 20
-12985.17728993732
 42
1.30322618685627
 10
17301.85359819404
 20
-12998.05629887245
 10
17325.06933648901
 20
-12991.84395660399
 42
-1.303226186855141
 10
17325.06933648901
 20
-13004.72296553912
 10
17301.85359819403
 20
-12998.51062327065
 42
1.303226186855141
 10
17301.85359819403
 20
-13011.38963220578
 10
17325.06933648901
 20
-13005.17728993732
 42
-1.303226186855706
 10
17325.069336489
 20
-13018.05629887245
 10
17301.85359819403
 20
-13011.84395660397
 42
1.303226186855141
 10
17301.85359819403
 20
-13024.72296553911
 10
17325.069336489
 20
-13018.51062327065
 42
-1.303226186855141
 10
17325.069336489
 20
-13031.38963220578
 10
17301.85359819403
 20
-13025.1772899373
 42
1.303226186855706
 10
17301.85359819402
 20
-13038.05629887243
 10
17325.069336489
 20
-13031.84395660397
 42
-1.303226186855141
 10
17325.069336489
 20
-13044.72296553911
 10
17301.85359819402
 20
-13038.51062327063
 42
1.303226186855141
 10
17301.85359819402
 20
-13051.38963220576
 10
17325.069336489
 20
-13045.1772899373
 42
-1.303226186855706
 10
17325.069336489
 20
-13058.05629887243
 10
17301.85359819402
 20
-13051.84395660396
 42
1.30322618685627
 10
17301.85359819402
 20
-13064.72296553909
 10
17325.069336489
 20
-13058.51062327063
 42
-1.303226186855141
 10
17325.069336489
 20
-13071.38963220576
 10
17301.85359819402
 20
-13065.17728993729
 42
1.303226186855706
 10
17301.85359819401
 20
-13078.05629887242
 10
17325.069336489
 20
-13071.84395660396
 42
-1.303226186855706
 10
17325.06933648899
 20
-13084.72296553909
 10
17301.85359819401
 20
-13078.51062327062
 42
1.303226186855141
 10
17301.85359819401
 20
-13091.38963220575
 10
17325.06933648899
 20
-13085.17728993729
 42
-1.30322618685627
 10
17325.06933648899
 20
-13098.05629887242
 10
17301.85359819401
 20
-13091.84395660395
 42
1.303226186855706
 10
17301.85359819401
 20
-13104.72296553908
 10
17325.06933648899
 20
-13098.51062327062
 42
-1.303226186855141
 10
17325.06933648899
 20
-13111.38963220575
 10
17301.85359819401
 20
-13105.17728993727
 42
1.303226186855141
 10
17301.85359819401
 20
-13118.05629887241
 10
17325.06933648899
 20
-13111.84395660395
 42
-1.303226186855706
 10
17325.06933648898
 20
-13124.72296553908
 10
17301.85359819401
 20
-13118.5106232706
 42
1.303226186855141
 10
17301.85359819401
 20
-13131.38963220573
 10
17325.06933648898
 20
-13125.17728993727
 42
-1.303226186855141
 10
17325.06933648898
 20
-13138.05629887241
 10
17301.85359819401
 20
-13131.84395660393
 42
1.303226186855706
 10
17301.853598194
 20
-13144.72296553906
 10
17325.06933648898
 20
-13138.5106232706
 42
-1.303226186855706
 10
17325.06933648897
 20
-13151.38963220573
 10
17301.853598194
 20
-13145.17728993726
 42
1.303226186855141
 10
17301.853598194
 20
-13158.05629887239
 10
17325.06933648897
 20
-13151.84395660393
 42
-1.30322618685627
 10
17325.06933648897
 20
-13164.72296553906
 10
17301.853598194
 20
-13158.51062327059
 42
1.30322618685627
 10
17301.853598194
 20
-13171.38963220572
 10
17325.06933648897
 20
-13165.17728993726
 42
-1.303226186855141
 10
17325.06933648897
 20
-13178.05629887239
 10
17301.853598194
 20
-13171.84395660392
 42
1.303226186855706
 10
17301.85359819399
 20
-13184.72296553905
 10
17325.06933648897
 20
-13178.51062327059
 42
-1.303226186855706
 10
17325.06933648897
 20
-13191.38963220572
 10
17301.85359819399
 20
-13185.17728993724
 42
1.303226186855141
 10
17301.85359819399
 20
-13198.05629887238
 10
17325.06933648897
 20
-13191.84395660392
 42
-1.303226186855141
 10
17325.06933648897
 20
-13204.72296553905
 10
17301.85359819399
 20
-13198.51062327057
 42
1.303226186855706
 10
17301.85359819399
 20
-13211.3896322057
 10
17325.06933648897
 20
-13205.17728993724
 42
-1.303226186855141
 10
17325.06933648897
 20
-13218.05629887238
 10
17301.85359819399
 20
-13211.8439566039
 42
1.303226186855141
 10
17301.85359819399
 20
-13224.72296553903
 10
17325.06933648897
 20
-13218.51062327057
 42
-1.303226186855706
 10
17325.06933648896
 20
-13231.3896322057
 10
17301.85359819399
 20
-13225.17728993723
 42
1.303226186855141
 10
17301.85359819399
 20
-13238.05629887236
 10
17325.06933648896
 20
-13231.8439566039
 42
-0.5967099327930977
 10
17333.12431282948
 20
-13240.37671698706
  0
LWPOLYLINE
  5
239
330
1F
100
AcDbEntity
  8
Ech.1_5
  6
Continuous
 62
     9
370
    15
390
5F
100
AcDbPolyline
 90
        5
 70
     0
 43
0.0
 38
2500.0
 10
17479.54472716568
 20
-12822.07156632933
 10
17549.5447271657
 20
-12822.07156632933
 10
17549.5447271657
 20
-13022.07158494012
 10
17479.54472716568
 20
-13022.07158494012
 10
17479.54472716568
 20
-12822.07156632933
  0
LWPOLYLINE
  5
23A
330
1F
100
AcDbEntity
  8
Ech.1_5
  6
Continuous
 62
     9
370
    15
390
5F
100
AcDbPolyline
 90
       34
 70
     0
 43
0.0
 38
2500.0
 10
17491.21139383235
 20
-12822.07156632933
 42
1.140281805119417
 10
17494.23095615757
 20
-12845.00736581426
 10
17534.8584981738
 20
-12834.13576684443
 42
-1.303226186855681
 10
17534.8584981738
 20
-12856.67403248091
 10
17494.23095615757
 20
-12845.80243351109
 42
1.303226186854644
 10
17494.23095615757
 20
-12868.3406991476
 10
17534.8584981738
 20
-12857.46910017777
 42
-1.303226186855681
 10
17534.8584981738
 20
-12880.00736581426
 10
17494.23095615757
 20
-12869.13576684443
 42
1.303226186856327
 10
17494.23095615757
 20
-12891.67403248091
 10
17534.8584981738
 20
-12880.80243351109
 42
-1.303226186853998
 10
17534.8584981738
 20
-12903.3406991476
 10
17494.23095615757
 20
-12892.46910017777
 42
1.303226186856327
 10
17494.23095615757
 20
-12915.00736581426
 10
17534.8584981738
 20
-12904.13576684443
 42
-1.303226186855681
 10
17534.8584981738
 20
-12926.67403248091
 10
17494.23095615757
 20
-12915.80243351112
 42
1.303226186856327
 10
17494.23095615757
 20
-12938.3406991476
 10
17534.8584981738
 20
-12927.46910017777
 42
-1.303226186855681
 10
17534.8584981738
 20
-12950.00736581426
 10
17494.23095615757
 20
-12939.13576684443
 42
1.303226186854644
 10
17494.23095615757
 20
-12961.67403248094
 10
17534.8584981738
 20
-12950.80243351112
 42
-1.303226186855681
 10
17534.8584981738
 20
-12973.3406991476
 10
17494.23095615757
 20
-12962.46910017777
 42
1.303226186856327
 10
17494.23095615757
 20
-12985.00736581426
 10
17534.8584981738
 20
-12974.13576684443
 42
-1.303226186853998
 10
17534.8584981738
 20
-12996.67403248094
 10
17494.23095615757
 20
-12985.80243351112
 42
1.303226186856327
 10
17494.23095615757
 20
-13008.3406991476
 10
17534.8584981738
 20
-12997.46910017777
 42
-1.303226186855681
 10
17534.8584981738
 20
-13020.00736581426
 10
17494.23095615757
 20
-13009.13576684446
 42
0.5385195945903208
 10
17479.66439113481
 20
-13022.07158494012
  0
LWPOLYLINE
  5
23B
330
1F
100
AcDbEntity
  8
Ech.1_5
  6
Continuous
 62
     9
370
    15
390
5F
100
AcDbPolyline
 90
       34
 70
     0
 43
0.0
 38
2500.0
 10
17095.12767992663
 20
-13410.37671687087
 42
1.140281805119417
 10
17098.14724225185
 20
-13433.31251635579
 10
17138.77478426808
 20
-13422.44091738597
 42
-1.303226186855681
 10
17138.77478426808
 20
-13444.97918302245
 10
17098.14724225185
 20
-13434.10758405262
 42
1.303226186854644
 10
17098.14724225185
 20
-13456.64584968914
 10
17138.77478426808
 20
-13445.77425071931
 42
-1.303226186855681
 10
17138.77478426808
 20
-13468.31251635579
 10
17098.14724225185
 20
-13457.44091738597
 42
1.303226186856327
 10
17098.14724225185
 20
-13479.97918302245
 10
17138.77478426808
 20
-13469.10758405262
 42
-1.303226186853998
 10
17138.77478426808
 20
-13491.64584968914
 10
17098.14724225185
 20
-13480.77425071931
 42
1.303226186856327
 10
17098.14724225185
 20
-13503.31251635579
 10
17138.77478426808
 20
-13492.44091738597
 42
-1.303226186855681
 10
17138.77478426808
 20
-13514.97918302245
 10
17098.14724225185
 20
-13504.10758405265
 42
1.303226186856327
 10
17098.14724225185
 20
-13526.64584968914
 10
17138.77478426808
 20
-13515.77425071931
 42
-1.303226186855681
 10
17138.77478426808
 20
-13538.31251635579
 10
17098.14724225185
 20
-13527.44091738597
 42
1.303226186854644
 10
17098.14724225185
 20
-13549.97918302248
 10
17138.77478426808
 20
-13539.10758405265
 42
-1.303226186855681
 10
17138.77478426808
 20
-13561.64584968914
 10
17098.14724225185
 20
-13550.77425071931
 42
1.303226186856327
 10
17098.14724225185
 20
-13573.31251635579
 10
17138.77478426808
 20
-13562.44091738597
 42
-1.303226186853998
 10
17138.77478426808
 20
-13584.97918302248
 10
17098.14724225185
 20
-13574.10758405265
 42
1.303226186856327
 10
17098.14724225185
 20
-13596.64584968914
 10
17138.77478426808
 20
-13585.77425071931
 42
-1.303226186855681
 10
17138.77478426808
 20
-13608.31251635579
 10
17098.14724225185
 20
-13597.440917386
 42
0.5385195945903208
 10
17083.58067722908
 20
-13610.37673548166
  0
LWPOLYLINE
  5
23C
330
1F
100
AcDbEntity
  8
Ech.1_5
  6
Continuous
 62
     9
370
    15
390
5F
100
AcDbPolyline
 90
        5
 70
     0
 43
0.0
 38
2500.0
 10
17083.46101325996
 20
-13410.37671687087
 10
17153.46101325997
 20
-13410.37671687087
 10
17153.46101325997
 20
-13610.37673548166
 10
17083.46101325996
 20
-13610.37673548166
 10
17083.46101325996
 20
-13410.37671687087
  0
HATCH
  5
23D
330
1F
100
AcDbEntity
  8
Ech.1_5
  6
Continuous
 62
    33
420
 12426362
440
 33554687
370
    20
390
5F
100
AcDbHatch
 10
0.0
 20
0.0
 30
0.0
210
0.0
220
0.0
230
1.0
  2
SOLID
 70
     1
 71
     0
 91
        1
 92
        3
 72
     0
 73
     1
 93
        4
 10
17475.54914132845
 20
-12777.07156632889
 10
17535.54518124721
 20
-12777.07156632889
 10
17535.54518124721
 20
-12822.07156632889
 10
17475.54914132845
 20
-12822.07156632889
 97
        0
 75
     0
 76
     1
 98
        0
  0
LWPOLYLINE
  5
23E
330
1F
100
AcDbEntity
  8
Ech.1_5
  6
Continuous
 62
     7
370
    20
390
5F
100
AcDbPolyline
 90
        5
 70
     0
 43
0.0
 10
17475.54914132845
 20
-12777.07156632889
 10
17535.54518124721
 20
-12777.07156632889
 10
17535.54518124721
 20
-12822.07156632889
 10
17475.54914132845
 20
-12822.07156632889
 10
17475.54914132845
 20
-12777.07156632889
  0
HATCH
  5
23F
330
1F
100
AcDbEntity
  8
Ech.1_5
  6
Continuous
 62
   254
420
 16643007
440
 33554687
370
    20
390
5F
100
AcDbHatch
 10
0.0
 20
0.0
 30
0.0
210
0.0
220
0.0
230
1.0
  2
SOLID
 70
     1
 71
     0
 91
        1
 92
        3
 72
     0
 73
     1
 93
        4
 10
17475.54914132845
 20
-12777.07156632889
 10
17535.54518124721
 20
-12777.07154505623
 10
17535.54518124721
 20
-12618.14719738135
 10
17475.54914132845
 20
-12618.14719738135
 97
        0
 75
     0
 76
     1
 98
        0
  0
LWPOLYLINE
  5
240
330
1F
100
AcDbEntity
  8
Ech.1_5
  6
Continuous
 62
   190
370
    15
390
5F
100
AcDbPolyline
 90
        5
 70
     0
 43
0.0
 10
17475.54914132845
 20
-12777.07156632889
 10
17535.54518124721
 20
-12777.07154505623
 10
17535.54518124721
 20
-12618.14719738135
 10
17475.54914132845
 20
-12618.14719738135
 10
17475.54914132845
 20
-12777.07156632889
  0
HATCH
  5
241
330
1F
100
AcDbEntity
  8
Ech.1_5
  6
Continuous
 62
    33
420
 12426362
440
 33554687
370
    20
390
5F
100
AcDbHatch
 10
0.0
 20
0.0
 30
0.0
210
0.0
220
0.0
230
1.0
  2
SOLID
 70
     1
 71
     0
 91
        1
 92
        3
 72
     0
 73
     1
 93
        4
 10
17079.46542742271
 20
-13365.37671687087
 10
17139.46146734148
 20
-13365.37671687087
 10
17139.46146734148
 20
-13410.37671687087
 10
17079.46542742271
 20
-13410.37671687087
 97
        0
 75
     0
 76
     1
 98
        0
  0
LWPOLYLINE
  5
242
330
1F
100
AcDbEntity
  8
Ech.1_5
  6
Continuous
 62
     7
370
    20
390
5F
100
AcDbPolyline
 90
        5
 70
     0
 43
0.0
 10
17079.46542742271
 20
-13365.37671687087
 10
17139.46146734148
 20
-13365.37671687087
 10
17139.46146734148
 20
-13410.37671687087
 10
17079.46542742271
 20
-13410.37671687087
 10
17079.46542742271
 20
-13365.37671687087
  0
HATCH
  5
243
330
1F
100
AcDbEntity
  8
Ech.1_5
  6
Continuous
 62
    40
420
 16297258
440
 33554687
370
     5
390
5F
100
AcDbHatch
 10
0.0
 20
0.0
 30
0.0
210
0.0
220
0.0
230
1.0
  2
SOLID
 70
     1
 71
     0
 91
        1
 92
        3
 72
     0
 73
     1
 93
        4
 10
17535.54518124721
 20
-12812.07156632889
 10
17544.54518124721
 20
-12812.07156632889
 10
17544.54518124721
 20
-12618.14719738135
 10
17535.54518124721
 20
-12618.14719738135
 97
        0
 75
     0
 76
     1
 98
        0
  0
HATCH
  5
244
330
1F
100
AcDbEntity
  8
Ech.1_5
  6
Continuous
 62
   190
440
 33554687
370
    15
390
5F
100
AcDbHatch
 10
0.0
 20
0.0
 30
0.0
210
0.0
220
0.0
230
1.0
  2
CwHatchPattern_74
 70
     0
 71
     0
 91
        1
 92
        3
 72
     0
 73
     1
 93
        4
 10
17535.54518124721
 20
-12812.07156632889
 10
17544.54518124721
 20
-12812.07156632889
 10
17544.54518124721
 20
-12618.14719738135
 10
17535.54518124721
 20
-12618.14719738135
 97
        0
 75
     0
 76
     2
 52
0.0
 41
0.6000000238418579
 77
     0
 78
     3
 53
45.00000000000297
 43
0.0
 44
0.0
 45
-0.0000000000043443
 46
42.00000166893005
 79
     0
 53
45.00000000000297
 43
0.0
 44
10.80000042915344
 45
-0.0000000000043443
 46
42.00000166893005
 79
     0
 53
45.00000000000297
 43
0.0
 44
21.60000085830688
 45
-0.0000000000043443
 46
42.00000166893005
 79
     0
 98
        0
1001
ACAD
1010
0.0
1020
0.0
1030
0.0
  0
LWPOLYLINE
  5
245
330
1F
100
AcDbEntity
  8
Ech.1_5
  6
Continuous
 62
   190
370
    15
390
5F
100
AcDbPolyline
 90
        5
 70
     0
 43
0.0
 10
17535.54518124721
 20
-12812.07156632889
 10
17544.54518124721
 20
-12812.07156632889
 10
17544.54518124721
 20
-12618.14719738135
 10
17535.54518124721
 20
-12618.14719738135
 10
17535.54518124721
 20
-12812.07156632889
  0
LWPOLYLINE
  5
246
330
1F
100
AcDbEntity
  8
Ech.1_5
 62
   190
370
    15
390
5F
100
AcDbPolyline
 90
        5
 70
     0
 43
0.0
 10
16830.10095515792
 20
-12633.22079614325
 10
16964.52973414387
 20
-12633.22079614325
 10
16964.52973414387
 20
-12689.9437549551
 10
16830.10095515792
 20
-12689.9437549551
 10
16830.10095515792
 20
-12633.22079614325
  0
HATCH
  5
247
330
1F
100
AcDbEntity
  8
Ech.1_5
  6
Continuous
 62
   190
440
 33554687
370
    15
390
5F
100
AcDbHatch
 10
0.0
 20
0.0
 30
0.0
210
0.0
220
0.0
230
1.0
  2
SOLID
 70
     1
 71
     0
 91
        1
 92
        3
 72
     0
 73
     1
 93
        4
 10
16848.38100094323
 20
-12666.8776072722
 10
16898.38100094323
 20
-12666.8776072722
 10
16898.38100094323
 20
-12659.46246973829
 10
16848.38100094323
 20
-12659.46246973829
 97
        0
 75
     0
 76
     1
 98
        0
  0
LWPOLYLINE
  5
248
330
1F
100
AcDbEntity
  8
Ech.1_5
 62
   190
370
    15
390
5F
100
AcDbPolyline
 90
        5
 70
     0
 43
0.0
 10
16848.38100094323
 20
-12666.8776072722
 10
16898.38100094323
 20
-12666.8776072722
 10
16898.38100094323
 20
-12659.46246973829
 10
16848.38100094323
 20
-12659.46246973829
 10
16848.38100094323
 20
-12666.8776072722
  0
LWPOLYLINE
  5
249
330
1F
100
AcDbEntity
  8
Ech.1_5
 62
   190
370
    15
390
5F
100
AcDbPolyline
 90
        5
 70
     0
 43
0.0
 10
16898.38100094323
 20
-12666.8776072722
 10
16948.38100094323
 20
-12666.8776072722
 10
16948.38100094323
 20
-12659.46246973829
 10
16898.38100094323
 20
-12659.46246973829
 10
16898.38100094323
 20
-12666.8776072722
  0
HATCH
  5
24A
330
1F
100
AcDbEntity
  8
Ech.1_5
  6
Continuous
 62
    33
420
 12426362
440
 33554687
370
    20
390
5F
100
AcDbHatch
 10
0.0
 20
0.0
 30
0.0
210
0.0
220
0.0
230
1.0
  2
SOLID
 70
     1
 71
     0
 91
        1
 92
        3
 72
     0
 73
     1
 93
       12
 10
17148.46146734148
 20
-13365.37671687087
 10
17148.46146734148
 20
-13410.37671687087
 10
17183.2211194781
 20
-13410.37671687127
 10
17183.2211574451
 20
-13410.37633632146
 10
17209.04568852968
 20
-13410.37633632146
 10
17209.04565056269
 20
-13410.37671687087
 10
17258.28303523498
 20
-13410.37671687174
 10
17258.283073196
 20
-13410.37566691782
 10
17249.10760428064
 20
-13410.37566691782
 10
17249.10756631962
 20
-13410.37671687087
 10
17293.46146734153
 20
-13410.37671687087
 10
17293.46146734153
 20
-13365.37671687087
 97
        0
 75
     0
 76
     1
 98
        0
  0
LWPOLYLINE
  5
24B
330
1F
100
AcDbEntity
  8
Ech.1_5
  6
Continuous
 62
     7
370
    20
390
5F
100
AcDbPolyline
 90
       13
 70
     0
 43
0.0
 10
17148.46146734148
 20
-13365.37671687087
 10
17148.46146734148
 20
-13410.37671687087
 10
17183.2211194781
 20
-13410.37671687127
 10
17183.2211574451
 20
-13410.37633632146
 10
17209.04568852968
 20
-13410.37633632146
 10
17209.04565056269
 20
-13410.37671687087
 10
17258.28303523498
 20
-13410.37671687174
 10
17258.283073196
 20
-13410.37566691782
 10
17249.10760428064
 20
-13410.37566691782
 10
17249.10756631962
 20
-13410.37671687087
 10
17293.46146734153
 20
-13410.37671687087
 10
17293.46146734153
 20
-13365.37671687087
 10
17148.46146734148
 20
-13365.37671687087
  0
HATCH
  5
24C
330
1F
100
AcDbEntity
  8
Ech.1_5
  6
Continuous
 62
   254
420
 16643007
440
 33554687
370
    20
390
5F
100
AcDbHatch
 10
0.0
 20
0.0
 30
0.0
210
0.0
220
0.0
230
1.0
  2
SOLID
 70
     1
 71
     0
 91
        1
 92
        3
 72
     0
 73
     1
 93
        8
 10
17148.46146734155
 20
-13320.37671687092
 10
17293.46146734155
 20
-13320.37671687092
 10
17293.46146734155
 20
-12891.61679440492
 10
17224.00420093915
 20
-12891.61716536566
 10
17207.51784685764
 20
-12909.59551697008
 10
17221.62778687545
 20
-12873.63981695828
 10
17205.14228371954
 20
-12891.61716536571
 10
17148.46146734155
 20
-12891.61716536571
 97
        0
 75
     0
 76
     1
 98
        0
  0
LWPOLYLINE
  5
24D
330
1F
100
AcDbEntity
  8
Ech.1_5
  6
Continuous
 62
   190
370
    15
390
5F
100
AcDbPolyline
 90
        9
 70
     0
 43
0.0
 10
17148.46146734155
 20
-13320.37671687092
 10
17293.46146734155
 20
-13320.37671687092
 10
17293.46146734155
 20
-12891.61679440492
 10
17224.00420093915
 20
-12891.61716536566
 10
17207.51784685764
 20
-12909.59551697008
 10
17221.62778687545
 20
-12873.63981695828
 10
17205.14228371954
 20
-12891.61716536571
 10
17148.46146734155
 20
-12891.61716536571
 10
17148.46146734155
 20
-13320.37671687092
  0
HATCH
  5
24E
330
1F
100
AcDbEntity
  8
Ech.1_5
  6
Continuous
 62
    33
420
 12426362
440
 33554687
370
    20
390
5F
100
AcDbHatch
 10
0.0
 20
0.0
 30
0.0
210
0.0
220
0.0
230
1.0
  2
SOLID
 70
     1
 71
     0
 91
        1
 92
        3
 72
     0
 73
     1
 93
        4
 10
17148.46146734149
 20
-13320.37671687087
 10
17293.46146734155
 20
-13320.37671687087
 10
17293.46146734155
 20
-13365.37671687087
 10
17148.46146734149
 20
-13365.37671687087
 97
        0
 75
     0
 76
     1
 98
        0
  0
LWPOLYLINE
  5
24F
330
1F
100
AcDbEntity
  8
Ech.1_5
  6
Continuous
 62
     7
370
    20
390
5F
100
AcDbPolyline
 90
        5
 70
     0
 43
0.0
 10
17148.46146734149
 20
-13320.37671687087
 10
17293.46146734155
 20
-13320.37671687087
 10
17293.46146734155
 20
-13365.37671687087
 10
17148.46146734149
 20
-13365.37671687087
 10
17148.46146734149
 20
-13320.37671687087
  0
LWPOLYLINE
  5
250
330
1F
100
AcDbEntity
  8
Ech.1_5
  6
Continuous
 62
   190
370
    15
390
5F
100
AcDbPolyline
 90
        4
 70
     0
 43
0.0
 10
17148.46146734155
 20
-13410.37671687087
 10
17293.46146734161
 20
-13365.37671687087
 10
17293.46146734161
 20
-13410.37671687087
 10
17148.46146734155
 20
-13365.37671687087
  0
LWPOLYLINE
  5
251
330
1F
100
AcDbEntity
  8
Ech.1_5
  6
Continuous
 62
   190
370
    15
390
5F
100
AcDbPolyline
 90
        4
 70
     0
 43
0.0
 10
17148.46146734149
 20
-13365.37671687087
 10
17293.46146734155
 20
-13320.37671687087
 10
17293.46146734155
 20
-13365.37671687087
 10
17148.46146734149
 20
-13320.37671687087
  0
LWPOLYLINE
  5
252
330
1F
100
AcDbEntity
  8
Ech.1_5
  6
Continuous
 62
     5
370
    40
390
5F
100
AcDbPolyline
 90
        5
 70
     0
 43
0.0
 10
17148.46146734149
 20
-13320.37671687087
 10
17293.46146734155
 20
-13320.37671687087
 10
17293.46146734155
 20
-13365.37671687087
 10
17148.46146734149
 20
-13365.37671687087
 10
17148.46146734149
 20
-13320.37671687087
  0
HATCH
  5
253
330
1F
100
AcDbEntity
  8
Ech.1_5
  6
Continuous
 62
   254
420
 15656413
440
 33554687
370
    20
390
5F
100
AcDbHatch
 10
0.0
 20
0.0
 30
0.0
210
0.0
220
0.0
230
1.0
  2
SOLID
 70
     1
 71
     0
 91
        1
 92
        3
 72
     0
 73
     1
 93
        4
 10
17293.46146734161
 20
-13285.37671698699
 10
17333.46146734151
 20
-13285.37671698705
 10
17333.46146734151
 20
-13240.37671698705
 10
17293.46146734148
 20
-13240.37671698705
 97
        0
 75
     0
 76
     1
 98
        0
  0
LWPOLYLINE
  5
254
330
1F
100
AcDbEntity
  8
Ech.1_5
  6
Continuous
 62
   190
370
    15
390
5F
100
AcDbPolyline
 90
        5
 70
     0
 43
0.0
 10
17293.46146734161
 20
-13285.37671698699
 10
17333.46146734151
 20
-13285.37671698705
 10
17333.46146734151
 20
-13240.37671698705
 10
17293.46146734148
 20
-13240.37671698705
 10
17293.46146734161
 20
-13285.37671698699
  0
LWPOLYLINE
  5
255
330
1F
100
AcDbEntity
  8
Ech.1_5
  6
Continuous
 62
     5
370
    40
390
5F
100
AcDbPolyline
 90
        5
 70
     0
 43
0.0
 10
17293.46146734161
 20
-13285.37671698699
 10
17333.46146734151
 20
-13285.37671698705
 10
17333.46146734151
 20
-13240.37671698705
 10
17293.46146734148
 20
-13240.37671698705
 10
17293.46146734161
 20
-13285.37671698699
  0
LWPOLYLINE
  5
256
330
1F
100
AcDbEntity
  8
Ech.1_5
  6
Continuous
 62
   190
370
    15
390
5F
100
AcDbPolyline
 90
        4
 70
     0
 43
0.0
 10
17293.46146734148
 20
-13240.37671698705
 10
17333.46146734151
 20
-13285.37671698705
 10
17333.46146734158
 20
-13240.37671698705
 10
17293.46146734161
 20
-13285.37671698699
  0
HATCH
  5
257
330
1F
100
AcDbEntity
  8
Ech.1_5
  6
Continuous
 62
     2
440
 33554687
370
    15
390
5F
100
AcDbHatch
 10
0.0
 20
0.0
 30
0.0
210
0.0
220
0.0
230
1.0
  2
SOLID
 70
     1
 71
     0
 91
        1
 92
        1
 93
        2
 72
     2
 10
17339.13317879826
 20
-13406.23401734555
 40
6.164441208558856
 50
359.9999999997295
 51
540.0000000002705
 73
     1
 72
     2
 10
17339.13317879826
 20
-13406.23401734555
 40
6.164441208558856
 50
180.0000000002705
 51
359.9999999997295
 73
     1
 97
        0
 75
     0
 76
     1
 98
        0
  0
CIRCLE
  5
258
330
1F
100
AcDbEntity
  8
Ech.1_5
  6
Continuous
 62
     7
370
    20
390
5F
100
AcDbCircle
 10
17339.13317879826
 20
-13406.23401734555
 30
0.0
 40
6.164441208558856
  0
HATCH
  5
259
330
1F
100
AcDbEntity
  8
Ech.1_5
  6
Continuous
 62
     7
440
 33554687
370
    20
390
5F
100
AcDbHatch
 10
0.0
 20
0.0
 30
0.0
210
0.0
220
0.0
230
1.0
  2
CwHatchPattern_31
 70
     0
 71
     0
 91
        1
 92
        1
 93
        2
 72
     2
 10
17339.13317879826
 20
-13406.23401734555
 40
6.164441208558856
 50
359.9999999997295
 51
540.0000000002705
 73
     1
 72
     2
 10
17339.13317879826
 20
-13406.23401734555
 40
6.164441208558856
 50
180.0000000002705
 51
359.9999999997295
 73
     1
 97
        0
 75
     0
 76
     2
 52
0.0
 41
0.1500000059604645
 77
     0
 78
     1
 53
45.00000000000297
 43
0.0
 44
0.0
 45
-2.121320427853449
 46
2.12132042785323
 79
     0
 98
        0
1001
ACAD
1010
0.0
1020
0.0
1030
0.0
  0
LWPOLYLINE
  5
25A
330
1F
100
AcDbEntity
  8
Ech.1_5
  6
Continuous
 62
   190
370
    15
390
5F
100
AcDbPolyline
 90
        6
 70
     0
 43
0.0
 10
17021.60641382838
 20
-12891.61716536571
 10
17205.14228371954
 20
-12891.61716536571
 10
17221.62778687545
 20
-12873.63981695828
 10
17207.51784685764
 20
-12909.59551697008
 10
17224.00420093915
 20
-12891.61716536566
 10
17366.0042009381
 20
-12891.61653678276
  0
LINE
  5
25B
330
1F
100
AcDbEntity
  8
Ech.1_5
  6
Continuous
 62
     8
370
    20
390
5F
100
AcDbLine
 10
17579.30437930187
 20
-12822.07156632918
 30
0.0
 11
17579.30437930187
 21
-12822.07156633011
 31
0.0
  0
LINE
  5
25C
330
1F
100
AcDbEntity
  8
Ech.1_5
  6
Continuous
 62
     8
370
    20
390
5F
100
AcDbLine
 10
17605.12891038645
 20
-12822.07156633011
 30
0.0
 11
17605.12891038645
 21
-12822.07156632878
 31
0.0
  0
LINE
  5
25D
330
1F
100
AcDbEntity
  8
Ech.1_5
  6
Continuous
 62
     8
370
    20
390
5F
100
AcDbLine
 10
17654.36629505874
 20
-12822.07156632962
 30
0.0
 11
17654.36629505874
 21
-12822.07156633011
 31
0.0
  0
LINE
  5
25E
330
1F
100
AcDbEntity
  8
Ech.1_5
  6
Continuous
 62
     8
370
    20
390
5F
100
AcDbLine
 10
17680.19082614332
 20
-12822.07156633011
 30
0.0
 11
17680.19082614332
 21
-12822.07156632878
 31
0.0
  0
HATCH
  5
25F
330
1F
100
AcDbEntity
  8
Ech.1_5
  6
Continuous
 62
   253
440
 33554687
370
    20
390
5F
100
AcDbHatch
 10
0.0
 20
0.0
 30
0.0
210
0.0
220
0.0
230
1.0
  2
CwHatchPattern_32
 70
     0
 71
     0
 91
        1
 92
        3
 72
     0
 73
     1
 93
        4
 10
17753.56145001757
 20
-12858.07156644624
 10
17753.56145001757
 20
-12872.07156644624
 10
17762.87141399835
 20
-12872.07156644624
 10
17762.87141399835
 20
-12858.07156644624
 97
        0
 75
     0
 76
     2
 52
0.0
 41
30.0
 77
     0
 78
     1
 53
135.0000000000089
 43
0.0
 44
0.0
 45
-424.2640687118626
 46
-424.2640687119944
 79
     0
 98
        0
1001
ACAD
1010
0.0
1020
0.0
1030
0.0
  0
LWPOLYLINE
  5
260
330
1F
100
AcDbEntity
  8
Ech.1_5
  6
Continuous
 62
     7
370
    20
390
5F
100
AcDbPolyline
 90
        6
 70
     0
 43
0.0
 10
17743.56286520533
 20
-12792.40672187783
 10
17746.56145000231
 20
-12792.40679080134
 42
-0.4142135623726063
 10
17756.56145000231
 20
-12802.40679080134
 10
17756.56145000229
 20
-12858.07156411138
 10
17743.56145001757
 20
-12858.07156644624
 10
17743.56145001757
 20
-12792.40679313617
  0
HATCH
  5
261
330
1F
100
AcDbEntity
  8
Ech.1_5
  6
Continuous
 62
   253
440
 33554687
370
    20
390
5F
100
AcDbHatch
 10
0.0
 20
0.0
 30
0.0
210
0.0
220
0.0
230
1.0
  2
CwHatchPattern_31
 70
     0
 71
     0
 91
        1
 92
        3
 72
     0
 73
     1
 93
        4
 10
17436.34754170693
 20
-13109.7046163984
 10
17549.54435918941
 20
-13109.7046163984
 10
17549.54427308169
 20
-13022.07158493957
 10
17436.34754170693
 20
-13022.07157570484
 97
        0
 75
     0
 76
     2
 52
0.0
 41
30.0
 77
     0
 78
     1
 53
45.00000000000297
 43
0.0
 44
0.0
 45
-424.2640687119505
 46
424.2640687119066
 79
     0
 98
        0
1001
ACAD
1010
0.0
1020
0.0
1030
0.0
  0
LINE
  5
262
330
1F
100
AcDbEntity
  8
Ech.1_5
  6
Continuous
 62
   190
370
    15
390
5F
100
AcDbLine
 10
17070.3984259385
 20
-13610.37671687215
 30
0.0
 11
17017.05229824923
 21
-13610.37671687215
 31
0.0
  0
LINE
  5
263
330
1F
100
AcDbEntity
  8
Ech.1_5
  6
Continuous
 62
   190
370
    15
390
5F
100
AcDbLine
 10
17526.48168576226
 20
-13022.07156633006
 30
0.0
 11
17460.5823117787
 21
-13022.07156633006
 31
0.0
  0
HATCH
  5
264
330
1F
100
AcDbEntity
  8
Ech.1_5
  6
Continuous
 62
    40
420
 16297258
440
 33554687
370
     5
390
5F
100
AcDbHatch
 10
0.0
 20
0.0
 30
0.0
210
0.0
220
0.0
230
1.0
  2
SOLID
 70
     1
 71
     0
 91
        1
 92
        3
 72
     0
 73
     1
 93
        4
 10
17148.46146734148
 20
-12891.61716536571
 10
17139.46146734148
 20
-12891.61716536571
 10
17139.46146734148
 20
-13400.37671687087
 10
17148.46146734148
 20
-13400.37671687087
 97
        0
 75
     0
 76
     1
 98
        0
  0
HATCH
  5
265
330
1F
100
AcDbEntity
  8
Ech.1_5
  6
Continuous
 62
   190
440
 33554687
370
    15
390
5F
100
AcDbHatch
 10
0.0
 20
0.0
 30
0.0
210
0.0
220
0.0
230
1.0
  2
CwHatchPattern_74
 70
     0
 71
     0
 91
        1
 92
        3
 72
     0
 73
     1
 93
        4
 10
17148.46146734148
 20
-12891.61716536571
 10
17139.46146734148
 20
-12891.61716536571
 10
17139.46146734148
 20
-13400.37671687087
 10
17148.46146734148
 20
-13400.37671687087
 97
        0
 75
     0
 76
     2
 52
0.0
 41
0.6000000238418579
 77
     0
 78
     3
 53
45.00000000000297
 43
0.0
 44
0.0
 45
-0.0000000000043443
 46
42.00000166893005
 79
     0
 53
45.00000000000297
 43
0.0
 44
10.80000042915344
 45
-0.0000000000043443
 46
42.00000166893005
 79
     0
 53
45.00000000000297
 43
0.0
 44
21.60000085830688
 45
-0.0000000000043443
 46
42.00000166893005
 79
     0
 98
        0
1001
ACAD
1010
0.0
1020
0.0
1030
0.0
  0
LWPOLYLINE
  5
266
330
1F
100
AcDbEntity
  8
Ech.1_5
  6
Continuous
 62
   190
370
    15
390
5F
100
AcDbPolyline
 90
        5
 70
     0
 43
0.0
 10
17148.46146734148
 20
-12891.61716536571
 10
17139.46146734148
 20
-12891.61716536571
 10
17139.46146734148
 20
-13400.37671687087
 10
17148.46146734148
 20
-13400.37671687087
 10
17148.46146734148
 20
-12891.61716536571
  0
HATCH
  5
267
330
1F
100
AcDbEntity
  8
Ech.1_5
  6
Continuous
 62
     9
440
 33554687
370
    15
390
5F
100
AcDbHatch
 10
0.0
 20
0.0
 30
0.0
210
0.0
220
0.0
230
1.0
  2
CwHatchPattern_22
 70
     0
 71
     0
 91
        1
 92
        3
 72
     0
 73
     1
 93
        4
 10
17356.46146734155
 20
-13246.37671698705
 10
17356.46146734155
 20
-13260.37671698705
 10
17762.87141399835
 20
-13260.37657218118
 10
17762.87141399835
 20
-13246.37657110234
 97
        0
 75
     0
 76
     2
 52
0.0
 41
1.0
 77
     0
 78
     1
 53
135.0000000000089
 43
0.0
 44
0.0
 45
-7.071067811864377
 46
-7.071067811866573
 79
     0
 98
        0
1001
ACAD
1010
0.0
1020
0.0
1030
0.0
  0
LWPOLYLINE
  5
268
330
1F
100
AcDbEntity
  8
Ech.1_5
  6
Continuous
 62
     9
370
    15
390
5F
100
AcDbPolyline
 90
        5
 70
     0
 43
0.0
 10
17356.46146734155
 20
-13246.37671698705
 10
17356.46146734155
 20
-13260.37671698705
 10
17762.87141399835
 20
-13260.37657218118
 10
17762.87141399835
 20
-13246.37657110234
 10
17356.46146734155
 20
-13246.37671698705
  0
HATCH
  5
269
330
1F
100
AcDbEntity
  8
Ech.1_5
  6
Continuous
 62
    33
420
 12426362
440
 33554687
370
    20
390
5F
100
AcDbHatch
 10
0.0
 20
0.0
 30
0.0
210
0.0
220
0.0
230
1.0
  2
SOLID
 70
     1
 71
     0
 91
        1
 92
        3
 72
     0
 73
     1
 93
       12
 10
17544.54518124721
 20
-12777.07156632889
 10
17544.54518124721
 20
-12822.07156632889
 10
17579.30483338384
 20
-12822.07156632933
 10
17579.30487135083
 20
-12822.07118577952
 10
17605.12940243541
 20
-12822.07118577952
 10
17605.12936446842
 20
-12822.07156632889
 10
17654.36674914071
 20
-12822.07156632974
 10
17654.36678710172
 20
-12822.07051637584
 10
17680.19131818631
 20
-12822.07051637584
 10
17680.19128022528
 20
-12822.07156632889
 10
17690.56190409954
 20
-12822.07156632889
 10
17690.56190409954
 20
-12777.07156632889
 97
        0
 75
     0
 76
     1
 98
        0
  0
LWPOLYLINE
  5
26A
330
1F
100
AcDbEntity
  8
Ech.1_5
  6
Continuous
 62
     7
370
    20
390
5F
100
AcDbPolyline
 90
       13
 70
     0
 43
0.0
 10
17544.54518124721
 20
-12777.07156632889
 10
17544.54518124721
 20
-12822.07156632889
 10
17579.30483338384
 20
-12822.07156632933
 10
17579.30487135083
 20
-12822.07118577952
 10
17605.12940243541
 20
-12822.07118577952
 10
17605.12936446842
 20
-12822.07156632889
 10
17654.36674914071
 20
-12822.07156632974
 10
17654.36678710172
 20
-12822.07051637584
 10
17680.19131818631
 20
-12822.07051637584
 10
17680.19128022528
 20
-12822.07156632889
 10
17690.56190409954
 20
-12822.07156632889
 10
17690.56190409954
 20
-12777.07156632889
 10
17544.54518124721
 20
-12777.07156632889
  0
HATCH
  5
26B
330
1F
100
AcDbEntity
  8
Ech.1_5
  6
Continuous
 62
    33
420
 12426362
440
 33554687
370
    20
390
5F
100
AcDbHatch
 10
0.0
 20
0.0
 30
0.0
210
0.0
220
0.0
230
1.0
  2
SOLID
 70
     1
 71
     0
 91
        1
 92
        3
 72
     0
 73
     1
 93
        4
 10
17544.54518124722
 20
-12732.07156632889
 10
17690.56190409954
 20
-12732.07156632889
 10
17690.56190409954
 20
-12777.07156632889
 10
17544.54518124722
 20
-12777.07156632889
 97
        0
 75
     0
 76
     1
 98
        0
  0
LWPOLYLINE
  5
26C
330
1F
100
AcDbEntity
  8
Ech.1_5
  6
Continuous
 62
     7
370
    20
390
5F
100
AcDbPolyline
 90
        5
 70
     0
 43
0.0
 10
17544.54518124722
 20
-12732.07156632889
 10
17690.56190409954
 20
-12732.07156632889
 10
17690.56190409954
 20
-12777.07156632889
 10
17544.54518124722
 20
-12777.07156632889
 10
17544.54518124722
 20
-12732.07156632889
  0
LWPOLYLINE
  5
26D
330
1F
100
AcDbEntity
  8
Ech.1_5
  6
Continuous
 62
   190
370
    15
390
5F
100
AcDbPolyline
 90
        4
 70
     0
 43
0.0
 10
17544.54518124727
 20
-12822.07156632886
 10
17690.5619040996
 20
-12777.07156632886
 10
17690.5619040996
 20
-12822.07156632886
 10
17544.54518124727
 20
-12777.07156632886
  0
LWPOLYLINE
  5
26E
330
1F
100
AcDbEntity
  8
Ech.1_5
  6
Continuous
 62
   190
370
    15
390
5F
100
AcDbPolyline
 90
        4
 70
     0
 43
0.0
 10
17544.54518124722
 20
-12777.07156632889
 10
17690.56190409954
 20
-12732.07156632889
 10
17690.56190409954
 20
-12777.07156632889
 10
17544.54518124722
 20
-12732.07156632889
  0
LWPOLYLINE
  5
26F
330
1F
100
AcDbEntity
  8
Ech.1_5
  6
Continuous
 62
     5
370
    40
390
5F
100
AcDbPolyline
 90
        5
 70
     0
 43
0.0
 10
17544.54518124722
 20
-12732.07156632889
 10
17690.56190409954
 20
-12732.07156632889
 10
17690.56190409954
 20
-12777.07156632889
 10
17544.54518124722
 20
-12777.07156632889
 10
17544.54518124722
 20
-12732.07156632889
  0
LWPOLYLINE
  5
270
330
1F
100
AcDbEntity
  8
Ech.1_5
  6
Continuous
 62
     5
370
    40
390
5F
100
AcDbPolyline
 90
       13
 70
     0
 43
0.0
 10
17544.54518124721
 20
-12777.07156632889
 10
17544.54518124721
 20
-12822.07156632889
 10
17579.30483338384
 20
-12822.07156632933
 10
17579.30487135083
 20
-12822.07118577952
 10
17605.12940243541
 20
-12822.07118577952
 10
17605.12936446842
 20
-12822.07156632889
 10
17654.36674914071
 20
-12822.07156632974
 10
17654.36678710172
 20
-12822.07051637584
 10
17680.19131818631
 20
-12822.07051637584
 10
17680.19128022528
 20
-12822.07156632889
 10
17690.56190409954
 20
-12822.07156632889
 10
17690.56190409954
 20
-12777.07156632889
 10
17544.54518124721
 20
-12777.07156632889
  0
HATCH
  5
271
330
1F
100
AcDbEntity
  8
Ech.1_5
  6
Continuous
 62
     2
440
 33554687
370
    15
390
5F
100
AcDbHatch
 10
0.0
 20
0.0
 30
0.0
210
0.0
220
0.0
230
1.0
  2
SOLID
 70
     1
 71
     0
 91
        1
 92
        3
 72
     0
 73
     1
 93
        4
 10
17579.30483338391
 20
-12831.50373068922
 10
17605.12936446848
 20
-12831.50373068922
 10
17605.12936446848
 20
-12822.07107062803
 10
17579.30483338391
 20
-12822.07107062803
 97
        0
 75
     0
 76
     1
 98
        0
  0
LWPOLYLINE
  5
272
330
1F
100
AcDbEntity
  8
Ech.1_5
  6
Continuous
 62
     7
370
     5
390
5F
100
AcDbPolyline
 90
        5
 70
     0
 43
0.0
 10
17579.30483338391
 20
-12831.50373068922
 10
17605.12936446848
 20
-12831.50373068922
 10
17605.12936446848
 20
-12822.07107062803
 10
17579.30483338391
 20
-12822.07107062803
 10
17579.30483338391
 20
-12831.50373068922
  0
HATCH
  5
273
330
1F
100
AcDbEntity
  8
Ech.1_5
  6
Continuous
 62
     7
440
 33554687
370
    20
390
5F
100
AcDbHatch
 10
0.0
 20
0.0
 30
0.0
210
0.0
220
0.0
230
1.0
  2
CwHatchPattern_10
 70
     0
 71
     0
 91
        1
 92
        3
 72
     0
 73
     1
 93
        4
 10
17579.30483338391
 20
-12831.50373068922
 10
17605.12936446848
 20
-12831.50373068922
 10
17605.12936446848
 20
-12822.07107062803
 10
17579.30483338391
 20
-12822.07107062803
 97
        0
 75
     0
 76
     2
 52
0.0
 41
1.190617561340332
 77
     0
 78
     2
 53
45.00000000000297
 43
0.0
 44
0.0
 45
-4.209468757117913
 46
4.209468757117477
 79
     0
 53
135.0000000000089
 43
0.0
 44
0.0
 45
-4.209468757117041
 46
-4.209468757118349
 79
     0
 98
        0
1001
ACAD
1010
0.0
1020
0.0
1030
0.0
  0
HATCH
  5
274
330
1F
100
AcDbEntity
  8
Ech.1_5
  6
Continuous
 62
   254
420
 15656413
440
 33554687
370
    20
390
5F
100
AcDbHatch
 10
0.0
 20
0.0
 30
0.0
210
0.0
220
0.0
230
1.0
  2
SOLID
 70
     1
 71
     0
 91
        1
 92
        3
 72
     0
 73
     1
 93
        4
 10
17690.56190409962
 20
-12812.6121609126
 10
17730.56190409952
 20
-12812.61216091272
 10
17730.56190409952
 20
-12767.61216091272
 10
17690.56190409947
 20
-12767.61216091269
 97
        0
 75
     0
 76
     1
 98
        0
  0
LWPOLYLINE
  5
275
330
1F
100
AcDbEntity
  8
Ech.1_5
  6
Continuous
 62
   190
370
    15
390
5F
100
AcDbPolyline
 90
        5
 70
     0
 43
0.0
 10
17690.56190409962
 20
-12812.6121609126
 10
17730.56190409952
 20
-12812.61216091272
 10
17730.56190409952
 20
-12767.61216091272
 10
17690.56190409947
 20
-12767.61216091269
 10
17690.56190409962
 20
-12812.6121609126
  0
LWPOLYLINE
  5
276
330
1F
100
AcDbEntity
  8
Ech.1_5
  6
Continuous
 62
     5
370
    40
390
5F
100
AcDbPolyline
 90
        5
 70
     0
 43
0.0
 10
17690.56190409962
 20
-12812.6121609126
 10
17730.56190409952
 20
-12812.61216091272
 10
17730.56190409952
 20
-12767.61216091272
 10
17690.56190409947
 20
-12767.61216091269
 10
17690.56190409962
 20
-12812.6121609126
  0
LWPOLYLINE
  5
277
330
1F
100
AcDbEntity
  8
Ech.1_5
  6
Continuous
 62
   190
370
    15
390
5F
100
AcDbPolyline
 90
        4
 70
     0
 43
0.0
 10
17690.56190409947
 20
-12767.61216091269
 10
17730.56190409952
 20
-12812.61216091272
 10
17730.56190409957
 20
-12767.61216091269
 10
17690.56190409962
 20
-12812.6121609126
  0
LWPOLYLINE
  5
278
330
1F
100
AcDbEntity
  8
Ech.1_5
  6
Continuous
 62
     8
370
    70
390
5F
100
AcDbPolyline
 90
        3
 70
     0
 43
0.0
 10
17453.44089890585
 20
-12822.7733593104
 10
17471.9357077153
 20
-12822.7733593104
 10
17471.9357077153
 20
-12784.52559847398
  0
HATCH
  5
279
330
1F
100
AcDbEntity
  8
Ech.1_5
  6
Continuous
 62
   254
420
 15656413
440
 33554687
370
    20
390
5F
100
AcDbHatch
 10
0.0
 20
0.0
 30
0.0
210
0.0
220
0.0
230
1.0
  2
SOLID
 70
     1
 71
     0
 91
        1
 92
        3
 72
     0
 73
     1
 93
        4
 10
17690.56190409962
 20
-12992.92646538841
 10
17730.56190409952
 20
-12992.92646538852
 10
17730.56190409952
 20
-12947.92646538852
 10
17690.56190409947
 20
-12947.92646538849
 97
        0
 75
     0
 76
     1
 98
        0
  0
LWPOLYLINE
  5
27A
330
1F
100
AcDbEntity
  8
Ech.1_5
  6
Continuous
 62
   190
370
    15
390
5F
100
AcDbPolyline
 90
        5
 70
     0
 43
0.0
 10
17690.56190409962
 20
-12992.92646538841
 10
17730.56190409952
 20
-12992.92646538852
 10
17730.56190409952
 20
-12947.92646538852
 10
17690.56190409947
 20
-12947.92646538849
 10
17690.56190409962
 20
-12992.92646538841
  0
LWPOLYLINE
  5
27B
330
1F
100
AcDbEntity
  8
Ech.1_5
  6
Continuous
 62
     5
370
    40
390
5F
100
AcDbPolyline
 90
        5
 70
     0
 43
0.0
 10
17690.56190409962
 20
-12992.92646538841
 10
17730.56190409952
 20
-12992.92646538852
 10
17730.56190409952
 20
-12947.92646538852
 10
17690.56190409947
 20
-12947.92646538849
 10
17690.56190409962
 20
-12992.92646538841
  0
LWPOLYLINE
  5
27C
330
1F
100
AcDbEntity
  8
Ech.1_5
  6
Continuous
 62
   190
370
    15
390
5F
100
AcDbPolyline
 90
        4
 70
     0
 43
0.0
 10
17690.56190409947
 20
-12947.92646538849
 10
17730.56190409952
 20
-12992.92646538852
 10
17730.56190409957
 20
-12947.92646538849
 10
17690.56190409962
 20
-12992.92646538841
  0
HATCH
  5
27D
330
1F
100
AcDbEntity
  8
Ech.1_5
  6
Continuous
 62
   254
420
 16643007
440
 33554687
370
    20
390
5F
100
AcDbHatch
 10
0.0
 20
0.0
 30
0.0
210
0.0
220
0.0
230
1.0
  2
SOLID
 70
     1
 71
     0
 91
        1
 92
        3
 72
     0
 73
     1
 93
        4
 10
17690.56190409954
 20
-12618.14719738135
 10
17544.54518124727
 20
-12618.14719738135
 10
17544.54518124727
 20
-12732.07156632898
 10
17690.56190409954
 20
-12732.07156632898
 97
        0
 75
     0
 76
     1
 98
        0
  0
LWPOLYLINE
  5
27E
330
1F
100
AcDbEntity
  8
Ech.1_5
  6
Continuous
 62
   190
370
    15
390
5F
100
AcDbPolyline
 90
        5
 70
     0
 43
0.0
 10
17690.56190409954
 20
-12618.14719738135
 10
17544.54518124727
 20
-12618.14719738135
 10
17544.54518124727
 20
-12732.07156632898
 10
17690.56190409954
 20
-12732.07156632898
 10
17690.56190409954
 20
-12618.14719738135
  0
HATCH
  5
27F
330
1F
100
AcDbEntity
  8
Ech.1_5
  6
Continuous
 62
   254
420
 14407639
440
 33554687
370
    15
390
5F
100
AcDbHatch
 10
0.0
 20
0.0
 30
0.0
210
0.0
220
0.0
230
1.0
  2
SOLID
 70
     1
 71
     0
 91
        1
 92
        3
 72
     0
 73
     1
 93
        4
 10
17730.56190409954
 20
-13012.92646538579
 10
17743.56190409954
 20
-13012.92646538579
 10
17743.56190409954
 20
-12618.14719738135
 10
17730.56190409954
 20
-12618.14719738135
 97
        0
 75
     0
 76
     1
 98
        0
  0
LWPOLYLINE
  5
280
330
1F
100
AcDbEntity
  8
Ech.1_5
  6
Continuous
 62
   254
420
 14407639
370
    15
390
5F
100
AcDbPolyline
 90
        5
 70
     0
 43
0.0
 10
17730.56190409954
 20
-13012.92646538579
 10
17743.56190409954
 20
-13012.92646538579
 10
17743.56190409954
 20
-12618.14719738135
 10
17730.56190409954
 20
-12618.14719738135
 10
17730.56190409954
 20
-13012.92646538579
  0
HATCH
  5
282
330
1F
100
AcDbEntity
  8
Ech.1_5
  6
Continuous
 62
   190
440
 33554687
370
    15
390
281
100
AcDbHatch
 10
0.0
 20
0.0
 30
0.0
210
0.0
220
0.0
230
1.0
  2
CwHatchPattern_84
 70
     0
 71
     0
 91
        1
 92
        3
 72
     0
 73
     1
 93
        4
 10
17730.56190409954
 20
-13012.92646538579
 10
17743.56190409954
 20
-13012.92646538579
 10
17743.56190409954
 20
-12618.14719738135
 10
17730.56190409954
 20
-12618.14719738135
 97
        0
 75
     0
 76
     2
 52
0.0
 41
1.0
 77
     0
 78
     2
 53
0.0
 43
0.0
 44
0.0
 45
0.0
 46
70.0
 79
     2
 49
0.0
 49
-70.0
 53
0.0
 43
35.0
 44
35.0
 45
0.0
 46
70.0
 79
     2
 49
0.0
 49
-70.0
 98
        0
1001
ACAD
1010
0.0
1020
0.0
1030
0.0
  0
LWPOLYLINE
  5
283
330
1F
100
AcDbEntity
  8
Ech.1_5
  6
Continuous
 62
     7
370
    20
390
5F
100
AcDbPolyline
 90
        5
 70
     0
 43
0.0
 10
17730.56190409954
 20
-13012.92646538579
 10
17743.56190409954
 20
-13012.92646538579
 10
17743.56190409954
 20
-12618.14719738135
 10
17730.56190409954
 20
-12618.14719738135
 10
17730.56190409954
 20
-13012.92646538579
  0
HATCH
  5
284
330
1F
100
AcDbEntity
  8
Ech.1_5
  6
Continuous
 62
     9
440
 33554687
370
    15
390
5F
100
AcDbHatch
 10
0.0
 20
0.0
 30
0.0
210
0.0
220
0.0
230
1.0
  2
CwHatchPattern_31
 70
     0
 71
     0
 91
        1
 92
        3
 72
     0
 73
     1
 93
        4
 10
17384.55379771211
 20
-13109.7046163984
 10
17549.5455379245
 20
-13109.7046163984
 10
17549.54534209762
 20
-13022.07156632994
 10
17384.55379771211
 20
-13022.07155709512
 97
        0
 75
     0
 76
     2
 52
0.0
 41
1.0
 77
     0
 78
     1
 53
45.00000000000297
 43
0.0
 44
0.0
 45
-14.14213562373168
 46
14.14213562373022
 79
     0
 98
        0
1001
ACAD
1010
0.0
1020
0.0
1030
0.0
  0
3DFACE
  5
285
330
1F
100
AcDbEntity
  8
Ech.1_5
  6
Continuous
 62
     9
370
    15
390
5F
100
AcDbFace
 10
17384.55379771211
 20
-13109.7046163984
 30
2500.0
 11
17549.5455379245
 21
-13109.7046163984
 31
2500.0
 12
17549.54534209762
 22
-13022.07156632994
 32
2500.0
 13
17384.55379771211
 23
-13022.07155709512
 33
2500.0
  0
HATCH
  5
286
330
1F
100
AcDbEntity
  8
Ech.1_5
  6
Continuous
 62
     2
440
 33554687
370
    15
390
5F
100
AcDbHatch
 10
0.0
 20
0.0
 30
0.0
210
0.0
220
0.0
230
1.0
  2
SOLID
 70
     1
 71
     0
 91
        1
 92
        1
 93
        2
 72
     2
 10
16821.88089288012
 20
-12788.01976547046
 40
6.164441208558856
 50
359.9999999997295
 51
540.0000000002705
 73
     1
 72
     2
 10
16821.88089288012
 20
-12788.01976547046
 40
6.164441208558856
 50
180.0000000002705
 51
359.9999999997295
 73
     1
 97
        0
 75
     0
 76
     1
 98
        0
  0
CIRCLE
  5
287
330
1F
100
AcDbEntity
  8
Ech.1_5
  6
Continuous
 62
     7
370
    20
390
5F
100
AcDbCircle
 10
16821.88089288012
 20
-12788.01976547046
 30
0.0
 40
6.164441208558856
  0
HATCH
  5
288
330
1F
100
AcDbEntity
  8
Ech.1_5
  6
Continuous
 62
     7
440
 33554687
370
    20
390
5F
100
AcDbHatch
 10
0.0
 20
0.0
 30
0.0
210
0.0
220
0.0
230
1.0
  2
CwHatchPattern_31
 70
     0
 71
     0
 91
        1
 92
        1
 93
        2
 72
     2
 10
16821.88089288012
 20
-12788.01976547046
 40
6.164441208558856
 50
359.9999999997295
 51
540.0000000002705
 73
     1
 72
     2
 10
16821.88089288012
 20
-12788.01976547046
 40
6.164441208558856
 50
180.0000000002705
 51
359.9999999997295
 73
     1
 97
        0
 75
     0
 76
     2
 52
0.0
 41
0.1500000059604645
 77
     0
 78
     1
 53
45.00000000000297
 43
0.0
 44
0.0
 45
-2.121320427853449
 46
2.12132042785323
 79
     0
 98
        0
1001
ACAD
1010
0.0
1020
0.0
1030
0.0
  0
HATCH
  5
289
330
1F
100
AcDbEntity
  8
Ech.1_5
  6
Continuous
 62
     2
440
 33554687
370
    15
390
5F
100
AcDbHatch
 10
0.0
 20
0.0
 30
0.0
210
0.0
220
0.0
230
1.0
  2
SOLID
 70
     1
 71
     0
 91
        1
 92
        3
 72
     0
 73
     1
 93
        4
 10
16808.65637714307
 20
-12767.7814535
 10
16834.48090822766
 20
-12767.7814535
 10
16834.48090822766
 20
-12758.34879343877
 10
16808.65637714307
 20
-12758.34879343877
 97
        0
 75
     0
 76
     1
 98
        0
  0
LWPOLYLINE
  5
28A
330
1F
100
AcDbEntity
  8
Ech.1_5
  6
Continuous
 62
     7
370
     5
390
5F
100
AcDbPolyline
 90
        5
 70
     0
 43
0.0
 10
16808.65637714307
 20
-12767.7814535
 10
16834.48090822766
 20
-12767.7814535
 10
16834.48090822766
 20
-12758.34879343877
 10
16808.65637714307
 20
-12758.34879343877
 10
16808.65637714307
 20
-12767.7814535
  0
HATCH
  5
28B
330
1F
100
AcDbEntity
  8
Ech.1_5
  6
Continuous
 62
     7
440
 33554687
370
    20
390
5F
100
AcDbHatch
 10
0.0
 20
0.0
 30
0.0
210
0.0
220
0.0
230
1.0
  2
CwHatchPattern_10
 70
     0
 71
     0
 91
        1
 92
        3
 72
     0
 73
     1
 93
        4
 10
16808.65637714307
 20
-12767.7814535
 10
16834.48090822766
 20
-12767.7814535
 10
16834.48090822766
 20
-12758.34879343877
 10
16808.65637714307
 20
-12758.34879343877
 97
        0
 75
     0
 76
     2
 52
0.0
 41
1.190617561340332
 77
     0
 78
     2
 53
45.00000000000297
 43
0.0
 44
0.0
 45
-4.209468757117913
 46
4.209468757117477
 79
     0
 53
135.0000000000089
 43
0.0
 44
0.0
 45
-4.209468757117041
 46
-4.209468757118349
 79
     0
 98
        0
1001
ACAD
1010
0.0
1020
0.0
1030
0.0
  0
HATCH
  5
28C
330
1F
100
AcDbEntity
  8
Ech.1_5
  6
Continuous
 62
     2
440
 33554687
370
    15
390
5F
100
AcDbHatch
 10
0.0
 20
0.0
 30
0.0
210
0.0
220
0.0
230
1.0
  2
SOLID
 70
     1
 71
     0
 91
        1
 92
        3
 72
     0
 73
     1
 93
        4
 10
17648.63607057359
 20
-12831.50373068922
 10
17674.46060165816
 20
-12831.50373068922
 10
17674.46060165816
 20
-12822.07107062803
 10
17648.63607057359
 20
-12822.07107062803
 97
        0
 75
     0
 76
     1
 98
        0
  0
LWPOLYLINE
  5
28D
330
1F
100
AcDbEntity
  8
Ech.1_5
  6
Continuous
 62
     7
370
     5
390
5F
100
AcDbPolyline
 90
        5
 70
     0
 43
0.0
 10
17648.63607057359
 20
-12831.50373068922
 10
17674.46060165816
 20
-12831.50373068922
 10
17674.46060165816
 20
-12822.07107062803
 10
17648.63607057359
 20
-12822.07107062803
 10
17648.63607057359
 20
-12831.50373068922
  0
HATCH
  5
28E
330
1F
100
AcDbEntity
  8
Ech.1_5
  6
Continuous
 62
     7
440
 33554687
370
    20
390
5F
100
AcDbHatch
 10
0.0
 20
0.0
 30
0.0
210
0.0
220
0.0
230
1.0
  2
CwHatchPattern_10
 70
     0
 71
     0
 91
        1
 92
        3
 72
     0
 73
     1
 93
        4
 10
17648.63607057359
 20
-12831.50373068922
 10
17674.46060165816
 20
-12831.50373068922
 10
17674.46060165816
 20
-12822.07107062803
 10
17648.63607057359
 20
-12822.07107062803
 97
        0
 75
     0
 76
     2
 52
0.0
 41
1.190617561340332
 77
     0
 78
     2
 53
45.00000000000297
 43
0.0
 44
0.0
 45
-4.209468757117913
 46
4.209468757117477
 79
     0
 53
135.0000000000089
 43
0.0
 44
0.0
 45
-4.209468757117041
 46
-4.209468757118349
 79
     0
 98
        0
1001
ACAD
1010
0.0
1020
0.0
1030
0.0
  0
HATCH
  5
28F
330
1F
100
AcDbEntity
  8
Ech.1_5
  6
Continuous
 62
     2
440
 33554687
370
    15
390
5F
100
AcDbHatch
 10
0.0
 20
0.0
 30
0.0
210
0.0
220
0.0
230
1.0
  2
SOLID
 70
     1
 71
     0
 91
        1
 92
        1
 93
        2
 72
     2
 10
17716.49487429467
 20
-13017.93095090705
 40
6.164441208558856
 50
0.0
 51
180.0
 73
     1
 72
     2
 10
17716.49487429467
 20
-13017.93095090705
 40
6.164441208558856
 50
180.0
 51
360.0
 73
     1
 97
        0
 75
     0
 76
     1
 98
        0
  0
CIRCLE
  5
290
330
1F
100
AcDbEntity
  8
Ech.1_5
  6
Continuous
 62
     7
370
    20
390
5F
100
AcDbCircle
 10
17716.49487429467
 20
-13017.93095090705
 30
0.0
 40
6.164441208558856
  0
HATCH
  5
291
330
1F
100
AcDbEntity
  8
Ech.1_5
  6
Continuous
 62
     7
440
 33554687
370
    20
390
5F
100
AcDbHatch
 10
0.0
 20
0.0
 30
0.0
210
0.0
220
0.0
230
1.0
  2
CwHatchPattern_31
 70
     0
 71
     0
 91
        1
 92
        1
 93
        2
 72
     2
 10
17716.49487429467
 20
-13017.93095090705
 40
6.164441208558856
 50
0.0
 51
180.0
 73
     1
 72
     2
 10
17716.49487429467
 20
-13017.93095090705
 40
6.164441208558856
 50
180.0
 51
360.0
 73
     1
 97
        0
 75
     0
 76
     2
 52
0.0
 41
0.1500000059604645
 77
     0
 78
     1
 53
45.00000000000297
 43
0.0
 44
0.0
 45
-2.121320427853449
 46
2.12132042785323
 79
     0
 98
        0
1001
ACAD
1010
0.0
1020
0.0
1030
0.0
  0
HATCH
  5
292
330
1F
100
AcDbEntity
  8
Ech.1_5
  6
Continuous
 62
     2
440
 33554687
370
    15
390
5F
100
AcDbHatch
 10
0.0
 20
0.0
 30
0.0
210
0.0
220
0.0
230
1.0
  2
SOLID
 70
     1
 71
     0
 91
        1
 92
        3
 72
     0
 73
     1
 93
        4
 10
17183.22111947818
 20
-13419.80888123123
 10
17209.04565056276
 20
-13419.80888123123
 10
17209.04565056276
 20
-13410.37622117
 10
17183.22111947818
 20
-13410.37622117
 97
        0
 75
     0
 76
     1
 98
        0
  0
LWPOLYLINE
  5
293
330
1F
100
AcDbEntity
  8
Ech.1_5
  6
Continuous
 62
     7
370
     5
390
5F
100
AcDbPolyline
 90
        5
 70
     0
 43
0.0
 10
17183.22111947818
 20
-13419.80888123123
 10
17209.04565056276
 20
-13419.80888123123
 10
17209.04565056276
 20
-13410.37622117
 10
17183.22111947818
 20
-13410.37622117
 10
17183.22111947818
 20
-13419.80888123123
  0
HATCH
  5
294
330
1F
100
AcDbEntity
  8
Ech.1_5
  6
Continuous
 62
     7
440
 33554687
370
    20
390
5F
100
AcDbHatch
 10
0.0
 20
0.0
 30
0.0
210
0.0
220
0.0
230
1.0
  2
CwHatchPattern_10
 70
     0
 71
     0
 91
        1
 92
        3
 72
     0
 73
     1
 93
        4
 10
17183.22111947818
 20
-13419.80888123123
 10
17209.04565056276
 20
-13419.80888123123
 10
17209.04565056276
 20
-13410.37622117
 10
17183.22111947818
 20
-13410.37622117
 97
        0
 75
     0
 76
     2
 52
0.0
 41
1.190617561340332
 77
     0
 78
     2
 53
45.00000000000297
 43
0.0
 44
0.0
 45
-4.209468757117913
 46
4.209468757117477
 79
     0
 53
135.0000000000089
 43
0.0
 44
0.0
 45
-4.209468757117041
 46
-4.209468757118349
 79
     0
 98
        0
1001
ACAD
1010
0.0
1020
0.0
1030
0.0
  0
HATCH
  5
295
330
1F
100
AcDbEntity
  8
Ech.1_5
  6
Continuous
 62
     2
440
 33554687
370
    15
390
5F
100
AcDbHatch
 10
0.0
 20
0.0
 30
0.0
210
0.0
220
0.0
230
1.0
  2
SOLID
 70
     1
 71
     0
 91
        1
 92
        3
 72
     0
 73
     1
 93
        4
 10
17248.98445018152
 20
-13419.80888123123
 10
17274.80898126609
 20
-13419.80888123123
 10
17274.80898126609
 20
-13410.37622117
 10
17248.98445018152
 20
-13410.37622117
 97
        0
 75
     0
 76
     1
 98
        0
  0
LWPOLYLINE
  5
296
330
1F
100
AcDbEntity
  8
Ech.1_5
  6
Continuous
 62
     7
370
     5
390
5F
100
AcDbPolyline
 90
        5
 70
     0
 43
0.0
 10
17248.98445018152
 20
-13419.80888123123
 10
17274.80898126609
 20
-13419.80888123123
 10
17274.80898126609
 20
-13410.37622117
 10
17248.98445018152
 20
-13410.37622117
 10
17248.98445018152
 20
-13419.80888123123
  0
LINE
  5
297
330
1F
100
AcDbEntity
  8
Ech.1_5
  6
Continuous
 62
   190
370
    15
390
5F
100
AcDbLine
 10
17139.46146734148
 20
-13365.37671687087
 30
0.0
 11
17079.46542742271
 21
-13410.37671687087
 31
0.0
  0
LINE
  5
298
330
1F
100
AcDbEntity
  8
Ech.1_5
  6
Continuous
 62
   190
370
    15
390
5F
100
AcDbLine
 10
17139.46146734148
 20
-13410.37671687087
 30
0.0
 11
17079.46542742271
 21
-13365.37671687087
 31
0.0
  0
LWPOLYLINE
  5
299
330
1F
100
AcDbEntity
  8
Ech.1_5
  6
Continuous
 62
   190
370
    15
390
5F
100
AcDbPolyline
 90
        5
 70
     0
 43
0.0
 10
17079.46542742271
 20
-13365.37671687087
 10
17139.46146734148
 20
-13365.37671687087
 10
17139.46146734148
 20
-13410.37671687087
 10
17079.46542742271
 20
-13410.37671687087
 10
17079.46542742271
 20
-13365.37671687087
  0
LWPOLYLINE
  5
29A
330
1F
100
AcDbEntity
  8
Ech.1_5
  6
Continuous
 62
     5
370
    40
390
5F
100
AcDbPolyline
 90
        5
 70
     0
 43
0.0
 10
17079.46542742271
 20
-13365.37671687087
 10
17139.46146734148
 20
-13365.37671687087
 10
17139.46146734148
 20
-13410.37671687087
 10
17079.46542742271
 20
-13410.37671687087
 10
17079.46542742271
 20
-13365.37671687087
  0
LINE
  5
29B
330
1F
100
AcDbEntity
  8
Ech.1_5
  6
Continuous
 62
   190
370
    15
390
5F
100
AcDbLine
 10
17535.54518124721
 20
-12777.07156632889
 30
0.0
 11
17475.54914132845
 21
-12822.07156632889
 31
0.0
  0
LINE
  5
29C
330
1F
100
AcDbEntity
  8
Ech.1_5
  6
Continuous
 62
   190
370
    15
390
5F
100
AcDbLine
 10
17535.54518124721
 20
-12822.07156632889
 30
0.0
 11
17475.54914132845
 21
-12777.07156632889
 31
0.0
  0
LWPOLYLINE
  5
29D
330
1F
100
AcDbEntity
  8
Ech.1_5
  6
Continuous
 62
   190
370
    15
390
5F
100
AcDbPolyline
 90
        5
 70
     0
 43
0.0
 10
17475.54914132845
 20
-12777.07156632889
 10
17535.54518124721
 20
-12777.07156632889
 10
17535.54518124721
 20
-12822.07156632889
 10
17475.54914132845
 20
-12822.07156632889
 10
17475.54914132845
 20
-12777.07156632889
  0
LWPOLYLINE
  5
29E
330
1F
100
AcDbEntity
  8
Ech.1_5
  6
Continuous
 62
     5
370
    40
390
5F
100
AcDbPolyline
 90
        5
 70
     0
 43
0.0
 10
17475.54914132845
 20
-12777.07156632889
 10
17535.54518124721
 20
-12777.07156632889
 10
17535.54518124721
 20
-12822.07156632889
 10
17475.54914132845
 20
-12822.07156632889
 10
17475.54914132845
 20
-12777.07156632889
  0
LWPOLYLINE
  5
29F
330
1F
100
AcDbEntity
  8
Ech.1_5
  6
Continuous
 62
   190
370
    15
390
5F
100
AcDbPolyline
 90
       30
 70
     0
 43
0.0
 10
17485.54848131491
 20
-12618.14719738135
 42
1.140281805119342
 10
17488.13650676921
 20
-12637.80515654515
 10
17522.95781580645
 20
-12628.48725817695
 42
-1.303226186854469
 10
17522.95781580645
 20
-12647.80449653163
 10
17488.13650676921
 20
-12638.4865981634
 42
1.303226186854469
 10
17488.13650676921
 20
-12657.80383651807
 10
17522.95781580645
 20
-12648.48593814987
 42
-1.303226186856433
 10
17522.95781580645
 20
-12667.80317650452
 10
17488.13650676921
 20
-12658.48527813632
 42
1.303226186854469
 10
17488.13650676921
 20
-12677.802516491
 10
17522.95781580645
 20
-12668.4846181228
 42
-1.303226186856433
 10
17522.95781580645
 20
-12687.80185647744
 10
17488.13650676921
 20
-12678.48395810924
 42
1.303226186854469
 10
17488.13650676921
 20
-12697.80119646392
 10
17522.95781580645
 20
-12688.48329809572
 42
-1.303226186856433
 10
17522.95781580645
 20
-12707.80053645037
 10
17488.13650676921
 20
-12698.48263808217
 42
1.303226186854469
 10
17488.13650676921
 20
-12717.79987643684
 10
17522.95781580645
 20
-12708.48197806864
 42
-1.303226186856433
 10
17522.95781580645
 20
-12727.79921642329
 10
17488.13650676921
 20
-12718.48131805509
 42
1.303226186856432
 10
17488.13650676921
 20
-12737.79855640974
 10
17522.95781580645
 20
-12728.48065804154
 42
-1.303226186854469
 10
17522.95781580645
 20
-12747.79789639621
 10
17488.13650676921
 20
-12738.47999802801
 42
1.303226186856432
 10
17488.13650676921
 20
-12757.79723638266
 10
17522.95781580645
 20
-12748.47933801446
 42
-1.303226186854469
 10
17522.95781580645
 20
-12767.79657636914
 10
17488.13650676921
 20
-12758.47867800094
 42
0.9028930165702971
 10
17481.05786499766
 20
-12777.07156632889
  0
LWPOLYLINE
  5
2A0
330
1F
100
AcDbEntity
  8
Ech.1_5
  6
Continuous
 62
   190
370
    15
390
5F
100
AcDbPolyline
 90
        8
 70
     0
 43
0.0
 10
17568.88130172266
 20
-12618.14719738138
 42
1.140281805119985
 10
17575.17996736803
 20
-12665.99020133545
 10
17659.92711797881
 20
-12643.31255485352
 42
-1.303226186855325
 10
17659.92711797879
 20
-12690.32632181088
 10
17575.17996736802
 20
-12667.64867532887
 42
1.303226186855325
 10
17575.179967368
 20
-12714.66244228623
 10
17659.92711797879
 20
-12691.9847958043
 42
-0.7531733831588372
 10
17684.04021893193
 20
-12732.07156632898
  0
HATCH
  5
2A1
330
1F
100
AcDbEntity
  8
Ech.1_5
  6
Continuous
 62
   254
420
 16643007
440
 33554687
370
    20
390
5F
100
AcDbHatch
 10
0.0
 20
0.0
 30
0.0
210
0.0
220
0.0
230
1.0
  2
SOLID
 70
     1
 71
     0
 91
        1
 92
        3
 72
     0
 73
     1
 93
        4
 10
17139.46146734148
 20
-12891.61716536571
 10
17079.46542742271
 20
-12891.61752708587
 10
17079.46542742271
 20
-13365.37671687087
 10
17139.46146734148
 20
-13365.37669559821
 97
        0
 75
     0
 76
     1
 98
        0
  0
LWPOLYLINE
  5
2A2
330
1F
100
AcDbEntity
  8
Ech.1_5
  6
Continuous
 62
   190
370
    15
390
5F
100
AcDbPolyline
 90
        5
 70
     0
 43
0.0
 10
17139.46146734148
 20
-12891.61716536571
 10
17079.46542742271
 20
-12891.61752708587
 10
17079.46542742271
 20
-13365.37671687087
 10
17139.46146734148
 20
-13365.37669559821
 10
17139.46146734148
 20
-12891.61716536571
  0
LWPOLYLINE
  5
2A3
330
1F
100
AcDbEntity
  8
Ech.1_5
  6
Continuous
 62
   190
370
    15
390
5F
100
AcDbPolyline
 90
       94
 70
     0
 43
0.0
 10
17129.46212735501
 20
-13365.37671687087
 42
1.140281805121016
 10
17126.87410190071
 20
-13345.71875770709
 10
17092.05279286348
 20
-13355.0366560753
 42
-1.303226186854469
 10
17092.05279286348
 20
-13335.71941772062
 10
17126.87410190071
 20
-13345.03731608882
 42
1.303226186856433
 10
17126.87410190071
 20
-13325.72007773417
 10
17092.05279286348
 20
-13335.03797610237
 42
-1.303226186854469
 10
17092.05279286348
 20
-13315.7207377477
 10
17126.87410190071
 20
-13325.0386361159
 42
1.303226186856433
 10
17126.87410190071
 20
-13305.72139776125
 10
17092.05279286348
 20
-13315.03929612945
 42
-1.303226186854469
 10
17092.05279286348
 20
-13295.72205777477
 10
17126.87410190071
 20
-13305.03995614297
 42
1.303226186856433
 10
17126.87410190071
 20
-13285.72271778833
 10
17092.05279286348
 20
-13295.04061615653
 42
-1.303226186854469
 10
17092.05279286348
 20
-13275.72337780185
 10
17126.87410190071
 20
-13285.04127617005
 42
1.303226186856433
 10
17126.87410190071
 20
-13265.7240378154
 10
17092.05279286348
 20
-13275.0419361836
 42
-1.303226186854469
 10
17092.05279286348
 20
-13255.72469782893
 10
17126.87410190071
 20
-13265.04259619713
 42
1.303226186856433
 10
17126.87410190071
 20
-13245.72535784248
 10
17092.05279286348
 20
-13255.04325621068
 42
-1.303226186856432
 10
17092.05279286348
 20
-13235.72601785603
 10
17126.87410190071
 20
-13245.04391622423
 42
1.303226186854469
 10
17126.87410190071
 20
-13225.72667786956
 10
17092.05279286348
 20
-13235.04457623776
 42
-1.303226186856432
 10
17092.05279286348
 20
-13215.72733788311
 10
17126.87410190071
 20
-13225.04523625131
 42
1.303226186854469
 10
17126.87410190071
 20
-13205.72799789663
 10
17092.05279286348
 20
-13215.04589626483
 42
-1.303226186856432
 10
17092.05279286348
 20
-13195.72865791019
 10
17126.87410190071
 20
-13205.04655627839
 42
1.303226186854469
 10
17126.87410190071
 20
-13185.72931792371
 10
17092.05279286348
 20
-13195.04721629191
 42
-1.303226186856432
 10
17092.05279286348
 20
-13175.72997793726
 10
17126.87410190071
 20
-13185.04787630546
 42
1.303226186854469
 10
17126.87410190071
 20
-13165.73063795079
 10
17092.05279286348
 20
-13175.04853631899
 42
-1.303226186856432
 10
17092.05279286348
 20
-13155.73129796434
 10
17126.87410190071
 20
-13165.04919633254
 42
1.303226186854469
 10
17126.87410190071
 20
-13145.73195797786
 10
17092.05279286348
 20
-13155.04985634606
 42
-1.303226186856432
 10
17092.05279286348
 20
-13135.73261799142
 10
17126.87410190071
 20
-13145.05051635962
 42
1.303226186854469
 10
17126.87410190071
 20
-13125.73327800494
 10
17092.05279286348
 20
-13135.05117637314
 42
-1.303226186856432
 10
17092.05279286348
 20
-13115.73393801849
 10
17126.87410190071
 20
-13125.05183638669
 42
1.303226186854469
 10
17126.87410190071
 20
-13105.73459803202
 10
17092.05279286348
 20
-13115.05249640022
 42
-1.303226186856432
 10
17092.05279286348
 20
-13095.73525804557
 10
17126.87410190071
 20
-13105.05315641377
 42
1.303226186854469
 10
17126.87410190071
 20
-13085.73591805909
 10
17092.05279286348
 20
-13095.05381642732
 42
-1.303226186854469
 10
17092.05279286348
 20
-13075.73657807265
 10
17126.87410190071
 20
-13085.05447644085
 42
1.303226186856433
 10
17126.87410190071
 20
-13065.7372380862
 10
17092.05279286348
 20
-13075.0551364544
 42
-1.303226186854469
 10
17092.05279286348
 20
-13055.73789809972
 10
17126.87410190071
 20
-13065.05579646792
 42
1.303226186856433
 10
17126.87410190071
 20
-13045.73855811328
 10
17092.05279286348
 20
-13055.05645648148
 42
-1.303226186854469
 10
17092.05279286348
 20
-13035.7392181268
 10
17126.87410190071
 20
-13045.057116495
 42
1.303226186856433
 10
17126.87410190071
 20
-13025.73987814035
 10
17092.05279286348
 20
-13035.05777650855
 42
-1.303226186854469
 10
17092.05279286348
 20
-13015.74053815388
 10
17126.87410190071
 20
-13025.05843652208
 42
1.303226186856433
 10
17126.87410190071
 20
-13005.74119816743
 10
17092.05279286348
 20
-13015.05909653563
 42
-1.303226186854469
 10
17092.05279286348
 20
-12995.74185818095
 10
17126.87410190071
 20
-13005.05975654916
 42
1.303226186856433
 10
17126.87410190071
 20
-12985.74251819451
 10
17092.05279286348
 20
-12995.06041656271
 42
-1.303226186854469
 10
17092.05279286348
 20
-12975.74317820803
 10
17126.87410190071
 20
-12985.06107657623
 42
1.303226186856433
 10
17126.87410190071
 20
-12965.74383822158
 10
17092.05279286348
 20
-12975.06173658979
 42
-1.303226186854469
 10
17092.05279286348
 20
-12955.74449823511
 10
17126.87410190071
 20
-12965.06239660331
 42
1.303226186856433
 10
17126.87410190071
 20
-12945.74515824866
 10
17092.05279286348
 20
-12955.06305661686
 42
-1.303226186854469
 10
17092.05279286348
 20
-12935.74581826218
 10
17126.87410190071
 20
-12945.06371663039
 42
1.303226186856433
 10
17126.87410190071
 20
-12925.74647827574
 10
17092.05279286348
 20
-12935.06437664394
 42
-1.303226186856432
 10
17092.05279286348
 20
-12915.74713828929
 10
17126.87410190071
 20
-12925.06503665749
 42
1.303226186854469
 10
17126.87410190071
 20
-12905.74779830281
 10
17092.05279286348
 20
-12915.06569667102
 42
-1.303226186856432
 10
17092.05279286348
 20
-12895.74845831637
 10
17126.87410190071
 20
-12905.06635668457
 42
0.620490778390858
 10
17138.71514648419
 20
-12891.61716536571
  0
LWPOLYLINE
  5
2A4
330
1F
100
AcDbEntity
  8
Ech.1_5
  6
Continuous
 62
   190
370
    15
390
5F
100
AcDbPolyline
 90
        3
 70
     0
 43
0.0
 10
17104.94500681883
 20
-12891.61716536571
 10
17092.05279286348
 20
-12895.06701669809
 42
-0.2991435090662097
 10
17081.62652768254
 20
-12891.61716536571
  0
LWPOLYLINE
  5
2A5
330
1F
100
AcDbEntity
  8
Ech.1_5
  6
Continuous
 62
   190
370
    15
390
5F
100
AcDbPolyline
 90
       34
 70
     0
 43
0.0
 10
17172.62813400821
 20
-12891.61716536571
 42
1.140281805119083
 10
17178.88294168188
 20
-12939.12703572734
 10
17263.03999300121
 20
-12916.60729500412
 42
-1.30322618685539
 10
17263.03999300121
 20
-12963.293702394
 10
17178.88294168188
 20
-12940.77396167078
 42
1.303226186855079
 10
17178.88294168188
 20
-12987.46036906065
 10
17263.03999300121
 20
-12964.94062833746
 42
-1.30322618685539
 10
17263.03999300121
 20
-13011.62703572734
 10
17178.88294168188
 20
-12989.10729500412
 42
1.303226186855079
 10
17178.88294168188
 20
-13035.793702394
 10
17263.03999300121
 20
-13013.27396167078
 42
-1.30322618685539
 10
17263.03999300121
 20
-13059.96036906065
 10
17178.88294168188
 20
-13037.44062833746
 42
1.303226186855891
 10
17178.88294168188
 20
-13084.12703572731
 10
17263.03999300121
 20
-13061.60729500412
 42
-1.30322618685539
 10
17263.03999300121
 20
-13108.293702394
 10
17178.88294168188
 20
-13085.77396167078
 42
1.303226186855079
 10
17178.88294168188
 20
-13132.46036906065
 10
17263.03999300121
 20
-13109.94062833746
 42
-1.303226186856203
 10
17263.03999300121
 20
-13156.62703572731
 10
17178.88294168188
 20
-13134.10729500412
 42
1.303226186855079
 10
17178.88294168188
 20
-13180.793702394
 10
17263.03999300121
 20
-13158.27396167078
 42
-1.30322618685539
 10
17263.03999300121
 20
-13204.96036906065
 10
17178.88294168188
 20
-13182.44062833746
 42
1.303226186855891
 10
17178.88294168188
 20
-13229.12703572731
 10
17263.03999300121
 20
-13206.60729500412
 42
-1.30322618685539
 10
17263.03999300121
 20
-13253.293702394
 10
17178.88294168188
 20
-13230.77396167078
 42
1.303226186855079
 10
17178.88294168188
 20
-13277.46036906065
 10
17263.03999300121
 20
-13254.94062833746
 42
-1.303226186856203
 10
17263.03999300121
 20
-13301.62703572731
 10
17178.88294168188
 20
-13279.10729500412
 42
0.7875078194794719
 10
17156.42077519094
 20
-13320.37671687092
  0
LWPOLYLINE
  5
2A6
330
1F
100
AcDbEntity
  8
Ech.1_5
  6
Continuous
 62
     9
370
    70
390
5F
100
AcDbPolyline
 90
        3
 70
     0
 43
0.0
 38
2500.0
 10
17083.45707793645
 20
-13416.20368729604
 10
17083.45707793645
 20
-13410.93948872107
 10
17091.13995524941
 20
-13410.93948872107
  0
LWPOLYLINE
  5
2A7
330
1F
100
AcDbEntity
  8
Ech.1_5
  6
Continuous
 62
     9
370
    70
390
5F
100
AcDbPolyline
 90
        3
 70
     0
 43
0.0
 38
2500.0
 10
17479.54079184218
 20
-12827.8985367545
 10
17479.54079184218
 20
-12822.63433817954
 10
17487.22366915514
 20
-12822.63433817954
  0
HATCH
  5
2A8
330
1F
100
AcDbEntity
  8
Ech.1_5
  6
Continuous
 62
    33
420
 12426362
440
 33554687
370
    20
390
5F
100
AcDbHatch
 10
0.0
 20
0.0
 30
0.0
210
0.0
220
0.0
230
1.0
  2
SOLID
 70
     1
 71
     0
 91
        1
 92
        3
 72
     0
 73
     1
 93
        4
 10
17079.46542742271
 20
-12932.11112845106
 10
17139.46146734148
 20
-12932.11112845106
 10
17139.46146734148
 20
-12977.11112845106
 10
17079.46542742271
 20
-12977.11112845106
 97
        0
 75
     0
 76
     1
 98
        0
  0
LWPOLYLINE
  5
2A9
330
1F
100
AcDbEntity
  8
Ech.1_5
  6
Continuous
 62
     7
370
    20
390
5F
100
AcDbPolyline
 90
        5
 70
     0
 43
0.0
 10
17079.46542742271
 20
-12932.11112845106
 10
17139.46146734148
 20
-12932.11112845106
 10
17139.46146734148
 20
-12977.11112845106
 10
17079.46542742271
 20
-12977.11112845106
 10
17079.46542742271
 20
-12932.11112845106
  0
LINE
  5
2AA
330
1F
100
AcDbEntity
  8
Ech.1_5
  6
Continuous
 62
   190
370
    15
390
5F
100
AcDbLine
 10
17139.46146734148
 20
-12932.11112845106
 30
0.0
 11
17079.46542742271
 21
-12977.11112845106
 31
0.0
  0
LINE
  5
2AB
330
1F
100
AcDbEntity
  8
Ech.1_5
  6
Continuous
 62
   190
370
    15
390
5F
100
AcDbLine
 10
17139.46146734148
 20
-12977.11112845106
 30
0.0
 11
17079.46542742271
 21
-12932.11112845106
 31
0.0
  0
LWPOLYLINE
  5
2AC
330
1F
100
AcDbEntity
  8
Ech.1_5
  6
Continuous
 62
   190
370
    15
390
5F
100
AcDbPolyline
 90
        5
 70
     0
 43
0.0
 10
17079.46542742271
 20
-12932.11112845106
 10
17139.46146734148
 20
-12932.11112845106
 10
17139.46146734148
 20
-12977.11112845106
 10
17079.46542742271
 20
-12977.11112845106
 10
17079.46542742271
 20
-12932.11112845106
  0
LWPOLYLINE
  5
2AD
330
1F
100
AcDbEntity
  8
Ech.1_5
  6
Continuous
 62
     5
370
    40
390
5F
100
AcDbPolyline
 90
        5
 70
     0
 43
0.0
 10
17079.46542742271
 20
-12932.11112845106
 10
17139.46146734148
 20
-12932.11112845106
 10
17139.46146734148
 20
-12977.11112845106
 10
17079.46542742271
 20
-12977.11112845106
 10
17079.46542742271
 20
-12932.11112845106
  0
LWPOLYLINE
  5
2AE
330
1F
100
AcDbEntity
  8
Ech.1_5
  6
Continuous
 62
     5
370
    40
390
5F
100
AcDbPolyline
 90
        5
 70
     0
 43
0.0
 10
17293.46146734169
 20
-13385.86630175541
 10
17333.46146734159
 20
-13385.86630175547
 10
17333.46146734159
 20
-13340.86630175547
 10
17293.46146734155
 20
-13340.86630175547
 10
17293.46146734169
 20
-13385.86630175541
  0
LWPOLYLINE
  5
2AF
330
1F
100
AcDbEntity
  8
Ech.1_5
  6
Continuous
 62
   190
370
    15
390
5F
100
AcDbPolyline
 90
        4
 70
     0
 43
0.0
 10
17293.46146734155
 20
-13340.86630175547
 10
17333.46146734159
 20
-13385.86630175547
 10
17333.46146734165
 20
-13340.86630175547
 10
17293.46146734169
 20
-13385.86630175541
  0
LWPOLYLINE
  5
2B0
330
1F
100
AcDbEntity
  8
Ech.1_5
  6
Continuous
 62
     7
370
    20
390
5F
100
AcDbPolyline
 90
        6
 70
     0
 43
0.0
 10
17346.46288252937
 20
-13181.20145730185
 10
17349.46146732634
 20
-13181.20152622536
 42
-0.4142135623726063
 10
17359.46146732634
 20
-13191.20152622536
 10
17359.46146732633
 20
-13246.86629953537
 10
17346.46146734162
 20
-13246.86630187026
 10
17346.46146734162
 20
-13181.20152856019
  0
LINE
  5
2B1
330
1F
100
AcDbEntity
  8
Ech.1_5
  6
Continuous
 62
   190
370
    15
390
5F
100
AcDbLine
 10
17348.88292656869
 20
-13410.86630175407
 30
0.0
 11
17274.66727609038
 21
-13410.86630175407
 31
0.0
  0
HATCH
  5
2B2
330
1F
100
AcDbEntity
  8
Ech.1_5
  6
Continuous
 62
   254
420
 14407639
440
 33554687
370
     5
390
5F
100
AcDbHatch
 10
0.0
 20
0.0
 30
0.0
210
0.0
220
0.0
230
1.0
  2
SOLID
 70
     1
 71
     0
 91
        1
 92
        3
 72
     0
 73
     1
 93
        4
 10
17346.46146734161
 20
-12891.61653678276
 10
17333.46146734161
 20
-12891.61653678276
 10
17333.46146734161
 20
-13400.86630175407
 10
17346.46146734161
 20
-13400.86630175407
 97
        0
 75
     0
 76
     1
 98
        0
  0
HATCH
  5
2B3
330
1F
100
AcDbEntity
  8
Ech.1_5
  6
Continuous
 62
   190
440
 33554687
370
    15
390
281
100
AcDbHatch
 10
0.0
 20
0.0
 30
0.0
210
0.0
220
0.0
230
1.0
  2
CwHatchPattern_84
 70
     0
 71
     0
 91
        1
 92
        3
 72
     0
 73
     1
 93
        4
 10
17346.46146734161
 20
-12891.61653678276
 10
17333.46146734161
 20
-12891.61653678276
 10
17333.46146734161
 20
-13400.86630175407
 10
17346.46146734161
 20
-13400.86630175407
 97
        0
 75
     0
 76
     2
 52
0.0
 41
1.0
 77
     0
 78
     2
 53
0.0
 43
0.0
 44
0.0
 45
0.0
 46
70.0
 79
     2
 49
0.0
 49
-70.0
 53
0.0
 43
35.0
 44
35.0
 45
0.0
 46
70.0
 79
     2
 49
0.0
 49
-70.0
 98
        0
1001
ACAD
1010
0.0
1020
0.0
1030
0.0
  0
LWPOLYLINE
  5
2B4
330
1F
100
AcDbEntity
  8
Ech.1_5
  6
Continuous
 62
   190
370
    15
390
5F
100
AcDbPolyline
 90
        5
 70
     0
 43
0.0
 10
17346.46146734161
 20
-12891.61653678276
 10
17333.46146734161
 20
-12891.61653678276
 10
17333.46146734161
 20
-13400.86630175407
 10
17346.46146734161
 20
-13400.86630175407
 10
17346.46146734161
 20
-12891.61653678276
  0
LWPOLYLINE
  5
2B5
330
1F
100
AcDbEntity
  8
Ech.1_5
  6
Continuous
 62
     9
370
    25
390
5F
100
AcDbPolyline
 90
        5
 70
     0
 43
0.0
 38
2500.0
 10
17369.3408656186
 20
-13410.37671687599
 10
17351.63260663481
 20
-13410.37671687599
 10
17351.63260663481
 20
-13243.21310895836
 10
17349.02780309102
 20
-13240.26173179578
 10
17349.02780309102
 20
-13219.1241507844
  0
LINE
  5
2B6
330
1F
100
AcDbEntity
  8
Ech.1_5
  6
Continuous
 62
     9
370
    70
390
5F
100
AcDbLine
 10
17347.92939344706
 20
-13243.61266812626
 30
2500.0
 11
17347.92939344706
 21
-13410.57786801722
 31
2500.0
  0
LWPOLYLINE
  5
2B7
330
1F
100
AcDbEntity
  8
Ech.1_5
  6
Continuous
 62
     9
370
    35
390
5F
100
AcDbPolyline
 90
        3
 70
     0
 43
0.0
 38
2500.0
 10
17368.57723393493
 20
-13309.17981720258
 10
17354.0364816583
 20
-13309.17981720258
 10
17354.0364816583
 20
-13291.42124125372
  0
LWPOLYLINE
  5
2B8
330
1F
100
AcDbEntity
  8
Ech.1_5
  6
Continuous
 62
     9
370
    15
390
5F
100
AcDbPolyline
 90
       48
 70
     0
 43
0.0
 38
2500.0
 10
17762.87141399835
 20
-13398.97482336388
 42
-0.9706398554040253
 10
17730.95936915977
 20
-13389.39638976763
 10
17746.49022481385
 20
-13331.35704409466
 42
1.30322618685557
 10
17714.29270251177
 20
-13331.35704409458
 10
17729.82355816554
 20
-13389.39638976762
 42
-1.303226186855796
 10
17697.62603586346
 20
-13389.39638976754
 10
17713.15689151754
 20
-13331.35704409458
 42
1.303226186855457
 10
17680.95936921546
 20
-13331.35704409449
 10
17696.49022486922
 20
-13389.39638976753
 42
-1.30322618685557
 10
17664.29270256715
 20
-13389.39638976745
 10
17679.82355822122
 20
-13331.35704409449
 42
1.303226186855457
 10
17647.62603591914
 20
-13331.3570440944
 10
17663.15689157291
 20
-13389.39638976745
 42
-1.30322618685557
 10
17630.95936927084
 20
-13389.39638976736
 10
17646.49022492491
 20
-13331.3570440944
 42
1.303226186855684
 10
17614.29270262284
 20
-13331.35704409431
 10
17629.8235582766
 20
-13389.39638976736
 42
-1.30322618685557
 10
17597.62603597452
 20
-13389.39638976728
 10
17613.1568916286
 20
-13331.35704409431
 42
1.303226186855684
 10
17580.95936932652
 20
-13331.35704409423
 10
17596.49022498029
 20
-13389.39638976727
 42
-1.30322618685557
 10
17564.29270267821
 20
-13389.39638976719
 10
17579.82355833229
 20
-13331.35704409423
 42
1.303226186855684
 10
17547.62603603021
 20
-13331.35704409414
 10
17563.15689168398
 20
-13389.39638976719
 42
-1.30322618685557
 10
17530.9593693819
 20
-13389.3963897671
 10
17546.49022503597
 20
-13331.35704409414
 42
1.30322618685557
 10
17514.2927027339
 20
-13331.35704409405
 10
17529.82355838767
 20
-13389.3963897671
 42
-1.30322618685557
 10
17497.62603608559
 20
-13389.39638976701
 10
17513.15689173967
 20
-13331.35704409405
 42
1.30322618685557
 10
17480.95936943759
 20
-13331.35704409397
 10
17496.49022509135
 20
-13389.39638976701
 42
-1.30322618685557
 10
17464.29270278927
 20
-13389.39638976693
 10
17479.82355844335
 20
-13331.35704409396
 42
1.30322618685557
 10
17447.62603614127
 20
-13331.35704409388
 10
17463.15689179504
 20
-13389.39638976692
 42
-1.303226186855683
 10
17430.95936949296
 20
-13389.39638976684
 10
17446.49022514704
 20
-13331.35704409387
 42
1.30322618685557
 10
17414.29270284496
 20
-13331.35704409379
 10
17429.82355849873
 20
-13389.39638976684
 42
-1.303226186855683
 10
17397.62603619665
 20
-13389.39638976675
 10
17413.15689185073
 20
-13331.35704409379
 42
1.30322618685557
 10
17380.95936954865
 20
-13331.3570440937
 10
17396.49022520242
 20
-13389.39638976675
 42
-1.303226186855683
 10
17364.29270290034
 20
-13389.39638976666
 10
17379.82355855442
 20
-13331.3570440937
 42
0.8999121146780465
 10
17348.88292656962
 20
-13319.46072926254
  0
LWPOLYLINE
  5
2B9
330
1F
100
AcDbEntity
  8
Ech.1_5
  6
Continuous
 62
     9
370
    15
390
5F
100
AcDbPolyline
 90
        3
 70
     0
 43
0.0
 38
2500.0
 10
17762.87141399835
 20
-13310.39857919979
 42
0.477323916270229
 10
17747.62603580808
 20
-13331.35704409467
 10
17762.87141399835
 20
-13388.32955059573
  0
HATCH
  5
2BA
330
1F
100
AcDbEntity
  8
Ech.1_5
  6
Continuous
 62
     9
440
 33554687
370
    15
390
5F
100
AcDbHatch
 10
0.0
 20
0.0
 30
0.0
210
0.0
220
0.0
230
1.0
  2
CwHatchPattern_31
 70
     0
 71
     0
 91
        1
 92
        3
 72
     0
 73
     1
 93
        8
 10
17153.4608046494
 20
-13610.37671687218
 10
16901.54856196617
 20
-13610.37671687218
 10
16901.54856196617
 20
-13653.55460415737
 10
16919.52691357059
 20
-13670.04095823891
 10
16883.57121355879
 20
-13655.9310182211
 10
16901.54856196618
 20
-13672.41652137701
 10
16901.54856196619
 20
-13708.19780028259
 10
17153.46094989758
 20
-13708.19780028247
 97
        0
 75
     0
 76
     2
 52
0.0
 41
1.0
 77
     0
 78
     1
 53
45.00000000000297
 43
0.0
 44
0.0
 45
-14.14213562373168
 46
14.14213562373022
 79
     0
 98
        0
1001
ACAD
1010
0.0
1020
0.0
1030
0.0
  0
LWPOLYLINE
  5
2BB
330
1F
100
AcDbEntity
  8
Ech.1_5
  6
Continuous
 62
     9
370
    15
390
5F
100
AcDbPolyline
 90
        9
 70
     0
 43
0.0
 10
17153.4608046494
 20
-13610.37671687218
 10
16901.54856196617
 20
-13610.37671687218
 10
16901.54856196617
 20
-13653.55460415737
 10
16919.52691357059
 20
-13670.04095823891
 10
16883.57121355879
 20
-13655.9310182211
 10
16901.54856196618
 20
-13672.41652137701
 10
16901.54856196619
 20
-13708.19780028259
 10
17153.46094989758
 20
-13708.19780028247
 10
17153.4608046494
 20
-13610.37671687218
  0
HATCH
  5
2BC
330
1F
100
AcDbEntity
  8
Ech.1_5
  6
Continuous
 62
     9
440
 33554687
370
    15
390
5F
100
AcDbHatch
 10
0.0
 20
0.0
 30
0.0
210
0.0
220
0.0
230
1.0
  2
CwHatchPattern_22
 70
     0
 71
     0
 91
        1
 92
        3
 72
     0
 73
     1
 93
        4
 10
17751.79303969254
 20
-12858.07156411138
 10
17751.79303969254
 20
-12872.07156411138
 10
17762.87141399835
 20
-12872.0715601641
 10
17762.87141399835
 20
-12858.07156013469
 97
        0
 75
     0
 76
     2
 52
0.0
 41
1.0
 77
     0
 78
     1
 53
135.0000000000089
 43
0.0
 44
0.0
 45
-7.071067811864377
 46
-7.071067811866573
 79
     0
 98
        0
1001
ACAD
1010
0.0
1020
0.0
1030
0.0
  0
LWPOLYLINE
  5
2BD
330
1F
100
AcDbEntity
  8
Ech.1_5
  6
Continuous
 62
     9
370
    15
390
5F
100
AcDbPolyline
 90
        5
 70
     0
 43
0.0
 10
17751.79303969254
 20
-12858.07156411138
 10
17751.79303969254
 20
-12872.07156411138
 10
17762.87141399835
 20
-12872.0715601641
 10
17762.87141399835
 20
-12858.07156013469
 10
17751.79303969254
 20
-12858.07156411138
  0
LWPOLYLINE
  5
2BE
330
1F
100
AcDbEntity
  8
Ech.1_5
  6
Continuous
 62
     9
370
    15
390
5F
100
AcDbPolyline
 90
        3
 70
     0
 43
0.0
 38
2500.0
 10
17762.87141399835
 20
-13019.33931524108
 42
-0.323602896323543
 10
17755.91649450867
 20
-13001.09123922721
 10
17762.87141399835
 20
-12975.10046412863
  0
ARC
  5
2BF
330
1F
100
AcDbEntity
  8
Ech.1_5
  6
Continuous
 62
     9
370
    15
390
5F
100
AcDbCircle
 10
17755.34858901156
 20
-12938.73823309439
 30
2500.0
 40
16.66666664815552
100
AcDbArc
 50
63.16841636818315
 51
135.0076426546463
  0
LWPOLYLINE
  5
2C0
330
1F
100
AcDbEntity
  8
Ech.1_5
  6
Continuous
 62
   190
370
    15
390
5F
100
AcDbPolyline
 90
        5
 70
     0
 43
0.0
 10
17762.87141399835
 20
-12590.06557792517
 10
16777.87141399835
 20
-12590.06557792517
 10
16777.87141399835
 20
-13945.06557792518
 10
17762.87141399835
 20
-13945.06557792518
 10
17762.87141399835
 20
-12590.06557792517
  0
LWPOLYLINE
  5
2C1
330
1F
100
AcDbEntity
  8
Ech.1_5
  6
Continuous
 62
   190
370
    15
390
5F
100
AcDbPolyline
 90
        5
 70
     0
 43
0.0
 10
16777.87141399835
 20
-13712.13554285447
 10
17762.87141399835
 20
-13712.13554285447
 10
17762.87141399835
 20
-13945.06557792518
 10
16777.87141399835
 20
-13945.06557792518
 10
16777.87141399835
 20
-13712.13554285447
  0
LWPOLYLINE
  5
2C2
330
1F
100
AcDbEntity
  8
Ech.1_5
  6
Continuous
 62
   190
370
    15
390
5F
100
AcDbPolyline
 90
        5
 70
     0
 43
0.0
 10
17762.87141399835
 20
-13807.65250586012
 10
16777.87141399835
 20
-13807.65250586012
 10
16777.87141399835
 20
-13712.13554285447
 10
17762.87141399835
 20
-13712.13554285447
 10
17762.87141399835
 20
-13807.65250586012
  0
LWPOLYLINE
  5
2C3
330
1F
100
AcDbEntity
  8
Ech.1_5
  6
Continuous
 62
   190
370
    15
390
5F
100
AcDbPolyline
 90
        5
 70
     0
 43
0.0
 10
17762.87141399835
 20
-13829.65250586012
 10
16777.87141399835
 20
-13829.65250586012
 10
16777.87141399835
 20
-13807.65250586012
 10
17762.87141399835
 20
-13807.65250586012
 10
17762.87141399835
 20
-13829.65250586012
  0
LWPOLYLINE
  5
2C4
330
1F
100
AcDbEntity
  8
Ech.1_5
  6
Continuous
 62
   190
370
    15
390
5F
100
AcDbPolyline
 90
        5
 70
     0
 43
0.0
 10
17762.87141399835
 20
-13886.52365109046
 10
16777.87141399835
 20
-13886.52365109046
 10
16777.87141399835
 20
-13862.79662277972
 10
17762.87141399835
 20
-13862.79662277972
 10
17762.87141399835
 20
-13886.52365109046
  0
LINE
  5
2C5
330
1F
100
AcDbEntity
  8
Ech.1_5
  6
Continuous
 62
   190
370
    15
390
5F
100
AcDbLine
 10
16966.07597596131
 20
-13807.65250586012
 30
0.0
 11
16966.07597596131
 21
-13829.65250586012
 31
0.0
  0
LINE
  5
2C6
330
1F
100
AcDbEntity
  8
Ech.1_5
  6
Continuous
 62
   190
370
    15
390
5F
100
AcDbLine
 10
17623.07407859185
 20
-13807.65250586012
 30
0.0
 11
17623.07407859185
 21
-13829.65250586012
 31
0.0
  0
LINE
  5
2C7
330
1F
100
AcDbEntity
  8
Ech.1_5
  6
Continuous
 62
   190
370
    15
390
5F
100
AcDbLine
 10
17122.23119395666
 20
-13807.65250586012
 30
0.0
 11
17122.23119395666
 21
-13829.65250586012
 31
0.0
  0
LWPOLYLINE
  5
2C9
330
1F
100
AcDbEntity
  8
Ech.1_5
  6
CADWORK_22
 62
     1
 48
0.6
370
    35
390
5F
100
AcDbPolyline
 90
        6
 70
   128
 43
0.0
 10
17294.96146734155
 20
-12891.61678907795
 10
17294.96146734155
 20
-13408.87481185386
 10
17332.35412348725
 20
-13408.87481185386
 10
17340.56188581487
 20
-13400.77461865951
 10
17347.14124323093
 20
-13408.87463277368
 10
17373.80039510332
 20
-13408.87463277368
  0
LWPOLYLINE
  5
2CA
330
1F
100
AcDbEntity
  8
Ech.1_5
  6
Continuous
 62
   190
370
    15
390
5F
100
AcDbPolyline
 90
       41
 70
     0
 43
0.0
 10
17220.24618346395
 20
-13446.42340543359
 10
17234.09709169525
 20
-13445.8519679263
 10
17247.60694459737
 20
-13444.15172609241
 10
17260.44308475522
 20
-13441.36454552857
 10
17272.28944379742
 20
-13437.55905587045
 10
17282.85432504852
 20
-13432.8289609031
 10
17291.87758606931
 20
-13427.2907312629
 10
17299.13704422696
 20
-13421.08073654395
 10
17304.45394756887
 20
-13414.35188742598
 10
17307.69737628896
 20
-13407.26987050607
 10
17308.78746640784
 20
-13400.00906854466
 10
17307.69737628896
 20
-13392.74826658321
 10
17304.45394756887
 20
-13385.6662496633
 10
17299.13704422696
 20
-13378.93740054534
 10
17291.87758606931
 20
-13372.72740582638
 10
17282.85432504852
 20
-13367.18917618618
 10
17272.28944379742
 20
-13362.45908121883
 10
17260.44308475522
 20
-13358.65359156072
 10
17247.60694459737
 20
-13355.8664109969
 10
17234.09709169525
 20
-13354.16616916298
 10
17220.24618346395
 20
-13353.59473165569
 10
17206.39527523264
 20
-13354.16616916298
 10
17192.88542233052
 20
-13355.8664109969
 10
17180.04928217267
 20
-13358.65359156072
 10
17168.20292313048
 20
-13362.45908121883
 10
17157.63804187936
 20
-13367.18917618618
 10
17148.61478085858
 20
-13372.72740582638
 10
17141.35532270093
 20
-13378.93740054534
 10
17136.03841935902
 20
-13385.6662496633
 10
17132.79499063893
 20
-13392.74826658321
 10
17131.70490052005
 20
-13400.00906854466
 10
17132.79499063893
 20
-13407.26987050607
 10
17136.03841935902
 20
-13414.35188742598
 10
17141.35532270093
 20
-13421.08073654395
 10
17148.61478085858
 20
-13427.2907312629
 10
17157.63804187936
 20
-13432.8289609031
 10
17168.20292313048
 20
-13437.55905587045
 10
17180.04928217267
 20
-13441.36454552857
 10
17192.88542233052
 20
-13444.15172609241
 10
17206.39527523264
 20
-13445.8519679263
 10
17220.24618346395
 20
-13446.42340543359
  0
LWPOLYLINE
  5
2CB
330
1F
100
AcDbEntity
  8
Ech.1_5
  6
CADWORK_22
 62
   140
420
  1483507
 48
0.6
370
    35
390
5F
100
AcDbPolyline
 90
        2
 70
   128
 43
0.0
 38
2500.0
 10
17077.96146734148
 20
-12891.61716536571
 10
17077.96146734148
 20
-13410.37671687087
  0
LWPOLYLINE
  5
2CC
330
1F
100
AcDbEntity
  8
Ech.1_5
  6
Continuous
 62
     7
370
    20
390
5F
100
AcDbPolyline
 90
        5
 70
     0
 43
0.0
 10
17012.92574480161
 20
-13647.75569963099
 10
17377.04606823574
 20
-13647.75569963099
 10
17377.04606823574
 20
-13156.19828061392
 10
17012.92574480161
 20
-13156.19828061392
 10
17012.92574480161
 20
-13647.75569963099
  0
LWPOLYLINE
  5
2CD
330
1F
100
AcDbEntity
  8
Ech.1_5
  6
CADWORK_22
 62
   140
420
  1483507
 48
0.6
370
    35
390
5F
100
AcDbPolyline
 90
        2
 70
   128
 43
0.0
 38
2500.0
 10
17474.04518124721
 20
-12618.14719738135
 10
17474.04518124721
 20
-12822.07156632889
  0
LWPOLYLINE
  5
2CE
330
1F
100
AcDbEntity
  8
Ech.1_5
  6
CADWORK_22
 62
     1
 48
0.6
370
    35
390
5F
100
AcDbPolyline
 90
        6
 70
   128
 43
0.0
 10
17692.06190409954
 20
-12618.14719738135
 10
17692.06190409954
 20
-13020.5717454153
 10
17709.31067961433
 20
-13020.5717454153
 10
17717.51844194194
 20
-13012.47155222095
 10
17724.09779935799
 20
-13020.57156633518
 10
17750.7569512304
 20
-13020.57156633518
  0
LWPOLYLINE
  5
2CF
330
1F
100
AcDbEntity
  8
Ech.1_5
  6
Continuous
 62
     7
370
    20
390
5F
100
AcDbPolyline
 90
        5
 70
     0
 43
0.0
 10
17384.55379771211
 20
-13109.7046163984
 10
17762.87141399835
 20
-13109.7046163984
 10
17762.87141399835
 20
-12618.14719738135
 10
17384.55379771211
 20
-12618.14719738135
 10
17384.55379771211
 20
-13109.7046163984
  0
LINE
  5
2D0
330
1F
100
AcDbEntity
  8
Ech.1_5
  6
Continuous
 62
   190
370
    15
390
5F
100
AcDbLine
 10
16954.02784283506
 20
-13610.37604553208
 30
0.0
 11
16983.80871263337
 21
-13610.37604553208
 31
0.0
  0
LINE
  5
2D1
330
1F
100
AcDbEntity
  8
Ech.1_5
  6
Continuous
 62
   190
370
    15
390
5F
100
AcDbLine
 10
17062.60407609888
 20
-13410.37546384096
 30
0.0
 11
16993.45163617311
 21
-13410.37546384096
 31
0.0
  0
LINE
  5
2D2
330
1F
100
AcDbEntity
  8
Ech.1_5
  6
Continuous
 62
   190
370
    15
390
5F
100
AcDbLine
 10
16993.63163617312
 20
-13440.37543348479
 30
0.0
 11
16993.63163617312
 21
-13410.37546384096
 31
0.0
  0
LINE
  5
2D3
330
1F
100
AcDbEntity
  8
Ech.1_5
  6
Continuous
 62
   190
370
    15
390
5F
100
AcDbLine
 10
16990.13163613138
 20
-13436.87543352653
 30
0.0
 11
16997.13163621485
 21
-13443.87543344306
 31
0.0
  0
LINE
  5
2D4
330
1F
100
AcDbEntity
  8
Ech.1_5
  6
Continuous
 62
   190
370
    15
390
5F
100
AcDbLine
 10
16997.1316363261
 20
-13413.87546368793
 30
0.0
 11
16990.13163602012
 21
-13406.87546399393
 31
0.0
  0
LINE
  5
2D5
330
1F
100
AcDbEntity
  8
Ech.1_5
  6
Continuous
 62
   190
370
    15
390
5F
100
AcDbLine
 10
17404.91530803837
 20
-12848.5722259645
 30
0.0
 11
17411.91530812184
 21
-12855.57222588103
 31
0.0
  0
LINE
  5
2D6
330
1F
100
AcDbEntity
  8
Ech.1_5
  6
Continuous
 62
   190
370
    15
390
5F
100
AcDbLine
 10
17411.91530823309
 20
-12825.57225612594
 30
0.0
 11
17404.91530792711
 21
-12818.57225643193
 31
0.0
  0
LINE
  5
2D7
330
1F
100
AcDbEntity
  8
Ech.1_5
  6
Continuous
 62
   190
370
    15
390
5F
100
AcDbLine
 10
17433.35153740256
 20
-12852.07222592277
 30
0.0
 11
17408.2353080801
 21
-12852.07222592277
 31
0.0
  0
LINE
  5
2D8
330
1F
100
AcDbEntity
  8
Ech.1_5
  6
Continuous
 62
   190
370
    15
390
5F
100
AcDbLine
 10
17477.38774800587
 20
-12822.07225627894
 30
0.0
 11
17408.2353080801
 21
-12822.07225627894
 31
0.0
  0
LINE
  5
2D9
330
1F
100
AcDbEntity
  8
Ech.1_5
  6
Continuous
 62
   190
370
    15
390
5F
100
AcDbLine
 10
17408.4153080801
 20
-12852.07222592277
 30
0.0
 11
17408.4153080801
 21
-12822.07225627894
 31
0.0
  0
LINE
  5
2DA
330
1F
100
AcDbEntity
  8
Ech.1_5
  6
Continuous
 62
   190
370
    15
390
5F
100
AcDbLine
 10
17404.91530803837
 20
-12848.5722259645
 30
0.0
 11
17411.91530812184
 21
-12855.57222588103
 31
0.0
  0
LINE
  5
2DB
330
1F
100
AcDbEntity
  8
Ech.1_5
  6
Continuous
 62
   190
370
    15
390
5F
100
AcDbLine
 10
17411.91530823309
 20
-12825.57225612594
 30
0.0
 11
17404.91530792711
 21
-12818.57225643191
 31
0.0
  0
LINE
  5
2DC
330
1F
100
AcDbEntity
  8
Ech.1_5
  6
Continuous
 62
   190
370
    15
390
5F
100
AcDbLine
 10
17408.4153080801
 20
-12852.07222592277
 30
0.0
 11
17408.4153080801
 21
-12822.07222592277
 31
0.0
  0
LINE
  5
2DD
330
1F
100
AcDbEntity
  8
Ech.1_5
  6
Continuous
 62
   190
370
    15
390
5F
100
AcDbLine
 10
17475.08197717242
 20
-12822.07222592277
 30
0.0
 11
17408.2353080801
 21
-12822.07222592277
 31
0.0
  0
LINE
  5
2DE
330
1F
100
AcDbEntity
  8
Ech.1_5
  6
Continuous
 62
   190
370
    15
390
5F
100
AcDbLine
 10
17433.35153740256
 20
-12852.07222592277
 30
0.0
 11
17408.2353080801
 21
-12852.07222592277
 31
0.0
  0
LINE
  5
2DF
330
1F
100
AcDbEntity
  8
Ech.1_5
  6
Continuous
 62
   190
370
    15
390
5F
100
AcDbLine
 10
17477.38774800587
 20
-12822.07225627894
 30
0.0
 11
17408.2353080801
 21
-12822.07225627894
 31
0.0
  0
LINE
  5
2E0
330
1F
100
AcDbEntity
  8
Ech.1_5
  6
Continuous
 62
   190
370
    15
390
5F
100
AcDbLine
 10
17404.91530803837
 20
-12848.5722259645
 30
0.0
 11
17411.91530812185
 21
-12855.57222588103
 31
0.0
  0
LINE
  5
2E1
330
1F
100
AcDbEntity
  8
Ech.1_5
  6
Continuous
 62
   190
370
    15
390
5F
100
AcDbLine
 10
17018.56786549557
 20
-13440.37543348479
 30
0.0
 11
16993.45163617311
 21
-13440.37543348479
 31
0.0
  0
LINE
  5
2E2
330
1F
100
AcDbEntity
  8
Ech.1_5
  6
Continuous
 62
   190
370
    15
390
5F
100
AcDbLine
 10
17411.9153082331
 20
-12825.57222576977
 30
0.0
 11
17404.91530792711
 21
-12818.57222607574
 31
0.0
  0
LINE
  5
2E3
330
1F
100
AcDbEntity
  8
Ech.1_5
  6
Continuous
 62
   190
370
    15
390
5F
100
AcDbLine
 10
17408.4153080801
 20
-12852.07222592277
 30
0.0
 11
17408.4153080801
 21
-12822.07225627894
 31
0.0
  0
HATCH
  5
2E4
330
1F
100
AcDbEntity
  8
Ech.1_5
  6
Continuous
 62
   158
420
    12131
440
 33554687
370
    20
390
5F
100
AcDbHatch
 10
0.0
 20
0.0
 30
0.0
210
0.0
220
0.0
230
1.0
  2
SOLID
 70
     1
 71
     0
 91
        1
 92
        3
 72
     0
 73
     1
 93
       18
 10
16836.21703976198
 20
-13928.7775344314
 10
16836.21703976198
 20
-13925.3888709514
 10
16836.80734104198
 20
-13925.3888709514
 10
16837.88770376198
 20
-13927.2071102714
 10
16838.23297432198
 20
-13927.7946271114
 10
16838.33042972198
 20
-13927.99232235139
 10
16838.28030980198
 20
-13927.5495963914
 10
16838.28030980198
 20
-13927.1068704314
 10
16838.23297432198
 20
-13925.3888709514
 10
16838.72303576198
 20
-13925.3888709514
 10
16838.72303576198
 20
-13928.7775344314
 10
16838.23297432198
 20
-13928.7775344314
 10
16837.15261160198
 20
-13926.9592951114
 10
16836.90479644198
 20
-13926.6168089914
 10
16836.65976572198
 20
-13926.07662763141
 10
16836.65976572198
 20
-13926.3717782714
 10
16836.70988564198
 20
-13927.0094150314
 10
16836.70988564198
 20
-13928.7775344314
 97
        0
 75
     0
 76
     1
 98
        0
  0
HATCH
  5
2E5
330
1F
100
AcDbEntity
  8
Ech.1_5
  6
Continuous
 62
   158
420
    12131
440
 33554687
370
    20
390
5F
100
AcDbHatch
 10
0.0
 20
0.0
 30
0.0
210
0.0
220
0.0
230
1.0
  2
SOLID
 70
     1
 71
     0
 91
        1
 92
        3
 72
     0
 73
     1
 93
       62
 10
16840.83642572198
 20
-13928.8276543514
 10
16840.54127508198
 20
-13928.8276543514
 10
16839.90085388198
 20
-13928.68007903141
 10
16839.60848768198
 20
-13928.53250371141
 10
16839.80339848198
 20
-13928.08977775141
 10
16840.09854912198
 20
-13928.2373530714
 10
16840.63873048198
 20
-13928.3849283914
 10
16840.88376120198
 20
-13928.3849283914
 10
16841.08145644198
 20
-13928.3849283914
 10
16841.32648716198
 20
-13928.3348084714
 10
16841.42394256198
 20
-13928.28747299139
 10
16841.57151788198
 20
-13928.13989767139
 10
16841.66897328198
 20
-13928.03965783139
 10
16841.66897328198
 20
-13927.9422024314
 10
16841.66897328198
 20
-13927.7472916314
 10
16841.62163780198
 20
-13927.5997163114
 10
16841.47406248198
 20
-13927.45214099141
 10
16841.17891184198
 20
-13927.3519011514
 10
16841.03133652198
 20
-13927.30456567141
 10
16840.54127508198
 20
-13927.15699035141
 10
16840.39369976198
 20
-13927.1068704314
 10
16840.04842920198
 20
-13926.9592951114
 10
16839.85351840198
 20
-13926.71426439141
 10
16839.75327856198
 20
-13926.4692336714
 10
16839.75327856198
 20
-13926.27153843141
 10
16839.75327856198
 20
-13926.1740830314
 10
16839.80339848198
 20
-13925.9791722314
 10
16839.90085388198
 20
-13925.78147699141
 10
16840.00109372198
 20
-13925.63390167142
 10
16840.24612444198
 20
-13925.48632635141
 10
16840.68885040198
 20
-13925.29141555141
 10
16840.98121660198
 20
-13925.29141555141
 10
16841.32648716198
 20
-13925.29141555141
 10
16841.91678844198
 20
-13925.48632635141
 10
16842.16181916198
 20
-13925.63390167142
 10
16841.91678844198
 20
-13926.0265077114
 10
16841.71909320198
 20
-13925.87893239141
 10
16841.22903176198
 20
-13925.7313570714
 10
16840.98121660198
 20
-13925.7313570714
 10
16840.83642572198
 20
-13925.7313570714
 10
16840.58861056198
 20
-13925.78147699141
 10
16840.44103524198
 20
-13925.87893239141
 10
16840.39369976198
 20
-13925.9791722314
 10
16840.34357984198
 20
-13926.07662763141
 10
16840.29345992198
 20
-13926.1740830314
 10
16840.29345992198
 20
-13926.27153843141
 10
16840.58861056198
 20
-13926.6168089914
 10
16840.88376120198
 20
-13926.71426439141
 10
16841.32648716198
 20
-13926.81171979139
 10
16841.52139796198
 20
-13926.86183971141
 10
16841.91678844198
 20
-13927.05953495139
 10
16842.01424384198
 20
-13927.15699035141
 10
16842.11169924198
 20
-13927.25444575139
 10
16842.25927456198
 20
-13927.5997163114
 10
16842.25927456198
 20
-13927.7472916314
 10
16842.25927456198
 20
-13927.89208251139
 10
16842.16181916198
 20
-13928.13989767139
 10
16842.06157932198
 20
-13928.3849283914
 10
16841.86666852198
 20
-13928.5798391914
 10
16841.71909320198
 20
-13928.6299591114
 10
16841.52139796198
 20
-13928.7274145114
 10
16841.08145644198
 20
-13928.8276543514
 97
        0
 75
     0
 76
     1
 98
        0
  0
HATCH
  5
2E6
330
1F
100
AcDbEntity
  8
Ech.1_5
  6
Continuous
 62
   158
420
    12131
440
 33554687
370
    20
390
5F
100
AcDbHatch
 10
0.0
 20
0.0
 30
0.0
210
0.0
220
0.0
230
1.0
  2
SOLID
 70
     1
 71
     0
 91
        1
 92
        3
 72
     0
 73
     1
 93
        8
 10
16843.82969872198
 20
-13928.7775344314
 10
16843.82969872198
 20
-13925.8315969114
 10
16842.84957584198
 20
-13925.8315969114
 10
16842.84957584198
 20
-13925.3888709514
 10
16845.40290732198
 20
-13925.3888709514
 10
16845.35278740198
 20
-13925.8315969114
 10
16844.32254460198
 20
-13925.8315969114
 10
16844.32254460198
 20
-13928.7775344314
 97
        0
 75
     0
 76
     1
 98
        0
  0
HATCH
  5
2E7
330
1F
100
AcDbEntity
  8
Ech.1_5
  6
Continuous
 62
   158
420
    12131
440
 33554687
370
    20
390
5F
100
AcDbHatch
 10
0.0
 20
0.0
 30
0.0
210
0.0
220
0.0
230
1.0
  2
SOLID
 70
     1
 71
     0
 91
        1
 92
        3
 72
     0
 73
     1
 93
        4
 10
16846.18811940198
 20
-13928.7775344314
 10
16846.18811940198
 20
-13925.3888709514
 10
16846.72830076198
 20
-13925.3888709514
 10
16846.72830076198
 20
-13928.7775344314
 97
        0
 75
     0
 76
     1
 98
        0
  0
HATCH
  5
2E8
330
1F
100
AcDbEntity
  8
Ech.1_5
  6
Continuous
 62
   158
420
    12131
440
 33554687
370
    20
390
5F
100
AcDbHatch
 10
0.0
 20
0.0
 30
0.0
210
0.0
220
0.0
230
1.0
  2
SOLID
 70
     1
 71
     0
 91
        1
 92
        3
 72
     0
 73
     1
 93
        8
 10
16848.49642016198
 20
-13928.7775344314
 10
16848.49642016198
 20
-13925.8315969114
 10
16847.51351284198
 20
-13925.8315969114
 10
16847.51351284198
 20
-13925.3888709514
 10
16850.06962876198
 20
-13925.3888709514
 10
16850.01950884198
 20
-13925.8315969114
 10
16849.03660152198
 20
-13925.8315969114
 10
16849.03660152198
 20
-13928.7775344314
 97
        0
 75
     0
 76
     1
 98
        0
  0
HATCH
  5
2E9
330
1F
100
AcDbEntity
  8
Ech.1_5
  6
Continuous
 62
   158
420
    12131
440
 33554687
370
    20
390
5F
100
AcDbHatch
 10
0.0
 20
0.0
 30
0.0
210
0.0
220
0.0
230
1.0
  2
SOLID
 70
     1
 71
     0
 91
        1
 92
        3
 72
     0
 73
     1
 93
       32
 10
16851.98532348198
 20
-13928.8276543514
 10
16851.73750832198
 20
-13928.8276543514
 10
16851.34490228198
 20
-13928.7274145114
 10
16851.04975164198
 20
-13928.5798391914
 10
16850.85484084198
 20
-13928.3348084714
 10
16850.80472092198
 20
-13928.2373530714
 10
16850.75738544198
 20
-13928.08977775141
 10
16850.70726552198
 20
-13927.7946271114
 10
16850.70726552198
 20
-13925.3888709514
 10
16851.19732696198
 20
-13925.3888709514
 10
16851.19732696198
 20
-13927.4020210714
 10
16851.19732696198
 20
-13927.7946271114
 10
16851.24744688198
 20
-13927.99232235139
 10
16851.44514212198
 20
-13928.2373530714
 10
16851.58993300198
 20
-13928.3348084714
 10
16851.83774816198
 20
-13928.3849283914
 10
16851.98532348198
 20
-13928.3849283914
 10
16852.18023428198
 20
-13928.3849283914
 10
16852.42526500198
 20
-13928.28747299139
 10
16852.57284032198
 20
-13928.1872331514
 10
16852.67029572198
 20
-13928.03965783139
 10
16852.72041564198
 20
-13927.7472916314
 10
16852.72041564198
 20
-13925.3888709514
 10
16853.26059700198
 20
-13925.3888709514
 10
16853.26059700198
 20
-13927.5495963914
 10
16853.26059700198
 20
-13927.89208251139
 10
16853.16314160198
 20
-13928.2373530714
 10
16853.06568620198
 20
-13928.43504831139
 10
16852.96544636198
 20
-13928.48238379139
 10
16852.86799096198
 20
-13928.5798391914
 10
16852.67029572198
 20
-13928.7274145114
 10
16852.27768968198
 20
-13928.8276543514
 97
        0
 75
     0
 76
     1
 98
        0
  0
HATCH
  5
2EA
330
1F
100
AcDbEntity
  8
Ech.1_5
  6
Continuous
 62
   158
420
    12131
440
 33554687
370
    20
390
5F
100
AcDbHatch
 10
0.0
 20
0.0
 30
0.0
210
0.0
220
0.0
230
1.0
  2
SOLID
 70
     1
 71
     0
 91
        1
 92
        3
 72
     0
 73
     1
 93
        8
 10
16855.02871640198
 20
-13928.7775344314
 10
16855.02871640198
 20
-13925.8315969114
 10
16854.04580908198
 20
-13925.8315969114
 10
16854.04580908198
 20
-13925.3888709514
 10
16856.60192500198
 20
-13925.3888709514
 10
16856.55180508198
 20
-13925.8315969114
 10
16855.56889776198
 20
-13925.8315969114
 10
16855.56889776198
 20
-13928.7775344314
 97
        0
 75
     0
 76
     1
 98
        0
  0
HATCH
  5
2EB
330
1F
100
AcDbEntity
  8
Ech.1_5
  6
Continuous
 62
   158
420
    12131
440
 33554687
370
    20
390
5F
100
AcDbHatch
 10
0.0
 20
0.0
 30
0.0
210
0.0
220
0.0
230
1.0
  2
SOLID
 70
     1
 71
     0
 91
        1
 92
        3
 72
     0
 73
     1
 93
        8
 10
16835.08934156198
 20
-13935.7024367114
 10
16835.08934156198
 20
-13932.75649919141
 10
16834.10643424198
 20
-13932.75649919141
 10
16834.10643424198
 20
-13932.31377323141
 10
16836.70988564198
 20
-13932.31377323141
 10
16836.61243024198
 20
-13932.75649919141
 10
16835.62952292198
 20
-13932.75649919141
 10
16835.62952292198
 20
-13935.7024367114
 97
        0
 75
     0
 76
     1
 98
        0
  0
HATCH
  5
2EC
330
1F
100
AcDbEntity
  8
Ech.1_5
  6
Continuous
 62
   158
420
    12131
440
 33554687
370
    20
390
5F
100
AcDbHatch
 10
0.0
 20
0.0
 30
0.0
210
0.0
220
0.0
230
1.0
  2
SOLID
 70
     1
 71
     0
 91
        1
 92
        3
 72
     0
 73
     1
 93
       12
 10
16837.44497780198
 20
-13935.7024367114
 10
16837.44497780198
 20
-13932.31377323141
 10
16839.55836776198
 20
-13932.31377323141
 10
16839.46091236198
 20
-13932.75649919141
 10
16837.98515916198
 20
-13932.75649919141
 10
16837.98515916198
 20
-13933.73940651141
 10
16839.21309720198
 20
-13933.73940651141
 10
16839.21309720198
 20
-13934.13201255139
 10
16837.98515916198
 20
-13934.13201255139
 10
16837.98515916198
 20
-13935.2123752714
 10
16839.60848768198
 20
-13935.2123752714
 10
16839.60848768198
 20
-13935.7024367114
 97
        0
 75
     0
 76
     1
 98
        0
  0
HATCH
  5
2ED
330
1F
100
AcDbEntity
  8
Ech.1_5
  6
Continuous
 62
   158
420
    12131
440
 33554687
370
    20
390
5F
100
AcDbHatch
 10
0.0
 20
0.0
 30
0.0
210
0.0
220
0.0
230
1.0
  2
SOLID
 70
     1
 71
     0
 91
        1
 92
        3
 72
     0
 73
     1
 93
       38
 10
16841.96412392198
 20
-13935.75255663141
 10
16841.62163780198
 20
-13935.7024367114
 10
16841.03133652198
 20
-13935.4574059914
 10
16840.58861056198
 20
-13935.01468003141
 10
16840.39369976198
 20
-13934.3770432714
 10
16840.34357984198
 20
-13934.0317727114
 10
16840.39369976198
 20
-13933.63916667142
 10
16840.63873048198
 20
-13933.0015299114
 10
16841.08145644198
 20
-13932.5114684714
 10
16841.66897328198
 20
-13932.26365331139
 10
16841.96412392198
 20
-13932.26365331139
 10
16842.25927456198
 20
-13932.26365331139
 10
16842.74933600198
 20
-13932.41122863139
 10
16842.94703124198
 20
-13932.5114684714
 10
16842.65188060198
 20
-13932.9040745114
 10
16842.50430528198
 20
-13932.75649919141
 10
16842.16181916198
 20
-13932.6562593514
 10
16842.01424384198
 20
-13932.6562593514
 10
16841.86666852198
 20
-13932.6562593514
 10
16841.57151788198
 20
-13932.75649919141
 10
16841.32648716198
 20
-13932.9040745114
 10
16841.12879192198
 20
-13933.0989853114
 10
16841.08145644198
 20
-13933.2465606314
 10
16840.98121660198
 20
-13933.3941359514
 10
16840.93388112198
 20
-13933.78674199141
 10
16840.93388112198
 20
-13934.0317727114
 10
16840.93388112198
 20
-13934.3770432714
 10
16841.08145644198
 20
-13934.8197692314
 10
16841.22903176198
 20
-13934.9645601114
 10
16841.37660708198
 20
-13935.16225535141
 10
16841.81654860198
 20
-13935.30983067141
 10
16842.01424384198
 20
-13935.30983067141
 10
16842.20915464198
 20
-13935.30983067141
 10
16842.60454512198
 20
-13935.2123752714
 10
16842.74933600198
 20
-13935.11213543139
 10
16842.99715116198
 20
-13935.4574059914
 10
16842.79945592198
 20
-13935.6049813114
 10
16842.25927456198
 20
-13935.7024367114
 97
        0
 75
     0
 76
     1
 98
        0
  0
HATCH
  5
2EE
330
1F
100
AcDbEntity
  8
Ech.1_5
  6
Continuous
 62
   158
420
    12131
440
 33554687
370
    20
390
5F
100
AcDbHatch
 10
0.0
 20
0.0
 30
0.0
210
0.0
220
0.0
230
1.0
  2
SOLID
 70
     1
 71
     0
 91
        1
 92
        3
 72
     0
 73
     1
 93
       12
 10
16843.68490784198
 20
-13935.7024367114
 10
16843.68490784198
 20
-13932.31377323141
 10
16844.22508920198
 20
-13932.31377323141
 10
16844.22508920198
 20
-13933.68928659139
 10
16845.74539344198
 20
-13933.68928659139
 10
16845.74539344198
 20
-13932.31377323141
 10
16846.23823932198
 20
-13932.31377323141
 10
16846.23823932198
 20
-13935.7024367114
 10
16845.74539344198
 20
-13935.7024367114
 10
16845.74539344198
 20
-13934.13201255139
 10
16844.22508920198
 20
-13934.13201255139
 10
16844.22508920198
 20
-13935.7024367114
 97
        0
 75
     0
 76
     1
 98
        0
  0
HATCH
  5
2EF
330
1F
100
AcDbEntity
  8
Ech.1_5
  6
Continuous
 62
   158
420
    12131
440
 33554687
370
    20
390
5F
100
AcDbHatch
 10
0.0
 20
0.0
 30
0.0
210
0.0
220
0.0
230
1.0
  2
SOLID
 70
     1
 71
     0
 91
        1
 92
        3
 72
     0
 73
     1
 93
       18
 10
16847.41605744198
 20
-13935.7024367114
 10
16847.41605744198
 20
-13932.31377323141
 10
16848.00635872198
 20
-13932.31377323141
 10
16849.08672144198
 20
-13934.13201255139
 10
16849.42920756198
 20
-13934.71952939141
 10
16849.52944740198
 20
-13934.9645601114
 10
16849.47932748198
 20
-13934.4744986714
 10
16849.47932748198
 20
-13933.9844372314
 10
16849.47932748198
 20
-13932.31377323141
 10
16849.96938892198
 20
-13932.31377323141
 10
16849.96938892198
 20
-13935.7024367114
 10
16849.42920756198
 20
-13935.7024367114
 10
16848.34884484198
 20
-13933.88419739139
 10
16848.10381412198
 20
-13933.5417112714
 10
16847.85878340198
 20
-13933.0015299114
 10
16847.90890332198
 20
-13933.29668055141
 10
16847.90890332198
 20
-13933.9844372314
 10
16847.95623880198
 20
-13935.7024367114
 97
        0
 75
     0
 76
     1
 98
        0
  0
HATCH
  5
2F0
330
1F
100
AcDbEntity
  8
Ech.1_5
  6
Continuous
 62
   158
420
    12131
440
 33554687
370
    20
390
5F
100
AcDbHatch
 10
0.0
 20
0.0
 30
0.0
210
0.0
220
0.0
230
1.0
  2
SOLID
 70
     1
 71
     0
 91
        1
 92
        3
 72
     0
 73
     1
 93
       56
 10
16852.52550484198
 20
-13935.75255663141
 10
16852.52550484198
 20
-13935.35995059139
 10
16852.72041564198
 20
-13935.35995059139
 10
16852.96544636198
 20
-13935.2597107514
 10
16853.16314160198
 20
-13935.16225535141
 10
16853.31071692198
 20
-13934.9645601114
 10
16853.35805240198
 20
-13934.86710471141
 10
16853.45829224198
 20
-13934.57195407141
 10
16853.45829224198
 20
-13934.08189263141
 10
16853.45829224198
 20
-13933.73940651141
 10
16853.40817232198
 20
-13933.29668055141
 10
16853.31071692198
 20
-13933.0989853114
 10
16853.26059700198
 20
-13933.0015299114
 10
16853.06568620198
 20
-13932.85395459139
 10
16852.86799096198
 20
-13932.75649919141
 10
16852.62296024198
 20
-13932.6562593514
 10
16852.47538492198
 20
-13932.6562593514
 10
16852.23035420198
 20
-13932.70637927139
 10
16851.93520356198
 20
-13932.8038346714
 10
16851.78762824198
 20
-13932.9514099914
 10
16851.64005292198
 20
-13933.14910523139
 10
16851.54259752198
 20
-13933.63916667142
 10
16851.54259752198
 20
-13933.93431731141
 10
16851.54259752198
 20
-13934.2795878714
 10
16851.69017284198
 20
-13934.8197692314
 10
16851.78762824198
 20
-13935.01468003141
 10
16851.98532348198
 20
-13935.2123752714
 10
16852.27768968198
 20
-13935.35995059139
 10
16852.52550484198
 20
-13935.35995059139
 10
16852.52550484198
 20
-13935.75255663141
 10
16852.18023428198
 20
-13935.7024367114
 10
16851.73750832198
 20
-13935.6049813114
 10
16851.49247760198
 20
-13935.4072860714
 10
16851.39502220198
 20
-13935.30983067141
 10
16851.19732696198
 20
-13935.01468003141
 10
16851.00241616198
 20
-13934.3770432714
 10
16850.95229624198
 20
-13933.9844372314
 10
16851.00241616198
 20
-13933.59183119141
 10
16851.19732696198
 20
-13932.9514099914
 10
16851.49247760198
 20
-13932.6089238714
 10
16851.73750832198
 20
-13932.41122863139
 10
16852.13011436198
 20
-13932.26365331139
 10
16852.47538492198
 20
-13932.26365331139
 10
16852.91811088198
 20
-13932.26365331139
 10
16853.35805240198
 20
-13932.4613485514
 10
16853.60586756198
 20
-13932.6562593514
 10
16853.70332296198
 20
-13932.8038346714
 10
16853.89823376198
 20
-13933.0015299114
 10
16854.04580908198
 20
-13933.63916667142
 10
16854.04580908198
 20
-13934.0317727114
 10
16854.04580908198
 20
-13934.42437875142
 10
16853.89823376198
 20
-13935.01468003141
 10
16853.70332296198
 20
-13935.2123752714
 10
16853.60586756198
 20
-13935.35995059139
 10
16853.35805240198
 20
-13935.5548613914
 10
16852.91811088198
 20
-13935.7024367114
 97
        0
 75
     0
 76
     1
 98
        0
  0
HATCH
  5
2F1
330
1F
100
AcDbEntity
  8
Ech.1_5
  6
Continuous
 62
   158
420
    12131
440
 33554687
370
    20
390
5F
100
AcDbHatch
 10
0.0
 20
0.0
 30
0.0
210
0.0
220
0.0
230
1.0
  2
SOLID
 70
     1
 71
     0
 91
        1
 92
        3
 72
     0
 73
     1
 93
        6
 10
16855.07883632198
 20
-13935.7024367114
 10
16855.07883632198
 20
-13932.31377323141
 10
16855.56889776198
 20
-13932.31377323141
 10
16855.56889776198
 20
-13935.2597107514
 10
16857.04186652198
 20
-13935.2597107514
 10
16856.99453104198
 20
-13935.7024367114
 97
        0
 75
     0
 76
     1
 98
        0
  0
HATCH
  5
2F2
330
1F
100
AcDbEntity
  8
Ech.1_5
  6
Continuous
 62
   158
420
    12131
440
 33554687
370
    20
390
5F
100
AcDbHatch
 10
0.0
 20
0.0
 30
0.0
210
0.0
220
0.0
230
1.0
  2
SOLID
 70
     1
 71
     0
 91
        1
 92
        3
 72
     0
 73
     1
 93
       56
 10
16858.76265044197
 20
-13935.75255663141
 10
16858.80998592198
 20
-13935.35995059139
 10
16858.95756124198
 20
-13935.35995059139
 10
16859.20259196198
 20
-13935.2597107514
 10
16859.40028720198
 20
-13935.16225535141
 10
16859.54786252198
 20
-13934.9645601114
 10
16859.59798244198
 20
-13934.86710471141
 10
16859.69543784198
 20
-13934.57195407141
 10
16859.74277332198
 20
-13934.08189263141
 10
16859.74277332198
 20
-13933.73940651141
 10
16859.64531792198
 20
-13933.29668055141
 10
16859.54786252198
 20
-13933.0989853114
 10
16859.49774260198
 20
-13933.0015299114
 10
16859.35016728198
 20
-13932.85395459139
 10
16859.10513656198
 20
-13932.75649919141
 10
16858.86010584198
 20
-13932.6562593514
 10
16858.71253052198
 20
-13932.6562593514
 10
16858.51761972198
 20
-13932.70637927139
 10
16858.17234916198
 20
-13932.8038346714
 10
16858.02477384198
 20
-13932.9514099914
 10
16857.87719852198
 20
-13933.14910523139
 10
16857.77974312198
 20
-13933.63916667142
 10
16857.77974312198
 20
-13933.93431731141
 10
16857.77974312198
 20
-13934.2795878714
 10
16857.92731844198
 20
-13934.8197692314
 10
16858.02477384198
 20
-13935.01468003141
 10
16858.22246908198
 20
-13935.2123752714
 10
16858.51761972198
 20
-13935.35995059139
 10
16858.80998592198
 20
-13935.35995059139
 10
16858.76265044197
 20
-13935.75255663141
 10
16858.41737988198
 20
-13935.7024367114
 10
16858.02477384198
 20
-13935.6049813114
 10
16857.77974312198
 20
-13935.4072860714
 10
16857.63216780198
 20
-13935.30983067141
 10
16857.43447256198
 20
-13935.01468003141
 10
16857.23956176198
 20
-13934.3770432714
 10
16857.18944184198
 20
-13933.9844372314
 10
16857.23956176198
 20
-13933.59183119141
 10
16857.43447256198
 20
-13932.9514099914
 10
16857.72962320198
 20
-13932.6089238714
 10
16857.97465392198
 20
-13932.41122863139
 10
16858.37004440198
 20
-13932.26365331139
 10
16858.76265044197
 20
-13932.26365331139
 10
16859.15525648198
 20
-13932.26365331139
 10
16859.59798244198
 20
-13932.4613485514
 10
16859.84301316198
 20
-13932.6562593514
 10
16859.94046856198
 20
-13932.8038346714
 10
16860.13816380198
 20
-13933.0015299114
 10
16860.28573912198
 20
-13933.63916667142
 10
16860.33307460198
 20
-13934.0317727114
 10
16860.28573912198
 20
-13934.42437875142
 10
16860.13816380198
 20
-13935.01468003141
 10
16859.99058848198
 20
-13935.2123752714
 10
16859.84301316198
 20
-13935.35995059139
 10
16859.59798244198
 20
-13935.5548613914
 10
16859.15525648198
 20
-13935.7024367114
 97
        0
 75
     0
 76
     1
 98
        0
  0
HATCH
  5
2F3
330
1F
100
AcDbEntity
  8
Ech.1_5
  6
Continuous
 62
   158
420
    12131
440
 33554687
370
    20
390
5F
100
AcDbHatch
 10
0.0
 20
0.0
 30
0.0
210
0.0
220
0.0
230
1.0
  2
SOLID
 70
     1
 71
     0
 91
        1
 92
        3
 72
     0
 73
     1
 93
       46
 10
16862.78895068198
 20
-13935.75255663141
 10
16862.39634464198
 20
-13935.7024367114
 10
16861.80604336198
 20
-13935.4574059914
 10
16861.56101264198
 20
-13935.2597107514
 10
16861.46355724198
 20
-13935.16225535141
 10
16861.26586200198
 20
-13934.86710471141
 10
16861.11828668198
 20
-13934.3770432714
 10
16861.07095120198
 20
-13933.9844372314
 10
16861.11828668198
 20
-13933.49159135141
 10
16861.31598192198
 20
-13932.9514099914
 10
16861.56101264198
 20
-13932.6562593514
 10
16861.70858796198
 20
-13932.5588039514
 10
16861.95361868198
 20
-13932.41122863139
 10
16862.44646456198
 20
-13932.26365331139
 10
16862.69149528198
 20
-13932.26365331139
 10
16862.98664592198
 20
-13932.26365331139
 10
16863.52682728198
 20
-13932.4613485514
 10
16863.77185800198
 20
-13932.6562593514
 10
16863.52682728198
 20
-13932.9514099914
 10
16863.32913204198
 20
-13932.85395459139
 10
16862.98664592198
 20
-13932.70637927139
 10
16862.73883076198
 20
-13932.70637927139
 10
16862.54391996198
 20
-13932.70637927139
 10
16862.24876932198
 20
-13932.75649919141
 10
16862.05385852198
 20
-13932.9040745114
 10
16861.85616328198
 20
-13933.0516498314
 10
16861.80604336198
 20
-13933.14910523139
 10
16861.70858796198
 20
-13933.5417112714
 10
16861.65846804198
 20
-13934.0317727114
 10
16861.65846804198
 20
-13934.42437875142
 10
16861.85616328198
 20
-13934.86710471141
 10
16862.05385852198
 20
-13935.11213543139
 10
16862.15131392198
 20
-13935.16225535141
 10
16862.29888924198
 20
-13935.2123752714
 10
16862.64137536198
 20
-13935.30983067141
 10
16862.78895068198
 20
-13935.35995059139
 10
16862.98664592198
 20
-13935.30983067141
 10
16863.27901212198
 20
-13935.2597107514
 10
16863.37925196198
 20
-13935.2123752714
 10
16863.37925196198
 20
-13934.3269233514
 10
16862.64137536198
 20
-13934.3269233514
 10
16862.54391996198
 20
-13933.88419739139
 10
16863.86931340198
 20
-13933.88419739139
 10
16863.86931340198
 20
-13935.4574059914
 10
16863.62428268198
 20
-13935.6049813114
 10
16863.08410132198
 20
-13935.7024367114
 97
        0
 75
     0
 76
     1
 98
        0
  0
HATCH
  5
2F4
330
1F
100
AcDbEntity
  8
Ech.1_5
  6
Continuous
 62
   158
420
    12131
440
 33554687
370
    20
390
5F
100
AcDbHatch
 10
0.0
 20
0.0
 30
0.0
210
0.0
220
0.0
230
1.0
  2
SOLID
 70
     1
 71
     0
 91
        1
 92
        3
 72
     0
 73
     1
 93
        4
 10
16864.90234064198
 20
-13935.7024367114
 10
16864.90234064198
 20
-13932.31377323141
 10
16865.39240208198
 20
-13932.31377323141
 10
16865.39240208198
 20
-13935.7024367114
 97
        0
 75
     0
 76
     1
 98
        0
  0
HATCH
  5
2F5
330
1F
100
AcDbEntity
  8
Ech.1_5
  6
Continuous
 62
   158
420
    12131
440
 33554687
370
    20
390
5F
100
AcDbHatch
 10
0.0
 20
0.0
 30
0.0
210
0.0
220
0.0
230
1.0
  2
SOLID
 70
     1
 71
     0
 91
        1
 92
        3
 72
     0
 73
     1
 93
       64
 10
16869.71385296198
 20
-13936.4403133114
 10
16869.51894216198
 20
-13936.39019339141
 10
16869.22379152198
 20
-13936.29273799139
 10
16868.43857944198
 20
-13935.85001203139
 10
16868.14342880198
 20
-13935.75255663141
 10
16868.14342880198
 20
-13935.35995059139
 10
16868.38845952198
 20
-13935.2597107514
 10
16868.58337032198
 20
-13935.16225535141
 10
16868.73094564198
 20
-13934.9645601114
 10
16868.78106556198
 20
-13934.86710471141
 10
16868.92864088198
 20
-13934.57195407141
 10
16868.92864088198
 20
-13934.08189263141
 10
16868.92864088198
 20
-13933.73940651141
 10
16868.83118548198
 20
-13933.29668055141
 10
16868.68361016198
 20
-13933.0015299114
 10
16868.48591492198
 20
-13932.85395459139
 10
16868.29100412198
 20
-13932.75649919141
 10
16868.04318896198
 20
-13932.6562593514
 10
16867.89839808198
 20
-13932.6562593514
 10
16867.70070284198
 20
-13932.70637927139
 10
16867.40555220198
 20
-13932.8038346714
 10
16867.21064140198
 20
-13932.9514099914
 10
16867.06306608198
 20
-13933.14910523139
 10
16866.96282624198
 20
-13933.63916667142
 10
16866.96282624198
 20
-13933.93431731141
 10
16866.96282624198
 20
-13934.22946795141
 10
16867.06306608198
 20
-13934.7696493114
 10
16867.25797688198
 20
-13935.0647999514
 10
16867.40555220198
 20
-13935.2123752714
 10
16867.60324744198
 20
-13935.30983067141
 10
16867.84827816198
 20
-13935.35995059139
 10
16868.14342880198
 20
-13935.35995059139
 10
16868.14342880198
 20
-13935.75255663141
 10
16867.60324744198
 20
-13935.7024367114
 10
16867.21064140198
 20
-13935.6049813114
 10
16866.96282624198
 20
-13935.4072860714
 10
16866.86537084198
 20
-13935.30983067141
 10
16866.62034012198
 20
-13935.01468003141
 10
16866.42264488198
 20
-13934.3770432714
 10
16866.42264488198
 20
-13933.9844372314
 10
16866.42264488198
 20
-13933.59183119141
 10
16866.62034012198
 20
-13932.9514099914
 10
16866.91549076198
 20
-13932.6089238714
 10
16867.16052148198
 20
-13932.41122863139
 10
16867.60324744198
 20
-13932.26365331139
 10
16867.94573356198
 20
-13932.26365331139
 10
16868.14342880198
 20
-13932.26365331139
 10
16868.48591492198
 20
-13932.36389315139
 10
16868.92864088198
 20
-13932.5588039514
 10
16869.17367160198
 20
-13932.8038346714
 10
16869.32124692198
 20
-13933.0015299114
 10
16869.46882224198
 20
-13933.63916667142
 10
16869.51894216198
 20
-13934.0317727114
 10
16869.46882224198
 20
-13934.42437875142
 10
16869.32124692198
 20
-13935.01468003141
 10
16869.17367160198
 20
-13935.2123752714
 10
16868.97876080198
 20
-13935.4574059914
 10
16868.78106556198
 20
-13935.5548613914
 10
16869.12633612198
 20
-13935.7024367114
 10
16869.56627764198
 20
-13935.9975873514
 10
16869.81130836198
 20
-13936.09504275141
 10
16869.91154820198
 20
-13936.09504275141
 10
16870.10645900198
 20
-13936.09504275141
 10
16869.95888368198
 20
-13936.4403133114
 97
        0
 75
     0
 76
     1
 98
        0
  0
HATCH
  5
2F6
330
1F
100
AcDbEntity
  8
Ech.1_5
  6
Continuous
 62
   158
420
    12131
440
 33554687
370
    20
390
5F
100
AcDbHatch
 10
0.0
 20
0.0
 30
0.0
210
0.0
220
0.0
230
1.0
  2
SOLID
 70
     1
 71
     0
 91
        1
 92
        3
 72
     0
 73
     1
 93
       32
 10
16871.67966760198
 20
-13935.75255663141
 10
16871.43463688198
 20
-13935.75255663141
 10
16871.03924640198
 20
-13935.6523167914
 10
16870.79421568198
 20
-13935.5075259114
 10
16870.59930488198
 20
-13935.30983067141
 10
16870.54918496198
 20
-13935.16225535141
 10
16870.45172956198
 20
-13935.0647999514
 10
16870.40160964198
 20
-13934.71952939141
 10
16870.40160964198
 20
-13932.31377323141
 10
16870.94179100198
 20
-13932.31377323141
 10
16870.94179100198
 20
-13934.3269233514
 10
16870.94179100198
 20
-13934.71952939141
 10
16870.99191092198
 20
-13934.91722463139
 10
16871.13948624198
 20
-13935.11213543139
 10
16871.33439704198
 20
-13935.2597107514
 10
16871.57942776198
 20
-13935.30983067141
 10
16871.67966760198
 20
-13935.30983067141
 10
16871.92469832198
 20
-13935.30983067141
 10
16872.16972904198
 20
-13935.2123752714
 10
16872.31730436198
 20
-13935.11213543139
 10
16872.41475976198
 20
-13934.9645601114
 10
16872.46487968198
 20
-13934.67219391141
 10
16872.46487968198
 20
-13932.31377323141
 10
16873.00506104198
 20
-13932.31377323141
 10
16873.00506104198
 20
-13934.4744986714
 10
16873.00506104198
 20
-13934.8197692314
 10
16872.90760564198
 20
-13935.16225535141
 10
16872.76003032198
 20
-13935.35995059139
 10
16872.66257492198
 20
-13935.4574059914
 10
16872.61245500198
 20
-13935.5075259114
 10
16872.36742428198
 20
-13935.6049813114
 10
16872.02215372198
 20
-13935.75255663141
 97
        0
 75
     0
 76
     1
 98
        0
  0
HATCH
  5
2F7
330
1F
100
AcDbEntity
  8
Ech.1_5
  6
Continuous
 62
   158
420
    12131
440
 33554687
370
    20
390
5F
100
AcDbHatch
 10
0.0
 20
0.0
 30
0.0
210
0.0
220
0.0
230
1.0
  2
SOLID
 70
     1
 71
     0
 91
        1
 92
        3
 72
     0
 73
     1
 93
       12
 10
16874.13554368198
 20
-13935.7024367114
 10
16874.13554368198
 20
-13932.31377323141
 10
16876.24614920198
 20
-13932.31377323141
 10
16876.14869380198
 20
-13932.75649919141
 10
16874.62560512198
 20
-13932.75649919141
 10
16874.62560512198
 20
-13933.73940651141
 10
16875.90366308198
 20
-13933.73940651141
 10
16875.90366308198
 20
-13934.13201255139
 10
16874.67572504198
 20
-13934.13201255139
 10
16874.67572504198
 20
-13935.2123752714
 10
16876.29626912198
 20
-13935.2123752714
 10
16876.29626912198
 20
-13935.7024367114
 97
        0
 75
     0
 76
     1
 98
        0
  0
HATCH
  5
2F8
330
1F
100
AcDbEntity
  8
Ech.1_5
  6
Continuous
 62
   136
420
    33651
440
 33554687
370
    20
390
5F
100
AcDbHatch
 10
0.0
 20
0.0
 30
0.0
210
0.0
220
0.0
230
1.0
  2
SOLID
 70
     1
 71
     0
 91
        1
 92
        3
 72
     0
 73
     1
 93
       15
 10
16857.87719852198
 20
-13910.55615907141
 10
16857.87719852198
 20
-13908.34531371141
 10
16859.30283180198
 20
-13908.34531371141
 10
16859.64531792198
 20
-13908.34531371141
 10
16860.18549928198
 20
-13908.4928890314
 10
16860.48064992198
 20
-13908.69058427139
 10
16860.57810532198
 20
-13908.83815959139
 10
16860.72568064198
 20
-13909.13052579141
 10
16860.72568064198
 20
-13909.3783409514
 10
16860.72568064198
 20
-13909.67070715141
 10
16860.57810532198
 20
-13909.96585779141
 10
16860.43053000198
 20
-13910.1635530314
 10
16860.18549928198
 20
-13910.3584638314
 10
16859.74277332198
 20
-13910.50603915139
 10
16859.49774260198
 20
-13910.55615907141
 97
        0
 75
     0
 76
     1
 98
        0
  0
HATCH
  5
2F9
330
1F
100
AcDbEntity
  8
Ech.1_5
  6
Continuous
 62
   136
420
    33651
440
 33554687
370
    20
390
5F
100
AcDbHatch
 10
0.0
 20
0.0
 30
0.0
210
0.0
220
0.0
230
1.0
  2
SOLID
 70
     1
 71
     0
 91
        1
 92
        3
 72
     0
 73
     1
 93
       16
 10
16857.87719852198
 20
-13906.57719431141
 10
16857.87719852198
 20
-13904.5640441914
 10
16858.95756124198
 20
-13904.5640441914
 10
16859.15525648198
 20
-13904.5640441914
 10
16859.54786252198
 20
-13904.71161951141
 10
16859.79289324198
 20
-13904.8591948314
 10
16859.89034864198
 20
-13905.0067701514
 10
16859.99058848198
 20
-13905.2016809514
 10
16860.03792396198
 20
-13905.39937619141
 10
16860.03792396198
 20
-13905.4968315914
 10
16859.99058848198
 20
-13905.74186231141
 10
16859.89034864198
 20
-13906.0370129514
 10
16859.79289324198
 20
-13906.2347081914
 10
16859.59798244198
 20
-13906.4296189914
 10
16859.15525648198
 20
-13906.52985883139
 10
16858.95756124198
 20
-13906.57719431141
 97
        0
 75
     0
 76
     1
 98
        0
  0
HATCH
  5
2FA
330
1F
100
AcDbEntity
  8
Ech.1_5
  6
Continuous
 62
   136
420
    33651
440
 33554687
370
    20
390
5F
100
AcDbHatch
 10
0.0
 20
0.0
 30
0.0
210
0.0
220
0.0
230
1.0
  2
SOLID
 70
     1
 71
     0
 91
        1
 92
        3
 72
     0
 73
     1
 93
        3
 10
16868.04318896198
 20
-13908.59034443138
 10
16869.32124692198
 20
-13904.71161951141
 10
16870.59930488198
 20
-13908.59034443138
 97
        0
 75
     0
 76
     1
 98
        0
  0
HATCH
  5
2FB
330
1F
100
AcDbEntity
  8
Ech.1_5
  6
Continuous
 62
   158
420
    12131
440
 33554687
370
    20
390
5F
100
AcDbHatch
 10
0.0
 20
0.0
 30
0.0
210
0.0
220
0.0
230
1.0
  2
SOLID
 70
     1
 71
     0
 91
        3
 92
        3
 72
     0
 73
     1
 93
       25
 10
16834.98910172198
 20
-13917.5311812714
 10
16837.93782368198
 20
-13916.3032432314
 10
16841.47406248198
 20
-13915.41779131141
 10
16844.47011992198
 20
-13914.97506535141
 10
16848.05369420198
 20
-13914.7300346314
 10
16852.23035420198
 20
-13914.78015455141
 10
16854.63611036198
 20
-13914.9277298714
 10
16854.63611036198
 20
-13899.25968599141
 10
16857.82986304198
 20
-13898.4243539914
 10
16860.23561920198
 20
-13897.0488406314
 10
16860.67834516198
 20
-13896.5587791914
 10
16860.77580056198
 20
-13896.4112038714
 10
16860.82592048198
 20
-13896.21350863139
 10
16860.72568064198
 20
-13896.01859783139
 10
16860.53076984198
 20
-13895.7735671114
 10
16859.84301316198
 20
-13895.4282965514
 10
16858.12222924198
 20
-13894.9855705914
 10
16856.20653452198
 20
-13894.7906597914
 10
16853.94835368198
 20
-13894.64308447139
 10
16849.77447812198
 20
-13894.64308447139
 10
16844.27242468198
 20
-13895.03569051141
 10
16838.62558036198
 20
-13896.06593331139
 10
16835.03686919337
 20
-13897.24778266916
 10
16834.20388964198
 20
-13897.68926183141
 10
16834.20388964198
 20
-13918.02124271141
 97
        0
 92
        3
 72
     0
 73
     1
 93
       53
 10
16851.24744688198
 20
-13912.4217338714
 10
16850.41211488198
 20
-13912.4718537914
 10
16849.38187208198
 20
-13912.37439839141
 10
16847.71120808198
 20
-13911.6365217914
 10
16846.53338996198
 20
-13910.3584638314
 10
16845.84563328198
 20
-13908.59034443138
 10
16845.79551336198
 20
-13907.56010163141
 10
16845.84563328198
 20
-13906.52985883139
 10
16846.53338996198
 20
-13904.76173943139
 10
16847.71120808198
 20
-13903.4335615514
 10
16849.38187208198
 20
-13902.69846939141
 10
16850.41211488198
 20
-13902.64834947139
 10
16851.24744688198
 20
-13902.69846939141
 10
16852.62296024198
 20
-13903.1384109114
 10
16853.06568620198
 20
-13903.53380139139
 10
16853.26059700198
 20
-13903.92640743141
 10
16853.26059700198
 20
-13904.31901347139
 10
16853.11302168198
 20
-13904.6141641114
 10
16852.91811088198
 20
-13904.8591948314
 10
16852.62296024198
 20
-13905.0067701514
 10
16852.42526500198
 20
-13905.0067701514
 10
16852.23035420198
 20
-13905.0067701514
 10
16851.83774816198
 20
-13904.90653031141
 10
16851.14999148198
 20
-13904.6141641114
 10
16850.41211488198
 20
-13904.5640441914
 10
16850.06962876198
 20
-13904.5640441914
 10
16849.52944740198
 20
-13904.71161951141
 10
16849.08672144198
 20
-13904.95665023139
 10
16848.69411540198
 20
-13905.25180087141
 10
16848.25138944198
 20
-13905.88943763141
 10
16847.90890332198
 20
-13906.96980035141
 10
16847.85878340198
 20
-13907.6102215514
 10
16847.90890332198
 20
-13908.1977383914
 10
16848.25138944198
 20
-13909.2307656314
 10
16848.69411540198
 20
-13909.8684023914
 10
16849.08672144198
 20
-13910.1635530314
 10
16849.52944740198
 20
-13910.40858375141
 10
16850.06962876198
 20
-13910.50603915139
 10
16850.41211488198
 20
-13910.55615907141
 10
16851.14999148198
 20
-13910.4587036714
 10
16851.88508364198
 20
-13910.1635530314
 10
16852.32780960198
 20
-13910.01597771141
 10
16852.52550484198
 20
-13909.96585779141
 10
16852.62296024198
 20
-13909.96585779141
 10
16852.81787104198
 20
-13910.01597771141
 10
16853.06568620198
 20
-13910.1635530314
 10
16853.26059700198
 20
-13910.4587036714
 10
16853.40817232198
 20
-13910.7538543114
 10
16853.40817232198
 20
-13910.89864519141
 10
16853.35805240198
 20
-13911.0963404314
 10
16853.21326152198
 20
-13911.4889464714
 10
16852.91811088198
 20
-13911.83421703139
 10
16852.47538492198
 20
-13912.0291278314
 97
        0
 92
        3
 72
     0
 73
     1
 93
       37
 10
16840.34357984198
 20
-13912.22682307141
 10
16840.00109372198
 20
-13912.37439839141
 10
16839.55836776198
 20
-13912.37439839141
 10
16839.21309720198
 20
-13912.22682307141
 10
16838.96806648198
 20
-13911.97900791141
 10
16838.77315568198
 20
-13911.58640187139
 10
16838.77315568198
 20
-13903.6312567914
 10
16838.92073100198
 20
-13903.2859862314
 10
16839.21309720198
 20
-13902.99362003141
 10
16839.60848768198
 20
-13902.7959247914
 10
16839.85351840198
 20
-13902.7959247914
 10
16843.24218188198
 20
-13902.7959247914
 10
16843.43709268198
 20
-13902.7959247914
 10
16843.78236324198
 20
-13902.94350011139
 10
16844.02739396198
 20
-13903.2386507514
 10
16844.12484936198
 20
-13903.53380139139
 10
16844.12484936198
 20
-13903.87628751139
 10
16844.02739396198
 20
-13904.22155807141
 10
16843.87981864198
 20
-13904.4164688714
 10
16843.73224332198
 20
-13904.51392427139
 10
16843.43709268198
 20
-13904.6141641114
 10
16843.24218188198
 20
-13904.6614995914
 10
16840.78630580198
 20
-13904.6614995914
 10
16840.78630580198
 20
-13906.57719431141
 10
16842.84957584198
 20
-13906.57719431141
 10
16843.09460656198
 20
-13906.62731423141
 10
16843.43709268198
 20
-13906.7247696314
 10
16843.68490784198
 20
-13907.0199202714
 10
16843.82969872198
 20
-13907.31507091139
 10
16843.82969872198
 20
-13907.6575570314
 10
16843.68490784198
 20
-13908.0028275914
 10
16843.43709268198
 20
-13908.2478583114
 10
16843.09460656198
 20
-13908.39543363139
 10
16842.84957584198
 20
-13908.44276911139
 10
16840.78630580198
 20
-13908.44276911139
 10
16840.78630580198
 20
-13911.58640187139
 10
16840.63873048198
 20
-13911.97900791141
 97
        0
 75
     0
 76
     1
 98
        0
  0
HATCH
  5
2FC
330
1F
100
AcDbEntity
  8
Ech.1_5
  6
Continuous
 62
   136
420
    33651
440
 33554687
370
    20
390
5F
100
AcDbHatch
 10
0.0
 20
0.0
 30
0.0
210
0.0
220
0.0
230
1.0
  2
SOLID
 70
     1
 71
     0
 91
        3
 92
        3
 72
     0
 73
     1
 93
       18
 10
16854.72302151073
 20
-13919.4942114714
 10
16857.77974312198
 20
-13919.4942114714
 10
16863.03398140198
 20
-13918.9066946314
 10
16867.30809680198
 20
-13917.6787565914
 10
16870.64664036198
 20
-13916.1556679114
 10
16873.10251644198
 20
-13914.48500391141
 10
16874.77318044198
 20
-13912.96191523142
 10
16876.05123840197
 20
-13911.4388265514
 10
16876.29626912198
 20
-13910.89864519141
 10
16876.29626912198
 20
-13890.6641197114
 10
16875.95099856198
 20
-13891.1569655914
 10
16873.59536232198
 20
-13893.21745119141
 10
16869.86142828198
 20
-13895.5257519514
 10
16866.47276480198
 20
-13897.0488406314
 10
16862.34622472198
 20
-13898.27677867139
 10
16857.43447256198
 20
-13899.11211067141
 10
16854.63611036198
 20
-13899.25968599141
 10
16854.63611036198
 20
-13919.4942114714
 97
        0
 92
        3
 72
     0
 73
     1
 93
       30
 10
16862.44646456198
 20
-13910.89864519141
 10
16862.15131392198
 20
-13911.39149107139
 10
16861.51089272198
 20
-13911.88155251139
 10
16860.38319452198
 20
-13912.2741585514
 10
16859.69543784198
 20
-13912.2741585514
 10
16856.94441112198
 20
-13912.2741585514
 10
16856.74950032198
 20
-13912.2741585514
 10
16856.35410984198
 20
-13912.12658323141
 10
16856.06174364198
 20
-13911.88155251139
 10
16855.91416832198
 20
-13911.5390663914
 10
16855.91416832198
 20
-13903.5811368714
 10
16856.01162372198
 20
-13903.2859862314
 10
16856.10907912198
 20
-13903.1384109114
 10
16856.35410984198
 20
-13902.94350011139
 10
16856.69938040198
 20
-13902.7959247914
 10
16859.49774260198
 20
-13902.7959247914
 10
16860.03792396198
 20
-13902.8460447114
 10
16860.92337588198
 20
-13903.1384109114
 10
16861.61113256198
 20
-13903.77883211141
 10
16862.00373860198
 20
-13904.6141641114
 10
16862.00373860198
 20
-13905.4968315914
 10
16861.85616328198
 20
-13906.08713287139
 10
16861.56101264198
 20
-13906.57719431141
 10
16861.07095120198
 20
-13906.96980035141
 10
16860.77580056198
 20
-13907.11737567141
 10
16861.21852652198
 20
-13907.21761551141
 10
16861.95361868198
 20
-13907.6102215514
 10
16862.49380004198
 20
-13908.1977383914
 10
16862.78895068198
 20
-13908.98573491141
 10
16862.78895068198
 20
-13910.06609763141
 97
        0
 92
        3
 72
     0
 73
     1
 93
       35
 10
16872.02215372198
 20
-13912.2741585514
 10
16871.77712300198
 20
-13912.0792477514
 10
16871.62954768198
 20
-13911.83421703139
 10
16871.57942776198
 20
-13911.6866417114
 10
16871.18682172198
 20
-13910.40858375141
 10
16867.45567212198
 20
-13910.40858375141
 10
16867.06306608198
 20
-13911.6866417114
 10
16867.01294616198
 20
-13911.83421703139
 10
16866.86537084198
 20
-13912.0792477514
 10
16866.62034012198
 20
-13912.2741585514
 10
16866.27506956198
 20
-13912.37439839141
 10
16865.88246352198
 20
-13912.37439839141
 10
16865.53997740198
 20
-13912.22682307141
 10
16865.29494668198
 20
-13911.97900791141
 10
16865.14737136198
 20
-13911.6365217914
 10
16865.09725144198
 20
-13911.4388265514
 10
16865.14737136198
 20
-13911.14646035141
 10
16865.19470684198
 20
-13910.99888503141
 10
16867.89839808198
 20
-13903.72871219139
 10
16867.99585348197
 20
-13903.53380139139
 10
16868.24088420198
 20
-13903.1384109114
 10
16868.63349024198
 20
-13902.7959247914
 10
16869.07621620197
 20
-13902.64834947139
 10
16869.56627764198
 20
-13902.64834947139
 10
16870.00900360198
 20
-13902.7959247914
 10
16870.40160964198
 20
-13903.09107543139
 10
16870.64664036198
 20
-13903.53380139139
 10
16870.74688020198
 20
-13903.72871219139
 10
16873.34754716198
 20
-13910.99888503141
 10
16873.44778700198
 20
-13911.29403567141
 10
16873.44778700198
 20
-13911.6866417114
 10
16873.30021168198
 20
-13912.0291278314
 10
16873.05518096198
 20
-13912.22682307141
 10
16872.70991040198
 20
-13912.37439839141
 10
16872.36742428198
 20
-13912.37439839141
 97
        0
 75
     0
 76
     1
 98
        0
  0
HATCH
  5
2FD
330
1F
100
AcDbEntity
  8
Ech.1_5
  6
Continuous
 62
   158
420
    12131
440
 33554687
370
    20
390
5F
100
AcDbHatch
 10
0.0
 20
0.0
 30
0.0
210
0.0
220
0.0
230
1.0
  2
SOLID
 70
     1
 71
     0
 91
        1
 92
        3
 72
     0
 73
     1
 93
        4
 10
16834.49904028198
 20
-13928.7775344314
 10
16834.49904028198
 20
-13925.3888709514
 10
16834.98910172198
 20
-13925.3888709514
 10
16834.98910172198
 20
-13928.7775344314
 97
        0
 75
     0
 76
     1
 98
        0
  0
LWPOLYLINE
  5
2FE
330
1F
100
AcDbEntity
  8
Ech.1_5
  6
Continuous
 62
     9
370
    15
390
5F
100
AcDbPolyline
 90
        3
 70
     0
 43
0.0
 10
17476.90926593889
 20
-13255.66530956575
 10
17513.55108884142
 20
-13219.76998434302
 10
17533.55108884142
 20
-13219.76998434302
  0
INSERT
  5
2FF
330
1F
100
AcDbEntity
  8
Ech.1_5
 62
     9
370
    15
100
AcDbBlockReference
  2
cw-line-extremity4
 10
17476.90926593889
 20
-13255.66530956575
 30
0.0
 50
44.41037581833127
  0
LWPOLYLINE
  5
300
330
1F
100
AcDbEntity
  8
Ech.1_5
  6
Continuous
 62
     9
370
    15
390
5F
100
AcDbPolyline
 90
        3
 70
     0
 43
0.0
 10
17438.86183485547
 20
-13287.82024277571
 10
17461.79921510172
 20
-13287.82024277571
 10
17481.79921510172
 20
-13287.82024277571
  0
INSERT
  5
301
330
1F
100
AcDbEntity
  8
Ech.1_5
 62
     9
370
    15
100
AcDbBlockReference
  2
cw-line-extremity4
 10
17438.86183485547
 20
-13287.82024277571
 30
0.0
  0
LWPOLYLINE
  5
302
330
1F
100
AcDbEntity
  8
Ech.1_5
  6
Continuous
 62
     9
370
    15
390
5F
100
AcDbPolyline
 90
        3
 70
     0
 43
0.0
 10
17438.86183485547
 20
-13361.77342890493
 10
17461.79921510172
 20
-13361.77342890493
 10
17481.79921510172
 20
-13361.77342890493
  0
INSERT
  5
303
330
1F
100
AcDbEntity
  8
Ech.1_5
 62
     9
370
    15
100
AcDbBlockReference
  2
cw-line-extremity4
 10
17438.86183485547
 20
-13361.77342890493
 30
0.0
  0
LWPOLYLINE
  5
304
330
1F
100
AcDbEntity
  8
Ech.1_5
  6
Continuous
 62
     9
370
    15
390
5F
100
AcDbPolyline
 90
        3
 70
     0
 43
0.0
 10
17438.86183485547
 20
-13469.54089366586
 10
17461.79921510172
 20
-13469.54089366586
 10
17481.79921510172
 20
-13469.54089366586
  0
INSERT
  5
305
330
1F
100
AcDbEntity
  8
Ech.1_5
 62
     9
370
    15
100
AcDbBlockReference
  2
cw-line-extremity4
 10
17438.86183485547
 20
-13469.54089366586
 30
0.0
  0
LWPOLYLINE
  5
306
330
1F
100
AcDbEntity
  8
Ech.1_5
  6
Continuous
 62
     9
370
    15
390
5F
100
AcDbPolyline
 90
        3
 70
     0
 43
0.0
 10
17120.36898314519
 20
-13552.06934220492
 10
17171.91584109339
 20
-13609.82898503055
 10
17191.91584109339
 20
-13609.82898503055
  0
INSERT
  5
307
330
1F
100
AcDbEntity
  8
Ech.1_5
 62
     9
370
    15
100
AcDbBlockReference
  2
cw-line-extremity4
 10
17120.36898314519
 20
-13552.06934220492
 30
0.0
 50
311.7469110690219
  0
LWPOLYLINE
  5
308
330
1F
100
AcDbEntity
  8
Ech.1_5
  6
Continuous
 62
     9
370
    15
390
5F
100
AcDbPolyline
 90
        3
 70
     0
 43
0.0
 10
17348.87636250989
 20
-13296.28704891601
 10
17496.7118117968
 20
-13157.90981880922
 10
17516.7118117968
 20
-13157.90981880922
  0
INSERT
  5
309
330
1F
100
AcDbEntity
  8
Ech.1_5
 62
     9
370
    15
100
AcDbBlockReference
  2
cw-line-extremity4
 10
17348.87636250989
 20
-13296.28704891601
 30
0.0
 50
43.10728544504607
  0
LWPOLYLINE
  5
30A
330
1F
100
AcDbEntity
  8
Ech.1_5
  6
Continuous
 62
   190
370
    15
390
5F
100
AcDbPolyline
 90
        3
 70
     0
 43
0.0
 10
17063.24407343842
 20
-13410.56851436098
 10
16990.92381121236
 20
-13355.5717530155
 10
16970.92381121236
 20
-13355.5717530155
  0
INSERT
  5
30B
330
1F
100
AcDbEntity
  8
Ech.1_5
 62
   190
370
    15
100
AcDbBlockReference
  2
cw-line-extremity4
 10
17063.24407343842
 20
-13410.56851436098
 30
0.0
 50
142.7484157410585
  0
LWPOLYLINE
  5
30C
330
1F
100
AcDbEntity
  8
Ech.1_5
  6
Continuous
 62
   190
370
    15
390
5F
100
AcDbPolyline
 90
        3
 70
     0
 43
0.0
 10
17103.25166813412
 20
-13103.87869969295
 10
16990.92381121236
 20
-13038.63761568724
 10
16970.92381121236
 20
-13038.63761568724
  0
INSERT
  5
30D
330
1F
100
AcDbEntity
  8
Ech.1_5
 62
   190
370
    15
100
AcDbBlockReference
  2
cw-line-extremity4
 10
17103.25166813412
 20
-13103.87869969295
 30
0.0
 50
149.8515740842317
  0
LWPOLYLINE
  5
30E
330
1F
100
AcDbEntity
  8
Ech.1_5
  6
Continuous
 62
   190
370
    15
390
5F
100
AcDbPolyline
 90
        3
 70
     0
 43
0.0
 10
17177.63779830134
 20
-13412.19497192383
 10
16990.92381121236
 20
-13144.2008519381
 10
16970.92381121236
 20
-13144.2008519381
  0
INSERT
  5
30F
330
1F
100
AcDbEntity
  8
Ech.1_5
 62
   190
370
    15
100
AcDbBlockReference
  2
cw-line-extremity4
 10
17177.63779830134
 20
-13412.19497192383
 30
0.0
 50
124.8652841572042
  0
LWPOLYLINE
  5
310
330
1F
100
AcDbEntity
  8
Ech.1_5
  6
Continuous
 62
   190
370
    15
390
5F
100
AcDbPolyline
 90
        3
 70
     0
 43
0.0
 10
17099.17017766184
 20
-12952.14178613811
 10
16990.92381121236
 20
-12990.37954058078
 10
16970.92381121236
 20
-12990.37954058078
  0
INSERT
  5
311
330
1F
100
AcDbEntity
  8
Ech.1_5
 62
   190
370
    15
100
AcDbBlockReference
  2
cw-line-extremity4
 10
17099.17017766184
 20
-12952.14178613811
 30
0.0
 50
199.45563842667
  0
HATCH
  5
312
330
1F
100
AcDbEntity
  8
Ech.1_5
  6
Continuous
 62
     7
440
 33554687
370
    20
390
5F
100
AcDbHatch
 10
0.0
 20
0.0
 30
0.0
210
0.0
220
0.0
230
1.0
  2
CwHatchPattern_10
 70
     0
 71
     0
 91
        1
 92
        3
 72
     0
 73
     1
 93
        4
 10
17248.98445018151
 20
-13419.80888123123
 10
17274.80898126609
 20
-13419.80888123123
 10
17274.80898126609
 20
-13410.37622117
 10
17248.98445018151
 20
-13410.37622117
 97
        0
 75
     0
 76
     2
 52
0.0
 41
1.190617561340332
 77
     0
 78
     2
 53
45.00000000000297
 43
0.0
 44
0.0
 45
-4.209468757117913
 46
4.209468757117477
 79
     0
 53
135.0000000000089
 43
0.0
 44
0.0
 45
-4.209468757117041
 46
-4.209468757118349
 79
     0
 98
        0
1001
ACAD
1010
0.0
1020
0.0
1030
0.0
  0
LWPOLYLINE
  5
313
330
1F
100
AcDbEntity
  8
Ech.1_5
  6
CADWORK_5
 62
   204
370
    70
390
5F
100
AcDbPolyline
 90
       11
 70
   128
 43
0.0
 38
2500.0
 10
17075.42137040807
 20
-13412.80055285349
 10
17141.29494750709
 20
-13412.80055285349
 10
17177.71098921347
 20
-13412.80055285349
 10
17182.59064262607
 20
-13412.80055285349
 10
17210.00870582934
 20
-13412.80055285349
 10
17215.28914519869
 20
-13412.80413437116
 10
17241.8640950014
 20
-13412.80600585229
 10
17247.91449050047
 20
-13412.80055285349
 10
17276.2528897931
 20
-13412.80055285349
 10
17281.952038736
 20
-13412.80782576772
 10
17326.66223872879
 20
-13412.80750996619
  0
LWPOLYLINE
  5
314
330
1F
100
AcDbEntity
  8
Ech.1_5
  6
Continuous
 62
     8
370
    70
390
5F
100
AcDbPolyline
 90
        3
 70
     0
 43
0.0
 10
17057.35718500012
 20
-13411.0785098524
 10
17075.85199380956
 20
-13411.0785098524
 10
17075.85199380956
 20
-13372.83074901596
  0
DIMENSION
  5
316
102
{ACAD_REACTORS
330
317
102
}
330
1F
100
AcDbEntity
  8
Ech.1_5
  6
Continuous
 62
   190
370
    15
390
5F
100
AcDbDimension
280
     0
  2
*D70
 10
17072.28067751193
 20
-13410.37543756619
 30
0.0
 11
17061.03067751193
 21
-13517.01105538802
 31
0.0
 70
   160
  1
min 200
 71
     5
 42
200.0006858694906
 73
     0
 74
     0
 75
     0
 53
90.0
  3
ISO-25
100
AcDbAlignedDimension
 13
17068.054234642
 23
-13610.37612343568
 33
0.0
 14
17114.11873639318
 24
-13410.37543756619
 34
0.0
 50
-90.0
100
AcDbRotatedDimension
1001
ACAD
1000
DSTYLE
1002
{
1070
   178
1070
   190
1070
   271
1070
     0
1070
   147
1040
0.0
1070
   140
1040
12.5
1070
   340
1005
315
1070
   144
1040
1.0
1070
    42
1040
0.0
1070
    44
1040
5.0
1070
    41
1040
5.0
1070
   342
1005
18F
1070
   175
1070
     1
1070
   279
1070
     2
1002
}
  0
DIMENSION
  5
325
102
{ACAD_REACTORS
330
326
102
}
330
1F
100
AcDbEntity
  8
Ech.1_5
  6
Continuous
 62
   190
370
    15
390
5F
100
AcDbDimension
280
     0
  2
*D71
 10
17040.95415704547
 20
-13440.37543348479
 30
0.0
 11
17029.70415704547
 21
-13509.19392542116
 31
0.0
 70
   160
  1
hmin*
 71
     5
 42
170.0000000013097
 73
     0
 74
     0
 75
     0
 53
90.0
  3
ISO-25
100
AcDbAlignedDimension
 13
17026.35328724717
 23
-13610.3754334861
 33
0.0
 14
17037.87923243757
 24
-13440.37543348479
 34
0.0
 50
-90.0
100
AcDbRotatedDimension
1001
ACAD
1000
DSTYLE
1002
{
1070
   178
1070
   190
1070
   271
1070
     0
1070
   147
1040
0.0
1070
   140
1040
12.5
1070
   340
1005
315
1070
   144
1040
1.0
1070
    42
1040
0.0
1070
    44
1040
5.0
1070
    41
1040
5.0
1070
   342
1005
18F
1070
   175
1070
     1
1070
   279
1070
     2
1002
}
  0
DIMENSION
  5
333
102
{ACAD_REACTORS
330
334
102
}
330
1F
100
AcDbEntity
  8
Ech.1_5
  6
Continuous
 62
   190
370
    15
390
5F
100
AcDbDimension
280
     0
  2
*D72
 10
17466.63194161168
 20
-12821.23413413122
 30
0.0
 11
17455.38194161168
 21
-12921.65285953567
 31
0.0
 70
   160
  1
min 200
 71
     5
 42
200.8374508089037
 73
     0
 74
     0
 75
     0
 53
90.0
  3
ISO-25
100
AcDbAlignedDimension
 13
17462.40549874174
 23
-13022.07158494012
 33
0.0
 14
17462.40564399077
 24
-12821.23413413122
 34
0.0
 50
-90.0
100
AcDbRotatedDimension
1001
ACAD
1000
DSTYLE
1002
{
1070
   178
1070
   190
1070
   271
1070
     0
1070
   147
1040
0.0
1070
   140
1040
12.5
1070
   340
1005
315
1070
   144
1040
1.0
1070
    42
1040
0.0
1070
    44
1040
5.0
1070
    41
1040
5.0
1070
   342
1005
18F
1070
   175
1070
     1
1070
   279
1070
     2
1002
}
  0
DIMENSION
  5
341
102
{ACAD_REACTORS
330
342
102
}
330
1F
100
AcDbEntity
  8
Ech.1_5
  6
Continuous
 62
   190
370
    15
390
5F
100
AcDbDimension
280
     0
  2
*D73
 10
17437.57314640146
 20
-12852.07089498923
 30
0.0
 11
17426.32314640146
 21
-12920.8893869256
 31
0.0
 70
   160
  1
hmin*
 71
     5
 42
170.0000000013097
 73
     0
 74
     0
 75
     0
 53
90.0
  3
ISO-25
100
AcDbAlignedDimension
 13
17422.97227660316
 23
-13022.07089499054
 33
0.0
 14
17434.49822179356
 24
-12852.07089498923
 34
0.0
 50
-90.0
100
AcDbRotatedDimension
1001
ACAD
1000
DSTYLE
1002
{
1070
   178
1070
   190
1070
   271
1070
     0
1070
   147
1040
0.0
1070
   140
1040
12.5
1070
   340
1005
315
1070
   144
1040
1.0
1070
    42
1040
0.0
1070
    44
1040
5.0
1070
    41
1040
5.0
1070
   342
1005
18F
1070
   175
1070
     1
1070
   279
1070
     2
1002
}
  0
DIMENSION
  5
34F
102
{ACAD_REACTORS
330
350
102
}
330
1F
100
AcDbEntity
  8
Ech.1_5
  6
Continuous
 62
     9
370
    15
390
5F
100
AcDbDimension
280
     0
  2
*D74
 10
17392.03458247576
 20
-13400.86630175407
 30
0.0
 11
17405.85355375024
 21
-13412.96010349864
 31
0.0
 70
   160
 71
     5
 42
9.510415121912958
 73
     0
 74
     0
 75
     0
 53
90.0
  3
ISO-25
100
AcDbAlignedDimension
 13
17390.51933865501
 23
-13410.37671687599
 33
0.0
 14
17359.49679263532
 24
-13400.86630175407
 34
0.0
 50
-90.0
100
AcDbRotatedDimension
1001
ACAD
1000
DSTYLE
1002
{
1070
   178
1070
     9
1070
   271
1070
     0
1070
   147
1040
0.0
1070
   140
1040
12.5
1070
   340
1005
315
1070
   144
1040
1.0
1070
    42
1040
0.0
1070
    44
1040
5.0
1070
    41
1040
5.0
1070
   342
1005
18F
1070
   175
1070
     1
1070
   279
1070
     2
1002
}
  0
DIMENSION
  5
35B
102
{ACAD_REACTORS
330
35C
102
}
330
1F
100
AcDbEntity
  8
Ech.1_5
  6
Continuous
 62
     9
370
    15
390
5F
100
AcDbDimension
280
     0
  2
*D75
 10
17392.03458247576
 20
-13385.86630175547
 30
0.0
 11
17408.79474287788
 21
-13351.75521400071
 31
0.0
 70
   160
  1
max 20mm
 71
     5
 42
14.99999999860302
 73
     0
 74
     0
 75
     0
 53
90.0
  3
ISO-25
100
AcDbAlignedDimension
 13
17359.49679263532
 23
-13400.86630175407
 33
0.0
 14
17350.25563812
 24
-13385.86630175547
 34
0.0
 50
-90.0
100
AcDbRotatedDimension
1001
ACAD
1000
DSTYLE
1002
{
1070
   178
1070
     9
1070
   271
1070
     0
1070
   147
1040
0.0
1070
   140
1040
12.5
1070
   340
1005
315
1070
   144
1040
1.0
1070
    42
1040
0.0
1070
    44
1040
5.0
1070
    41
1040
5.0
1070
   342
1005
18F
1070
   175
1070
     1
1070
   279
1070
     2
1002
}
  0
MTEXT
  5
36A
330
1F
100
AcDbEntity
  8
Ech.1_5
  6
Continuous
 62
     4
420
    65535
390
5F
100
AcDbMText
 10
16964.04881121236
 20
-13347.74865290627
 30
0.0
 40
13.75
 41
153.3890353441238
 46
0.0
 71
     3
 72
     1
  1
{\fArial|b0|i0;\W1.000000;\H13.750000;\c16711848;Grille anti-rongeur}
  7
arial-
 73
     1
 44
1.07999975538982
 90
        3
 63
     9
421
 13158600
 45
1.5
441
 33554687
  0
MTEXT
  5
36B
330
1F
100
AcDbEntity
  8
Ech.1_5
  6
Continuous
 62
   253
420
 10066329
390
5F
100
AcDbMText
 10
17620.35826988721
 20
-12924.63552195348
 30
0.0
 40
13.75
 41
93.82054626941681
 46
0.0
 71
     2
 72
     1
  1
{\fArial|b0|i0;\W1.000000;\H13.750000;\c10066329;Surbot béton}
  7
arial-
 73
     1
 44
1.07999975538982
 90
        3
 63
     9
421
 13158600
 45
1.5
441
 33554687
  0
MTEXT
  5
36C
330
1F
100
AcDbEntity
  8
Ech.1_5
  6
Continuous
 62
   253
420
 10066329
390
5F
100
AcDbMText
 10
17540.42608884142
 20
-13213.51998434302
 30
0.0
 40
13.75
 41
161.1356173753738
 46
0.0
 71
     1
 72
     1
  1
{\fArial|b0|i0;\W1.000000;\H13.750000;\c10066329;Revêtement de sol}
  7
arial-
 73
     1
 44
1.07999975538982
 90
        3
 63
     9
421
 13158600
 45
1.5
441
 33554687
  0
MTEXT
  5
36D
330
1F
100
AcDbEntity
  8
Ech.1_5
  6
Continuous
 62
   253
420
 10066329
390
5F
100
AcDbMText
 10
17488.67421510172
 20
-13281.57024277572
 30
0.0
 40
13.75
 41
57.63051844336587
 46
0.0
 71
     1
 72
     1
  1
{\fArial|b0|i0;\W1.000000;\H13.750000;\c10066329;Chape}
  7
arial-
 73
     1
 44
1.07999975538982
 90
        3
 63
     9
421
 13158600
 45
1.5
441
 33554687
  0
MTEXT
  5
36E
330
1F
100
AcDbEntity
  8
Ech.1_5
  6
Continuous
 62
   253
420
 10066329
390
5F
100
AcDbMText
 10
17488.67421510172
 20
-13463.55355186637
 30
0.0
 40
13.75
 41
97.8654116988182
 46
0.0
 71
     1
 72
     1
  1
{\fArial|b0|i0;\W1.000000;\H13.750000;\c10066329;Dalle béton}
  7
arial-
 73
     1
 44
1.07999975538982
 90
        3
 63
     9
421
 13158600
 45
1.5
441
 33554687
  0
MTEXT
  5
36F
330
1F
100
AcDbEntity
  8
Ech.1_5
  6
Continuous
 62
   253
420
 10066329
390
5F
100
AcDbMText
 10
17488.67421510172
 20
-13354.14530492591
 30
0.0
 40
13.75
 41
178.0667970434588
 46
0.0
 71
     1
 72
     1
  1
{\fArial|b0|i0;\W1.000000;\H13.750000;\c10066329;Isolant sous chape}
  7
arial-
 73
     1
 44
1.07999975538982
 90
        3
 63
     9
421
 13158600
 45
1.5
441
 33554687
  0
MTEXT
  5
371
330
1F
100
AcDbEntity
  8
Ech.1_5
  6
Continuous
 62
     4
420
    65535
390
5F
100
AcDbMText
 10
17573.71260585523
 20
-12596.12469314055
 30
0.0
 40
11.875
 41
366.4426162862437
 46
0.0
 71
     2
 72
     1
  1
{\fArial|b1|i0;\W1.000000;\H11.875000;\c16711848;DETAIL AVEC SURBOT BETON}
  7
arial-b
 73
     1
 44
1.07999975538982
  0
MTEXT
  5
372
330
1F
100
AcDbEntity
  8
Ech.1_5
  6
Continuous
 62
     4
420
    65535
390
5F
100
AcDbMText
 10
16849.78419050399
 20
-12729.14400894907
 30
0.0
 40
13.75
 41
247.6854307039612
 46
0.0
 71
     1
 72
     1
  1
{\fArial|b1|i0;\W1.000000;\H13.750000;\c16711848;COMPLEMENT LEGENDE}
  7
arial-b
 73
     1
 44
1.07999975538982
 90
        3
 63
     9
421
 13158600
 45
1.5
441
 33554687
  0
MTEXT
  5
373
330
1F
100
AcDbEntity
  8
Ech.1_5
  6
Continuous
 62
     7
390
5F
100
AcDbMText
 10
16964.04881121236
 20
-13033.5046605188
 30
0.0
 40
13.75
 41
195.8294116869001
 46
0.0
 71
     3
 72
     1
  1
{\fArial|b0|i0;\W1.000000;\H13.750000;\c16711848;Isolant extérieur}
  7
arial-
 73
     1
 44
1.07999975538982
  0
MTEXT
  5
374
330
1F
100
AcDbEntity
  8
Ech.1_5
  6
Continuous
 62
     7
390
5F
100
AcDbMText
 10
16964.04881121236
 20
-12971.12954090861
 30
0.0
 40
13.75
 41
114.4633690341434
 46
0.0
 71
     3
 72
     1
  1
{\fArial|b0|i0;\W1.000000;\H13.750000;\c16711848;Tasseaux horizontaux}
  7
arial-
 73
     1
 44
1.07999975538982
  0
MTEXT
  5
375
330
1F
100
AcDbEntity
  8
Ech.1_5
  6
Continuous
 62
   253
420
 10066329
390
5F
100
AcDbMText
 10
17198.79084109339
 20
-13590.63622937726
 30
0.0
 40
13.75
 41
110.1364284217416
 46
0.0
 71
     1
 72
     1
  1
{\fArial|b0|i0;\W1.000000;\H13.750000;\c10066329;Isolant périphérique}
  7
arial-
 73
     1
 44
1.07999975538982
 90
        3
 63
     9
421
 13158600
 45
1.5
441
 33554687
  0
MTEXT
  5
376
330
1F
100
AcDbEntity
  8
Ech.1_5
  6
Continuous
 62
     4
420
    65535
390
5F
100
AcDbMText
 10
16849.78419050399
 20
-12756.64400894907
 30
0.0
 40
13.75
 41
311.4985560282876
 46
0.0
 71
     1
 72
     1
  1
{\fArial|b0|i0;\W1.000000;\H13.750000;\c16711848;Mousse imprégnée pré-comprimée }\P{\fArial|b0|i0;\W1.000000;\H13.750000;\c16711848;Collage mastic}
  7
arial-
 73
     1
 44
1.07999975538982
 90
        3
 63
     9
421
 13158600
 45
1.5
441
 33554687
  0
MTEXT
  5
377
330
1F
100
AcDbEntity
  8
Ech.1_5
  6
Continuous
 62
   253
420
 10066329
390
5F
100
AcDbMText
 10
17523.5868117968
 20
-13138.65981913705
 30
0.0
 40
13.75
 41
196.2559117978526
 46
0.0
 71
     1
 72
     1
  1
{\fArial|b0|i0;\W1.000000;\H13.750000;\c10066329;Système de protection de plaque de plâtre}
  7
arial-
 73
     1
 44
1.07999975538982
 90
        3
 63
     9
421
 13158600
 45
1.5
441
 33554687
  0
MTEXT
  5
378
330
1F
100
AcDbEntity
  8
Ech.1_5
  6
Continuous
 62
     4
420
    65535
390
5F
100
AcDbMText
 10
17372.65263627425
 20
-13811.34143865525
 30
0.0
 40
12.5
 41
488.342884635189
 46
0.0
 71
     2
 72
     1
  1
{\fArial|b0|i0;\W1.000000;\H12.500000;\c16711848;Vue en coupe verticale}
  7
arial-
 73
     1
 44
1.07999975538982
  0
MTEXT
  5
379
330
1F
100
AcDbEntity
  8
Ech.1_5
  6
Continuous
 62
     4
420
    65535
390
5F
100
AcDbMText
 10
17692.9727462951
 20
-13811.1742621626
 30
0.0
 40
12.5
 41
127.2973354065034
 46
0.0
 71
     2
 72
     1
  1
{\fArial|b0|i0;\W1.000000;\H12.500000;\c16711848;Ech 1/5 }
  7
arial-
 73
     1
 44
1.07999975538982
  0
MTEXT
  5
37A
330
1F
100
AcDbEntity
  8
Ech.1_5
  6
Continuous
 62
     4
420
    65535
390
5F
100
AcDbMText
 10
17044.15358495898
 20
-13810.90250586012
 30
0.0
 40
12.5
 41
143.6552179953505
 46
0.0
 71
     2
 72
     1
  1
{\fArial|b0|i0;\W1.000000;\H12.500000;\c16711848;ME08-07}
  7
arial-
 73
     1
 44
1.07999975538982
  0
MTEXT
  5
37C
330
1F
100
AcDbEntity
  8
Ech.1_5
  6
Continuous
 62
   200
420
 11010303
390
5F
100
AcDbMText
 10
17270.37141399835
 20
-13833.92162319696
 30
0.0
 40
8.75
 41
976.25
 46
0.0
 71
     2
 72
     1
  3
{\fArial|b0|i1;\W1.000000;\H8.750000;\c16711848; Il est rappelé à l'utilisateur qui consulte le site et utilise les informations qu'il contient, qu'il doit les utiliser sous sa seule responsabilité en vérifiant leur pertinence, leur cohérence et leur
  1
 non obsolescence.}
  7
arial-i
 73
     1
 44
1.07999975538982
  0
MTEXT
  5
37D
330
1F
100
AcDbEntity
  8
Ech.1_5
  6
Continuous
 62
   200
420
 11010303
390
5F
100
AcDbMText
 10
17270.37141399835
 20
-13720.26054285447
 30
0.0
 40
16.25
 41
968.75
 46
0.0
 71
     2
 72
     1
  1
{\fArial|b1|i0;\W1.000000;\H16.250000;\c16711848;MUR EXTERIEUR TYPE 8: Isolant en âme et en doublage intérieur et extérieur}
  7
arial-b
 73
     1
 44
1.07999975538982
  0
MTEXT
  5
37E
330
1F
100
AcDbEntity
  8
Ech.1_5
  6
Continuous
 62
     4
420
    65535
390
5F
100
AcDbMText
 10
17270.37141399835
 20
-13751.61750601271
 30
0.0
 40
16.25
 41
968.75
 46
0.0
 71
     2
 72
     1
  1
{\fArial|b0|i0;\W1.000000;\H16.250000;\c16711848;Détail pied de mur - dalle béton avec chape sur isolant thermique}
  7
arial-
 73
     1
 44
1.07999975538982
  0
MTEXT
  5
37F
330
1F
100
AcDbEntity
  8
Ech.1_5
  6
Continuous
 62
     4
420
    65535
390
5F
100
AcDbMText
 10
17000.3668765429
 20
-13090.16552234417
 30
0.0
 40
13.75
 41
212.6347257064408
 46
0.0
 71
     3
 72
     1
  3
{\fArial|b0|i0;\W1.000000;\H13.750000;\c16711848;Barrière d'étanchéité}\P{\fArial|b0|i0;\W1.000000;\H13.750000;\c16711848;et anti-capillarité de type rigide bitume modifié ou SBS et bandes mousses}\P{\fArial|b0|i0;\W1.000000;\H13.750000;\c16711848;im
  1
prégnée précomprimée posées directement sur le béton}
  7
arial-
 73
     1
 44
1.07999975538982
 90
        3
 63
     9
421
 13158600
 45
1.5
441
 33554687
  0
TEXT
  5
380
330
1F
100
AcDbEntity
  8
Ech.1_5
  6
Continuous
 62
   190
390
5F
100
AcDbText
 10
16859.67529356896
 20
-12649.8764666563
 30
0.0
 40
8.0
  1
Echelle en mm
  7
arial-
100
AcDbText
  0
TEXT
  5
381
330
1F
100
AcDbEntity
  8
Ech.1_5
  6
Continuous
 62
   190
390
5F
100
AcDbText
 10
16845.69470881953
 20
-12678.08630218598
 30
0.0
 40
8.0
  1
0
  7
arial-
100
AcDbText
  0
TEXT
  5
382
330
1F
100
AcDbEntity
  8
Ech.1_5
  6
Continuous
 62
   190
390
5F
100
AcDbText
 10
16932.29176671225
 20
-12678.08630218598
 30
0.0
 40
8.0
  1
100
  7
arial-
100
AcDbText
  0
TEXT
  5
383
330
1F
100
AcDbEntity
  8
Ech.1_5
  6
Continuous
 62
   190
390
5F
100
AcDbText
 10
16893.55133514637
 20
-12678.08630218598
 30
0.0
 40
8.0
  1
50
  7
arial-
100
AcDbText
  0
TEXT
  5
384
330
1F
100
AcDbEntity
  8
Ech.1_5
  6
Continuous
 62
   190
390
5F
100
AcDbText
 10
16830.91028853523
 20
-13823.61244068506
 30
0.0
 40
12.5
  1
30/01/2023
  7
arial-
100
AcDbText
  0
TEXT
  5
385
330
1F
100
AcDbEntity
  8
Ech.1_5
  6
Continuous
 62
   190
390
5F
100
AcDbText
 10
16989.4374956547
 20
-13433.09544866288
 30
0.0
 40
13.5
  1
30
 50
90.0
  7
arial-
100
AcDbText
  0
TEXT
  5
386
330
1F
100
AcDbEntity
  8
Ech.1_5
  6
Continuous
 62
   190
390
5F
100
AcDbText
 10
16796.82036165278
 20
-13533.19679786113
 30
0.0
 40
13.5
  1
*en fonction de la
  7
arial-
100
AcDbText
  0
TEXT
  5
387
330
1F
100
AcDbEntity
  8
Ech.1_5
  6
Continuous
 62
   190
390
5F
100
AcDbText
 10
16796.82036165278
 20
-13557.49679900553
 30
0.0
 40
13.5
  1
nature du bardage
  7
arial-
100
AcDbText
  0
TEXT
  5
388
330
1F
100
AcDbEntity
  8
Ech.1_5
  6
Continuous
 62
   190
390
5F
100
AcDbText
 10
17404.22116756169
 20
-12844.79224110085
 30
0.0
 40
13.5
  1
30
 50
90.0
  7
arial-
100
AcDbText
  0
TEXT
  5
389
330
1F
100
AcDbEntity
  8
Ech.1_5
  6
Continuous
 62
   190
390
5F
100
AcDbText
 10
17404.22116756169
 20
-12844.79224110085
 30
0.0
 40
13.5
  1
30
 50
90.0
  7
arial-
100
AcDbText
  0
TEXT
  5
38A
330
1F
100
AcDbEntity
  8
Ech.1_5
  6
Continuous
 62
   190
390
5F
100
AcDbText
 10
17160.82231884454
 20
-13878.87115339746
 30
0.0
 40
12.0
  1
catalogue-bois-construction.fr
  7
arial-i
100
AcDbText
  0
VIEWPORT
  5
217
330
211
100
AcDbEntity
 67
     1
  8
0
  6
Continuous
390
5F
100
AcDbViewport
 10
98.8
 20
135.8
 30
0.0
 40
209.0608
 41
287.3528000000001
 68
     1
 69
     1
 12
128.5
 22
97.5
 13
0.0
 23
0.0
 14
10.0
 24
10.0
 15
10.0
 25
10.0
 16
0.0
 26
0.0
 36
1.0
 17
0.0
 27
0.0
 37
0.0
 42
50.0
 43
0.0
 44
0.0
 45
222.18
 50
0.0
 51
0.0
 72
   100
 90
   557152
  1

281
     0
 71
     1
 74
     0
110
0.0
120
0.0
130
0.0
111
1.0
121
0.0
131
0.0
112
0.0
122
1.0
132
0.0
 79
     0
146
0.0
170
     0
 61
     5
348
2F
292
     1
282
     1
141
0.0
142
0.0
 63
   256
361
218
  0
VIEWPORT
  5
219
330
211
100
AcDbEntity
 67
     1
  8
0
  6
Continuous
 60
     1
390
5F
100
AcDbViewport
 10
98.8
 20
135.8
 30
0.0
 40
197.6
 41
271.6
 68
     2
 69
     2
 12
17270.37141399835
 22
-13267.56557792518
 13
0.0
 23
0.0
 14
10.0
 24
10.0
 15
10.0
 25
10.0
 16
0.0
 26
0.0
 36
1.0
 17
0.0
 27
0.0
 37
0.0
 42
50.0
 43
0.0
 44
0.0
 45
1358.0
 50
0.0
 51
0.0
 72
   100
 90
   557152
  1

281
     0
 71
     1
 74
     0
110
0.0
120
0.0
130
0.0
111
1.0
121
0.0
131
0.0
112
0.0
122
1.0
132
0.0
 79
     0
146
0.0
170
     0
 61
     5
348
2F
292
     1
282
     1
141
0.0
142
0.0
 63
   256
  0
ENDSEC
  0
SECTION
  2
OBJECTS
  0
DICTIONARY
  5
C
330
0
100
AcDbDictionary
281
     1
  3
ACAD_DETAILVIEWSTYLE
350
392
  3
ACAD_GROUP
350
D
  3
ACAD_IMAGE_VARS
350
60
  3
ACAD_LAYOUT
350
1A
  3
ACAD_MATERIAL
350
43
  3
ACAD_MLEADERSTYLE
350
5B
  3
ACAD_MLINESTYLE
350
17
  3
ACAD_PLOTSETTINGS
350
19
  3
ACAD_PLOTSTYLENAME
350
E
  3
ACAD_SCALELIST
350
47
  3
ACAD_SECTIONVIEWSTYLE
350
393
  3
ACAD_TABLESTYLE
350
59
  3
ACAD_VISUALSTYLE
350
2A
  3
ACAD_WIPEOUT_VARS
350
61
  3
ACDB_RECOMPOSE_DATA
350
38F
  3
AcDbVariableDictionary
350
38B
  0
SUN
  5
5D
330
29
100
AcDbSun
 90
        1
290
     0
 63
     7
421
 16777215
 40
1.0
291
     1
 91
  2455826
 92
 54000000
292
     0
 70
     2
 71
   256
280
     1
  0
SUN
  5
218
330
217
100
AcDbSun
 90
        1
290
     0
 63
     7
421
 16777215
 40
1.0
291
     1
 91
  2455826
 92
 54000000
292
     0
 70
     2
 71
   256
280
     1
  0
DICTIONARY
  5
392
102
{ACAD_REACTORS
330
C
102
}
330
C
100
AcDbDictionary
281
     1
  0
DICTIONARY
  5
D
102
{ACAD_REACTORS
330
C
102
}
330
C
100
AcDbDictionary
281
     1
  3
DIM324
350
317
  3
DIM325
350
326
  3
DIM326
350
334
  3
DIM327
350
342
  3
DIM350
350
350
  3
DIM351
350
35C
  0
RASTERVARIABLES
  5
60
102
{ACAD_REACTORS
330
C
102
}
330
C
100
AcDbRasterVariables
 90
        0
 70
     0
 71
     1
 72
     1
  0
DICTIONARY
  5
1A
102
{ACAD_REACTORS
330
C
102
}
330
C
100
AcDbDictionary
281
     1
  3
CompleteLayout
350
1E
  3
Model
350
22
  3
PrintFrame_286
350
212
  0
DICTIONARY
  5
43
102
{ACAD_REACTORS
330
C
102
}
330
C
100
AcDbDictionary
281
     1
  3
ByBlock
350
45
  3
ByLayer
350
44
  3
Global
350
46
  0
DICTIONARY
  5
5B
102
{ACAD_REACTORS
330
C
102
}
330
C
100
AcDbDictionary
281
     1
  3
Standard
350
5C
  0
DICTIONARY
  5
17
102
{ACAD_REACTORS
330
C
102
}
330
C
100
AcDbDictionary
281
     1
  3
Standard
350
18
  0
DICTIONARY
  5
19
102
{ACAD_REACTORS
330
C
102
}
330
C
100
AcDbDictionary
281
     1
  3
PlotSettings_
350
215
  0
ACDBDICTIONARYWDFLT
  5
E
102
{ACAD_REACTORS
330
C
102
}
330
C
100
AcDbDictionary
281
     1
  3
flat
350
5F
  3
Normal
350
F
  3
round
350
281
100
AcDbDictionaryWithDefault
340
F
  0
DICTIONARY
  5
47
102
{ACAD_REACTORS
330
C
102
}
330
C
100
AcDbDictionary
281
     1
  3
A0
350
48
  3
A1
350
49
  3
A2
350
4A
  3
A3
350
4B
  3
A4
350
4C
  3
A5
350
4D
  3
A6
350
4E
  3
A7
350
4F
  3
A8
350
50
  3
A9
350
51
  3
B0
350
52
  3
B1
350
53
  3
B2
350
54
  3
B3
350
55
  3
B4
350
56
  3
B5
350
57
  3
B6
350
58
  0
DICTIONARY
  5
393
102
{ACAD_REACTORS
330
C
102
}
330
C
100
AcDbDictionary
281
     1
  0
DICTIONARY
  5
59
102
{ACAD_REACTORS
330
C
102
}
330
C
100
AcDbDictionary
281
     1
  3
Standard
350
5A
  0
DICTIONARY
  5
2A
102
{ACAD_REACTORS
330
C
102
}
330
C
100
AcDbDictionary
281
     1
  3
2dWireframe
350
2F
  3
Basic
350
32
  3
Brighten
350
36
  3
ColorChange
350
3A
  3
Conceptual
350
34
  3
Dim
350
35
  3
EdgeColorOff
350
3D
  3
Facepattern
350
39
  3
Flat
350
2B
  3
FlatWithEdges
350
2C
  3
Gouraud
350
2D
  3
GouraudWithEdges
350
2E
  3
Hidden
350
31
  3
JitterOff
350
3B
  3
Linepattern
350
38
  3
OverhangOff
350
3C
  3
Realistic
350
33
  3
Shaded
350
42
  3
Shaded with edges
350
41
  3
Shades of Gray
350
3E
  3
Sketchy
350
3F
  3
Thicken
350
37
  3
Wireframe
350
30
  3
X-Ray
350
40
  0
WIPEOUTVARIABLES
  5
61
102
{ACAD_REACTORS
330
C
102
}
330
C
100
AcDbWipeoutVariables
 70
     0
  0
XRECORD
  5
38F
102
{ACAD_REACTORS
330
C
102
}
330
C
100
AcDbXrecord
280
     1
 90
        1
330
5A
  0
DICTIONARY
  5
38B
102
{ACAD_REACTORS
330
C
102
}
330
C
100
AcDbDictionary
281
     1
  3
CANNOSCALE
350
38C
  3
CENTEREXE
350
395
  3
CENTERLTYPEFILE
350
396
  3
CMLEADERSTYLE
350
391
  3
CTABLESTYLE
350
390
  3
WIPEOUTFRAME
350
394
  0
GROUP
  5
317
102
{ACAD_REACTORS
330
D
102
}
330
D
100
AcDbGroup
300

 70
     0
 71
     1
340
316
  0
GROUP
  5
326
102
{ACAD_REACTORS
330
D
102
}
330
D
100
AcDbGroup
300

 70
     0
 71
     1
340
325
  0
GROUP
  5
334
102
{ACAD_REACTORS
330
D
102
}
330
D
100
AcDbGroup
300

 70
     0
 71
     1
340
333
  0
GROUP
  5
342
102
{ACAD_REACTORS
330
D
102
}
330
D
100
AcDbGroup
300

 70
     0
 71
     1
340
341
  0
GROUP
  5
350
102
{ACAD_REACTORS
330
D
102
}
330
D
100
AcDbGroup
300

 70
     0
 71
     1
340
34F
  0
GROUP
  5
35C
102
{ACAD_REACTORS
330
D
102
}
330
D
100
AcDbGroup
300

 70
     0
 71
     1
340
35B
  0
LAYOUT
  5
1E
102
{ACAD_REACTORS
330
1A
102
}
330
1A
100
AcDbPlotSettings
  1

  2
none_device
  4

  6

 40
0.0
 41
0.0
 42
0.0
 43
0.0
 44
0.0
 45
0.0
 46
0.0
 47
0.0
 48
0.0
 49
0.0
140
0.0
141
0.0
142
1.0
143
1.0
 70
   688
 72
     1
 73
     0
 74
     5
  7

 75
    16
 76
     0
 77
     2
 78
   300
147
1.0
148
0.0
149
0.0
100
AcDbLayout
  1
CompleteLayout
 70
     1
 71
     1
 10
0.0
 20
0.0
 11
420.0
 21
297.0
 12
0.0
 22
0.0
 32
0.0
 14
1.000000000000000E+20
 24
1.000000000000000E+20
 34
1.000000000000000E+20
 15
-1.000000000000000E+20
 25
-1.000000000000000E+20
 35
-1.000000000000000E+20
146
0.0
 13
0.0
 23
0.0
 33
0.0
 16
1.0
 26
0.0
 36
0.0
 17
0.0
 27
1.0
 37
0.0
 76
     0
330
1B
  0
LAYOUT
  5
22
102
{ACAD_REACTORS
330
1A
102
}
330
1A
100
AcDbPlotSettings
  1

  2
none_device
  4
Letter_(8.50_x_11.00_Inches)
  6

 40
6.35
 41
6.35
 42
6.35000508
 43
6.35000508
 44
215.9
 45
279.4
 46
0.0
 47
0.0
 48
0.0
 49
0.0
140
0.0
141
0.0
142
1.0
143
1.0
 70
  1712
 72
     1
 73
     0
 74
     0
  7

 75
     0
 76
     0
 77
     2
 78
   300
147
1.0
148
0.0
149
0.0
100
AcDbLayout
  1
Model
 70
     1
 71
     0
 10
0.0
 20
0.0
 11
420.0
 21
297.0
 12
0.0
 22
0.0
 32
0.0
 14
9116.32829549663
 24
-14457.30704422377
 34
0.0
 15
31769.28913838763
 25
-12018.78313514858
 35
2500.0
146
0.0
 13
0.0
 23
0.0
 33
0.0
 16
1.0
 26
0.0
 36
0.0
 17
0.0
 27
1.0
 37
0.0
 76
     0
330
1F
331
29
  0
LAYOUT
  5
212
102
{ACAD_REACTORS
330
1A
102
}
330
1A
100
AcDbPlotSettings
  1
PlotSettings_
  2
Custom Device
  4
Custom_210.000000x297.000000_12.700000_12.700000_6.200000_6.200000
  6

 40
6.2
 41
12.7
 42
6.2
 43
12.7
 44
210.0
 45
297.0
 46
0.0000000000000142
 47
0.0
 48
0.0
 49
0.0
140
197.6
141
271.6
142
1.0
143
1.0
 70
   756
 72
     1
 73
     0
 74
     4
  7

 75
     0
 76
     0
 77
     2
 78
   300
147
1.0
148
0.0
149
0.0
100
AcDbLayout
  1
PrintFrame_286
 70
     0
 71
     2
 10
-20.0
 20
-7.5
 11
277.0
 21
202.5
 12
0.0
 22
0.0
 32
0.0
 14
-5.730400000000003
 24
-7.876400000000018
 34
0.0
 15
203.3304
 25
279.4764
 35
0.0
146
0.0
 13
0.0
 23
0.0
 33
0.0
 16
1.0
 26
0.0
 36
0.0
 17
0.0
 27
1.0
 37
0.0
 76
     0
330
211
331
217
1001
PLOTTRANSPARENCY
1071
        1
1000
layout-user-created
1070
     1
1000
layout-line-weight-scale
1042
1.0
  0
MATERIAL
  5
45
102
{ACAD_REACTORS
330
43
102
}
330
43
100
AcDbMaterial
  1
ByBlock
 72
     1
 94
      127
  0
MATERIAL
  5
44
102
{ACAD_REACTORS
330
43
102
}
330
43
100
AcDbMaterial
  1
ByLayer
 72
     1
 94
      127
  0
MATERIAL
  5
46
102
{ACAD_REACTORS
330
43
102
}
330
43
100
AcDbMaterial
  1
Global
 72
     1
 94
      127
  0
MLEADERSTYLE
  5
5C
102
{ACAD_REACTORS
330
5B
102
}
330
5B
100
AcDbMLeaderStyle
179
     2
170
     2
171
     1
172
     0
 90
        2
 40
0.0
 41
0.0
173
     1
 91
-1056964608
340
14
 92
       -2
290
     1
 42
2.0
291
     1
 43
8.0
  3
Standard
341
0
 44
4.0
300

342
11
174
     1
178
     6
175
     1
176
     0
 93
-1056964608
 45
4.0
292
     0
297
     0
 46
4.0
343
0
 94
-1056964608
 47
1.0
 49
1.0
140
1.0
293
     1
141
0.0
294
     1
177
     0
142
1.0
295
     0
296
     0
143
3.75
271
     0
272
     9
273
     9
298
     0
  0
MLINESTYLE
  5
18
102
{ACAD_REACTORS
330
17
102
}
330
17
100
AcDbMlineStyle
  2
Standard
 70
     0
  3

 62
   256
 51
90.0
 52
90.0
 71
     2
 49
0.5
 62
   256
  6
BYLAYER
 49
-0.5
 62
   256
  6
BYLAYER
  0
PLOTSETTINGS
  5
215
102
{ACAD_REACTORS
330
19
102
}
330
19
100
AcDbPlotSettings
  1
PlotSettings_
  2
Custom Device
  4
Custom_210.000000x297.000000_12.700000_12.700000_6.200000_6.200000
  6

 40
6.2
 41
12.7
 42
6.2
 43
12.7
 44
210.0
 45
297.0
 46
0.0000000000000142
 47
0.0
 48
0.0
 49
0.0
140
197.6
141
271.6
142
1.0
143
1.0
 70
   756
 72
     1
 73
     0
 74
     4
  7

 75
     0
 76
     0
 77
     2
 78
   300
147
1.0
148
0.0
149
0.0
1001
PLOTTRANSPARENCY
1071
        1
1000
layout-user-created
1070
     1
1000
layout-line-weight-scale
1042
1.0
  0
ACDBPLACEHOLDER
  5
5F
102
{ACAD_REACTORS
330
E
102
}
330
E
  0
ACDBPLACEHOLDER
  5
F
102
{ACAD_REACTORS
330
E
102
}
330
E
  0
ACDBPLACEHOLDER
  5
281
102
{ACAD_REACTORS
330
E
102
}
330
E
  0
SCALE
  5
48
102
{ACAD_REACTORS
330
47
102
}
330
47
100
AcDbScale
 70
     0
300
1:1
140
1.0
141
1.0
290
     1
  0
SCALE
  5
49
102
{ACAD_REACTORS
330
47
102
}
330
47
100
AcDbScale
 70
     0
300
1:2
140
1.0
141
2.0
290
     0
  0
SCALE
  5
4A
102
{ACAD_REACTORS
330
47
102
}
330
47
100
AcDbScale
 70
     0
300
1:4
140
1.0
141
4.0
290
     0
  0
SCALE
  5
4B
102
{ACAD_REACTORS
330
47
102
}
330
47
100
AcDbScale
 70
     0
300
1:5
140
1.0
141
5.0
290
     0
  0
SCALE
  5
4C
102
{ACAD_REACTORS
330
47
102
}
330
47
100
AcDbScale
 70
     0
300
1:8
140
1.0
141
8.0
290
     0
  0
SCALE
  5
4D
102
{ACAD_REACTORS
330
47
102
}
330
47
100
AcDbScale
 70
     0
300
1:10
140
1.0
141
10.0
290
     0
  0
SCALE
  5
4E
102
{ACAD_REACTORS
330
47
102
}
330
47
100
AcDbScale
 70
     0
300
1:16
140
1.0
141
16.0
290
     0
  0
SCALE
  5
4F
102
{ACAD_REACTORS
330
47
102
}
330
47
100
AcDbScale
 70
     0
300
1:20
140
1.0
141
20.0
290
     0
  0
SCALE
  5
50
102
{ACAD_REACTORS
330
47
102
}
330
47
100
AcDbScale
 70
     0
300
1:30
140
1.0
141
30.0
290
     0
  0
SCALE
  5
51
102
{ACAD_REACTORS
330
47
102
}
330
47
100
AcDbScale
 70
     0
300
1:40
140
1.0
141
40.0
290
     0
  0
SCALE
  5
52
102
{ACAD_REACTORS
330
47
102
}
330
47
100
AcDbScale
 70
     0
300
1:50
140
1.0
141
50.0
290
     0
  0
SCALE
  5
53
102
{ACAD_REACTORS
330
47
102
}
330
47
100
AcDbScale
 70
     0
300
1:100
140
1.0
141
100.0
290
     0
  0
SCALE
  5
54
102
{ACAD_REACTORS
330
47
102
}
330
47
100
AcDbScale
 70
     0
300
2:1
140
2.0
141
1.0
290
     0
  0
SCALE
  5
55
102
{ACAD_REACTORS
330
47
102
}
330
47
100
AcDbScale
 70
     0
300
4:1
140
4.0
141
1.0
290
     0
  0
SCALE
  5
56
102
{ACAD_REACTORS
330
47
102
}
330
47
100
AcDbScale
 70
     0
300
8:1
140
8.0
141
1.0
290
     0
  0
SCALE
  5
57
102
{ACAD_REACTORS
330
47
102
}
330
47
100
AcDbScale
 70
     0
300
10:1
140
10.0
141
1.0
290
     0
  0
SCALE
  5
58
102
{ACAD_REACTORS
330
47
102
}
330
47
100
AcDbScale
 70
     0
300
100:1
140
100.0
141
1.0
290
     0
  0
TABLESTYLE
  5
5A
102
{ACAD_REACTORS
330
59
102
}
102
{ACAD_XDICTIONARY
360
38D
102
}
330
59
100
AcDbTableStyle
  3
Standard
 70
     0
 71
     0
 40
0.06
 41
0.06
280
     0
281
     0
  7
Standard
140
4.5
170
     2
 62
     0
 63
   257
283
     0
 90
        4
 91
        0
  1

274
    -2
284
     1
 64
     0
275
    -2
285
     1
 65
     0
276
    -2
286
     1
 66
     0
277
    -2
287
     1
 67
     0
278
    -2
288
     1
 68
     0
279
    -2
289
     1
 69
     0
  7
Standard
140
6.0
170
     5
 62
     0
 63
   257
283
     0
 90
        4
 91
        0
  1

274
    -2
284
     1
 64
     0
275
    -2
285
     1
 65
     0
276
    -2
286
     1
 66
     0
277
    -2
287
     1
 67
     0
278
    -2
288
     1
 68
     0
279
    -2
289
     1
 69
     0
  7
Standard
140
4.5
170
     5
 62
     0
 63
   257
283
     0
 90
        4
 91
        0
  1

274
    -2
284
     1
 64
     0
275
    -2
285
     1
 65
     0
276
    -2
286
     1
 66
     0
277
    -2
287
     1
 67
     0
278
    -2
288
     1
 68
     0
279
    -2
289
     1
 69
     0
  0
VISUALSTYLE
  5
2F
102
{ACAD_REACTORS
330
2A
102
}
330
2A
100
AcDbVisualStyle
  2
2dWireframe
 70
     4
177
     3
291
     0
 70
    58
 90
        0
176
     1
 90
        2
176
     1
 90
        0
176
     1
 90
        0
176
     1
 40
0.6
176
     1
 40
30.0
176
     1
 62
     7
420
 16777215
176
     1
 90
        1
176
     1
 90
        4
176
     1
 62
     7
176
     1
 62
   257
176
     1
 90
        1
176
     1
 90
        1
176
     1
 40
1.0
176
     1
 90
        0
176
     1
 62
   257
176
     1
 40
1.0
176
     1
 90
        1
176
     1
 90
        6
176
     1
 90
        2
176
     1
 62
     7
176
     1
 90
        5
176
     1
 90
        0
176
     1
 90
        0
176
     1
290
     0
176
     1
 90
        1
176
     1
 40
0.0
176
     1
 90
        0
176
     1
290
     1
176
     1
290
     1
176
     1
290
     0
176
     1
290
     0
176
     1
290
     0
176
     1
290
     0
176
     1
290
     0
176
     1
290
     0
176
     1
290
     0
176
     1
 90
       50
176
     1
 40
0.0
176
     1
 40
1.0
176
     1
 90
        0
176
     1
 62
    18
420
        0
176
     1
 90
       50
176
     1
 90
        3
176
     1
 62
     5
420
      255
176
     1
290
     0
176
     1
 90
       50
176
     1
 90
       50
176
     1
 90
       50
176
     1
290
     0
176
     1
 90
       50
176
     1
 62
   256
176
     0
 40
1.0
176
     0
 90
        2
176
     1
  1
strokes_ogs.tif
176
     1
290
     0
176
     1
 40
1.0
176
     1
 40
1.0
176
     1
  0
VISUALSTYLE
  5
32
102
{ACAD_REACTORS
330
2A
102
}
330
2A
100
AcDbVisualStyle
  2
Basic
 70
     7
177
     3
291
     1
 70
    58
 90
        1
176
     1
 90
        0
176
     1
 90
        1
176
     1
 90
        0
176
     1
 40
0.6
176
     1
 40
30.0
176
     1
 62
     7
420
 16777215
176
     1
 90
        0
176
     1
 90
        4
176
     1
 62
     7
176
     1
 62
   257
176
     1
 90
        1
176
     1
 90
        1
176
     1
 40
1.0
176
     1
 90
        8
176
     1
 62
     7
176
     1
 40
1.0
176
     1
 90
        1
176
     1
 90
        6
176
     1
 90
        2
176
     1
 62
     7
176
     1
 90
        5
176
     1
 90
        0
176
     1
 90
        0
176
     1
290
     0
176
     1
 90
        1
176
     1
 40
0.0
176
     1
 90
        0
176
     1
290
     0
176
     1
290
     1
176
     1
290
     1
176
     1
290
     0
176
     1
290
     0
176
     1
290
     0
176
     1
290
     0
176
     1
290
     0
176
     1
290
     0
176
     1
 90
       50
176
     1
 40
0.0
176
     1
 40
1.0
176
     1
 90
        0
176
     1
 62
    18
420
        0
176
     1
 90
       50
176
     1
 90
        3
176
     1
 62
     5
420
      255
176
     1
290
     0
176
     1
 90
       50
176
     1
 90
       50
176
     1
 90
       50
176
     1
290
     0
176
     1
 90
       50
176
     1
 62
   256
176
     0
 40
1.0
176
     0
 90
        2
176
     1
  1
strokes_ogs.tif
176
     1
290
     0
176
     1
 40
1.0
176
     1
 40
1.0
176
     1
  0
VISUALSTYLE
  5
36
102
{ACAD_REACTORS
330
2A
102
}
330
2A
100
AcDbVisualStyle
  2
Brighten
 70
    12
177
     3
291
     1
 70
    58
 90
        2
176
     1
 90
        2
176
     1
 90
        0
176
     1
 90
        0
176
     1
 40
0.6
176
     1
 40
30.0
176
     1
 62
     7
420
 16777215
176
     1
 90
        1
176
     1
 90
        4
176
     1
 62
     7
176
     1
 62
   257
176
     1
 90
        1
176
     1
 90
        1
176
     1
 40
1.0
176
     1
 90
        8
176
     1
 62
     7
176
     1
 40
1.0
176
     1
 90
        1
176
     1
 90
        6
176
     1
 90
        2
176
     1
 62
     7
176
     1
 90
        5
176
     1
 90
        0
176
     1
 90
        0
176
     1
290
     0
176
     1
 90
        1
176
     1
 40
50.0
176
     1
 90
        0
176
     1
290
     0
176
     1
290
     1
176
     1
290
     1
176
     1
290
     0
176
     1
290
     0
176
     1
290
     0
176
     1
290
     0
176
     1
290
     0
176
     1
290
     0
176
     1
 90
       50
176
     1
 40
0.0
176
     1
 40
1.0
176
     1
 90
        0
176
     1
 62
    18
420
        0
176
     1
 90
       50
176
     1
 90
        3
176
     1
 62
     5
420
      255
176
     1
290
     0
176
     1
 90
       50
176
     1
 90
       50
176
     1
 90
       50
176
     1
290
     0
176
     1
 90
       50
176
     1
 62
   256
176
     0
 40
1.0
176
     0
 90
        2
176
     1
  1
strokes_ogs.tif
176
     1
290
     0
176
     1
 40
1.0
176
     1
 40
1.0
176
     1
  0
VISUALSTYLE
  5
3A
102
{ACAD_REACTORS
330
2A
102
}
330
2A
100
AcDbVisualStyle
  2
ColorChange
 70
    16
177
     3
291
     1
 70
    58
 90
        2
176
     1
 90
        2
176
     1
 90
        3
176
     1
 90
        0
176
     1
 40
0.6
176
     1
 40
30.0
176
     1
 62
     8
420
  8421504
176
     1
 90
        1
176
     1
 90
        4
176
     1
 62
     7
176
     1
 62
   257
176
     1
 90
        1
176
     1
 90
        1
176
     1
 40
1.0
176
     1
 90
        8
176
     1
 62
     8
420
  8421504
176
     1
 40
1.0
176
     1
 90
        1
176
     1
 90
        6
176
     1
 90
        2
176
     1
 62
     7
176
     1
 90
        5
176
     1
 90
        0
176
     1
 90
        0
176
     1
290
     0
176
     1
 90
        1
176
     1
 40
0.0
176
     1
 90
        0
176
     1
290
     0
176
     1
290
     1
176
     1
290
     1
176
     1
290
     0
176
     1
290
     0
176
     1
290
     0
176
     1
290
     0
176
     1
290
     0
176
     1
290
     0
176
     1
 90
       50
176
     1
 40
0.0
176
     1
 40
1.0
176
     1
 90
        0
176
     1
 62
    18
420
        0
176
     1
 90
       50
176
     1
 90
        3
176
     1
 62
     5
420
      255
176
     1
290
     0
176
     1
 90
       50
176
     1
 90
       50
176
     1
 90
       50
176
     1
290
     0
176
     1
 90
       50
176
     1
 62
   256
176
     0
 40
1.0
176
     0
 90
        2
176
     1
  1
strokes_ogs.tif
176
     1
290
     0
176
     1
 40
1.0
176
     1
 40
1.0
176
     1
  0
VISUALSTYLE
  5
34
102
{ACAD_REACTORS
330
2A
102
}
330
2A
100
AcDbVisualStyle
  2
Conceptual
 70
     9
177
     3
291
     0
 70
    58
 90
        3
176
     1
 90
        2
176
     1
 90
        0
176
     1
 90
        0
176
     1
 40
0.6
176
     1
 40
30.0
176
     1
 62
     7
420
 16777215
176
     1
 90
        2
176
     1
 90
        2
176
     1
 62
     7
176
     1
 62
   257
176
     1
 90
        1
176
     1
 90
        1
176
     1
 40
179.0
176
     1
 90
        8
176
     1
 62
     7
176
     1
 40
1.0
176
     1
 90
        1
176
     1
 90
        6
176
     1
 90
        2
176
     1
 62
     7
176
     1
 90
        3
176
     1
 90
        0
176
     1
 90
        0
176
     1
290
     0
176
     1
 90
        1
176
     1
 40
0.0
176
     1
 90
        0
176
     1
290
     0
176
     1
290
     1
176
     1
290
     1
176
     1
290
     0
176
     1
290
     0
176
     1
290
     0
176
     1
290
     0
176
     1
290
     0
176
     1
290
     0
176
     1
 90
       50
176
     1
 40
0.0
176
     1
 40
1.0
176
     1
 90
        0
176
     1
 62
    18
420
        0
176
     1
 90
       50
176
     1
 90
        3
176
     1
 62
     5
420
      255
176
     1
290
     0
176
     1
 90
       50
176
     1
 90
       50
176
     1
 90
       50
176
     1
290
     0
176
     1
 90
       50
176
     1
 62
   256
176
     0
 40
1.0
176
     0
 90
        2
176
     1
  1
strokes_ogs.tif
176
     1
290
     0
176
     1
 40
1.0
176
     1
 40
1.0
176
     1
  0
VISUALSTYLE
  5
35
102
{ACAD_REACTORS
330
2A
102
}
330
2A
100
AcDbVisualStyle
  2
Dim
 70
    11
177
     3
291
     1
 70
    58
 90
        2
176
     1
 90
        2
176
     1
 90
        0
176
     1
 90
        0
176
     1
 40
0.6
176
     1
 40
30.0
176
     1
 62
     7
420
 16777215
176
     1
 90
        1
176
     1
 90
        4
176
     1
 62
     7
176
     1
 62
   257
176
     1
 90
        1
176
     1
 90
        1
176
     1
 40
1.0
176
     1
 90
        8
176
     1
 62
     7
176
     1
 40
1.0
176
     1
 90
        1
176
     1
 90
        6
176
     1
 90
        2
176
     1
 62
     7
176
     1
 90
        5
176
     1
 90
        0
176
     1
 90
        0
176
     1
290
     0
176
     1
 90
        1
176
     1
 40
-50.0
176
     1
 90
        0
176
     1
290
     0
176
     1
290
     1
176
     1
290
     1
176
     1
290
     0
176
     1
290
     0
176
     1
290
     0
176
     1
290
     0
176
     1
290
     0
176
     1
290
     0
176
     1
 90
       50
176
     1
 40
0.0
176
     1
 40
1.0
176
     1
 90
        0
176
     1
 62
    18
420
        0
176
     1
 90
       50
176
     1
 90
        3
176
     1
 62
     5
420
      255
176
     1
290
     0
176
     1
 90
       50
176
     1
 90
       50
176
     1
 90
       50
176
     1
290
     0
176
     1
 90
       50
176
     1
 62
   256
176
     0
 40
1.0
176
     0
 90
        2
176
     1
  1
strokes_ogs.tif
176
     1
290
     0
176
     1
 40
1.0
176
     1
 40
1.0
176
     1
  0
VISUALSTYLE
  5
3D
102
{ACAD_REACTORS
330
2A
102
}
330
2A
100
AcDbVisualStyle
  2
EdgeColorOff
 70
    22
177
     3
291
     1
 70
    58
 90
        2
176
     0
 90
        2
176
     0
 90
        0
176
     0
 90
        0
176
     0
 40
0.6
176
     0
 40
30.0
176
     0
 62
     7
420
 16777215
176
     0
 90
        1
176
     0
 90
        4
176
     0
 62
     7
176
     0
 62
   257
176
     0
 90
        1
176
     0
 90
        1
176
     0
 40
1.0
176
     0
 90
        8
176
     2
 62
     7
176
     0
 40
1.0
176
     0
 90
        1
176
     0
 90
        6
176
     0
 90
        2
176
     0
 62
     7
176
     0
 90
        5
176
     0
 90
        0
176
     0
 90
        0
176
     0
290
     0
176
     0
 90
        1
176
     0
 40
0.0
176
     0
 90
        0
176
     0
290
     0
176
     0
290
     1
176
     0
290
     1
176
     0
290
     0
176
     0
290
     0
176
     0
290
     0
176
     0
290
     0
176
     0
290
     0
176
     0
290
     0
176
     0
 90
       50
176
     0
 40
0.0
176
     0
 40
1.0
176
     0
 90
        0
176
     0
 62
    18
420
        0
176
     0
 90
       50
176
     0
 90
        3
176
     0
 62
     5
420
      255
176
     0
290
     0
176
     0
 90
       50
176
     0
 90
       50
176
     0
 90
       50
176
     0
290
     0
176
     0
 90
       50
176
     0
 62
   256
176
     0
 40
1.0
176
     0
 90
        2
176
     0
  1
strokes_ogs.tif
176
     0
290
     0
176
     0
 40
1.0
176
     0
 40
1.0
176
     0
  0
VISUALSTYLE
  5
39
102
{ACAD_REACTORS
330
2A
102
}
330
2A
100
AcDbVisualStyle
  2
Facepattern
 70
    15
177
     3
291
     1
 70
    58
 90
        2
176
     1
 90
        2
176
     1
 90
        0
176
     1
 90
        0
176
     1
 40
0.6
176
     1
 40
30.0
176
     1
 62
     7
420
 16777215
176
     1
 90
        1
176
     1
 90
        4
176
     1
 62
     7
176
     1
 62
   257
176
     1
 90
        1
176
     1
 90
        1
176
     1
 40
1.0
176
     1
 90
        8
176
     1
 62
     7
176
     1
 40
1.0
176
     1
 90
        1
176
     1
 90
        6
176
     1
 90
        2
176
     1
 62
     7
176
     1
 90
        5
176
     1
 90
        0
176
     1
 90
        0
176
     1
290
     0
176
     1
 90
        1
176
     1
 40
0.0
176
     1
 90
        0
176
     1
290
     0
176
     1
290
     1
176
     1
290
     1
176
     1
290
     0
176
     1
290
     0
176
     1
290
     0
176
     1
290
     0
176
     1
290
     0
176
     1
290
     0
176
     1
 90
       50
176
     1
 40
0.0
176
     1
 40
1.0
176
     1
 90
        0
176
     1
 62
    18
420
        0
176
     1
 90
       50
176
     1
 90
        3
176
     1
 62
     5
420
      255
176
     1
290
     0
176
     1
 90
       50
176
     1
 90
       50
176
     1
 90
       50
176
     1
290
     0
176
     1
 90
       50
176
     1
 62
   256
176
     0
 40
1.0
176
     0
 90
        2
176
     1
  1
strokes_ogs.tif
176
     1
290
     0
176
     1
 40
1.0
176
     1
 40
1.0
176
     1
  0
VISUALSTYLE
  5
2B
102
{ACAD_REACTORS
330
2A
102
}
330
2A
100
AcDbVisualStyle
  2
Flat
 70
     0
177
     3
291
     1
 70
    58
 90
        2
176
     1
 90
        1
176
     1
 90
        1
176
     1
 90
        2
176
     1
 40
0.6
176
     1
 40
30.0
176
     1
 62
     7
420
 16777215
176
     1
 90
        0
176
     1
 90
        0
176
     1
 62
     7
176
     1
 62
   257
176
     1
 90
        1
176
     1
 90
        1
176
     1
 40
1.0
176
     1
 90
        8
176
     1
 62
     7
176
     1
 40
1.0
176
     1
 90
        1
176
     1
 90
        6
176
     1
 90
        2
176
     1
 62
     7
176
     1
 90
        5
176
     1
 90
        0
176
     1
 90
        0
176
     1
290
     0
176
     1
 90
       13
176
     1
 40
0.0
176
     1
 90
        0
176
     1
290
     0
176
     1
290
     1
176
     1
290
     1
176
     1
290
     0
176
     1
290
     0
176
     1
290
     0
176
     1
290
     0
176
     1
290
     0
176
     1
290
     0
176
     1
 90
       50
176
     1
 40
0.0
176
     1
 40
1.0
176
     1
 90
        0
176
     1
 62
    18
420
        0
176
     1
 90
       50
176
     1
 90
        3
176
     1
 62
     5
420
      255
176
     1
290
     0
176
     1
 90
       50
176
     1
 90
       50
176
     1
 90
       50
176
     1
290
     0
176
     1
 90
       50
176
     1
 62
   256
176
     0
 40
1.0
176
     0
 90
        2
176
     1
  1
strokes_ogs.tif
176
     1
290
     0
176
     1
 40
1.0
176
     1
 40
1.0
176
     1
  0
VISUALSTYLE
  5
2C
102
{ACAD_REACTORS
330
2A
102
}
330
2A
100
AcDbVisualStyle
  2
FlatWithEdges
 70
     1
177
     3
291
     1
 70
    58
 90
        2
176
     1
 90
        1
176
     1
 90
        1
176
     1
 90
        2
176
     1
 40
0.6
176
     1
 40
30.0
176
     1
 62
     7
420
 16777215
176
     1
 90
        1
176
     1
 90
        0
176
     1
 62
     7
176
     1
 62
   257
176
     1
 90
        1
176
     1
 90
        1
176
     1
 40
1.0
176
     1
 90
        0
176
     1
 62
   257
176
     1
 40
1.0
176
     1
 90
        1
176
     1
 90
        6
176
     1
 90
        2
176
     1
 62
     7
176
     1
 90
        5
176
     1
 90
        0
176
     1
 90
        0
176
     1
290
     0
176
     1
 90
       13
176
     1
 40
0.0
176
     1
 90
        0
176
     1
290
     0
176
     1
290
     1
176
     1
290
     1
176
     1
290
     0
176
     1
290
     0
176
     1
290
     0
176
     1
290
     0
176
     1
290
     0
176
     1
290
     0
176
     1
 90
       50
176
     1
 40
0.0
176
     1
 40
1.0
176
     1
 90
        0
176
     1
 62
    18
420
        0
176
     1
 90
       50
176
     1
 90
        3
176
     1
 62
     5
420
      255
176
     1
290
     0
176
     1
 90
       50
176
     1
 90
       50
176
     1
 90
       50
176
     1
290
     0
176
     1
 90
       50
176
     1
 62
   256
176
     0
 40
1.0
176
     0
 90
        2
176
     1
  1
strokes_ogs.tif
176
     1
290
     0
176
     1
 40
1.0
176
     1
 40
1.0
176
     1
  0
VISUALSTYLE
  5
2D
102
{ACAD_REACTORS
330
2A
102
}
330
2A
100
AcDbVisualStyle
  2
Gouraud
 70
     2
177
     3
291
     1
 70
    58
 90
        2
176
     1
 90
        2
176
     1
 90
        1
176
     1
 90
        2
176
     1
 40
0.6
176
     1
 40
30.0
176
     1
 62
     7
420
 16777215
176
     1
 90
        0
176
     1
 90
        0
176
     1
 62
     7
176
     1
 62
   257
176
     1
 90
        1
176
     1
 90
        1
176
     1
 40
1.0
176
     1
 90
        0
176
     1
 62
     7
176
     1
 40
1.0
176
     1
 90
        1
176
     1
 90
        6
176
     1
 90
        2
176
     1
 62
     7
176
     1
 90
        5
176
     1
 90
        0
176
     1
 90
        0
176
     1
290
     0
176
     1
 90
       13
176
     1
 40
0.0
176
     1
 90
        0
176
     1
290
     0
176
     1
290
     1
176
     1
290
     1
176
     1
290
     0
176
     1
290
     0
176
     1
290
     0
176
     1
290
     0
176
     1
290
     0
176
     1
290
     0
176
     1
 90
       50
176
     1
 40
0.0
176
     1
 40
1.0
176
     1
 90
        0
176
     1
 62
    18
420
        0
176
     1
 90
       50
176
     1
 90
        3
176
     1
 62
     5
420
      255
176
     1
290
     0
176
     1
 90
       50
176
     1
 90
       50
176
     1
 90
       50
176
     1
290
     0
176
     1
 90
       50
176
     1
 62
   256
176
     0
 40
1.0
176
     0
 90
        2
176
     1
  1
strokes_ogs.tif
176
     1
290
     0
176
     1
 40
1.0
176
     1
 40
1.0
176
     1
  0
VISUALSTYLE
  5
2E
102
{ACAD_REACTORS
330
2A
102
}
330
2A
100
AcDbVisualStyle
  2
GouraudWithEdges
 70
     3
177
     3
291
     1
 70
    58
 90
        2
176
     1
 90
        2
176
     1
 90
        1
176
     1
 90
        2
176
     1
 40
0.6
176
     1
 40
30.0
176
     1
 62
     7
420
 16777215
176
     1
 90
        1
176
     1
 90
        0
176
     1
 62
     7
176
     1
 62
   257
176
     1
 90
        1
176
     1
 90
        1
176
     1
 40
1.0
176
     1
 90
        0
176
     1
 62
   257
176
     1
 40
1.0
176
     1
 90
        1
176
     1
 90
        6
176
     1
 90
        2
176
     1
 62
     7
176
     1
 90
        5
176
     1
 90
        0
176
     1
 90
        0
176
     1
290
     0
176
     1
 90
       13
176
     1
 40
0.0
176
     1
 90
        0
176
     1
290
     0
176
     1
290
     1
176
     1
290
     1
176
     1
290
     0
176
     1
290
     0
176
     1
290
     0
176
     1
290
     0
176
     1
290
     0
176
     1
290
     0
176
     1
 90
       50
176
     1
 40
0.0
176
     1
 40
1.0
176
     1
 90
        0
176
     1
 62
    18
420
        0
176
     1
 90
       50
176
     1
 90
        3
176
     1
 62
     5
420
      255
176
     1
290
     0
176
     1
 90
       50
176
     1
 90
       50
176
     1
 90
       50
176
     1
290
     0
176
     1
 90
       50
176
     1
 62
   256
176
     0
 40
1.0
176
     0
 90
        2
176
     1
  1
strokes_ogs.tif
176
     1
290
     0
176
     1
 40
1.0
176
     1
 40
1.0
176
     1
  0
VISUALSTYLE
  5
31
102
{ACAD_REACTORS
330
2A
102
}
330
2A
100
AcDbVisualStyle
  2
Hidden
 70
     6
177
     3
291
     0
 70
    58
 90
        1
176
     1
 90
        2
176
     1
 90
        2
176
     1
 90
        0
176
     1
 40
0.6
176
     1
 40
30.0
176
     1
 62
     7
420
 16777215
176
     1
 90
        2
176
     1
 90
        2
176
     1
 62
     7
176
     1
 62
   257
176
     1
 90
        2
176
     1
 90
        1
176
     1
 40
40.0
176
     1
 90
        0
176
     1
 62
   257
176
     1
 40
1.0
176
     1
 90
        1
176
     1
 90
        6
176
     1
 90
        2
176
     1
 62
     7
176
     1
 90
        3
176
     1
 90
        0
176
     1
 90
        0
176
     1
290
     0
176
     1
 90
        1
176
     1
 40
0.0
176
     1
 90
        0
176
     1
290
     0
176
     1
290
     1
176
     1
290
     1
176
     1
290
     0
176
     1
290
     0
176
     1
290
     0
176
     1
290
     0
176
     1
290
     0
176
     1
290
     0
176
     1
 90
       50
176
     1
 40
0.0
176
     1
 40
1.0
176
     1
 90
        0
176
     1
 62
    18
420
        0
176
     1
 90
       50
176
     1
 90
        3
176
     1
 62
     5
420
      255
176
     1
290
     0
176
     1
 90
       50
176
     1
 90
       50
176
     1
 90
       50
176
     1
290
     0
176
     1
 90
       50
176
     1
 62
   256
176
     0
 40
1.0
176
     0
 90
        2
176
     1
  1
strokes_ogs.tif
176
     1
290
     0
176
     1
 40
1.0
176
     1
 40
1.0
176
     1
  0
VISUALSTYLE
  5
3B
102
{ACAD_REACTORS
330
2A
102
}
330
2A
100
AcDbVisualStyle
  2
JitterOff
 70
    20
177
     3
291
     1
 70
    58
 90
        2
176
     0
 90
        2
176
     0
 90
        0
176
     0
 90
        0
176
     0
 40
0.6
176
     0
 40
30.0
176
     0
 62
     7
420
 16777215
176
     0
 90
        1
176
     0
 90
        4
176
     0
 62
     7
176
     0
 62
   257
176
     0
 90
        1
176
     0
 90
        1
176
     0
 40
1.0
176
     0
 90
       10
176
     2
 62
     7
176
     0
 40
1.0
176
     0
 90
        1
176
     0
 90
        6
176
     0
 90
        2
176
     0
 62
     7
176
     0
 90
        5
176
     0
 90
        0
176
     0
 90
        0
176
     0
290
     0
176
     0
 90
        1
176
     0
 40
0.0
176
     0
 90
        0
176
     0
290
     0
176
     0
290
     1
176
     0
290
     1
176
     0
290
     0
176
     0
290
     0
176
     0
290
     0
176
     0
290
     0
176
     0
290
     0
176
     0
290
     0
176
     0
 90
       50
176
     0
 40
0.0
176
     0
 40
1.0
176
     0
 90
        0
176
     0
 62
    18
420
        0
176
     0
 90
       50
176
     0
 90
        3
176
     0
 62
     5
420
      255
176
     0
290
     0
176
     0
 90
       50
176
     0
 90
       50
176
     0
 90
       50
176
     0
290
     0
176
     0
 90
       50
176
     0
 62
   256
176
     0
 40
1.0
176
     0
 90
        2
176
     0
  1
strokes_ogs.tif
176
     0
290
     0
176
     0
 40
1.0
176
     0
 40
1.0
176
     0
  0
VISUALSTYLE
  5
38
102
{ACAD_REACTORS
330
2A
102
}
330
2A
100
AcDbVisualStyle
  2
Linepattern
 70
    14
177
     3
291
     1
 70
    58
 90
        2
176
     1
 90
        2
176
     1
 90
        0
176
     1
 90
        0
176
     1
 40
0.6
176
     1
 40
30.0
176
     1
 62
     7
420
 16777215
176
     1
 90
        1
176
     1
 90
        4
176
     1
 62
     7
176
     1
 62
   257
176
     1
 90
        7
176
     1
 90
        7
176
     1
 40
1.0
176
     1
 90
        8
176
     1
 62
     7
176
     1
 40
1.0
176
     1
 90
        1
176
     1
 90
        6
176
     1
 90
        2
176
     1
 62
     7
176
     1
 90
        5
176
     1
 90
        0
176
     1
 90
        0
176
     1
290
     0
176
     1
 90
        1
176
     1
 40
0.0
176
     1
 90
        0
176
     1
290
     0
176
     1
290
     1
176
     1
290
     1
176
     1
290
     0
176
     1
290
     0
176
     1
290
     0
176
     1
290
     0
176
     1
290
     0
176
     1
290
     0
176
     1
 90
       50
176
     1
 40
0.0
176
     1
 40
1.0
176
     1
 90
        0
176
     1
 62
    18
420
        0
176
     1
 90
       50
176
     1
 90
        3
176
     1
 62
     5
420
      255
176
     1
290
     0
176
     1
 90
       50
176
     1
 90
       50
176
     1
 90
       50
176
     1
290
     0
176
     1
 90
       50
176
     1
 62
   256
176
     0
 40
1.0
176
     0
 90
        2
176
     1
  1
strokes_ogs.tif
176
     1
290
     0
176
     1
 40
1.0
176
     1
 40
1.0
176
     1
  0
VISUALSTYLE
  5
3C
102
{ACAD_REACTORS
330
2A
102
}
330
2A
100
AcDbVisualStyle
  2
OverhangOff
 70
    21
177
     3
291
     1
 70
    58
 90
        2
176
     0
 90
        2
176
     0
 90
        0
176
     0
 90
        0
176
     0
 40
0.6
176
     0
 40
30.0
176
     0
 62
     7
420
 16777215
176
     0
 90
        1
176
     0
 90
        4
176
     0
 62
     7
176
     0
 62
   257
176
     0
 90
        1
176
     0
 90
        1
176
     0
 40
1.0
176
     0
 90
        9
176
     2
 62
     7
176
     0
 40
1.0
176
     0
 90
        1
176
     0
 90
        6
176
     0
 90
        2
176
     0
 62
     7
176
     0
 90
        5
176
     0
 90
        0
176
     0
 90
        0
176
     0
290
     0
176
     0
 90
        1
176
     0
 40
0.0
176
     0
 90
        0
176
     0
290
     0
176
     0
290
     1
176
     0
290
     1
176
     0
290
     0
176
     0
290
     0
176
     0
290
     0
176
     0
290
     0
176
     0
290
     0
176
     0
290
     0
176
     0
 90
       50
176
     0
 40
0.0
176
     0
 40
1.0
176
     0
 90
        0
176
     0
 62
    18
420
        0
176
     0
 90
       50
176
     0
 90
        3
176
     0
 62
     5
420
      255
176
     0
290
     0
176
     0
 90
       50
176
     0
 90
       50
176
     0
 90
       50
176
     0
290
     0
176
     0
 90
       50
176
     0
 62
   256
176
     0
 40
1.0
176
     0
 90
        2
176
     0
  1
strokes_ogs.tif
176
     0
290
     0
176
     0
 40
1.0
176
     0
 40
1.0
176
     0
  0
VISUALSTYLE
  5
33
102
{ACAD_REACTORS
330
2A
102
}
330
2A
100
AcDbVisualStyle
  2
Realistic
 70
     8
177
     3
291
     0
 70
    58
 90
        2
176
     1
 90
        3
176
     1
 90
        0
176
     1
 90
        2
176
     1
 40
0.6
176
     1
 40
30.0
176
     1
 62
     7
420
 16777215
176
     1
 90
        0
176
     1
 90
        0
176
     1
 62
     7
176
     1
 62
   257
176
     1
 90
        1
176
     1
 90
        1
176
     1
 40
1.0
176
     1
 90
        8
176
     1
 62
   257
176
     1
 40
1.0
176
     1
 90
        1
176
     1
 90
        6
176
     1
 90
        2
176
     1
 62
     7
176
     1
 90
        3
176
     1
 90
        0
176
     1
 90
        0
176
     1
290
     0
176
     1
 90
       13
176
     1
 40
0.0
176
     1
 90
        0
176
     1
290
     0
176
     1
290
     1
176
     1
290
     1
176
     1
290
     0
176
     1
290
     0
176
     1
290
     0
176
     1
290
     0
176
     1
290
     0
176
     1
290
     0
176
     1
 90
       50
176
     1
 40
0.0
176
     1
 40
1.0
176
     1
 90
        0
176
     1
 62
    18
420
        0
176
     1
 90
       50
176
     1
 90
        3
176
     1
 62
     5
420
      255
176
     1
290
     0
176
     1
 90
       50
176
     1
 90
       50
176
     1
 90
       50
176
     1
290
     0
176
     1
 90
       50
176
     1
 62
   256
176
     0
 40
1.0
176
     0
 90
        2
176
     1
  1
strokes_ogs.tif
176
     1
290
     0
176
     1
 40
1.0
176
     1
 40
1.0
176
     1
  0
VISUALSTYLE
  5
42
102
{ACAD_REACTORS
330
2A
102
}
330
2A
100
AcDbVisualStyle
  2
Shaded
 70
    27
177
     3
291
     0
 70
    58
 90
        2
176
     1
 90
        2
176
     1
 90
        1
176
     1
 90
        2
176
     1
 40
0.6
176
     1
 40
30.0
176
     1
 62
     7
420
 16777215
176
     1
 90
        0
176
     1
 90
        4
176
     1
 62
     7
176
     1
 62
   257
176
     1
 90
        1
176
     1
 90
        1
176
     1
 40
1.0
176
     1
 90
        8
176
     1
 62
   257
176
     1
 40
1.0
176
     1
 90
        1
176
     1
 90
        6
176
     1
 90
        2
176
     1
 62
     8
420
  7895160
176
     1
 90
        3
176
     1
 90
        0
176
     1
 90
        0
176
     1
290
     0
176
     1
 90
        5
176
     1
 40
0.0
176
     1
 90
        0
176
     1
290
     0
176
     1
290
     1
176
     1
290
     1
176
     1
290
     0
176
     1
290
     0
176
     1
290
     0
176
     1
290
     0
176
     1
290
     0
176
     1
290
     0
176
     1
 90
       50
176
     1
 40
0.0
176
     1
 40
1.0
176
     1
 90
        0
176
     1
 62
    18
420
        0
176
     1
 90
       50
176
     1
 90
        3
176
     1
 62
     5
420
      255
176
     1
290
     0
176
     1
 90
       50
176
     1
 90
       50
176
     1
 90
       50
176
     1
290
     0
176
     1
 90
       50
176
     1
 62
   256
176
     0
 40
1.0
176
     0
 90
        2
176
     1
  1
strokes_ogs.tif
176
     1
290
     0
176
     1
 40
1.0
176
     1
 40
1.0
176
     1
  0
VISUALSTYLE
  5
41
102
{ACAD_REACTORS
330
2A
102
}
330
2A
100
AcDbVisualStyle
  2
Shaded with edges
 70
    26
177
     3
291
     0
 70
    58
 90
        2
176
     1
 90
        2
176
     1
 90
        1
176
     1
 90
        2
176
     1
 40
0.6
176
     1
 40
30.0
176
     1
 62
     7
420
 16777215
176
     1
 90
        1
176
     1
 90
       10
176
     1
 62
     7
176
     1
 62
   257
176
     1
 90
        2
176
     1
 90
        1
176
     1
 40
1.0
176
     1
 90
        8
176
     1
 62
   257
176
     1
 40
1.0
176
     1
 90
        1
176
     1
 90
        6
176
     1
 90
        2
176
     1
 62
     7
176
     1
 90
        3
176
     1
 90
        0
176
     1
 90
        0
176
     1
290
     0
176
     1
 90
        5
176
     1
 40
0.0
176
     1
 90
        0
176
     1
290
     0
176
     1
290
     1
176
     1
290
     1
176
     1
290
     0
176
     1
290
     0
176
     1
290
     0
176
     1
290
     0
176
     1
290
     0
176
     1
290
     0
176
     1
 90
       50
176
     1
 40
0.0
176
     1
 40
1.0
176
     1
 90
        0
176
     1
 62
    18
420
        0
176
     1
 90
       50
176
     1
 90
        3
176
     1
 62
     5
420
      255
176
     1
290
     0
176
     1
 90
       50
176
     1
 90
       50
176
     1
 90
       50
176
     1
290
     0
176
     1
 90
       50
176
     1
 62
   256
176
     0
 40
1.0
176
     0
 90
        2
176
     1
  1
strokes_ogs.tif
176
     1
290
     0
176
     1
 40
1.0
176
     1
 40
1.0
176
     1
  0
VISUALSTYLE
  5
3E
102
{ACAD_REACTORS
330
2A
102
}
330
2A
100
AcDbVisualStyle
  2
Shades of Gray
 70
    23
177
     3
291
     0
 70
    58
 90
        2
176
     1
 90
        2
176
     1
 90
        3
176
     1
 90
        0
176
     1
 40
0.6
176
     1
 40
30.0
176
     1
 62
     7
420
 16777215
176
     1
 90
        2
176
     1
 90
        2
176
     1
 62
     7
176
     1
 62
     7
176
     1
 90
        1
176
     1
 90
        1
176
     1
 40
40.0
176
     1
 90
        8
176
     1
 62
     7
176
     1
 40
1.0
176
     1
 90
        1
176
     1
 90
        6
176
     1
 90
        2
176
     1
 62
     7
176
     1
 90
        3
176
     1
 90
        0
176
     1
 90
        0
176
     1
290
     0
176
     1
 90
        1
176
     1
 40
0.0
176
     1
 90
        0
176
     1
290
     0
176
     1
290
     1
176
     1
290
     1
176
     1
290
     0
176
     1
290
     0
176
     1
290
     0
176
     1
290
     0
176
     1
290
     0
176
     1
290
     0
176
     1
 90
       50
176
     1
 40
0.0
176
     1
 40
1.0
176
     1
 90
        0
176
     1
 62
    18
420
        0
176
     1
 90
       50
176
     1
 90
        3
176
     1
 62
     5
420
      255
176
     1
290
     0
176
     1
 90
       50
176
     1
 90
       50
176
     1
 90
       50
176
     1
290
     0
176
     1
 90
       50
176
     1
 62
   256
176
     0
 40
1.0
176
     0
 90
        2
176
     1
  1
strokes_ogs.tif
176
     1
290
     0
176
     1
 40
1.0
176
     1
 40
1.0
176
     1
  0
VISUALSTYLE
  5
3F
102
{ACAD_REACTORS
330
2A
102
}
330
2A
100
AcDbVisualStyle
  2
Sketchy
 70
    24
177
     3
291
     0
 70
    58
 90
        1
176
     1
 90
        2
176
     1
 90
        2
176
     1
 90
        0
176
     1
 40
0.6
176
     1
 40
30.0
176
     1
 62
     7
420
 16777215
176
     1
 90
        2
176
     1
 90
        2
176
     1
 62
     7
176
     1
 62
     7
176
     1
 90
        1
176
     1
 90
        1
176
     1
 40
40.0
176
     1
 90
       11
176
     1
 62
     7
176
     1
 40
1.0
176
     1
 90
        1
176
     1
 90
        6
176
     1
 90
        2
176
     1
 62
     7
176
     1
 90
        6
176
     1
 90
        0
176
     1
 90
        0
176
     1
290
     0
176
     1
 90
        1
176
     1
 40
0.0
176
     1
 90
        0
176
     1
290
     0
176
     1
290
     1
176
     1
290
     1
176
     1
290
     0
176
     1
290
     0
176
     1
290
     0
176
     1
290
     0
176
     1
290
     0
176
     1
290
     0
176
     1
 90
       50
176
     1
 40
0.0
176
     1
 40
1.0
176
     1
 90
        0
176
     1
 62
    18
420
        0
176
     1
 90
       50
176
     1
 90
        3
176
     1
 62
     5
420
      255
176
     1
290
     0
176
     1
 90
       50
176
     1
 90
       50
176
     1
 90
       50
176
     1
290
     0
176
     1
 90
       50
176
     1
 62
   256
176
     0
 40
1.0
176
     0
 90
        2
176
     1
  1
strokes_ogs.tif
176
     1
290
     0
176
     1
 40
1.0
176
     1
 40
1.0
176
     1
  0
VISUALSTYLE
  5
37
102
{ACAD_REACTORS
330
2A
102
}
330
2A
100
AcDbVisualStyle
  2
Thicken
 70
    13
177
     3
291
     1
 70
    58
 90
        2
176
     1
 90
        2
176
     1
 90
        0
176
     1
 90
        0
176
     1
 40
0.6
176
     1
 40
30.0
176
     1
 62
     7
420
 16777215
176
     1
 90
        1
176
     1
 90
        4
176
     1
 62
     7
176
     1
 62
   257
176
     1
 90
        1
176
     1
 90
        1
176
     1
 40
1.0
176
     1
 90
       12
176
     1
 62
     7
176
     1
 40
1.0
176
     1
 90
        1
176
     1
 90
        6
176
     1
 90
        2
176
     1
 62
     7
176
     1
 90
        5
176
     1
 90
        0
176
     1
 90
        0
176
     1
290
     0
176
     1
 90
        1
176
     1
 40
0.0
176
     1
 90
        0
176
     1
290
     0
176
     1
290
     1
176
     1
290
     1
176
     1
290
     0
176
     1
290
     0
176
     1
290
     0
176
     1
290
     0
176
     1
290
     0
176
     1
290
     0
176
     1
 90
       50
176
     1
 40
0.0
176
     1
 40
1.0
176
     1
 90
        0
176
     1
 62
    18
420
        0
176
     1
 90
       50
176
     1
 90
        3
176
     1
 62
     5
420
      255
176
     1
290
     0
176
     1
 90
       50
176
     1
 90
       50
176
     1
 90
       50
176
     1
290
     0
176
     1
 90
       50
176
     1
 62
   256
176
     0
 40
1.0
176
     0
 90
        2
176
     1
  1
strokes_ogs.tif
176
     1
290
     0
176
     1
 40
1.0
176
     1
 40
1.0
176
     1
  0
VISUALSTYLE
  5
30
102
{ACAD_REACTORS
330
2A
102
}
330
2A
100
AcDbVisualStyle
  2
Wireframe
 70
     5
177
     3
291
     0
 70
    58
 90
        0
176
     1
 90
        2
176
     1
 90
        0
176
     1
 90
        0
176
     1
 40
0.6
176
     1
 40
30.0
176
     1
 62
     7
420
 16777215
176
     1
 90
        1
176
     1
 90
        4
176
     1
 62
     7
176
     1
 62
   257
176
     1
 90
        1
176
     1
 90
        1
176
     1
 40
1.0
176
     1
 90
        0
176
     1
 62
   257
176
     1
 40
1.0
176
     1
 90
        1
176
     1
 90
        6
176
     1
 90
        2
176
     1
 62
     7
176
     1
 90
        3
176
     1
 90
        0
176
     1
 90
        0
176
     1
290
     0
176
     1
 90
        1
176
     1
 40
0.0
176
     1
 90
        0
176
     1
290
     0
176
     1
290
     1
176
     1
290
     1
176
     1
290
     0
176
     1
290
     0
176
     1
290
     0
176
     1
290
     0
176
     1
290
     0
176
     1
290
     0
176
     1
 90
       50
176
     1
 40
0.0
176
     1
 40
1.0
176
     1
 90
        0
176
     1
 62
    18
420
        0
176
     1
 90
       50
176
     1
 90
        3
176
     1
 62
     5
420
      255
176
     1
290
     0
176
     1
 90
       50
176
     1
 90
       50
176
     1
 90
       50
176
     1
290
     0
176
     1
 90
       50
176
     1
 62
   256
176
     0
 40
1.0
176
     0
 90
        2
176
     1
  1
strokes_ogs.tif
176
     1
290
     0
176
     1
 40
1.0
176
     1
 40
1.0
176
     1
  0
VISUALSTYLE
  5
40
102
{ACAD_REACTORS
330
2A
102
}
330
2A
100
AcDbVisualStyle
  2
X-Ray
 70
    25
177
     3
291
     0
 70
    58
 90
        2
176
     1
 90
        2
176
     1
 90
        1
176
     1
 90
        1
176
     1
 40
0.5
176
     1
 40
30.0
176
     1
 62
     7
420
 16777215
176
     1
 90
        1
176
     1
 90
        0
176
     1
 62
     7
176
     1
 62
   257
176
     1
 90
        1
176
     1
 90
        1
176
     1
 40
1.0
176
     1
 90
        8
176
     1
 62
     7
176
     1
 40
1.0
176
     1
 90
        1
176
     1
 90
        6
176
     1
 90
        2
176
     1
 62
     7
176
     1
 90
        3
176
     1
 90
        0
176
     1
 90
        0
176
     1
290
     0
176
     1
 90
       13
176
     1
 40
0.0
176
     1
 90
        0
176
     1
290
     0
176
     1
290
     1
176
     1
290
     1
176
     1
290
     0
176
     1
290
     0
176
     1
290
     0
176
     1
290
     0
176
     1
290
     0
176
     1
290
     0
176
     1
 90
       50
176
     1
 40
0.0
176
     1
 40
1.0
176
     1
 90
        0
176
     1
 62
    18
420
        0
176
     1
 90
       50
176
     1
 90
        3
176
     1
 62
     5
420
      255
176
     1
290
     0
176
     1
 90
       50
176
     1
 90
       50
176
     1
 90
       50
176
     1
290
     0
176
     1
 90
       50
176
     1
 62
   256
176
     0
 40
1.0
176
     0
 90
        2
176
     1
  1
strokes_ogs.tif
176
     1
290
     0
176
     1
 40
1.0
176
     1
 40
1.0
176
     1
  0
DICTIONARYVAR
  5
38C
102
{ACAD_REACTORS
330
38B
102
}
330
38B
100
DictionaryVariables
280
     0
  1
1:1
  0
DICTIONARYVAR
  5
395
102
{ACAD_REACTORS
330
38B
102
}
330
38B
100
DictionaryVariables
280
     0
  1
3.500000
  0
DICTIONARYVAR
  5
396
102
{ACAD_REACTORS
330
38B
102
}
330
38B
100
DictionaryVariables
280
     0
  1
acadiso.lin
  0
DICTIONARYVAR
  5
391
102
{ACAD_REACTORS
330
38B
102
}
330
38B
100
DictionaryVariables
280
     0
  1
Standard
  0
DICTIONARYVAR
  5
390
102
{ACAD_REACTORS
330
38B
102
}
330
38B
100
DictionaryVariables
280
     0
  1
Standard
  0
DICTIONARYVAR
  5
394
102
{ACAD_REACTORS
330
38B
102
}
330
38B
100
DictionaryVariables
280
     0
  1
0
  0
DICTIONARY
  5
38D
330
5A
100
AcDbDictionary
280
     1
281
     1
  3
ACAD_ROUNDTRIP_2008_TABLESTYLE_CELLSTYLEMAP
360
38E
  0
CELLSTYLEMAP
  5
38E
102
{ACAD_REACTORS
330
38D
102
}
330
38D
100
AcDbCellStyleMap
 90
        3
300
CELLSTYLE
  1
TABLEFORMAT_BEGIN
 90
        5
170
     1
 91
        0
 92
    32768
 62
   257
 93
        1
300
CONTENTFORMAT
  1
CONTENTFORMAT_BEGIN
 90
        0
 91
        0
 92
        4
 93
        0
300

 40
0.0
140
1.0
 94
        5
 62
     0
340
11
144
6.0
309
CONTENTFORMAT_END
171
     1
301
MARGIN
  1
CELLMARGIN_BEGIN
 40
1.5
 40
1.5
 40
1.5
 40
1.5
 40
1.5
 40
1.5
309
CELLMARGIN_END
 94
        6
 95
        1
302
GRIDFORMAT
  1
GRIDFORMAT_BEGIN
 90
        0
 91
        1
 62
     0
 92
       -2
340
14
 93
        0
 40
0.045
309
GRIDFORMAT_END
 95
        2
302
GRIDFORMAT
  1
GRIDFORMAT_BEGIN
 90
        0
 91
        1
 62
     0
 92
       -2
340
14
 93
        0
 40
0.045
309
GRIDFORMAT_END
 95
        4
302
GRIDFORMAT
  1
GRIDFORMAT_BEGIN
 90
        0
 91
        1
 62
     0
 92
       -2
340
14
 93
        0
 40
0.045
309
GRIDFORMAT_END
 95
        8
302
GRIDFORMAT
  1
GRIDFORMAT_BEGIN
 90
        0
 91
        1
 62
     0
 92
       -2
340
14
 93
        0
 40
0.045
309
GRIDFORMAT_END
 95
       16
302
GRIDFORMAT
  1
GRIDFORMAT_BEGIN
 90
        0
 91
        1
 62
     0
 92
       -2
340
14
 93
        0
 40
0.045
309
GRIDFORMAT_END
 95
       32
302
GRIDFORMAT
  1
GRIDFORMAT_BEGIN
 90
        0
 91
        1
 62
     0
 92
       -2
340
14
 93
        0
 40
0.045
309
GRIDFORMAT_END
309
TABLEFORMAT_END
  1
CELLSTYLE_BEGIN
 90
        1
 91
        1
300
_TITLE
309
CELLSTYLE_END
300
CELLSTYLE
  1
TABLEFORMAT_BEGIN
 90
        5
170
     1
 91
        0
 92
        0
 62
   257
 93
        1
300
CONTENTFORMAT
  1
CONTENTFORMAT_BEGIN
 90
        0
 91
        0
 92
        4
 93
        0
300

 40
0.0
140
1.0
 94
        5
 62
     0
340
11
144
4.5
309
CONTENTFORMAT_END
171
     1
301
MARGIN
  1
CELLMARGIN_BEGIN
 40
1.5
 40
1.5
 40
1.5
 40
1.5
 40
1.5
 40
1.5
309
CELLMARGIN_END
 94
        6
 95
        1
302
GRIDFORMAT
  1
GRIDFORMAT_BEGIN
 90
        0
 91
        1
 62
     0
 92
       -2
340
14
 93
        0
 40
0.045
309
GRIDFORMAT_END
 95
        2
302
GRIDFORMAT
  1
GRIDFORMAT_BEGIN
 90
        0
 91
        1
 62
     0
 92
       -2
340
14
 93
        0
 40
0.045
309
GRIDFORMAT_END
 95
        4
302
GRIDFORMAT
  1
GRIDFORMAT_BEGIN
 90
        0
 91
        1
 62
     0
 92
       -2
340
14
 93
        0
 40
0.045
309
GRIDFORMAT_END
 95
        8
302
GRIDFORMAT
  1
GRIDFORMAT_BEGIN
 90
        0
 91
        1
 62
     0
 92
       -2
340
14
 93
        0
 40
0.045
309
GRIDFORMAT_END
 95
       16
302
GRIDFORMAT
  1
GRIDFORMAT_BEGIN
 90
        0
 91
        1
 62
     0
 92
       -2
340
14
 93
        0
 40
0.045
309
GRIDFORMAT_END
 95
       32
302
GRIDFORMAT
  1
GRIDFORMAT_BEGIN
 90
        0
 91
        1
 62
     0
 92
       -2
340
14
 93
        0
 40
0.045
309
GRIDFORMAT_END
309
TABLEFORMAT_END
  1
CELLSTYLE_BEGIN
 90
        2
 91
        1
300
_HEADER
309
CELLSTYLE_END
300
CELLSTYLE
  1
TABLEFORMAT_BEGIN
 90
        5
170
     1
 91
        0
 92
        0
 62
   257
 93
        1
300
CONTENTFORMAT
  1
CONTENTFORMAT_BEGIN
 90
        0
 91
        0
 92
        4
 93
        0
300

 40
0.0
140
1.0
 94
        2
 62
     0
340
11
144
4.5
309
CONTENTFORMAT_END
171
     1
301
MARGIN
  1
CELLMARGIN_BEGIN
 40
1.5
 40
1.5
 40
1.5
 40
1.5
 40
1.5
 40
1.5
309
CELLMARGIN_END
 94
        6
 95
        1
302
GRIDFORMAT
  1
GRIDFORMAT_BEGIN
 90
        0
 91
        1
 62
     0
 92
       -2
340
14
 93
        0
 40
0.045
309
GRIDFORMAT_END
 95
        2
302
GRIDFORMAT
  1
GRIDFORMAT_BEGIN
 90
        0
 91
        1
 62
     0
 92
       -2
340
14
 93
        0
 40
0.045
309
GRIDFORMAT_END
 95
        4
302
GRIDFORMAT
  1
GRIDFORMAT_BEGIN
 90
        0
 91
        1
 62
     0
 92
       -2
340
14
 93
        0
 40
0.045
309
GRIDFORMAT_END
 95
        8
302
GRIDFORMAT
  1
GRIDFORMAT_BEGIN
 90
        0
 91
        1
 62
     0
 92
       -2
340
14
 93
        0
 40
0.045
309
GRIDFORMAT_END
 95
       16
302
GRIDFORMAT
  1
GRIDFORMAT_BEGIN
 90
        0
 91
        1
 62
     0
 92
       -2
340
14
 93
        0
 40
0.045
309
GRIDFORMAT_END
 95
       32
302
GRIDFORMAT
  1
GRIDFORMAT_BEGIN
 90
        0
 91
        1
 62
     0
 92
       -2
340
14
 93
        0
 40
0.045
309
GRIDFORMAT_END
309
TABLEFORMAT_END
  1
CELLSTYLE_BEGIN
 90
        3
 91
        2
300
_DATA
309
CELLSTYLE_END
  0
ENDSEC
  0
EOF
