  0
SECTION
  2
HEADER
  9
$ACADVER
  1
AC1027
  9
$ACADMAINTVER
 70
   105
  9
$DWGCODEPAGE
  3
ANSI_1252
  9
$REQUIREDVERSIONS
160
                 0
  9
$INSBASE
 10
0.0
 20
0.0
 30
0.0
  9
$EXTMIN
 10
4870.300343097577
 20
-134.1592857595861
 30
0.0
  9
$EXTMAX
 10
5264.300343097577
 20
407.8407142404139
 30
0.0
  9
$LIMMIN
 10
0.0
 20
0.0
  9
$LIMMAX
 10
12.0
 20
9.0
  9
$ORTHOMODE
 70
     0
  9
$REGENMODE
 70
     1
  9
$FILLMODE
 70
     1
  9
$QTEXTMODE
 70
     0
  9
$MIRRTEXT
 70
     1
  9
$LTSCALE
 40
2.0
  9
$ATTMODE
 70
     1
  9
$TEXTSIZE
 40
0.2
  9
$TRACEWID
 40
0.05
  9
$TEXTSTYLE
  7
Standard
  9
$CLAYER
  8
0
  9
$CELTYPE
  6
ByLayer
  9
$CECOLOR
 62
   256
  9
$CELTSCALE
 40
1.0
  9
$DISPSILH
 70
     0
  9
$DIMSCALE
 40
1.0
  9
$DIMASZ
 40
0.18
  9
$DIMEXO
 40
0.0625
  9
$DIMDLI
 40
0.38
  9
$DIMRND
 40
0.0
  9
$DIMDLE
 40
0.0
  9
$DIMEXE
 40
0.18
  9
$DIMTP
 40
0.0
  9
$DIMTM
 40
0.0
  9
$DIMTXT
 40
0.18
  9
$DIMCEN
 40
0.09
  9
$DIMTSZ
 40
0.0
  9
$DIMTOL
 70
     0
  9
$DIMLIM
 70
     0
  9
$DIMTIH
 70
     1
  9
$DIMTOH
 70
     1
  9
$DIMSE1
 70
     0
  9
$DIMSE2
 70
     0
  9
$DIMTAD
 70
     0
  9
$DIMZIN
 70
     0
  9
$DIMBLK
  1

  9
$DIMASO
 70
     1
  9
$DIMSHO
 70
     1
  9
$DIMPOST
  1

  9
$DIMAPOST
  1

  9
$DIMALT
 70
     0
  9
$DIMALTD
 70
     2
  9
$DIMALTF
 40
25.4
  9
$DIMLFAC
 40
1.0
  9
$DIMTOFL
 70
     1
  9
$DIMTVP
 40
0.0
  9
$DIMTIX
 70
     0
  9
$DIMSOXD
 70
     1
  9
$DIMSAH
 70
     0
  9
$DIMBLK1
  1

  9
$DIMBLK2
  1

  9
$DIMSTYLE
  2
Standard
  9
$DIMCLRD
 70
     0
  9
$DIMCLRE
 70
     0
  9
$DIMCLRT
 70
     0
  9
$DIMTFAC
 40
1.0
  9
$DIMGAP
 40
0.09
  9
$DIMJUST
 70
     0
  9
$DIMSD1
 70
     0
  9
$DIMSD2
 70
     0
  9
$DIMTOLJ
 70
     1
  9
$DIMTZIN
 70
     0
  9
$DIMALTZ
 70
     0
  9
$DIMALTTZ
 70
     0
  9
$DIMUPT
 70
     0
  9
$DIMDEC
 70
     4
  9
$DIMTDEC
 70
     4
  9
$DIMALTU
 70
     2
  9
$DIMALTTD
 70
     2
  9
$DIMTXSTY
  7
Standard
  9
$DIMAUNIT
 70
     0
  9
$DIMADEC
 70
     0
  9
$DIMALTRND
 40
0.0
  9
$DIMAZIN
 70
     0
  9
$DIMDSEP
 70
    46
  9
$DIMATFIT
 70
     3
  9
$DIMFRAC
 70
     0
  9
$DIMLDRBLK
  1

  9
$DIMLUNIT
 70
     2
  9
$DIMLWD
 70
    -2
  9
$DIMLWE
 70
    -2
  9
$DIMTMOVE
 70
     2
  9
$DIMFXL
 40
1.0
  9
$DIMFXLON
 70
     0
  9
$DIMJOGANG
 40
0.7853981633974483
  9
$DIMTFILL
 70
     0
  9
$DIMTFILLCLR
 70
     0
  9
$DIMARCSYM
 70
     0
  9
$DIMLTYPE
  6

  9
$DIMLTEX1
  6

  9
$DIMLTEX2
  6

  9
$DIMTXTDIRECTION
 70
     0
  9
$LUNITS
 70
     2
  9
$LUPREC
 70
     4
  9
$SKETCHINC
 40
0.1
  9
$FILLETRAD
 40
0.5
  9
$AUNITS
 70
     0
  9
$AUPREC
 70
     0
  9
$MENU
  1
.
  9
$ELEVATION
 40
0.0
  9
$PELEVATION
 40
0.0
  9
$THICKNESS
 40
0.0
  9
$LIMCHECK
 70
     0
  9
$CHAMFERA
 40
0.0
  9
$CHAMFERB
 40
0.0
  9
$CHAMFERC
 40
0.0
  9
$CHAMFERD
 40
0.0
  9
$SKPOLY
 70
     0
  9
$TDCREATE
 40
2459198.745930139
  9
$TDUCREATE
 40
2459198.704263472
  9
$TDUPDATE
 40
2459198.745932454
  9
$TDUUPDATE
 40
2459198.704265787
  9
$TDINDWG
 40
0.0000000116
  9
$TDUSRTIMER
 40
0.0000000116
  9
$USRTIMER
 70
     1
  9
$ANGBASE
 50
0.0
  9
$ANGDIR
 70
     0
  9
$PDMODE
 70
     0
  9
$PDSIZE
 40
0.0
  9
$PLINEWID
 40
0.0
  9
$SPLFRAME
 70
     0
  9
$SPLINETYPE
 70
     6
  9
$SPLINESEGS
 70
     8
  9
$HANDSEED
  5
442
  9
$SURFTAB1
 70
     6
  9
$SURFTAB2
 70
     6
  9
$SURFTYPE
 70
     6
  9
$SURFU
 70
     6
  9
$SURFV
 70
     6
  9
$UCSBASE
  2

  9
$UCSNAME
  2

  9
$UCSORG
 10
0.0
 20
0.0
 30
0.0
  9
$UCSXDIR
 10
1.0
 20
0.0
 30
0.0
  9
$UCSYDIR
 10
0.0
 20
1.0
 30
0.0
  9
$UCSORTHOREF
  2

  9
$UCSORTHOVIEW
 70
     0
  9
$UCSORGTOP
 10
0.0
 20
0.0
 30
0.0
  9
$UCSORGBOTTOM
 10
0.0
 20
0.0
 30
0.0
  9
$UCSORGLEFT
 10
0.0
 20
0.0
 30
0.0
  9
$UCSORGRIGHT
 10
0.0
 20
0.0
 30
0.0
  9
$UCSORGFRONT
 10
0.0
 20
0.0
 30
0.0
  9
$UCSORGBACK
 10
0.0
 20
0.0
 30
0.0
  9
$PUCSBASE
  2

  9
$PUCSNAME
  2

  9
$PUCSORG
 10
0.0
 20
0.0
 30
0.0
  9
$PUCSXDIR
 10
1.0
 20
0.0
 30
0.0
  9
$PUCSYDIR
 10
0.0
 20
1.0
 30
0.0
  9
$PUCSORTHOREF
  2

  9
$PUCSORTHOVIEW
 70
     0
  9
$PUCSORGTOP
 10
0.0
 20
0.0
 30
0.0
  9
$PUCSORGBOTTOM
 10
0.0
 20
0.0
 30
0.0
  9
$PUCSORGLEFT
 10
0.0
 20
0.0
 30
0.0
  9
$PUCSORGRIGHT
 10
0.0
 20
0.0
 30
0.0
  9
$PUCSORGFRONT
 10
0.0
 20
0.0
 30
0.0
  9
$PUCSORGBACK
 10
0.0
 20
0.0
 30
0.0
  9
$USERI1
 70
     0
  9
$USERI2
 70
     0
  9
$USERI3
 70
     0
  9
$USERI4
 70
     0
  9
$USERI5
 70
     0
  9
$USERR1
 40
0.0
  9
$USERR2
 40
0.0
  9
$USERR3
 40
0.0
  9
$USERR4
 40
0.0
  9
$USERR5
 40
0.0
  9
$WORLDVIEW
 70
     1
  9
$SHADEDGE
 70
     3
  9
$SHADEDIF
 70
    70
  9
$TILEMODE
 70
     1
  9
$MAXACTVP
 70
    64
  9
$PINSBASE
 10
0.0
 20
0.0
 30
0.0
  9
$PLIMCHECK
 70
     0
  9
$PEXTMIN
 10
0.0
 20
0.0
 30
0.0
  9
$PEXTMAX
 10
197.6
 20
271.5999999999982
 30
0.0
  9
$PLIMMIN
 10
-20.0
 20
-7.5
  9
$PLIMMAX
 10
277.0
 20
202.5
  9
$UNITMODE
 70
     0
  9
$VISRETAIN
 70
     1
  9
$PLINEGEN
 70
     0
  9
$PSLTSCALE
 70
     0
  9
$TREEDEPTH
 70
  3020
  9
$CMLSTYLE
  2
Standard
  9
$CMLJUST
 70
     0
  9
$CMLSCALE
 40
1.0
  9
$PROXYGRAPHICS
 70
     1
  9
$MEASUREMENT
 70
     1
  9
$CELWEIGHT
370
    -1
  9
$ENDCAPS
280
     0
  9
$JOINSTYLE
280
     0
  9
$LWDISPLAY
290
     0
  9
$INSUNITS
 70
     4
  9
$HYPERLINKBASE
  1

  9
$STYLESHEET
  1

  9
$XEDIT
290
     1
  9
$CEPSNTYPE
380
     0
  9
$PSTYLEMODE
290
     0
  9
$FINGERPRINTGUID
  2
{A3511963-7333-4B23-AFF8-CFCEFE9ADDA2}
  9
$VERSIONGUID
  2
{FAEB1C32-E019-11D5-929B-00C0DF256EC4}
  9
$EXTNAMES
290
     1
  9
$PSVPSCALE
 40
0.0
  9
$OLESTARTUP
290
     0
  9
$SORTENTS
280
   127
  9
$INDEXCTL
280
     0
  9
$HIDETEXT
280
     1
  9
$XCLIPFRAME
280
     2
  9
$HALOGAP
280
     0
  9
$OBSCOLOR
 70
   257
  9
$OBSLTYPE
280
     0
  9
$INTERSECTIONDISPLAY
280
     0
  9
$INTERSECTIONCOLOR
 70
   257
  9
$DIMASSOC
280
     2
  9
$PROJECTNAME
  1

  9
$CAMERADISPLAY
290
     0
  9
$LENSLENGTH
 40
50.0
  9
$CAMERAHEIGHT
 40
0.0
  9
$STEPSPERSEC
 40
2.0
  9
$STEPSIZE
 40
6.0
  9
$3DDWFPREC
 40
2.0
  9
$PSOLWIDTH
 40
0.25
  9
$PSOLHEIGHT
 40
4.0
  9
$LOFTANG1
 40
1.570796326794897
  9
$LOFTANG2
 40
1.570796326794897
  9
$LOFTMAG1
 40
0.0
  9
$LOFTMAG2
 40
0.0
  9
$LOFTPARAM
 70
     7
  9
$LOFTNORMALS
280
     1
  9
$LATITUDE
 40
37.795
  9
$LONGITUDE
 40
-122.394
  9
$NORTHDIRECTION
 40
0.0
  9
$TIMEZONE
 70
 -8000
  9
$LIGHTGLYPHDISPLAY
280
     1
  9
$TILEMODELIGHTSYNCH
280
     1
  9
$CMATERIAL
347
44
  9
$SOLIDHIST
280
     0
  9
$SHOWHIST
280
     1
  9
$DWFFRAME
280
     2
  9
$DGNFRAME
280
     2
  9
$REALWORLDSCALE
290
     1
  9
$INTERFERECOLOR
 62
   256
  9
$CSHADOW
280
     0
  9
$SHADOWPLANELOCATION
 40
0.0
  0
ENDSEC
  0
SECTION
  2
CLASSES
  0
CLASS
  1
ACDBDICTIONARYWDFLT
  2
AcDbDictionaryWithDefault
  3
ObjectDBX Classes
 90
        0
 91
        3
280
     0
281
     0
  0
CLASS
  1
VISUALSTYLE
  2
AcDbVisualStyle
  3
ObjectDBX Classes
 90
     4095
 91
        3
280
     0
281
     0
  0
CLASS
  1
MATERIAL
  2
AcDbMaterial
  3
ObjectDBX Classes
 90
     1153
 91
        3
280
     0
281
     0
  0
CLASS
  1
SCALE
  2
AcDbScale
  3
ObjectDBX Classes
 90
     1153
 91
        3
280
     0
281
     0
  0
CLASS
  1
TABLESTYLE
  2
AcDbTableStyle
  3
ObjectDBX Classes
 90
     4095
 91
        3
280
     0
281
     0
  0
CLASS
  1
MLEADERSTYLE
  2
AcDbMLeaderStyle
  3
ACDB_MLEADERSTYLE_CLASS
 90
     4095
 91
        3
280
     0
281
     0
  0
CLASS
  1
SUN
  2
AcDbSun
  3
SCENEOE
 90
     1153
 91
        3
280
     0
281
     0
  0
CLASS
  1
RASTERVARIABLES
  2
AcDbRasterVariables
  3
ISM
 90
        0
 91
        3
280
     0
281
     0
  0
CLASS
  1
PLOTSETTINGS
  2
AcDbPlotSettings
  3
ObjectDBX Classes
 90
        0
 91
        3
280
     0
281
     0
  0
CLASS
  1
IMAGEDEF
  2
AcDbRasterImageDef
  3
ISM
 90
        0
 91
        3
280
     0
281
     0
  0
CLASS
  1
IMAGE
  2
AcDbRasterImage
  3
ISM
 90
      127
 91
        4
280
     0
281
     1
  0
CLASS
  1
IMAGEDEF_REACTOR
  2
AcDbRasterImageDefReactor
  3
ISM
 90
        1
 91
        3
280
     0
281
     0
  0
CLASS
  1
DICTIONARYVAR
  2
AcDbDictionaryVar
  3
ObjectDBX Classes
 90
        0
 91
        3
280
     0
281
     0
  0
CLASS
  1
CELLSTYLEMAP
  2
AcDbCellStyleMap
  3
ObjectDBX Classes
 90
     1152
 91
        3
280
     0
281
     0
  0
ENDSEC
  0
SECTION
  2
TABLES
  0
TABLE
  2
VPORT
  5
8
330
0
100
AcDbSymbolTable
 70
     1
  0
VPORT
  5
29
330
8
100
AcDbSymbolTableRecord
100
AcDbViewportTableRecord
  2
*Active
 70
     0
 10
0.0
 20
0.0
 11
1.0
 21
1.0
 12
10.42990654205607
 22
4.5
 13
0.0
 23
0.0
 14
0.5
 24
0.5
 15
0.5
 25
0.5
 16
0.0
 26
0.0
 36
1.0
 17
0.0
 27
0.0
 37
0.0
 40
9.0
 41
1.972972972850329
 42
50.0
 43
0.0
 44
0.0
 50
0.0
 51
0.0
 71
     0
 72
   100
 73
     1
 74
     3
 75
     0
 76
     0
 77
     0
 78
     0
281
     0
 65
     1
110
0.0
120
0.0
130
0.0
111
1.0
121
0.0
131
0.0
112
0.0
122
1.0
132
0.0
 79
     0
146
0.0
348
2F
 60
     3
 61
     5
292
     1
282
     1
141
0.0
142
0.0
 63
   250
361
6D
  0
ENDTAB
  0
TABLE
  2
LTYPE
  5
5
330
0
100
AcDbSymbolTable
 70
     3
  0
LTYPE
  5
14
330
5
100
AcDbSymbolTableRecord
100
AcDbLinetypeTableRecord
  2
ByBlock
 70
     0
  3

 72
    65
 73
     0
 40
0.0
  0
LTYPE
  5
15
330
5
100
AcDbSymbolTableRecord
100
AcDbLinetypeTableRecord
  2
ByLayer
 70
     0
  3

 72
    65
 73
     0
 40
0.0
  0
LTYPE
  5
16
330
5
100
AcDbSymbolTableRecord
100
AcDbLinetypeTableRecord
  2
Continuous
 70
     0
  3
Solid line
 72
    65
 73
     0
 40
0.0
  0
LTYPE
  5
191
330
5
100
AcDbSymbolTableRecord
100
AcDbLinetypeTableRecord
  2
CADWORK_3
 70
     0
  3

 72
    65
 73
     2
 40
4.0
 49
2.0
 74
     0
 49
-2.0
 74
     0
  0
LTYPE
  5
25B
330
5
100
AcDbSymbolTableRecord
100
AcDbLinetypeTableRecord
  2
CADWORK_22
 70
     0
  3

 72
    65
 73
     0
 40
0.0
  0
ENDTAB
  0
TABLE
  2
LAYER
  5
2
330
0
100
AcDbSymbolTable
 70
    33
  0
LAYER
  5
10
330
2
100
AcDbSymbolTableRecord
100
AcDbLayerTableRecord
  2
0
 70
     0
 62
     7
  6
Continuous
370
    -3
390
F
347
46
348
0
  0
LAYER
  5
70
330
2
100
AcDbSymbolTableRecord
100
AcDbLayerTableRecord
  2
Standard
 70
     0
 62
     7
  6
Continuous
370
    -3
390
F
347
46
348
0
  0
LAYER
  5
71
330
2
100
AcDbSymbolTableRecord
100
AcDbLayerTableRecord
  2
Ech.1_1
 70
     0
 62
     7
  6
Continuous
370
    -3
390
F
347
46
348
0
  0
LAYER
  5
72
330
2
100
AcDbSymbolTableRecord
100
AcDbLayerTableRecord
  2
Ech.1_2
 70
     0
 62
     7
  6
Continuous
370
    -3
390
F
347
46
348
0
  0
LAYER
  5
73
330
2
100
AcDbSymbolTableRecord
100
AcDbLayerTableRecord
  2
Ech.1_5
 70
     0
 62
     7
  6
Continuous
370
    -3
390
F
347
46
348
0
  0
LAYER
  5
74
330
2
100
AcDbSymbolTableRecord
100
AcDbLayerTableRecord
  2
Ech.1_10
 70
     0
 62
     7
  6
Continuous
370
    -3
390
F
347
46
348
0
  0
LAYER
  5
75
330
2
100
AcDbSymbolTableRecord
100
AcDbLayerTableRecord
  2
Ech.1_20
 70
     0
 62
     7
  6
Continuous
370
    -3
390
F
347
46
348
0
  0
LAYER
  5
76
330
2
100
AcDbSymbolTableRecord
100
AcDbLayerTableRecord
  2
Ech.1_25
 70
     0
 62
     7
  6
Continuous
370
    -3
390
F
347
46
348
0
  0
LAYER
  5
77
330
2
100
AcDbSymbolTableRecord
100
AcDbLayerTableRecord
  2
Ech.1_33
 70
     0
 62
     7
  6
Continuous
370
    -3
390
F
347
46
348
0
  0
LAYER
  5
78
330
2
100
AcDbSymbolTableRecord
100
AcDbLayerTableRecord
  2
Ech.1_50
 70
     0
 62
     7
  6
Continuous
370
    -3
390
F
347
46
348
0
  0
LAYER
  5
79
330
2
100
AcDbSymbolTableRecord
100
AcDbLayerTableRecord
  2
Ech.1_75
 70
     0
 62
     7
  6
Continuous
370
    -3
390
F
347
46
348
0
  0
LAYER
  5
7A
330
2
100
AcDbSymbolTableRecord
100
AcDbLayerTableRecord
  2
Ech.1_100
 70
     0
 62
     7
  6
Continuous
370
    -3
390
F
347
46
348
0
  0
LAYER
  5
7B
330
2
100
AcDbSymbolTableRecord
100
AcDbLayerTableRecord
  2
Ech.1_200
 70
     0
 62
     7
  6
Continuous
370
    -3
390
F
347
46
348
0
  0
LAYER
  5
7C
330
2
100
AcDbSymbolTableRecord
100
AcDbLayerTableRecord
  2
Ech.1_500
 70
     0
 62
     7
  6
Continuous
370
    -3
390
F
347
46
348
0
  0
LAYER
  5
7D
330
2
100
AcDbSymbolTableRecord
100
AcDbLayerTableRecord
  2
Ech.1_1000
 70
     0
 62
     7
  6
Continuous
370
    -3
390
F
347
46
348
0
  0
LAYER
  5
7E
330
2
100
AcDbSymbolTableRecord
100
AcDbLayerTableRecord
  2
Cadres traceur
 70
     0
 62
     7
  6
Continuous
370
    -3
390
F
347
46
348
0
  0
LAYER
  5
7F
330
2
100
AcDbSymbolTableRecord
100
AcDbLayerTableRecord
  2
Cadres laser
 70
     0
 62
     7
  6
Continuous
370
    -3
390
F
347
46
348
0
  0
LAYER
  5
80
330
2
100
AcDbSymbolTableRecord
100
AcDbLayerTableRecord
  2
Légende d_aide
 70
     0
 62
     7
  6
Continuous
370
    -3
390
F
347
46
348
0
  0
LAYER
  5
81
330
2
100
AcDbSymbolTableRecord
100
AcDbLayerTableRecord
  2
hachures ok
 70
     0
 62
     7
  6
Continuous
370
    -3
390
F
347
46
348
0
  0
LAYER
  5
82
330
2
100
AcDbSymbolTableRecord
100
AcDbLayerTableRecord
  2
ossature bois
 70
     0
 62
     7
  6
Continuous
370
    -3
390
F
347
46
348
0
  0
LAYER
  5
83
330
2
100
AcDbSymbolTableRecord
100
AcDbLayerTableRecord
  2
VR
 70
     0
 62
     7
  6
Continuous
370
    -3
390
F
347
46
348
0
  0
LAYER
  5
84
330
2
100
AcDbSymbolTableRecord
100
AcDbLayerTableRecord
  2
Calque1
 70
     0
 62
     7
  6
Continuous
370
    -3
390
F
347
46
348
0
  0
LAYER
  5
85
330
2
100
AcDbSymbolTableRecord
100
AcDbLayerTableRecord
  2
0_
 70
     0
 62
     7
  6
Continuous
370
    -3
390
F
347
46
348
0
  0
LAYER
  5
86
330
2
100
AcDbSymbolTableRecord
100
AcDbLayerTableRecord
  2
menuiserie
 70
     0
 62
     7
  6
Continuous
370
    -3
390
F
347
46
348
0
  0
LAYER
  5
87
330
2
100
AcDbSymbolTableRecord
100
AcDbLayerTableRecord
  2
cotation
 70
     0
 62
   250
  6
Continuous
370
    -3
390
F
347
46
348
0
  0
LAYER
  5
88
330
2
100
AcDbSymbolTableRecord
100
AcDbLayerTableRecord
  2
Defpoints
 70
     0
 62
    10
  6
Continuous
290
     0
370
    -3
390
F
347
46
348
0
  0
LAYER
  5
89
330
2
100
AcDbSymbolTableRecord
100
AcDbLayerTableRecord
  2
HACHURE
 70
     0
 62
   254
  6
Continuous
370
    -3
390
F
347
46
348
0
  0
LAYER
  5
8A
330
2
100
AcDbSymbolTableRecord
100
AcDbLayerTableRecord
  2
mat1
 70
     0
 62
     7
  6
Continuous
370
    -3
390
F
347
46
348
0
  0
LAYER
  5
8B
330
2
100
AcDbSymbolTableRecord
100
AcDbLayerTableRecord
  2
mat2
 70
     0
 62
     7
  6
Continuous
370
    -3
390
F
347
46
348
0
  0
LAYER
  5
8C
330
2
100
AcDbSymbolTableRecord
100
AcDbLayerTableRecord
  2
hach
 70
     0
 62
     8
  6
Continuous
370
    -3
390
F
347
46
348
0
  0
LAYER
  5
8D
330
2
100
AcDbSymbolTableRecord
100
AcDbLayerTableRecord
  2
menuiseries
 70
     0
 62
     7
  6
Continuous
370
    -3
390
F
347
46
348
0
  0
LAYER
  5
8E
330
2
100
AcDbSymbolTableRecord
100
AcDbLayerTableRecord
  2
BétonMétal
 70
     0
 62
     7
  6
Continuous
370
    -3
390
F
347
46
348
0
  0
LAYER
  5
8F
330
2
100
AcDbSymbolTableRecord
100
AcDbLayerTableRecord
  2
bois
 70
     0
 62
     7
  6
Continuous
370
    -3
390
F
347
46
348
0
  0
ENDTAB
  0
TABLE
  2
STYLE
  5
3
330
0
100
AcDbSymbolTable
 70
    10
  0
STYLE
  5
11
330
3
100
AcDbSymbolTableRecord
100
AcDbTextStyleTableRecord
  2
Standard
 70
     0
 40
0.0
 41
1.0
 50
0.0
 71
     0
 42
0.2
  3
txt
  4

  0
STYLE
  5
90
330
3
100
AcDbSymbolTableRecord
100
AcDbTextStyleTableRecord
  2
CwStyleShx
 70
     0
 40
1.0
 41
1.0
 50
0.0
 71
     0
 42
0.2
  3

  4

  0
STYLE
  5
91
330
3
100
AcDbSymbolTableRecord
100
AcDbTextStyleTableRecord
  2
CwStyleShx16
 70
     0
 40
1.0
 41
1.0
 50
0.0
 71
     0
 42
0.2
  3

  4

  0
STYLE
  5
92
330
3
100
AcDbSymbolTableRecord
100
AcDbTextStyleTableRecord
  2
MONOTXT
 70
     0
 40
0.0
 41
1.0
 50
0.0
 71
     0
 42
0.2
  3
MONOTXT
  4

  0
STYLE
  5
93
330
3
100
AcDbSymbolTableRecord
100
AcDbTextStyleTableRecord
  2
SYMAP
 70
     0
 40
1.0
 41
1.0
 50
0.0
 71
     0
 42
0.2
  3
SYMAP
  4

  0
STYLE
  5
94
330
3
100
AcDbSymbolTableRecord
100
AcDbTextStyleTableRecord
  2
CwStyleTtf
 70
     0
 40
1.0
 41
1.0
 50
0.0
 71
     0
 42
0.2
  3
arial.ttf
  4

  0
STYLE
  5
3F2
330
3
100
AcDbSymbolTableRecord
100
AcDbTextStyleTableRecord
  2
arial-z
 70
     0
 40
0.0
 41
1.0
 50
0.0
 71
     0
 42
0.2
  3
arial.ttf
  4

1001
ACAD
1000
Arial
1071
        0
  0
STYLE
  5
419
330
3
100
AcDbSymbolTableRecord
100
AcDbTextStyleTableRecord
  2
arial-
 70
     0
 40
1.0
 41
1.0
 50
0.0
 71
     0
 42
0.2
  3

  4

1001
ACAD
1000
Arial
1071
        0
  0
STYLE
  5
41C
330
3
100
AcDbSymbolTableRecord
100
AcDbTextStyleTableRecord
  2
arial-b
 70
     0
 40
1.0
 41
1.0
 50
0.0
 71
     0
 42
0.2
  3
arialbd.ttf
  4

1001
ACAD
1000
Arial
1071
 33554432
  0
STYLE
  5
41E
330
3
100
AcDbSymbolTableRecord
100
AcDbTextStyleTableRecord
  2
tahoma-b
 70
     0
 40
1.0
 41
1.0
 50
0.0
 71
     0
 42
0.2
  3
tahomabd.ttf
  4

1001
ACAD
1000
Tahoma
1071
 33554432
  0
ENDTAB
  0
TABLE
  2
VIEW
  5
6
330
0
100
AcDbSymbolTable
 70
     0
  0
ENDTAB
  0
TABLE
  2
UCS
  5
7
330
0
100
AcDbSymbolTable
 70
     0
  0
ENDTAB
  0
TABLE
  2
APPID
  5
9
330
0
100
AcDbSymbolTable
 70
     3
  0
APPID
  5
12
330
9
100
AcDbSymbolTableRecord
100
AcDbRegAppTableRecord
  2
ACAD
 70
     0
  0
APPID
  5
6E
330
9
100
AcDbSymbolTableRecord
100
AcDbRegAppTableRecord
  2
Cadwork
 70
     0
  0
APPID
  5
241
330
9
100
AcDbSymbolTableRecord
100
AcDbRegAppTableRecord
  2
PLOTTRANSPARENCY
 70
     0
  0
ENDTAB
  0
TABLE
  2
DIMSTYLE
  5
A
330
0
100
AcDbSymbolTable
 70
     1
100
AcDbDimStyleTable
  0
DIMSTYLE
105
27
102
{ACAD_REACTORS
330
3F3
330
401
102
}
330
A
100
AcDbSymbolTableRecord
100
AcDbDimStyleTableRecord
  2
Standard
 70
     0
178
     0
340
11
  0
ENDTAB
  0
TABLE
  2
BLOCK_RECORD
  5
1
330
0
100
AcDbSymbolTable
 70
    71
  0
BLOCK_RECORD
  5
1F
330
1
100
AcDbSymbolTableRecord
100
AcDbBlockTableRecord
  2
*Model_Space
340
22
 70
     0
280
     1
281
     0
  0
BLOCK_RECORD
  5
23C
330
1
100
AcDbSymbolTableRecord
100
AcDbBlockTableRecord
  2
*Paper_Space
340
23D
 70
     0
280
     1
281
     0
  0
BLOCK_RECORD
  5
95
330
1
100
AcDbSymbolTableRecord
100
AcDbBlockTableRecord
  2
CDWK_PTTYP1
340
0
 70
     0
280
     1
281
     1
  0
BLOCK_RECORD
  5
9C
330
1
100
AcDbSymbolTableRecord
100
AcDbBlockTableRecord
  2
CDWK_PTTYP2
340
0
 70
     0
280
     1
281
     1
  0
BLOCK_RECORD
  5
A1
330
1
100
AcDbSymbolTableRecord
100
AcDbBlockTableRecord
  2
CDWK_PTTYP4
340
0
 70
     0
280
     1
281
     1
  0
BLOCK_RECORD
  5
A5
330
1
100
AcDbSymbolTableRecord
100
AcDbBlockTableRecord
  2
CDWK_PTTYP5
340
0
 70
     0
280
     1
281
     1
  0
BLOCK_RECORD
  5
AE
330
1
100
AcDbSymbolTableRecord
100
AcDbBlockTableRecord
  2
CDWK_PTTYP6
340
0
 70
     0
280
     1
281
     1
  0
BLOCK_RECORD
  5
B6
330
1
100
AcDbSymbolTableRecord
100
AcDbBlockTableRecord
  2
CDWK_PTTYP7
340
0
 70
     0
280
     1
281
     1
  0
BLOCK_RECORD
  5
BF
330
1
100
AcDbSymbolTableRecord
100
AcDbBlockTableRecord
  2
CDWK_PTTYP8
340
0
 70
     0
280
     1
281
     1
  0
BLOCK_RECORD
  5
C3
330
1
100
AcDbSymbolTableRecord
100
AcDbBlockTableRecord
  2
CDWK_PTTYP9
340
0
 70
     0
280
     1
281
     1
  0
BLOCK_RECORD
  5
C8
330
1
100
AcDbSymbolTableRecord
100
AcDbBlockTableRecord
  2
CDWK_PTTYP10
340
0
 70
     0
280
     1
281
     1
  0
BLOCK_RECORD
  5
CC
330
1
100
AcDbSymbolTableRecord
100
AcDbBlockTableRecord
  2
CDWK_PTTYP11
340
0
 70
     0
280
     1
281
     1
  0
BLOCK_RECORD
  5
D1
330
1
100
AcDbSymbolTableRecord
100
AcDbBlockTableRecord
  2
CDWK_PTTYP12
340
0
 70
     0
280
     1
281
     1
  0
BLOCK_RECORD
  5
D6
330
1
100
AcDbSymbolTableRecord
100
AcDbBlockTableRecord
  2
CDWK_PTTYP13
340
0
 70
     0
280
     1
281
     1
  0
BLOCK_RECORD
  5
DC
330
1
100
AcDbSymbolTableRecord
100
AcDbBlockTableRecord
  2
CDWK_PTTYP16
340
0
 70
     0
280
     1
281
     1
  0
BLOCK_RECORD
  5
E3
330
1
100
AcDbSymbolTableRecord
100
AcDbBlockTableRecord
  2
CDWK_PTTYP17
340
0
 70
     0
280
     1
281
     1
  0
BLOCK_RECORD
  5
E8
330
1
100
AcDbSymbolTableRecord
100
AcDbBlockTableRecord
  2
CDWK_PTTYP18
340
0
 70
     0
280
     1
281
     1
  0
BLOCK_RECORD
  5
ED
330
1
100
AcDbSymbolTableRecord
100
AcDbBlockTableRecord
  2
CDWK_PTTYP19
340
0
 70
     0
280
     1
281
     1
  0
BLOCK_RECORD
  5
F3
330
1
100
AcDbSymbolTableRecord
100
AcDbBlockTableRecord
  2
CDWK_PTTYP20
340
0
 70
     0
280
     1
281
     1
  0
BLOCK_RECORD
  5
F8
330
1
100
AcDbSymbolTableRecord
100
AcDbBlockTableRecord
  2
CDWK_PTTYP21
340
0
 70
     0
280
     1
281
     1
  0
BLOCK_RECORD
  5
FD
330
1
100
AcDbSymbolTableRecord
100
AcDbBlockTableRecord
  2
CDWK_PTTYP25
340
0
 70
     0
280
     1
281
     1
  0
BLOCK_RECORD
  5
104
330
1
100
AcDbSymbolTableRecord
100
AcDbBlockTableRecord
  2
CDWK_PTTYP26
340
0
 70
     0
280
     1
281
     1
  0
BLOCK_RECORD
  5
10B
330
1
100
AcDbSymbolTableRecord
100
AcDbBlockTableRecord
  2
CDWK_PTTYP27
340
0
 70
     0
280
     1
281
     1
  0
BLOCK_RECORD
  5
113
330
1
100
AcDbSymbolTableRecord
100
AcDbBlockTableRecord
  2
CDWK_PTTYP28
340
0
 70
     0
280
     1
281
     1
  0
BLOCK_RECORD
  5
11A
330
1
100
AcDbSymbolTableRecord
100
AcDbBlockTableRecord
  2
CDWK_PTTYP29
340
0
 70
     0
280
     1
281
     1
  0
BLOCK_RECORD
  5
120
330
1
100
AcDbSymbolTableRecord
100
AcDbBlockTableRecord
  2
CDWK_PTTYP30
340
0
 70
     0
280
     1
281
     1
  0
BLOCK_RECORD
  5
127
330
1
100
AcDbSymbolTableRecord
100
AcDbBlockTableRecord
  2
CDWK_PTTYP31
340
0
 70
     0
280
     1
281
     1
  0
BLOCK_RECORD
  5
12F
330
1
100
AcDbSymbolTableRecord
100
AcDbBlockTableRecord
  2
CDWK_PTTYP32
340
0
 70
     0
280
     1
281
     1
  0
BLOCK_RECORD
  5
138
330
1
100
AcDbSymbolTableRecord
100
AcDbBlockTableRecord
  2
CDWK_PTTYP33
340
0
 70
     0
280
     1
281
     1
  0
BLOCK_RECORD
  5
13E
330
1
100
AcDbSymbolTableRecord
100
AcDbBlockTableRecord
  2
CDWK_PTTYP34
340
0
 70
     0
280
     1
281
     1
  0
BLOCK_RECORD
  5
144
330
1
100
AcDbSymbolTableRecord
100
AcDbBlockTableRecord
  2
CDWK_PTTYP35
340
0
 70
     0
280
     1
281
     1
  0
BLOCK_RECORD
  5
14A
330
1
100
AcDbSymbolTableRecord
100
AcDbBlockTableRecord
  2
CDWK_PTTYP36
340
0
 70
     0
280
     1
281
     1
  0
BLOCK_RECORD
  5
152
330
1
100
AcDbSymbolTableRecord
100
AcDbBlockTableRecord
  2
CDWK_PTTYP37
340
0
 70
     0
280
     1
281
     1
  0
BLOCK_RECORD
  5
157
330
1
100
AcDbSymbolTableRecord
100
AcDbBlockTableRecord
  2
CDWK_PTTYP38
340
0
 70
     0
280
     1
281
     1
  0
BLOCK_RECORD
  5
15D
330
1
100
AcDbSymbolTableRecord
100
AcDbBlockTableRecord
  2
CDWK_PTTYP41
340
0
 70
     0
280
     1
281
     1
  0
BLOCK_RECORD
  5
167
330
1
100
AcDbSymbolTableRecord
100
AcDbBlockTableRecord
  2
CDWK_PTTYP42
340
0
 70
     0
280
     1
281
     1
  0
BLOCK_RECORD
  5
170
330
1
100
AcDbSymbolTableRecord
100
AcDbBlockTableRecord
  2
CDWK_PTTYP43
340
0
 70
     0
280
     1
281
     1
  0
BLOCK_RECORD
  5
176
330
1
100
AcDbSymbolTableRecord
100
AcDbBlockTableRecord
  2
CDWK_PTTYP44
340
0
 70
     0
280
     1
281
     1
  0
BLOCK_RECORD
  5
17F
330
1
100
AcDbSymbolTableRecord
100
AcDbBlockTableRecord
  2
CDWK_PTTYP45
340
0
 70
     0
280
     1
281
     1
  0
BLOCK_RECORD
  5
184
330
1
100
AcDbSymbolTableRecord
100
AcDbBlockTableRecord
  2
CDWK_PTTYP46
340
0
 70
     0
280
     1
281
     1
  0
BLOCK_RECORD
  5
189
330
1
100
AcDbSymbolTableRecord
100
AcDbBlockTableRecord
  2
CDWK_PTTYP47
340
0
 70
     0
280
     1
281
     1
  0
BLOCK_RECORD
  5
192
330
1
100
AcDbSymbolTableRecord
100
AcDbBlockTableRecord
  2
CDWK_PTTYP48
340
0
 70
     0
280
     1
281
     1
  0
BLOCK_RECORD
  5
197
330
1
100
AcDbSymbolTableRecord
100
AcDbBlockTableRecord
  2
CDWK_PTTYP49
340
0
 70
     0
280
     1
281
     1
  0
BLOCK_RECORD
  5
19E
330
1
100
AcDbSymbolTableRecord
100
AcDbBlockTableRecord
  2
CDWK_PTTYP50
340
0
 70
     0
280
     1
281
     1
  0
BLOCK_RECORD
  5
1A8
330
1
100
AcDbSymbolTableRecord
100
AcDbBlockTableRecord
  2
CDWK_PTTYP51
340
0
 70
     0
280
     1
281
     1
  0
BLOCK_RECORD
  5
1AD
330
1
100
AcDbSymbolTableRecord
100
AcDbBlockTableRecord
  2
CDWK_PTTYP52
340
0
 70
     0
280
     1
281
     1
  0
BLOCK_RECORD
  5
1B3
330
1
100
AcDbSymbolTableRecord
100
AcDbBlockTableRecord
  2
cw-dimension-symbol1
340
0
 70
     0
280
     1
281
     0
  0
BLOCK_RECORD
  5
1BA
330
1
100
AcDbSymbolTableRecord
100
AcDbBlockTableRecord
  2
cw-dimension-symbol2
340
0
102
{BLKREFS
331
3FC
331
3FB
331
40A
331
409
102
}
 70
     0
280
     1
281
     0
  0
BLOCK_RECORD
  5
1BF
330
1
100
AcDbSymbolTableRecord
100
AcDbBlockTableRecord
  2
cw-dimension-symbol3
340
0
 70
     0
280
     1
281
     0
  0
BLOCK_RECORD
  5
1C4
330
1
100
AcDbSymbolTableRecord
100
AcDbBlockTableRecord
  2
cw-dimension-symbol5
340
0
 70
     0
280
     1
281
     0
  0
BLOCK_RECORD
  5
1CB
330
1
100
AcDbSymbolTableRecord
100
AcDbBlockTableRecord
  2
cw-dimension-symbol6
340
0
 70
     0
280
     1
281
     0
  0
BLOCK_RECORD
  5
1D1
330
1
100
AcDbSymbolTableRecord
100
AcDbBlockTableRecord
  2
cw-dimension-symbol11
340
0
 70
     0
280
     1
281
     0
  0
BLOCK_RECORD
  5
1D7
330
1
100
AcDbSymbolTableRecord
100
AcDbBlockTableRecord
  2
cw-dimension-symbol13
340
0
 70
     0
280
     1
281
     0
  0
BLOCK_RECORD
  5
1DD
330
1
100
AcDbSymbolTableRecord
100
AcDbBlockTableRecord
  2
cw-dimension-symbol15
340
0
 70
     0
280
     1
281
     0
  0
BLOCK_RECORD
  5
1E4
330
1
100
AcDbSymbolTableRecord
100
AcDbBlockTableRecord
  2
cw-dimension-symbol16
340
0
 70
     0
280
     1
281
     0
  0
BLOCK_RECORD
  5
1EB
330
1
100
AcDbSymbolTableRecord
100
AcDbBlockTableRecord
  2
cw-dimension-symbol17
340
0
 70
     0
280
     1
281
     0
  0
BLOCK_RECORD
  5
1F2
330
1
100
AcDbSymbolTableRecord
100
AcDbBlockTableRecord
  2
cw-dimension-symbol18
340
0
 70
     0
280
     1
281
     0
  0
BLOCK_RECORD
  5
1F9
330
1
100
AcDbSymbolTableRecord
100
AcDbBlockTableRecord
  2
cw-dimension-symbol19
340
0
 70
     0
280
     1
281
     0
  0
BLOCK_RECORD
  5
1FC
330
1
100
AcDbSymbolTableRecord
100
AcDbBlockTableRecord
  2
cw-dimension-symbol20
340
0
 70
     0
280
     1
281
     0
  0
BLOCK_RECORD
  5
203
330
1
100
AcDbSymbolTableRecord
100
AcDbBlockTableRecord
  2
cw-dimension-symbol21
340
0
 70
     0
280
     1
281
     0
  0
BLOCK_RECORD
  5
20A
330
1
100
AcDbSymbolTableRecord
100
AcDbBlockTableRecord
  2
cw-line-extremity0
340
0
 70
     0
280
     1
281
     0
  0
BLOCK_RECORD
  5
20E
330
1
100
AcDbSymbolTableRecord
100
AcDbBlockTableRecord
  2
cw-line-extremity2
340
0
 70
     0
280
     1
281
     0
  0
BLOCK_RECORD
  5
213
330
1
100
AcDbSymbolTableRecord
100
AcDbBlockTableRecord
  2
cw-line-extremity3
340
0
 70
     0
280
     1
281
     0
  0
BLOCK_RECORD
  5
218
330
1
100
AcDbSymbolTableRecord
100
AcDbBlockTableRecord
  2
cw-line-extremity301
340
0
 70
     0
280
     1
281
     0
  0
BLOCK_RECORD
  5
21A
330
1
100
AcDbSymbolTableRecord
100
AcDbBlockTableRecord
  2
cw-line-extremity4
340
0
102
{BLKREFS
331
260
331
262
331
264
331
266
102
}
 70
     0
280
     1
281
     0
  0
BLOCK_RECORD
  5
21C
330
1
100
AcDbSymbolTableRecord
100
AcDbBlockTableRecord
  2
cw-line-extremity5
340
0
 70
     0
280
     1
281
     0
  0
BLOCK_RECORD
  5
21E
330
1
100
AcDbSymbolTableRecord
100
AcDbBlockTableRecord
  2
cw-line-extremity6
340
0
 70
     0
280
     1
281
     0
  0
BLOCK_RECORD
  5
220
330
1
100
AcDbSymbolTableRecord
100
AcDbBlockTableRecord
  2
cw-line-extremity9
340
0
 70
     0
280
     1
281
     0
  0
BLOCK_RECORD
  5
222
330
1
100
AcDbSymbolTableRecord
100
AcDbBlockTableRecord
  2
cw-line-extremity10
340
0
 70
     0
280
     1
281
     0
  0
BLOCK_RECORD
  5
224
330
1
100
AcDbSymbolTableRecord
100
AcDbBlockTableRecord
  2
cw-line-extremity1
340
0
 70
     0
280
     1
281
     0
  0
BLOCK_RECORD
  5
1B
330
1
100
AcDbSymbolTableRecord
100
AcDbBlockTableRecord
  2
*Paper_Space69
340
1E
 70
     0
280
     1
281
     0
  0
BLOCK_RECORD
  5
3F5
330
1
100
AcDbSymbolTableRecord
100
AcDbBlockTableRecord
  2
*D70
340
0
 70
     0
280
     1
281
     0
  0
BLOCK_RECORD
  5
403
330
1
100
AcDbSymbolTableRecord
100
AcDbBlockTableRecord
  2
*D71
340
0
 70
     0
280
     1
281
     0
  0
ENDTAB
  0
ENDSEC
  0
SECTION
  2
BLOCKS
  0
BLOCK
  5
20
330
1F
100
AcDbEntity
  8
0
100
AcDbBlockBegin
  2
*Model_Space
 70
     0
 10
0.0
 20
0.0
 30
0.0
  3
*Model_Space
  1

  0
ENDBLK
  5
21
330
1F
100
AcDbEntity
  8
0
100
AcDbBlockEnd
  0
BLOCK
  5
23E
330
23C
100
AcDbEntity
 67
     1
  8
0
100
AcDbBlockBegin
  2
*Paper_Space
 70
     0
 10
0.0
 20
0.0
 30
0.0
  3
*Paper_Space
  1

  0
ENDBLK
  5
23F
330
23C
100
AcDbEntity
 67
     1
  8
0
100
AcDbBlockEnd
  0
BLOCK
  5
9A
330
95
100
AcDbEntity
  8
0
100
AcDbBlockBegin
  2
CDWK_PTTYP1
 70
     0
 10
0.0
 20
0.0
 30
0.0
  3
CDWK_PTTYP1
  1

  0
LINE
  5
96
330
95
100
AcDbEntity
  8
0
 62
     0
370
    -2
100
AcDbLine
 10
-0.5
 20
0.5
 30
0.0
 11
0.5
 21
0.5
 31
0.0
  0
LINE
  5
97
330
95
100
AcDbEntity
  8
0
 62
     0
370
    -2
100
AcDbLine
 10
0.5
 20
0.5
 30
0.0
 11
0.5
 21
-0.5
 31
0.0
  0
LINE
  5
98
330
95
100
AcDbEntity
  8
0
 62
     0
370
    -2
100
AcDbLine
 10
0.5
 20
-0.5
 30
0.0
 11
-0.5
 21
-0.5
 31
0.0
  0
LINE
  5
99
330
95
100
AcDbEntity
  8
0
 62
     0
370
    -2
100
AcDbLine
 10
-0.5
 20
-0.5
 30
0.0
 11
-0.5
 21
0.5
 31
0.0
  0
ENDBLK
  5
9B
330
95
100
AcDbEntity
  8
0
100
AcDbBlockEnd
  0
BLOCK
  5
9F
330
9C
100
AcDbEntity
  8
0
100
AcDbBlockBegin
  2
CDWK_PTTYP2
 70
     0
 10
0.0
 20
0.0
 30
0.0
  3
CDWK_PTTYP2
  1

  0
LINE
  5
9D
330
9C
100
AcDbEntity
  8
0
 62
     0
370
    -2
100
AcDbLine
 10
0.0
 20
0.5
 30
0.0
 11
0.0
 21
-0.5
 31
0.0
  0
LINE
  5
9E
330
9C
100
AcDbEntity
  8
0
 62
     0
370
    -2
100
AcDbLine
 10
0.5
 20
0.0
 30
0.0
 11
-0.5
 21
0.0
 31
0.0
  0
ENDBLK
  5
A0
330
9C
100
AcDbEntity
  8
0
100
AcDbBlockEnd
  0
BLOCK
  5
A3
330
A1
100
AcDbEntity
  8
0
100
AcDbBlockBegin
  2
CDWK_PTTYP4
 70
     0
 10
0.0
 20
0.0
 30
0.0
  3
CDWK_PTTYP4
  1

  0
HATCH
  5
A2
330
A1
100
AcDbEntity
  8
0
 62
     0
370
    -2
100
AcDbHatch
 10
0.0
 20
0.0
 30
0.0
210
0.0
220
0.0
230
1.0
  2
SOLID
 70
     1
 71
     1
 91
        1
 92
        1
 93
        1
 72
     2
 10
0.0
 20
0.0
 40
0.5
 50
0.0
 51
360.0
 73
     1
 97
        0
 75
     0
 76
     1
 98
        0
  0
ENDBLK
  5
A4
330
A1
100
AcDbEntity
  8
0
100
AcDbBlockEnd
  0
BLOCK
  5
AC
330
A5
100
AcDbEntity
  8
0
100
AcDbBlockBegin
  2
CDWK_PTTYP5
 70
     0
 10
0.0
 20
0.0
 30
0.0
  3
CDWK_PTTYP5
  1

  0
LINE
  5
A6
330
A5
100
AcDbEntity
  8
0
 62
     0
370
    -2
100
AcDbLine
 10
-0.5
 20
0.5
 30
0.0
 11
0.5
 21
0.5
 31
0.0
  0
LINE
  5
A7
330
A5
100
AcDbEntity
  8
0
 62
     0
370
    -2
100
AcDbLine
 10
0.5
 20
0.5
 30
0.0
 11
0.5
 21
-0.5
 31
0.0
  0
LINE
  5
A8
330
A5
100
AcDbEntity
  8
0
 62
     0
370
    -2
100
AcDbLine
 10
0.5
 20
-0.5
 30
0.0
 11
-0.5
 21
-0.5
 31
0.0
  0
LINE
  5
A9
330
A5
100
AcDbEntity
  8
0
 62
     0
370
    -2
100
AcDbLine
 10
-0.5
 20
-0.5
 30
0.0
 11
-0.5
 21
0.5
 31
0.0
  0
HATCH
  5
AA
330
A5
100
AcDbEntity
  8
0
 62
     0
370
    -2
100
AcDbHatch
 10
0.0
 20
0.0
 30
0.0
210
0.0
220
0.0
230
1.0
  2
SOLID
 70
     1
 71
     1
 91
        1
 92
        3
 72
     0
 73
     1
 93
        4
 10
-0.5
 20
0.0
 10
0.0
 20
0.0
 10
0.0
 20
-0.5
 10
-0.5
 20
-0.5
 97
        0
 75
     0
 76
     1
 98
        0
  0
HATCH
  5
AB
330
A5
100
AcDbEntity
  8
0
 62
     0
370
    -2
100
AcDbHatch
 10
0.0
 20
0.0
 30
0.0
210
0.0
220
0.0
230
1.0
  2
SOLID
 70
     1
 71
     1
 91
        1
 92
        3
 72
     0
 73
     1
 93
        4
 10
0.0
 20
0.0
 10
0.5
 20
0.0
 10
0.5
 20
0.5
 10
0.0
 20
0.5
 97
        0
 75
     0
 76
     1
 98
        0
  0
ENDBLK
  5
AD
330
A5
100
AcDbEntity
  8
0
100
AcDbBlockEnd
  0
BLOCK
  5
B4
330
AE
100
AcDbEntity
  8
0
100
AcDbBlockBegin
  2
CDWK_PTTYP6
 70
     0
 10
0.0
 20
0.0
 30
0.0
  3
CDWK_PTTYP6
  1

  0
LINE
  5
AF
330
AE
100
AcDbEntity
  8
0
 62
     0
370
    -2
100
AcDbLine
 10
-0.5
 20
0.5
 30
0.0
 11
0.5
 21
0.5
 31
0.0
  0
LINE
  5
B0
330
AE
100
AcDbEntity
  8
0
 62
     0
370
    -2
100
AcDbLine
 10
0.5
 20
0.5
 30
0.0
 11
0.5
 21
-0.5
 31
0.0
  0
LINE
  5
B1
330
AE
100
AcDbEntity
  8
0
 62
     0
370
    -2
100
AcDbLine
 10
0.5
 20
-0.5
 30
0.0
 11
-0.5
 21
-0.5
 31
0.0
  0
LINE
  5
B2
330
AE
100
AcDbEntity
  8
0
 62
     0
370
    -2
100
AcDbLine
 10
-0.5
 20
-0.5
 30
0.0
 11
-0.5
 21
0.5
 31
0.0
  0
HATCH
  5
B3
330
AE
100
AcDbEntity
  8
0
 62
     0
370
    -2
100
AcDbHatch
 10
0.0
 20
0.0
 30
0.0
210
0.0
220
0.0
230
1.0
  2
SOLID
 70
     1
 71
     1
 91
        1
 92
        3
 72
     0
 73
     1
 93
        3
 10
-0.5
 20
-0.5
 10
-0.5
 20
0.5
 10
0.5
 20
0.5
 97
        0
 75
     0
 76
     1
 98
        0
  0
ENDBLK
  5
B5
330
AE
100
AcDbEntity
  8
0
100
AcDbBlockEnd
  0
BLOCK
  5
BD
330
B6
100
AcDbEntity
  8
0
100
AcDbBlockBegin
  2
CDWK_PTTYP7
 70
     0
 10
0.0
 20
0.0
 30
0.0
  3
CDWK_PTTYP7
  1

  0
LINE
  5
B7
330
B6
100
AcDbEntity
  8
0
 62
     0
370
    -2
100
AcDbLine
 10
-0.5
 20
0.5
 30
0.0
 11
0.5
 21
0.5
 31
0.0
  0
LINE
  5
B8
330
B6
100
AcDbEntity
  8
0
 62
     0
370
    -2
100
AcDbLine
 10
0.5
 20
0.5
 30
0.0
 11
0.5
 21
-0.5
 31
0.0
  0
LINE
  5
B9
330
B6
100
AcDbEntity
  8
0
 62
     0
370
    -2
100
AcDbLine
 10
0.5
 20
-0.5
 30
0.0
 11
-0.5
 21
-0.5
 31
0.0
  0
LINE
  5
BA
330
B6
100
AcDbEntity
  8
0
 62
     0
370
    -2
100
AcDbLine
 10
-0.5
 20
-0.5
 30
0.0
 11
-0.5
 21
0.5
 31
0.0
  0
LINE
  5
BB
330
B6
100
AcDbEntity
  8
0
 62
     0
370
    -2
100
AcDbLine
 10
0.0
 20
0.5
 30
0.0
 11
0.0
 21
-0.5
 31
0.0
  0
LINE
  5
BC
330
B6
100
AcDbEntity
  8
0
 62
     0
370
    -2
100
AcDbLine
 10
0.5
 20
0.0
 30
0.0
 11
-0.5
 21
0.0
 31
0.0
  0
ENDBLK
  5
BE
330
B6
100
AcDbEntity
  8
0
100
AcDbBlockEnd
  0
BLOCK
  5
C1
330
BF
100
AcDbEntity
  8
0
100
AcDbBlockBegin
  2
CDWK_PTTYP8
 70
     0
 10
0.0
 20
0.0
 30
0.0
  3
CDWK_PTTYP8
  1

  0
HATCH
  5
C0
330
BF
100
AcDbEntity
  8
0
 62
     0
370
    -2
100
AcDbHatch
 10
0.0
 20
0.0
 30
0.0
210
0.0
220
0.0
230
1.0
  2
SOLID
 70
     1
 71
     1
 91
        1
 92
        3
 72
     0
 73
     1
 93
        4
 10
0.5
 20
0.5
 10
0.5
 20
-0.5
 10
-0.5
 20
-0.5
 10
-0.5
 20
0.5
 97
        0
 75
     0
 76
     1
 98
        0
  0
ENDBLK
  5
C2
330
BF
100
AcDbEntity
  8
0
100
AcDbBlockEnd
  0
BLOCK
  5
C6
330
C3
100
AcDbEntity
  8
0
100
AcDbBlockBegin
  2
CDWK_PTTYP9
 70
     0
 10
0.0
 20
0.0
 30
0.0
  3
CDWK_PTTYP9
  1

  0
CIRCLE
  5
C4
330
C3
100
AcDbEntity
  8
0
 62
     0
370
    -2
100
AcDbCircle
 10
0.0
 20
0.0
 30
0.0
 40
0.1666666666666667
  0
CIRCLE
  5
C5
330
C3
100
AcDbEntity
  8
0
 62
     0
370
    -2
100
AcDbCircle
 10
0.0
 20
0.0
 30
0.0
 40
0.5
  0
ENDBLK
  5
C7
330
C3
100
AcDbEntity
  8
0
100
AcDbBlockEnd
  0
BLOCK
  5
CA
330
C8
100
AcDbEntity
  8
0
100
AcDbBlockBegin
  2
CDWK_PTTYP10
 70
     0
 10
0.0
 20
0.0
 30
0.0
  3
CDWK_PTTYP10
  1

  0
CIRCLE
  5
C9
330
C8
100
AcDbEntity
  8
0
 62
     0
370
    -2
100
AcDbCircle
 10
0.0
 20
0.0
 30
0.0
 40
0.5
  0
ENDBLK
  5
CB
330
C8
100
AcDbEntity
  8
0
100
AcDbBlockEnd
  0
BLOCK
  5
CF
330
CC
100
AcDbEntity
  8
0
100
AcDbBlockBegin
  2
CDWK_PTTYP11
 70
     0
 10
0.0
 20
0.0
 30
0.0
  3
CDWK_PTTYP11
  1

  0
CIRCLE
  5
CD
330
CC
100
AcDbEntity
  8
0
 62
     0
370
    -2
100
AcDbCircle
 10
0.0
 20
0.0
 30
0.0
 40
0.25
  0
CIRCLE
  5
CE
330
CC
100
AcDbEntity
  8
0
 62
     0
370
    -2
100
AcDbCircle
 10
0.0
 20
0.0
 30
0.0
 40
0.5
  0
ENDBLK
  5
D0
330
CC
100
AcDbEntity
  8
0
100
AcDbBlockEnd
  0
BLOCK
  5
D4
330
D1
100
AcDbEntity
  8
0
100
AcDbBlockBegin
  2
CDWK_PTTYP12
 70
     0
 10
0.0
 20
0.0
 30
0.0
  3
CDWK_PTTYP12
  1

  0
CIRCLE
  5
D2
330
D1
100
AcDbEntity
  8
0
 62
     0
370
    -2
100
AcDbCircle
 10
0.25
 20
0.0
 30
0.0
 40
0.25
  0
CIRCLE
  5
D3
330
D1
100
AcDbEntity
  8
0
 62
     0
370
    -2
100
AcDbCircle
 10
0.0
 20
0.0
 30
0.0
 40
0.5
  0
ENDBLK
  5
D5
330
D1
100
AcDbEntity
  8
0
100
AcDbBlockEnd
  0
BLOCK
  5
DA
330
D6
100
AcDbEntity
  8
0
100
AcDbBlockBegin
  2
CDWK_PTTYP13
 70
     0
 10
0.0
 20
0.0
 30
0.0
  3
CDWK_PTTYP13
  1

  0
CIRCLE
  5
D7
330
D6
100
AcDbEntity
  8
0
 62
     0
370
    -2
100
AcDbCircle
 10
-0.25
 20
0.0
 30
0.0
 40
0.25
  0
CIRCLE
  5
D8
330
D6
100
AcDbEntity
  8
0
 62
     0
370
    -2
100
AcDbCircle
 10
0.25
 20
0.0
 30
0.0
 40
0.25
  0
CIRCLE
  5
D9
330
D6
100
AcDbEntity
  8
0
 62
     0
370
    -2
100
AcDbCircle
 10
0.0
 20
0.0
 30
0.0
 40
0.5
  0
ENDBLK
  5
DB
330
D6
100
AcDbEntity
  8
0
100
AcDbBlockEnd
  0
BLOCK
  5
E1
330
DC
100
AcDbEntity
  8
0
100
AcDbBlockBegin
  2
CDWK_PTTYP16
 70
     0
 10
0.0
 20
0.0
 30
0.0
  3
CDWK_PTTYP16
  1

  0
LINE
  5
DD
330
DC
100
AcDbEntity
  8
0
 62
     0
370
    -2
100
AcDbLine
 10
-0.5
 20
-0.289
 30
0.0
 11
0.5
 21
-0.289
 31
0.0
  0
LINE
  5
DE
330
DC
100
AcDbEntity
  8
0
 62
     0
370
    -2
100
AcDbLine
 10
0.5
 20
-0.289
 30
0.0
 11
0.0
 21
0.577
 31
0.0
  0
LINE
  5
DF
330
DC
100
AcDbEntity
  8
0
 62
     0
370
    -2
100
AcDbLine
 10
0.0
 20
0.577
 30
0.0
 11
-0.5
 21
-0.289
 31
0.0
  0
CIRCLE
  5
E0
330
DC
100
AcDbEntity
  8
0
 62
     0
370
    -2
100
AcDbCircle
 10
0.0
 20
0.0
 30
0.0
 40
0.289
  0
ENDBLK
  5
E2
330
DC
100
AcDbEntity
  8
0
100
AcDbBlockEnd
  0
BLOCK
  5
E6
330
E3
100
AcDbEntity
  8
0
100
AcDbBlockBegin
  2
CDWK_PTTYP17
 70
     0
 10
0.0
 20
0.0
 30
0.0
  3
CDWK_PTTYP17
  1

  0
CIRCLE
  5
E4
330
E3
100
AcDbEntity
  8
0
 62
     0
370
    -2
100
AcDbCircle
 10
0.0
 20
0.0
 30
0.0
 40
0.5
  0
HATCH
  5
E5
330
E3
100
AcDbEntity
  8
0
 62
     0
370
    -2
100
AcDbHatch
 10
0.0
 20
0.0
 30
0.0
210
0.0
220
0.0
230
1.0
  2
SOLID
 70
     1
 71
     1
 91
        1
 92
        1
 93
        1
 72
     2
 10
0.0
 20
0.0
 40
0.25
 50
0.0
 51
360.0
 73
     1
 97
        0
 75
     0
 76
     1
 98
        0
  0
ENDBLK
  5
E7
330
E3
100
AcDbEntity
  8
0
100
AcDbBlockEnd
  0
BLOCK
  5
EB
330
E8
100
AcDbEntity
  8
0
100
AcDbBlockBegin
  2
CDWK_PTTYP18
 70
     0
 10
0.0
 20
0.0
 30
0.0
  3
CDWK_PTTYP18
  1

  0
CIRCLE
  5
E9
330
E8
100
AcDbEntity
  8
0
 62
     0
370
    -2
100
AcDbCircle
 10
0.0
 20
0.0
 30
0.0
 40
0.5
  0
CIRCLE
  5
EA
330
E8
100
AcDbEntity
  8
0
 62
     0
370
    -2
100
AcDbCircle
 10
0.0
 20
0.0
 30
0.0
 40
0.208
  0
ENDBLK
  5
EC
330
E8
100
AcDbEntity
  8
0
100
AcDbBlockEnd
  0
BLOCK
  5
F1
330
ED
100
AcDbEntity
  8
0
100
AcDbBlockBegin
  2
CDWK_PTTYP19
 70
     0
 10
0.0
 20
0.0
 30
0.0
  3
CDWK_PTTYP19
  1

  0
CIRCLE
  5
EE
330
ED
100
AcDbEntity
  8
0
 62
     0
370
    -2
100
AcDbCircle
 10
0.0
 20
0.0
 30
0.0
 40
0.25
  0
CIRCLE
  5
EF
330
ED
100
AcDbEntity
  8
0
 62
     0
370
    -2
100
AcDbCircle
 10
0.0
 20
0.0
 30
0.0
 40
0.35
  0
LINE
  5
F0
330
ED
100
AcDbEntity
  8
0
 62
     0
370
    -2
100
AcDbLine
 10
-0.25
 20
0.0
 30
0.0
 11
0.25
 21
0.0
 31
0.0
  0
ENDBLK
  5
F2
330
ED
100
AcDbEntity
  8
0
100
AcDbBlockEnd
  0
BLOCK
  5
F6
330
F3
100
AcDbEntity
  8
0
100
AcDbBlockBegin
  2
CDWK_PTTYP20
 70
     0
 10
0.0
 20
0.0
 30
0.0
  3
CDWK_PTTYP20
  1

  0
CIRCLE
  5
F4
330
F3
100
AcDbEntity
  8
0
 62
     0
370
    -2
100
AcDbCircle
 10
0.0
 20
0.0
 30
0.0
 40
0.3333333333333333
  0
CIRCLE
  5
F5
330
F3
100
AcDbEntity
  8
0
 62
     0
370
    -2
100
AcDbCircle
 10
0.0
 20
0.0
 30
0.0
 40
0.5
  0
ENDBLK
  5
F7
330
F3
100
AcDbEntity
  8
0
100
AcDbBlockEnd
  0
BLOCK
  5
FB
330
F8
100
AcDbEntity
  8
0
100
AcDbBlockBegin
  2
CDWK_PTTYP21
 70
     0
 10
0.0
 20
0.0
 30
0.0
  3
CDWK_PTTYP21
  1

  0
CIRCLE
  5
F9
330
F8
100
AcDbEntity
  8
0
 62
     0
370
    -2
100
AcDbCircle
 10
0.0
 20
0.0
 30
0.0
 40
0.5
  0
LINE
  5
FA
330
F8
100
AcDbEntity
  8
0
 62
     0
370
    -2
100
AcDbLine
 10
-0.5
 20
0.0
 30
0.0
 11
0.5
 21
0.0
 31
0.0
  0
ENDBLK
  5
FC
330
F8
100
AcDbEntity
  8
0
100
AcDbBlockEnd
  0
BLOCK
  5
102
330
FD
100
AcDbEntity
  8
0
100
AcDbBlockBegin
  2
CDWK_PTTYP25
 70
     0
 10
0.0
 20
0.0
 30
0.0
  3
CDWK_PTTYP25
  1

  0
LINE
  5
FE
330
FD
100
AcDbEntity
  8
0
 62
     0
370
    -2
100
AcDbLine
 10
0.0
 20
0.5
 30
0.0
 11
-0.4330127018922193
 21
-0.25
 31
0.0
  0
LINE
  5
FF
330
FD
100
AcDbEntity
  8
0
 62
     0
370
    -2
100
AcDbLine
 10
-0.4330127018922193
 20
-0.25
 30
0.0
 11
0.4330127018922193
 21
-0.25
 31
0.0
  0
LINE
  5
100
330
FD
100
AcDbEntity
  8
0
 62
     0
370
    -2
100
AcDbLine
 10
0.4330127018922193
 20
-0.25
 30
0.0
 11
0.0
 21
0.5
 31
0.0
  0
CIRCLE
  5
101
330
FD
100
AcDbEntity
  8
0
 62
     0
370
    -2
100
AcDbCircle
 10
0.0
 20
0.0
 30
0.0
 40
0.5
  0
ENDBLK
  5
103
330
FD
100
AcDbEntity
  8
0
100
AcDbBlockEnd
  0
BLOCK
  5
109
330
104
100
AcDbEntity
  8
0
100
AcDbBlockBegin
  2
CDWK_PTTYP26
 70
     0
 10
0.0
 20
0.0
 30
0.0
  3
CDWK_PTTYP26
  1

  0
LINE
  5
105
330
104
100
AcDbEntity
  8
0
 62
     0
370
    -2
100
AcDbLine
 10
-0.5
 20
-0.289
 30
0.0
 11
0.5
 21
-0.289
 31
0.0
  0
LINE
  5
106
330
104
100
AcDbEntity
  8
0
 62
     0
370
    -2
100
AcDbLine
 10
0.5
 20
-0.289
 30
0.0
 11
0.0
 21
0.577
 31
0.0
  0
LINE
  5
107
330
104
100
AcDbEntity
  8
0
 62
     0
370
    -2
100
AcDbLine
 10
0.0
 20
0.577
 30
0.0
 11
-0.5
 21
-0.289
 31
0.0
  0
CIRCLE
  5
108
330
104
100
AcDbEntity
  8
0
 62
     0
370
    -2
100
AcDbCircle
 10
0.0
 20
0.0
 30
0.0
 40
0.125
  0
ENDBLK
  5
10A
330
104
100
AcDbEntity
  8
0
100
AcDbBlockEnd
  0
BLOCK
  5
111
330
10B
100
AcDbEntity
  8
0
100
AcDbBlockBegin
  2
CDWK_PTTYP27
 70
     0
 10
0.0
 20
0.0
 30
0.0
  3
CDWK_PTTYP27
  1

  0
LINE
  5
10C
330
10B
100
AcDbEntity
  8
0
 62
     0
370
    -2
100
AcDbLine
 10
0.0
 20
0.5
 30
0.0
 11
-0.4330127018922193
 21
-0.25
 31
0.0
  0
LINE
  5
10D
330
10B
100
AcDbEntity
  8
0
 62
     0
370
    -2
100
AcDbLine
 10
-0.4330127018922193
 20
-0.25
 30
0.0
 11
0.4330127018922193
 21
-0.25
 31
0.0
  0
LINE
  5
10E
330
10B
100
AcDbEntity
  8
0
 62
     0
370
    -2
100
AcDbLine
 10
0.4330127018922193
 20
-0.25
 30
0.0
 11
0.0
 21
0.5
 31
0.0
  0
CIRCLE
  5
10F
330
10B
100
AcDbEntity
  8
0
 62
     0
370
    -2
100
AcDbCircle
 10
0.0
 20
0.0
 30
0.0
 40
0.125
  0
CIRCLE
  5
110
330
10B
100
AcDbEntity
  8
0
 62
     0
370
    -2
100
AcDbCircle
 10
0.0
 20
0.0
 30
0.0
 40
0.5
  0
ENDBLK
  5
112
330
10B
100
AcDbEntity
  8
0
100
AcDbBlockEnd
  0
BLOCK
  5
118
330
113
100
AcDbEntity
  8
0
100
AcDbBlockBegin
  2
CDWK_PTTYP28
 70
     0
 10
0.0
 20
0.0
 30
0.0
  3
CDWK_PTTYP28
  1

  0
LINE
  5
114
330
113
100
AcDbEntity
  8
0
 62
     0
370
    -2
100
AcDbLine
 10
-0.5
 20
0.5
 30
0.0
 11
0.5
 21
0.5
 31
0.0
  0
LINE
  5
115
330
113
100
AcDbEntity
  8
0
 62
     0
370
    -2
100
AcDbLine
 10
0.5
 20
0.5
 30
0.0
 11
-0.5
 21
-0.5
 31
0.0
  0
LINE
  5
116
330
113
100
AcDbEntity
  8
0
 62
     0
370
    -2
100
AcDbLine
 10
0.5
 20
-0.5
 30
0.0
 11
-0.5
 21
-0.5
 31
0.0
  0
LINE
  5
117
330
113
100
AcDbEntity
  8
0
 62
     0
370
    -2
100
AcDbLine
 10
-0.5
 20
0.5
 30
0.0
 11
0.5
 21
-0.5
 31
0.0
  0
ENDBLK
  5
119
330
113
100
AcDbEntity
  8
0
100
AcDbBlockEnd
  0
BLOCK
  5
11E
330
11A
100
AcDbEntity
  8
0
100
AcDbBlockBegin
  2
CDWK_PTTYP29
 70
     0
 10
0.0
 20
0.0
 30
0.0
  3
CDWK_PTTYP29
  1

  0
CIRCLE
  5
11B
330
11A
100
AcDbEntity
  8
0
 62
     0
370
    -2
100
AcDbCircle
 10
0.0
 20
0.0
 30
0.0
 40
0.2
  0
CIRCLE
  5
11C
330
11A
100
AcDbEntity
  8
0
 62
     0
370
    -2
100
AcDbCircle
 10
0.0
 20
0.0
 30
0.0
 40
0.35
  0
CIRCLE
  5
11D
330
11A
100
AcDbEntity
  8
0
 62
     0
370
    -2
100
AcDbCircle
 10
0.0
 20
0.0
 30
0.0
 40
0.5
  0
ENDBLK
  5
11F
330
11A
100
AcDbEntity
  8
0
100
AcDbBlockEnd
  0
BLOCK
  5
125
330
120
100
AcDbEntity
  8
0
100
AcDbBlockBegin
  2
CDWK_PTTYP30
 70
     0
 10
0.0
 20
0.0
 30
0.0
  3
CDWK_PTTYP30
  1

  0
LINE
  5
121
330
120
100
AcDbEntity
  8
0
 62
     0
370
    -2
100
AcDbLine
 10
-0.5
 20
0.5
 30
0.0
 11
-0.1
 21
0.1
 31
0.0
  0
LINE
  5
122
330
120
100
AcDbEntity
  8
0
 62
     0
370
    -2
100
AcDbLine
 10
0.5
 20
0.5
 30
0.0
 11
0.1
 21
0.1
 31
0.0
  0
LINE
  5
123
330
120
100
AcDbEntity
  8
0
 62
     0
370
    -2
100
AcDbLine
 10
0.5
 20
-0.5
 30
0.0
 11
0.1
 21
-0.1
 31
0.0
  0
LINE
  5
124
330
120
100
AcDbEntity
  8
0
 62
     0
370
    -2
100
AcDbLine
 10
-0.5
 20
-0.5
 30
0.0
 11
-0.1
 21
-0.1
 31
0.0
  0
ENDBLK
  5
126
330
120
100
AcDbEntity
  8
0
100
AcDbBlockEnd
  0
BLOCK
  5
12D
330
127
100
AcDbEntity
  8
0
100
AcDbBlockBegin
  2
CDWK_PTTYP31
 70
     0
 10
0.0
 20
0.0
 30
0.0
  3
CDWK_PTTYP31
  1

  0
LINE
  5
128
330
127
100
AcDbEntity
  8
0
 62
     0
370
    -2
100
AcDbLine
 10
-0.5
 20
0.0
 30
0.0
 11
-0.1
 21
0.0
 31
0.0
  0
LINE
  5
129
330
127
100
AcDbEntity
  8
0
 62
     0
370
    -2
100
AcDbLine
 10
0.1
 20
0.0
 30
0.0
 11
0.5
 21
0.0
 31
0.0
  0
LINE
  5
12A
330
127
100
AcDbEntity
  8
0
 62
     0
370
    -2
100
AcDbLine
 10
0.0
 20
0.5
 30
0.0
 11
0.0
 21
0.1
 31
0.0
  0
LINE
  5
12B
330
127
100
AcDbEntity
  8
0
 62
     0
370
    -2
100
AcDbLine
 10
0.0
 20
-0.1
 30
0.0
 11
0.0
 21
-0.5
 31
0.0
  0
CIRCLE
  5
12C
330
127
100
AcDbEntity
  8
0
 62
     0
370
    -2
100
AcDbCircle
 10
0.0
 20
0.0
 30
0.0
 40
0.1
  0
ENDBLK
  5
12E
330
127
100
AcDbEntity
  8
0
100
AcDbBlockEnd
  0
BLOCK
  5
136
330
12F
100
AcDbEntity
  8
0
100
AcDbBlockBegin
  2
CDWK_PTTYP32
 70
     0
 10
0.0
 20
0.0
 30
0.0
  3
CDWK_PTTYP32
  1

  0
CIRCLE
  5
130
330
12F
100
AcDbEntity
  8
0
 62
     0
370
    -2
100
AcDbCircle
 10
0.0
 20
0.0
 30
0.0
 40
0.2
  0
CIRCLE
  5
131
330
12F
100
AcDbEntity
  8
0
 62
     0
370
    -2
100
AcDbCircle
 10
0.0
 20
0.0
 30
0.0
 40
0.5
  0
LINE
  5
132
330
12F
100
AcDbEntity
  8
0
 62
     0
370
    -2
100
AcDbLine
 10
0.1414213562373095
 20
0.1414213562373095
 30
0.0
 11
0.3535533905932738
 21
0.3535533905932738
 31
0.0
  0
LINE
  5
133
330
12F
100
AcDbEntity
  8
0
 62
     0
370
    -2
100
AcDbLine
 10
-0.1414213562373095
 20
0.1414213562373095
 30
0.0
 11
-0.3535533905932738
 21
0.3535533905932738
 31
0.0
  0
LINE
  5
134
330
12F
100
AcDbEntity
  8
0
 62
     0
370
    -2
100
AcDbLine
 10
0.1414213562373095
 20
-0.1414213562373095
 30
0.0
 11
0.3535533905932738
 21
-0.3535533905932738
 31
0.0
  0
LINE
  5
135
330
12F
100
AcDbEntity
  8
0
 62
     0
370
    -2
100
AcDbLine
 10
-0.1414213562373095
 20
-0.1414213562373095
 30
0.0
 11
-0.3535533905932738
 21
-0.3535533905932738
 31
0.0
  0
ENDBLK
  5
137
330
12F
100
AcDbEntity
  8
0
100
AcDbBlockEnd
  0
BLOCK
  5
13C
330
138
100
AcDbEntity
  8
0
100
AcDbBlockBegin
  2
CDWK_PTTYP33
 70
     0
 10
0.0
 20
0.0
 30
0.0
  3
CDWK_PTTYP33
  1

  0
LINE
  5
139
330
138
100
AcDbEntity
  8
0
 62
     0
370
    -2
100
AcDbLine
 10
0.0
 20
-0.5
 30
0.0
 11
0.0
 21
0.5
 31
0.0
  0
LINE
  5
13A
330
138
100
AcDbEntity
  8
0
 62
     0
370
    -2
100
AcDbLine
 10
0.5
 20
0.0
 30
0.0
 11
-0.5
 21
0.0
 31
0.0
  0
CIRCLE
  5
13B
330
138
100
AcDbEntity
  8
0
 62
     0
370
    -2
100
AcDbCircle
 10
0.0
 20
0.0
 30
0.0
 40
0.5
  0
ENDBLK
  5
13D
330
138
100
AcDbEntity
  8
0
100
AcDbBlockEnd
  0
BLOCK
  5
142
330
13E
100
AcDbEntity
  8
0
100
AcDbBlockBegin
  2
CDWK_PTTYP34
 70
     0
 10
0.0
 20
0.0
 30
0.0
  3
CDWK_PTTYP34
  1

  0
CIRCLE
  5
13F
330
13E
100
AcDbEntity
  8
0
 62
     0
370
    -2
100
AcDbCircle
 10
0.0
 20
0.0
 30
0.0
 40
0.5
  0
LINE
  5
140
330
13E
100
AcDbEntity
  8
0
 62
     0
370
    -2
100
AcDbLine
 10
-0.4
 20
-0.3
 30
0.0
 11
0.3
 21
0.4
 31
0.0
  0
LINE
  5
141
330
13E
100
AcDbEntity
  8
0
 62
     0
370
    -2
100
AcDbLine
 10
-0.3
 20
-0.4
 30
0.0
 11
0.4
 21
0.3
 31
0.0
  0
ENDBLK
  5
143
330
13E
100
AcDbEntity
  8
0
100
AcDbBlockEnd
  0
BLOCK
  5
148
330
144
100
AcDbEntity
  8
0
100
AcDbBlockBegin
  2
CDWK_PTTYP35
 70
     0
 10
0.0
 20
0.0
 30
0.0
  3
CDWK_PTTYP35
  1

  0
LINE
  5
145
330
144
100
AcDbEntity
  8
0
 62
     0
370
    -2
100
AcDbLine
 10
0.0
 20
0.2
 30
0.0
 11
0.0
 21
0.5
 31
0.0
  0
LINE
  5
146
330
144
100
AcDbEntity
  8
0
 62
     0
370
    -2
100
AcDbLine
 10
0.0
 20
-0.2
 30
0.0
 11
0.0
 21
-0.5
 31
0.0
  0
CIRCLE
  5
147
330
144
100
AcDbEntity
  8
0
 62
     0
370
    -2
100
AcDbCircle
 10
0.0
 20
0.0
 30
0.0
 40
0.2
  0
ENDBLK
  5
149
330
144
100
AcDbEntity
  8
0
100
AcDbBlockEnd
  0
BLOCK
  5
150
330
14A
100
AcDbEntity
  8
0
100
AcDbBlockBegin
  2
CDWK_PTTYP36
 70
     0
 10
0.0
 20
0.0
 30
0.0
  3
CDWK_PTTYP36
  1

  0
LINE
  5
14B
330
14A
100
AcDbEntity
  8
0
 62
     0
370
    -2
100
AcDbLine
 10
-0.5
 20
0.2
 30
0.0
 11
0.5
 21
0.2
 31
0.0
  0
LINE
  5
14C
330
14A
100
AcDbEntity
  8
0
 62
     0
370
    -2
100
AcDbLine
 10
0.5
 20
0.2
 30
0.0
 11
0.5
 21
-0.2
 31
0.0
  0
LINE
  5
14D
330
14A
100
AcDbEntity
  8
0
 62
     0
370
    -2
100
AcDbLine
 10
0.5
 20
-0.2
 30
0.0
 11
-0.5
 21
-0.2
 31
0.0
  0
LINE
  5
14E
330
14A
100
AcDbEntity
  8
0
 62
     0
370
    -2
100
AcDbLine
 10
-0.5
 20
-0.2
 30
0.0
 11
-0.5
 21
0.2
 31
0.0
  0
HATCH
  5
14F
330
14A
100
AcDbEntity
  8
0
 62
     0
370
    -2
100
AcDbHatch
 10
0.0
 20
0.0
 30
0.0
210
0.0
220
0.0
230
1.0
  2
SOLID
 70
     1
 71
     1
 91
        1
 92
        3
 72
     0
 73
     1
 93
        3
 10
-0.5
 20
-0.2
 10
0.5
 20
-0.2
 10
0.5
 20
0.2
 97
        0
 75
     0
 76
     1
 98
        0
  0
ENDBLK
  5
151
330
14A
100
AcDbEntity
  8
0
100
AcDbBlockEnd
  0
BLOCK
  5
155
330
152
100
AcDbEntity
  8
0
100
AcDbBlockBegin
  2
CDWK_PTTYP37
 70
     0
 10
0.0
 20
0.0
 30
0.0
  3
CDWK_PTTYP37
  1

  0
HATCH
  5
153
330
152
100
AcDbEntity
  8
0
 62
     0
370
    -2
100
AcDbHatch
 10
0.0
 20
0.0
 30
0.0
210
0.0
220
0.0
230
1.0
  2
SOLID
 70
     1
 71
     1
 91
        1
 92
        3
 72
     0
 73
     1
 93
      202
 10
-0.3535533905932738
 20
-0.3535533905932738
 10
-0.3485533905932738
 20
-0.3535533905932737
 10
-0.3435533905932738
 20
-0.3584836591895546
 10
-0.3385533905932738
 20
-0.3632782236961988
 10
-0.3335533905932738
 20
-0.367942389128785
 10
-0.3285533905932738
 20
-0.372481054046687
 10
-0.3235533905932738
 20
-0.3768987523588579
 10
-0.3185533905932738
 20
-0.3811996897107819
 10
-0.3135533905932738
 20
-0.3853877752881235
 10
-0.3085533905932737
 20
-0.3894666497242888
 10
-0.3035533905932737
 20
-0.3934397096803965
 10
-0.2985533905932737
 20
-0.3973101295704999
 10
-0.2935533905932737
 20
-0.4010808808273714
 10
-0.2885533905932737
 20
-0.4047547490409382
 10
-0.2835533905932737
 20
-0.4083343492496384
 10
-0.2785533905932737
 20
-0.4118221396222626
 10
-0.2735533905932737
 20
-0.4152204337324827
 10
-0.2685533905932737
 20
-0.4185314115988474
 10
-0.2635533905932737
 20
-0.4217571296384408
 10
-0.2585533905932737
 20
-0.4248995296617653
 10
-0.2535533905932737
 20
-0.4279604470190231
 10
-0.2485533905932737
 20
-0.4309416179932669
 10
-0.2435533905932737
 20
-0.4338446865234004
 10
-0.2385533905932737
 20
-0.4366712103293738
 10
-0.2335533905932737
 20
-0.439422666502825
 10
-0.2285533905932737
 20
-0.4421004566186126
 10
-0.2235533905932737
 20
-0.4447059114159811
 10
-0.2185533905932737
 20
-0.4472402950923041
 10
-0.2135533905932737
 20
-0.4497048092473372
 10
-0.2085533905932737
 20
-0.4521005965115692
 10
-0.2035533905932737
 20
-0.4544287438884664
 10
-0.1985533905932736
 20
-0.456690285837111
 10
-0.1935533905932736
 20
-0.45888620711884
 10
-0.1885533905932736
 20
-0.4610174454289638
 10
-0.1835533905932736
 20
-0.4630848938324164
 10
-0.1785533905932736
 20
-0.4650894030202291
 10
-0.1735533905932736
 20
-0.4670317834019928
 10
-0.1685533905932736
 20
-0.46891280704794
 10
-0.1635533905932736
 20
-0.4707332094929264
 10
-0.1585533905932736
 20
-0.4724936914133818
 10
-0.1535533905932736
 20
-0.4741949201872336
 10
-0.1485533905932736
 20
-0.4758375313458466
 10
-0.1435533905932736
 20
-0.4774221299261716
 10
-0.1385533905932736
 20
-0.4789492917305286
 10
-0.1335533905932736
 20
-0.4804195645007682
 10
-0.1285533905932736
 20
-0.4818334690129366
 10
-0.1235533905932736
 20
-0.4831915000980183
 10
-0.1185533905932736
 20
-0.4844941275938295
 10
-0.1135533905932736
 20
-0.4857417972326848
 10
-0.1085533905932736
 20
-0.4869349314690531
 10
-0.1035533905932736
 20
-0.4880739302510473
 10
-0.0985533905932736
 20
-0.489159171739258
 10
-0.0935533905932736
 20
-0.4901910129761353
 10
-0.0885533905932736
 20
-0.4911697905088447
 10
-0.0835533905932735
 20
-0.4920958209682695
 10
-0.0785533905932735
 20
-0.4929694016065986
 10
-0.0735533905932735
 20
-0.4937908107957261
 10
-0.0685533905932735
 20
-0.494560308488493
 10
-0.0635533905932735
 20
-0.4952781366446192
 10
-0.0585533905932735
 20
-0.4959445196230107
 10
-0.0535533905932735
 20
-0.4965596645419678
 10
-0.0485533905932735
 20
-0.4971237616086806
 10
-0.0435533905932735
 20
-0.4976369844192622
 10
-0.0385533905932735
 20
-0.4980994902304456
 10
-0.0335533905932735
 20
-0.4985114202039533
 10
-0.0285533905932735
 20
-0.4988728996244386
 10
-0.0235533905932735
 20
-0.4991840380917923
 10
-0.0185533905932735
 20
-0.49944492968851
 10
-0.0135533905932735
 20
-0.4996556531227215
 10
-0.0085533905932735
 20
-0.4998162718473921
 10
-0.0035533905932735
 20
-0.4999268341561182
 10
0.0014466094067265
 20
-0.499987373255857
 10
0.0064466094067265
 20
-0.4999979073168451
 10
0.0114466094067265
 20
-0.4999584394998819
 10
0.0164466094067265
 20
-0.4998689579610739
 10
0.0214466094067265
 20
-0.4997294358340547
 10
0.0264466094067265
 20
-0.4995398311896213
 10
0.0314466094067265
 20
-0.4993000869726422
 10
0.0364466094067265
 20
-0.4990101309160174
 10
0.0414466094067265
 20
-0.4986698754313855
 10
0.0464466094067265
 20
-0.498279217476192
 10
0.0514466094067265
 20
-0.4978380383966446
 10
0.0564466094067265
 20
-0.497346203745994
 10
0.0614466094067265
 20
-0.4968035630774849
 10
0.0664466094067264
 20
-0.4962099497112257
 10
0.0714466094067265
 20
-0.4955651804741228
 10
0.0764466094067265
 20
-0.4948690554119167
 10
0.0814466094067265
 20
-0.4941213574722463
 10
0.0864466094067265
 20
-0.4933218521575424
 10
0.0914466094067265
 20
-0.4924702871464235
 10
0.0964466094067265
 20
-0.4915663918821278
 10
0.1014466094067265
 20
-0.4906098771263643
 10
0.1064466094067265
 20
-0.4896004344768079
 10
0.1114466094067265
 20
-0.4885377358462822
 10
0.1164466094067265
 20
-0.4874214329014929
 10
0.1214466094067265
 20
-0.4862511564589613
 10
0.1264466094067265
 20
-0.4850265158355881
 10
0.1314466094067265
 20
-0.4837470981510305
 10
0.1364466094067265
 20
-0.482412467578809
 10
0.1414466094067265
 20
-0.4810221645427664
 10
0.1464466094067265
 20
-0.4795757048551781
 10
0.1514466094067265
 20
-0.4780725787924608
 10
0.1564466094067265
 20
-0.4765122501040308
 10
0.1614466094067265
 20
-0.4748941549494363
 10
0.1664466094067265
 20
-0.4732177007584056
 10
0.1714466094067265
 20
-0.4714822650079264
 10
0.1764466094067265
 20
-0.4696871939098801
 10
0.1814466094067266
 20
-0.4678318010021017
 10
0.1864466094067266
 20
-0.4659153656350076
 10
0.1914466094067266
 20
-0.4639371313451162
 10
0.1964466094067266
 20
-0.4618963041058764
 10
0.2014466094067266
 20
-0.4597920504451997
 10
0.2064466094067266
 20
-0.4576234954179405
 10
0.2114466094067266
 20
-0.4553897204202862
 10
0.2164466094067266
 20
-0.4530897608315588
 10
0.2214466094067266
 20
-0.45072260346729
 10
0.2264466094067266
 20
-0.4482871838255748
 10
0.2314466094067266
 20
-0.4457823831065977
 10
0.2364466094067266
 20
-0.4432070249828292
 10
0.2414466094067266
 20
-0.4405598720946596
 10
0.2464466094067266
 20
-0.4378396222431172
 10
0.2514466094067266
 20
-0.4350449042477435
 10
0.2564466094067266
 20
-0.4321742734336012
 10
0.2614466094067266
 20
-0.4292262067066663
 10
0.2664466094067266
 20
-0.4261990971714118
 10
0.2714466094067266
 20
-0.4230912482380831
 10
0.2764466094067266
 20
-0.4199008671598476
 10
0.2814466094067266
 20
-0.4166260579314797
 10
0.2864466094067266
 20
-0.4132648134712868
 10
0.2914466094067266
 20
-0.4098150069963156
 10
0.2964466094067266
 20
-0.4062743824871597
 10
0.3014466094067266
 20
-0.4026405441224911
 10
0.3064466094067266
 20
-0.3989109445442534
 10
0.3114466094067266
 20
-0.3950828717916294
 10
0.3164466094067266
 20
-0.391153434714632
 10
0.3214466094067266
 20
-0.3871195466454601
 10
0.3264466094067267
 20
-0.3829779070663467
 10
0.3314466094067267
 20
-0.3787249809648844
 10
0.3364466094067267
 20
-0.3743569755097196
 10
0.3414466094067267
 20
-0.3698698136084067
 10
0.3464466094067267
 20
-0.3652591038217257
 10
0.3514466094067267
 20
-0.3605201060004601
 10
0.3564466094067267
 20
-0.3556476918757041
 10
0.3614466094067267
 20
-0.3506362996645505
 10
0.3664466094067267
 20
-0.34547988153926
 10
0.3714466094067267
 20
-0.3401718425359658
 10
0.3764466094067267
 20
-0.334704969129899
 10
0.3814466094067267
 20
-0.3290713452523318
 10
0.3864466094067267
 20
-0.3232622529342269
 10
0.3914466094067267
 20
-0.3172680539828188
 10
0.3964466094067267
 20
-0.3110780480586465
 10
0.4014466094067267
 20
-0.304680301118911
 10
0.4064466094067267
 20
-0.2980614362775617
 10
0.4114466094067267
 20
-0.291206376478565
 10
0.4164466094067267
 20
-0.2840980246459106
 10
0.4214466094067267
 20
-0.276716861635935
 10
0.4264466094067267
 20
-0.2690404345439063
 10
0.4314466094067267
 20
-0.2610426963649944
 10
0.4364466094067267
 20
-0.2526931404518915
 10
0.4414466094067268
 20
-0.2439556458403291
 10
0.4464466094067268
 20
-0.2347869056044327
 10
0.4514466094067268
 20
-0.2251342376211081
 10
0.4564466094067268
 20
-0.2149324518428296
 10
0.4614466094067268
 20
-0.2040992228331676
 10
0.4664466094067268
 20
-0.1925279893081412
 10
0.4714466094067268
 20
-0.1800765408735088
 10
0.4764466094067268
 20
-0.1665475742210051
 10
0.4814466094067268
 20
-0.1516529867323223
 10
0.4864466094067268
 20
-0.1349413290684758
 10
0.4914466094067268
 20
-0.1156274024472547
 10
0.4964466094067268
 20
-0.0920881648347501
 10
0.5
 20
0.0
 10
0.495
 20
0.0
 10
0.49
 20
0.0705336798983295
 10
0.485
 20
0.0994987437106621
 10
0.48
 20
0.1215524578114322
 10
0.475
 20
0.14
 10
0.47
 20
0.15612494995996
 10
0.465
 20
0.1705872210923199
 10
0.46
 20
0.1837797594948911
 10
0.455
 20
0.1959591794226544
 10
0.45
 20
0.2073041244162789
 10
0.445
 20
0.2179449471770338
 10
0.4399999999999999
 20
0.2279802623035601
 10
0.4349999999999999
 20
0.2374868417407584
 10
0.4299999999999999
 20
0.2465258607124211
 10
0.4249999999999999
 20
0.2551470164434615
 10
0.4199999999999999
 20
0.2633913438213186
 10
0.4149999999999999
 20
0.2712931993250108
 10
0.4099999999999999
 20
0.2788816953476869
 10
0.4049999999999999
 20
0.2861817604250838
 10
0.3999999999999999
 20
0.2932149382279151
 10
0.3949999999999999
 20
0.3000000000000002
 10
0.3899999999999999
 20
0.3065534211193868
 10
0.3849999999999999
 20
0.3128897569432404
 10
0.3799999999999999
 20
0.3190219428189855
 10
0.3749999999999999
 20
0.3249615361854385
 10
0.3699999999999999
 20
0.330718913883074
 10
0.3649999999999999
 20
0.3363034344160049
 10
0.3599999999999999
 20
0.3417235724968357
 10
0.3549999999999999
 20
0.3469870314579496
 10
0.3535533905932738
 20
0.3535533905932738
 97
        0
 75
     0
 76
     1
 98
        0
  0
CIRCLE
  5
154
330
152
100
AcDbEntity
  8
0
 62
     0
370
    -2
100
AcDbCircle
 10
0.0
 20
0.0
 30
0.0
 40
0.5
  0
ENDBLK
  5
156
330
152
100
AcDbEntity
  8
0
100
AcDbBlockEnd
  0
BLOCK
  5
15B
330
157
100
AcDbEntity
  8
0
100
AcDbBlockBegin
  2
CDWK_PTTYP38
 70
     0
 10
0.0
 20
0.0
 30
0.0
  3
CDWK_PTTYP38
  1

  0
HATCH
  5
158
330
157
100
AcDbEntity
  8
0
 62
     0
370
    -2
100
AcDbHatch
 10
0.0
 20
0.0
 30
0.0
210
0.0
220
0.0
230
1.0
  2
SOLID
 70
     1
 71
     1
 91
        1
 92
        3
 72
     0
 73
     1
 93
      102
 10
0.0
 20
0.0
 10
0.0
 20
0.5
 10
0.005
 20
0.5
 10
0.01
 20
0.4999749993749688
 10
0.015
 20
0.4998999899979995
 10
0.02
 20
0.4997749493522059
 10
0.025
 20
0.4995998398718718
 10
0.03
 20
0.4993746088859545
 10
0.035
 20
0.4990991885387112
 10
0.04
 20
0.4987734956871706
 10
0.045
 20
0.4983974317750845
 10
0.05
 20
0.4979708826829135
 10
0.055
 20
0.49749371855331
 10
0.06
 20
0.4969657935914704
 10
0.065
 20
0.4963869458396343
 10
0.07
 20
0.4957569969249047
 10
0.075
 20
0.4950757517794626
 10
0.08
 20
0.4943429983321297
 10
0.085
 20
0.4935585071701227
 10
0.09
 20
0.4927220311697053
 10
0.095
 20
0.4918333050943175
 10
0.1
 20
0.4908920451586071
 10
0.105
 20
0.4898979485566356
 10
0.11
 20
0.4888506929523574
 10
0.115
 20
0.4877499359302879
 10
0.12
 20
0.4865953144040744
 10
0.125
 20
0.4853864439804639
 10
0.13
 20
0.4841229182759271
 10
0.135
 20
0.4828043081829325
 10
0.14
 20
0.4814301610825811
 10
0.145
 20
0.48
 10
0.15
 20
0.478513322698543
 10
0.1550000000000001
 20
0.4769696007084728
 10
0.1600000000000001
 20
0.4753682782853731
 10
0.1650000000000001
 20
0.4737087712930804
 10
0.1700000000000001
 20
0.4719904660054056
 10
0.1750000000000001
 20
0.4702127178203498
 10
0.1800000000000001
 20
0.4683748498798799
 10
0.1850000000000001
 20
0.466476151587624
 10
0.1900000000000001
 20
0.4645158770160606
 10
0.1950000000000001
 20
0.4624932431938871
 10
0.2000000000000001
 20
0.460407428263272
 10
0.2050000000000001
 20
0.4582575694955839
 10
0.2100000000000001
 20
0.4560427611529427
 10
0.2150000000000001
 20
0.4537620521815371
 10
0.2200000000000001
 20
0.4514144437210665
 10
0.2250000000000001
 20
0.4489988864128729
 10
0.2300000000000001
 20
0.4465142774872937
 10
0.2350000000000001
 20
0.4439594576084622
 10
0.2400000000000001
 20
0.4413332074521472
 10
0.2450000000000001
 20
0.4386342439892261
 10
0.2500000000000001
 20
0.4358612164439502
 10
0.2550000000000001
 20
0.4330127018922192
 10
0.2600000000000001
 20
0.4300872004605577
 10
0.2650000000000001
 20
0.4270831300812524
 10
0.2700000000000001
 20
0.423998820753077
 10
0.2750000000000001
 20
0.4208325082500162
 10
0.2800000000000001
 20
0.4175823272122516
 10
0.2850000000000001
 20
0.4142463035441595
 10
0.2900000000000001
 20
0.4108223460329293
 10
0.2950000000000002
 20
0.4073082370883259
 10
0.3000000000000002
 20
0.403701622488689
 10
0.3050000000000002
 20
0.3999999999999999
 10
0.3100000000000002
 20
0.3962007067131506
 10
0.3150000000000002
 20
0.3923009049186605
 10
0.3200000000000002
 20
0.3882975663070783
 10
0.3250000000000002
 20
0.3841874542459708
 10
0.3300000000000002
 20
0.3799671038392664
 10
0.3350000000000002
 20
0.3756327994198588
 10
0.3400000000000002
 20
0.3711805490593491
 10
0.3450000000000002
 20
0.366606055596467
 10
0.3500000000000002
 20
0.3619046835839512
 10
0.3550000000000002
 20
0.3570714214271423
 10
0.3600000000000002
 20
0.3521008378291649
 10
0.3650000000000002
 20
0.3469870314579492
 10
0.3700000000000002
 20
0.3417235724968353
 10
0.3750000000000002
 20
0.3363034344160045
 10
0.3800000000000002
 20
0.3307189138830736
 10
0.3850000000000002
 20
0.3249615361854382
 10
0.3900000000000002
 20
0.3190219428189851
 10
0.3950000000000002
 20
0.31288975694324
 10
0.4000000000000002
 20
0.3065534211193863
 10
0.4050000000000002
 20
0.2999999999999997
 10
0.4100000000000003
 20
0.2932149382279147
 10
0.4150000000000003
 20
0.2861817604250834
 10
0.4200000000000003
 20
0.2788816953476864
 10
0.4250000000000003
 20
0.2712931993250103
 10
0.4300000000000003
 20
0.263391343821318
 10
0.4350000000000003
 20
0.255147016443461
 10
0.4400000000000003
 20
0.2465258607124206
 10
0.4450000000000003
 20
0.2374868417407578
 10
0.4500000000000003
 20
0.2279802623035594
 10
0.4550000000000003
 20
0.2179449471770331
 10
0.4600000000000003
 20
0.2073041244162782
 10
0.4650000000000003
 20
0.1959591794226536
 10
0.4700000000000003
 20
0.1837797594948903
 10
0.4750000000000003
 20
0.170587221092319
 10
0.4800000000000003
 20
0.156124949959959
 10
0.4850000000000003
 20
0.1399999999999989
 10
0.4900000000000003
 20
0.1215524578114309
 10
0.4950000000000003
 20
0.0994987437106604
 10
0.5
 20
0.0
 97
        0
 75
     0
 76
     1
 98
        0
  0
HATCH
  5
159
330
157
100
AcDbEntity
  8
0
 62
     0
370
    -2
100
AcDbHatch
 10
0.0
 20
0.0
 30
0.0
210
0.0
220
0.0
230
1.0
  2
SOLID
 70
     1
 71
     1
 91
        1
 92
        3
 72
     0
 73
     1
 93
      102
 10
0.0
 20
0.0
 10
-0.5
 20
0.0
 10
-0.495
 20
0.0
 10
-0.49
 20
-0.0705336798983295
 10
-0.485
 20
-0.0994987437106621
 10
-0.48
 20
-0.1215524578114322
 10
-0.475
 20
-0.14
 10
-0.47
 20
-0.15612494995996
 10
-0.465
 20
-0.1705872210923199
 10
-0.46
 20
-0.1837797594948911
 10
-0.455
 20
-0.1959591794226544
 10
-0.45
 20
-0.2073041244162789
 10
-0.445
 20
-0.2179449471770338
 10
-0.4399999999999999
 20
-0.2279802623035601
 10
-0.4349999999999999
 20
-0.2374868417407584
 10
-0.4299999999999999
 20
-0.2465258607124211
 10
-0.4249999999999999
 20
-0.2551470164434615
 10
-0.4199999999999999
 20
-0.2633913438213186
 10
-0.4149999999999999
 20
-0.2712931993250108
 10
-0.4099999999999999
 20
-0.2788816953476869
 10
-0.4049999999999999
 20
-0.2861817604250838
 10
-0.3999999999999999
 20
-0.2932149382279151
 10
-0.3949999999999999
 20
-0.3000000000000002
 10
-0.3899999999999999
 20
-0.3065534211193868
 10
-0.3849999999999999
 20
-0.3128897569432404
 10
-0.3799999999999999
 20
-0.3190219428189855
 10
-0.3749999999999999
 20
-0.3249615361854385
 10
-0.3699999999999999
 20
-0.330718913883074
 10
-0.3649999999999999
 20
-0.3363034344160049
 10
-0.3599999999999999
 20
-0.3417235724968357
 10
-0.3549999999999999
 20
-0.3469870314579496
 10
-0.3499999999999999
 20
-0.3521008378291652
 10
-0.3449999999999999
 20
-0.3570714214271427
 10
-0.3399999999999999
 20
-0.3619046835839516
 10
-0.3349999999999999
 20
-0.3666060555964674
 10
-0.3299999999999998
 20
-0.3711805490593494
 10
-0.3249999999999998
 20
-0.3756327994198591
 10
-0.3199999999999998
 20
-0.3799671038392667
 10
-0.3149999999999998
 20
-0.3841874542459711
 10
-0.3099999999999998
 20
-0.3882975663070786
 10
-0.3049999999999998
 20
-0.3923009049186608
 10
-0.2999999999999998
 20
-0.3962007067131507
 10
-0.2949999999999998
 20
-0.4000000000000001
 10
-0.2899999999999998
 20
-0.4037016224886891
 10
-0.2849999999999998
 20
-0.4073082370883261
 10
-0.2799999999999998
 20
-0.4108223460329296
 10
-0.2749999999999998
 20
-0.4142463035441597
 10
-0.2699999999999998
 20
-0.4175823272122518
 10
-0.2649999999999998
 20
-0.4208325082500164
 10
-0.2599999999999998
 20
-0.4239988207530773
 10
-0.2549999999999998
 20
-0.4270831300812526
 10
-0.2499999999999998
 20
-0.4300872004605579
 10
-0.2449999999999998
 20
-0.4330127018922195
 10
-0.2399999999999998
 20
-0.4358612164439503
 10
-0.2349999999999998
 20
-0.4386342439892263
 10
-0.2299999999999998
 20
-0.4413332074521473
 10
-0.2249999999999998
 20
-0.4439594576084624
 10
-0.2199999999999998
 20
-0.4465142774872939
 10
-0.2149999999999997
 20
-0.4489988864128731
 10
-0.2099999999999997
 20
-0.4514144437210667
 10
-0.2049999999999997
 20
-0.4537620521815372
 10
-0.1999999999999997
 20
-0.4560427611529429
 10
-0.1949999999999997
 20
-0.4582575694955841
 10
-0.1899999999999997
 20
-0.4604074282632722
 10
-0.1849999999999997
 20
-0.4624932431938872
 10
-0.1799999999999997
 20
-0.4645158770160608
 10
-0.1749999999999997
 20
-0.4664761515876241
 10
-0.1699999999999997
 20
-0.46837484987988
 10
-0.1649999999999997
 20
-0.47021271782035
 10
-0.1599999999999997
 20
-0.4719904660054058
 10
-0.1549999999999997
 20
-0.4737087712930805
 10
-0.1499999999999997
 20
-0.4753682782853733
 10
-0.1449999999999997
 20
-0.4769696007084729
 10
-0.1399999999999997
 20
-0.4785133226985431
 10
-0.1349999999999997
 20
-0.4800000000000001
 10
-0.1299999999999997
 20
-0.4814301610825812
 10
-0.1249999999999997
 20
-0.4828043081829325
 10
-0.1199999999999997
 20
-0.4841229182759272
 10
-0.1149999999999997
 20
-0.485386443980464
 10
-0.1099999999999997
 20
-0.4865953144040744
 10
-0.1049999999999996
 20
-0.487749935930288
 10
-0.0999999999999996
 20
-0.4888506929523574
 10
-0.0949999999999996
 20
-0.4898979485566357
 10
-0.0899999999999996
 20
-0.4908920451586072
 10
-0.0849999999999996
 20
-0.4918333050943176
 10
-0.0799999999999996
 20
-0.4927220311697053
 10
-0.0749999999999996
 20
-0.4935585071701227
 10
-0.0699999999999996
 20
-0.4943429983321298
 10
-0.0649999999999996
 20
-0.4950757517794626
 10
-0.0599999999999996
 20
-0.4957569969249048
 10
-0.0549999999999996
 20
-0.4963869458396343
 10
-0.0499999999999996
 20
-0.4969657935914705
 10
-0.0449999999999996
 20
-0.49749371855331
 10
-0.0399999999999996
 20
-0.4979708826829135
 10
-0.0349999999999996
 20
-0.4983974317750846
 10
-0.0299999999999996
 20
-0.4987734956871706
 10
-0.0249999999999996
 20
-0.4990991885387112
 10
-0.0199999999999996
 20
-0.4993746088859545
 10
-0.0149999999999996
 20
-0.4995998398718719
 10
-0.0099999999999996
 20
-0.499774949352206
 10
-0.0049999999999996
 20
-0.4998999899979995
 10
0.0
 20
-0.5
 97
        0
 75
     0
 76
     1
 98
        0
  0
CIRCLE
  5
15A
330
157
100
AcDbEntity
  8
0
 62
     0
370
    -2
100
AcDbCircle
 10
0.0
 20
0.0
 30
0.0
 40
0.5
  0
ENDBLK
  5
15C
330
157
100
AcDbEntity
  8
0
100
AcDbBlockEnd
  0
BLOCK
  5
165
330
15D
100
AcDbEntity
  8
0
100
AcDbBlockBegin
  2
CDWK_PTTYP41
 70
     0
 10
0.0
 20
0.0
 30
0.0
  3
CDWK_PTTYP41
  1

  0
LINE
  5
15E
330
15D
100
AcDbEntity
  8
0
 62
     0
370
    -2
100
AcDbLine
 10
-0.5
 20
0.5
 30
0.0
 11
0.5
 21
0.5
 31
0.0
  0
LINE
  5
15F
330
15D
100
AcDbEntity
  8
0
 62
     0
370
    -2
100
AcDbLine
 10
0.5
 20
0.5
 30
0.0
 11
0.5
 21
-0.5
 31
0.0
  0
LINE
  5
160
330
15D
100
AcDbEntity
  8
0
 62
     0
370
    -2
100
AcDbLine
 10
0.5
 20
-0.5
 30
0.0
 11
-0.5
 21
-0.5
 31
0.0
  0
LINE
  5
161
330
15D
100
AcDbEntity
  8
0
 62
     0
370
    -2
100
AcDbLine
 10
-0.5
 20
-0.5
 30
0.0
 11
-0.5
 21
0.5
 31
0.0
  0
LINE
  5
162
330
15D
100
AcDbEntity
  8
0
 62
     0
370
    -2
100
AcDbLine
 10
-0.375
 20
0.25
 30
0.0
 11
0.375
 21
0.25
 31
0.0
  0
LINE
  5
163
330
15D
100
AcDbEntity
  8
0
 62
     0
370
    -2
100
AcDbLine
 10
-0.375
 20
0.0
 30
0.0
 11
0.375
 21
0.0
 31
0.0
  0
LINE
  5
164
330
15D
100
AcDbEntity
  8
0
 62
     0
370
    -2
100
AcDbLine
 10
-0.375
 20
-0.25
 30
0.0
 11
0.375
 21
-0.25
 31
0.0
  0
ENDBLK
  5
166
330
15D
100
AcDbEntity
  8
0
100
AcDbBlockEnd
  0
BLOCK
  5
16E
330
167
100
AcDbEntity
  8
0
100
AcDbBlockBegin
  2
CDWK_PTTYP42
 70
     0
 10
0.0
 20
0.0
 30
0.0
  3
CDWK_PTTYP42
  1

  0
LINE
  5
168
330
167
100
AcDbEntity
  8
0
 62
     0
370
    -2
100
AcDbLine
 10
-0.5
 20
0.5
 30
0.0
 11
0.5
 21
0.5
 31
0.0
  0
LINE
  5
169
330
167
100
AcDbEntity
  8
0
 62
     0
370
    -2
100
AcDbLine
 10
0.5
 20
0.5
 30
0.0
 11
0.5
 21
-0.5
 31
0.0
  0
LINE
  5
16A
330
167
100
AcDbEntity
  8
0
 62
     0
370
    -2
100
AcDbLine
 10
0.5
 20
-0.5
 30
0.0
 11
-0.5
 21
-0.5
 31
0.0
  0
LINE
  5
16B
330
167
100
AcDbEntity
  8
0
 62
     0
370
    -2
100
AcDbLine
 10
-0.5
 20
-0.5
 30
0.0
 11
-0.5
 21
0.5
 31
0.0
  0
LINE
  5
16C
330
167
100
AcDbEntity
  8
0
 62
     0
370
    -2
100
AcDbLine
 10
-0.375
 20
0.125
 30
0.0
 11
0.375
 21
0.125
 31
0.0
  0
LINE
  5
16D
330
167
100
AcDbEntity
  8
0
 62
     0
370
    -2
100
AcDbLine
 10
-0.375
 20
-0.125
 30
0.0
 11
0.375
 21
-0.125
 31
0.0
  0
ENDBLK
  5
16F
330
167
100
AcDbEntity
  8
0
100
AcDbBlockEnd
  0
BLOCK
  5
174
330
170
100
AcDbEntity
  8
0
100
AcDbBlockBegin
  2
CDWK_PTTYP43
 70
     0
 10
0.0
 20
0.0
 30
0.0
  3
CDWK_PTTYP43
  1

  0
CIRCLE
  5
171
330
170
100
AcDbEntity
  8
0
 62
     0
370
    -2
100
AcDbCircle
 10
0.0
 20
0.0
 30
0.0
 40
0.5
  0
LINE
  5
172
330
170
100
AcDbEntity
  8
0
 62
     0
370
    -2
100
AcDbLine
 10
-0.375
 20
0.166
 30
0.0
 11
0.375
 21
0.166
 31
0.0
  0
LINE
  5
173
330
170
100
AcDbEntity
  8
0
 62
     0
370
    -2
100
AcDbLine
 10
-0.375
 20
-0.166
 30
0.0
 11
0.375
 21
-0.166
 31
0.0
  0
ENDBLK
  5
175
330
170
100
AcDbEntity
  8
0
100
AcDbBlockEnd
  0
BLOCK
  5
17D
330
176
100
AcDbEntity
  8
0
100
AcDbBlockBegin
  2
CDWK_PTTYP44
 70
     0
 10
0.0
 20
0.0
 30
0.0
  3
CDWK_PTTYP44
  1

  0
CIRCLE
  5
177
330
176
100
AcDbEntity
  8
0
 62
     0
370
    -2
100
AcDbCircle
 10
0.0
 20
0.0
 30
0.0
 40
0.5
  0
LINE
  5
178
330
176
100
AcDbEntity
  8
0
 62
     0
370
    -2
100
AcDbLine
 10
-0.375
 20
0.333
 30
0.0
 11
0.375
 21
0.333
 31
0.0
  0
LINE
  5
179
330
176
100
AcDbEntity
  8
0
 62
     0
370
    -2
100
AcDbLine
 10
-0.375
 20
0.166
 30
0.0
 11
0.375
 21
0.166
 31
0.0
  0
LINE
  5
17A
330
176
100
AcDbEntity
  8
0
 62
     0
370
    -2
100
AcDbLine
 10
-0.375
 20
0.0
 30
0.0
 11
0.375
 21
0.0
 31
0.0
  0
LINE
  5
17B
330
176
100
AcDbEntity
  8
0
 62
     0
370
    -2
100
AcDbLine
 10
-0.375
 20
-0.166
 30
0.0
 11
0.375
 21
-0.166
 31
0.0
  0
LINE
  5
17C
330
176
100
AcDbEntity
  8
0
 62
     0
370
    -2
100
AcDbLine
 10
-0.375
 20
-0.333
 30
0.0
 11
0.375
 21
-0.333
 31
0.0
  0
ENDBLK
  5
17E
330
176
100
AcDbEntity
  8
0
100
AcDbBlockEnd
  0
BLOCK
  5
182
330
17F
100
AcDbEntity
  8
0
100
AcDbBlockBegin
  2
CDWK_PTTYP45
 70
     0
 10
0.0
 20
0.0
 30
0.0
  3
CDWK_PTTYP45
  1

  0
ELLIPSE
  5
180
330
17F
100
AcDbEntity
  8
0
 62
     0
370
    -2
100
AcDbEllipse
 10
0.0
 20
0.0
 30
0.0
 11
0.5
 21
0.0
 31
0.0
210
0.0
220
0.0
230
1.0
 40
0.82
 41
0.0
 42
6.283185307179586
  0
CIRCLE
  5
181
330
17F
100
AcDbEntity
  8
0
 62
     0
370
    -2
100
AcDbCircle
 10
-0.235
 20
0.0
 30
0.0
 40
0.26
  0
ENDBLK
  5
183
330
17F
100
AcDbEntity
  8
0
100
AcDbBlockEnd
  0
BLOCK
  5
187
330
184
100
AcDbEntity
  8
0
100
AcDbBlockBegin
  2
CDWK_PTTYP46
 70
     0
 10
0.0
 20
0.0
 30
0.0
  3
CDWK_PTTYP46
  1

  0
ELLIPSE
  5
185
330
184
100
AcDbEntity
  8
0
 62
     0
370
    -2
100
AcDbEllipse
 10
0.0
 20
0.0
 30
0.0
 11
0.5
 21
0.0
 31
0.0
210
0.0
220
0.0
230
1.0
 40
0.82
 41
0.0
 42
6.283185307179586
  0
CIRCLE
  5
186
330
184
100
AcDbEntity
  8
0
 62
     0
370
    -2
100
AcDbCircle
 10
0.0
 20
0.15
 30
0.0
 40
0.26
  0
ENDBLK
  5
188
330
184
100
AcDbEntity
  8
0
100
AcDbBlockEnd
  0
BLOCK
  5
18F
330
189
100
AcDbEntity
  8
0
100
AcDbBlockBegin
  2
CDWK_PTTYP47
 70
     0
 10
0.0
 20
0.0
 30
0.0
  3
CDWK_PTTYP47
  1

  0
LINE
  5
18A
330
189
100
AcDbEntity
  8
0
 62
     0
370
    -2
100
AcDbLine
 10
-0.5
 20
0.166
 30
0.0
 11
0.5
 21
0.166
 31
0.0
  0
LINE
  5
18B
330
189
100
AcDbEntity
  8
0
 62
     0
370
    -2
100
AcDbLine
 10
0.5
 20
0.166
 30
0.0
 11
0.5
 21
-0.166
 31
0.0
  0
LINE
  5
18C
330
189
100
AcDbEntity
  8
0
 62
     0
370
    -2
100
AcDbLine
 10
0.5
 20
-0.166
 30
0.0
 11
-0.5
 21
-0.166
 31
0.0
  0
LINE
  5
18D
330
189
100
AcDbEntity
  8
0
 62
     0
370
    -2
100
AcDbLine
 10
-0.5
 20
-0.166
 30
0.0
 11
-0.5
 21
0.166
 31
0.0
  0
CIRCLE
  5
18E
330
189
100
AcDbEntity
  8
0
 62
     0
370
    -2
100
AcDbCircle
 10
0.0
 20
-0.313
 30
0.0
 40
0.4
  0
ENDBLK
  5
190
330
189
100
AcDbEntity
  8
0
100
AcDbBlockEnd
  0
BLOCK
  5
195
330
192
100
AcDbEntity
  8
0
100
AcDbBlockBegin
  2
CDWK_PTTYP48
 70
     0
 10
0.0
 20
0.0
 30
0.0
  3
CDWK_PTTYP48
  1

  0
CIRCLE
  5
193
330
192
100
AcDbEntity
  8
0
  6
CADWORK_3
 62
     0
 48
0.1
370
    -2
100
AcDbCircle
 10
0.0
 20
0.0
 30
0.0
 40
0.5
  0
CIRCLE
  5
194
330
192
100
AcDbEntity
  8
0
 62
     0
370
    -2
100
AcDbCircle
 10
0.0
 20
0.0
 30
0.0
 40
0.25
  0
ENDBLK
  5
196
330
192
100
AcDbEntity
  8
0
100
AcDbBlockEnd
  0
BLOCK
  5
19C
330
197
100
AcDbEntity
  8
0
100
AcDbBlockBegin
  2
CDWK_PTTYP49
 70
     0
 10
0.0
 20
0.0
 30
0.0
  3
CDWK_PTTYP49
  1

  0
LINE
  5
198
330
197
100
AcDbEntity
  8
0
 62
     0
370
    -2
100
AcDbLine
 10
-0.5
 20
0.166
 30
0.0
 11
0.5
 21
0.166
 31
0.0
  0
LINE
  5
199
330
197
100
AcDbEntity
  8
0
 62
     0
370
    -2
100
AcDbLine
 10
0.5
 20
0.166
 30
0.0
 11
0.5
 21
-0.166
 31
0.0
  0
LINE
  5
19A
330
197
100
AcDbEntity
  8
0
 62
     0
370
    -2
100
AcDbLine
 10
0.5
 20
-0.166
 30
0.0
 11
-0.5
 21
-0.166
 31
0.0
  0
LINE
  5
19B
330
197
100
AcDbEntity
  8
0
 62
     0
370
    -2
100
AcDbLine
 10
-0.5
 20
-0.166
 30
0.0
 11
-0.5
 21
0.166
 31
0.0
  0
ENDBLK
  5
19D
330
197
100
AcDbEntity
  8
0
100
AcDbBlockEnd
  0
BLOCK
  5
1A6
330
19E
100
AcDbEntity
  8
0
100
AcDbBlockBegin
  2
CDWK_PTTYP50
 70
     0
 10
0.0
 20
0.0
 30
0.0
  3
CDWK_PTTYP50
  1

  0
LINE
  5
19F
330
19E
100
AcDbEntity
  8
0
 62
     0
370
    -2
100
AcDbLine
 10
-0.5
 20
0.166
 30
0.0
 11
0.5
 21
0.166
 31
0.0
  0
LINE
  5
1A0
330
19E
100
AcDbEntity
  8
0
 62
     0
370
    -2
100
AcDbLine
 10
0.5
 20
0.166
 30
0.0
 11
0.5
 21
-0.166
 31
0.0
  0
LINE
  5
1A1
330
19E
100
AcDbEntity
  8
0
 62
     0
370
    -2
100
AcDbLine
 10
0.5
 20
-0.166
 30
0.0
 11
-0.5
 21
-0.166
 31
0.0
  0
LINE
  5
1A2
330
19E
100
AcDbEntity
  8
0
 62
     0
370
    -2
100
AcDbLine
 10
-0.5
 20
-0.166
 30
0.0
 11
-0.5
 21
0.166
 31
0.0
  0
LINE
  5
1A3
330
19E
100
AcDbEntity
  8
0
 62
     0
370
    -2
100
AcDbLine
 10
-0.25
 20
-0.166
 30
0.0
 11
-0.25
 21
0.166
 31
0.0
  0
LINE
  5
1A4
330
19E
100
AcDbEntity
  8
0
 62
     0
370
    -2
100
AcDbLine
 10
0.0
 20
-0.166
 30
0.0
 11
0.0
 21
0.166
 31
0.0
  0
LINE
  5
1A5
330
19E
100
AcDbEntity
  8
0
 62
     0
370
    -2
100
AcDbLine
 10
0.25
 20
-0.166
 30
0.0
 11
0.25
 21
0.166
 31
0.0
  0
ENDBLK
  5
1A7
330
19E
100
AcDbEntity
  8
0
100
AcDbBlockEnd
  0
BLOCK
  5
1AB
330
1A8
100
AcDbEntity
  8
0
100
AcDbBlockBegin
  2
CDWK_PTTYP51
 70
     0
 10
0.0
 20
0.0
 30
0.0
  3
CDWK_PTTYP51
  1

  0
SPLINE
  5
1A9
330
1A8
100
AcDbEntity
  8
0
 62
     0
370
    -2
100
AcDbSpline
210
0.0
220
0.0
230
1.0
 70
  1064
 71
     3
 72
    12
 73
     8
 74
     6
 42
0.000000001
 43
0.0000000001
 44
0.0000000001
 40
0.0
 40
0.0
 40
0.0
 40
0.0
 40
0.1690118339052032
 40
0.5175774661755118
 40
0.8011704844252565
 40
0.9154070810132151
 40
0.975822310881188
 40
0.975822310881188
 40
0.975822310881188
 40
0.975822310881188
 10
-0.5
 20
-0.077
 30
0.0
 10
-0.443824324006723
 20
-0.0900581618560981
 30
0.0
 10
-0.2717933876546281
 20
-0.1300471387828842
 30
0.0
 10
-0.0276699186086479
 20
-0.0006977790990417
 30
0.0
 10
0.2303349729129116
 20
0.0817803270207037
 30
0.0
 10
0.3686157174766292
 20
0.0066250198607167
 30
0.0
 10
0.4216533294581816
 20
-0.0168719667726145
 30
0.0
 10
0.44
 20
-0.025
 30
0.0
 11
-0.5
 21
-0.077
 31
0.0
 11
-0.333
 21
-0.103
 31
0.0
 11
0.0
 21
0.0
 31
0.0
 11
0.28
 21
0.045
 31
0.0
 11
0.385
 21
0.0
 31
0.0
 11
0.44
 21
-0.025
 31
0.0
  0
HATCH
  5
1AA
330
1A8
100
AcDbEntity
  8
0
 62
     0
370
    -2
100
AcDbHatch
 10
0.0
 20
0.0
 30
0.0
210
0.0
220
0.0
230
1.0
  2
SOLID
 70
     1
 71
     1
 91
        1
 92
        3
 72
     0
 73
     1
 93
        3
 10
0.365
 20
-0.05
 10
0.5
 20
-0.042
 10
0.395
 20
0.045
 97
        0
 75
     0
 76
     1
 98
        0
  0
ENDBLK
  5
1AC
330
1A8
100
AcDbEntity
  8
0
100
AcDbBlockEnd
  0
BLOCK
  5
1B1
330
1AD
100
AcDbEntity
  8
0
100
AcDbBlockBegin
  2
CDWK_PTTYP52
 70
     0
 10
0.0
 20
0.0
 30
0.0
  3
CDWK_PTTYP52
  1

  0
LINE
  5
1AE
330
1AD
100
AcDbEntity
  8
0
 62
     0
370
    -2
100
AcDbLine
 10
-0.5
 20
-0.289
 30
0.0
 11
0.5
 21
-0.289
 31
0.0
  0
LINE
  5
1AF
330
1AD
100
AcDbEntity
  8
0
 62
     0
370
    -2
100
AcDbLine
 10
0.5
 20
-0.289
 30
0.0
 11
0.0
 21
0.577
 31
0.0
  0
LINE
  5
1B0
330
1AD
100
AcDbEntity
  8
0
 62
     0
370
    -2
100
AcDbLine
 10
0.0
 20
0.577
 30
0.0
 11
-0.5
 21
-0.289
 31
0.0
  0
ENDBLK
  5
1B2
330
1AD
100
AcDbEntity
  8
0
100
AcDbBlockEnd
  0
BLOCK
  5
1B8
330
1B3
100
AcDbEntity
  8
0
100
AcDbBlockBegin
  2
cw-dimension-symbol1
 70
     0
 10
0.0
 20
0.0
 30
0.0
  3
cw-dimension-symbol1
  1

  0
LINE
  5
1B4
330
1B3
100
AcDbEntity
  8
0
 62
     0
370
    -2
100
AcDbLine
 10
0.0
 20
0.0
 30
0.0
 11
-1.0
 21
0.25
 31
0.0
  0
LINE
  5
1B5
330
1B3
100
AcDbEntity
  8
0
 62
     0
370
    -2
100
AcDbLine
 10
0.0
 20
0.0
 30
0.0
 11
-1.0
 21
-0.25
 31
0.0
  0
LINE
  5
1B6
330
1B3
100
AcDbEntity
  8
0
 62
     0
370
    -2
100
AcDbLine
 10
-1.0
 20
0.25
 30
0.0
 11
-1.0
 21
-0.25
 31
0.0
  0
LINE
  5
1B7
330
1B3
100
AcDbEntity
  8
0
 62
     0
370
    -2
100
AcDbLine
 10
0.0
 20
0.0
 30
0.0
 11
-1.0
 21
0.0
 31
0.0
  0
ENDBLK
  5
1B9
330
1B3
100
AcDbEntity
  8
0
100
AcDbBlockEnd
  0
BLOCK
  5
1BD
330
1BA
100
AcDbEntity
  8
0
100
AcDbBlockBegin
  2
cw-dimension-symbol2
 70
     0
 10
0.0
 20
0.0
 30
0.0
  3
cw-dimension-symbol2
  1

  0
LINE
  5
1BB
330
1BA
100
AcDbEntity
  8
0
 62
     0
370
    -2
100
AcDbLine
 10
-1.0
 20
0.0
 30
0.0
 11
1.0
 21
0.0
 31
0.0
  0
LINE
  5
1BC
330
1BA
100
AcDbEntity
  8
0
 62
     0
370
    -2
100
AcDbLine
 10
-0.5
 20
-0.5
 30
0.0
 11
0.5
 21
0.5
 31
0.0
  0
ENDBLK
  5
1BE
330
1BA
100
AcDbEntity
  8
0
100
AcDbBlockEnd
  0
BLOCK
  5
1C2
330
1BF
100
AcDbEntity
  8
0
100
AcDbBlockBegin
  2
cw-dimension-symbol3
 70
     0
 10
0.0
 20
0.0
 30
0.0
  3
cw-dimension-symbol3
  1

  0
LINE
  5
1C0
330
1BF
100
AcDbEntity
  8
0
 62
     0
370
    -2
100
AcDbLine
 10
-1.0
 20
0.0
 30
0.0
 11
1.0
 21
0.0
 31
0.0
  0
CIRCLE
  5
1C1
330
1BF
100
AcDbEntity
  8
0
 62
     0
370
    -2
100
AcDbCircle
 10
0.0
 20
0.0
 30
0.0
 40
0.25
  0
ENDBLK
  5
1C3
330
1BF
100
AcDbEntity
  8
0
100
AcDbBlockEnd
  0
BLOCK
  5
1C9
330
1C4
100
AcDbEntity
  8
0
100
AcDbBlockBegin
  2
cw-dimension-symbol5
 70
     0
 10
0.0
 20
0.0
 30
0.0
  3
cw-dimension-symbol5
  1

  0
HATCH
  5
1C5
330
1C4
100
AcDbEntity
  8
0
 62
     0
370
    -2
100
AcDbHatch
 10
0.0
 20
0.0
 30
0.0
210
0.0
220
0.0
230
1.0
  2
SOLID
 70
     1
 71
     1
 91
        1
 92
        3
 72
     0
 73
     1
 93
        3
 10
0.0
 20
0.0
 10
-1.0
 20
0.25
 10
-1.0
 20
-0.25
 97
        0
 75
     0
 76
     1
 98
        0
  0
LINE
  5
1C6
330
1C4
100
AcDbEntity
  8
0
 62
     0
370
    -2
100
AcDbLine
 10
0.0
 20
0.0
 30
0.0
 11
-1.0
 21
0.25
 31
0.0
  0
LINE
  5
1C7
330
1C4
100
AcDbEntity
  8
0
 62
     0
370
    -2
100
AcDbLine
 10
-1.0
 20
0.25
 30
0.0
 11
-1.0
 21
-0.25
 31
0.0
  0
LINE
  5
1C8
330
1C4
100
AcDbEntity
  8
0
 62
     0
370
    -2
100
AcDbLine
 10
-1.0
 20
-0.25
 30
0.0
 11
0.0
 21
0.0
 31
0.0
  0
ENDBLK
  5
1CA
330
1C4
100
AcDbEntity
  8
0
100
AcDbBlockEnd
  0
BLOCK
  5
1CF
330
1CB
100
AcDbEntity
  8
0
100
AcDbBlockBegin
  2
cw-dimension-symbol6
 70
     0
 10
0.0
 20
0.0
 30
0.0
  3
cw-dimension-symbol6
  1

  0
LINE
  5
1CC
330
1CB
100
AcDbEntity
  8
0
 62
     0
370
    -2
100
AcDbLine
 10
0.0
 20
0.0
 30
0.0
 11
-1.0
 21
0.25
 31
0.0
  0
LINE
  5
1CD
330
1CB
100
AcDbEntity
  8
0
 62
     0
370
    -2
100
AcDbLine
 10
0.0
 20
0.0
 30
0.0
 11
-1.0
 21
-0.25
 31
0.0
  0
LINE
  5
1CE
330
1CB
100
AcDbEntity
  8
0
 62
     0
370
    -2
100
AcDbLine
 10
0.0
 20
0.0
 30
0.0
 11
-1.0
 21
0.0
 31
0.0
  0
ENDBLK
  5
1D0
330
1CB
100
AcDbEntity
  8
0
100
AcDbBlockEnd
  0
BLOCK
  5
1D5
330
1D1
100
AcDbEntity
  8
0
100
AcDbBlockBegin
  2
cw-dimension-symbol11
 70
     0
 10
0.0
 20
0.0
 30
0.0
  3
cw-dimension-symbol11
  1

  0
LINE
  5
1D2
330
1D1
100
AcDbEntity
  8
0
 62
     0
370
    -2
100
AcDbLine
 10
-1.0
 20
1.0
 30
0.0
 11
1.0
 21
1.0
 31
0.0
  0
LINE
  5
1D3
330
1D1
100
AcDbEntity
  8
0
 62
     0
370
    -2
100
AcDbLine
 10
0.0
 20
0.0
 30
0.0
 11
-1.0
 21
1.0
 31
0.0
  0
LINE
  5
1D4
330
1D1
100
AcDbEntity
  8
0
 62
     0
370
    -2
100
AcDbLine
 10
0.0
 20
0.0
 30
0.0
 11
1.0
 21
1.0
 31
0.0
  0
ENDBLK
  5
1D6
330
1D1
100
AcDbEntity
  8
0
100
AcDbBlockEnd
  0
BLOCK
  5
1DB
330
1D7
100
AcDbEntity
  8
0
100
AcDbBlockBegin
  2
cw-dimension-symbol13
 70
     0
 10
0.0
 20
0.0
 30
0.0
  3
cw-dimension-symbol13
  1

  0
LINE
  5
1D8
330
1D7
100
AcDbEntity
  8
0
 62
     0
370
    -2
100
AcDbLine
 10
-1.0
 20
-1.0
 30
0.0
 11
1.0
 21
-1.0
 31
0.0
  0
LINE
  5
1D9
330
1D7
100
AcDbEntity
  8
0
 62
     0
370
    -2
100
AcDbLine
 10
0.0
 20
0.0
 30
0.0
 11
-1.0
 21
-1.0
 31
0.0
  0
LINE
  5
1DA
330
1D7
100
AcDbEntity
  8
0
 62
     0
370
    -2
100
AcDbLine
 10
0.0
 20
0.0
 30
0.0
 11
1.0
 21
-1.0
 31
0.0
  0
ENDBLK
  5
1DC
330
1D7
100
AcDbEntity
  8
0
100
AcDbBlockEnd
  0
BLOCK
  5
1E2
330
1DD
100
AcDbEntity
  8
0
100
AcDbBlockBegin
  2
cw-dimension-symbol15
 70
     0
 10
0.0
 20
0.0
 30
0.0
  3
cw-dimension-symbol15
  1

  0
HATCH
  5
1DE
330
1DD
100
AcDbEntity
  8
0
 62
     0
370
    -2
100
AcDbHatch
 10
0.0
 20
0.0
 30
0.0
210
0.0
220
0.0
230
1.0
  2
SOLID
 70
     1
 71
     1
 91
        1
 92
        3
 72
     0
 73
     1
 93
        3
 10
0.0
 20
0.0
 10
-1.0
 20
1.0
 10
1.0
 20
1.0
 97
        0
 75
     0
 76
     1
 98
        0
  0
LINE
  5
1DF
330
1DD
100
AcDbEntity
  8
0
 62
     0
370
    -2
100
AcDbLine
 10
0.0
 20
0.0
 30
0.0
 11
-1.0
 21
1.0
 31
0.0
  0
LINE
  5
1E0
330
1DD
100
AcDbEntity
  8
0
 62
     0
370
    -2
100
AcDbLine
 10
-1.0
 20
1.0
 30
0.0
 11
1.0
 21
1.0
 31
0.0
  0
LINE
  5
1E1
330
1DD
100
AcDbEntity
  8
0
 62
     0
370
    -2
100
AcDbLine
 10
1.0
 20
1.0
 30
0.0
 11
0.0
 21
0.0
 31
0.0
  0
ENDBLK
  5
1E3
330
1DD
100
AcDbEntity
  8
0
100
AcDbBlockEnd
  0
BLOCK
  5
1E9
330
1E4
100
AcDbEntity
  8
0
100
AcDbBlockBegin
  2
cw-dimension-symbol16
 70
     0
 10
0.0
 20
0.0
 30
0.0
  3
cw-dimension-symbol16
  1

  0
HATCH
  5
1E5
330
1E4
100
AcDbEntity
  8
0
 62
     0
370
    -2
100
AcDbHatch
 10
0.0
 20
0.0
 30
0.0
210
0.0
220
0.0
230
1.0
  2
SOLID
 70
     1
 71
     1
 91
        1
 92
        3
 72
     0
 73
     1
 93
        3
 10
0.0
 20
0.0
 10
-1.0
 20
-1.0
 10
1.0
 20
-1.0
 97
        0
 75
     0
 76
     1
 98
        0
  0
LINE
  5
1E6
330
1E4
100
AcDbEntity
  8
0
 62
     0
370
    -2
100
AcDbLine
 10
0.0
 20
0.0
 30
0.0
 11
-1.0
 21
-1.0
 31
0.0
  0
LINE
  5
1E7
330
1E4
100
AcDbEntity
  8
0
 62
     0
370
    -2
100
AcDbLine
 10
-1.0
 20
-1.0
 30
0.0
 11
1.0
 21
-1.0
 31
0.0
  0
LINE
  5
1E8
330
1E4
100
AcDbEntity
  8
0
 62
     0
370
    -2
100
AcDbLine
 10
1.0
 20
-1.0
 30
0.0
 11
0.0
 21
0.0
 31
0.0
  0
ENDBLK
  5
1EA
330
1E4
100
AcDbEntity
  8
0
100
AcDbBlockEnd
  0
BLOCK
  5
1F0
330
1EB
100
AcDbEntity
  8
0
100
AcDbBlockBegin
  2
cw-dimension-symbol17
 70
     0
 10
0.0
 20
0.0
 30
0.0
  3
cw-dimension-symbol17
  1

  0
LINE
  5
1EC
330
1EB
100
AcDbEntity
  8
0
 62
     0
370
    -2
100
AcDbLine
 10
0.0
 20
0.0
 30
0.0
 11
1.0
 21
1.0
 31
0.0
  0
LINE
  5
1ED
330
1EB
100
AcDbEntity
  8
0
 62
     0
370
    -2
100
AcDbLine
 10
1.0
 20
1.0
 30
0.0
 11
-1.0
 21
1.0
 31
0.0
  0
LINE
  5
1EE
330
1EB
100
AcDbEntity
  8
0
 62
     0
370
    -2
100
AcDbLine
 10
-1.0
 20
1.0
 30
0.0
 11
0.0
 21
0.0
 31
0.0
  0
HATCH
  5
1EF
330
1EB
100
AcDbEntity
  8
0
 62
     0
370
    -2
100
AcDbHatch
 10
0.0
 20
0.0
 30
0.0
210
0.0
220
0.0
230
1.0
  2
SOLID
 70
     1
 71
     1
 91
        1
 92
        3
 72
     0
 73
     1
 93
        3
 10
0.0
 20
0.0
 10
-1.0
 20
1.0
 10
0.0
 20
1.0
 97
        0
 75
     0
 76
     1
 98
        0
  0
ENDBLK
  5
1F1
330
1EB
100
AcDbEntity
  8
0
100
AcDbBlockEnd
  0
BLOCK
  5
1F7
330
1F2
100
AcDbEntity
  8
0
100
AcDbBlockBegin
  2
cw-dimension-symbol18
 70
     0
 10
0.0
 20
0.0
 30
0.0
  3
cw-dimension-symbol18
  1

  0
LINE
  5
1F3
330
1F2
100
AcDbEntity
  8
0
 62
     0
370
    -2
100
AcDbLine
 10
0.0
 20
0.0
 30
0.0
 11
1.0
 21
-1.0
 31
0.0
  0
LINE
  5
1F4
330
1F2
100
AcDbEntity
  8
0
 62
     0
370
    -2
100
AcDbLine
 10
1.0
 20
-1.0
 30
0.0
 11
-1.0
 21
-1.0
 31
0.0
  0
LINE
  5
1F5
330
1F2
100
AcDbEntity
  8
0
 62
     0
370
    -2
100
AcDbLine
 10
-1.0
 20
-1.0
 30
0.0
 11
0.0
 21
0.0
 31
0.0
  0
HATCH
  5
1F6
330
1F2
100
AcDbEntity
  8
0
 62
     0
370
    -2
100
AcDbHatch
 10
0.0
 20
0.0
 30
0.0
210
0.0
220
0.0
230
1.0
  2
SOLID
 70
     1
 71
     1
 91
        1
 92
        3
 72
     0
 73
     1
 93
        3
 10
0.0
 20
0.0
 10
-1.0
 20
-1.0
 10
0.0
 20
-1.0
 97
        0
 75
     0
 76
     1
 98
        0
  0
ENDBLK
  5
1F8
330
1F2
100
AcDbEntity
  8
0
100
AcDbBlockEnd
  0
BLOCK
  5
1FA
330
1F9
100
AcDbEntity
  8
0
100
AcDbBlockBegin
  2
cw-dimension-symbol19
 70
     0
 10
0.0
 20
0.0
 30
0.0
  3
cw-dimension-symbol19
  1

  0
ENDBLK
  5
1FB
330
1F9
100
AcDbEntity
  8
0
100
AcDbBlockEnd
  0
BLOCK
  5
201
330
1FC
100
AcDbEntity
  8
0
100
AcDbBlockBegin
  2
cw-dimension-symbol20
 70
     0
 10
0.0
 20
0.0
 30
0.0
  3
cw-dimension-symbol20
  1

  0
LINE
  5
1FD
330
1FC
100
AcDbEntity
  8
0
 62
     0
370
    -2
100
AcDbLine
 10
0.0
 20
0.0
 30
0.0
 11
0.0
 21
2.0
 31
0.0
  0
LINE
  5
1FE
330
1FC
100
AcDbEntity
  8
0
 62
     0
370
    -2
100
AcDbLine
 10
0.0
 20
0.0
 30
0.0
 11
-1.0
 21
0.33
 31
0.0
  0
LINE
  5
1FF
330
1FC
100
AcDbEntity
  8
0
 62
     0
370
    -2
100
AcDbLine
 10
0.0
 20
0.0
 30
0.0
 11
1.0
 21
0.33
 31
0.0
  0
LINE
  5
200
330
1FC
100
AcDbEntity
  8
0
 62
     0
370
    -2
100
AcDbLine
 10
0.0
 20
2.0
 30
0.0
 11
4.15
 21
2.0
 31
0.0
  0
ENDBLK
  5
202
330
1FC
100
AcDbEntity
  8
0
100
AcDbBlockEnd
  0
BLOCK
  5
208
330
203
100
AcDbEntity
  8
0
100
AcDbBlockBegin
  2
cw-dimension-symbol21
 70
     0
 10
0.0
 20
0.0
 30
0.0
  3
cw-dimension-symbol21
  1

  0
LINE
  5
204
330
203
100
AcDbEntity
  8
0
 62
     0
370
    -2
100
AcDbLine
 10
0.0
 20
0.0
 30
0.0
 11
0.0
 21
-2.0
 31
0.0
  0
LINE
  5
205
330
203
100
AcDbEntity
  8
0
 62
     0
370
    -2
100
AcDbLine
 10
0.0
 20
0.0
 30
0.0
 11
-1.0
 21
-0.33
 31
0.0
  0
LINE
  5
206
330
203
100
AcDbEntity
  8
0
 62
     0
370
    -2
100
AcDbLine
 10
0.0
 20
0.0
 30
0.0
 11
1.0
 21
-0.33
 31
0.0
  0
LINE
  5
207
330
203
100
AcDbEntity
  8
0
 62
     0
370
    -2
100
AcDbLine
 10
0.0
 20
-2.0
 30
0.0
 11
4.15
 21
-2.0
 31
0.0
  0
ENDBLK
  5
209
330
203
100
AcDbEntity
  8
0
100
AcDbBlockEnd
  0
BLOCK
  5
23A
330
20A
100
AcDbEntity
  8
0
100
AcDbBlockBegin
  2
cw-line-extremity0
 70
     0
 10
0.0
 20
0.0
 30
0.0
  3
cw-line-extremity0
  1

  0
LINE
  5
20B
330
20A
100
AcDbEntity
  8
0
 62
     0
370
    -2
100
AcDbLine
 10
0.0
 20
0.0
 30
0.0
 11
4.0
 21
1.0
 31
0.0
  0
LINE
  5
20C
330
20A
100
AcDbEntity
  8
0
 62
     0
370
    -2
100
AcDbLine
 10
0.0
 20
0.0
 30
0.0
 11
4.0
 21
-1.0
 31
0.0
  0
LINE
  5
20D
330
20A
100
AcDbEntity
  8
0
 62
     0
370
    -2
100
AcDbLine
 10
4.0
 20
1.0
 30
0.0
 11
4.0
 21
-1.0
 31
0.0
  0
ENDBLK
  5
23B
330
20A
100
AcDbEntity
  8
0
100
AcDbBlockEnd
  0
BLOCK
  5
238
330
20E
100
AcDbEntity
  8
0
100
AcDbBlockBegin
  2
cw-line-extremity2
 70
     0
 10
0.0
 20
0.0
 30
0.0
  3
cw-line-extremity2
  1

  0
HATCH
  5
20F
330
20E
100
AcDbEntity
  8
0
 62
     0
370
     0
100
AcDbHatch
 10
0.0
 20
0.0
 30
0.0
210
0.0
220
0.0
230
1.0
  2
SOLID
 70
     1
 71
     1
 91
        1
 92
        3
 72
     0
 73
     1
 93
        3
 10
0.0
 20
0.0
 10
4.0
 20
1.0
 10
4.0
 20
-1.0
 97
        0
 75
     0
 76
     1
 98
        0
  0
LINE
  5
210
330
20E
100
AcDbEntity
  8
0
 62
     0
370
    -2
100
AcDbLine
 10
0.0
 20
0.0
 30
0.0
 11
4.0
 21
1.0
 31
0.0
  0
LINE
  5
211
330
20E
100
AcDbEntity
  8
0
 62
     0
370
    -2
100
AcDbLine
 10
4.0
 20
1.0
 30
0.0
 11
4.0
 21
-1.0
 31
0.0
  0
LINE
  5
212
330
20E
100
AcDbEntity
  8
0
 62
     0
370
    -2
100
AcDbLine
 10
4.0
 20
-1.0
 30
0.0
 11
0.0
 21
0.0
 31
0.0
  0
ENDBLK
  5
239
330
20E
100
AcDbEntity
  8
0
100
AcDbBlockEnd
  0
BLOCK
  5
236
330
213
100
AcDbEntity
  8
0
100
AcDbBlockBegin
  2
cw-line-extremity3
 70
     0
 10
0.0
 20
0.0
 30
0.0
  3
cw-line-extremity3
  1

  0
HATCH
  5
214
330
213
100
AcDbEntity
  8
0
 62
     0
370
     0
100
AcDbHatch
 10
0.0
 20
0.0
 30
0.0
210
0.0
220
0.0
230
1.0
  2
SOLID
 70
     1
 71
     1
 91
        1
 92
        3
 72
     0
 73
     1
 93
        3
 10
0.0
 20
0.0
 10
4.0
 20
1.0
 10
4.0
 20
-1.0
 97
        0
 75
     0
 76
     1
 98
        0
  0
LINE
  5
215
330
213
100
AcDbEntity
  8
0
 62
     0
370
    -2
100
AcDbLine
 10
0.0
 20
0.0
 30
0.0
 11
4.0
 21
1.0
 31
0.0
  0
LINE
  5
216
330
213
100
AcDbEntity
  8
0
 62
     0
370
    -2
100
AcDbLine
 10
4.0
 20
1.0
 30
0.0
 11
4.0
 21
-1.0
 31
0.0
  0
LINE
  5
217
330
213
100
AcDbEntity
  8
0
 62
     0
370
    -2
100
AcDbLine
 10
4.0
 20
-1.0
 30
0.0
 11
0.0
 21
0.0
 31
0.0
  0
ENDBLK
  5
237
330
213
100
AcDbEntity
  8
0
100
AcDbBlockEnd
  0
BLOCK
  5
234
330
218
100
AcDbEntity
  8
0
100
AcDbBlockBegin
  2
cw-line-extremity301
 70
     0
 10
0.0
 20
0.0
 30
0.0
  3
cw-line-extremity301
  1

  0
LINE
  5
219
330
218
100
AcDbEntity
  8
0
 62
     0
370
    -2
100
AcDbLine
 10
0.0
 20
2.66666
 30
0.0
 11
0.0
 21
-2.66666
 31
0.0
  0
ENDBLK
  5
235
330
218
100
AcDbEntity
  8
0
100
AcDbBlockEnd
  0
BLOCK
  5
232
330
21A
100
AcDbEntity
  8
0
100
AcDbBlockBegin
  2
cw-line-extremity4
 70
     0
 10
0.0
 20
0.0
 30
0.0
  3
cw-line-extremity4
  1

  0
HATCH
  5
21B
330
21A
100
AcDbEntity
  8
0
 62
     0
370
     5
100
AcDbHatch
 10
0.0
 20
0.0
 30
0.0
210
0.0
220
0.0
230
1.0
  2
SOLID
 70
     1
 71
     1
 91
        1
 92
        1
 93
        1
 72
     2
 10
0.0
 20
0.0
 40
1.0
 50
0.0
 51
360.0
 73
     1
 97
        0
 75
     0
 76
     1
 98
        0
  0
ENDBLK
  5
233
330
21A
100
AcDbEntity
  8
0
100
AcDbBlockEnd
  0
BLOCK
  5
230
330
21C
100
AcDbEntity
  8
0
100
AcDbBlockBegin
  2
cw-line-extremity5
 70
     0
 10
0.0
 20
0.0
 30
0.0
  3
cw-line-extremity5
  1

  0
LINE
  5
21D
330
21C
100
AcDbEntity
  8
0
 62
     0
370
    -2
100
AcDbLine
 10
0.0
 20
0.0
 30
0.0
 11
-1.0
 21
0.0
 31
0.0
  0
ENDBLK
  5
231
330
21C
100
AcDbEntity
  8
0
100
AcDbBlockEnd
  0
BLOCK
  5
22E
330
21E
100
AcDbEntity
  8
0
100
AcDbBlockBegin
  2
cw-line-extremity6
 70
     0
 10
0.0
 20
0.0
 30
0.0
  3
cw-line-extremity6
  1

  0
LINE
  5
21F
330
21E
100
AcDbEntity
  8
0
 62
     0
370
    18
100
AcDbLine
 10
0.0
 20
1.0
 30
0.0
 11
0.0
 21
-1.0
 31
0.0
  0
ENDBLK
  5
22F
330
21E
100
AcDbEntity
  8
0
100
AcDbBlockEnd
  0
BLOCK
  5
22C
330
220
100
AcDbEntity
  8
0
100
AcDbBlockBegin
  2
cw-line-extremity9
 70
     0
 10
0.0
 20
0.0
 30
0.0
  3
cw-line-extremity9
  1

  0
LINE
  5
221
330
220
100
AcDbEntity
  8
0
 62
     0
370
    18
100
AcDbLine
 10
-1.0
 20
-1.0
 30
0.0
 11
1.0
 21
1.0
 31
0.0
  0
ENDBLK
  5
22D
330
220
100
AcDbEntity
  8
0
100
AcDbBlockEnd
  0
BLOCK
  5
22A
330
222
100
AcDbEntity
  8
0
100
AcDbBlockBegin
  2
cw-line-extremity10
 70
     0
 10
0.0
 20
0.0
 30
0.0
  3
cw-line-extremity10
  1

  0
CIRCLE
  5
223
330
222
100
AcDbEntity
  8
0
 62
     0
370
    -2
100
AcDbCircle
 10
0.0
 20
0.0
 30
0.0
 40
1.0
  0
ENDBLK
  5
22B
330
222
100
AcDbEntity
  8
0
100
AcDbBlockEnd
  0
BLOCK
  5
228
330
224
100
AcDbEntity
  8
0
100
AcDbBlockBegin
  2
cw-line-extremity1
 70
     0
 10
0.0
 20
0.0
 30
0.0
  3
cw-line-extremity1
  1

  0
LINE
  5
225
330
224
100
AcDbEntity
  8
0
 62
     0
370
    -2
100
AcDbLine
 10
0.0
 20
0.0
 30
0.0
 11
0.0
 21
1.0
 31
0.0
  0
LINE
  5
226
330
224
100
AcDbEntity
  8
0
 62
     0
370
    -2
100
AcDbLine
 10
0.0
 20
1.0
 30
0.0
 11
0.5
 21
1.5
 31
0.0
  0
LINE
  5
227
330
224
100
AcDbEntity
  8
0
 62
     0
370
    -2
100
AcDbLine
 10
0.5
 20
1.5
 30
0.0
 11
1.5
 21
1.5
 31
0.0
  0
ENDBLK
  5
229
330
224
100
AcDbEntity
  8
0
100
AcDbBlockEnd
  0
BLOCK
  5
1C
330
1B
100
AcDbEntity
  8
0
100
AcDbBlockBegin
  2
*Paper_Space69
 70
     0
 10
0.0
 20
0.0
 30
0.0
  3
*Paper_Space69
  1

  0
ENDBLK
  5
1D
330
1B
100
AcDbEntity
  8
0
100
AcDbBlockEnd
  0
BLOCK
  5
3F6
330
3F5
100
AcDbEntity
  8
0
100
AcDbBlockBegin
  2
*D70
 70
     1
 10
0.0
 20
0.0
 30
0.0
  3
*D70
  1

  0
LINE
  5
3F8
330
3F5
100
AcDbEntity
  8
Ech.1_2
 62
     0
370
    -2
100
AcDbLine
 10
5030.54204666224
 20
133.785621142677
 30
0.0
 11
5028.54204666224
 21
133.785621142677
 31
0.0
  0
LINE
  5
3F9
330
3F5
100
AcDbEntity
  8
Ech.1_2
 62
     0
370
    -2
100
AcDbLine
 10
5030.54204666224
 20
141.7856211426829
 30
0.0
 11
5028.54204666224
 21
141.7856211426829
 31
0.0
  0
LINE
  5
3FA
330
3F5
100
AcDbEntity
  8
Ech.1_2
 62
     0
370
    -2
100
AcDbLine
 10
5030.54204666224
 20
135.785621142677
 30
0.0
 11
5030.54204666224
 21
139.7856211426829
 31
0.0
  0
INSERT
  5
3FB
330
3F5
100
AcDbEntity
  8
Ech.1_2
 62
     0
370
    -2
100
AcDbBlockReference
  2
cw-dimension-symbol2
 10
5030.54204666224
 20
133.785621142677
 30
0.0
 41
2.0
 42
2.0
 43
2.0
 50
270.0
  0
INSERT
  5
3FC
330
3F5
100
AcDbEntity
  8
Ech.1_2
 62
     0
370
    -2
100
AcDbBlockReference
  2
cw-dimension-symbol2
 10
5030.54204666224
 20
141.7856211426829
 30
0.0
 41
2.0
 42
2.0
 43
2.0
 50
90.0
  0
MTEXT
  5
3FD
330
3F5
100
AcDbEntity
  8
Ech.1_2
 62
   190
370
    15
100
AcDbMText
 10
5026.04204666224
 20
137.7856211426802
 30
0.0
 40
5.0
 41
0.0
 46
0.0
 71
     5
 72
     1
  1
\A1;8 mm
  7
arial-z
 11
6.123233995736766E-17
 21
1.0
 31
0.0
 73
     1
 44
1.0
  0
POINT
  5
3FE
330
3F5
100
AcDbEntity
  8
Defpoints
 62
     0
100
AcDbPoint
 10
5030.54204666224
 20
133.785621142677
 30
0.0
  0
POINT
  5
3FF
330
3F5
100
AcDbEntity
  8
Defpoints
 62
     0
100
AcDbPoint
 10
5030.54204666224
 20
141.7856211426829
 30
0.0
  0
POINT
  5
400
330
3F5
100
AcDbEntity
  8
Defpoints
 62
     0
100
AcDbPoint
 10
5030.54204666224
 20
141.7856211426829
 30
0.0
  0
ENDBLK
  5
3F7
330
3F5
100
AcDbEntity
  8
0
100
AcDbBlockEnd
  0
BLOCK
  5
404
330
403
100
AcDbEntity
  8
0
100
AcDbBlockBegin
  2
*D71
 70
     1
 10
0.0
 20
0.0
 30
0.0
  3
*D71
  1

  0
LINE
  5
406
330
403
100
AcDbEntity
  8
Ech.1_2
 62
     0
370
    -2
100
AcDbLine
 10
5032.898098293388
 20
141.7856211426829
 30
0.0
 11
5068.112537124869
 21
141.7856211426829
 31
0.0
  0
LINE
  5
407
330
403
100
AcDbEntity
  8
Ech.1_2
 62
     0
370
    -2
100
AcDbLine
 10
5022.898098292744
 20
171.7856211426797
 30
0.0
 11
5068.112537124869
 21
171.7856211426797
 31
0.0
  0
LINE
  5
408
330
403
100
AcDbEntity
  8
Ech.1_2
 62
     0
370
    -2
100
AcDbLine
 10
5066.112537124869
 20
143.7856211426829
 30
0.0
 11
5066.112537124869
 21
169.7856211426797
 31
0.0
  0
INSERT
  5
409
330
403
100
AcDbEntity
  8
Ech.1_2
 62
     0
370
    -2
100
AcDbBlockReference
  2
cw-dimension-symbol2
 10
5066.112537124869
 20
141.7856211426829
 30
0.0
 41
2.0
 42
2.0
 43
2.0
 50
270.0
  0
INSERT
  5
40A
330
403
100
AcDbEntity
  8
Ech.1_2
 62
     0
370
    -2
100
AcDbBlockReference
  2
cw-dimension-symbol2
 10
5066.112537124869
 20
171.7856211426797
 30
0.0
 41
2.0
 42
2.0
 43
2.0
 50
90.0
  0
MTEXT
  5
40B
330
403
100
AcDbEntity
  8
Ech.1_2
 62
   190
370
    15
100
AcDbMText
 10
5061.612537124869
 20
156.7856211426811
 30
0.0
 40
5.0
 41
0.0
 46
0.0
 71
     5
 72
     1
  1
\A1;30 mm mini
  7
arial-z
 11
6.123233995736766E-17
 21
1.0
 31
0.0
 73
     1
 44
1.0
  0
POINT
  5
40C
330
403
100
AcDbEntity
  8
Defpoints
 62
     0
100
AcDbPoint
 10
5032.898098293388
 20
141.7856211426829
 30
0.0
  0
POINT
  5
40D
330
403
100
AcDbEntity
  8
Defpoints
 62
     0
100
AcDbPoint
 10
5022.898098292744
 20
171.7856211426797
 30
0.0
  0
POINT
  5
40E
330
403
100
AcDbEntity
  8
Defpoints
 62
     0
100
AcDbPoint
 10
5066.112537124869
 20
171.7856211426797
 30
0.0
  0
ENDBLK
  5
405
330
403
100
AcDbEntity
  8
0
100
AcDbBlockEnd
  0
ENDSEC
  0
SECTION
  2
ENTITIES
  0
HATCH
  5
245
330
1F
100
AcDbEntity
  8
Ech.1_2
 62
    17
420
  8405056
440
 33554687
370
    20
100
AcDbHatch
 10
0.0
 20
0.0
 30
0.0
210
0.0
220
0.0
230
1.0
  2
SOLID
 70
     1
 71
     1
 91
        1
 92
        3
 72
     0
 73
     1
 93
        4
 10
5145.894790552602
 20
123.7856211425496
 10
5145.894790552602
 20
133.7856211427206
 10
5025.898098293246
 20
133.785621142677
 10
5025.898098293246
 20
123.785621142506
 97
        0
 75
     0
 76
     1
 98
        0
  0
LWPOLYLINE
  5
246
330
1F
100
AcDbEntity
  8
Ech.1_2
 62
     7
370
    20
100
AcDbPolyline
 90
        5
 70
     0
 43
0.0
 10
5145.894790552602
 20
123.7856211425496
 10
5145.894790552602
 20
133.7856211427206
 10
5025.898098293246
 20
133.785621142677
 10
5025.898098293246
 20
123.785621142506
 10
5145.894790552602
 20
123.7856211425496
  0
HATCH
  5
247
330
1F
100
AcDbEntity
  8
Ech.1_2
 62
    17
420
  8405056
440
 33554687
370
    20
100
AcDbHatch
 10
0.0
 20
0.0
 30
0.0
210
0.0
220
0.0
230
1.0
  2
SOLID
 70
     1
 71
     1
 91
        1
 92
        3
 72
     0
 73
     1
 93
        4
 10
5022.898098293388
 20
246.7563239148076
 10
5022.898098293388
 20
141.7856211426829
 10
5032.898098293388
 20
141.7856211426829
 10
5032.898098293388
 20
246.7563239148076
 97
        0
 75
     0
 76
     1
 98
        0
  0
LWPOLYLINE
  5
248
330
1F
100
AcDbEntity
  8
Ech.1_2
 62
     7
370
    20
100
AcDbPolyline
 90
        5
 70
     0
 43
0.0
 10
5022.898098293388
 20
246.7563239148076
 10
5022.898098293388
 20
141.7856211426829
 10
5032.898098293388
 20
141.7856211426829
 10
5032.898098293388
 20
246.7563239148076
 10
5022.898098293388
 20
246.7563239148076
  0
LWPOLYLINE
  5
249
330
1F
100
AcDbEntity
  8
Ech.1_2
 62
     7
370
    20
100
AcDbPolyline
 90
        5
 70
     0
 43
0.0
 10
5025.898098293246
 20
123.785621142506
 10
5145.894790552602
 20
123.7856211425424
 10
5145.894790552598
 20
133.7856211427206
 10
5025.898098293243
 20
133.7856211426806
 10
5025.898098293246
 20
123.785621142506
  0
LWPOLYLINE
  5
24A
330
1F
100
AcDbEntity
  8
Ech.1_2
 62
     7
370
    20
100
AcDbPolyline
 90
        5
 70
     0
 43
0.0
 10
5032.898098293388
 20
141.7856211426829
 10
5032.898098293352
 20
246.7563239148076
 10
5022.898098293039
 20
246.7563239148003
 10
5022.898098293079
 20
141.7856211426792
 10
5032.898098293388
 20
141.7856211426829
  0
LWPOLYLINE
  5
24B
330
1F
100
AcDbEntity
  8
Ech.1_2
 62
   190
370
    15
100
AcDbPolyline
 90
        6
 70
     0
 43
0.0
 10
4906.893097030757
 20
89.2118973971883
 10
4906.893097030736
 20
127.2106535112762
 10
4899.702157667782
 20
133.8048547736398
 10
4914.084437672502
 20
128.1608787665173
 10
4906.893097030732
 20
134.7554203991131
 10
4906.893097030728
 20
239.2118973971737
  0
LWPOLYLINE
  5
24C
330
1F
100
AcDbEntity
  8
Ech.1_2
 62
   190
370
    15
100
AcDbPolyline
 90
        6
 70
     0
 43
0.0
 10
5145.894790552613
 20
7.664305118007178
 10
5033.938911318915
 20
7.66430511798535
 10
5027.344710056552
 20
0.4733657550314092
 10
5032.988686063674
 20
14.8556457597515
 10
5026.394144431079
 20
7.664305117981712
 10
4995.894790552577
 20
7.664305117978074
  0
HATCH
  5
24D
330
1F
100
AcDbEntity
  8
Ech.1_2
 62
   254
420
 15326711
440
 33554687
370
     5
100
AcDbHatch
 10
0.0
 20
0.0
 30
0.0
210
0.0
220
0.0
230
1.0
  2
SOLID
 70
     1
 71
     1
 91
        1
 92
        3
 72
     0
 73
     1
 93
       24
 10
4914.084437672502
 20
128.1608787665173
 10
4906.893498309548
 20
134.7550800288845
 10
4906.893498309548
 20
246.7563239148003
 10
4966.350050258852
 20
246.7563239148003
 10
4972.944251521212
 20
253.9472632777542
 10
4967.30027551409
 20
239.5649832730342
 10
4973.894817146685
 20
246.7563239148003
 10
4995.893498309617
 20
246.7563239148658
 10
4995.893498309617
 20
169.7777103042417
 10
4995.905210020448
 20
169.7777103044964
 10
4995.894790552577
 20
96.756326665487
 10
5145.894790552609
 20
96.75633130139249
 10
5145.894790552609
 20
74.71033297097893
 10
5153.086131194375
 20
68.11579133837586
 10
5138.703851189655
 20
73.75976734549477
 10
5145.894790552606
 20
67.16556608313476
 10
5145.894790552609
 20
7.664305118007178
 10
5033.938911318919
 20
7.664305118007178
 10
5027.344710056552
 20
0.4733657550314092
 10
5032.988686063674
 20
14.85564575974786
 10
5026.394144431082
 20
7.664305117981712
 10
4906.893498309555
 20
7.66430236729866
 10
4906.893498309555
 20
127.210313141044
 10
4899.702157667782
 20
133.8048547736398
 97
        0
 75
     0
 76
     1
 98
        0
  0
LWPOLYLINE
  5
24E
330
1F
100
AcDbEntity
  8
Ech.1_2
 62
   190
370
    15
100
AcDbPolyline
 90
       25
 70
     0
 43
0.0
 10
4914.084437672502
 20
128.1608787665173
 10
4906.893498309548
 20
134.7550800288845
 10
4906.893498309548
 20
246.7563239148003
 10
4966.350050258852
 20
246.7563239148003
 10
4972.944251521212
 20
253.9472632777542
 10
4967.30027551409
 20
239.5649832730342
 10
4973.894817146685
 20
246.7563239148003
 10
4995.893498309617
 20
246.7563239148658
 10
4995.893498309617
 20
169.7777103042417
 10
4995.905210020448
 20
169.7777103044964
 10
4995.894790552577
 20
96.756326665487
 10
5145.894790552609
 20
96.75633130139249
 10
5145.894790552609
 20
74.71033297097893
 10
5153.086131194375
 20
68.11579133837586
 10
5138.703851189655
 20
73.75976734549477
 10
5145.894790552606
 20
67.16556608313476
 10
5145.894790552609
 20
7.664305118007178
 10
5033.938911318919
 20
7.664305118007178
 10
5027.344710056552
 20
0.4733657550314092
 10
5032.988686063674
 20
14.85564575974786
 10
5026.394144431082
 20
7.664305117981712
 10
4906.893498309555
 20
7.66430236729866
 10
4906.893498309555
 20
127.210313141044
 10
4899.702157667782
 20
133.8048547736398
 10
4914.084437672502
 20
128.1608787665173
  0
HATCH
  5
24F
330
1F
100
AcDbEntity
  8
Ech.1_2
 62
    35
420
  9529928
440
 33554687
370
    20
100
AcDbHatch
 10
0.0
 20
0.0
 30
0.0
210
0.0
220
0.0
230
1.0
  2
SOLID
 70
     1
 71
     1
 91
        1
 92
        3
 72
     0
 73
     1
 93
        4
 10
4995.895460618767
 20
171.7856211425051
 10
4995.895460619269
 20
123.7589643237552
 10
5022.898098293246
 20
123.7589643239298
 10
5022.898098292744
 20
171.7856211426797
 97
        0
 75
     0
 76
     1
 98
        0
  0
LWPOLYLINE
  5
250
330
1F
100
AcDbEntity
  8
Ech.1_2
 62
   190
370
    15
100
AcDbPolyline
 90
        5
 70
     0
 43
0.0
 10
4995.895460618767
 20
171.7856211425051
 10
4995.895460619269
 20
123.7589643237552
 10
5022.898098293246
 20
123.7589643239298
 10
5022.898098292744
 20
171.7856211426797
 10
4995.895460618767
 20
171.7856211425051
  0
LWPOLYLINE
  5
251
330
1F
100
AcDbEntity
  8
Ech.1_2
 62
     5
370
    40
100
AcDbPolyline
 90
        5
 70
     0
 43
0.0
 10
4995.895460618767
 20
171.7856211425051
 10
5022.898098292744
 20
171.7856211426797
 10
5022.898098293246
 20
123.7589643239298
 10
4995.895460619269
 20
123.7589643237552
 10
4995.895460618767
 20
171.7856211425051
  0
LWPOLYLINE
  5
252
330
1F
100
AcDbEntity
  8
Ech.1_2
 62
   190
370
    15
100
AcDbPolyline
 90
        4
 70
     0
 43
0.0
 10
5022.898098293246
 20
123.7589643239298
 10
4995.895460618767
 20
171.7856211425051
 10
5022.898098292766
 20
171.7856211426797
 10
4995.895460619269
 20
123.7589643237552
  0
HATCH
  5
253
330
1F
100
AcDbEntity
  8
Ech.1_2
 62
    35
420
  9529928
440
 33554687
370
    20
100
AcDbHatch
 10
0.0
 20
0.0
 30
0.0
210
0.0
220
0.0
230
1.0
  2
SOLID
 70
     1
 71
     1
 91
        1
 92
        3
 72
     0
 73
     1
 93
        4
 10
4995.894790552577
 20
96.756326665487
 10
5062.89721789137
 20
96.75368555230307
 10
5062.898098293388
 20
123.7563232108041
 10
4995.895670954595
 20
123.7589643239298
 97
        0
 75
     0
 76
     1
 98
        0
  0
LWPOLYLINE
  5
254
330
1F
100
AcDbEntity
  8
Ech.1_2
 62
   190
370
    15
100
AcDbPolyline
 90
        5
 70
     0
 43
0.0
 10
4995.894790552577
 20
96.756326665487
 10
5062.89721789137
 20
96.75368555230307
 10
5062.898098293388
 20
123.7563232108041
 10
4995.895670954595
 20
123.7589643239298
 10
4995.894790552577
 20
96.756326665487
  0
LWPOLYLINE
  5
255
330
1F
100
AcDbEntity
  8
Ech.1_2
 62
     5
370
    40
100
AcDbPolyline
 90
        5
 70
     0
 43
0.0
 10
4995.894790552577
 20
96.756326665487
 10
4995.895670954595
 20
123.7589643239298
 10
5062.898098293388
 20
123.7563232108041
 10
5062.89721789137
 20
96.75368555230307
 10
4995.894790552577
 20
96.756326665487
  0
LWPOLYLINE
  5
256
330
1F
100
AcDbEntity
  8
Ech.1_2
 62
   190
370
    15
100
AcDbPolyline
 90
        4
 70
     0
 43
0.0
 10
5062.898098293388
 20
123.7563232108041
 10
4995.894790552577
 20
96.756326665487
 10
4995.895670954595
 20
123.758964323988
 10
5062.89721789137
 20
96.75368555230307
  0
LWPOLYLINE
  5
257
330
1F
100
AcDbEntity
  8
Ech.1_2
 62
   190
370
    15
100
AcDbPolyline
 90
        6
 70
     0
 43
0.0
 10
5160.894790552613
 20
7.664305117992626
 10
5033.938911318915
 20
7.66430511798535
 10
5027.344710056552
 20
0.4733657550314092
 10
5032.988686063674
 20
14.8556457597515
 10
5026.394144431079
 20
7.664305117981712
 10
4891.893498309555
 20
7.664305117978074
  0
LWPOLYLINE
  5
258
330
1F
100
AcDbEntity
  8
Ech.1_2
 62
   190
370
    15
100
AcDbPolyline
 90
        6
 70
     0
 43
0.0
 10
4906.893097030725
 20
261.7112996328069
 10
4906.893097030732
 20
134.7554203991131
 10
4914.084036393686
 20
128.1612191367458
 10
4899.701756388966
 20
133.8051951438683
 10
4906.893097030736
 20
127.2106535112762
 10
4906.893097030739
 20
-7.28999261025092
  0
LWPOLYLINE
  5
259
330
1F
100
AcDbEntity
  8
Ech.1_2
 62
   190
370
    15
100
AcDbPolyline
 90
        6
 70
     0
 43
0.0
 10
5145.894790552617
 20
-7.335694881992822
 10
5145.894790552609
 20
67.16556608313476
 10
5138.703851189655
 20
73.75976734550204
 10
5153.086131194375
 20
68.1157913383795
 10
5145.894790552606
 20
74.71033297097165
 10
5145.894790552603
 20
148.7856304143834
  0
LWPOLYLINE
  5
25A
330
1F
100
AcDbEntity
  8
Ech.1_2
 62
   190
370
    15
100
AcDbPolyline
 90
        6
 70
     0
 43
0.0
 10
4891.893498309526
 20
246.7563239147858
 10
4966.350050258852
 20
246.7563239148003
 10
4972.944251521216
 20
253.9472632777542
 10
4967.300275514093
 20
239.5649832730342
 10
4973.894817146685
 20
246.7563239148003
 10
5047.898098293388
 20
246.7563239148067
  0
LWPOLYLINE
  5
25C
330
1F
100
AcDbEntity
  8
Ech.1_2
  6
CADWORK_22
 62
   106
 48
0.6
370
    35
100
AcDbPolyline
 90
        3
 70
   128
 43
0.0
 10
5062.898098293388
 20
123.7563232108041
 10
5022.898098293246
 20
123.7563232108041
 10
5022.898098292744
 20
171.7856211426797
  0
LWPOLYLINE
  5
25D
330
1F
100
AcDbEntity
  8
Ech.1_2
  6
CADWORK_22
 62
   106
 48
0.6
370
    35
100
AcDbPolyline
 90
        2
 70
   128
 43
0.0
 10
5022.898098292744
 20
171.7856211426797
 10
5019.159698549496
 20
175.7051532432188
  0
LWPOLYLINE
  5
25E
330
1F
100
AcDbEntity
  8
Ech.1_2
  6
CADWORK_22
 62
   106
 48
0.6
370
    35
100
AcDbPolyline
 90
        2
 70
   128
 43
0.0
 10
5066.636498036636
 20
119.836791110265
 10
5062.898098293388
 20
123.7563232108041
  0
LWPOLYLINE
  5
25F
330
1F
100
AcDbEntity
  8
Ech.1_2
 62
   190
370
    15
100
AcDbPolyline
 90
        3
 70
     0
 43
0.0
 10
5010.244444823195
 20
164.8459706005492
 10
5010.244444823195
 20
236.9879511124818
 10
5147.219515669936
 20
236.9879511124818
  0
INSERT
  5
260
330
1F
100
AcDbEntity
  8
Ech.1_2
 62
   190
370
    15
100
AcDbBlockReference
  2
cw-line-extremity4
 10
5010.244444823195
 20
164.8459706005492
 30
0.0
 50
90.0
  0
LWPOLYLINE
  5
261
330
1F
100
AcDbEntity
  8
Ech.1_2
 62
   190
370
    15
100
AcDbPolyline
 90
        3
 70
     0
 43
0.0
 10
5115.436980782581
 20
62.91217038007744
 10
5115.436980782581
 20
161.7513021917475
 10
5147.219515669936
 20
161.7513021917475
  0
INSERT
  5
262
330
1F
100
AcDbEntity
  8
Ech.1_2
 62
   190
370
    15
100
AcDbBlockReference
  2
cw-line-extremity4
 10
5115.436980782581
 20
62.91217038007744
 30
0.0
 50
90.0
  0
LWPOLYLINE
  5
263
330
1F
100
AcDbEntity
  8
Ech.1_2
 62
   190
370
    15
100
AcDbPolyline
 90
        3
 70
     0
 43
0.0
 10
5105.648371879057
 20
128.9045136390687
 10
5105.648371879057
 20
185.9123093815942
 10
5147.219515669936
 20
185.9123093815942
  0
INSERT
  5
264
330
1F
100
AcDbEntity
  8
Ech.1_2
 62
   190
370
    15
100
AcDbBlockReference
  2
cw-line-extremity4
 10
5105.648371879057
 20
128.9045136390687
 30
0.0
 50
90.0
  0
LWPOLYLINE
  5
265
330
1F
100
AcDbEntity
  8
Ech.1_2
 62
   190
370
    15
100
AcDbPolyline
 90
        3
 70
     0
 43
0.0
 10
5055.087162568982
 20
123.7563232108041
 10
5055.087162568982
 20
212.471637169976
 10
5147.219515669936
 20
212.471637169976
  0
INSERT
  5
266
330
1F
100
AcDbEntity
  8
Ech.1_2
 62
   190
370
    15
100
AcDbBlockReference
  2
cw-line-extremity4
 10
5055.087162568982
 20
123.7563232108041
 30
0.0
 50
90.0
  0
LWPOLYLINE
  5
267
330
1F
100
AcDbEntity
  8
Ech.1_2
 62
     7
370
    20
100
AcDbPolyline
 90
        3
 70
     0
 43
0.0
 10
5145.894790552604
 20
96.756326665487
 10
4995.894790552577
 20
96.756326665487
 10
4995.894790552577
 20
246.7563239148003
  0
LWPOLYLINE
  5
268
330
1F
100
AcDbEntity
  8
Ech.1_2
 62
   190
370
    15
100
AcDbPolyline
 90
        5
 70
     0
 43
0.0
 10
4870.300343097577
 20
-79.19405693356384
 10
5264.300343097577
 20
-79.19405693356384
 10
5264.300343097577
 20
-134.1592857595861
 10
4870.300343097577
 20
-134.1592857595861
 10
4870.300343097577
 20
-79.19405693356384
  0
LWPOLYLINE
  5
269
330
1F
100
AcDbEntity
  8
Ech.1_2
 62
   190
370
    15
100
AcDbPolyline
 90
        5
 70
     0
 43
0.0
 10
5264.300343097577
 20
369.6339290381075
 10
4870.300343097577
 20
369.6339290381075
 10
4870.300343097577
 20
407.8407142403667
 10
5264.300343097577
 20
407.8407142403667
 10
5264.300343097577
 20
369.6339290381075
  0
LWPOLYLINE
  5
26A
330
1F
100
AcDbEntity
  8
Ech.1_2
 62
   190
370
    15
100
AcDbPolyline
 90
        5
 70
     0
 43
0.0
 10
5264.300343097577
 20
-87.99405693356312
 10
4870.300343097577
 20
-87.99405693356312
 10
4870.300343097577
 20
-79.19405693356384
 10
5264.300343097577
 20
-79.19405693356384
 10
5264.300343097577
 20
-87.99405693356312
  0
LWPOLYLINE
  5
26B
330
1F
100
AcDbEntity
  8
Ech.1_2
 62
   190
370
    15
100
AcDbPolyline
 90
        5
 70
     0
 43
0.0
 10
5264.300343097577
 20
-110.7425150257004
 10
4870.300343097577
 20
-110.7425150257004
 10
4870.300343097577
 20
-101.251703701404
 10
5264.300343097577
 20
-101.251703701404
 10
5264.300343097577
 20
-110.7425150257004
  0
LINE
  5
26C
330
1F
100
AcDbEntity
  8
Ech.1_2
 62
   190
370
    15
100
AcDbLine
 10
4945.58216788276
 20
-79.19405693356384
 30
0.0
 11
4945.58216788276
 21
-87.99405693356312
 31
0.0
  0
LINE
  5
26D
330
1F
100
AcDbEntity
  8
Ech.1_2
 62
   190
370
    15
100
AcDbLine
 10
5208.381408934978
 20
-79.19405693356384
 30
0.0
 11
5208.381408934978
 21
-87.99405693356312
 31
0.0
  0
LINE
  5
26E
330
1F
100
AcDbEntity
  8
Ech.1_2
 62
   190
370
    15
100
AcDbLine
 10
5008.0442550809
 20
-79.19405693356384
 30
0.0
 11
5008.0442550809
 21
-87.99405693356312
 31
0.0
  0
IMAGE
  5
271
330
1F
100
AcDbEntity
  8
Ech.1_2
160
                 8
310
0800000000000000
100
AcDbRasterImage
 90
        0
 10
4946.726042593929
 20
-132.145066767167
 30
0.0
 11
0.1133603238866397
 21
0.0
 31
0.0
 12
0.0
 22
0.1111111111111111
 32
0.0
 13
247.0
 23
171.0
340
270
 70
     3
280
     0
281
    50
282
    50
283
     0
360
272
 71
     1
 91
        2
 14
-0.5
 24
-0.5
 14
246.5
 24
170.5
290
     0
  0
IMAGE
  5
274
330
1F
100
AcDbEntity
  8
Ech.1_2
160
                 8
310
0800000000000000
100
AcDbRasterImage
 90
        0
 10
5051.157111090721
 20
-133.1669116886806
 30
0.0
 11
0.16
 21
0.0
 31
0.0
 12
0.0
 22
0.1578947368421053
 32
0.0
 13
200.0
 23
133.0
340
273
 70
     3
280
     0
281
    50
282
    50
283
     0
360
275
 71
     1
 91
        2
 14
-0.5
 24
-0.5
 14
199.5
 24
132.5
290
     0
  0
IMAGE
  5
277
330
1F
100
AcDbEntity
  8
Ech.1_2
160
                 8
310
0800000000000000
100
AcDbRasterImage
 90
        0
 10
5148.506977642378
 20
-133.6489028546603
 30
0.0
 11
0.03770739064856712
 21
0.0
 31
0.0
 12
0.0
 22
0.03793103448275862
 32
0.0
 13
1326.0
 23
580.0
340
276
 70
     3
280
     0
281
    50
282
    50
283
     0
360
278
 71
     1
 91
        2
 14
-0.5
 24
-0.5
 14
1325.5
 24
579.5
290
     0
  0
LINE
  5
279
330
1F
100
AcDbEntity
  8
Ech.1_2
 62
   190
370
    15
100
AcDbLine
 10
5264.300343097577
 20
395.8407142404103
 30
0.0
 11
4870.300343097577
 21
395.8407142404103
 31
0.0
  0
LWPOLYLINE
  5
27A
330
1F
100
AcDbEntity
  8
Ech.1_2
 62
   190
370
    15
100
AcDbPolyline
 90
        5
 70
     0
 43
0.0
 10
5264.300343097577
 20
-134.1592857595861
 10
5264.300343097577
 20
407.8407142404139
 10
4870.300343097577
 20
407.8407142404139
 10
4870.300343097577
 20
-134.1592857595861
 10
5264.300343097577
 20
-134.1592857595861
  0
CIRCLE
  5
27B
330
1F
100
AcDbEntity
  8
Ech.1_2
 62
   154
420
    21156
370
    50
100
AcDbCircle
 10
5193.363974670076
 20
320.4355687277357
 30
0.0
 40
29.99694606438788
  0
LWPOLYLINE
  5
27C
330
1F
100
AcDbEntity
  8
Ech.1_2
 62
   154
420
    21156
370
    20
100
AcDbPolyline
 90
      194
 70
     0
 43
0.0
 10
5193.032263576205
 20
329.1650936821798
 10
5193.402963997748
 20
328.0950150935408
 10
5193.766114033744
 20
327.0235173057815
 10
5193.942498161677
 20
326.4867927125067
 10
5194.114163298642
 20
325.9491811197816
 10
5194.280165646447
 20
325.4105051277163
 10
5194.439561406895
 20
324.8705873364207
 10
5194.591406781797
 20
324.3292503460049
 10
5194.734757972955
 20
323.7863167565786
 10
5194.868671182179
 20
323.241609168252
 10
5194.992202611274
 20
322.6949501811349
 10
5195.104408462045
 20
322.1461623953372
 10
5195.204344936302
 20
321.5950684109692
 10
5195.291068235848
 20
321.0414908281406
 10
5195.363634562492
 20
320.4852522469614
 10
5195.421100118037
 20
319.9261752675415
 10
5195.443875169714
 20
319.6455169410257
 10
5195.462521104294
 20
319.3640824899909
 10
5195.476919947001
 20
319.0818497394509
 10
5195.486953723066
 20
318.7987965144196
 10
5195.492504457711
 20
318.5149006399106
 10
5195.49345417616
 20
318.2301399409376
 10
5195.489712328961
 20
317.944498141225
 10
5195.481534242033
 20
317.6580333563012
 10
5195.453842066207
 20
317.0830719255015
 10
5195.414346090372
 20
316.5061347863664
 10
5195.367019357664
 20
315.9281020664166
 10
5195.264765794192
 20
314.7722703941557
 10
5195.217785049709
 20
314.1962316968862
 10
5195.178865720913
 20
313.6226179288849
 10
5195.151980850946
 20
313.0523092176725
 10
5195.144292914003
 20
312.7686692982124
 10
5195.141103482944
 20
312.4861856907698
 10
5195.142909188163
 20
312.2049684112848
 10
5195.15020666005
 20
311.9251274756974
 10
5195.163492529
 20
311.6467728999479
 10
5195.183263425401
 20
311.3700146999762
 10
5195.210015979651
 20
311.0949628917225
 10
5195.244246822142
 20
310.8217274911269
 10
5195.286452583261
 20
310.5504185141293
 10
5195.337129893405
 20
310.28114597667
 10
5195.396775382967
 20
310.0140198946891
 10
5195.465885682338
 20
309.7491502841265
 10
5195.544957421909
 20
309.4866471609225
 10
5195.634487232073
 20
309.2266205410171
 10
5195.734971743225
 20
308.9691804403503
 10
5195.846904808484
 20
308.7144371516757
 10
5195.970499561968
 20
308.462528947279
 10
5196.105451422373
 20
308.2136457006376
 10
5196.251399990375
 20
307.9679828486665
 10
5196.407984866637
 20
307.7257358282797
 10
5196.574845651831
 20
307.4871000763918
 10
5196.751621946624
 20
307.2522710299173
 10
5196.937953351688
 20
307.0214441257705
 10
5197.133479467689
 20
306.7948148008661
 10
5197.337839895295
 20
306.5725784921184
 10
5197.550674235178
 20
306.3549306364417
 10
5197.771622088005
 20
306.1420666707507
 10
5198.000323054444
 20
305.9341820319597
 10
5198.236416735167
 20
305.7314721569833
 10
5198.479542730839
 20
305.5341324827358
 10
5198.729340642131
 20
305.3423584461317
 10
5198.985450069713
 20
305.1563454840855
 10
5199.247510614251
 20
304.9762890335116
 10
5199.515161876416
 20
304.8023845313244
 10
5199.788043456876
 20
304.6348274144385
 10
5200.065794956299
 20
304.4738131197681
 10
5200.348055975357
 20
304.319537084228
 10
5200.634466114715
 20
304.1721947447324
 10
5200.924664975044
 20
304.0319815381958
 10
5201.218292157013
 20
303.8990929015326
 10
5201.514987261289
 20
303.7737242716574
 10
5201.814389888543
 20
303.6560710854846
 10
5202.116139639444
 20
303.5463287799286
 10
5202.419876114658
 20
303.4446927919037
 10
5202.725238914856
 20
303.3513585583246
 10
5203.031867640708
 20
303.2665215161059
 10
5203.33940189288
 20
303.1903771021615
 10
5203.647481272043
 20
303.1231207534063
 10
5203.955745378866
 20
303.0649479067546
 10
5204.263833814015
 20
303.0160539991209
 10
5204.571386178162
 20
302.9766344674197
 10
5204.878042071975
 20
302.9468847485652
 10
5205.183441096122
 20
302.9270002794721
 10
5205.487222851273
 20
302.9171764970548
 10
5205.789026938096
 20
302.9176088382277
 10
5206.08849295726
 20
302.9284927399053
 10
5206.385260509434
 20
302.950023639002
 10
5206.678969195287
 20
302.9823969724323
 10
5206.969258615488
 20
303.0258081771105
 10
5207.255768370705
 20
303.0804526899514
 10
5207.538138061609
 20
303.1465259478691
 10
5207.816007288866
 20
303.2242233877782
 10
5208.089015653147
 20
303.3137404465932
 10
5208.35680275512
 20
303.4152725612284
 10
5208.619008195454
 20
303.5290151685983
 10
5208.875282641063
 20
303.6551418106371
 10
5209.125439579935
 20
303.7935038816902
 10
5209.369416441908
 20
303.9437075525272
 10
5209.607153765308
 20
304.1053528436485
 10
5209.838592088461
 20
304.2780397755546
 10
5210.063671949695
 20
304.4613683687459
 10
5210.282333887339
 20
304.654938643723
 10
5210.494518439716
 20
304.8583506209864
 10
5210.700166145156
 20
305.0712043210365
 10
5210.899217541986
 20
305.2930997643738
 10
5211.091613168534
 20
305.5236369714989
 10
5211.277293563125
 20
305.7624159629122
 10
5211.456199264087
 20
306.0090367591142
 10
5211.628270809748
 20
306.2630993806054
 10
5211.793448738434
 20
306.5242038478861
 10
5211.951673588474
 20
306.7919501814573
 10
5212.102885898194
 20
307.0659384018189
 10
5212.247026205919
 20
307.3457685294717
 10
5212.38403504998
 20
307.6310405849162
 10
5212.513852968703
 20
307.9213545886527
 10
5212.636420500414
 20
308.216310561182
 10
5212.75167818344
 20
308.5155085230043
 10
5212.859566556111
 20
308.8185484946202
 10
5212.960026156752
 20
309.1250304965302
 10
5213.05299752369
 20
309.4345545492348
 10
5213.138421195252
 20
309.7467206732344
 10
5213.216237709766
 20
310.0611288890296
 10
5213.28638760556
 20
310.3773792171208
 10
5213.348811420959
 20
310.6950716780086
 10
5213.403449694291
 20
311.0138062921934
 10
5213.450242963885
 20
311.3331830801756
 10
5213.489131768068
 20
311.6528020624559
 10
5213.520056645165
 20
311.9722632595348
 10
5213.542958133503
 20
312.2911666919125
 10
5213.55777677141
 20
312.6091123800897
 10
5213.564453097215
 20
312.925700344567
 10
5213.562927649244
 20
313.2405306058446
 10
5213.553140965822
 20
313.5532031844231
 10
5213.535033585279
 20
313.8633181008031
 10
5213.508546045941
 20
314.170475375485
 10
5213.473618886136
 20
314.4742750289693
 10
5213.43019264419
 20
314.7743170817564
 10
5213.378207858432
 20
315.0702015543471
 10
5213.317605067186
 20
315.3615284672415
 10
5213.248324808783
 20
315.6478978409403
 10
5213.170307621546
 20
315.928909695944
 10
5213.083494043805
 20
316.2041640527529
 10
5212.987824613889
 20
316.4732609318677
 10
5212.883239870122
 20
316.7358003537889
 10
5212.769680350832
 20
316.9913823390168
 10
5212.647086594346
 20
317.239606908052
 10
5212.51540912115
 20
317.4800929068728
 10
5212.374774269181
 20
317.7127907577819
 10
5212.225458671626
 20
317.9379343267708
 10
5212.067743799994
 20
318.1557666044834
 10
5211.901911125797
 20
318.3665305815641
 10
5211.72824212054
 20
318.5704692486571
 10
5211.547018255736
 20
318.7678255964069
 10
5211.358521002895
 20
318.9588426154575
 10
5211.163031833526
 20
319.1437632964534
 10
5210.960832219137
 20
319.3228306300386
 10
5210.75220363124
 20
319.4962876068577
 10
5210.537427541342
 20
319.6643772175548
 10
5210.316785420956
 20
319.8273424527742
 10
5210.09055874159
 20
319.9854263031602
 10
5209.859028974753
 20
320.138871759357
 10
5209.622477591955
 20
320.287921812009
 10
5209.381186064707
 20
320.4328194517602
 10
5209.135435864517
 20
320.5738076692552
 10
5208.885508462894
 20
320.7111294551381
 10
5208.63168533135
 20
320.8450278000532
 10
5208.374247941393
 20
320.9757456946449
 10
5208.113477764534
 20
321.1035261295573
 10
5207.583064936142
 20
321.3512465829214
 10
5207.042698618259
 20
321.5901330853
 10
5206.494630582955
 20
321.8221295618471
 10
5205.94111260231
 20
322.0491799377169
 10
5204.826733893303
 20
322.4962180880414
 10
5204.270376709096
 20
322.7200937128046
 10
5203.717576667857
 20
322.9467989375073
 10
5203.170585541662
 20
323.1782776873036
 10
5202.631448639244
 20
323.4162965501379
 10
5202.100555123451
 20
323.6611996033781
 10
5201.577497648064
 20
323.9126467802124
 10
5201.061863789903
 20
324.1702936530833
 10
5200.553241125793
 20
324.4337957944331
 10
5200.051217232549
 20
324.7028087767044
 10
5199.555379686994
 20
324.9769881723395
 10
5199.065316065949
 20
325.2559895537806
 10
5198.580613946236
 20
325.5394684934706
 10
5198.100860904674
 20
325.8270805638514
 10
5197.625644518083
 20
326.1184813373657
 10
5197.154552363285
 20
326.4133263864559
 10
5196.687172017101
 20
326.7112712835643
 10
5195.761897057859
 20
327.3150829116058
 10
5194.846520254917
 20
327.9271608010293
 10
5193.937742222844
 20
328.5447495313742
 10
5193.032263576205
 20
329.1650936821798
  0
LWPOLYLINE
  5
27D
330
1F
100
AcDbEntity
  8
Ech.1_2
 62
   154
420
    21156
370
    20
100
AcDbPolyline
 90
       95
 70
     0
 43
0.0
 10
5210.587826745482
 20
317.4803485199272
 10
5210.569050683061
 20
316.9455540767353
 10
5210.55007592265
 20
316.4013637632968
 10
5210.540451937574
 20
316.122808945783
 10
5210.530703766255
 20
315.838381709365
 10
5210.520806571442
 20
315.546907570262
 10
5210.510735515886
 20
315.2472120446932
 10
5210.500465762339
 20
314.9381206488777
 10
5210.489972473548
 20
314.6184588990346
 10
5210.479230812271
 20
314.2870523113833
 10
5210.468215941256
 20
313.9427264021429
 10
5210.456903023251
 20
313.5843066875325
 10
5210.44526722101
 20
313.2106186837711
 10
5210.439320476661
 20
313.0176820472775
 10
5210.433283697285
 20
312.8204879070782
 10
5210.421033577783
 20
312.4134833176867
 10
5210.40921275428
 20
311.9934871204199
 10
5210.398738276833
 20
311.5659331831038
 10
5210.390527486881
 20
311.1362574179156
 10
5210.385497725866
 20
310.7098957370325
 10
5210.384566335221
 20
310.2922840526312
 10
5210.385924197991
 20
310.0884581816666
 10
5210.38865065639
 20
309.888858276889
 10
5210.392860378105
 20
309.6941638273204
 10
5210.39866803081
 20
309.505054321983
 10
5210.406188282189
 20
309.3222092498989
 10
5210.415535799919
 20
309.1463081000903
 10
5210.42682525168
 20
308.9780303615791
 10
5210.440171305155
 20
308.8180555233877
 10
5210.455688628022
 20
308.6670630745382
 10
5210.473491887959
 20
308.5257325040525
 10
5210.493695752648
 20
308.3947433009532
 10
5210.516414889769
 20
308.2747749542619
 10
5210.541763967
 20
308.1665069530011
 10
5210.569857652024
 20
308.0706187861929
 10
5210.600810612515
 20
307.9877899428591
 10
5210.634737516159
 20
307.9186999120223
 10
5210.671753030635
 20
307.8640281827044
 10
5210.711971823619
 20
307.8244542439274
 10
5210.733318283203
 20
307.8105412863113
 10
5210.755508562795
 20
307.8006575847137
 10
5210.778556995852
 20
307.7948880752625
 10
5210.80247791584
 20
307.7933176940854
 10
5210.827284964314
 20
307.7960291521693
 10
5210.852967602395
 20
307.8030273963735
 10
5210.879485367224
 20
307.8142211383031
 10
5210.906795938969
 20
307.8295131175211
 10
5210.963626223852
 20
307.8720027460731
 10
5211.023119898353
 20
307.929718198532
 10
5211.084938403781
 20
308.0018813914004
 10
5211.148743181442
 20
308.0877142411808
 10
5211.214195672646
 20
308.1864386643758
 10
5211.280957318701
 20
308.2972765774878
 10
5211.348689560912
 20
308.4194498970193
 10
5211.41705384059
 20
308.5521805394731
 10
5211.485711599041
 20
308.6946904213513
 10
5211.554324277576
 20
308.8462014591568
 10
5211.6225533175
 20
309.0059355693919
 10
5211.690060160122
 20
309.1731146685592
 10
5211.75650624675
 20
309.3469606731612
 10
5211.821553018694
 20
309.5266954997006
 10
5211.884861917259
 20
309.7115410646796
 10
5211.946094383753
 20
309.900719284601
 10
5212.060975785767
 20
310.2889613552807
 10
5212.163488755195
 20
310.6851970437598
 10
5212.209260680963
 20
310.8843672859306
 10
5212.250924822506
 20
311.0832016820588
 10
5212.288142621138
 20
311.2809221486469
 10
5212.320575518163
 20
311.4767506021976
 10
5212.347885580881
 20
311.6699100925355
 10
5212.369869190228
 20
311.8598668370665
 10
5212.386623189985
 20
312.0466310249356
 10
5212.398285201457
 20
312.2302866707918
 10
5212.404992845949
 20
312.410917789284
 10
5212.406883744765
 20
312.5886083950612
 10
5212.404095519209
 20
312.7634425027723
 10
5212.396765790591
 20
312.9355041270665
 10
5212.385032180211
 20
313.1048772825928
 10
5212.369032309377
 20
313.271645984
 10
5212.348903799391
 20
313.4358942459373
 10
5212.324784271562
 20
313.5977060830535
 10
5212.296811347191
 20
313.7571655099979
 10
5212.265122647585
 20
313.9143565414192
 10
5212.229855794049
 20
314.0693631919664
 10
5212.191148407887
 20
314.2222694762888
 10
5212.10396252291
 20
314.5221170048545
 10
5212.004665963092
 20
314.8145712443083
 10
5211.894359698874
 20
315.1003043118421
 10
5211.774144700692
 20
315.3799883246478
 10
5211.645121938992
 20
315.6542953999177
 10
5211.508392384212
 20
315.9238976548436
 10
5211.365057006791
 20
316.1894672066175
 10
5211.216216777169
 20
316.4516761724315
 10
5210.906425643085
 20
316.9687008149473
 10
5210.587826745482
 20
317.4803485199272
  0
LWPOLYLINE
  5
27E
330
1F
100
AcDbEntity
  8
Ech.1_2
 62
   154
420
    21156
370
    20
100
AcDbPolyline
 90
      171
 70
     0
 43
0.0
 10
5180.648900970044
 20
323.1387171803335
 10
5180.982273838383
 20
321.97983107758
 10
5181.142099517566
 20
321.3991174564143
 10
5181.293692290766
 20
320.8168791515016
 10
5181.434307855989
 20
320.2326079349265
 10
5181.56120191124
 20
319.6457955787733
 10
5181.618645778253
 20
319.3512776521314
 10
5181.671630154527
 20
319.0559338551266
 10
5181.719812002309
 20
318.7597006592694
 10
5181.762848283852
 20
318.4625145360704
 10
5181.800395961407
 20
318.1643119570403
 10
5181.832111997222
 20
317.8650293936893
 10
5181.857653353552
 20
317.5646033175283
 10
5181.876676992645
 20
317.2629702000677
 10
5181.888839876751
 20
316.9600665128181
 10
5181.893798968124
 20
316.65582872729
 10
5181.891211229013
 20
316.350193314994
 10
5181.880733621665
 20
316.0430967474405
 10
5181.862326364485
 20
315.7345413832641
 10
5181.837636010044
 20
315.4248959634775
 10
5181.778323814004
 20
314.8043164963256
 10
5181.720635424475
 20
314.1853220288526
 10
5181.697974828175
 20
313.8776578586647
 10
5181.682409788724
 20
313.5718763647992
 10
5181.676170174534
 20
313.2684730227236
 10
5181.681485854013
 20
312.9679433079057
 10
5181.700586695571
 20
312.670782695813
 10
5181.716003386005
 20
312.5236206393722
 10
5181.735702567614
 20
312.3774866619131
 10
5181.759962973943
 20
312.2324426978689
 10
5181.789063338548
 20
312.0885506816733
 10
5181.823282394979
 20
311.9458725477598
 10
5181.862898876786
 20
311.8044702305616
 10
5181.908191517521
 20
311.6644056645123
 10
5181.959439050734
 20
311.5257407840453
 10
5182.016920209975
 20
311.388537523594
 10
5182.080894275911
 20
311.2528601932658
 10
5182.151349007512
 20
311.1188062626113
 10
5182.228072714634
 20
310.9864975588011
 10
5182.310849100122
 20
310.8560564716337
 10
5182.399461866822
 20
310.7276053909072
 10
5182.493694717587
 20
310.6012667064199
 10
5182.59333135526
 20
310.4771628079702
 10
5182.698155482695
 20
310.3554160853565
 10
5182.807950802734
 20
310.2361489283768
 10
5182.922501018228
 20
310.1194837268297
 10
5183.041589832027
 20
310.0055428705134
 10
5183.165000946976
 20
309.8944487492261
 10
5183.292518065924
 20
309.7863237527663
 10
5183.423924891718
 20
309.6812902709321
 10
5183.559005127208
 20
309.579470693522
 10
5183.697542475244
 20
309.4809874103341
 10
5183.839320638669
 20
309.3859628111669
 10
5183.984123320335
 20
309.2945192858186
 10
5184.131734223087
 20
309.2067792240875
 10
5184.281937049775
 20
309.122865015772
 10
5184.434515503249
 20
309.0428990506702
 10
5184.589253286352
 20
308.9670037185807
 10
5184.745934101938
 20
308.8953014093016
 10
5184.90434165285
 20
308.8279145126311
 10
5185.064259641938
 20
308.7649654183677
 10
5185.225471772052
 20
308.7065765163097
 10
5185.387761746038
 20
308.6528701962554
 10
5185.550913266743
 20
308.6039688480029
 10
5185.714710037018
 20
308.5599948613507
 10
5185.87893575971
 20
308.5210706260972
 10
5186.043374137666
 20
308.4873185320405
 10
5186.207808873736
 20
308.458860968979
 10
5186.372023670766
 20
308.435820326711
 10
5186.535802231606
 20
308.4183189950347
 10
5186.698928259102
 20
308.4064793637485
 10
5186.861185456104
 20
308.4004238226508
 10
5187.022357525459
 20
308.4002747615397
 10
5187.182228170016
 20
308.4061545702136
 10
5187.340581092622
 20
308.4181856384709
 10
5187.497199996125
 20
308.4364903561097
 10
5187.651868583375
 20
308.4611911129285
 10
5187.804370557219
 20
308.4924102987254
 10
5187.954489620505
 20
308.530270303299
 10
5188.10200947608
 20
308.5748935164472
 10
5188.246713826793
 20
308.6264023279688
 10
5188.388386375493
 20
308.6849191276616
 10
5188.52681124854
 20
308.7505654002427
 10
5188.661826995689
 20
308.8233463230257
 10
5188.793379619193
 20
308.9030374382535
 10
5188.921427715298
 20
308.9893873737338
 10
5189.045929880253
 20
309.0821447572742
 10
5189.166844710301
 20
309.1810582166824
 10
5189.284130801692
 20
309.2858763797664
 10
5189.397746750671
 20
309.3963478743336
 10
5189.507651153487
 20
309.5122213281917
 10
5189.613802606385
 20
309.6332453691486
 10
5189.716159705611
 20
309.759168625012
 10
5189.814681047415
 20
309.8897397235894
 10
5189.909325228043
 20
310.0247072926887
 10
5190.000050843741
 20
310.1638199601176
 10
5190.086816490756
 20
310.3068263536836
 10
5190.169580765335
 20
310.4534751011947
 10
5190.248302263725
 20
310.6035148304584
 10
5190.322939582174
 20
310.7566941692824
 10
5190.393451316927
 20
310.9127617454746
 10
5190.459796064232
 20
311.0714661868425
 10
5190.521932420336
 20
311.232556121194
 10
5190.579818981484
 20
311.3957801763366
 10
5190.633414343926
 20
311.5608869800782
 10
5190.682677103908
 20
311.7276251602264
 10
5190.727565857675
 20
311.8957433445889
 10
5190.768039201477
 20
312.0649901609735
 10
5190.804055731558
 20
312.2351142371878
 10
5190.835574044166
 20
312.4058642010395
 10
5190.862552735548
 20
312.5769886803365
 10
5190.884950401951
 20
312.7482363028862
 10
5190.902725639623
 20
312.9193556964966
 10
5190.915837044809
 20
313.0900954889752
 10
5190.924243213755
 20
313.2602043081299
 10
5190.927902742711
 20
313.4294307817682
 10
5190.926774227922
 20
313.5975235376978
 10
5190.920816265637
 20
313.7642312037268
 10
5190.909987452101
 20
313.9293024076624
 10
5190.894246383561
 20
314.0924857773127
 10
5190.873551656262
 20
314.2535299404851
 10
5190.847861866455
 20
314.4121835249874
 10
5190.817135610384
 20
314.5681951586274
 10
5190.781331484298
 20
314.7213134692128
 10
5190.740408084442
 20
314.8712870845513
 10
5190.694324007063
 20
315.0178646324505
 10
5190.64303784841
 20
315.1607947407182
 10
5190.586508204728
 20
315.2998260371621
 10
5190.524693672263
 20
315.4347071495899
 10
5190.457552847266
 20
315.5651867058094
 10
5190.385052039272
 20
315.6910274487252
 10
5190.307281569239
 20
315.8122190584793
 10
5190.224431820058
 20
315.9289343256054
 10
5190.136696028771
 20
316.0413512636462
 10
5190.044267432422
 20
316.1496478861454
 10
5189.94733926805
 20
316.254002206646
 10
5189.846104772697
 20
316.3545922386912
 10
5189.740757183406
 20
316.4515959958243
 10
5189.631489737218
 20
316.5451914915886
 10
5189.518495671175
 20
316.635556739527
 10
5189.401968222317
 20
316.722869753183
 10
5189.282100627687
 20
316.8073085460998
 10
5189.159086124327
 20
316.8890511318205
 10
5188.904389339581
 20
317.0451597358465
 10
5188.639423764415
 20
317.1926196736072
 10
5188.365735295164
 20
317.3328550534481
 10
5188.084869828155
 20
317.4672899837149
 10
5187.798373259727
 20
317.5973485727534
 10
5187.214670403943
 20
317.8500331605287
 10
5186.626993898479
 20
318.10230168354
 10
5186.335530267949
 20
318.2318401916234
 10
5186.047710914001
 20
318.3655470085531
 10
5185.765081732967
 20
318.5048462426748
 10
5185.489117402773
 20
318.6510950286849
 10
5185.220273328309
 20
318.8046919789153
 10
5184.958243333373
 20
318.9653195163332
 10
5184.702702937987
 20
319.1326428510728
 10
5184.453327662173
 20
319.3063271932677
 10
5184.209793025954
 20
319.4860377530521
 10
5183.971774549353
 20
319.6714397405598
 10
5183.738947752391
 20
319.8621983659248
 10
5183.510988155091
 20
320.0579788392807
 10
5183.287571277477
 20
320.2584463707619
 10
5183.068372639568
 20
320.4632661705021
 10
5182.853067761393
 20
320.6721034486352
 10
5182.641332162966
 20
320.884623415295
 10
5182.432841364316
 20
321.1004912806157
 10
5182.227270885463
 20
321.3193722547311
 10
5181.823592967237
 20
321.7648343698814
 10
5181.427702568474
 20
322.2183314418179
 10
5180.648900970044
 20
323.1387171803335
  0
LWPOLYLINE
  5
27F
330
1F
100
AcDbEntity
  8
Ech.1_2
 62
   154
420
    21156
370
    20
100
AcDbPolyline
 90
       70
 70
     0
 43
0.0
 10
5189.426681991062
 20
315.6853360555951
 10
5189.383514597004
 20
315.4140286268699
 10
5189.340359886526
 20
315.1381889684519
 10
5189.297230543208
 20
314.8532848506479
 10
5189.25413925063
 20
314.5547840437653
 10
5189.232611836987
 20
314.3990185601403
 10
5189.211098692371
 20
314.2381543181109
 10
5189.18960140223
 20
314.0716247889653
 10
5189.16812155201
 20
313.898863443992
 10
5189.146660727161
 20
313.7193037544793
 10
5189.12522051313
 20
313.5323791917157
 10
5189.103802495363
 20
313.3375232269894
 10
5189.082457842522
 20
313.1344092278322
 10
5189.061657570829
 20
312.9247418914097
 10
5189.042084008156
 20
312.7112482945927
 10
5189.009352746502
 20
312.2837217136791
 10
5188.997562915833
 20
312.0751584265337
 10
5188.989735530814
 20
311.8737082728969
 10
5188.986554525599
 20
311.6821061012442
 10
5188.988703834346
 20
311.5030867600516
 10
5188.991991085878
 20
311.4191502910264
 10
5188.99686739121
 20
311.3393850977946
 10
5189.003418242112
 20
311.2641330364156
 10
5189.011729130351
 20
311.1937359629489
 10
5189.021885547698
 20
311.1285357334539
 10
5189.033972985924
 20
311.0688742039902
 10
5189.048076936796
 20
311.0150932306171
 10
5189.064282892085
 20
310.9675346693942
 10
5189.082676343562
 20
310.9265403763809
 10
5189.103342782993
 20
310.8924522076366
 10
5189.126367702149
 20
310.8656120192208
 10
5189.1518365928
 20
310.846361667193
 10
5189.179834946717
 20
310.8350430076126
 10
5189.210440811491
 20
310.83198069156
 10
5189.24358276622
 20
310.8371539186869
 10
5189.279051089591
 20
310.8502222488569
 10
5189.316630853951
 20
310.8708332090443
 10
5189.356107131645
 20
310.8986343262234
 10
5189.397264995018
 20
310.9332731273679
 10
5189.439889516415
 20
310.9743971394523
 10
5189.48376576818
 20
311.0216538894502
 10
5189.528678822659
 20
311.0746909043362
 10
5189.574413752199
 20
311.1331557110841
 10
5189.620755629142
 20
311.1966958366681
 10
5189.667489525836
 20
311.2649588080623
 10
5189.714400514626
 20
311.3375921522408
 10
5189.807894057867
 20
311.4945600668469
 10
5189.899516837636
 20
311.6647797962795
 10
5189.987549432686
 20
311.8454315563311
 10
5190.070272421784
 20
312.0336955627945
 10
5190.14596638369
 20
312.2267520314629
 10
5190.212911897167
 20
312.4217811781286
 10
5190.269389540976
 20
312.6159632185846
 10
5190.313685553823
 20
312.8064856675107
 10
5190.344834940855
 20
312.9915016251836
 10
5190.363362633014
 20
313.1710855532033
 10
5190.369969835566
 20
313.345539230995
 10
5190.365357753782
 20
313.5151644379838
 10
5190.350227592933
 20
313.6802629535949
 10
5190.325280558292
 20
313.8411365572535
 10
5190.291217855129
 20
313.9980870283849
 10
5190.248740688715
 20
314.1514161464141
 10
5190.19855026432
 20
314.3014256907665
 10
5190.141347787217
 20
314.4484174408668
 10
5190.077834462675
 20
314.5926931761408
 10
5190.008711495964
 20
314.7345546760131
 10
5189.934680092356
 20
314.8743037199092
 10
5189.774696795538
 20
315.1486715574737
 10
5189.603494214383
 20
315.4182109242351
 10
5189.426681991062
 20
315.6853360555951
  0
LWPOLYLINE
  5
280
330
1F
100
AcDbEntity
  8
Ech.1_2
 62
   154
420
    21156
370
    20
100
AcDbPolyline
 90
      170
 70
     0
 43
0.0
 10
5199.400280747813
 20
338.2094033410294
 10
5199.681909104902
 20
337.6816626073335
 10
5199.958716938469
 20
337.1529047967846
 10
5200.225883724992
 20
336.6221128325297
 10
5200.354345312011
 20
336.3556362062461
 10
5200.478588940947
 20
336.088269637716
 10
5200.598012046362
 20
335.819885992333
 10
5200.712012062813
 20
335.5503581354904
 10
5200.819986424863
 20
335.2795589325816
 10
5200.921332567069
 20
335.0073612489999
 10
5201.01544792399
 20
334.7336379501388
 10
5201.101729930188
 20
334.4582619013916
 10
5201.179576020223
 20
334.1811059681515
 10
5201.248383628652
 20
333.9020430158124
 10
5201.307550190038
 20
333.6209459097671
 10
5201.356473138938
 20
333.3376875154094
 10
5201.394549909913
 20
333.0521406981323
 10
5201.421177937522
 20
332.7641783233295
 10
5201.435754658302
 20
332.4736732568389
 10
5201.438199438507
 20
332.1806157901619
 10
5201.430422553973
 20
331.8854441369414
 10
5201.41480891789
 20
331.5887032964747
 10
5201.369611043838
 20
330.9926940509904
 10
5201.321685121879
 20
330.3969480480859
 10
5201.302661425912
 20
330.1005362608439
 10
5201.290110457543
 20
329.8058252821382
 10
5201.286417129958
 20
329.5133601112658
 10
5201.29396635635
 20
329.2236857475239
 10
5201.315143049914
 20
328.9373471902096
 10
5201.331586982255
 20
328.7955991512431
 10
5201.352332123835
 20
328.65488943862
 10
5201.377676588804
 20
328.5152861772523
 10
5201.407918491308
 20
328.3768574920521
 10
5201.443355945498
 20
328.2396715079317
 10
5201.484287065522
 20
328.1037963498032
 10
5201.53100996553
 20
327.9693001425787
 10
5201.583822759668
 20
327.8362510111704
 10
5201.642986067945
 20
327.7047199623243
 10
5201.708450577288
 20
327.5748018245264
 10
5201.780014088404
 20
327.4466031772371
 10
5201.857473325249
 20
327.3202306826768
 10
5201.940625011779
 20
327.1957910030658
 10
5202.029265871952
 20
327.073390800625
 10
5202.12319262972
 20
326.9531367375743
 10
5202.222202009045
 20
326.8351354761347
 10
5202.326090733876
 20
326.7194936785264
 10
5202.434655528173
 20
326.60631800697
 10
5202.547693115892
 20
326.4957151236859
 10
5202.665000220989
 20
326.3877916908947
 10
5202.786373567418
 20
326.2826543708167
 10
5202.911609879136
 20
326.1804098256725
 10
5203.040505880101
 20
326.0811647176827
 10
5203.172858294265
 20
325.9850257090675
 10
5203.308463845588
 20
325.8920994620477
 10
5203.447119258022
 20
325.8024926388434
 10
5203.588621255526
 20
325.7163119016753
 10
5203.732766562055
 20
325.6336639127639
 10
5203.879351901565
 20
325.5546553343297
 10
5204.028173998012
 20
325.4793928285931
 10
5204.179029575353
 20
325.4079830577745
 10
5204.33171535754
 20
325.3405326840946
 10
5204.486028068533
 20
325.2771483697737
 10
5204.641764432287
 20
325.2179367770324
 10
5204.798721172759
 20
325.1630045680911
 10
5204.956695013901
 20
325.1124584051703
 10
5205.115482679674
 20
325.0664049504906
 10
5205.274880894031
 20
325.0249508662723
 10
5205.434686380928
 20
324.9882028147359
 10
5205.594695864324
 20
324.956267458102
 10
5205.754706068169
 20
324.9292514585911
 10
5205.914513716424
 20
324.9072614784234
 10
5206.073915533043
 20
324.8904041798196
 10
5206.232708241983
 20
324.8787862250002
 10
5206.3906885672
 20
324.8725142761856
 10
5206.547653232649
 20
324.8716949955964
 10
5206.703398962286
 20
324.8764350454529
 10
5206.857722480067
 20
324.8868410879757
 10
5207.01042050995
 20
324.9030197853854
 10
5207.161289775887
 20
324.9250777999022
 10
5207.310127001838
 20
324.9531217937467
 10
5207.456728911755
 20
324.9872584291393
 10
5207.600892229597
 20
325.0275943683008
 10
5207.74241367932
 20
325.0742362734513
 10
5207.881089984879
 20
325.1272908068115
 10
5208.016717870229
 20
325.1868646306019
 10
5208.149106273147
 20
325.2530412851793
 10
5208.278169751936
 20
325.3257043617163
 10
5208.403876959254
 20
325.4046350458833
 10
5208.526196986271
 20
325.4896136932149
 10
5208.645098924157
 20
325.5804206592455
 10
5208.760551864078
 20
325.6768362995095
 10
5208.872524897206
 20
325.7786409695413
 10
5208.980987114707
 20
325.8856150248753
 10
5209.085907607751
 20
325.9975388210462
 10
5209.187255467507
 20
326.1141927135882
 10
5209.284999785144
 20
326.2353570580357
 10
5209.379109651831
 20
326.3608122099233
 10
5209.469554158737
 20
326.4903385247854
 10
5209.556302397029
 20
326.6237163581565
 10
5209.639323457878
 20
326.7607260655709
 10
5209.718586432451
 20
326.9011480025631
 10
5209.794060411919
 20
327.0447625246675
 10
5209.865714487448
 20
327.1913499874186
 10
5209.933517750211
 20
327.3406907463509
 10
5209.997439291372
 20
327.4925651569987
 10
5210.057448202103
 20
327.6467535748964
 10
5210.113513573573
 20
327.8030363555787
 10
5210.165604496949
 20
327.9611938545798
 10
5210.2136900634
 20
328.1210064274342
 10
5210.257739364096
 20
328.2822544296765
 10
5210.297721490205
 20
328.4447182168407
 10
5210.333605532897
 20
328.6081781444618
 10
5210.36536058334
 20
328.7724145680738
 10
5210.392955732703
 20
328.9372078432116
 10
5210.416360072155
 20
329.1023383254091
 10
5210.435542692863
 20
329.2675863702011
 10
5210.450472686
 20
329.4327323331219
 10
5210.46111914273
 20
329.597556569706
 10
5210.467451154224
 20
329.7618394354877
 10
5210.469437811653
 20
329.9253612860017
 10
5210.46704820618
 20
330.0879024767822
 10
5210.460251428983
 20
330.2492433633637
 10
5210.44901657122
 20
330.4091643012808
 10
5210.433312724069
 20
330.5674456460678
 10
5210.413108978693
 20
330.723867753259
 10
5210.388374426264
 20
330.8782109783892
 10
5210.35907815795
 20
331.0302556769924
 10
5210.32518926492
 20
331.1797822046034
 10
5210.286676838341
 20
331.3265709167565
 10
5210.243509969385
 20
331.4704021689862
 10
5210.195657749218
 20
331.6110563168268
 10
5210.143089269009
 20
331.7483137158127
 10
5210.085773619928
 20
331.8819547214787
 10
5210.023679893146
 20
332.011759689359
 10
5209.956779176141
 20
332.1375128024258
 10
5209.885118087197
 20
332.2591430552775
 10
5209.808840177448
 20
332.3767652872839
 10
5209.728095358439
 20
332.4905065323303
 10
5209.643033541712
 20
332.6004938243022
 10
5209.553804638816
 20
332.7068541970853
 10
5209.460558561295
 20
332.8097146845649
 10
5209.363445220693
 20
332.9092023206266
 10
5209.262614528558
 20
333.0054441391559
 10
5209.158216396432
 20
333.0985671740382
 10
5209.050400735862
 20
333.1886984591591
 10
5208.939317458392
 20
333.2759650284041
 10
5208.825116475567
 20
333.3604939156585
 10
5208.587961040037
 20
333.5218467797381
 10
5208.340133721632
 20
333.6737733224818
 10
5208.082833812714
 20
333.8172898149736
 10
5207.817260605642
 20
333.9534125282974
 10
5207.544613392781
 20
334.0831577335373
 10
5207.266091466488
 20
334.2075417017771
 10
5206.982894119128
 20
334.327580704101
 10
5206.696220643059
 20
334.4442910115926
 10
5205.538751298939
 20
334.8981707149178
 10
5205.252686564754
 20
335.0134816145085
 10
5204.970195271069
 20
335.1314393585889
 10
5204.69144197014
 20
335.2521960492895
 10
5204.416257325217
 20
335.3756249394851
 10
5204.144471400303
 20
335.5015987815805
 10
5203.875914259394
 20
335.6299903279807
 10
5203.347806585598
 20
335.8935175433161
 10
5202.830574815824
 20
336.165188604731
 10
5202.32285946207
 20
336.4439855314657
 10
5201.823301036333
 20
336.72889034276
 10
5201.330540050612
 20
337.0188850578542
 10
5200.843217016904
 20
337.3129516959882
 10
5200.359972447201
 20
337.610072276402
 10
5199.400280747813
 20
338.2094033410294
  0
LWPOLYLINE
  5
281
330
1F
100
AcDbEntity
  8
Ech.1_2
 62
   154
420
    21156
370
    20
100
AcDbPolyline
 90
      167
 70
     0
 43
0.0
 10
5179.836175741538
 20
334.8008185351036
 10
5180.156539807615
 20
334.3080814193455
 10
5180.470619050173
 20
333.8138675721584
 10
5180.623337855282
 20
333.5657453957075
 10
5180.772128645689
 20
333.3167002621134
 10
5180.916205818459
 20
333.0665475799479
 10
5181.054783770646
 20
332.815102757782
 10
5181.187076899314
 20
332.5621812041872
 10
5181.312299601521
 20
332.3075983277348
 10
5181.429666274329
 20
332.0511695369964
 10
5181.538391314796
 20
331.7927102405433
 10
5181.637689119983
 20
331.5320358469469
 10
5181.726774086951
 20
331.2689617647785
 10
5181.804860612757
 20
331.0033034026095
 10
5181.871163094464
 20
330.7348761690114
 10
5181.924895929129
 20
330.4634954725555
 10
5181.965273513814
 20
330.1889767218132
 10
5181.991516024305
 20
329.911136700446
 10
5182.00378665002
 20
329.6300165891295
 10
5182.004228497775
 20
329.3461287044136
 10
5181.995234339521
 20
329.0600447724974
 10
5181.979196947199
 20
328.7723365195803
 10
5181.958509092761
 20
328.4835756718614
 10
5181.912753085316
 20
327.9051830968154
 10
5181.892470476201
 20
327.6166948218868
 10
5181.877108492755
 20
327.3294408569533
 10
5181.869059906924
 20
327.0439929282143
 10
5181.870717490654
 20
326.7609227618689
 10
5181.884474015891
 20
326.4808020841165
 10
5181.896637122807
 20
326.3420264678998
 10
5181.912722254581
 20
326.2042026211561
 10
5181.933028507706
 20
326.0674020096602
 10
5181.957854978675
 20
325.9316960991871
 10
5181.987500763979
 20
325.7971563555116
 10
5182.022264960114
 20
325.6638542444087
 10
5182.062446663572
 20
325.5318612316532
 10
5182.108344970847
 20
325.4012487830201
 10
5182.16025814041
 20
325.2720884050509
 10
5182.21834054863
 20
325.144458603617
 10
5182.282440739353
 20
325.0184527622055
 10
5182.352368131149
 20
324.8941661676027
 10
5182.427932142599
 20
324.771694106595
 10
5182.508942192276
 20
324.6511318659684
 10
5182.595207698758
 20
324.5325747325093
 10
5182.686538080618
 20
324.4161179930039
 10
5182.782742756433
 20
324.3018569342385
 10
5182.883631144778
 20
324.1898868429992
 10
5182.989012664228
 20
324.0803030060724
 10
5183.098696733359
 20
323.9732007102442
 10
5183.212492770749
 20
323.8686752423009
 10
5183.33021019497
 20
323.7668218890288
 10
5183.4516584246
 20
323.667735937214
 10
5183.576646878214
 20
323.5715126736429
 10
5183.704984974389
 20
323.4782473851018
 10
5183.836482131695
 20
323.3880353583766
 10
5183.970947768716
 20
323.3009718802539
 10
5184.108191304022
 20
323.2171522375198
 10
5184.248022156188
 20
323.1366717169604
 10
5184.390249743795
 20
323.0596256053623
 10
5184.534683485413
 20
322.9861091895114
 10
5184.681132799619
 20
322.916217756194
 10
5184.829407104991
 20
322.8500465921966
 10
5184.979315820103
 20
322.7876909843051
 10
5185.13066836353
 20
322.729246219306
 10
5185.283274153848
 20
322.6748075839853
 10
5185.436942609634
 20
322.6244703651295
 10
5185.591483149461
 20
322.5783298495247
 10
5185.746705191908
 20
322.5364813239572
 10
5185.902418155546
 20
322.499020075213
 10
5186.058431458956
 20
322.4660413900787
 10
5186.214554520709
 20
322.4376405553404
 10
5186.370596759383
 20
322.4139128577843
 10
5186.526367593554
 20
322.3949535841966
 10
5186.681676441795
 20
322.3808580213638
 10
5186.836332722684
 20
322.3717214560718
 10
5186.990145854797
 20
322.3676391751071
 10
5187.142925256709
 20
322.3687064652557
 10
5187.294480346995
 20
322.3750186133041
 10
5187.44462054423
 20
322.3866709060383
 10
5187.593155266989
 20
322.4037586302447
 10
5187.739893933851
 20
322.4263770727096
 10
5187.884645963388
 20
322.454621520219
 10
5188.027220774178
 20
322.4885872595593
 10
5188.167427784797
 20
322.5283695775169
 10
5188.305076413819
 20
322.5740637608777
 10
5188.43997607982
 20
322.6257650964282
 10
5188.571936201375
 20
322.6835688709546
 10
5188.700778996444
 20
322.7475476853198
 10
5188.826429244536
 20
322.8175923578988
 10
5188.948861006954
 20
322.893506358881
 10
5189.068048657983
 20
322.9750926037054
 10
5189.183966571914
 20
323.0621540078109
 10
5189.296589123035
 20
323.1544934866362
 10
5189.405890685633
 20
323.2519139556208
 10
5189.511845634001
 20
323.3542183302033
 10
5189.614428342422
 20
323.4612095258228
 10
5189.713613185188
 20
323.5726904579182
 10
5189.809374536589
 20
323.6884640419286
 10
5189.901686770909
 20
323.8083331932929
 10
5189.990524262439
 20
323.93210082745
 10
5190.075861385468
 20
324.059569859839
 10
5190.157672514285
 20
324.1905432058988
 10
5190.235932023178
 20
324.3248237810684
 10
5190.310614286434
 20
324.4622145007868
 10
5190.381693678343
 20
324.6025182804929
 10
5190.449144573196
 20
324.7455380356257
 10
5190.512941345278
 20
324.8910766816241
 10
5190.573058368878
 20
325.0389371339273
 10
5190.629470018287
 20
325.188922307974
 10
5190.682150667792
 20
325.3408351192035
 10
5190.73107469168
 20
325.4944784830544
 10
5190.776216464243
 20
325.6496553149659
 10
5190.817550359766
 20
325.8061685303769
 10
5190.888692016855
 20
326.1224157734534
 10
5190.944294657256
 20
326.4416435357955
 10
5190.984153275274
 20
326.7622751409153
 10
5190.998114511613
 20
326.9226246731142
 10
5191.008062865223
 20
327.0827339123244
 10
5191.013972710391
 20
327.2424057739848
 10
5191.015818421407
 20
327.4014431735346
 10
5191.01357437256
 20
327.5596490264125
 10
5191.007214938139
 20
327.7168262480577
 10
5190.996714492431
 20
327.872777753909
 10
5190.982047409725
 20
328.0273064594054
 10
5190.963188064311
 20
328.180215279986
 10
5190.940110830476
 20
328.3313071310896
 10
5190.912790082509
 20
328.4803849281553
 10
5190.881200194698
 20
328.627251586622
 10
5190.845315541333
 20
328.7717100219287
 10
5190.805110496703
 20
328.9135631495144
 10
5190.760559435093
 20
329.0526138848181
 10
5190.711636730797
 20
329.1886651432787
 10
5190.658316758101
 20
329.3215198403352
 10
5190.60057389129
 20
329.4509808914264
 10
5190.538382504658
 20
329.5768512119917
 10
5190.47173963928
 20
329.6989769733686
 10
5190.400744777183
 20
329.8173998389114
 10
5190.325526326559
 20
329.9322166728689
 10
5190.246212697324
 20
330.0435243427825
 10
5190.162932299388
 20
330.1514197161935
 10
5190.075813542668
 20
330.2559996606439
 10
5189.984984837073
 20
330.3573610436749
 10
5189.890574592525
 20
330.455600732828
 10
5189.792711218931
 20
330.5508155956448
 10
5189.691523126206
 20
330.6431024996667
 10
5189.587138724267
 20
330.7325583124353
 10
5189.369294632396
 20
330.9033641343786
 10
5189.140206222627
 20
331.0640080018068
 10
5188.900900774275
 20
331.2152648550519
 10
5188.652405566649
 20
331.3579096344459
 10
5188.395747879058
 20
331.4927172803209
 10
5188.131954990818
 20
331.6204627330091
 10
5187.862054181236
 20
331.7419209328425
 10
5187.587072729626
 20
331.857866820153
 10
5187.308037915299
 20
331.969075335273
 10
5186.741917315736
 20
332.1803800102691
 10
5186.171910617041
 20
332.3820344804874
 10
5185.606201962893
 20
332.5802147765789
 10
5185.049907703452
 20
332.7789829099752
 10
5184.502683850051
 20
332.9786381678175
 10
5183.963623362083
 20
333.179091837661
 10
5183.431819198947
 20
333.3802552070611
 10
5182.906364320037
 20
333.5820395635732
 10
5182.386351684751
 20
333.7843561947531
 10
5181.870874252485
 20
333.9871163881556
 10
5180.849896834596
 20
334.3936126118513
 10
5179.836175741538
 20
334.8008185351036
  0
LWPOLYLINE
  5
282
330
1F
100
AcDbEntity
  8
Ech.1_2
 62
   154
420
    21156
370
    20
100
AcDbPolyline
 90
       70
 70
     0
 43
0.0
 10
5189.534534804093
 20
329.6488757982379
 10
5189.491367410035
 20
329.3775683695129
 10
5189.448212699558
 20
329.1017287110951
 10
5189.40508335624
 20
328.8168245932914
 10
5189.36199206366
 20
328.518323786409
 10
5189.340464650016
 20
328.3625583027843
 10
5189.318951505401
 20
328.2016940607551
 10
5189.29745421526
 20
328.0351645316097
 10
5189.27597436504
 20
327.8624031866365
 10
5189.254513540192
 20
327.682843497124
 10
5189.233073326159
 20
327.4959189343605
 10
5189.211655308392
 20
327.3010629696344
 10
5189.19031065555
 20
327.0979489704776
 10
5189.169510383857
 20
326.8882816340551
 10
5189.149936821185
 20
326.6747880372384
 10
5189.11720555953
 20
326.247261456325
 10
5189.105415728863
 20
326.0386981691798
 10
5189.097588343841
 20
325.8372480155431
 10
5189.094407338628
 20
325.6456458438906
 10
5189.096556647375
 20
325.466626502698
 10
5189.099843898908
 20
325.3826900336729
 10
5189.10472020424
 20
325.302924840441
 10
5189.111271055142
 20
325.227672779062
 10
5189.119581943381
 20
325.1572757055953
 10
5189.129738360728
 20
325.0920754761004
 10
5189.141825798954
 20
325.0324139466367
 10
5189.155929749825
 20
324.9786329732636
 10
5189.172135705115
 20
324.9310744120406
 10
5189.190529156591
 20
324.8900801190273
 10
5189.211195596022
 20
324.8559919502829
 10
5189.234220515179
 20
324.8291517618673
 10
5189.259689405832
 20
324.8099014098395
 10
5189.287687759749
 20
324.7985827502591
 10
5189.318293624519
 20
324.7955204342064
 10
5189.35143557925
 20
324.8006936613332
 10
5189.386903902622
 20
324.8137619915033
 10
5189.424483666982
 20
324.8343729516908
 10
5189.463959944676
 20
324.8621740688697
 10
5189.505117808048
 20
324.8968128700142
 10
5189.547742329444
 20
324.9379368820984
 10
5189.59161858121
 20
324.9851936320965
 10
5189.636531635689
 20
325.0382306469824
 10
5189.682266565229
 20
325.0966954537302
 10
5189.728608442173
 20
325.1602355793142
 10
5189.775342338867
 20
325.2284985507083
 10
5189.822253327654
 20
325.3011318948867
 10
5189.915746870898
 20
325.4580998094928
 10
5190.007369650665
 20
325.6283195389252
 10
5190.095402245716
 20
325.8089712989766
 10
5190.178125234816
 20
325.9972353054401
 10
5190.253819196721
 20
326.1902917741081
 10
5190.320764710197
 20
326.3853209207736
 10
5190.377242354007
 20
326.5795029612294
 10
5190.421538366853
 20
326.7700254101552
 10
5190.452687753887
 20
326.955041367828
 10
5190.471215446045
 20
327.1346252958475
 10
5190.477822648595
 20
327.309078973639
 10
5190.473210566812
 20
327.4787041806277
 10
5190.458080405965
 20
327.6438026962387
 10
5190.433133371324
 20
327.8046762998973
 10
5190.399070668161
 20
327.9616267710285
 10
5190.356593501745
 20
328.1149558890575
 10
5190.306403077351
 20
328.2649654334097
 10
5190.249200600247
 20
328.41195718351
 10
5190.185687275703
 20
328.5562329187838
 10
5190.116564308995
 20
328.6980944186563
 10
5190.042532905389
 20
328.8378434625524
 10
5189.882549608568
 20
329.1122113001165
 10
5189.711347027414
 20
329.381750666878
 10
5189.534534804093
 20
329.6488757982379
  0
LWPOLYLINE
  5
283
330
1F
100
AcDbEntity
  8
Ech.1_2
 62
   154
420
    21156
370
    20
100
AcDbPolyline
 90
       70
 70
     0
 43
0.0
 10
5207.966945216977
 20
332.6135362244831
 10
5207.92377782292
 20
332.3422287957578
 10
5207.880623112442
 20
332.0663891373394
 10
5207.837493769124
 20
331.7814850195353
 10
5207.794402476545
 20
331.4829842126523
 10
5207.772875062902
 20
331.3272187290273
 10
5207.751361918287
 20
331.1663544869977
 10
5207.729864628146
 20
330.999824957852
 10
5207.708384777926
 20
330.8270636128784
 10
5207.686923953077
 20
330.6475039233655
 10
5207.665483739046
 20
330.4605793606016
 10
5207.644065721277
 20
330.2657233958751
 10
5207.622721068436
 20
330.0626093967177
 10
5207.601920796743
 20
329.8529420602949
 10
5207.58234723407
 20
329.6394484634777
 10
5207.549615972416
 20
329.2119218825637
 10
5207.537826141749
 20
329.0033585954181
 10
5207.529998756729
 20
328.8019084417813
 10
5207.526817751514
 20
328.6103062701285
 10
5207.52896706026
 20
328.4312869289358
 10
5207.532254311794
 20
328.3473504599107
 10
5207.537130617126
 20
328.2675852666788
 10
5207.543681468029
 20
328.1923332052997
 10
5207.551992356266
 20
328.121936131833
 10
5207.562148773613
 20
328.056735902338
 10
5207.574236211839
 20
327.9970743728743
 10
5207.588340162712
 20
327.9432933995012
 10
5207.604546118
 20
327.8957348382783
 10
5207.622939569476
 20
327.854740545265
 10
5207.643606008907
 20
327.8206523765207
 10
5207.666630928064
 20
327.793812188105
 10
5207.692099818716
 20
327.7745618360772
 10
5207.720098172635
 20
327.763243176497
 10
5207.750704037407
 20
327.7601808604443
 10
5207.783845992136
 20
327.7653540875713
 10
5207.819314315508
 20
327.7784224177415
 10
5207.856894079868
 20
327.7990333779291
 10
5207.896370357562
 20
327.8268344951081
 10
5207.937528220936
 20
327.8614732962529
 10
5207.980152742331
 20
327.9025973083371
 10
5208.024028994097
 20
327.9498540583353
 10
5208.068942048576
 20
328.0028910732214
 10
5208.114676978115
 20
328.0613558799694
 10
5208.161018855059
 20
328.1248960055535
 10
5208.207752751753
 20
328.1931589769478
 10
5208.25466374054
 20
328.2657923211263
 10
5208.348157283785
 20
328.4227602357328
 10
5208.439780063552
 20
328.5929799651655
 10
5208.527812658604
 20
328.7736317252172
 10
5208.610535647702
 20
328.961895731681
 10
5208.686229609608
 20
329.1549522003493
 10
5208.753175123084
 20
329.349981347015
 10
5208.809652766893
 20
329.544163387471
 10
5208.85394877974
 20
329.734685836397
 10
5208.885098166774
 20
329.9197017940698
 10
5208.903625858931
 20
330.0992857220895
 10
5208.910233061482
 20
330.2737393998812
 10
5208.905620979699
 20
330.44336460687
 10
5208.89049081885
 20
330.6084631224812
 10
5208.865543784209
 20
330.76933672614
 10
5208.831481081046
 20
330.9262871972712
 10
5208.789003914631
 20
331.0796163153005
 10
5208.738813490238
 20
331.2296258596529
 10
5208.681611013132
 20
331.3766176097535
 10
5208.61809768859
 20
331.5208933450274
 10
5208.54897472188
 20
331.6627548449
 10
5208.474943318271
 20
331.8025038887962
 10
5208.314960021453
 20
332.0768717263609
 10
5208.1437574403
 20
332.3464110931228
 10
5207.966945216977
 20
332.6135362244831
  0
LINE
  5
284
330
1F
100
AcDbEntity
  8
Ech.1_2
 62
     7
370
    20
100
AcDbLine
 10
5002.396097917359
 20
158.2544222791025
 30
0.0
 11
5002.527428391589
 21
158.3088211426798
 31
0.0
  0
LINE
  5
285
330
1F
100
AcDbEntity
  8
Ech.1_2
 62
     7
370
    20
100
AcDbLine
 10
5001.186286855098
 20
155.817940156157
 30
0.0
 11
5002.527428391589
 21
155.2624211426833
 31
0.0
  0
LINE
  5
286
330
1F
100
AcDbEntity
  8
Ech.1_2
 62
     7
370
    20
100
AcDbLine
 10
5002.396097917359
 20
158.2544222791025
 30
0.0
 11
5003.38609829338
 21
155.2624211426833
 31
0.0
  0
LINE
  5
287
330
1F
100
AcDbEntity
  8
Ech.1_2
 62
     7
370
    20
100
AcDbLine
 10
5001.759165167932
 20
157.9905960959691
 30
0.0
 11
5002.661870115709
 21
155.2624211426833
 31
0.0
  0
LINE
  5
288
330
1F
100
AcDbEntity
  8
Ech.1_2
 62
     7
370
    20
100
AcDbLine
 10
5003.023984204545
 20
154.6352211426815
 30
0.0
 11
5002.033983828523
 21
158.8816222791042
 31
0.0
  0
LINE
  5
289
330
1F
100
AcDbEntity
  8
Ech.1_2
 62
     7
370
    20
100
AcDbLine
 10
5032.898098293381
 20
160.1456209512739
 30
0.0
 11
5032.898098293381
 21
153.4256209000064
 31
0.0
  0
LWPOLYLINE
  5
28A
330
1F
100
AcDbEntity
  8
Ech.1_2
 62
     7
370
    20
100
AcDbPolyline
 90
       12
 70
   128
 43
0.0
 10
5032.898098293381
 20
151.8576211426794
 42
0.4142135623658086
 10
5033.34609829338
 20
151.40962114268
 42
-0.4142135623658045
 10
5032.898098293381
 20
151.8576211426794
 10
5032.898098293381
 20
161.7136211426791
 42
-0.4142135623718972
 10
5033.34609829338
 20
162.1616211426785
 10
5033.631385825258
 20
162.1616211426785
 42
-0.280712537382165
 10
5034.029559433406
 20
161.9189544760134
 42
-0.080040099390762
 10
5035.138098293381
 20
158.5328208521519
 10
5035.138098293381
 20
155.038420565043
 42
-0.0800400421140656
 10
5034.029559433406
 20
151.6522878093479
 42
-0.2807125373763145
 10
5033.631385825258
 20
151.40962114268
 10
5033.34609829338
 20
151.40962114268
  0
LINE
  5
28B
330
1F
100
AcDbEntity
  8
Ech.1_2
 62
     7
370
    20
100
AcDbLine
 10
5032.898098293381
 20
161.7158988086953
 30
0.0
 11
5032.898098293381
 21
160.1456209512739
 31
0.0
  0
LINE
  5
28C
330
1F
100
AcDbEntity
  8
Ech.1_2
 62
     7
370
    20
100
AcDbLine
 10
5032.898098293381
 20
151.8553426085005
 30
0.0
 11
5032.898098293381
 21
153.4256204659209
 31
0.0
  0
LINE
  5
28D
330
1F
100
AcDbEntity
  8
Ech.1_2
 62
     7
370
    20
100
AcDbLine
 10
5016.49009829338
 20
158.3088211426798
 30
0.0
 11
5017.498098293381
 21
155.2624211426833
 31
0.0
  0
LINE
  5
28E
330
1F
100
AcDbEntity
  8
Ech.1_2
 62
     7
370
    20
100
AcDbLine
 10
5015.765870115708
 20
158.3088211426798
 30
0.0
 11
5016.773870115709
 21
155.2624211426833
 31
0.0
  0
LINE
  5
28F
330
1F
100
AcDbEntity
  8
Ech.1_2
 62
     7
370
    20
100
AcDbLine
 10
5017.135984204544
 20
154.6352211426815
 30
0.0
 11
5016.127984204544
 21
158.9360211426815
 31
0.0
  0
LINE
  5
290
330
1F
100
AcDbEntity
  8
Ech.1_2
 62
     7
370
    20
100
AcDbLine
 10
5011.733870115708
 20
158.3088211426798
 30
0.0
 11
5012.741870115708
 21
155.2624211426833
 31
0.0
  0
LINE
  5
291
330
1F
100
AcDbEntity
  8
Ech.1_2
 62
     7
370
    20
100
AcDbLine
 10
5013.103984204545
 20
154.6352211426815
 30
0.0
 11
5012.095984204544
 21
158.9360211426815
 31
0.0
  0
LINE
  5
292
330
1F
100
AcDbEntity
  8
Ech.1_2
 62
     7
370
    20
100
AcDbLine
 10
5015.119984204544
 20
154.6352211426815
 30
0.0
 11
5014.111984204545
 21
158.9360211426815
 31
0.0
  0
LINE
  5
293
330
1F
100
AcDbEntity
  8
Ech.1_2
 62
     7
370
    20
100
AcDbLine
 10
5013.749870115708
 20
158.3088211426798
 30
0.0
 11
5014.757870115709
 21
155.2624211426833
 31
0.0
  0
LINE
  5
294
330
1F
100
AcDbEntity
  8
Ech.1_2
 62
     7
370
    20
100
AcDbLine
 10
5014.474098293381
 20
158.3088211426798
 30
0.0
 11
5015.482098293381
 21
155.2624211426833
 31
0.0
  0
LINE
  5
295
330
1F
100
AcDbEntity
  8
Ech.1_2
 62
     7
370
    20
100
AcDbLine
 10
5012.45809829338
 20
158.3088211426798
 30
0.0
 11
5013.46609829338
 21
155.2624211426833
 31
0.0
  0
LINE
  5
296
330
1F
100
AcDbEntity
  8
Ech.1_2
 62
     7
370
    20
100
AcDbLine
 10
5011.087984204545
 20
154.6352211426815
 30
0.0
 11
5010.079984204544
 21
158.9360211426815
 31
0.0
  0
LINE
  5
297
330
1F
100
AcDbEntity
  8
Ech.1_2
 62
     7
370
    20
100
AcDbLine
 10
5009.717870115708
 20
158.3088211426798
 30
0.0
 11
5010.725870115708
 21
155.2624211426833
 31
0.0
  0
LINE
  5
298
330
1F
100
AcDbEntity
  8
Ech.1_2
 62
     7
370
    20
100
AcDbLine
 10
5010.442098293381
 20
158.3088211426798
 30
0.0
 11
5011.450098293381
 21
155.2624211426833
 31
0.0
  0
LINE
  5
299
330
1F
100
AcDbEntity
  8
Ech.1_2
 62
     7
370
    20
100
AcDbLine
 10
5022.14609805754
 20
155.0832211426809
 30
0.0
 11
5022.14609805754
 21
158.4880211426803
 31
0.0
  0
LINE
  5
29A
330
1F
100
AcDbEntity
  8
Ech.1_2
 62
     7
370
    20
100
AcDbLine
 10
5005.685870115708
 20
158.3088211426798
 30
0.0
 11
5006.693870115709
 21
155.2624211426833
 31
0.0
  0
LINE
  5
29B
330
1F
100
AcDbEntity
  8
Ech.1_2
 62
     7
370
    20
100
AcDbLine
 10
5007.055984204544
 20
154.6352211426815
 30
0.0
 11
5006.047984204544
 21
158.9360211426815
 31
0.0
  0
LINE
  5
29C
330
1F
100
AcDbEntity
  8
Ech.1_2
 62
     7
370
    20
100
AcDbLine
 10
5009.071984204545
 20
154.6352211426815
 30
0.0
 11
5008.063984204544
 21
158.9360211426815
 31
0.0
  0
LINE
  5
29D
330
1F
100
AcDbEntity
  8
Ech.1_2
 62
     7
370
    20
100
AcDbLine
 10
5007.701870115709
 20
158.3088211426798
 30
0.0
 11
5008.709870115708
 21
155.2624211426833
 31
0.0
  0
LINE
  5
29E
330
1F
100
AcDbEntity
  8
Ech.1_2
 62
     7
370
    20
100
AcDbLine
 10
5008.42609829338
 20
158.3088211426798
 30
0.0
 11
5009.434098293381
 21
155.2624211426833
 31
0.0
  0
LINE
  5
29F
330
1F
100
AcDbEntity
  8
Ech.1_2
 62
     7
370
    20
100
AcDbLine
 10
5006.410098293381
 20
158.3088211426798
 30
0.0
 11
5007.418098293381
 21
155.2624211426833
 31
0.0
  0
LINE
  5
2A0
330
1F
100
AcDbEntity
  8
Ech.1_2
 62
     7
370
    20
100
AcDbLine
 10
5005.039984204544
 20
154.6352211426815
 30
0.0
 11
5004.031984204545
 21
158.9360211426815
 31
0.0
  0
LINE
  5
2A1
330
1F
100
AcDbEntity
  8
Ech.1_2
 62
     7
370
    20
100
AcDbLine
 10
5003.669870115708
 20
158.3088211426798
 30
0.0
 11
5004.677870115709
 21
155.2624211426833
 31
0.0
  0
LINE
  5
2A2
330
1F
100
AcDbEntity
  8
Ech.1_2
 62
     7
370
    20
100
AcDbLine
 10
5004.39409829338
 20
158.3088211426798
 30
0.0
 11
5005.402098293381
 21
155.2624211426833
 31
0.0
  0
LINE
  5
2A3
330
1F
100
AcDbEntity
  8
Ech.1_2
 62
     7
370
    20
100
AcDbLine
 10
5010.079984204544
 20
158.9360211426815
 30
0.0
 11
5009.717870115708
 21
158.3088211426798
 31
0.0
  0
LINE
  5
2A4
330
1F
100
AcDbEntity
  8
Ech.1_2
 62
     7
370
    20
100
AcDbLine
 10
5013.749870115708
 20
158.3088211426798
 30
0.0
 11
5012.45809829338
 21
158.3088211426798
 31
0.0
  0
LINE
  5
2A5
330
1F
100
AcDbEntity
  8
Ech.1_2
 62
     7
370
    20
100
AcDbLine
 10
5015.765870115708
 20
158.3088211426798
 30
0.0
 11
5014.474098293381
 21
158.3088211426798
 31
0.0
  0
LINE
  5
2A6
330
1F
100
AcDbEntity
  8
Ech.1_2
 62
     7
370
    20
100
AcDbLine
 10
5016.127984204544
 20
158.9360211426815
 30
0.0
 11
5016.49009829338
 21
158.3088211426798
 31
0.0
  0
LINE
  5
2A7
330
1F
100
AcDbEntity
  8
Ech.1_2
 62
     7
370
    20
100
AcDbLine
 10
5016.127984204544
 20
158.9360211426815
 30
0.0
 11
5015.765870115708
 21
158.3088211426798
 31
0.0
  0
LINE
  5
2A8
330
1F
100
AcDbEntity
  8
Ech.1_2
 62
     7
370
    20
100
AcDbLine
 10
5014.111984204545
 20
158.9360211426815
 30
0.0
 11
5014.474098293381
 21
158.3088211426798
 31
0.0
  0
LINE
  5
2A9
330
1F
100
AcDbEntity
  8
Ech.1_2
 62
     7
370
    20
100
AcDbLine
 10
5014.111984204545
 20
158.9360211426815
 30
0.0
 11
5013.749870115708
 21
158.3088211426798
 31
0.0
  0
LINE
  5
2AA
330
1F
100
AcDbEntity
  8
Ech.1_2
 62
     7
370
    20
100
AcDbLine
 10
5011.733870115708
 20
158.3088211426798
 30
0.0
 11
5010.442098293381
 21
158.3088211426798
 31
0.0
  0
LINE
  5
2AB
330
1F
100
AcDbEntity
  8
Ech.1_2
 62
     7
370
    20
100
AcDbLine
 10
5012.095984204544
 20
158.9360211426815
 30
0.0
 11
5011.733870115708
 21
158.3088211426798
 31
0.0
  0
LINE
  5
2AC
330
1F
100
AcDbEntity
  8
Ech.1_2
 62
     7
370
    20
100
AcDbLine
 10
5012.095984204544
 20
158.9360211426815
 30
0.0
 11
5012.45809829338
 21
158.3088211426798
 31
0.0
  0
LINE
  5
2AD
330
1F
100
AcDbEntity
  8
Ech.1_2
 62
     7
370
    20
100
AcDbLine
 10
5010.079984204544
 20
158.9360211426815
 30
0.0
 11
5010.442098293381
 21
158.3088211426798
 31
0.0
  0
LINE
  5
2AE
330
1F
100
AcDbEntity
  8
Ech.1_2
 62
     7
370
    20
100
AcDbLine
 10
5006.047984204544
 20
158.9360211426815
 30
0.0
 11
5006.410098293381
 21
158.3088211426798
 31
0.0
  0
LINE
  5
2AF
330
1F
100
AcDbEntity
  8
Ech.1_2
 62
     7
370
    20
100
AcDbLine
 10
5008.063984204544
 20
158.9360211426815
 30
0.0
 11
5007.701870115709
 21
158.3088211426798
 31
0.0
  0
LINE
  5
2B0
330
1F
100
AcDbEntity
  8
Ech.1_2
 62
     7
370
    20
100
AcDbLine
 10
5009.717870115708
 20
158.3088211426798
 30
0.0
 11
5008.42609829338
 21
158.3088211426798
 31
0.0
  0
LINE
  5
2B1
330
1F
100
AcDbEntity
  8
Ech.1_2
 62
     7
370
    20
100
AcDbLine
 10
5008.063984204544
 20
158.9360211426815
 30
0.0
 11
5008.42609829338
 21
158.3088211426798
 31
0.0
  0
LINE
  5
2B2
330
1F
100
AcDbEntity
  8
Ech.1_2
 62
     7
370
    20
100
AcDbLine
 10
5007.701870115709
 20
158.3088211426798
 30
0.0
 11
5006.410098293381
 21
158.3088211426798
 31
0.0
  0
LINE
  5
2B3
330
1F
100
AcDbEntity
  8
Ech.1_2
 62
     7
370
    20
100
AcDbLine
 10
5004.031984204545
 20
158.9360211426815
 30
0.0
 11
5004.39409829338
 21
158.3088211426798
 31
0.0
  0
LINE
  5
2B4
330
1F
100
AcDbEntity
  8
Ech.1_2
 62
     7
370
    20
100
AcDbLine
 10
5005.685870115708
 20
158.3088211426798
 30
0.0
 11
5004.39409829338
 21
158.3088211426798
 31
0.0
  0
LINE
  5
2B5
330
1F
100
AcDbEntity
  8
Ech.1_2
 62
     7
370
    20
100
AcDbLine
 10
5006.047984204544
 20
158.9360211426815
 30
0.0
 11
5005.685870115708
 21
158.3088211426798
 31
0.0
  0
LINE
  5
2B6
330
1F
100
AcDbEntity
  8
Ech.1_2
 62
     7
370
    20
100
AcDbLine
 10
5004.031984204545
 20
158.9360211426815
 30
0.0
 11
5003.669870115708
 21
158.3088211426798
 31
0.0
  0
LINE
  5
2B7
330
1F
100
AcDbEntity
  8
Ech.1_2
 62
     7
370
    20
100
AcDbLine
 10
5003.669870115708
 20
158.3088211426798
 30
0.0
 11
5002.527428391589
 21
158.3088211426798
 31
0.0
  0
LINE
  5
2B8
330
1F
100
AcDbEntity
  8
Ech.1_2
 62
     7
370
    20
100
AcDbLine
 10
5017.135984204544
 20
154.6352211426815
 30
0.0
 11
5017.498098293381
 21
155.2624211426833
 31
0.0
  0
LINE
  5
2B9
330
1F
100
AcDbEntity
  8
Ech.1_2
 62
     7
370
    20
100
AcDbLine
 10
5010.725870115708
 20
155.2624211426833
 30
0.0
 11
5009.434098293381
 21
155.2624211426833
 31
0.0
  0
LINE
  5
2BA
330
1F
100
AcDbEntity
  8
Ech.1_2
 62
     7
370
    20
100
AcDbLine
 10
5014.757870115709
 20
155.2624211426833
 30
0.0
 11
5013.46609829338
 21
155.2624211426833
 31
0.0
  0
LINE
  5
2BB
330
1F
100
AcDbEntity
  8
Ech.1_2
 62
     7
370
    20
100
AcDbLine
 10
5015.119984204544
 20
154.6352211426815
 30
0.0
 11
5015.482098293381
 21
155.2624211426833
 31
0.0
  0
LINE
  5
2BC
330
1F
100
AcDbEntity
  8
Ech.1_2
 62
     7
370
    20
100
AcDbLine
 10
5017.135984204544
 20
154.6352211426815
 30
0.0
 11
5016.773870115709
 21
155.2624211426833
 31
0.0
  0
LINE
  5
2BD
330
1F
100
AcDbEntity
  8
Ech.1_2
 62
     7
370
    20
100
AcDbLine
 10
5016.773870115709
 20
155.2624211426833
 30
0.0
 11
5015.482098293381
 21
155.2624211426833
 31
0.0
  0
LINE
  5
2BE
330
1F
100
AcDbEntity
  8
Ech.1_2
 62
     7
370
    20
100
AcDbLine
 10
5015.119984204544
 20
154.6352211426815
 30
0.0
 11
5014.757870115709
 21
155.2624211426833
 31
0.0
  0
LINE
  5
2BF
330
1F
100
AcDbEntity
  8
Ech.1_2
 62
     7
370
    20
100
AcDbLine
 10
5012.741870115708
 20
155.2624211426833
 30
0.0
 11
5011.450098293381
 21
155.2624211426833
 31
0.0
  0
LINE
  5
2C0
330
1F
100
AcDbEntity
  8
Ech.1_2
 62
     7
370
    20
100
AcDbLine
 10
5013.103984204545
 20
154.6352211426815
 30
0.0
 11
5013.46609829338
 21
155.2624211426833
 31
0.0
  0
LINE
  5
2C1
330
1F
100
AcDbEntity
  8
Ech.1_2
 62
     7
370
    20
100
AcDbLine
 10
5013.103984204545
 20
154.6352211426815
 30
0.0
 11
5012.741870115708
 21
155.2624211426833
 31
0.0
  0
LINE
  5
2C2
330
1F
100
AcDbEntity
  8
Ech.1_2
 62
     7
370
    20
100
AcDbLine
 10
5011.087984204545
 20
154.6352211426815
 30
0.0
 11
5011.450098293381
 21
155.2624211426833
 31
0.0
  0
LINE
  5
2C3
330
1F
100
AcDbEntity
  8
Ech.1_2
 62
     7
370
    20
100
AcDbLine
 10
5011.087984204545
 20
154.6352211426815
 30
0.0
 11
5010.725870115708
 21
155.2624211426833
 31
0.0
  0
LINE
  5
2C4
330
1F
100
AcDbEntity
  8
Ech.1_2
 62
     7
370
    20
100
AcDbLine
 10
5006.693870115709
 20
155.2624211426833
 30
0.0
 11
5005.402098293381
 21
155.2624211426833
 31
0.0
  0
LINE
  5
2C5
330
1F
100
AcDbEntity
  8
Ech.1_2
 62
     7
370
    20
100
AcDbLine
 10
5008.709870115708
 20
155.2624211426833
 30
0.0
 11
5007.418098293381
 21
155.2624211426833
 31
0.0
  0
LINE
  5
2C6
330
1F
100
AcDbEntity
  8
Ech.1_2
 62
     7
370
    20
100
AcDbLine
 10
5009.071984204545
 20
154.6352211426815
 30
0.0
 11
5008.709870115708
 21
155.2624211426833
 31
0.0
  0
LINE
  5
2C7
330
1F
100
AcDbEntity
  8
Ech.1_2
 62
     7
370
    20
100
AcDbLine
 10
5009.071984204545
 20
154.6352211426815
 30
0.0
 11
5009.434098293381
 21
155.2624211426833
 31
0.0
  0
LINE
  5
2C8
330
1F
100
AcDbEntity
  8
Ech.1_2
 62
     7
370
    20
100
AcDbLine
 10
5007.055984204544
 20
154.6352211426815
 30
0.0
 11
5006.693870115709
 21
155.2624211426833
 31
0.0
  0
LINE
  5
2C9
330
1F
100
AcDbEntity
  8
Ech.1_2
 62
     7
370
    20
100
AcDbLine
 10
5007.055984204544
 20
154.6352211426815
 30
0.0
 11
5007.418098293381
 21
155.2624211426833
 31
0.0
  0
LINE
  5
2CA
330
1F
100
AcDbEntity
  8
Ech.1_2
 62
     7
370
    20
100
AcDbLine
 10
5004.677870115709
 20
155.2624211426833
 30
0.0
 11
5003.38609829338
 21
155.2624211426833
 31
0.0
  0
LINE
  5
2CB
330
1F
100
AcDbEntity
  8
Ech.1_2
 62
     7
370
    20
100
AcDbLine
 10
5005.039984204544
 20
154.6352211426815
 30
0.0
 11
5005.402098293381
 21
155.2624211426833
 31
0.0
  0
LINE
  5
2CC
330
1F
100
AcDbEntity
  8
Ech.1_2
 62
     7
370
    20
100
AcDbLine
 10
5005.039984204544
 20
154.6352211426815
 30
0.0
 11
5004.677870115709
 21
155.2624211426833
 31
0.0
  0
LINE
  5
2CD
330
1F
100
AcDbEntity
  8
Ech.1_2
 62
     7
370
    20
100
AcDbLine
 10
5002.661870115709
 20
155.2624211426833
 30
0.0
 11
5002.527428391589
 21
155.2624211426833
 31
0.0
  0
LINE
  5
2CE
330
1F
100
AcDbEntity
  8
Ech.1_2
 62
     7
370
    20
100
AcDbLine
 10
5003.023984204545
 20
154.6352211426815
 30
0.0
 11
5002.661870115709
 21
155.2624211426833
 31
0.0
  0
LINE
  5
2CF
330
1F
100
AcDbEntity
  8
Ech.1_2
 62
     7
370
    20
100
AcDbLine
 10
5003.023984204545
 20
154.6352211426815
 30
0.0
 11
5003.38609829338
 21
155.2624211426833
 31
0.0
  0
LINE
  5
2D0
330
1F
100
AcDbEntity
  8
Ech.1_2
 62
     7
370
    20
100
AcDbLine
 10
5002.033983828523
 20
158.8816222791042
 30
0.0
 11
5001.759165167932
 21
157.9905960959691
 31
0.0
  0
LINE
  5
2D1
330
1F
100
AcDbEntity
  8
Ech.1_2
 62
     7
370
    20
100
AcDbLine
 10
5002.033983828523
 20
158.8816222791042
 30
0.0
 11
5002.396097917359
 21
158.2544222791025
 31
0.0
  0
LINE
  5
2D2
330
1F
100
AcDbEntity
  8
Ech.1_2
 62
     7
370
    20
100
AcDbLine
 10
5000.824172766262
 20
155.190740156158
 30
0.0
 11
5000.34703408489
 21
156.1655700358392
 31
0.0
  0
LINE
  5
2D3
330
1F
100
AcDbEntity
  8
Ech.1_2
 62
     7
370
    20
100
AcDbLine
 10
5000.260984016533
 20
158.1472217108917
 30
0.0
 11
5000.62309810537
 21
157.5200217108918
 31
0.0
  0
LINE
  5
2D4
330
1F
100
AcDbEntity
  8
Ech.1_2
 62
     7
370
    20
100
AcDbLine
 10
5000.824172766262
 20
155.190740156158
 30
0.0
 11
5000.260984016533
 21
158.1472217108917
 31
0.0
  0
LINE
  5
2D5
330
1F
100
AcDbEntity
  8
Ech.1_2
 62
     7
370
    20
100
AcDbLine
 10
5000.62309810537
 20
157.5200217108918
 30
0.0
 11
5001.759165167932
 21
157.9905960959691
 31
0.0
  0
LINE
  5
2D6
330
1F
100
AcDbEntity
  8
Ech.1_2
 62
     7
370
    20
100
AcDbLine
 10
5000.824172766262
 20
155.190740156158
 30
0.0
 11
5001.186286855098
 21
155.817940156157
 31
0.0
  0
LINE
  5
2D7
330
1F
100
AcDbEntity
  8
Ech.1_2
 62
     7
370
    20
100
AcDbLine
 10
5000.62309810537
 20
157.5200217108918
 30
0.0
 11
5001.186286855098
 21
155.817940156157
 31
0.0
  0
LINE
  5
2D8
330
1F
100
AcDbEntity
  8
Ech.1_2
 62
     7
370
    20
100
AcDbLine
 10
5000.260984016533
 20
158.1472217108917
 30
0.0
 11
4999.986165355943
 21
157.2561955277565
 31
0.0
  0
LINE
  5
2D9
330
1F
100
AcDbEntity
  8
Ech.1_2
 62
     7
370
    20
100
AcDbLine
 10
4999.986165355943
 20
157.2561955277565
 30
0.0
 11
5000.34703408489
 21
156.1655700358392
 31
0.0
  0
LINE
  5
2DA
330
1F
100
AcDbEntity
  8
Ech.1_2
 62
     7
370
    20
100
AcDbLine
 10
4998.850098293381
 20
156.7856211426838
 30
0.0
 11
4999.986165355943
 21
157.2561955277565
 31
0.0
  0
LINE
  5
2DB
330
1F
100
AcDbEntity
  8
Ech.1_2
 62
     7
370
    20
100
AcDbLine
 10
4998.850098293381
 20
156.7856211426838
 30
0.0
 11
5000.34703408489
 21
156.1655700358392
 31
0.0
  0
LINE
  5
2DC
330
1F
100
AcDbEntity
  8
Ech.1_2
 62
     7
370
    20
100
AcDbLine
 10
5022.14609805754
 20
158.4880211426803
 30
0.0
 11
5032.898098293381
 21
158.4880211426803
 31
0.0
  0
LINE
  5
2DD
330
1F
100
AcDbEntity
  8
Ech.1_2
 62
     7
370
    20
100
AcDbLine
 10
5022.14609805754
 20
155.0832211426809
 30
0.0
 11
5032.898098293381
 21
155.0832211426809
 31
0.0
  0
LINE
  5
2DE
330
1F
100
AcDbEntity
  8
Ech.1_2
 62
     7
370
    20
100
AcDbLine
 10
5021.253869879874
 20
155.2624211426833
 30
0.0
 11
5022.14609805754
 21
155.0832211426809
 31
0.0
  0
LINE
  5
2DF
330
1F
100
AcDbEntity
  8
Ech.1_2
 62
     7
370
    20
100
AcDbLine
 10
5022.14609805754
 20
158.4880211426803
 30
0.0
 11
5020.97009805754
 21
158.3088211426798
 31
0.0
  0
LINE
  5
2E0
330
1F
100
AcDbEntity
  8
Ech.1_2
 62
     7
370
    20
100
AcDbLine
 10
5018.50609829338
 20
158.3088211426798
 30
0.0
 11
5019.514098293381
 21
155.2624211426833
 31
0.0
  0
LINE
  5
2E1
330
1F
100
AcDbEntity
  8
Ech.1_2
 62
     7
370
    20
100
AcDbLine
 10
5017.781870115708
 20
158.3088211426798
 30
0.0
 11
5018.789870115708
 21
155.2624211426833
 31
0.0
  0
LINE
  5
2E2
330
1F
100
AcDbEntity
  8
Ech.1_2
 62
     7
370
    20
100
AcDbLine
 10
5019.151984204545
 20
154.6352211426815
 30
0.0
 11
5018.143984204545
 21
158.9360211426815
 31
0.0
  0
LINE
  5
2E3
330
1F
100
AcDbEntity
  8
Ech.1_2
 62
     7
370
    20
100
AcDbLine
 10
5017.781870115708
 20
158.3088211426798
 30
0.0
 11
5016.49009829338
 21
158.3088211426798
 31
0.0
  0
LINE
  5
2E4
330
1F
100
AcDbEntity
  8
Ech.1_2
 62
     7
370
    20
100
AcDbLine
 10
5018.143984204545
 20
158.9360211426815
 30
0.0
 11
5018.50609829338
 21
158.3088211426798
 31
0.0
  0
LINE
  5
2E5
330
1F
100
AcDbEntity
  8
Ech.1_2
 62
     7
370
    20
100
AcDbLine
 10
5018.143984204545
 20
158.9360211426815
 30
0.0
 11
5017.781870115708
 21
158.3088211426798
 31
0.0
  0
LINE
  5
2E6
330
1F
100
AcDbEntity
  8
Ech.1_2
 62
     7
370
    20
100
AcDbLine
 10
5019.151984204545
 20
154.6352211426815
 30
0.0
 11
5019.514098293381
 21
155.2624211426833
 31
0.0
  0
LINE
  5
2E7
330
1F
100
AcDbEntity
  8
Ech.1_2
 62
     7
370
    20
100
AcDbLine
 10
5019.151984204545
 20
154.6352211426815
 30
0.0
 11
5018.789870115708
 21
155.2624211426833
 31
0.0
  0
LINE
  5
2E8
330
1F
100
AcDbEntity
  8
Ech.1_2
 62
     7
370
    20
100
AcDbLine
 10
5018.789870115708
 20
155.2624211426833
 30
0.0
 11
5017.498098293381
 21
155.2624211426833
 31
0.0
  0
LINE
  5
2E9
330
1F
100
AcDbEntity
  8
Ech.1_2
 62
     7
370
    20
100
AcDbLine
 10
5019.797870115708
 20
158.3088211426798
 30
0.0
 11
5020.805870115708
 21
155.2624211426833
 31
0.0
  0
LINE
  5
2EA
330
1F
100
AcDbEntity
  8
Ech.1_2
 62
     7
370
    20
100
AcDbLine
 10
5021.167984204545
 20
154.6352211426815
 30
0.0
 11
5020.159984204544
 21
158.9360211426815
 31
0.0
  0
LINE
  5
2EB
330
1F
100
AcDbEntity
  8
Ech.1_2
 62
     7
370
    20
100
AcDbLine
 10
5019.797870115708
 20
158.3088211426798
 30
0.0
 11
5018.50609829338
 21
158.3088211426798
 31
0.0
  0
LINE
  5
2EC
330
1F
100
AcDbEntity
  8
Ech.1_2
 62
     7
370
    20
100
AcDbLine
 10
5020.159984204544
 20
158.9360211426815
 30
0.0
 11
5020.522098293381
 21
158.3088211426798
 31
0.0
  0
LINE
  5
2ED
330
1F
100
AcDbEntity
  8
Ech.1_2
 62
     7
370
    20
100
AcDbLine
 10
5020.159984204544
 20
158.9360211426815
 30
0.0
 11
5019.797870115708
 21
158.3088211426798
 31
0.0
  0
LINE
  5
2EE
330
1F
100
AcDbEntity
  8
Ech.1_2
 62
     7
370
    20
100
AcDbLine
 10
5021.167984204545
 20
154.6352211426815
 30
0.0
 11
5021.335029108732
 21
154.9245514038716
 31
0.0
  0
LINE
  5
2EF
330
1F
100
AcDbEntity
  8
Ech.1_2
 62
     7
370
    20
100
AcDbLine
 10
5021.167984204545
 20
154.6352211426815
 30
0.0
 11
5020.805870115708
 21
155.2624211426833
 31
0.0
  0
LINE
  5
2F0
330
1F
100
AcDbEntity
  8
Ech.1_2
 62
     7
370
    20
100
AcDbLine
 10
5020.805870115708
 20
155.2624211426833
 30
0.0
 11
5019.514098293381
 21
155.2624211426833
 31
0.0
  0
LINE
  5
2F1
330
1F
100
AcDbEntity
  8
Ech.1_2
 62
     7
370
    20
100
AcDbLine
 10
5020.522098293381
 20
158.3088211426798
 30
0.0
 11
5020.97009805754
 21
158.3088211426798
 31
0.0
  0
LINE
  5
2F2
330
1F
100
AcDbEntity
  8
Ech.1_2
 62
     7
370
    20
100
AcDbLine
 10
5020.522098293381
 20
158.3088211426798
 30
0.0
 11
5021.335029108732
 21
154.9245514038716
 31
0.0
  0
HATCH
  5
2F3
330
1F
100
AcDbEntity
  8
Ech.1_2
 62
   252
440
 33554687
370
     5
100
AcDbHatch
 10
0.0
 20
0.0
 30
0.0
210
0.0
220
0.0
230
1.0
  2
SOLID
 70
     1
 71
     1
 91
        1
 92
        3
 72
     0
 73
     1
 93
        4
 10
5022.14609805754
 20
158.4880211426803
 10
5022.14609805754
 20
155.0832211426809
 10
5032.898098293381
 20
155.0832211426809
 10
5032.898098293381
 20
158.4880211426803
 97
        0
 75
     0
 76
     1
 98
        0
  0
LWPOLYLINE
  5
2F4
330
1F
100
AcDbEntity
  8
Ech.1_2
 62
     7
370
     9
100
AcDbPolyline
 90
        5
 70
     0
 43
0.0
 10
5022.14609805754
 20
158.4880211426803
 10
5022.14609805754
 20
155.0832211426809
 10
5032.898098293381
 20
155.0832211426809
 10
5032.898098293381
 20
158.4880211426803
 10
5022.14609805754
 20
158.4880211426803
  0
HATCH
  5
2F5
330
1F
100
AcDbEntity
  8
Ech.1_2
 62
   252
440
 33554687
370
     5
100
AcDbHatch
 10
0.0
 20
0.0
 30
0.0
210
0.0
220
0.0
230
1.0
  2
SOLID
 70
     1
 71
     1
 91
        1
 92
        3
 72
     0
 73
     1
 93
        5
 10
5020.97009805754
 20
158.3088211426798
 10
5020.522098293381
 20
158.3088211426798
 10
5021.253869879873
 20
155.2624211426823
 10
5022.14609805754
 20
155.0832211426809
 10
5022.14609805754
 20
158.4880211426803
 97
        0
 75
     0
 76
     1
 98
        0
  0
LWPOLYLINE
  5
2F6
330
1F
100
AcDbEntity
  8
Ech.1_2
 62
     7
370
     9
100
AcDbPolyline
 90
        6
 70
     0
 43
0.0
 10
5020.97009805754
 20
158.3088211426798
 10
5020.522098293381
 20
158.3088211426798
 10
5021.253869879873
 20
155.2624211426823
 10
5022.14609805754
 20
155.0832211426809
 10
5022.14609805754
 20
158.4880211426803
 10
5020.97009805754
 20
158.3088211426798
  0
HATCH
  5
2F7
330
1F
100
AcDbEntity
  8
Ech.1_2
 62
   252
440
 33554687
370
     5
100
AcDbHatch
 10
0.0
 20
0.0
 30
0.0
210
0.0
220
0.0
230
1.0
  2
SOLID
 70
     1
 71
     1
 91
        1
 92
        3
 72
     0
 73
     1
 93
        4
 10
5020.522098293381
 20
158.3088211426798
 10
5020.159984204544
 20
158.9360211426815
 10
5021.167984204545
 20
154.6352211426815
 10
5021.335029108732
 20
154.9245514038716
 97
        0
 75
     0
 76
     1
 98
        0
  0
LWPOLYLINE
  5
2F8
330
1F
100
AcDbEntity
  8
Ech.1_2
 62
     7
370
     9
100
AcDbPolyline
 90
        5
 70
     0
 43
0.0
 10
5020.522098293381
 20
158.3088211426798
 10
5020.159984204544
 20
158.9360211426815
 10
5021.167984204545
 20
154.6352211426815
 10
5021.335029108732
 20
154.9245514038716
 10
5020.522098293381
 20
158.3088211426798
  0
HATCH
  5
2F9
330
1F
100
AcDbEntity
  8
Ech.1_2
 62
   252
440
 33554687
370
     5
100
AcDbHatch
 10
0.0
 20
0.0
 30
0.0
210
0.0
220
0.0
230
1.0
  2
SOLID
 70
     1
 71
     1
 91
        1
 92
        3
 72
     0
 73
     1
 93
        4
 10
5020.159984204544
 20
158.9360211426815
 10
5019.797870115708
 20
158.3088211426798
 10
5020.805870115708
 20
155.2624211426833
 10
5021.167984204545
 20
154.6352211426815
 97
        0
 75
     0
 76
     1
 98
        0
  0
LWPOLYLINE
  5
2FA
330
1F
100
AcDbEntity
  8
Ech.1_2
 62
     7
370
     9
100
AcDbPolyline
 90
        5
 70
     0
 43
0.0
 10
5020.159984204544
 20
158.9360211426815
 10
5019.797870115708
 20
158.3088211426798
 10
5020.805870115708
 20
155.2624211426833
 10
5021.167984204545
 20
154.6352211426815
 10
5020.159984204544
 20
158.9360211426815
  0
HATCH
  5
2FB
330
1F
100
AcDbEntity
  8
Ech.1_2
 62
   252
440
 33554687
370
     5
100
AcDbHatch
 10
0.0
 20
0.0
 30
0.0
210
0.0
220
0.0
230
1.0
  2
SOLID
 70
     1
 71
     1
 91
        1
 92
        3
 72
     0
 73
     1
 93
        4
 10
5018.50609829338
 20
158.3088211426798
 10
5019.514098293381
 20
155.2624211426833
 10
5020.805870115708
 20
155.2624211426833
 10
5019.797870115708
 20
158.3088211426798
 97
        0
 75
     0
 76
     1
 98
        0
  0
LWPOLYLINE
  5
2FC
330
1F
100
AcDbEntity
  8
Ech.1_2
 62
     7
370
     9
100
AcDbPolyline
 90
        5
 70
     0
 43
0.0
 10
5018.50609829338
 20
158.3088211426798
 10
5019.514098293381
 20
155.2624211426833
 10
5020.805870115708
 20
155.2624211426833
 10
5019.797870115708
 20
158.3088211426798
 10
5018.50609829338
 20
158.3088211426798
  0
HATCH
  5
2FD
330
1F
100
AcDbEntity
  8
Ech.1_2
 62
   252
440
 33554687
370
     5
100
AcDbHatch
 10
0.0
 20
0.0
 30
0.0
210
0.0
220
0.0
230
1.0
  2
SOLID
 70
     1
 71
     1
 91
        1
 92
        3
 72
     0
 73
     1
 93
        4
 10
5018.50609829338
 20
158.3088211426798
 10
5018.143984204545
 20
158.9360211426815
 10
5019.151984204545
 20
154.6352211426815
 10
5019.514098293381
 20
155.2624211426833
 97
        0
 75
     0
 76
     1
 98
        0
  0
LWPOLYLINE
  5
2FE
330
1F
100
AcDbEntity
  8
Ech.1_2
 62
     7
370
     9
100
AcDbPolyline
 90
        5
 70
     0
 43
0.0
 10
5018.50609829338
 20
158.3088211426798
 10
5018.143984204545
 20
158.9360211426815
 10
5019.151984204545
 20
154.6352211426815
 10
5019.514098293381
 20
155.2624211426833
 10
5018.50609829338
 20
158.3088211426798
  0
HATCH
  5
2FF
330
1F
100
AcDbEntity
  8
Ech.1_2
 62
   252
440
 33554687
370
     5
100
AcDbHatch
 10
0.0
 20
0.0
 30
0.0
210
0.0
220
0.0
230
1.0
  2
SOLID
 70
     1
 71
     1
 91
        1
 92
        3
 72
     0
 73
     1
 93
        4
 10
5018.143984204545
 20
158.9360211426815
 10
5017.781870115708
 20
158.3088211426798
 10
5018.789870115708
 20
155.2624211426833
 10
5019.151984204545
 20
154.6352211426815
 97
        0
 75
     0
 76
     1
 98
        0
  0
LWPOLYLINE
  5
300
330
1F
100
AcDbEntity
  8
Ech.1_2
 62
     7
370
     9
100
AcDbPolyline
 90
        5
 70
     0
 43
0.0
 10
5018.143984204545
 20
158.9360211426815
 10
5017.781870115708
 20
158.3088211426798
 10
5018.789870115708
 20
155.2624211426833
 10
5019.151984204545
 20
154.6352211426815
 10
5018.143984204545
 20
158.9360211426815
  0
HATCH
  5
301
330
1F
100
AcDbEntity
  8
Ech.1_2
 62
   252
440
 33554687
370
     5
100
AcDbHatch
 10
0.0
 20
0.0
 30
0.0
210
0.0
220
0.0
230
1.0
  2
SOLID
 70
     1
 71
     1
 91
        1
 92
        3
 72
     0
 73
     1
 93
        4
 10
5017.781870115708
 20
158.3088211426798
 10
5016.49009829338
 20
158.3088211426798
 10
5017.498098293381
 20
155.2624211426833
 10
5018.789870115708
 20
155.2624211426833
 97
        0
 75
     0
 76
     1
 98
        0
  0
LWPOLYLINE
  5
302
330
1F
100
AcDbEntity
  8
Ech.1_2
 62
     7
370
     9
100
AcDbPolyline
 90
        5
 70
     0
 43
0.0
 10
5017.781870115708
 20
158.3088211426798
 10
5016.49009829338
 20
158.3088211426798
 10
5017.498098293381
 20
155.2624211426833
 10
5018.789870115708
 20
155.2624211426833
 10
5017.781870115708
 20
158.3088211426798
  0
HATCH
  5
303
330
1F
100
AcDbEntity
  8
Ech.1_2
 62
   252
440
 33554687
370
     5
100
AcDbHatch
 10
0.0
 20
0.0
 30
0.0
210
0.0
220
0.0
230
1.0
  2
SOLID
 70
     1
 71
     1
 91
        1
 92
        3
 72
     0
 73
     1
 93
        4
 10
5016.49009829338
 20
158.3088211426798
 10
5016.127984204544
 20
158.9360211426815
 10
5017.135984204544
 20
154.6352211426815
 10
5017.498098293381
 20
155.2624211426833
 97
        0
 75
     0
 76
     1
 98
        0
  0
LWPOLYLINE
  5
304
330
1F
100
AcDbEntity
  8
Ech.1_2
 62
     7
370
     9
100
AcDbPolyline
 90
        5
 70
     0
 43
0.0
 10
5016.49009829338
 20
158.3088211426798
 10
5016.127984204544
 20
158.9360211426815
 10
5017.135984204544
 20
154.6352211426815
 10
5017.498098293381
 20
155.2624211426833
 10
5016.49009829338
 20
158.3088211426798
  0
HATCH
  5
305
330
1F
100
AcDbEntity
  8
Ech.1_2
 62
   252
440
 33554687
370
     5
100
AcDbHatch
 10
0.0
 20
0.0
 30
0.0
210
0.0
220
0.0
230
1.0
  2
SOLID
 70
     1
 71
     1
 91
        1
 92
        3
 72
     0
 73
     1
 93
        4
 10
5016.127984204544
 20
158.9360211426815
 10
5015.765870115708
 20
158.3088211426798
 10
5016.773870115709
 20
155.2624211426833
 10
5017.135984204544
 20
154.6352211426815
 97
        0
 75
     0
 76
     1
 98
        0
  0
LWPOLYLINE
  5
306
330
1F
100
AcDbEntity
  8
Ech.1_2
 62
     7
370
     9
100
AcDbPolyline
 90
        5
 70
     0
 43
0.0
 10
5016.127984204544
 20
158.9360211426815
 10
5015.765870115708
 20
158.3088211426798
 10
5016.773870115709
 20
155.2624211426833
 10
5017.135984204544
 20
154.6352211426815
 10
5016.127984204544
 20
158.9360211426815
  0
HATCH
  5
307
330
1F
100
AcDbEntity
  8
Ech.1_2
 62
   252
440
 33554687
370
     5
100
AcDbHatch
 10
0.0
 20
0.0
 30
0.0
210
0.0
220
0.0
230
1.0
  2
SOLID
 70
     1
 71
     1
 91
        1
 92
        3
 72
     0
 73
     1
 93
        4
 10
5015.765870115708
 20
158.3088211426798
 10
5014.474098293381
 20
158.3088211426798
 10
5015.482098293381
 20
155.2624211426833
 10
5016.773870115709
 20
155.2624211426833
 97
        0
 75
     0
 76
     1
 98
        0
  0
LWPOLYLINE
  5
308
330
1F
100
AcDbEntity
  8
Ech.1_2
 62
     7
370
     9
100
AcDbPolyline
 90
        5
 70
     0
 43
0.0
 10
5015.765870115708
 20
158.3088211426798
 10
5014.474098293381
 20
158.3088211426798
 10
5015.482098293381
 20
155.2624211426833
 10
5016.773870115709
 20
155.2624211426833
 10
5015.765870115708
 20
158.3088211426798
  0
HATCH
  5
309
330
1F
100
AcDbEntity
  8
Ech.1_2
 62
   252
440
 33554687
370
     5
100
AcDbHatch
 10
0.0
 20
0.0
 30
0.0
210
0.0
220
0.0
230
1.0
  2
SOLID
 70
     1
 71
     1
 91
        1
 92
        3
 72
     0
 73
     1
 93
        4
 10
5014.474098293381
 20
158.3088211426798
 10
5014.111984204545
 20
158.9360211426815
 10
5015.119984204544
 20
154.6352211426815
 10
5015.482098293381
 20
155.2624211426833
 97
        0
 75
     0
 76
     1
 98
        0
  0
LWPOLYLINE
  5
30A
330
1F
100
AcDbEntity
  8
Ech.1_2
 62
     7
370
     9
100
AcDbPolyline
 90
        5
 70
     0
 43
0.0
 10
5014.474098293381
 20
158.3088211426798
 10
5014.111984204545
 20
158.9360211426815
 10
5015.119984204544
 20
154.6352211426815
 10
5015.482098293381
 20
155.2624211426833
 10
5014.474098293381
 20
158.3088211426798
  0
HATCH
  5
30B
330
1F
100
AcDbEntity
  8
Ech.1_2
 62
   252
440
 33554687
370
     5
100
AcDbHatch
 10
0.0
 20
0.0
 30
0.0
210
0.0
220
0.0
230
1.0
  2
SOLID
 70
     1
 71
     1
 91
        1
 92
        3
 72
     0
 73
     1
 93
        4
 10
5014.111984204545
 20
158.9360211426815
 10
5013.749870115708
 20
158.3088211426798
 10
5014.757870115709
 20
155.2624211426833
 10
5015.119984204544
 20
154.6352211426815
 97
        0
 75
     0
 76
     1
 98
        0
  0
LWPOLYLINE
  5
30C
330
1F
100
AcDbEntity
  8
Ech.1_2
 62
     7
370
     9
100
AcDbPolyline
 90
        5
 70
     0
 43
0.0
 10
5014.111984204545
 20
158.9360211426815
 10
5013.749870115708
 20
158.3088211426798
 10
5014.757870115709
 20
155.2624211426833
 10
5015.119984204544
 20
154.6352211426815
 10
5014.111984204545
 20
158.9360211426815
  0
HATCH
  5
30D
330
1F
100
AcDbEntity
  8
Ech.1_2
 62
   252
440
 33554687
370
     5
100
AcDbHatch
 10
0.0
 20
0.0
 30
0.0
210
0.0
220
0.0
230
1.0
  2
SOLID
 70
     1
 71
     1
 91
        1
 92
        3
 72
     0
 73
     1
 93
        4
 10
5013.749870115708
 20
158.3088211426798
 10
5012.45809829338
 20
158.3088211426798
 10
5013.46609829338
 20
155.2624211426833
 10
5014.757870115709
 20
155.2624211426833
 97
        0
 75
     0
 76
     1
 98
        0
  0
LWPOLYLINE
  5
30E
330
1F
100
AcDbEntity
  8
Ech.1_2
 62
     7
370
     9
100
AcDbPolyline
 90
        5
 70
     0
 43
0.0
 10
5013.749870115708
 20
158.3088211426798
 10
5012.45809829338
 20
158.3088211426798
 10
5013.46609829338
 20
155.2624211426833
 10
5014.757870115709
 20
155.2624211426833
 10
5013.749870115708
 20
158.3088211426798
  0
HATCH
  5
30F
330
1F
100
AcDbEntity
  8
Ech.1_2
 62
   252
440
 33554687
370
     5
100
AcDbHatch
 10
0.0
 20
0.0
 30
0.0
210
0.0
220
0.0
230
1.0
  2
SOLID
 70
     1
 71
     1
 91
        1
 92
        3
 72
     0
 73
     1
 93
        4
 10
5012.45809829338
 20
158.3088211426798
 10
5012.095984204544
 20
158.9360211426815
 10
5013.103984204545
 20
154.6352211426815
 10
5013.46609829338
 20
155.2624211426833
 97
        0
 75
     0
 76
     1
 98
        0
  0
LWPOLYLINE
  5
310
330
1F
100
AcDbEntity
  8
Ech.1_2
 62
     7
370
     9
100
AcDbPolyline
 90
        5
 70
     0
 43
0.0
 10
5012.45809829338
 20
158.3088211426798
 10
5012.095984204544
 20
158.9360211426815
 10
5013.103984204545
 20
154.6352211426815
 10
5013.46609829338
 20
155.2624211426833
 10
5012.45809829338
 20
158.3088211426798
  0
HATCH
  5
311
330
1F
100
AcDbEntity
  8
Ech.1_2
 62
   252
440
 33554687
370
     5
100
AcDbHatch
 10
0.0
 20
0.0
 30
0.0
210
0.0
220
0.0
230
1.0
  2
SOLID
 70
     1
 71
     1
 91
        1
 92
        3
 72
     0
 73
     1
 93
        4
 10
5012.095984204544
 20
158.9360211426815
 10
5011.733870115708
 20
158.3088211426798
 10
5012.741870115708
 20
155.2624211426833
 10
5013.103984204545
 20
154.6352211426815
 97
        0
 75
     0
 76
     1
 98
        0
  0
LWPOLYLINE
  5
312
330
1F
100
AcDbEntity
  8
Ech.1_2
 62
     7
370
     9
100
AcDbPolyline
 90
        5
 70
     0
 43
0.0
 10
5012.095984204544
 20
158.9360211426815
 10
5011.733870115708
 20
158.3088211426798
 10
5012.741870115708
 20
155.2624211426833
 10
5013.103984204545
 20
154.6352211426815
 10
5012.095984204544
 20
158.9360211426815
  0
HATCH
  5
313
330
1F
100
AcDbEntity
  8
Ech.1_2
 62
   252
440
 33554687
370
     5
100
AcDbHatch
 10
0.0
 20
0.0
 30
0.0
210
0.0
220
0.0
230
1.0
  2
SOLID
 70
     1
 71
     1
 91
        1
 92
        3
 72
     0
 73
     1
 93
        4
 10
5010.442098293381
 20
158.3088211426798
 10
5011.450098293381
 20
155.2624211426833
 10
5012.741870115708
 20
155.2624211426833
 10
5011.733870115708
 20
158.3088211426798
 97
        0
 75
     0
 76
     1
 98
        0
  0
LWPOLYLINE
  5
314
330
1F
100
AcDbEntity
  8
Ech.1_2
 62
     7
370
     9
100
AcDbPolyline
 90
        5
 70
     0
 43
0.0
 10
5010.442098293381
 20
158.3088211426798
 10
5011.450098293381
 20
155.2624211426833
 10
5012.741870115708
 20
155.2624211426833
 10
5011.733870115708
 20
158.3088211426798
 10
5010.442098293381
 20
158.3088211426798
  0
HATCH
  5
315
330
1F
100
AcDbEntity
  8
Ech.1_2
 62
   252
440
 33554687
370
     5
100
AcDbHatch
 10
0.0
 20
0.0
 30
0.0
210
0.0
220
0.0
230
1.0
  2
SOLID
 70
     1
 71
     1
 91
        1
 92
        3
 72
     0
 73
     1
 93
        4
 10
5010.442098293381
 20
158.3088211426798
 10
5010.079984204544
 20
158.9360211426815
 10
5011.087984204545
 20
154.6352211426815
 10
5011.450098293381
 20
155.2624211426833
 97
        0
 75
     0
 76
     1
 98
        0
  0
LWPOLYLINE
  5
316
330
1F
100
AcDbEntity
  8
Ech.1_2
 62
     7
370
     9
100
AcDbPolyline
 90
        5
 70
     0
 43
0.0
 10
5010.442098293381
 20
158.3088211426798
 10
5010.079984204544
 20
158.9360211426815
 10
5011.087984204545
 20
154.6352211426815
 10
5011.450098293381
 20
155.2624211426833
 10
5010.442098293381
 20
158.3088211426798
  0
HATCH
  5
317
330
1F
100
AcDbEntity
  8
Ech.1_2
 62
   252
440
 33554687
370
     5
100
AcDbHatch
 10
0.0
 20
0.0
 30
0.0
210
0.0
220
0.0
230
1.0
  2
SOLID
 70
     1
 71
     1
 91
        1
 92
        3
 72
     0
 73
     1
 93
        4
 10
5010.079984204544
 20
158.9360211426815
 10
5009.717870115708
 20
158.3088211426798
 10
5010.725870115708
 20
155.2624211426833
 10
5011.087984204545
 20
154.6352211426815
 97
        0
 75
     0
 76
     1
 98
        0
  0
LWPOLYLINE
  5
318
330
1F
100
AcDbEntity
  8
Ech.1_2
 62
     7
370
     9
100
AcDbPolyline
 90
        5
 70
     0
 43
0.0
 10
5010.079984204544
 20
158.9360211426815
 10
5009.717870115708
 20
158.3088211426798
 10
5010.725870115708
 20
155.2624211426833
 10
5011.087984204545
 20
154.6352211426815
 10
5010.079984204544
 20
158.9360211426815
  0
HATCH
  5
319
330
1F
100
AcDbEntity
  8
Ech.1_2
 62
   252
440
 33554687
370
     5
100
AcDbHatch
 10
0.0
 20
0.0
 30
0.0
210
0.0
220
0.0
230
1.0
  2
SOLID
 70
     1
 71
     1
 91
        1
 92
        3
 72
     0
 73
     1
 93
        4
 10
5009.717870115708
 20
158.3088211426798
 10
5008.42609829338
 20
158.3088211426798
 10
5009.434098293381
 20
155.2624211426833
 10
5010.725870115708
 20
155.2624211426833
 97
        0
 75
     0
 76
     1
 98
        0
  0
LWPOLYLINE
  5
31A
330
1F
100
AcDbEntity
  8
Ech.1_2
 62
     7
370
     9
100
AcDbPolyline
 90
        5
 70
     0
 43
0.0
 10
5009.717870115708
 20
158.3088211426798
 10
5008.42609829338
 20
158.3088211426798
 10
5009.434098293381
 20
155.2624211426833
 10
5010.725870115708
 20
155.2624211426833
 10
5009.717870115708
 20
158.3088211426798
  0
HATCH
  5
31B
330
1F
100
AcDbEntity
  8
Ech.1_2
 62
   252
440
 33554687
370
     5
100
AcDbHatch
 10
0.0
 20
0.0
 30
0.0
210
0.0
220
0.0
230
1.0
  2
SOLID
 70
     1
 71
     1
 91
        1
 92
        3
 72
     0
 73
     1
 93
        4
 10
5008.42609829338
 20
158.3088211426798
 10
5008.063984204544
 20
158.9360211426815
 10
5009.071984204545
 20
154.6352211426815
 10
5009.434098293381
 20
155.2624211426833
 97
        0
 75
     0
 76
     1
 98
        0
  0
LWPOLYLINE
  5
31C
330
1F
100
AcDbEntity
  8
Ech.1_2
 62
     7
370
     9
100
AcDbPolyline
 90
        5
 70
     0
 43
0.0
 10
5008.42609829338
 20
158.3088211426798
 10
5008.063984204544
 20
158.9360211426815
 10
5009.071984204545
 20
154.6352211426815
 10
5009.434098293381
 20
155.2624211426833
 10
5008.42609829338
 20
158.3088211426798
  0
HATCH
  5
31D
330
1F
100
AcDbEntity
  8
Ech.1_2
 62
   252
440
 33554687
370
     5
100
AcDbHatch
 10
0.0
 20
0.0
 30
0.0
210
0.0
220
0.0
230
1.0
  2
SOLID
 70
     1
 71
     1
 91
        1
 92
        3
 72
     0
 73
     1
 93
        4
 10
5008.063984204544
 20
158.9360211426815
 10
5007.701870115709
 20
158.3088211426798
 10
5008.709870115708
 20
155.2624211426833
 10
5009.071984204545
 20
154.6352211426815
 97
        0
 75
     0
 76
     1
 98
        0
  0
LWPOLYLINE
  5
31E
330
1F
100
AcDbEntity
  8
Ech.1_2
 62
     7
370
     9
100
AcDbPolyline
 90
        5
 70
     0
 43
0.0
 10
5008.063984204544
 20
158.9360211426815
 10
5007.701870115709
 20
158.3088211426798
 10
5008.709870115708
 20
155.2624211426833
 10
5009.071984204545
 20
154.6352211426815
 10
5008.063984204544
 20
158.9360211426815
  0
HATCH
  5
31F
330
1F
100
AcDbEntity
  8
Ech.1_2
 62
   252
440
 33554687
370
     5
100
AcDbHatch
 10
0.0
 20
0.0
 30
0.0
210
0.0
220
0.0
230
1.0
  2
SOLID
 70
     1
 71
     1
 91
        1
 92
        3
 72
     0
 73
     1
 93
        4
 10
5007.701870115709
 20
158.3088211426798
 10
5006.410098293381
 20
158.3088211426798
 10
5007.418098293381
 20
155.2624211426833
 10
5008.709870115708
 20
155.2624211426833
 97
        0
 75
     0
 76
     1
 98
        0
  0
LWPOLYLINE
  5
320
330
1F
100
AcDbEntity
  8
Ech.1_2
 62
     7
370
     9
100
AcDbPolyline
 90
        5
 70
     0
 43
0.0
 10
5007.701870115709
 20
158.3088211426798
 10
5006.410098293381
 20
158.3088211426798
 10
5007.418098293381
 20
155.2624211426833
 10
5008.709870115708
 20
155.2624211426833
 10
5007.701870115709
 20
158.3088211426798
  0
HATCH
  5
321
330
1F
100
AcDbEntity
  8
Ech.1_2
 62
   252
440
 33554687
370
     5
100
AcDbHatch
 10
0.0
 20
0.0
 30
0.0
210
0.0
220
0.0
230
1.0
  2
SOLID
 70
     1
 71
     1
 91
        1
 92
        3
 72
     0
 73
     1
 93
        4
 10
5006.410098293381
 20
158.3088211426798
 10
5006.047984204544
 20
158.9360211426815
 10
5007.055984204544
 20
154.6352211426815
 10
5007.418098293381
 20
155.2624211426833
 97
        0
 75
     0
 76
     1
 98
        0
  0
LWPOLYLINE
  5
322
330
1F
100
AcDbEntity
  8
Ech.1_2
 62
     7
370
     9
100
AcDbPolyline
 90
        5
 70
     0
 43
0.0
 10
5006.410098293381
 20
158.3088211426798
 10
5006.047984204544
 20
158.9360211426815
 10
5007.055984204544
 20
154.6352211426815
 10
5007.418098293381
 20
155.2624211426833
 10
5006.410098293381
 20
158.3088211426798
  0
HATCH
  5
323
330
1F
100
AcDbEntity
  8
Ech.1_2
 62
   252
440
 33554687
370
     5
100
AcDbHatch
 10
0.0
 20
0.0
 30
0.0
210
0.0
220
0.0
230
1.0
  2
SOLID
 70
     1
 71
     1
 91
        1
 92
        3
 72
     0
 73
     1
 93
        4
 10
5006.047984204544
 20
158.9360211426815
 10
5005.685870115708
 20
158.3088211426798
 10
5006.693870115709
 20
155.2624211426833
 10
5007.055984204544
 20
154.6352211426815
 97
        0
 75
     0
 76
     1
 98
        0
  0
LWPOLYLINE
  5
324
330
1F
100
AcDbEntity
  8
Ech.1_2
 62
     7
370
     9
100
AcDbPolyline
 90
        5
 70
     0
 43
0.0
 10
5006.047984204544
 20
158.9360211426815
 10
5005.685870115708
 20
158.3088211426798
 10
5006.693870115709
 20
155.2624211426833
 10
5007.055984204544
 20
154.6352211426815
 10
5006.047984204544
 20
158.9360211426815
  0
HATCH
  5
325
330
1F
100
AcDbEntity
  8
Ech.1_2
 62
   252
440
 33554687
370
     5
100
AcDbHatch
 10
0.0
 20
0.0
 30
0.0
210
0.0
220
0.0
230
1.0
  2
SOLID
 70
     1
 71
     1
 91
        1
 92
        3
 72
     0
 73
     1
 93
        4
 10
5005.685870115708
 20
158.3088211426798
 10
5004.39409829338
 20
158.3088211426798
 10
5005.402098293381
 20
155.2624211426833
 10
5006.693870115709
 20
155.2624211426833
 97
        0
 75
     0
 76
     1
 98
        0
  0
LWPOLYLINE
  5
326
330
1F
100
AcDbEntity
  8
Ech.1_2
 62
     7
370
     9
100
AcDbPolyline
 90
        5
 70
     0
 43
0.0
 10
5005.685870115708
 20
158.3088211426798
 10
5004.39409829338
 20
158.3088211426798
 10
5005.402098293381
 20
155.2624211426833
 10
5006.693870115709
 20
155.2624211426833
 10
5005.685870115708
 20
158.3088211426798
  0
HATCH
  5
327
330
1F
100
AcDbEntity
  8
Ech.1_2
 62
   252
440
 33554687
370
     5
100
AcDbHatch
 10
0.0
 20
0.0
 30
0.0
210
0.0
220
0.0
230
1.0
  2
SOLID
 70
     1
 71
     1
 91
        1
 92
        3
 72
     0
 73
     1
 93
        4
 10
5004.39409829338
 20
158.3088211426798
 10
5004.031984204545
 20
158.9360211426815
 10
5005.039984204544
 20
154.6352211426815
 10
5005.402098293381
 20
155.2624211426833
 97
        0
 75
     0
 76
     1
 98
        0
  0
LWPOLYLINE
  5
328
330
1F
100
AcDbEntity
  8
Ech.1_2
 62
     7
370
     9
100
AcDbPolyline
 90
        5
 70
     0
 43
0.0
 10
5004.39409829338
 20
158.3088211426798
 10
5004.031984204545
 20
158.9360211426815
 10
5005.039984204544
 20
154.6352211426815
 10
5005.402098293381
 20
155.2624211426833
 10
5004.39409829338
 20
158.3088211426798
  0
HATCH
  5
329
330
1F
100
AcDbEntity
  8
Ech.1_2
 62
   252
440
 33554687
370
     5
100
AcDbHatch
 10
0.0
 20
0.0
 30
0.0
210
0.0
220
0.0
230
1.0
  2
SOLID
 70
     1
 71
     1
 91
        1
 92
        3
 72
     0
 73
     1
 93
        4
 10
5004.031984204545
 20
158.9360211426815
 10
5003.669870115708
 20
158.3088211426798
 10
5004.677870115709
 20
155.2624211426833
 10
5005.039984204544
 20
154.6352211426815
 97
        0
 75
     0
 76
     1
 98
        0
  0
LWPOLYLINE
  5
32A
330
1F
100
AcDbEntity
  8
Ech.1_2
 62
     7
370
     9
100
AcDbPolyline
 90
        5
 70
     0
 43
0.0
 10
5004.031984204545
 20
158.9360211426815
 10
5003.669870115708
 20
158.3088211426798
 10
5004.677870115709
 20
155.2624211426833
 10
5005.039984204544
 20
154.6352211426815
 10
5004.031984204545
 20
158.9360211426815
  0
HATCH
  5
32B
330
1F
100
AcDbEntity
  8
Ech.1_2
 62
   252
440
 33554687
370
     5
100
AcDbHatch
 10
0.0
 20
0.0
 30
0.0
210
0.0
220
0.0
230
1.0
  2
SOLID
 70
     1
 71
     1
 91
        1
 92
        3
 72
     0
 73
     1
 93
        5
 10
5003.669870115708
 20
158.3088211426798
 10
5002.527428391589
 20
158.3088211426798
 10
5002.396097917359
 20
158.2544222791025
 10
5003.38609829338
 20
155.2624211426833
 10
5004.677870115709
 20
155.2624211426833
 97
        0
 75
     0
 76
     1
 98
        0
  0
LWPOLYLINE
  5
32C
330
1F
100
AcDbEntity
  8
Ech.1_2
 62
     7
370
     9
100
AcDbPolyline
 90
        6
 70
     0
 43
0.0
 10
5003.669870115708
 20
158.3088211426798
 10
5002.527428391589
 20
158.3088211426798
 10
5002.396097917359
 20
158.2544222791025
 10
5003.38609829338
 20
155.2624211426833
 10
5004.677870115709
 20
155.2624211426833
 10
5003.669870115708
 20
158.3088211426798
  0
HATCH
  5
32D
330
1F
100
AcDbEntity
  8
Ech.1_2
 62
   252
440
 33554687
370
     5
100
AcDbHatch
 10
0.0
 20
0.0
 30
0.0
210
0.0
220
0.0
230
1.0
  2
SOLID
 70
     1
 71
     1
 91
        1
 92
        3
 72
     0
 73
     1
 93
        4
 10
5002.396097917359
 20
158.2544222791025
 10
5002.033983828523
 20
158.8816222791042
 10
5003.023984204545
 20
154.6352211426815
 10
5003.38609829338
 20
155.2624211426833
 97
        0
 75
     0
 76
     1
 98
        0
  0
LWPOLYLINE
  5
32E
330
1F
100
AcDbEntity
  8
Ech.1_2
 62
     7
370
     9
100
AcDbPolyline
 90
        5
 70
     0
 43
0.0
 10
5002.396097917359
 20
158.2544222791025
 10
5002.033983828523
 20
158.8816222791042
 10
5003.023984204545
 20
154.6352211426815
 10
5003.38609829338
 20
155.2624211426833
 10
5002.396097917359
 20
158.2544222791025
  0
HATCH
  5
32F
330
1F
100
AcDbEntity
  8
Ech.1_2
 62
   252
440
 33554687
370
     5
100
AcDbHatch
 10
0.0
 20
0.0
 30
0.0
210
0.0
220
0.0
230
1.0
  2
SOLID
 70
     1
 71
     1
 91
        1
 92
        3
 72
     0
 73
     1
 93
        4
 10
5002.033983828523
 20
158.8816222791042
 10
5001.759165167932
 20
157.9905960959691
 10
5002.661870115709
 20
155.2624211426833
 10
5003.023984204545
 20
154.6352211426815
 97
        0
 75
     0
 76
     1
 98
        0
  0
LWPOLYLINE
  5
330
330
1F
100
AcDbEntity
  8
Ech.1_2
 62
     7
370
     9
100
AcDbPolyline
 90
        5
 70
     0
 43
0.0
 10
5002.033983828523
 20
158.8816222791042
 10
5001.759165167932
 20
157.9905960959691
 10
5002.661870115709
 20
155.2624211426833
 10
5003.023984204545
 20
154.6352211426815
 10
5002.033983828523
 20
158.8816222791042
  0
HATCH
  5
331
330
1F
100
AcDbEntity
  8
Ech.1_2
 62
   252
440
 33554687
370
     5
100
AcDbHatch
 10
0.0
 20
0.0
 30
0.0
210
0.0
220
0.0
230
1.0
  2
SOLID
 70
     1
 71
     1
 91
        1
 92
        3
 72
     0
 73
     1
 93
        5
 10
5001.759165167932
 20
157.9905960959691
 10
5000.62309810537
 20
157.5200217108918
 10
5001.186286855098
 20
155.817940156157
 10
5002.527428391589
 20
155.2624211426833
 10
5002.661870115709
 20
155.2624211426833
 97
        0
 75
     0
 76
     1
 98
        0
  0
LWPOLYLINE
  5
332
330
1F
100
AcDbEntity
  8
Ech.1_2
 62
     7
370
     9
100
AcDbPolyline
 90
        6
 70
     0
 43
0.0
 10
5001.759165167932
 20
157.9905960959691
 10
5000.62309810537
 20
157.5200217108918
 10
5001.186286855098
 20
155.817940156157
 10
5002.527428391589
 20
155.2624211426833
 10
5002.661870115709
 20
155.2624211426833
 10
5001.759165167932
 20
157.9905960959691
  0
HATCH
  5
333
330
1F
100
AcDbEntity
  8
Ech.1_2
 62
   252
440
 33554687
370
     5
100
AcDbHatch
 10
0.0
 20
0.0
 30
0.0
210
0.0
220
0.0
230
1.0
  2
SOLID
 70
     1
 71
     1
 91
        1
 92
        3
 72
     0
 73
     1
 93
        4
 10
5000.62309810537
 20
157.5200217108918
 10
5000.260984016533
 20
158.1472217108917
 10
5000.824172766262
 20
155.190740156158
 10
5001.186286855098
 20
155.817940156157
 97
        0
 75
     0
 76
     1
 98
        0
  0
LWPOLYLINE
  5
334
330
1F
100
AcDbEntity
  8
Ech.1_2
 62
     7
370
     9
100
AcDbPolyline
 90
        5
 70
     0
 43
0.0
 10
5000.62309810537
 20
157.5200217108918
 10
5000.260984016533
 20
158.1472217108917
 10
5000.824172766262
 20
155.190740156158
 10
5001.186286855098
 20
155.817940156157
 10
5000.62309810537
 20
157.5200217108918
  0
HATCH
  5
335
330
1F
100
AcDbEntity
  8
Ech.1_2
 62
   252
440
 33554687
370
     5
100
AcDbHatch
 10
0.0
 20
0.0
 30
0.0
210
0.0
220
0.0
230
1.0
  2
SOLID
 70
     1
 71
     1
 91
        1
 92
        3
 72
     0
 73
     1
 93
        4
 10
5000.260984016533
 20
158.1472217108917
 10
4999.986165355943
 20
157.2561955277565
 10
5000.34703408489
 20
156.1655700358392
 10
5000.824172766262
 20
155.190740156158
 97
        0
 75
     0
 76
     1
 98
        0
  0
LWPOLYLINE
  5
336
330
1F
100
AcDbEntity
  8
Ech.1_2
 62
     7
370
     9
100
AcDbPolyline
 90
        5
 70
     0
 43
0.0
 10
5000.260984016533
 20
158.1472217108917
 10
4999.986165355943
 20
157.2561955277565
 10
5000.34703408489
 20
156.1655700358392
 10
5000.824172766262
 20
155.190740156158
 10
5000.260984016533
 20
158.1472217108917
  0
HATCH
  5
337
330
1F
100
AcDbEntity
  8
Ech.1_2
 62
   252
440
 33554687
370
     5
100
AcDbHatch
 10
0.0
 20
0.0
 30
0.0
210
0.0
220
0.0
230
1.0
  2
SOLID
 70
     1
 71
     1
 91
        1
 92
        3
 72
     0
 73
     1
 93
        3
 10
4998.850098293381
 20
156.7856211426838
 10
5000.34703408489
 20
156.1655700358392
 10
4999.986165355943
 20
157.2561955277565
 97
        0
 75
     0
 76
     1
 98
        0
  0
LWPOLYLINE
  5
338
330
1F
100
AcDbEntity
  8
Ech.1_2
 62
     7
370
     9
100
AcDbPolyline
 90
        4
 70
     0
 43
0.0
 10
4998.850098293381
 20
156.7856211426838
 10
5000.34703408489
 20
156.1655700358392
 10
4999.986165355943
 20
157.2561955277565
 10
4998.850098293381
 20
156.7856211426838
  0
HATCH
  5
339
330
1F
100
AcDbEntity
  8
Ech.1_2
 62
   252
440
 33554687
370
     5
100
AcDbHatch
 10
0.0
 20
0.0
 30
0.0
210
0.0
220
0.0
230
1.0
  2
SOLID
 70
     1
 71
     1
 91
        1
 92
        3
 72
     1
 73
     1
 93
       14
 10
5032.898098293381
 20
155.0832211426809
 42
0.0
 10
5032.898098293381
 20
153.4256209000064
 42
0.0
 10
5032.898098293381
 20
151.8576211426794
 42
0.4142135623668221
 10
5033.34609829338
 20
151.40962114268
 42
0.0
 10
5033.631385825258
 20
151.40962114268
 42
0.2807125373763116
 10
5034.029559433406
 20
151.6522878093479
 42
0.0800400421139665
 10
5035.138098293381
 20
155.038420565043
 42
0.0
 10
5035.138098293381
 20
158.5328208521519
 42
0.0800400993907748
 10
5034.029559433406
 20
161.9189544760134
 42
0.2807125373814343
 10
5033.631385825258
 20
162.1616211426785
 42
0.0
 10
5033.34609829338
 20
162.1616211426785
 42
0.4127160716983431
 10
5032.898098293381
 20
161.7158988086953
 42
0.0
 10
5032.898098293381
 20
160.1456209512739
 42
0.0
 10
5032.898098293381
 20
158.4880211426803
 42
0.0
 97
        0
 75
     0
 76
     1
 98
        0
  0
LWPOLYLINE
  5
33A
330
1F
100
AcDbEntity
  8
Ech.1_2
 62
     7
370
     9
100
AcDbPolyline
 90
       15
 70
     0
 43
0.0
 10
5032.898098293381
 20
155.0832211426809
 10
5032.898098293381
 20
153.4256209000064
 10
5032.898098293381
 20
151.8576211426794
 42
0.4142135623658086
 10
5033.34609829338
 20
151.40962114268
 10
5033.631385825258
 20
151.40962114268
 42
0.2807125373763157
 10
5034.029559433406
 20
151.6522878093479
 42
0.0800400421142023
 10
5035.138098293381
 20
155.038420565043
 10
5035.138098293381
 20
158.5328208521519
 42
0.0800400993906394
 10
5034.029559433406
 20
161.9189544760134
 42
0.2807125373821672
 10
5033.631385825258
 20
162.1616211426785
 10
5033.34609829338
 20
162.1616211426785
 42
0.4127160716973158
 10
5032.898098293381
 20
161.7158988086953
 10
5032.898098293381
 20
160.1456209512739
 10
5032.898098293381
 20
158.4880211426803
 10
5032.898098293381
 20
155.0832211426809
  0
LINE
  5
33B
330
1F
100
AcDbEntity
  8
Ech.1_2
 62
     7
370
    20
100
AcDbLine
 10
5044.429297156825
 20
103.2836207666628
 30
0.0
 11
5044.374898293247
 21
103.4149512408926
 31
0.0
  0
LINE
  5
33C
330
1F
100
AcDbEntity
  8
Ech.1_2
 62
     7
370
    20
100
AcDbLine
 10
5046.865779279769
 20
102.0738097044018
 30
0.0
 11
5047.421298293244
 21
103.4149512408926
 31
0.0
  0
LINE
  5
33D
330
1F
100
AcDbEntity
  8
Ech.1_2
 62
     7
370
    20
100
AcDbLine
 10
5044.429297156825
 20
103.2836207666628
 30
0.0
 11
5047.421298293244
 21
104.2736211426841
 31
0.0
  0
LINE
  5
33E
330
1F
100
AcDbEntity
  8
Ech.1_2
 62
     7
370
    20
100
AcDbLine
 10
5044.693123339957
 20
102.6466880172361
 30
0.0
 11
5047.421298293244
 21
103.5493929650124
 31
0.0
  0
LINE
  5
33F
330
1F
100
AcDbEntity
  8
Ech.1_2
 62
     7
370
    20
100
AcDbLine
 10
5048.048498293245
 20
103.9115070538487
 30
0.0
 11
5043.802097156822
 21
102.9215066778265
 31
0.0
  0
LINE
  5
340
330
1F
100
AcDbEntity
  8
Ech.1_2
 62
     7
370
    20
100
AcDbLine
 10
5042.538098484652
 20
133.7856211426847
 30
0.0
 11
5049.25809853592
 21
133.7856211426847
 31
0.0
  0
LWPOLYLINE
  5
341
330
1F
100
AcDbEntity
  8
Ech.1_2
 62
     7
370
    20
100
AcDbPolyline
 90
       12
 70
   128
 43
0.0
 10
5050.826098293248
 20
133.7856211426847
 42
0.4142135623652142
 10
5051.274098293246
 20
134.2336211426841
 42
-0.4142135623652116
 10
5050.826098293248
 20
133.7856211426847
 10
5040.970098293248
 20
133.7856211426847
 42
-0.4142135623704609
 10
5040.522098293248
 20
134.2336211426841
 10
5040.522098293248
 20
134.5189086745618
 42
-0.280712537378835
 10
5040.764764959913
 20
134.9170822827095
 42
-0.0800400993907197
 10
5044.150898583775
 20
136.0256211426845
 10
5047.645298870884
 20
136.0256211426845
 42
-0.0800400421138343
 10
5051.031431626579
 20
134.9170822827095
 42
-0.2807125373749335
 10
5051.274098293246
 20
134.5189086745618
 10
5051.274098293246
 20
134.2336211426841
  0
LINE
  5
342
330
1F
100
AcDbEntity
  8
Ech.1_2
 62
     7
370
    20
100
AcDbLine
 10
5040.967820627231
 20
133.7856211426847
 30
0.0
 11
5042.538098484652
 21
133.7856211426847
 31
0.0
  0
LINE
  5
343
330
1F
100
AcDbEntity
  8
Ech.1_2
 62
     7
370
    20
100
AcDbLine
 10
5050.828376827427
 20
133.7856211426847
 30
0.0
 11
5049.258098970005
 21
133.7856211426847
 31
0.0
  0
LINE
  5
344
330
1F
100
AcDbEntity
  8
Ech.1_2
 62
     7
370
    20
100
AcDbLine
 10
5044.374898293247
 20
117.3776211426843
 30
0.0
 11
5047.421298293244
 21
118.3856211426851
 31
0.0
  0
LINE
  5
345
330
1F
100
AcDbEntity
  8
Ech.1_2
 62
     7
370
    20
100
AcDbLine
 10
5044.374898293247
 20
116.6533929650118
 30
0.0
 11
5047.421298293244
 21
117.6613929650125
 31
0.0
  0
LINE
  5
346
330
1F
100
AcDbEntity
  8
Ech.1_2
 62
     7
370
    20
100
AcDbLine
 10
5048.048498293245
 20
118.0235070538479
 30
0.0
 11
5043.747698293246
 21
117.0155070538481
 31
0.0
  0
LINE
  5
347
330
1F
100
AcDbEntity
  8
Ech.1_2
 62
     7
370
    20
100
AcDbLine
 10
5044.374898293247
 20
112.6213929650116
 30
0.0
 11
5047.421298293244
 21
113.6293929650124
 31
0.0
  0
LINE
  5
348
330
1F
100
AcDbEntity
  8
Ech.1_2
 62
     7
370
    20
100
AcDbLine
 10
5048.048498293245
 20
113.9915070538486
 30
0.0
 11
5043.747698293246
 21
112.9835070538479
 31
0.0
  0
LINE
  5
349
330
1F
100
AcDbEntity
  8
Ech.1_2
 62
     7
370
    20
100
AcDbLine
 10
5048.048498293245
 20
116.0075070538483
 30
0.0
 11
5043.747698293246
 21
114.9995070538484
 31
0.0
  0
LINE
  5
34A
330
1F
100
AcDbEntity
  8
Ech.1_2
 62
     7
370
    20
100
AcDbLine
 10
5044.374898293247
 20
114.6373929650122
 30
0.0
 11
5047.421298293244
 21
115.6453929650129
 31
0.0
  0
LINE
  5
34B
330
1F
100
AcDbEntity
  8
Ech.1_2
 62
     7
370
    20
100
AcDbLine
 10
5044.374898293247
 20
115.3616211426847
 30
0.0
 11
5047.421298293244
 21
116.3696211426845
 31
0.0
  0
LINE
  5
34C
330
1F
100
AcDbEntity
  8
Ech.1_2
 62
     7
370
    20
100
AcDbLine
 10
5044.374898293247
 20
113.3456211426842
 30
0.0
 11
5047.421298293244
 21
114.353621142684
 31
0.0
  0
LINE
  5
34D
330
1F
100
AcDbEntity
  8
Ech.1_2
 62
     7
370
    20
100
AcDbLine
 10
5048.048498293245
 20
111.975507053849
 30
0.0
 11
5043.747698293246
 21
110.9675070538483
 31
0.0
  0
LINE
  5
34E
330
1F
100
AcDbEntity
  8
Ech.1_2
 62
     7
370
    20
100
AcDbLine
 10
5044.374898293247
 20
110.605392965012
 30
0.0
 11
5047.421298293244
 21
111.6133929650118
 31
0.0
  0
LINE
  5
34F
330
1F
100
AcDbEntity
  8
Ech.1_2
 62
     7
370
    20
100
AcDbLine
 10
5044.374898293247
 20
111.3296211426846
 30
0.0
 11
5047.421298293244
 21
112.3376211426844
 31
0.0
  0
LINE
  5
350
330
1F
100
AcDbEntity
  8
Ech.1_2
 62
     7
370
    20
100
AcDbLine
 10
5047.600498293246
 20
123.0336209068441
 30
0.0
 11
5044.195698293246
 21
123.0336209068441
 31
0.0
  0
LINE
  5
351
330
1F
100
AcDbEntity
  8
Ech.1_2
 62
     7
370
    20
100
AcDbLine
 10
5044.374898293247
 20
106.5733929650119
 30
0.0
 11
5047.421298293244
 21
107.5813929650126
 31
0.0
  0
LINE
  5
352
330
1F
100
AcDbEntity
  8
Ech.1_2
 62
     7
370
    20
100
AcDbLine
 10
5048.048498293245
 20
107.943507053848
 30
0.0
 11
5043.747698293246
 21
106.9355070538481
 31
0.0
  0
LINE
  5
353
330
1F
100
AcDbEntity
  8
Ech.1_2
 62
     7
370
    20
100
AcDbLine
 10
5048.048498293245
 20
109.9595070538485
 30
0.0
 11
5043.747698293246
 21
108.9515070538478
 31
0.0
  0
LINE
  5
354
330
1F
100
AcDbEntity
  8
Ech.1_2
 62
     7
370
    20
100
AcDbLine
 10
5044.374898293247
 20
108.5893929650124
 30
0.0
 11
5047.421298293244
 21
109.5973929650122
 31
0.0
  0
LINE
  5
355
330
1F
100
AcDbEntity
  8
Ech.1_2
 62
     7
370
    20
100
AcDbLine
 10
5044.374898293247
 20
109.313621142684
 30
0.0
 11
5047.421298293244
 21
110.3216211426848
 31
0.0
  0
LINE
  5
356
330
1F
100
AcDbEntity
  8
Ech.1_2
 62
     7
370
    20
100
AcDbLine
 10
5044.374898293247
 20
107.2976211426844
 30
0.0
 11
5047.421298293244
 21
108.3056211426851
 31
0.0
  0
LINE
  5
357
330
1F
100
AcDbEntity
  8
Ech.1_2
 62
     7
370
    20
100
AcDbLine
 10
5048.048498293245
 20
105.9275070538483
 30
0.0
 11
5043.747698293246
 21
104.9195070538485
 31
0.0
  0
LINE
  5
358
330
1F
100
AcDbEntity
  8
Ech.1_2
 62
     7
370
    20
100
AcDbLine
 10
5044.374898293247
 20
104.5573929650122
 30
0.0
 11
5047.421298293244
 21
105.565392965013
 31
0.0
  0
LINE
  5
359
330
1F
100
AcDbEntity
  8
Ech.1_2
 62
     7
370
    20
100
AcDbLine
 10
5044.374898293247
 20
105.2816211426839
 30
0.0
 11
5047.421298293244
 21
106.2896211426846
 31
0.0
  0
LINE
  5
35A
330
1F
100
AcDbEntity
  8
Ech.1_2
 62
     7
370
    20
100
AcDbLine
 10
5043.747698293246
 20
110.9675070538483
 30
0.0
 11
5044.374898293247
 21
110.605392965012
 31
0.0
  0
LINE
  5
35B
330
1F
100
AcDbEntity
  8
Ech.1_2
 62
     7
370
    20
100
AcDbLine
 10
5044.374898293247
 20
114.6373929650122
 30
0.0
 11
5044.374898293247
 21
113.3456211426842
 31
0.0
  0
LINE
  5
35C
330
1F
100
AcDbEntity
  8
Ech.1_2
 62
     7
370
    20
100
AcDbLine
 10
5044.374898293247
 20
116.6533929650118
 30
0.0
 11
5044.374898293247
 21
115.3616211426847
 31
0.0
  0
LINE
  5
35D
330
1F
100
AcDbEntity
  8
Ech.1_2
 62
     7
370
    20
100
AcDbLine
 10
5043.747698293246
 20
117.0155070538481
 30
0.0
 11
5044.374898293247
 21
117.3776211426843
 31
0.0
  0
LINE
  5
35E
330
1F
100
AcDbEntity
  8
Ech.1_2
 62
     7
370
    20
100
AcDbLine
 10
5043.747698293246
 20
117.0155070538481
 30
0.0
 11
5044.374898293247
 21
116.6533929650118
 31
0.0
  0
LINE
  5
35F
330
1F
100
AcDbEntity
  8
Ech.1_2
 62
     7
370
    20
100
AcDbLine
 10
5043.747698293246
 20
114.9995070538484
 30
0.0
 11
5044.374898293247
 21
115.3616211426847
 31
0.0
  0
LINE
  5
360
330
1F
100
AcDbEntity
  8
Ech.1_2
 62
     7
370
    20
100
AcDbLine
 10
5043.747698293246
 20
114.9995070538484
 30
0.0
 11
5044.374898293247
 21
114.6373929650122
 31
0.0
  0
LINE
  5
361
330
1F
100
AcDbEntity
  8
Ech.1_2
 62
     7
370
    20
100
AcDbLine
 10
5044.374898293247
 20
112.6213929650116
 30
0.0
 11
5044.374898293247
 21
111.3296211426846
 31
0.0
  0
LINE
  5
362
330
1F
100
AcDbEntity
  8
Ech.1_2
 62
     7
370
    20
100
AcDbLine
 10
5043.747698293246
 20
112.9835070538479
 30
0.0
 11
5044.374898293247
 21
112.6213929650116
 31
0.0
  0
LINE
  5
363
330
1F
100
AcDbEntity
  8
Ech.1_2
 62
     7
370
    20
100
AcDbLine
 10
5043.747698293246
 20
112.9835070538479
 30
0.0
 11
5044.374898293247
 21
113.3456211426842
 31
0.0
  0
LINE
  5
364
330
1F
100
AcDbEntity
  8
Ech.1_2
 62
     7
370
    20
100
AcDbLine
 10
5043.747698293246
 20
110.9675070538483
 30
0.0
 11
5044.374898293247
 21
111.3296211426846
 31
0.0
  0
LINE
  5
365
330
1F
100
AcDbEntity
  8
Ech.1_2
 62
     7
370
    20
100
AcDbLine
 10
5043.747698293246
 20
106.9355070538481
 30
0.0
 11
5044.374898293247
 21
107.2976211426844
 31
0.0
  0
LINE
  5
366
330
1F
100
AcDbEntity
  8
Ech.1_2
 62
     7
370
    20
100
AcDbLine
 10
5043.747698293246
 20
108.9515070538478
 30
0.0
 11
5044.374898293247
 21
108.5893929650124
 31
0.0
  0
LINE
  5
367
330
1F
100
AcDbEntity
  8
Ech.1_2
 62
     7
370
    20
100
AcDbLine
 10
5044.374898293247
 20
110.605392965012
 30
0.0
 11
5044.374898293247
 21
109.313621142684
 31
0.0
  0
LINE
  5
368
330
1F
100
AcDbEntity
  8
Ech.1_2
 62
     7
370
    20
100
AcDbLine
 10
5043.747698293246
 20
108.9515070538478
 30
0.0
 11
5044.374898293247
 21
109.313621142684
 31
0.0
  0
LINE
  5
369
330
1F
100
AcDbEntity
  8
Ech.1_2
 62
     7
370
    20
100
AcDbLine
 10
5044.374898293247
 20
108.5893929650124
 30
0.0
 11
5044.374898293247
 21
107.2976211426844
 31
0.0
  0
LINE
  5
36A
330
1F
100
AcDbEntity
  8
Ech.1_2
 62
     7
370
    20
100
AcDbLine
 10
5043.747698293246
 20
104.9195070538485
 30
0.0
 11
5044.374898293247
 21
105.2816211426839
 31
0.0
  0
LINE
  5
36B
330
1F
100
AcDbEntity
  8
Ech.1_2
 62
     7
370
    20
100
AcDbLine
 10
5044.374898293247
 20
106.5733929650119
 30
0.0
 11
5044.374898293247
 21
105.2816211426839
 31
0.0
  0
LINE
  5
36C
330
1F
100
AcDbEntity
  8
Ech.1_2
 62
     7
370
    20
100
AcDbLine
 10
5043.747698293246
 20
106.9355070538481
 30
0.0
 11
5044.374898293247
 21
106.5733929650119
 31
0.0
  0
LINE
  5
36D
330
1F
100
AcDbEntity
  8
Ech.1_2
 62
     7
370
    20
100
AcDbLine
 10
5043.747698293246
 20
104.9195070538485
 30
0.0
 11
5044.374898293247
 21
104.5573929650122
 31
0.0
  0
LINE
  5
36E
330
1F
100
AcDbEntity
  8
Ech.1_2
 62
     7
370
    20
100
AcDbLine
 10
5044.374898293247
 20
104.5573929650122
 30
0.0
 11
5044.374898293247
 21
103.4149512408926
 31
0.0
  0
LINE
  5
36F
330
1F
100
AcDbEntity
  8
Ech.1_2
 62
     7
370
    20
100
AcDbLine
 10
5048.048498293245
 20
118.0235070538479
 30
0.0
 11
5047.421298293244
 21
118.3856211426851
 31
0.0
  0
LINE
  5
370
330
1F
100
AcDbEntity
  8
Ech.1_2
 62
     7
370
    20
100
AcDbLine
 10
5047.421298293244
 20
111.6133929650118
 30
0.0
 11
5047.421298293244
 21
110.3216211426848
 31
0.0
  0
LINE
  5
371
330
1F
100
AcDbEntity
  8
Ech.1_2
 62
     7
370
    20
100
AcDbLine
 10
5047.421298293244
 20
115.6453929650129
 30
0.0
 11
5047.421298293244
 21
114.353621142684
 31
0.0
  0
LINE
  5
372
330
1F
100
AcDbEntity
  8
Ech.1_2
 62
     7
370
    20
100
AcDbLine
 10
5048.048498293245
 20
116.0075070538483
 30
0.0
 11
5047.421298293244
 21
116.3696211426845
 31
0.0
  0
LINE
  5
373
330
1F
100
AcDbEntity
  8
Ech.1_2
 62
     7
370
    20
100
AcDbLine
 10
5048.048498293245
 20
118.0235070538479
 30
0.0
 11
5047.421298293244
 21
117.6613929650125
 31
0.0
  0
LINE
  5
374
330
1F
100
AcDbEntity
  8
Ech.1_2
 62
     7
370
    20
100
AcDbLine
 10
5047.421298293244
 20
117.6613929650125
 30
0.0
 11
5047.421298293244
 21
116.3696211426845
 31
0.0
  0
LINE
  5
375
330
1F
100
AcDbEntity
  8
Ech.1_2
 62
     7
370
    20
100
AcDbLine
 10
5048.048498293245
 20
116.0075070538483
 30
0.0
 11
5047.421298293244
 21
115.6453929650129
 31
0.0
  0
LINE
  5
376
330
1F
100
AcDbEntity
  8
Ech.1_2
 62
     7
370
    20
100
AcDbLine
 10
5047.421298293244
 20
113.6293929650124
 30
0.0
 11
5047.421298293244
 21
112.3376211426844
 31
0.0
  0
LINE
  5
377
330
1F
100
AcDbEntity
  8
Ech.1_2
 62
     7
370
    20
100
AcDbLine
 10
5048.048498293245
 20
113.9915070538486
 30
0.0
 11
5047.421298293244
 21
114.353621142684
 31
0.0
  0
LINE
  5
378
330
1F
100
AcDbEntity
  8
Ech.1_2
 62
     7
370
    20
100
AcDbLine
 10
5048.048498293245
 20
113.9915070538486
 30
0.0
 11
5047.421298293244
 21
113.6293929650124
 31
0.0
  0
LINE
  5
379
330
1F
100
AcDbEntity
  8
Ech.1_2
 62
     7
370
    20
100
AcDbLine
 10
5048.048498293245
 20
111.975507053849
 30
0.0
 11
5047.421298293244
 21
112.3376211426844
 31
0.0
  0
LINE
  5
37A
330
1F
100
AcDbEntity
  8
Ech.1_2
 62
     7
370
    20
100
AcDbLine
 10
5048.048498293245
 20
111.975507053849
 30
0.0
 11
5047.421298293244
 21
111.6133929650118
 31
0.0
  0
LINE
  5
37B
330
1F
100
AcDbEntity
  8
Ech.1_2
 62
     7
370
    20
100
AcDbLine
 10
5047.421298293244
 20
107.5813929650126
 30
0.0
 11
5047.421298293244
 21
106.2896211426846
 31
0.0
  0
LINE
  5
37C
330
1F
100
AcDbEntity
  8
Ech.1_2
 62
     7
370
    20
100
AcDbLine
 10
5047.421298293244
 20
109.5973929650122
 30
0.0
 11
5047.421298293244
 21
108.3056211426851
 31
0.0
  0
LINE
  5
37D
330
1F
100
AcDbEntity
  8
Ech.1_2
 62
     7
370
    20
100
AcDbLine
 10
5048.048498293245
 20
109.9595070538485
 30
0.0
 11
5047.421298293244
 21
109.5973929650122
 31
0.0
  0
LINE
  5
37E
330
1F
100
AcDbEntity
  8
Ech.1_2
 62
     7
370
    20
100
AcDbLine
 10
5048.048498293245
 20
109.9595070538485
 30
0.0
 11
5047.421298293244
 21
110.3216211426848
 31
0.0
  0
LINE
  5
37F
330
1F
100
AcDbEntity
  8
Ech.1_2
 62
     7
370
    20
100
AcDbLine
 10
5048.048498293245
 20
107.943507053848
 30
0.0
 11
5047.421298293244
 21
107.5813929650126
 31
0.0
  0
LINE
  5
380
330
1F
100
AcDbEntity
  8
Ech.1_2
 62
     7
370
    20
100
AcDbLine
 10
5048.048498293245
 20
107.943507053848
 30
0.0
 11
5047.421298293244
 21
108.3056211426851
 31
0.0
  0
LINE
  5
381
330
1F
100
AcDbEntity
  8
Ech.1_2
 62
     7
370
    20
100
AcDbLine
 10
5047.421298293244
 20
105.565392965013
 30
0.0
 11
5047.421298293244
 21
104.2736211426841
 31
0.0
  0
LINE
  5
382
330
1F
100
AcDbEntity
  8
Ech.1_2
 62
     7
370
    20
100
AcDbLine
 10
5048.048498293245
 20
105.9275070538483
 30
0.0
 11
5047.421298293244
 21
106.2896211426846
 31
0.0
  0
LINE
  5
383
330
1F
100
AcDbEntity
  8
Ech.1_2
 62
     7
370
    20
100
AcDbLine
 10
5048.048498293245
 20
105.9275070538483
 30
0.0
 11
5047.421298293244
 21
105.565392965013
 31
0.0
  0
LINE
  5
384
330
1F
100
AcDbEntity
  8
Ech.1_2
 62
     7
370
    20
100
AcDbLine
 10
5047.421298293244
 20
103.5493929650124
 30
0.0
 11
5047.421298293244
 21
103.4149512408926
 31
0.0
  0
LINE
  5
385
330
1F
100
AcDbEntity
  8
Ech.1_2
 62
     7
370
    20
100
AcDbLine
 10
5048.048498293245
 20
103.9115070538487
 30
0.0
 11
5047.421298293244
 21
103.5493929650124
 31
0.0
  0
LINE
  5
386
330
1F
100
AcDbEntity
  8
Ech.1_2
 62
     7
370
    20
100
AcDbLine
 10
5048.048498293245
 20
103.9115070538487
 30
0.0
 11
5047.421298293244
 21
104.2736211426841
 31
0.0
  0
LINE
  5
387
330
1F
100
AcDbEntity
  8
Ech.1_2
 62
     7
370
    20
100
AcDbLine
 10
5043.802097156822
 20
102.9215066778265
 30
0.0
 11
5044.693123339957
 21
102.6466880172361
 31
0.0
  0
LINE
  5
388
330
1F
100
AcDbEntity
  8
Ech.1_2
 62
     7
370
    20
100
AcDbLine
 10
5043.802097156822
 20
102.9215066778265
 30
0.0
 11
5044.429297156825
 21
103.2836207666628
 31
0.0
  0
LINE
  5
389
330
1F
100
AcDbEntity
  8
Ech.1_2
 62
     7
370
    20
100
AcDbLine
 10
5047.492979279768
 20
101.7116956155655
 30
0.0
 11
5046.518149400088
 21
101.2345569341937
 31
0.0
  0
LINE
  5
38A
330
1F
100
AcDbEntity
  8
Ech.1_2
 62
     7
370
    20
100
AcDbLine
 10
5044.536497725036
 20
101.1485068658371
 30
0.0
 11
5045.163697725035
 21
101.5106209546743
 31
0.0
  0
LINE
  5
38B
330
1F
100
AcDbEntity
  8
Ech.1_2
 62
     7
370
    20
100
AcDbLine
 10
5047.492979279768
 20
101.7116956155655
 30
0.0
 11
5044.536497725036
 21
101.1485068658371
 31
0.0
  0
LINE
  5
38C
330
1F
100
AcDbEntity
  8
Ech.1_2
 62
     7
370
    20
100
AcDbLine
 10
5045.163697725035
 20
101.5106209546743
 30
0.0
 11
5044.693123339957
 21
102.6466880172361
 31
0.0
  0
LINE
  5
38D
330
1F
100
AcDbEntity
  8
Ech.1_2
 62
     7
370
    20
100
AcDbLine
 10
5047.492979279768
 20
101.7116956155655
 30
0.0
 11
5046.865779279769
 21
102.0738097044018
 31
0.0
  0
LINE
  5
38E
330
1F
100
AcDbEntity
  8
Ech.1_2
 62
     7
370
    20
100
AcDbLine
 10
5045.163697725035
 20
101.5106209546743
 30
0.0
 11
5046.865779279769
 21
102.0738097044018
 31
0.0
  0
LINE
  5
38F
330
1F
100
AcDbEntity
  8
Ech.1_2
 62
     7
370
    20
100
AcDbLine
 10
5044.536497725036
 20
101.1485068658371
 30
0.0
 11
5045.427523908171
 21
100.8736882052467
 31
0.0
  0
LINE
  5
390
330
1F
100
AcDbEntity
  8
Ech.1_2
 62
     7
370
    20
100
AcDbLine
 10
5045.427523908171
 20
100.8736882052467
 30
0.0
 11
5046.518149400088
 21
101.2345569341937
 31
0.0
  0
LINE
  5
391
330
1F
100
AcDbEntity
  8
Ech.1_2
 62
     7
370
    20
100
AcDbLine
 10
5045.898098293243
 20
99.73762114268493
 30
0.0
 11
5045.427523908171
 21
100.8736882052467
 31
0.0
  0
LINE
  5
392
330
1F
100
AcDbEntity
  8
Ech.1_2
 62
     7
370
    20
100
AcDbLine
 10
5045.898098293243
 20
99.73762114268493
 30
0.0
 11
5046.518149400088
 21
101.2345569341937
 31
0.0
  0
LINE
  5
393
330
1F
100
AcDbEntity
  8
Ech.1_2
 62
     7
370
    20
100
AcDbLine
 10
5044.195698293246
 20
123.0336209068441
 30
0.0
 11
5044.195698293246
 21
133.7856211426847
 31
0.0
  0
LINE
  5
394
330
1F
100
AcDbEntity
  8
Ech.1_2
 62
     7
370
    20
100
AcDbLine
 10
5047.600498293246
 20
123.0336209068441
 30
0.0
 11
5047.600498293246
 21
133.7856211426847
 31
0.0
  0
LINE
  5
395
330
1F
100
AcDbEntity
  8
Ech.1_2
 62
     7
370
    20
100
AcDbLine
 10
5047.421298293244
 20
122.1413927291783
 30
0.0
 11
5047.600498293246
 21
123.0336209068441
 31
0.0
  0
LINE
  5
396
330
1F
100
AcDbEntity
  8
Ech.1_2
 62
     7
370
    20
100
AcDbLine
 10
5044.195698293246
 20
123.0336209068441
 30
0.0
 11
5044.374898293247
 21
121.8576209068437
 31
0.0
  0
LINE
  5
397
330
1F
100
AcDbEntity
  8
Ech.1_2
 62
     7
370
    20
100
AcDbLine
 10
5044.374898293247
 20
119.393621142684
 30
0.0
 11
5047.421298293244
 21
120.4016211426847
 31
0.0
  0
LINE
  5
398
330
1F
100
AcDbEntity
  8
Ech.1_2
 62
     7
370
    20
100
AcDbLine
 10
5044.374898293247
 20
118.6693929650123
 30
0.0
 11
5047.421298293244
 21
119.6773929650121
 31
0.0
  0
LINE
  5
399
330
1F
100
AcDbEntity
  8
Ech.1_2
 62
     7
370
    20
100
AcDbLine
 10
5048.048498293245
 20
120.0395070538484
 30
0.0
 11
5043.747698293246
 21
119.0315070538486
 31
0.0
  0
LINE
  5
39A
330
1F
100
AcDbEntity
  8
Ech.1_2
 62
     7
370
    20
100
AcDbLine
 10
5044.374898293247
 20
118.6693929650123
 30
0.0
 11
5044.374898293247
 21
117.3776211426843
 31
0.0
  0
LINE
  5
39B
330
1F
100
AcDbEntity
  8
Ech.1_2
 62
     7
370
    20
100
AcDbLine
 10
5043.747698293246
 20
119.0315070538486
 30
0.0
 11
5044.374898293247
 21
119.393621142684
 31
0.0
  0
LINE
  5
39C
330
1F
100
AcDbEntity
  8
Ech.1_2
 62
     7
370
    20
100
AcDbLine
 10
5043.747698293246
 20
119.0315070538486
 30
0.0
 11
5044.374898293247
 21
118.6693929650123
 31
0.0
  0
LINE
  5
39D
330
1F
100
AcDbEntity
  8
Ech.1_2
 62
     7
370
    20
100
AcDbLine
 10
5048.048498293245
 20
120.0395070538484
 30
0.0
 11
5047.421298293244
 21
120.4016211426847
 31
0.0
  0
LINE
  5
39E
330
1F
100
AcDbEntity
  8
Ech.1_2
 62
     7
370
    20
100
AcDbLine
 10
5048.048498293245
 20
120.0395070538484
 30
0.0
 11
5047.421298293244
 21
119.6773929650121
 31
0.0
  0
LINE
  5
39F
330
1F
100
AcDbEntity
  8
Ech.1_2
 62
     7
370
    20
100
AcDbLine
 10
5047.421298293244
 20
119.6773929650121
 30
0.0
 11
5047.421298293244
 21
118.3856211426851
 31
0.0
  0
LINE
  5
3A0
330
1F
100
AcDbEntity
  8
Ech.1_2
 62
     7
370
    20
100
AcDbLine
 10
5044.374898293247
 20
120.6853929650119
 30
0.0
 11
5047.421298293244
 21
121.6933929650118
 31
0.0
  0
LINE
  5
3A1
330
1F
100
AcDbEntity
  8
Ech.1_2
 62
     7
370
    20
100
AcDbLine
 10
5048.048498293245
 20
122.0555070538489
 30
0.0
 11
5043.747698293246
 21
121.0475070538482
 31
0.0
  0
LINE
  5
3A2
330
1F
100
AcDbEntity
  8
Ech.1_2
 62
     7
370
    20
100
AcDbLine
 10
5044.374898293247
 20
120.6853929650119
 30
0.0
 11
5044.374898293247
 21
119.393621142684
 31
0.0
  0
LINE
  5
3A3
330
1F
100
AcDbEntity
  8
Ech.1_2
 62
     7
370
    20
100
AcDbLine
 10
5043.747698293246
 20
121.0475070538482
 30
0.0
 11
5044.374898293247
 21
121.4096211426845
 31
0.0
  0
LINE
  5
3A4
330
1F
100
AcDbEntity
  8
Ech.1_2
 62
     7
370
    20
100
AcDbLine
 10
5043.747698293246
 20
121.0475070538482
 30
0.0
 11
5044.374898293247
 21
120.6853929650119
 31
0.0
  0
LINE
  5
3A5
330
1F
100
AcDbEntity
  8
Ech.1_2
 62
     7
370
    20
100
AcDbLine
 10
5048.048498293245
 20
122.0555070538489
 30
0.0
 11
5047.759168032055
 21
122.2225519580356
 31
0.0
  0
LINE
  5
3A6
330
1F
100
AcDbEntity
  8
Ech.1_2
 62
     7
370
    20
100
AcDbLine
 10
5048.048498293245
 20
122.0555070538489
 30
0.0
 11
5047.421298293244
 21
121.6933929650118
 31
0.0
  0
LINE
  5
3A7
330
1F
100
AcDbEntity
  8
Ech.1_2
 62
     7
370
    20
100
AcDbLine
 10
5047.421298293244
 20
121.6933929650118
 30
0.0
 11
5047.421298293244
 21
120.4016211426847
 31
0.0
  0
LINE
  5
3A8
330
1F
100
AcDbEntity
  8
Ech.1_2
 62
     7
370
    20
100
AcDbLine
 10
5044.374898293247
 20
121.4096211426845
 30
0.0
 11
5044.374898293247
 21
121.8576209068437
 31
0.0
  0
LINE
  5
3A9
330
1F
100
AcDbEntity
  8
Ech.1_2
 62
     7
370
    20
100
AcDbLine
 10
5044.374898293247
 20
121.4096211426845
 30
0.0
 11
5047.759168032055
 21
122.2225519580356
 31
0.0
  0
HATCH
  5
3AA
330
1F
100
AcDbEntity
  8
Ech.1_2
 62
   252
440
 33554687
370
     5
100
AcDbHatch
 10
0.0
 20
0.0
 30
0.0
210
0.0
220
0.0
230
1.0
  2
SOLID
 70
     1
 71
     1
 91
        1
 92
        3
 72
     0
 73
     1
 93
        4
 10
5044.195698293246
 20
123.0336209068441
 10
5047.600498293246
 20
123.0336209068441
 10
5047.600498293246
 20
133.7856211426847
 10
5044.195698293246
 20
133.7856211426847
 97
        0
 75
     0
 76
     1
 98
        0
  0
LWPOLYLINE
  5
3AB
330
1F
100
AcDbEntity
  8
Ech.1_2
 62
     7
370
     9
100
AcDbPolyline
 90
        5
 70
     0
 43
0.0
 10
5044.195698293246
 20
123.0336209068441
 10
5047.600498293246
 20
123.0336209068441
 10
5047.600498293246
 20
133.7856211426847
 10
5044.195698293246
 20
133.7856211426847
 10
5044.195698293246
 20
123.0336209068441
  0
HATCH
  5
3AC
330
1F
100
AcDbEntity
  8
Ech.1_2
 62
   252
440
 33554687
370
     5
100
AcDbHatch
 10
0.0
 20
0.0
 30
0.0
210
0.0
220
0.0
230
1.0
  2
SOLID
 70
     1
 71
     1
 91
        1
 92
        3
 72
     0
 73
     1
 93
        5
 10
5044.374898293247
 20
121.8576209068437
 10
5044.374898293247
 20
121.4096211426845
 10
5047.421298293244
 20
122.1413927291765
 10
5047.600498293246
 20
123.0336209068441
 10
5044.195698293246
 20
123.0336209068441
 97
        0
 75
     0
 76
     1
 98
        0
  0
LWPOLYLINE
  5
3AD
330
1F
100
AcDbEntity
  8
Ech.1_2
 62
     7
370
     9
100
AcDbPolyline
 90
        6
 70
     0
 43
0.0
 10
5044.374898293247
 20
121.8576209068437
 10
5044.374898293247
 20
121.4096211426845
 10
5047.421298293244
 20
122.1413927291765
 10
5047.600498293246
 20
123.0336209068441
 10
5044.195698293246
 20
123.0336209068441
 10
5044.374898293247
 20
121.8576209068437
  0
HATCH
  5
3AE
330
1F
100
AcDbEntity
  8
Ech.1_2
 62
   252
440
 33554687
370
     5
100
AcDbHatch
 10
0.0
 20
0.0
 30
0.0
210
0.0
220
0.0
230
1.0
  2
SOLID
 70
     1
 71
     1
 91
        1
 92
        3
 72
     0
 73
     1
 93
        4
 10
5044.374898293247
 20
121.4096211426845
 10
5043.747698293246
 20
121.0475070538482
 10
5048.048498293245
 20
122.0555070538489
 10
5047.759168032055
 20
122.2225519580356
 97
        0
 75
     0
 76
     1
 98
        0
  0
LWPOLYLINE
  5
3AF
330
1F
100
AcDbEntity
  8
Ech.1_2
 62
     7
370
     9
100
AcDbPolyline
 90
        5
 70
     0
 43
0.0
 10
5044.374898293247
 20
121.4096211426845
 10
5043.747698293246
 20
121.0475070538482
 10
5048.048498293245
 20
122.0555070538489
 10
5047.759168032055
 20
122.2225519580356
 10
5044.374898293247
 20
121.4096211426845
  0
HATCH
  5
3B0
330
1F
100
AcDbEntity
  8
Ech.1_2
 62
   252
440
 33554687
370
     5
100
AcDbHatch
 10
0.0
 20
0.0
 30
0.0
210
0.0
220
0.0
230
1.0
  2
SOLID
 70
     1
 71
     1
 91
        1
 92
        3
 72
     0
 73
     1
 93
        4
 10
5043.747698293246
 20
121.0475070538482
 10
5044.374898293247
 20
120.6853929650119
 10
5047.421298293244
 20
121.6933929650118
 10
5048.048498293245
 20
122.0555070538489
 97
        0
 75
     0
 76
     1
 98
        0
  0
LWPOLYLINE
  5
3B1
330
1F
100
AcDbEntity
  8
Ech.1_2
 62
     7
370
     9
100
AcDbPolyline
 90
        5
 70
     0
 43
0.0
 10
5043.747698293246
 20
121.0475070538482
 10
5044.374898293247
 20
120.6853929650119
 10
5047.421298293244
 20
121.6933929650118
 10
5048.048498293245
 20
122.0555070538489
 10
5043.747698293246
 20
121.0475070538482
  0
HATCH
  5
3B2
330
1F
100
AcDbEntity
  8
Ech.1_2
 62
   252
440
 33554687
370
     5
100
AcDbHatch
 10
0.0
 20
0.0
 30
0.0
210
0.0
220
0.0
230
1.0
  2
SOLID
 70
     1
 71
     1
 91
        1
 92
        3
 72
     0
 73
     1
 93
        4
 10
5044.374898293247
 20
119.393621142684
 10
5047.421298293244
 20
120.4016211426847
 10
5047.421298293244
 20
121.6933929650118
 10
5044.374898293247
 20
120.6853929650119
 97
        0
 75
     0
 76
     1
 98
        0
  0
LWPOLYLINE
  5
3B3
330
1F
100
AcDbEntity
  8
Ech.1_2
 62
     7
370
     9
100
AcDbPolyline
 90
        5
 70
     0
 43
0.0
 10
5044.374898293247
 20
119.393621142684
 10
5047.421298293244
 20
120.4016211426847
 10
5047.421298293244
 20
121.6933929650118
 10
5044.374898293247
 20
120.6853929650119
 10
5044.374898293247
 20
119.393621142684
  0
HATCH
  5
3B4
330
1F
100
AcDbEntity
  8
Ech.1_2
 62
   252
440
 33554687
370
     5
100
AcDbHatch
 10
0.0
 20
0.0
 30
0.0
210
0.0
220
0.0
230
1.0
  2
SOLID
 70
     1
 71
     1
 91
        1
 92
        3
 72
     0
 73
     1
 93
        4
 10
5044.374898293247
 20
119.393621142684
 10
5043.747698293246
 20
119.0315070538486
 10
5048.048498293245
 20
120.0395070538484
 10
5047.421298293244
 20
120.4016211426847
 97
        0
 75
     0
 76
     1
 98
        0
  0
LWPOLYLINE
  5
3B5
330
1F
100
AcDbEntity
  8
Ech.1_2
 62
     7
370
     9
100
AcDbPolyline
 90
        5
 70
     0
 43
0.0
 10
5044.374898293247
 20
119.393621142684
 10
5043.747698293246
 20
119.0315070538486
 10
5048.048498293245
 20
120.0395070538484
 10
5047.421298293244
 20
120.4016211426847
 10
5044.374898293247
 20
119.393621142684
  0
HATCH
  5
3B6
330
1F
100
AcDbEntity
  8
Ech.1_2
 62
   252
440
 33554687
370
     5
100
AcDbHatch
 10
0.0
 20
0.0
 30
0.0
210
0.0
220
0.0
230
1.0
  2
SOLID
 70
     1
 71
     1
 91
        1
 92
        3
 72
     0
 73
     1
 93
        4
 10
5043.747698293246
 20
119.0315070538486
 10
5044.374898293247
 20
118.6693929650123
 10
5047.421298293244
 20
119.6773929650121
 10
5048.048498293245
 20
120.0395070538484
 97
        0
 75
     0
 76
     1
 98
        0
  0
LWPOLYLINE
  5
3B7
330
1F
100
AcDbEntity
  8
Ech.1_2
 62
     7
370
     9
100
AcDbPolyline
 90
        5
 70
     0
 43
0.0
 10
5043.747698293246
 20
119.0315070538486
 10
5044.374898293247
 20
118.6693929650123
 10
5047.421298293244
 20
119.6773929650121
 10
5048.048498293245
 20
120.0395070538484
 10
5043.747698293246
 20
119.0315070538486
  0
HATCH
  5
3B8
330
1F
100
AcDbEntity
  8
Ech.1_2
 62
   252
440
 33554687
370
     5
100
AcDbHatch
 10
0.0
 20
0.0
 30
0.0
210
0.0
220
0.0
230
1.0
  2
SOLID
 70
     1
 71
     1
 91
        1
 92
        3
 72
     0
 73
     1
 93
        4
 10
5044.374898293247
 20
118.6693929650123
 10
5044.374898293247
 20
117.3776211426843
 10
5047.421298293244
 20
118.3856211426851
 10
5047.421298293244
 20
119.6773929650121
 97
        0
 75
     0
 76
     1
 98
        0
  0
LWPOLYLINE
  5
3B9
330
1F
100
AcDbEntity
  8
Ech.1_2
 62
     7
370
     9
100
AcDbPolyline
 90
        5
 70
     0
 43
0.0
 10
5044.374898293247
 20
118.6693929650123
 10
5044.374898293247
 20
117.3776211426843
 10
5047.421298293244
 20
118.3856211426851
 10
5047.421298293244
 20
119.6773929650121
 10
5044.374898293247
 20
118.6693929650123
  0
HATCH
  5
3BA
330
1F
100
AcDbEntity
  8
Ech.1_2
 62
   252
440
 33554687
370
     5
100
AcDbHatch
 10
0.0
 20
0.0
 30
0.0
210
0.0
220
0.0
230
1.0
  2
SOLID
 70
     1
 71
     1
 91
        1
 92
        3
 72
     0
 73
     1
 93
        4
 10
5044.374898293247
 20
117.3776211426843
 10
5043.747698293246
 20
117.0155070538481
 10
5048.048498293245
 20
118.0235070538479
 10
5047.421298293244
 20
118.3856211426851
 97
        0
 75
     0
 76
     1
 98
        0
  0
LWPOLYLINE
  5
3BB
330
1F
100
AcDbEntity
  8
Ech.1_2
 62
     7
370
     9
100
AcDbPolyline
 90
        5
 70
     0
 43
0.0
 10
5044.374898293247
 20
117.3776211426843
 10
5043.747698293246
 20
117.0155070538481
 10
5048.048498293245
 20
118.0235070538479
 10
5047.421298293244
 20
118.3856211426851
 10
5044.374898293247
 20
117.3776211426843
  0
HATCH
  5
3BC
330
1F
100
AcDbEntity
  8
Ech.1_2
 62
   252
440
 33554687
370
     5
100
AcDbHatch
 10
0.0
 20
0.0
 30
0.0
210
0.0
220
0.0
230
1.0
  2
SOLID
 70
     1
 71
     1
 91
        1
 92
        3
 72
     0
 73
     1
 93
        4
 10
5043.747698293246
 20
117.0155070538481
 10
5044.374898293247
 20
116.6533929650118
 10
5047.421298293244
 20
117.6613929650125
 10
5048.048498293245
 20
118.0235070538479
 97
        0
 75
     0
 76
     1
 98
        0
  0
LWPOLYLINE
  5
3BD
330
1F
100
AcDbEntity
  8
Ech.1_2
 62
     7
370
     9
100
AcDbPolyline
 90
        5
 70
     0
 43
0.0
 10
5043.747698293246
 20
117.0155070538481
 10
5044.374898293247
 20
116.6533929650118
 10
5047.421298293244
 20
117.6613929650125
 10
5048.048498293245
 20
118.0235070538479
 10
5043.747698293246
 20
117.0155070538481
  0
HATCH
  5
3BE
330
1F
100
AcDbEntity
  8
Ech.1_2
 62
   252
440
 33554687
370
     5
100
AcDbHatch
 10
0.0
 20
0.0
 30
0.0
210
0.0
220
0.0
230
1.0
  2
SOLID
 70
     1
 71
     1
 91
        1
 92
        3
 72
     0
 73
     1
 93
        4
 10
5044.374898293247
 20
116.6533929650118
 10
5044.374898293247
 20
115.3616211426847
 10
5047.421298293244
 20
116.3696211426845
 10
5047.421298293244
 20
117.6613929650125
 97
        0
 75
     0
 76
     1
 98
        0
  0
LWPOLYLINE
  5
3BF
330
1F
100
AcDbEntity
  8
Ech.1_2
 62
     7
370
     9
100
AcDbPolyline
 90
        5
 70
     0
 43
0.0
 10
5044.374898293247
 20
116.6533929650118
 10
5044.374898293247
 20
115.3616211426847
 10
5047.421298293244
 20
116.3696211426845
 10
5047.421298293244
 20
117.6613929650125
 10
5044.374898293247
 20
116.6533929650118
  0
HATCH
  5
3C0
330
1F
100
AcDbEntity
  8
Ech.1_2
 62
   252
440
 33554687
370
     5
100
AcDbHatch
 10
0.0
 20
0.0
 30
0.0
210
0.0
220
0.0
230
1.0
  2
SOLID
 70
     1
 71
     1
 91
        1
 92
        3
 72
     0
 73
     1
 93
        4
 10
5044.374898293247
 20
115.3616211426847
 10
5043.747698293246
 20
114.9995070538484
 10
5048.048498293245
 20
116.0075070538483
 10
5047.421298293244
 20
116.3696211426845
 97
        0
 75
     0
 76
     1
 98
        0
  0
LWPOLYLINE
  5
3C1
330
1F
100
AcDbEntity
  8
Ech.1_2
 62
     7
370
     9
100
AcDbPolyline
 90
        5
 70
     0
 43
0.0
 10
5044.374898293247
 20
115.3616211426847
 10
5043.747698293246
 20
114.9995070538484
 10
5048.048498293245
 20
116.0075070538483
 10
5047.421298293244
 20
116.3696211426845
 10
5044.374898293247
 20
115.3616211426847
  0
HATCH
  5
3C2
330
1F
100
AcDbEntity
  8
Ech.1_2
 62
   252
440
 33554687
370
     5
100
AcDbHatch
 10
0.0
 20
0.0
 30
0.0
210
0.0
220
0.0
230
1.0
  2
SOLID
 70
     1
 71
     1
 91
        1
 92
        3
 72
     0
 73
     1
 93
        4
 10
5043.747698293246
 20
114.9995070538484
 10
5044.374898293247
 20
114.6373929650122
 10
5047.421298293244
 20
115.6453929650129
 10
5048.048498293245
 20
116.0075070538483
 97
        0
 75
     0
 76
     1
 98
        0
  0
LWPOLYLINE
  5
3C3
330
1F
100
AcDbEntity
  8
Ech.1_2
 62
     7
370
     9
100
AcDbPolyline
 90
        5
 70
     0
 43
0.0
 10
5043.747698293246
 20
114.9995070538484
 10
5044.374898293247
 20
114.6373929650122
 10
5047.421298293244
 20
115.6453929650129
 10
5048.048498293245
 20
116.0075070538483
 10
5043.747698293246
 20
114.9995070538484
  0
HATCH
  5
3C4
330
1F
100
AcDbEntity
  8
Ech.1_2
 62
   252
440
 33554687
370
     5
100
AcDbHatch
 10
0.0
 20
0.0
 30
0.0
210
0.0
220
0.0
230
1.0
  2
SOLID
 70
     1
 71
     1
 91
        1
 92
        3
 72
     0
 73
     1
 93
        4
 10
5044.374898293247
 20
114.6373929650122
 10
5044.374898293247
 20
113.3456211426842
 10
5047.421298293244
 20
114.353621142684
 10
5047.421298293244
 20
115.6453929650129
 97
        0
 75
     0
 76
     1
 98
        0
  0
LWPOLYLINE
  5
3C5
330
1F
100
AcDbEntity
  8
Ech.1_2
 62
     7
370
     9
100
AcDbPolyline
 90
        5
 70
     0
 43
0.0
 10
5044.374898293247
 20
114.6373929650122
 10
5044.374898293247
 20
113.3456211426842
 10
5047.421298293244
 20
114.353621142684
 10
5047.421298293244
 20
115.6453929650129
 10
5044.374898293247
 20
114.6373929650122
  0
HATCH
  5
3C6
330
1F
100
AcDbEntity
  8
Ech.1_2
 62
   252
440
 33554687
370
     5
100
AcDbHatch
 10
0.0
 20
0.0
 30
0.0
210
0.0
220
0.0
230
1.0
  2
SOLID
 70
     1
 71
     1
 91
        1
 92
        3
 72
     0
 73
     1
 93
        4
 10
5044.374898293247
 20
113.3456211426842
 10
5043.747698293246
 20
112.9835070538479
 10
5048.048498293245
 20
113.9915070538486
 10
5047.421298293244
 20
114.353621142684
 97
        0
 75
     0
 76
     1
 98
        0
  0
LWPOLYLINE
  5
3C7
330
1F
100
AcDbEntity
  8
Ech.1_2
 62
     7
370
     9
100
AcDbPolyline
 90
        5
 70
     0
 43
0.0
 10
5044.374898293247
 20
113.3456211426842
 10
5043.747698293246
 20
112.9835070538479
 10
5048.048498293245
 20
113.9915070538486
 10
5047.421298293244
 20
114.353621142684
 10
5044.374898293247
 20
113.3456211426842
  0
HATCH
  5
3C8
330
1F
100
AcDbEntity
  8
Ech.1_2
 62
   252
440
 33554687
370
     5
100
AcDbHatch
 10
0.0
 20
0.0
 30
0.0
210
0.0
220
0.0
230
1.0
  2
SOLID
 70
     1
 71
     1
 91
        1
 92
        3
 72
     0
 73
     1
 93
        4
 10
5043.747698293246
 20
112.9835070538479
 10
5044.374898293247
 20
112.6213929650116
 10
5047.421298293244
 20
113.6293929650124
 10
5048.048498293245
 20
113.9915070538486
 97
        0
 75
     0
 76
     1
 98
        0
  0
LWPOLYLINE
  5
3C9
330
1F
100
AcDbEntity
  8
Ech.1_2
 62
     7
370
     9
100
AcDbPolyline
 90
        5
 70
     0
 43
0.0
 10
5043.747698293246
 20
112.9835070538479
 10
5044.374898293247
 20
112.6213929650116
 10
5047.421298293244
 20
113.6293929650124
 10
5048.048498293245
 20
113.9915070538486
 10
5043.747698293246
 20
112.9835070538479
  0
HATCH
  5
3CA
330
1F
100
AcDbEntity
  8
Ech.1_2
 62
   252
440
 33554687
370
     5
100
AcDbHatch
 10
0.0
 20
0.0
 30
0.0
210
0.0
220
0.0
230
1.0
  2
SOLID
 70
     1
 71
     1
 91
        1
 92
        3
 72
     0
 73
     1
 93
        4
 10
5044.374898293247
 20
111.3296211426846
 10
5047.421298293244
 20
112.3376211426844
 10
5047.421298293244
 20
113.6293929650124
 10
5044.374898293247
 20
112.6213929650116
 97
        0
 75
     0
 76
     1
 98
        0
  0
LWPOLYLINE
  5
3CB
330
1F
100
AcDbEntity
  8
Ech.1_2
 62
     7
370
     9
100
AcDbPolyline
 90
        5
 70
     0
 43
0.0
 10
5044.374898293247
 20
111.3296211426846
 10
5047.421298293244
 20
112.3376211426844
 10
5047.421298293244
 20
113.6293929650124
 10
5044.374898293247
 20
112.6213929650116
 10
5044.374898293247
 20
111.3296211426846
  0
HATCH
  5
3CC
330
1F
100
AcDbEntity
  8
Ech.1_2
 62
   252
440
 33554687
370
     5
100
AcDbHatch
 10
0.0
 20
0.0
 30
0.0
210
0.0
220
0.0
230
1.0
  2
SOLID
 70
     1
 71
     1
 91
        1
 92
        3
 72
     0
 73
     1
 93
        4
 10
5044.374898293247
 20
111.3296211426846
 10
5043.747698293246
 20
110.9675070538483
 10
5048.048498293245
 20
111.975507053849
 10
5047.421298293244
 20
112.3376211426844
 97
        0
 75
     0
 76
     1
 98
        0
  0
LWPOLYLINE
  5
3CD
330
1F
100
AcDbEntity
  8
Ech.1_2
 62
     7
370
     9
100
AcDbPolyline
 90
        5
 70
     0
 43
0.0
 10
5044.374898293247
 20
111.3296211426846
 10
5043.747698293246
 20
110.9675070538483
 10
5048.048498293245
 20
111.975507053849
 10
5047.421298293244
 20
112.3376211426844
 10
5044.374898293247
 20
111.3296211426846
  0
HATCH
  5
3CE
330
1F
100
AcDbEntity
  8
Ech.1_2
 62
   252
440
 33554687
370
     5
100
AcDbHatch
 10
0.0
 20
0.0
 30
0.0
210
0.0
220
0.0
230
1.0
  2
SOLID
 70
     1
 71
     1
 91
        1
 92
        3
 72
     0
 73
     1
 93
        4
 10
5043.747698293246
 20
110.9675070538483
 10
5044.374898293247
 20
110.605392965012
 10
5047.421298293244
 20
111.6133929650118
 10
5048.048498293245
 20
111.975507053849
 97
        0
 75
     0
 76
     1
 98
        0
  0
LWPOLYLINE
  5
3CF
330
1F
100
AcDbEntity
  8
Ech.1_2
 62
     7
370
     9
100
AcDbPolyline
 90
        5
 70
     0
 43
0.0
 10
5043.747698293246
 20
110.9675070538483
 10
5044.374898293247
 20
110.605392965012
 10
5047.421298293244
 20
111.6133929650118
 10
5048.048498293245
 20
111.975507053849
 10
5043.747698293246
 20
110.9675070538483
  0
HATCH
  5
3D0
330
1F
100
AcDbEntity
  8
Ech.1_2
 62
   252
440
 33554687
370
     5
100
AcDbHatch
 10
0.0
 20
0.0
 30
0.0
210
0.0
220
0.0
230
1.0
  2
SOLID
 70
     1
 71
     1
 91
        1
 92
        3
 72
     0
 73
     1
 93
        4
 10
5044.374898293247
 20
110.605392965012
 10
5044.374898293247
 20
109.313621142684
 10
5047.421298293244
 20
110.3216211426848
 10
5047.421298293244
 20
111.6133929650118
 97
        0
 75
     0
 76
     1
 98
        0
  0
LWPOLYLINE
  5
3D1
330
1F
100
AcDbEntity
  8
Ech.1_2
 62
     7
370
     9
100
AcDbPolyline
 90
        5
 70
     0
 43
0.0
 10
5044.374898293247
 20
110.605392965012
 10
5044.374898293247
 20
109.313621142684
 10
5047.421298293244
 20
110.3216211426848
 10
5047.421298293244
 20
111.6133929650118
 10
5044.374898293247
 20
110.605392965012
  0
HATCH
  5
3D2
330
1F
100
AcDbEntity
  8
Ech.1_2
 62
   252
440
 33554687
370
     5
100
AcDbHatch
 10
0.0
 20
0.0
 30
0.0
210
0.0
220
0.0
230
1.0
  2
SOLID
 70
     1
 71
     1
 91
        1
 92
        3
 72
     0
 73
     1
 93
        4
 10
5044.374898293247
 20
109.313621142684
 10
5043.747698293246
 20
108.9515070538478
 10
5048.048498293245
 20
109.9595070538485
 10
5047.421298293244
 20
110.3216211426848
 97
        0
 75
     0
 76
     1
 98
        0
  0
LWPOLYLINE
  5
3D3
330
1F
100
AcDbEntity
  8
Ech.1_2
 62
     7
370
     9
100
AcDbPolyline
 90
        5
 70
     0
 43
0.0
 10
5044.374898293247
 20
109.313621142684
 10
5043.747698293246
 20
108.9515070538478
 10
5048.048498293245
 20
109.9595070538485
 10
5047.421298293244
 20
110.3216211426848
 10
5044.374898293247
 20
109.313621142684
  0
HATCH
  5
3D4
330
1F
100
AcDbEntity
  8
Ech.1_2
 62
   252
440
 33554687
370
     5
100
AcDbHatch
 10
0.0
 20
0.0
 30
0.0
210
0.0
220
0.0
230
1.0
  2
SOLID
 70
     1
 71
     1
 91
        1
 92
        3
 72
     0
 73
     1
 93
        4
 10
5043.747698293246
 20
108.9515070538478
 10
5044.374898293247
 20
108.5893929650124
 10
5047.421298293244
 20
109.5973929650122
 10
5048.048498293245
 20
109.9595070538485
 97
        0
 75
     0
 76
     1
 98
        0
  0
LWPOLYLINE
  5
3D5
330
1F
100
AcDbEntity
  8
Ech.1_2
 62
     7
370
     9
100
AcDbPolyline
 90
        5
 70
     0
 43
0.0
 10
5043.747698293246
 20
108.9515070538478
 10
5044.374898293247
 20
108.5893929650124
 10
5047.421298293244
 20
109.5973929650122
 10
5048.048498293245
 20
109.9595070538485
 10
5043.747698293246
 20
108.9515070538478
  0
HATCH
  5
3D6
330
1F
100
AcDbEntity
  8
Ech.1_2
 62
   252
440
 33554687
370
     5
100
AcDbHatch
 10
0.0
 20
0.0
 30
0.0
210
0.0
220
0.0
230
1.0
  2
SOLID
 70
     1
 71
     1
 91
        1
 92
        3
 72
     0
 73
     1
 93
        4
 10
5044.374898293247
 20
108.5893929650124
 10
5044.374898293247
 20
107.2976211426844
 10
5047.421298293244
 20
108.3056211426851
 10
5047.421298293244
 20
109.5973929650122
 97
        0
 75
     0
 76
     1
 98
        0
  0
LWPOLYLINE
  5
3D7
330
1F
100
AcDbEntity
  8
Ech.1_2
 62
     7
370
     9
100
AcDbPolyline
 90
        5
 70
     0
 43
0.0
 10
5044.374898293247
 20
108.5893929650124
 10
5044.374898293247
 20
107.2976211426844
 10
5047.421298293244
 20
108.3056211426851
 10
5047.421298293244
 20
109.5973929650122
 10
5044.374898293247
 20
108.5893929650124
  0
HATCH
  5
3D8
330
1F
100
AcDbEntity
  8
Ech.1_2
 62
   252
440
 33554687
370
     5
100
AcDbHatch
 10
0.0
 20
0.0
 30
0.0
210
0.0
220
0.0
230
1.0
  2
SOLID
 70
     1
 71
     1
 91
        1
 92
        3
 72
     0
 73
     1
 93
        4
 10
5044.374898293247
 20
107.2976211426844
 10
5043.747698293246
 20
106.9355070538481
 10
5048.048498293245
 20
107.943507053848
 10
5047.421298293244
 20
108.3056211426851
 97
        0
 75
     0
 76
     1
 98
        0
  0
LWPOLYLINE
  5
3D9
330
1F
100
AcDbEntity
  8
Ech.1_2
 62
     7
370
     9
100
AcDbPolyline
 90
        5
 70
     0
 43
0.0
 10
5044.374898293247
 20
107.2976211426844
 10
5043.747698293246
 20
106.9355070538481
 10
5048.048498293245
 20
107.943507053848
 10
5047.421298293244
 20
108.3056211426851
 10
5044.374898293247
 20
107.2976211426844
  0
HATCH
  5
3DA
330
1F
100
AcDbEntity
  8
Ech.1_2
 62
   252
440
 33554687
370
     5
100
AcDbHatch
 10
0.0
 20
0.0
 30
0.0
210
0.0
220
0.0
230
1.0
  2
SOLID
 70
     1
 71
     1
 91
        1
 92
        3
 72
     0
 73
     1
 93
        4
 10
5043.747698293246
 20
106.9355070538481
 10
5044.374898293247
 20
106.5733929650119
 10
5047.421298293244
 20
107.5813929650126
 10
5048.048498293245
 20
107.943507053848
 97
        0
 75
     0
 76
     1
 98
        0
  0
LWPOLYLINE
  5
3DB
330
1F
100
AcDbEntity
  8
Ech.1_2
 62
     7
370
     9
100
AcDbPolyline
 90
        5
 70
     0
 43
0.0
 10
5043.747698293246
 20
106.9355070538481
 10
5044.374898293247
 20
106.5733929650119
 10
5047.421298293244
 20
107.5813929650126
 10
5048.048498293245
 20
107.943507053848
 10
5043.747698293246
 20
106.9355070538481
  0
HATCH
  5
3DC
330
1F
100
AcDbEntity
  8
Ech.1_2
 62
   252
440
 33554687
370
     5
100
AcDbHatch
 10
0.0
 20
0.0
 30
0.0
210
0.0
220
0.0
230
1.0
  2
SOLID
 70
     1
 71
     1
 91
        1
 92
        3
 72
     0
 73
     1
 93
        4
 10
5044.374898293247
 20
106.5733929650119
 10
5044.374898293247
 20
105.2816211426839
 10
5047.421298293244
 20
106.2896211426846
 10
5047.421298293244
 20
107.5813929650126
 97
        0
 75
     0
 76
     1
 98
        0
  0
LWPOLYLINE
  5
3DD
330
1F
100
AcDbEntity
  8
Ech.1_2
 62
     7
370
     9
100
AcDbPolyline
 90
        5
 70
     0
 43
0.0
 10
5044.374898293247
 20
106.5733929650119
 10
5044.374898293247
 20
105.2816211426839
 10
5047.421298293244
 20
106.2896211426846
 10
5047.421298293244
 20
107.5813929650126
 10
5044.374898293247
 20
106.5733929650119
  0
HATCH
  5
3DE
330
1F
100
AcDbEntity
  8
Ech.1_2
 62
   252
440
 33554687
370
     5
100
AcDbHatch
 10
0.0
 20
0.0
 30
0.0
210
0.0
220
0.0
230
1.0
  2
SOLID
 70
     1
 71
     1
 91
        1
 92
        3
 72
     0
 73
     1
 93
        4
 10
5044.374898293247
 20
105.2816211426839
 10
5043.747698293246
 20
104.9195070538485
 10
5048.048498293245
 20
105.9275070538483
 10
5047.421298293244
 20
106.2896211426846
 97
        0
 75
     0
 76
     1
 98
        0
  0
LWPOLYLINE
  5
3DF
330
1F
100
AcDbEntity
  8
Ech.1_2
 62
     7
370
     9
100
AcDbPolyline
 90
        5
 70
     0
 43
0.0
 10
5044.374898293247
 20
105.2816211426839
 10
5043.747698293246
 20
104.9195070538485
 10
5048.048498293245
 20
105.9275070538483
 10
5047.421298293244
 20
106.2896211426846
 10
5044.374898293247
 20
105.2816211426839
  0
HATCH
  5
3E0
330
1F
100
AcDbEntity
  8
Ech.1_2
 62
   252
440
 33554687
370
     5
100
AcDbHatch
 10
0.0
 20
0.0
 30
0.0
210
0.0
220
0.0
230
1.0
  2
SOLID
 70
     1
 71
     1
 91
        1
 92
        3
 72
     0
 73
     1
 93
        4
 10
5043.747698293246
 20
104.9195070538485
 10
5044.374898293247
 20
104.5573929650122
 10
5047.421298293244
 20
105.565392965013
 10
5048.048498293245
 20
105.9275070538483
 97
        0
 75
     0
 76
     1
 98
        0
  0
LWPOLYLINE
  5
3E1
330
1F
100
AcDbEntity
  8
Ech.1_2
 62
     7
370
     9
100
AcDbPolyline
 90
        5
 70
     0
 43
0.0
 10
5043.747698293246
 20
104.9195070538485
 10
5044.374898293247
 20
104.5573929650122
 10
5047.421298293244
 20
105.565392965013
 10
5048.048498293245
 20
105.9275070538483
 10
5043.747698293246
 20
104.9195070538485
  0
HATCH
  5
3E2
330
1F
100
AcDbEntity
  8
Ech.1_2
 62
   252
440
 33554687
370
     5
100
AcDbHatch
 10
0.0
 20
0.0
 30
0.0
210
0.0
220
0.0
230
1.0
  2
SOLID
 70
     1
 71
     1
 91
        1
 92
        3
 72
     0
 73
     1
 93
        5
 10
5044.374898293247
 20
104.5573929650122
 10
5044.374898293247
 20
103.4149512408926
 10
5044.429297156825
 20
103.2836207666628
 10
5047.421298293244
 20
104.2736211426841
 10
5047.421298293244
 20
105.565392965013
 97
        0
 75
     0
 76
     1
 98
        0
  0
LWPOLYLINE
  5
3E3
330
1F
100
AcDbEntity
  8
Ech.1_2
 62
     7
370
     9
100
AcDbPolyline
 90
        6
 70
     0
 43
0.0
 10
5044.374898293247
 20
104.5573929650122
 10
5044.374898293247
 20
103.4149512408926
 10
5044.429297156825
 20
103.2836207666628
 10
5047.421298293244
 20
104.2736211426841
 10
5047.421298293244
 20
105.565392965013
 10
5044.374898293247
 20
104.5573929650122
  0
HATCH
  5
3E4
330
1F
100
AcDbEntity
  8
Ech.1_2
 62
   252
440
 33554687
370
     5
100
AcDbHatch
 10
0.0
 20
0.0
 30
0.0
210
0.0
220
0.0
230
1.0
  2
SOLID
 70
     1
 71
     1
 91
        1
 92
        3
 72
     0
 73
     1
 93
        4
 10
5044.429297156825
 20
103.2836207666628
 10
5043.802097156822
 20
102.9215066778265
 10
5048.048498293245
 20
103.9115070538487
 10
5047.421298293244
 20
104.2736211426841
 97
        0
 75
     0
 76
     1
 98
        0
  0
LWPOLYLINE
  5
3E5
330
1F
100
AcDbEntity
  8
Ech.1_2
 62
     7
370
     9
100
AcDbPolyline
 90
        5
 70
     0
 43
0.0
 10
5044.429297156825
 20
103.2836207666628
 10
5043.802097156822
 20
102.9215066778265
 10
5048.048498293245
 20
103.9115070538487
 10
5047.421298293244
 20
104.2736211426841
 10
5044.429297156825
 20
103.2836207666628
  0
HATCH
  5
3E6
330
1F
100
AcDbEntity
  8
Ech.1_2
 62
   252
440
 33554687
370
     5
100
AcDbHatch
 10
0.0
 20
0.0
 30
0.0
210
0.0
220
0.0
230
1.0
  2
SOLID
 70
     1
 71
     1
 91
        1
 92
        3
 72
     0
 73
     1
 93
        4
 10
5043.802097156822
 20
102.9215066778265
 10
5044.693123339957
 20
102.6466880172361
 10
5047.421298293244
 20
103.5493929650124
 10
5048.048498293245
 20
103.9115070538487
 97
        0
 75
     0
 76
     1
 98
        0
  0
LWPOLYLINE
  5
3E7
330
1F
100
AcDbEntity
  8
Ech.1_2
 62
     7
370
     9
100
AcDbPolyline
 90
        5
 70
     0
 43
0.0
 10
5043.802097156822
 20
102.9215066778265
 10
5044.693123339957
 20
102.6466880172361
 10
5047.421298293244
 20
103.5493929650124
 10
5048.048498293245
 20
103.9115070538487
 10
5043.802097156822
 20
102.9215066778265
  0
HATCH
  5
3E8
330
1F
100
AcDbEntity
  8
Ech.1_2
 62
   252
440
 33554687
370
     5
100
AcDbHatch
 10
0.0
 20
0.0
 30
0.0
210
0.0
220
0.0
230
1.0
  2
SOLID
 70
     1
 71
     1
 91
        1
 92
        3
 72
     0
 73
     1
 93
        5
 10
5044.693123339957
 20
102.6466880172361
 10
5045.163697725035
 20
101.5106209546743
 10
5046.865779279769
 20
102.0738097044018
 10
5047.421298293244
 20
103.4149512408926
 10
5047.421298293244
 20
103.5493929650124
 97
        0
 75
     0
 76
     1
 98
        0
  0
LWPOLYLINE
  5
3E9
330
1F
100
AcDbEntity
  8
Ech.1_2
 62
     7
370
     9
100
AcDbPolyline
 90
        6
 70
     0
 43
0.0
 10
5044.693123339957
 20
102.6466880172361
 10
5045.163697725035
 20
101.5106209546743
 10
5046.865779279769
 20
102.0738097044018
 10
5047.421298293244
 20
103.4149512408926
 10
5047.421298293244
 20
103.5493929650124
 10
5044.693123339957
 20
102.6466880172361
  0
HATCH
  5
3EA
330
1F
100
AcDbEntity
  8
Ech.1_2
 62
   252
440
 33554687
370
     5
100
AcDbHatch
 10
0.0
 20
0.0
 30
0.0
210
0.0
220
0.0
230
1.0
  2
SOLID
 70
     1
 71
     1
 91
        1
 92
        3
 72
     0
 73
     1
 93
        4
 10
5045.163697725035
 20
101.5106209546743
 10
5044.536497725036
 20
101.1485068658371
 10
5047.492979279768
 20
101.7116956155655
 10
5046.865779279769
 20
102.0738097044018
 97
        0
 75
     0
 76
     1
 98
        0
  0
LWPOLYLINE
  5
3EB
330
1F
100
AcDbEntity
  8
Ech.1_2
 62
     7
370
     9
100
AcDbPolyline
 90
        5
 70
     0
 43
0.0
 10
5045.163697725035
 20
101.5106209546743
 10
5044.536497725036
 20
101.1485068658371
 10
5047.492979279768
 20
101.7116956155655
 10
5046.865779279769
 20
102.0738097044018
 10
5045.163697725035
 20
101.5106209546743
  0
HATCH
  5
3EC
330
1F
100
AcDbEntity
  8
Ech.1_2
 62
   252
440
 33554687
370
     5
100
AcDbHatch
 10
0.0
 20
0.0
 30
0.0
210
0.0
220
0.0
230
1.0
  2
SOLID
 70
     1
 71
     1
 91
        1
 92
        3
 72
     0
 73
     1
 93
        4
 10
5044.536497725036
 20
101.1485068658371
 10
5045.427523908171
 20
100.8736882052467
 10
5046.518149400088
 20
101.2345569341937
 10
5047.492979279768
 20
101.7116956155655
 97
        0
 75
     0
 76
     1
 98
        0
  0
LWPOLYLINE
  5
3ED
330
1F
100
AcDbEntity
  8
Ech.1_2
 62
     7
370
     9
100
AcDbPolyline
 90
        5
 70
     0
 43
0.0
 10
5044.536497725036
 20
101.1485068658371
 10
5045.427523908171
 20
100.8736882052467
 10
5046.518149400088
 20
101.2345569341937
 10
5047.492979279768
 20
101.7116956155655
 10
5044.536497725036
 20
101.1485068658371
  0
HATCH
  5
3EE
330
1F
100
AcDbEntity
  8
Ech.1_2
 62
   252
440
 33554687
370
     5
100
AcDbHatch
 10
0.0
 20
0.0
 30
0.0
210
0.0
220
0.0
230
1.0
  2
SOLID
 70
     1
 71
     1
 91
        1
 92
        3
 72
     0
 73
     1
 93
        3
 10
5045.898098293243
 20
99.73762114268493
 10
5046.518149400088
 20
101.2345569341937
 10
5045.427523908171
 20
100.8736882052467
 97
        0
 75
     0
 76
     1
 98
        0
  0
LWPOLYLINE
  5
3EF
330
1F
100
AcDbEntity
  8
Ech.1_2
 62
     7
370
     9
100
AcDbPolyline
 90
        4
 70
     0
 43
0.0
 10
5045.898098293243
 20
99.73762114268493
 10
5046.518149400088
 20
101.2345569341937
 10
5045.427523908171
 20
100.8736882052467
 10
5045.898098293243
 20
99.73762114268493
  0
HATCH
  5
3F0
330
1F
100
AcDbEntity
  8
Ech.1_2
 62
   252
440
 33554687
370
     5
100
AcDbHatch
 10
0.0
 20
0.0
 30
0.0
210
0.0
220
0.0
230
1.0
  2
SOLID
 70
     1
 71
     1
 91
        1
 92
        3
 72
     1
 73
     1
 93
       14
 10
5047.600498293246
 20
133.7856211426847
 42
0.0
 10
5049.25809853592
 20
133.7856211426847
 42
0.0
 10
5050.826098293248
 20
133.7856211426847
 42
0.4142135623645146
 10
5051.274098293246
 20
134.2336211426841
 42
0.0
 10
5051.274098293246
 20
134.5189086745618
 42
0.2807125373742965
 10
5051.031431626579
 20
134.9170822827095
 42
0.0800400421139064
 10
5047.645298870884
 20
136.0256211426845
 42
0.0
 10
5044.150898583775
 20
136.0256211426845
 42
0.0800400993906793
 10
5040.764764959913
 20
134.9170822827095
 42
0.2807125373786415
 10
5040.522098293248
 20
134.5189086745618
 42
0.0
 10
5040.522098293248
 20
134.2336211426841
 42
0.4127160716956117
 10
5040.967820627231
 20
133.7856211426847
 42
0.0
 10
5042.538098484652
 20
133.7856211426847
 42
0.0
 10
5044.195698293246
 20
133.7856211426847
 42
0.0
 97
        0
 75
     0
 76
     1
 98
        0
  0
LWPOLYLINE
  5
3F1
330
1F
100
AcDbEntity
  8
Ech.1_2
 62
     7
370
     9
100
AcDbPolyline
 90
       15
 70
     0
 43
0.0
 10
5047.600498293246
 20
133.7856211426847
 10
5049.25809853592
 20
133.7856211426847
 10
5050.826098293248
 20
133.7856211426847
 42
0.4142135623652142
 10
5051.274098293246
 20
134.2336211426841
 10
5051.274098293246
 20
134.5189086745618
 42
0.2807125373749392
 10
5051.031431626579
 20
134.9170822827095
 42
0.0800400421139141
 10
5047.645298870884
 20
136.0256211426845
 10
5044.150898583775
 20
136.0256211426845
 42
0.0800400993906598
 10
5040.764764959913
 20
134.9170822827095
 42
0.2807125373788348
 10
5040.522098293248
 20
134.5189086745618
 10
5040.522098293248
 20
134.2336211426841
 42
0.4127160716952802
 10
5040.967820627231
 20
133.7856211426847
 10
5042.538098484652
 20
133.7856211426847
 10
5044.195698293246
 20
133.7856211426847
 10
5047.600498293246
 20
133.7856211426847
  0
DIMENSION
  5
3F3
102
{ACAD_REACTORS
330
3F4
102
}
330
1F
100
AcDbEntity
  8
Ech.1_2
 62
   190
370
    15
100
AcDbDimension
280
     0
  2
*D70
 10
5030.54204666224
 20
141.7856211426829
 30
0.0
 11
5026.04204666224
 21
137.7856211426802
 31
0.0
 70
   161
  1
8 mm
 71
     5
 42
8.000000000005912
 73
     0
 74
     0
 75
     0
 53
90.0
  3
Standard
100
AcDbAlignedDimension
 13
5030.54204666224
 23
133.785621142677
 33
0.0
 14
5030.54204666224
 24
141.7856211426829
 34
0.0
1001
ACAD
1000
DSTYLE
1002
{
1070
   178
1070
   190
1070
   271
1070
     0
1070
   147
1040
0.0
1070
   140
1040
5.0
1070
   340
1005
3F2
1070
   144
1040
1.0
1070
    42
1040
0.0
1070
    44
1040
2.0
1070
    41
1040
2.0
1070
   342
1005
1BA
1070
   175
1070
     1
1070
   279
1070
     2
1070
   172
1070
     1
1002
}
  0
DIMENSION
  5
401
102
{ACAD_REACTORS
330
402
102
}
330
1F
100
AcDbEntity
  8
Ech.1_2
 62
   190
370
    15
100
AcDbDimension
280
     0
  2
*D71
 10
5066.112537124869
 20
171.7856211426797
 30
0.0
 11
5061.612537124869
 21
156.7856211426811
 31
0.0
 70
   160
  1
30 mm mini
 71
     5
 42
29.99999999999682
 73
     0
 74
     0
 75
     0
 53
90.0
  3
Standard
100
AcDbAlignedDimension
 13
5032.898098293388
 23
141.7856211426829
 33
0.0
 14
5022.898098292744
 24
171.7856211426797
 34
0.0
 50
-90.0
100
AcDbRotatedDimension
1001
ACAD
1000
DSTYLE
1002
{
1070
   178
1070
   190
1070
   271
1070
     0
1070
   147
1040
0.0
1070
   140
1040
5.0
1070
   340
1005
3F2
1070
   144
1040
1.0
1070
    42
1040
0.0
1070
    44
1040
2.0
1070
    41
1040
2.0
1070
   342
1005
1BA
1070
   175
1070
     1
1070
   279
1070
     2
1070
   172
1070
     1
1002
}
  0
MTEXT
  5
40F
330
1F
100
AcDbEntity
  8
Ech.1_2
 62
     4
420
    65535
100
AcDbMText
 10
5149.969515669936
 20
244.6879509813516
 30
0.0
 40
5.5
 41
89.1131648385126
 46
0.0
 71
     1
 72
     1
  1
{\fArial|b0|i0;\W1.000000;\H5.500000;\c16711848;Tasseau bois support de bardage}
 73
     1
 44
1.07999975538982
  0
MTEXT
  5
410
330
1F
100
AcDbEntity
  8
Ech.1_2
 62
     4
420
    65535
100
AcDbMText
 10
5149.969515669936
 20
164.3806716734398
 30
0.0
 40
5.5
 41
50.6312446068805
 46
0.0
 71
     1
 72
     1
  1
{\fArial|b0|i0;\W1.000000;\H5.500000;\c16711848;Paroi support}
 73
     1
 44
1.07999975538982
  0
MTEXT
  5
411
330
1F
100
AcDbEntity
  8
Ech.1_2
 62
     4
420
    65535
100
AcDbMText
 10
5149.969515669936
 20
215.1382779026098
 30
0.0
 40
5.5
 41
112.2182228453439
 46
0.0
 71
     1
 72
     1
  1
{\fArial|b0|i0;\W1.000000;\H5.500000;\c16711848;Bande EPDM}
 73
     1
 44
1.07999975538982
  0
MTEXT
  5
412
330
1F
100
AcDbEntity
  8
Ech.1_2
 62
     4
420
    65535
100
AcDbMText
 10
5108.212832007939
 20
-80.66963005161597
 30
0.0
 40
5.0
 41
195.3371538540778
 46
0.0
 71
     2
 72
     1
  1
{\fArial|b0|i0;\W1.000000;\H5.000000;\c16711848;Vue en coupe horizontale}
 73
     1
 44
1.07999975538982
  0
MTEXT
  5
413
330
1F
100
AcDbEntity
  8
Ech.1_2
 62
     4
420
    65535
100
AcDbMText
 10
5236.340876016277
 20
-80.60275945455578
 30
0.0
 40
5.0
 41
50.91893416259882
 46
0.0
 71
     2
 72
     1
  1
{\fArial|b0|i0;\W1.000000;\H5.000000;\c16711848;Ech 1/2 }
 73
     1
 44
1.07999975538982
  0
MTEXT
  5
414
330
1F
100
AcDbEntity
  8
Ech.1_2
 62
     4
420
    65535
100
AcDbMText
 10
4976.81321148183
 20
-80.49405693356312
 30
0.0
 40
5.0
 41
57.46208719814058
 46
0.0
 71
     2
 72
     1
  1
{\fArial|b0|i0;\W1.000000;\H5.000000;\c16711848;BPB20-03}
 73
     1
 44
1.07999975538982
  0
MTEXT
  5
415
330
1F
100
AcDbEntity
  8
Ech.1_2
 62
   200
420
 11010303
100
AcDbMText
 10
5067.300343097577
 20
-89.20170386829705
 30
0.0
 40
2.5
 41
391.5
 46
0.0
 71
     2
 72
     1
  3
{\fArial|b0|i1;\W1.000000;\H2.500000;\c16711848; Il est rappelé à l'utilisateur qui consulte le site et utilise les informations qu'il contient, qu'il doit les utiliser sous sa seule responsabilité en vérifiant leur pertinence, leur cohérence et leur
  1
 non obsolescence.}
 73
     1
 44
1.07999975538982
  0
MTEXT
  5
416
330
1F
100
AcDbEntity
  8
Ech.1_2
 62
   200
420
 11010303
100
AcDbMText
 10
5067.300343097577
 20
-102.8675150257004
 30
0.0
 40
3.25
 41
390.75
 46
0.0
 71
     2
 72
     1
  1
{\fArial|b0|i1;\W1.000000;\H3.250000;\c16711848;www.catalogue-bois-construction.fr}
 73
     1
 44
1.07999975538982
  0
MTEXT
  5
417
330
1F
100
AcDbEntity
  8
Ech.1_2
 62
     4
420
    65535
100
AcDbMText
 10
5067.300343097577
 20
379.2267252711936
 30
0.0
 40
6.5
 41
387.5
 46
0.0
 71
     2
 72
     1
  1
{\fArial|b0|i0;\W1.000000;\H6.500000;\c16711848;Détail d'angle rentrant sans profil - Compatible niveau étanchéité Ee2}
 73
     1
 44
1.07999975538982
  0
MTEXT
  5
418
330
1F
100
AcDbEntity
  8
Ech.1_2
 62
     4
420
    65535
100
AcDbMText
 10
5149.969515669936
 20
193.612309250464
 30
0.0
 40
5.5
 41
106.1120446271862
 46
0.0
 71
     1
 72
     1
  1
{\fArial|b0|i0;\W1.000000;\H5.500000;\c16711848;Bardage en panneau à base de bois - épaisseur 10 mm mini}
 73
     1
 44
1.07999975538982
  0
TEXT
  5
41A
330
1F
100
AcDbEntity
  8
Ech.1_2
 62
   190
100
AcDbText
 10
4891.029195378494
 20
-85.46641667344738
 30
0.0
 40
5.0
  1
30/11/2020
  7
arial-
100
AcDbText
  0
TEXT
  5
41B
330
1F
100
AcDbEntity
  8
Ech.1_2
 62
   190
100
AcDbText
 10
4940.996235431562
 20
385.5873271241326
 30
0.0
 40
6.6
  1
Epaisseur mini selon NF DTU 41.2 - hors exigences feu façade
  7
arial-
100
AcDbText
  0
TEXT
  5
41D
330
1F
100
AcDbEntity
  8
Ech.1_2
 62
   190
100
AcDbText
 10
4969.249661029706
 20
398.5407142403892
 30
0.0
 40
6.6
  1
BARDAGES EN PANNEAUX A BASE DE BOIS
  7
arial-b
100
AcDbText
  0
TEXT
  5
41F
330
1F
100
AcDbEntity
  8
Ech.1_2
 62
   154
420
    21156
100
AcDbText
 10
5184.80619972717
 20
339.6870956351531
 30
0.0
 40
6.000000000000001
  1
m
 50
8.975659904373089
 41
0.8
  7
tahoma-b
100
AcDbText
  0
TEXT
  5
420
330
1F
100
AcDbEntity
  8
Ech.1_2
 62
   154
420
    21156
100
AcDbText
 10
5177.954721309638
 20
337.4398988930852
 30
0.0
 40
6.0
  1
C
 50
20.66888961040662
 41
0.8000000000000002
  7
tahoma-b
100
AcDbText
  0
TEXT
  5
421
330
1F
100
AcDbEntity
  8
Ech.1_2
 62
   154
420
    21156
100
AcDbText
 10
5181.507110374744
 20
338.7800310294233
 30
0.0
 40
6.0
  1
o
 50
15.37326472325266
 41
0.7999999999999999
  7
tahoma-b
100
AcDbText
  0
TEXT
  5
422
330
1F
100
AcDbEntity
  8
Ech.1_2
 62
   154
420
    21156
100
AcDbText
 10
5190.038142212835
 20
340.5134757085698
 30
0.0
 40
6.0
  1
p
 50
2.547444553670039
 41
0.8000000000000002
  7
tahoma-b
100
AcDbText
  0
TEXT
  5
423
330
1F
100
AcDbEntity
  8
Ech.1_2
 62
   154
420
    21156
100
AcDbText
 10
5193.497932105262
 20
340.6674038896499
 30
0.0
 40
6.000000000000001
  1
a
 50
357.588535778679
 41
0.8
  7
tahoma-b
100
AcDbText
  0
TEXT
  5
424
330
1F
100
AcDbEntity
  8
Ech.1_2
 62
   154
420
    21156
100
AcDbText
 10
5196.791425196819
 20
340.5287054774317
 30
0.0
 40
6.0
  1
t
 50
353.609164414799
 41
0.8000000000000002
  7
tahoma-b
100
AcDbText
  0
TEXT
  5
425
330
1F
100
AcDbEntity
  8
Ech.1_2
 62
   154
420
    21156
100
AcDbText
 10
5198.906630842624
 20
340.2917897256457
 30
0.0
 40
5.999999999999999
  1
i
 50
350.9766571715434
 41
0.8000000000000003
  7
tahoma-b
100
AcDbText
  0
TEXT
  5
426
330
1F
100
AcDbEntity
  8
Ech.1_2
 62
   154
420
    21156
100
AcDbText
 10
5200.349337333383
 20
340.0626849100927
 30
0.0
 40
6.0
  1
b
 50
347.3646125172335
 41
0.8000000000000002
  7
tahoma-b
100
AcDbText
  0
TEXT
  5
427
330
1F
100
AcDbEntity
  8
Ech.1_2
 62
   154
420
    21156
100
AcDbText
 10
5203.728677096532
 20
339.3051212164946
 30
0.0
 40
6.0
  1
l
 50
343.7525678627848
 41
0.8000000000000002
  7
tahoma-b
100
AcDbText
  0
TEXT
  5
428
330
1F
100
AcDbEntity
  8
Ech.1_2
 62
   154
420
    21156
100
AcDbText
 10
5205.131121256442
 20
338.8964142146988
 30
0.0
 40
6.0
  1
e
 50
340.2629653356155
 41
0.8000000000000002
  7
tahoma-b
100
AcDbText
  0
TEXT
  5
429
330
1F
100
AcDbEntity
  8
Ech.1_2
 62
   154
420
    21156
100
AcDbText
 10
5171.889191726351
 20
287.4386226633515
 30
0.0
 40
6.0
  1
s
 50
329.3124952401563
 41
0.8000000000000002
  7
tahoma-b
100
AcDbText
  0
TEXT
  5
42A
330
1F
100
AcDbEntity
  8
Ech.1_2
 62
   154
420
    21156
100
AcDbText
 10
5174.688136405922
 20
285.7775564190752
 30
0.0
 40
6.000000000000001
  1
u
 50
334.6276163794528
 41
0.8000000000000002
  7
tahoma-b
100
AcDbText
  0
TEXT
  5
42B
330
1F
100
AcDbEntity
  8
Ech.1_2
 62
   154
420
    21156
100
AcDbText
 10
5178.344690852756
 20
284.0434560428303
 30
0.0
 40
6.000000000000001
  1
r
 50
339.5478999137086
 41
0.8000000000000002
  7
tahoma-b
100
AcDbText
  0
TEXT
  5
42C
330
1F
100
AcDbEntity
  8
Ech.1_2
 62
   154
420
    21156
100
AcDbText
 10
5182.413612476524
 20
282.6195097066529
 30
0.0
 40
6.0
  1
p
 50
346.7359685598469
 41
0.8000000000000002
  7
tahoma-b
100
AcDbText
  0
TEXT
  5
42D
330
1F
100
AcDbEntity
  8
Ech.1_2
 62
   154
420
    21156
100
AcDbText
 10
5186.271419058986
 20
281.7101196411249
 30
0.0
 40
6.0
  1
a
 50
352.3548109071298
 41
0.8000000000000002
  7
tahoma-b
100
AcDbText
  0
TEXT
  5
42E
330
1F
100
AcDbEntity
  8
Ech.1_2
 62
   154
420
    21156
100
AcDbText
 10
5189.993136540595
 20
281.2105486211667
 30
0.0
 40
6.000000000000001
  1
r
 50
357.0624896304234
 41
0.8000000000000002
  7
tahoma-b
100
AcDbText
  0
TEXT
  5
42F
330
1F
100
AcDbEntity
  8
Ech.1_2
 62
   154
420
    21156
100
AcDbText
 10
5192.702079016489
 20
281.071541415994
 30
0.0
 40
6.0
  1
o
 50
1.861284750914286
 41
0.7999999999999999
  7
tahoma-b
100
AcDbText
  0
TEXT
  5
430
330
1F
100
AcDbEntity
  8
Ech.1_2
 62
   154
420
    21156
100
AcDbText
 10
5196.580198797886
 20
281.1975685950101
 30
0.0
 40
6.0
  1
i
 50
6.083009645634947
 41
0.8000000000000002
  7
tahoma-b
100
AcDbText
  0
TEXT
  5
431
330
1F
100
AcDbEntity
  8
Ech.1_2
 62
   154
420
    21156
100
AcDbText
 10
5200.070914480032
 20
281.6414749705482
 30
0.0
 40
6.0
  1
b
 50
12.69400806611318
 41
0.8000000000000002
  7
tahoma-b
100
AcDbText
  0
TEXT
  5
432
330
1F
100
AcDbEntity
  8
Ech.1_2
 62
   154
420
    21156
100
AcDbText
 10
5203.93757732118
 20
282.5124401775693
 30
0.0
 40
6.0
  1
o
 50
18.40396681047573
 41
0.8000000000000002
  7
tahoma-b
100
AcDbText
  0
TEXT
  5
433
330
1F
100
AcDbEntity
  8
Ech.1_2
 62
   154
420
    21156
100
AcDbText
 10
5207.619289896921
 20
283.7374660541764
 30
0.0
 40
6.0
  1
i
 50
22.62569170511795
 41
0.8000000000000003
  7
tahoma-b
100
AcDbText
  0
TEXT
  5
434
330
1F
100
AcDbEntity
  8
Ech.1_2
 62
   154
420
    21156
100
AcDbText
 10
5209.391346930505
 20
284.4760346584308
 30
0.0
 40
6.0
  1
s
 50
26.3918347879508
 41
0.8000000000000002
  7
tahoma-b
100
AcDbText
  0
TEXT
  5
435
330
1F
100
AcDbEntity
  8
Ech.1_2
 62
   154
420
    21156
100
AcDbText
 10
5183.659627059603
 20
296.2975858766376
 30
0.0
 40
9.999999999999998
  1
E
 50
345.2222144970871
 41
0.8000000000000002
  7
tahoma-b
100
AcDbText
  0
TEXT
  5
436
330
1F
100
AcDbEntity
  8
Ech.1_2
 62
   154
420
    21156
100
AcDbText
 10
5189.899088054567
 20
294.651636921154
 30
0.0
 40
10.0
  1
e
 50
359.2406769519294
 41
0.8
  7
tahoma-b
100
AcDbText
  0
TEXT
  5
437
330
1F
100
AcDbEntity
  8
Ech.1_2
 62
   154
420
    21156
100
AcDbText
 10
5196.144311502473
 20
294.5688660819951
 30
0.0
 40
10.0
  1
2
 50
13.48894999978227
 41
0.8
  7
tahoma-b
100
AcDbText
  0
VIEWPORT
  5
242
330
23C
100
AcDbEntity
 67
     1
  8
0
100
AcDbViewport
 10
98.8
 20
135.7999999999991
 30
0.0
 40
209.0608
 41
287.3527999999981
 68
     1
 69
     1
 12
128.5
 22
97.5
 13
0.0
 23
0.0
 14
10.0
 24
10.0
 15
10.0
 25
10.0
 16
0.0
 26
0.0
 36
1.0
 17
0.0
 27
0.0
 37
0.0
 42
50.0
 43
0.0
 44
0.0
 45
222.18
 50
0.0
 51
0.0
 72
   100
 90
   557152
  1

281
     0
 71
     1
 74
     0
110
0.0
120
0.0
130
0.0
111
1.0
121
0.0
131
0.0
112
0.0
122
1.0
132
0.0
 79
     0
146
0.0
170
     0
 61
     5
348
2F
292
     1
282
     1
141
0.0
142
0.0
 63
   256
361
243
  0
VIEWPORT
  5
244
330
23C
100
AcDbEntity
 67
     1
  8
0
 60
     1
100
AcDbViewport
 10
98.8
 20
135.7999999999991
 30
0.0
 40
197.6
 41
271.5999999999982
 68
     2
 69
     2
 12
5067.300343097577
 22
136.8407142404121
 13
0.0
 23
0.0
 14
10.0
 24
10.0
 15
10.0
 25
10.0
 16
0.0
 26
0.0
 36
1.0
 17
0.0
 27
0.0
 37
0.0
 42
50.0
 43
0.0
 44
0.0
 45
543.1999999999964
 50
0.0
 51
0.0
 72
   100
 90
   557152
  1

281
     0
 71
     1
 74
     0
110
0.0
120
0.0
130
0.0
111
1.0
121
0.0
131
0.0
112
0.0
122
1.0
132
0.0
 79
     0
146
0.0
170
     0
 61
     5
348
2F
292
     1
282
     1
141
0.0
142
0.0
 63
   256
  0
ENDSEC
  0
SECTION
  2
OBJECTS
  0
DICTIONARY
  5
C
330
0
100
AcDbDictionary
281
     1
  3
ACAD_DETAILVIEWSTYLE
350
43F
  3
ACAD_GROUP
350
D
  3
ACAD_IMAGE_DICT
350
26F
  3
ACAD_IMAGE_VARS
350
6F
  3
ACAD_LAYOUT
350
1A
  3
ACAD_MATERIAL
350
43
  3
ACAD_MLEADERSTYLE
350
6B
  3
ACAD_MLINESTYLE
350
17
  3
ACAD_PLOTSETTINGS
350
19
  3
ACAD_PLOTSTYLENAME
350
E
  3
ACAD_SCALELIST
350
47
  3
ACAD_SECTIONVIEWSTYLE
350
440
  3
ACAD_TABLESTYLE
350
69
  3
ACAD_VISUALSTYLE
350
2A
  3
ACDB_RECOMPOSE_DATA
350
43C
  3
AcDbVariableDictionary
350
438
  0
SUN
  5
6D
330
29
100
AcDbSun
 90
        1
290
     0
 63
     7
421
 16777215
 40
1.0
291
     1
 91
  2455826
 92
 54000000
292
     0
 70
     2
 71
   256
280
     1
  0
IMAGEDEF_REACTOR
  5
272
330
271
100
AcDbRasterImageDefReactor
 90
        2
330
271
  0
IMAGEDEF_REACTOR
  5
275
330
274
100
AcDbRasterImageDefReactor
 90
        2
330
274
  0
IMAGEDEF_REACTOR
  5
278
330
277
100
AcDbRasterImageDefReactor
 90
        2
330
277
  0
SUN
  5
243
330
242
100
AcDbSun
 90
        1
290
     0
 63
     7
421
 16777215
 40
1.0
291
     1
 91
  2455826
 92
 54000000
292
     0
 70
     2
 71
   256
280
     1
  0
DICTIONARY
  5
43F
102
{ACAD_REACTORS
330
C
102
}
330
C
100
AcDbDictionary
281
     1
  0
DICTIONARY
  5
D
102
{ACAD_REACTORS
330
C
102
}
330
C
100
AcDbDictionary
281
     1
  3
DIM19
350
3F4
  3
DIM29
350
402
  0
DICTIONARY
  5
26F
102
{ACAD_REACTORS
330
C
102
}
330
C
100
AcDbDictionary
281
     1
  3
C:\Users\MAIFFR~1\AppData\Local\Temp\EXE_LOGO_FBF_soutien_Q_L.jpg1
350
273
  3
C:\Users\MAIFFR~1\AppData\Local\Temp\fcba.jpg0
350
270
  3
C:\Users\MAIFFR~1\AppData\Local\Temp\logo_codifab_baseline_soutien.jpg2
350
276
  0
RASTERVARIABLES
  5
6F
102
{ACAD_REACTORS
330
C
102
}
330
C
100
AcDbRasterVariables
 90
        0
 70
     0
 71
     1
 72
     1
  0
DICTIONARY
  5
1A
102
{ACAD_REACTORS
330
C
102
}
330
C
100
AcDbDictionary
281
     1
  3
CompleteLayout
350
1E
  3
Model
350
22
  3
PrintFrame_23
350
23D
  0
DICTIONARY
  5
43
102
{ACAD_REACTORS
330
C
102
}
330
C
100
AcDbDictionary
281
     1
  3
ByBlock
350
45
  3
ByLayer
350
44
  3
Global
350
46
  0
DICTIONARY
  5
6B
102
{ACAD_REACTORS
330
C
102
}
330
C
100
AcDbDictionary
281
     1
  3
Standard
350
6C
  0
DICTIONARY
  5
17
102
{ACAD_REACTORS
330
C
102
}
330
C
100
AcDbDictionary
281
     1
  3
Standard
350
18
  0
DICTIONARY
  5
19
102
{ACAD_REACTORS
330
C
102
}
330
C
100
AcDbDictionary
281
     1
  3
PlotSettings_
350
240
  0
ACDBDICTIONARYWDFLT
  5
E
102
{ACAD_REACTORS
330
C
102
}
330
C
100
AcDbDictionary
281
     1
  3
Normal
350
F
100
AcDbDictionaryWithDefault
340
F
  0
DICTIONARY
  5
47
102
{ACAD_REACTORS
330
C
102
}
330
C
100
AcDbDictionary
281
     1
  3
A0
350
48
  3
A1
350
49
  3
A2
350
4A
  3
A3
350
4B
  3
A4
350
4C
  3
A5
350
4D
  3
A6
350
4E
  3
A7
350
4F
  3
A8
350
50
  3
A9
350
51
  3
B0
350
52
  3
B1
350
53
  3
B2
350
54
  3
B3
350
55
  3
B4
350
56
  3
B5
350
57
  3
B6
350
58
  3
B7
350
59
  3
B8
350
5A
  3
B9
350
5B
  3
C0
350
5C
  3
C1
350
5D
  3
C2
350
5E
  3
C3
350
5F
  3
C4
350
60
  3
C5
350
61
  3
C6
350
62
  3
C7
350
63
  3
C8
350
64
  3
C9
350
65
  3
D0
350
66
  3
D1
350
67
  3
D2
350
68
  0
DICTIONARY
  5
440
102
{ACAD_REACTORS
330
C
102
}
330
C
100
AcDbDictionary
281
     1
  0
DICTIONARY
  5
69
102
{ACAD_REACTORS
330
C
102
}
330
C
100
AcDbDictionary
281
     1
  3
Standard
350
6A
  0
DICTIONARY
  5
2A
102
{ACAD_REACTORS
330
C
102
}
330
C
100
AcDbDictionary
281
     1
  3
2dWireframe
350
2F
  3
Basic
350
32
  3
Brighten
350
36
  3
ColorChange
350
3A
  3
Conceptual
350
34
  3
Dim
350
35
  3
EdgeColorOff
350
3D
  3
Facepattern
350
39
  3
Flat
350
2B
  3
FlatWithEdges
350
2C
  3
Gouraud
350
2D
  3
GouraudWithEdges
350
2E
  3
Hidden
350
31
  3
JitterOff
350
3B
  3
Linepattern
350
38
  3
OverhangOff
350
3C
  3
Realistic
350
33
  3
Shaded
350
42
  3
Shaded with edges
350
41
  3
Shades of Gray
350
3E
  3
Sketchy
350
3F
  3
Thicken
350
37
  3
Wireframe
350
30
  3
X-Ray
350
40
  0
XRECORD
  5
43C
102
{ACAD_REACTORS
330
C
102
}
330
C
100
AcDbXrecord
280
     1
 90
        1
330
6A
  0
DICTIONARY
  5
438
102
{ACAD_REACTORS
330
C
102
}
330
C
100
AcDbDictionary
281
     1
  3
CANNOSCALE
350
439
  3
CMLEADERSTYLE
350
43E
  3
CTABLESTYLE
350
43D
  3
WIPEOUTFRAME
350
441
  0
GROUP
  5
3F4
102
{ACAD_REACTORS
330
D
102
}
330
D
100
AcDbGroup
300

 70
     0
 71
     1
340
3F3
  0
GROUP
  5
402
102
{ACAD_REACTORS
330
D
102
}
330
D
100
AcDbGroup
300

 70
     0
 71
     1
340
401
  0
IMAGEDEF
  5
273
102
{ACAD_REACTORS
330
26F
330
275
102
}
330
26F
100
AcDbRasterImageDef
 90
        0
  1
EXE_LOGO_FBF_soutien_Q_L.jpg
 10
200.0
 20
133.0
 11
0.3527336860670194
 21
0.3527336860670194
280
     1
281
     3
  0
IMAGEDEF
  5
270
102
{ACAD_REACTORS
330
26F
330
272
102
}
330
26F
100
AcDbRasterImageDef
 90
        0
  1
fcba.jpg
 10
247.0
 20
171.0
 11
0.3527336860670194
 21
0.3527336860670194
280
     1
281
     3
  0
IMAGEDEF
  5
276
102
{ACAD_REACTORS
330
26F
330
278
102
}
330
26F
100
AcDbRasterImageDef
 90
        0
  1
logo_codifab_baseline_soutien.jpg
 10
1326.0
 20
580.0
 11
0.08466683600033867
 21
0.08466683600033867
280
     1
281
     3
  0
LAYOUT
  5
1E
102
{ACAD_REACTORS
330
1A
102
}
330
1A
100
AcDbPlotSettings
  1

  2
none_device
  4

  6

 40
0.0
 41
0.0
 42
0.0
 43
0.0
 44
0.0
 45
0.0
 46
0.0
 47
0.0
 48
0.0
 49
0.0
140
0.0
141
0.0
142
1.0
143
1.0
 70
   688
 72
     0
 73
     0
 74
     5
  7

 75
    16
 76
     0
 77
     2
 78
   300
147
1.0
148
0.0
149
0.0
100
AcDbLayout
  1
CompleteLayout
 70
     1
 71
     1
 10
0.0
 20
0.0
 11
12.0
 21
9.0
 12
0.0
 22
0.0
 32
0.0
 14
1.000000000000000E+20
 24
1.000000000000000E+20
 34
1.000000000000000E+20
 15
-1.000000000000000E+20
 25
-1.000000000000000E+20
 35
-1.000000000000000E+20
146
0.0
 13
0.0
 23
0.0
 33
0.0
 16
1.0
 26
0.0
 36
0.0
 17
0.0
 27
1.0
 37
0.0
 76
     0
330
1B
  0
LAYOUT
  5
22
102
{ACAD_REACTORS
330
1A
102
}
330
1A
100
AcDbPlotSettings
  1

  2
none_device
  4
Letter_(8.50_x_11.00_Inches)
  6

 40
6.35
 41
6.35
 42
6.35000508
 43
6.35000508
 44
215.9
 45
279.4
 46
0.0
 47
0.0
 48
0.0
 49
0.0
140
0.0
141
0.0
142
1.0
143
1.0
 70
  1712
 72
     0
 73
     0
 74
     0
  7

 75
     0
 76
     0
 77
     2
 78
   300
147
1.0
148
0.0
149
0.0
100
AcDbLayout
  1
Model
 70
     1
 71
     0
 10
0.0
 20
0.0
 11
12.0
 21
9.0
 12
0.0
 22
0.0
 32
0.0
 14
4870.300343097577
 24
-134.1592857595861
 34
0.0
 15
5264.300343097577
 25
407.8407142404139
 35
0.0
146
0.0
 13
0.0
 23
0.0
 33
0.0
 16
1.0
 26
0.0
 36
0.0
 17
0.0
 27
1.0
 37
0.0
 76
     0
330
1F
331
29
  0
LAYOUT
  5
23D
102
{ACAD_REACTORS
330
1A
102
}
330
1A
100
AcDbPlotSettings
  1
PlotSettings_
  2
Custom Device
  4
Custom_210.000000x297.000000_12.700000_12.700000_6.200000_6.200000
  6

 40
6.2
 41
12.7
 42
6.2
 43
12.7
 44
210.0
 45
296.9999999999982
 46
0.0
 47
0.0
 48
0.0
 49
0.0
140
0.0
141
0.0
142
1.0
143
1.0
 70
   752
 72
     1
 73
     0
 74
     5
  7

 75
    16
 76
     0
 77
     2
 78
   300
147
1.0
148
0.0
149
0.0
100
AcDbLayout
  1
PrintFrame_23
 70
     0
 71
     2
 10
-20.0
 20
-7.5
 11
277.0
 21
202.5
 12
0.0
 22
0.0
 32
0.0
 14
0.0
 24
0.0
 34
0.0
 15
197.6
 25
271.5999999999982
 35
0.0
146
0.0
 13
0.0
 23
0.0
 33
0.0
 16
1.0
 26
0.0
 36
0.0
 17
0.0
 27
1.0
 37
0.0
 76
     0
330
23C
331
242
1001
PLOTTRANSPARENCY
1071
        1
1000
layout-user-created
1070
     1
1000
layout-line-weight-scale
1042
1.0
  0
MATERIAL
  5
45
102
{ACAD_REACTORS
330
43
102
}
330
43
100
AcDbMaterial
  1
ByBlock
 72
     1
 94
      127
  0
MATERIAL
  5
44
102
{ACAD_REACTORS
330
43
102
}
330
43
100
AcDbMaterial
  1
ByLayer
 72
     1
 94
      127
  0
MATERIAL
  5
46
102
{ACAD_REACTORS
330
43
102
}
330
43
100
AcDbMaterial
  1
Global
 72
     1
 94
      127
  0
MLEADERSTYLE
  5
6C
102
{ACAD_REACTORS
330
6B
102
}
330
6B
100
AcDbMLeaderStyle
179
     2
170
     2
171
     1
172
     0
 90
        2
 40
0.0
 41
0.0
173
     1
 91
-1056964608
340
14
 92
       -2
290
     1
 42
0.09
291
     1
 43
0.36
  3
Standard
341
0
 44
0.18
300

342
11
174
     1
178
     6
175
     1
176
     0
 93
-1056964608
 45
0.18
292
     0
297
     0
 46
0.18
343
0
 94
-1056964608
 47
1.0
 49
1.0
140
1.0
293
     1
141
0.0
294
     1
177
     0
142
1.0
295
     0
296
     0
143
0.125
271
     0
272
     9
273
     9
298
     0
  0
MLINESTYLE
  5
18
102
{ACAD_REACTORS
330
17
102
}
330
17
100
AcDbMlineStyle
  2
Standard
 70
     0
  3

 62
   256
 51
90.0
 52
90.0
 71
     2
 49
0.5
 62
   256
  6
BYLAYER
 49
-0.5
 62
   256
  6
BYLAYER
  0
PLOTSETTINGS
  5
240
102
{ACAD_REACTORS
330
19
102
}
330
19
100
AcDbPlotSettings
  1
PlotSettings_
  2
Custom Device
  4
Custom_210.000000x297.000000_12.700000_12.700000_6.200000_6.200000
  6

 40
6.2
 41
12.7
 42
6.2
 43
12.7
 44
210.0
 45
296.9999999999982
 46
0.0
 47
0.0
 48
0.0
 49
0.0
140
0.0
141
0.0
142
1.0
143
1.0
 70
   752
 72
     1
 73
     0
 74
     5
  7

 75
    16
 76
     0
 77
     2
 78
   300
147
1.0
148
0.0
149
0.0
1001
PLOTTRANSPARENCY
1071
        1
1000
layout-user-created
1070
     1
1000
layout-line-weight-scale
1042
1.0
  0
ACDBPLACEHOLDER
  5
F
102
{ACAD_REACTORS
330
E
102
}
330
E
  0
SCALE
  5
48
102
{ACAD_REACTORS
330
47
102
}
330
47
100
AcDbScale
 70
     0
300
1:1
140
1.0
141
1.0
290
     1
  0
SCALE
  5
49
102
{ACAD_REACTORS
330
47
102
}
330
47
100
AcDbScale
 70
     0
300
1:2
140
1.0
141
2.0
290
     0
  0
SCALE
  5
4A
102
{ACAD_REACTORS
330
47
102
}
330
47
100
AcDbScale
 70
     0
300
1:4
140
1.0
141
4.0
290
     0
  0
SCALE
  5
4B
102
{ACAD_REACTORS
330
47
102
}
330
47
100
AcDbScale
 70
     0
300
1:5
140
1.0
141
5.0
290
     0
  0
SCALE
  5
4C
102
{ACAD_REACTORS
330
47
102
}
330
47
100
AcDbScale
 70
     0
300
1:8
140
1.0
141
8.0
290
     0
  0
SCALE
  5
4D
102
{ACAD_REACTORS
330
47
102
}
330
47
100
AcDbScale
 70
     0
300
1:10
140
1.0
141
10.0
290
     0
  0
SCALE
  5
4E
102
{ACAD_REACTORS
330
47
102
}
330
47
100
AcDbScale
 70
     0
300
1:16
140
1.0
141
16.0
290
     0
  0
SCALE
  5
4F
102
{ACAD_REACTORS
330
47
102
}
330
47
100
AcDbScale
 70
     0
300
1:20
140
1.0
141
20.0
290
     0
  0
SCALE
  5
50
102
{ACAD_REACTORS
330
47
102
}
330
47
100
AcDbScale
 70
     0
300
1:30
140
1.0
141
30.0
290
     0
  0
SCALE
  5
51
102
{ACAD_REACTORS
330
47
102
}
330
47
100
AcDbScale
 70
     0
300
1:40
140
1.0
141
40.0
290
     0
  0
SCALE
  5
52
102
{ACAD_REACTORS
330
47
102
}
330
47
100
AcDbScale
 70
     0
300
1:50
140
1.0
141
50.0
290
     0
  0
SCALE
  5
53
102
{ACAD_REACTORS
330
47
102
}
330
47
100
AcDbScale
 70
     0
300
1:100
140
1.0
141
100.0
290
     0
  0
SCALE
  5
54
102
{ACAD_REACTORS
330
47
102
}
330
47
100
AcDbScale
 70
     0
300
2:1
140
2.0
141
1.0
290
     0
  0
SCALE
  5
55
102
{ACAD_REACTORS
330
47
102
}
330
47
100
AcDbScale
 70
     0
300
4:1
140
4.0
141
1.0
290
     0
  0
SCALE
  5
56
102
{ACAD_REACTORS
330
47
102
}
330
47
100
AcDbScale
 70
     0
300
8:1
140
8.0
141
1.0
290
     0
  0
SCALE
  5
57
102
{ACAD_REACTORS
330
47
102
}
330
47
100
AcDbScale
 70
     0
300
10:1
140
10.0
141
1.0
290
     0
  0
SCALE
  5
58
102
{ACAD_REACTORS
330
47
102
}
330
47
100
AcDbScale
 70
     0
300
100:1
140
100.0
141
1.0
290
     0
  0
SCALE
  5
59
102
{ACAD_REACTORS
330
47
102
}
330
47
100
AcDbScale
 70
     0
300
1/128" = 1'-0"
140
0.0078125
141
12.0
290
     0
  0
SCALE
  5
5A
102
{ACAD_REACTORS
330
47
102
}
330
47
100
AcDbScale
 70
     0
300
1/64" = 1'-0"
140
0.015625
141
12.0
290
     0
  0
SCALE
  5
5B
102
{ACAD_REACTORS
330
47
102
}
330
47
100
AcDbScale
 70
     0
300
1/32" = 1'-0"
140
0.03125
141
12.0
290
     0
  0
SCALE
  5
5C
102
{ACAD_REACTORS
330
47
102
}
330
47
100
AcDbScale
 70
     0
300
1/16" = 1'-0"
140
0.0625
141
12.0
290
     0
  0
SCALE
  5
5D
102
{ACAD_REACTORS
330
47
102
}
330
47
100
AcDbScale
 70
     0
300
3/32" = 1'-0"
140
0.09375
141
12.0
290
     0
  0
SCALE
  5
5E
102
{ACAD_REACTORS
330
47
102
}
330
47
100
AcDbScale
 70
     0
300
1/8" = 1'-0"
140
0.125
141
12.0
290
     0
  0
SCALE
  5
5F
102
{ACAD_REACTORS
330
47
102
}
330
47
100
AcDbScale
 70
     0
300
3/16" = 1'-0"
140
0.1875
141
12.0
290
     0
  0
SCALE
  5
60
102
{ACAD_REACTORS
330
47
102
}
330
47
100
AcDbScale
 70
     0
300
1/4" = 1'-0"
140
0.25
141
12.0
290
     0
  0
SCALE
  5
61
102
{ACAD_REACTORS
330
47
102
}
330
47
100
AcDbScale
 70
     0
300
3/8" = 1'-0"
140
0.375
141
12.0
290
     0
  0
SCALE
  5
62
102
{ACAD_REACTORS
330
47
102
}
330
47
100
AcDbScale
 70
     0
300
1/2" = 1'-0"
140
0.5
141
12.0
290
     0
  0
SCALE
  5
63
102
{ACAD_REACTORS
330
47
102
}
330
47
100
AcDbScale
 70
     0
300
3/4" = 1'-0"
140
0.75
141
12.0
290
     0
  0
SCALE
  5
64
102
{ACAD_REACTORS
330
47
102
}
330
47
100
AcDbScale
 70
     0
300
1" = 1'-0"
140
1.0
141
12.0
290
     0
  0
SCALE
  5
65
102
{ACAD_REACTORS
330
47
102
}
330
47
100
AcDbScale
 70
     0
300
1-1/2" = 1'-0"
140
1.5
141
12.0
290
     0
  0
SCALE
  5
66
102
{ACAD_REACTORS
330
47
102
}
330
47
100
AcDbScale
 70
     0
300
3" = 1'-0"
140
3.0
141
12.0
290
     0
  0
SCALE
  5
67
102
{ACAD_REACTORS
330
47
102
}
330
47
100
AcDbScale
 70
     0
300
6" = 1'-0"
140
6.0
141
12.0
290
     0
  0
SCALE
  5
68
102
{ACAD_REACTORS
330
47
102
}
330
47
100
AcDbScale
 70
     0
300
1'-0" = 1'-0"
140
12.0
141
12.0
290
     0
  0
TABLESTYLE
  5
6A
102
{ACAD_REACTORS
330
69
102
}
102
{ACAD_XDICTIONARY
360
43A
102
}
330
69
100
AcDbTableStyle
  3
Standard
 70
     0
 71
     0
 40
0.06
 41
0.06
280
     0
281
     0
  7
Standard
140
0.18
170
     2
 62
     0
 63
   257
283
     0
 90
        4
 91
        0
  1

274
    -2
284
     1
 64
     0
275
    -2
285
     1
 65
     0
276
    -2
286
     1
 66
     0
277
    -2
287
     1
 67
     0
278
    -2
288
     1
 68
     0
279
    -2
289
     1
 69
     0
  7
Standard
140
0.25
170
     5
 62
     0
 63
   257
283
     0
 90
        4
 91
        0
  1

274
    -2
284
     1
 64
     0
275
    -2
285
     1
 65
     0
276
    -2
286
     1
 66
     0
277
    -2
287
     1
 67
     0
278
    -2
288
     1
 68
     0
279
    -2
289
     1
 69
     0
  7
Standard
140
0.18
170
     5
 62
     0
 63
   257
283
     0
 90
        4
 91
        0
  1

274
    -2
284
     1
 64
     0
275
    -2
285
     1
 65
     0
276
    -2
286
     1
 66
     0
277
    -2
287
     1
 67
     0
278
    -2
288
     1
 68
     0
279
    -2
289
     1
 69
     0
  0
VISUALSTYLE
  5
2F
102
{ACAD_REACTORS
330
2A
102
}
330
2A
100
AcDbVisualStyle
  2
2dWireframe
 70
     4
177
     3
291
     0
 70
    58
 90
        0
176
     1
 90
        2
176
     1
 90
        0
176
     1
 90
        0
176
     1
 40
0.6
176
     1
 40
30.0
176
     1
 62
     7
420
 16777215
176
     1
 90
        1
176
     1
 90
        4
176
     1
 62
     7
176
     1
 62
   257
176
     1
 90
        1
176
     1
 90
        1
176
     1
 40
1.0
176
     1
 90
        0
176
     1
 62
   257
176
     1
 40
1.0
176
     1
 90
        1
176
     1
 90
        6
176
     1
 90
        2
176
     1
 62
     7
176
     1
 90
        5
176
     1
 90
        0
176
     1
 90
        0
176
     1
290
     0
176
     1
 90
        1
176
     1
 40
0.0
176
     1
 90
        0
176
     1
290
     1
176
     1
290
     1
176
     1
290
     0
176
     1
290
     0
176
     1
290
     0
176
     1
290
     0
176
     1
290
     0
176
     1
290
     0
176
     1
290
     0
176
     1
 90
       50
176
     1
 40
0.0
176
     1
 40
1.0
176
     1
 90
        0
176
     1
 62
    18
420
        0
176
     1
 90
       50
176
     1
 90
        3
176
     1
 62
     5
420
      255
176
     1
290
     0
176
     1
 90
       50
176
     1
 90
       50
176
     1
 90
       50
176
     1
290
     0
176
     1
 90
       50
176
     1
 62
   256
176
     0
 40
1.0
176
     0
 90
        2
176
     1
  1
strokes_ogs.tif
176
     1
290
     0
176
     1
 40
1.0
176
     1
 40
1.0
176
     1
  0
VISUALSTYLE
  5
32
102
{ACAD_REACTORS
330
2A
102
}
330
2A
100
AcDbVisualStyle
  2
Basic
 70
     7
177
     3
291
     1
 70
    58
 90
        1
176
     1
 90
        0
176
     1
 90
        1
176
     1
 90
        0
176
     1
 40
0.6
176
     1
 40
30.0
176
     1
 62
     7
420
 16777215
176
     1
 90
        0
176
     1
 90
        4
176
     1
 62
     7
176
     1
 62
   257
176
     1
 90
        1
176
     1
 90
        1
176
     1
 40
1.0
176
     1
 90
        8
176
     1
 62
     7
176
     1
 40
1.0
176
     1
 90
        1
176
     1
 90
        6
176
     1
 90
        2
176
     1
 62
     7
176
     1
 90
        5
176
     1
 90
        0
176
     1
 90
        0
176
     1
290
     0
176
     1
 90
        1
176
     1
 40
0.0
176
     1
 90
        0
176
     1
290
     0
176
     1
290
     1
176
     1
290
     1
176
     1
290
     0
176
     1
290
     0
176
     1
290
     0
176
     1
290
     0
176
     1
290
     0
176
     1
290
     0
176
     1
 90
       50
176
     1
 40
0.0
176
     1
 40
1.0
176
     1
 90
        0
176
     1
 62
    18
420
        0
176
     1
 90
       50
176
     1
 90
        3
176
     1
 62
     5
420
      255
176
     1
290
     0
176
     1
 90
       50
176
     1
 90
       50
176
     1
 90
       50
176
     1
290
     0
176
     1
 90
       50
176
     1
 62
   256
176
     0
 40
1.0
176
     0
 90
        2
176
     1
  1
strokes_ogs.tif
176
     1
290
     0
176
     1
 40
1.0
176
     1
 40
1.0
176
     1
  0
VISUALSTYLE
  5
36
102
{ACAD_REACTORS
330
2A
102
}
330
2A
100
AcDbVisualStyle
  2
Brighten
 70
    12
177
     3
291
     1
 70
    58
 90
        2
176
     1
 90
        2
176
     1
 90
        0
176
     1
 90
        0
176
     1
 40
0.6
176
     1
 40
30.0
176
     1
 62
     7
420
 16777215
176
     1
 90
        1
176
     1
 90
        4
176
     1
 62
     7
176
     1
 62
   257
176
     1
 90
        1
176
     1
 90
        1
176
     1
 40
1.0
176
     1
 90
        8
176
     1
 62
     7
176
     1
 40
1.0
176
     1
 90
        1
176
     1
 90
        6
176
     1
 90
        2
176
     1
 62
     7
176
     1
 90
        5
176
     1
 90
        0
176
     1
 90
        0
176
     1
290
     0
176
     1
 90
        1
176
     1
 40
50.0
176
     1
 90
        0
176
     1
290
     0
176
     1
290
     1
176
     1
290
     1
176
     1
290
     0
176
     1
290
     0
176
     1
290
     0
176
     1
290
     0
176
     1
290
     0
176
     1
290
     0
176
     1
 90
       50
176
     1
 40
0.0
176
     1
 40
1.0
176
     1
 90
        0
176
     1
 62
    18
420
        0
176
     1
 90
       50
176
     1
 90
        3
176
     1
 62
     5
420
      255
176
     1
290
     0
176
     1
 90
       50
176
     1
 90
       50
176
     1
 90
       50
176
     1
290
     0
176
     1
 90
       50
176
     1
 62
   256
176
     0
 40
1.0
176
     0
 90
        2
176
     1
  1
strokes_ogs.tif
176
     1
290
     0
176
     1
 40
1.0
176
     1
 40
1.0
176
     1
  0
VISUALSTYLE
  5
3A
102
{ACAD_REACTORS
330
2A
102
}
330
2A
100
AcDbVisualStyle
  2
ColorChange
 70
    16
177
     3
291
     1
 70
    58
 90
        2
176
     1
 90
        2
176
     1
 90
        3
176
     1
 90
        0
176
     1
 40
0.6
176
     1
 40
30.0
176
     1
 62
     8
420
  8421504
176
     1
 90
        1
176
     1
 90
        4
176
     1
 62
     7
176
     1
 62
   257
176
     1
 90
        1
176
     1
 90
        1
176
     1
 40
1.0
176
     1
 90
        8
176
     1
 62
     8
420
  8421504
176
     1
 40
1.0
176
     1
 90
        1
176
     1
 90
        6
176
     1
 90
        2
176
     1
 62
     7
176
     1
 90
        5
176
     1
 90
        0
176
     1
 90
        0
176
     1
290
     0
176
     1
 90
        1
176
     1
 40
0.0
176
     1
 90
        0
176
     1
290
     0
176
     1
290
     1
176
     1
290
     1
176
     1
290
     0
176
     1
290
     0
176
     1
290
     0
176
     1
290
     0
176
     1
290
     0
176
     1
290
     0
176
     1
 90
       50
176
     1
 40
0.0
176
     1
 40
1.0
176
     1
 90
        0
176
     1
 62
    18
420
        0
176
     1
 90
       50
176
     1
 90
        3
176
     1
 62
     5
420
      255
176
     1
290
     0
176
     1
 90
       50
176
     1
 90
       50
176
     1
 90
       50
176
     1
290
     0
176
     1
 90
       50
176
     1
 62
   256
176
     0
 40
1.0
176
     0
 90
        2
176
     1
  1
strokes_ogs.tif
176
     1
290
     0
176
     1
 40
1.0
176
     1
 40
1.0
176
     1
  0
VISUALSTYLE
  5
34
102
{ACAD_REACTORS
330
2A
102
}
330
2A
100
AcDbVisualStyle
  2
Conceptual
 70
     9
177
     3
291
     0
 70
    58
 90
        3
176
     1
 90
        2
176
     1
 90
        0
176
     1
 90
        0
176
     1
 40
0.6
176
     1
 40
30.0
176
     1
 62
     7
420
 16777215
176
     1
 90
        2
176
     1
 90
        2
176
     1
 62
     7
176
     1
 62
   257
176
     1
 90
        1
176
     1
 90
        1
176
     1
 40
179.0
176
     1
 90
        8
176
     1
 62
     7
176
     1
 40
1.0
176
     1
 90
        1
176
     1
 90
        6
176
     1
 90
        2
176
     1
 62
     7
176
     1
 90
        3
176
     1
 90
        0
176
     1
 90
        0
176
     1
290
     0
176
     1
 90
        1
176
     1
 40
0.0
176
     1
 90
        0
176
     1
290
     0
176
     1
290
     1
176
     1
290
     1
176
     1
290
     0
176
     1
290
     0
176
     1
290
     0
176
     1
290
     0
176
     1
290
     0
176
     1
290
     0
176
     1
 90
       50
176
     1
 40
0.0
176
     1
 40
1.0
176
     1
 90
        0
176
     1
 62
    18
420
        0
176
     1
 90
       50
176
     1
 90
        3
176
     1
 62
     5
420
      255
176
     1
290
     0
176
     1
 90
       50
176
     1
 90
       50
176
     1
 90
       50
176
     1
290
     0
176
     1
 90
       50
176
     1
 62
   256
176
     0
 40
1.0
176
     0
 90
        2
176
     1
  1
strokes_ogs.tif
176
     1
290
     0
176
     1
 40
1.0
176
     1
 40
1.0
176
     1
  0
VISUALSTYLE
  5
35
102
{ACAD_REACTORS
330
2A
102
}
330
2A
100
AcDbVisualStyle
  2
Dim
 70
    11
177
     3
291
     1
 70
    58
 90
        2
176
     1
 90
        2
176
     1
 90
        0
176
     1
 90
        0
176
     1
 40
0.6
176
     1
 40
30.0
176
     1
 62
     7
420
 16777215
176
     1
 90
        1
176
     1
 90
        4
176
     1
 62
     7
176
     1
 62
   257
176
     1
 90
        1
176
     1
 90
        1
176
     1
 40
1.0
176
     1
 90
        8
176
     1
 62
     7
176
     1
 40
1.0
176
     1
 90
        1
176
     1
 90
        6
176
     1
 90
        2
176
     1
 62
     7
176
     1
 90
        5
176
     1
 90
        0
176
     1
 90
        0
176
     1
290
     0
176
     1
 90
        1
176
     1
 40
-50.0
176
     1
 90
        0
176
     1
290
     0
176
     1
290
     1
176
     1
290
     1
176
     1
290
     0
176
     1
290
     0
176
     1
290
     0
176
     1
290
     0
176
     1
290
     0
176
     1
290
     0
176
     1
 90
       50
176
     1
 40
0.0
176
     1
 40
1.0
176
     1
 90
        0
176
     1
 62
    18
420
        0
176
     1
 90
       50
176
     1
 90
        3
176
     1
 62
     5
420
      255
176
     1
290
     0
176
     1
 90
       50
176
     1
 90
       50
176
     1
 90
       50
176
     1
290
     0
176
     1
 90
       50
176
     1
 62
   256
176
     0
 40
1.0
176
     0
 90
        2
176
     1
  1
strokes_ogs.tif
176
     1
290
     0
176
     1
 40
1.0
176
     1
 40
1.0
176
     1
  0
VISUALSTYLE
  5
3D
102
{ACAD_REACTORS
330
2A
102
}
330
2A
100
AcDbVisualStyle
  2
EdgeColorOff
 70
    22
177
     3
291
     1
 70
    58
 90
        2
176
     0
 90
        2
176
     0
 90
        0
176
     0
 90
        0
176
     0
 40
0.6
176
     0
 40
30.0
176
     0
 62
     7
420
 16777215
176
     0
 90
        1
176
     0
 90
        4
176
     0
 62
     7
176
     0
 62
   257
176
     0
 90
        1
176
     0
 90
        1
176
     0
 40
1.0
176
     0
 90
        8
176
     2
 62
     7
176
     0
 40
1.0
176
     0
 90
        1
176
     0
 90
        6
176
     0
 90
        2
176
     0
 62
     7
176
     0
 90
        5
176
     0
 90
        0
176
     0
 90
        0
176
     0
290
     0
176
     0
 90
        1
176
     0
 40
0.0
176
     0
 90
        0
176
     0
290
     0
176
     0
290
     1
176
     0
290
     1
176
     0
290
     0
176
     0
290
     0
176
     0
290
     0
176
     0
290
     0
176
     0
290
     0
176
     0
290
     0
176
     0
 90
       50
176
     0
 40
0.0
176
     0
 40
1.0
176
     0
 90
        0
176
     0
 62
    18
420
        0
176
     0
 90
       50
176
     0
 90
        3
176
     0
 62
     5
420
      255
176
     0
290
     0
176
     0
 90
       50
176
     0
 90
       50
176
     0
 90
       50
176
     0
290
     0
176
     0
 90
       50
176
     0
 62
   256
176
     0
 40
1.0
176
     0
 90
        2
176
     0
  1
strokes_ogs.tif
176
     0
290
     0
176
     0
 40
1.0
176
     0
 40
1.0
176
     0
  0
VISUALSTYLE
  5
39
102
{ACAD_REACTORS
330
2A
102
}
330
2A
100
AcDbVisualStyle
  2
Facepattern
 70
    15
177
     3
291
     1
 70
    58
 90
        2
176
     1
 90
        2
176
     1
 90
        0
176
     1
 90
        0
176
     1
 40
0.6
176
     1
 40
30.0
176
     1
 62
     7
420
 16777215
176
     1
 90
        1
176
     1
 90
        4
176
     1
 62
     7
176
     1
 62
   257
176
     1
 90
        1
176
     1
 90
        1
176
     1
 40
1.0
176
     1
 90
        8
176
     1
 62
     7
176
     1
 40
1.0
176
     1
 90
        1
176
     1
 90
        6
176
     1
 90
        2
176
     1
 62
     7
176
     1
 90
        5
176
     1
 90
        0
176
     1
 90
        0
176
     1
290
     0
176
     1
 90
        1
176
     1
 40
0.0
176
     1
 90
        0
176
     1
290
     0
176
     1
290
     1
176
     1
290
     1
176
     1
290
     0
176
     1
290
     0
176
     1
290
     0
176
     1
290
     0
176
     1
290
     0
176
     1
290
     0
176
     1
 90
       50
176
     1
 40
0.0
176
     1
 40
1.0
176
     1
 90
        0
176
     1
 62
    18
420
        0
176
     1
 90
       50
176
     1
 90
        3
176
     1
 62
     5
420
      255
176
     1
290
     0
176
     1
 90
       50
176
     1
 90
       50
176
     1
 90
       50
176
     1
290
     0
176
     1
 90
       50
176
     1
 62
   256
176
     0
 40
1.0
176
     0
 90
        2
176
     1
  1
strokes_ogs.tif
176
     1
290
     0
176
     1
 40
1.0
176
     1
 40
1.0
176
     1
  0
VISUALSTYLE
  5
2B
102
{ACAD_REACTORS
330
2A
102
}
330
2A
100
AcDbVisualStyle
  2
Flat
 70
     0
177
     3
291
     1
 70
    58
 90
        2
176
     1
 90
        1
176
     1
 90
        1
176
     1
 90
        2
176
     1
 40
0.6
176
     1
 40
30.0
176
     1
 62
     7
420
 16777215
176
     1
 90
        0
176
     1
 90
        0
176
     1
 62
     7
176
     1
 62
   257
176
     1
 90
        1
176
     1
 90
        1
176
     1
 40
1.0
176
     1
 90
        8
176
     1
 62
     7
176
     1
 40
1.0
176
     1
 90
        1
176
     1
 90
        6
176
     1
 90
        2
176
     1
 62
     7
176
     1
 90
        5
176
     1
 90
        0
176
     1
 90
        0
176
     1
290
     0
176
     1
 90
       13
176
     1
 40
0.0
176
     1
 90
        0
176
     1
290
     0
176
     1
290
     1
176
     1
290
     1
176
     1
290
     0
176
     1
290
     0
176
     1
290
     0
176
     1
290
     0
176
     1
290
     0
176
     1
290
     0
176
     1
 90
       50
176
     1
 40
0.0
176
     1
 40
1.0
176
     1
 90
        0
176
     1
 62
    18
420
        0
176
     1
 90
       50
176
     1
 90
        3
176
     1
 62
     5
420
      255
176
     1
290
     0
176
     1
 90
       50
176
     1
 90
       50
176
     1
 90
       50
176
     1
290
     0
176
     1
 90
       50
176
     1
 62
   256
176
     0
 40
1.0
176
     0
 90
        2
176
     1
  1
strokes_ogs.tif
176
     1
290
     0
176
     1
 40
1.0
176
     1
 40
1.0
176
     1
  0
VISUALSTYLE
  5
2C
102
{ACAD_REACTORS
330
2A
102
}
330
2A
100
AcDbVisualStyle
  2
FlatWithEdges
 70
     1
177
     3
291
     1
 70
    58
 90
        2
176
     1
 90
        1
176
     1
 90
        1
176
     1
 90
        2
176
     1
 40
0.6
176
     1
 40
30.0
176
     1
 62
     7
420
 16777215
176
     1
 90
        1
176
     1
 90
        0
176
     1
 62
     7
176
     1
 62
   257
176
     1
 90
        1
176
     1
 90
        1
176
     1
 40
1.0
176
     1
 90
        0
176
     1
 62
   257
176
     1
 40
1.0
176
     1
 90
        1
176
     1
 90
        6
176
     1
 90
        2
176
     1
 62
     7
176
     1
 90
        5
176
     1
 90
        0
176
     1
 90
        0
176
     1
290
     0
176
     1
 90
       13
176
     1
 40
0.0
176
     1
 90
        0
176
     1
290
     0
176
     1
290
     1
176
     1
290
     1
176
     1
290
     0
176
     1
290
     0
176
     1
290
     0
176
     1
290
     0
176
     1
290
     0
176
     1
290
     0
176
     1
 90
       50
176
     1
 40
0.0
176
     1
 40
1.0
176
     1
 90
        0
176
     1
 62
    18
420
        0
176
     1
 90
       50
176
     1
 90
        3
176
     1
 62
     5
420
      255
176
     1
290
     0
176
     1
 90
       50
176
     1
 90
       50
176
     1
 90
       50
176
     1
290
     0
176
     1
 90
       50
176
     1
 62
   256
176
     0
 40
1.0
176
     0
 90
        2
176
     1
  1
strokes_ogs.tif
176
     1
290
     0
176
     1
 40
1.0
176
     1
 40
1.0
176
     1
  0
VISUALSTYLE
  5
2D
102
{ACAD_REACTORS
330
2A
102
}
330
2A
100
AcDbVisualStyle
  2
Gouraud
 70
     2
177
     3
291
     1
 70
    58
 90
        2
176
     1
 90
        2
176
     1
 90
        1
176
     1
 90
        2
176
     1
 40
0.6
176
     1
 40
30.0
176
     1
 62
     7
420
 16777215
176
     1
 90
        0
176
     1
 90
        0
176
     1
 62
     7
176
     1
 62
   257
176
     1
 90
        1
176
     1
 90
        1
176
     1
 40
1.0
176
     1
 90
        0
176
     1
 62
     7
176
     1
 40
1.0
176
     1
 90
        1
176
     1
 90
        6
176
     1
 90
        2
176
     1
 62
     7
176
     1
 90
        5
176
     1
 90
        0
176
     1
 90
        0
176
     1
290
     0
176
     1
 90
       13
176
     1
 40
0.0
176
     1
 90
        0
176
     1
290
     0
176
     1
290
     1
176
     1
290
     1
176
     1
290
     0
176
     1
290
     0
176
     1
290
     0
176
     1
290
     0
176
     1
290
     0
176
     1
290
     0
176
     1
 90
       50
176
     1
 40
0.0
176
     1
 40
1.0
176
     1
 90
        0
176
     1
 62
    18
420
        0
176
     1
 90
       50
176
     1
 90
        3
176
     1
 62
     5
420
      255
176
     1
290
     0
176
     1
 90
       50
176
     1
 90
       50
176
     1
 90
       50
176
     1
290
     0
176
     1
 90
       50
176
     1
 62
   256
176
     0
 40
1.0
176
     0
 90
        2
176
     1
  1
strokes_ogs.tif
176
     1
290
     0
176
     1
 40
1.0
176
     1
 40
1.0
176
     1
  0
VISUALSTYLE
  5
2E
102
{ACAD_REACTORS
330
2A
102
}
330
2A
100
AcDbVisualStyle
  2
GouraudWithEdges
 70
     3
177
     3
291
     1
 70
    58
 90
        2
176
     1
 90
        2
176
     1
 90
        1
176
     1
 90
        2
176
     1
 40
0.6
176
     1
 40
30.0
176
     1
 62
     7
420
 16777215
176
     1
 90
        1
176
     1
 90
        0
176
     1
 62
     7
176
     1
 62
   257
176
     1
 90
        1
176
     1
 90
        1
176
     1
 40
1.0
176
     1
 90
        0
176
     1
 62
   257
176
     1
 40
1.0
176
     1
 90
        1
176
     1
 90
        6
176
     1
 90
        2
176
     1
 62
     7
176
     1
 90
        5
176
     1
 90
        0
176
     1
 90
        0
176
     1
290
     0
176
     1
 90
       13
176
     1
 40
0.0
176
     1
 90
        0
176
     1
290
     0
176
     1
290
     1
176
     1
290
     1
176
     1
290
     0
176
     1
290
     0
176
     1
290
     0
176
     1
290
     0
176
     1
290
     0
176
     1
290
     0
176
     1
 90
       50
176
     1
 40
0.0
176
     1
 40
1.0
176
     1
 90
        0
176
     1
 62
    18
420
        0
176
     1
 90
       50
176
     1
 90
        3
176
     1
 62
     5
420
      255
176
     1
290
     0
176
     1
 90
       50
176
     1
 90
       50
176
     1
 90
       50
176
     1
290
     0
176
     1
 90
       50
176
     1
 62
   256
176
     0
 40
1.0
176
     0
 90
        2
176
     1
  1
strokes_ogs.tif
176
     1
290
     0
176
     1
 40
1.0
176
     1
 40
1.0
176
     1
  0
VISUALSTYLE
  5
31
102
{ACAD_REACTORS
330
2A
102
}
330
2A
100
AcDbVisualStyle
  2
Hidden
 70
     6
177
     3
291
     0
 70
    58
 90
        1
176
     1
 90
        2
176
     1
 90
        2
176
     1
 90
        0
176
     1
 40
0.6
176
     1
 40
30.0
176
     1
 62
     7
420
 16777215
176
     1
 90
        2
176
     1
 90
        2
176
     1
 62
     7
176
     1
 62
   257
176
     1
 90
        2
176
     1
 90
        1
176
     1
 40
40.0
176
     1
 90
        0
176
     1
 62
   257
176
     1
 40
1.0
176
     1
 90
        1
176
     1
 90
        6
176
     1
 90
        2
176
     1
 62
     7
176
     1
 90
        3
176
     1
 90
        0
176
     1
 90
        0
176
     1
290
     0
176
     1
 90
        1
176
     1
 40
0.0
176
     1
 90
        0
176
     1
290
     0
176
     1
290
     1
176
     1
290
     1
176
     1
290
     0
176
     1
290
     0
176
     1
290
     0
176
     1
290
     0
176
     1
290
     0
176
     1
290
     0
176
     1
 90
       50
176
     1
 40
0.0
176
     1
 40
1.0
176
     1
 90
        0
176
     1
 62
    18
420
        0
176
     1
 90
       50
176
     1
 90
        3
176
     1
 62
     5
420
      255
176
     1
290
     0
176
     1
 90
       50
176
     1
 90
       50
176
     1
 90
       50
176
     1
290
     0
176
     1
 90
       50
176
     1
 62
   256
176
     0
 40
1.0
176
     0
 90
        2
176
     1
  1
strokes_ogs.tif
176
     1
290
     0
176
     1
 40
1.0
176
     1
 40
1.0
176
     1
  0
VISUALSTYLE
  5
3B
102
{ACAD_REACTORS
330
2A
102
}
330
2A
100
AcDbVisualStyle
  2
JitterOff
 70
    20
177
     3
291
     1
 70
    58
 90
        2
176
     0
 90
        2
176
     0
 90
        0
176
     0
 90
        0
176
     0
 40
0.6
176
     0
 40
30.0
176
     0
 62
     7
420
 16777215
176
     0
 90
        1
176
     0
 90
        4
176
     0
 62
     7
176
     0
 62
   257
176
     0
 90
        1
176
     0
 90
        1
176
     0
 40
1.0
176
     0
 90
       10
176
     2
 62
     7
176
     0
 40
1.0
176
     0
 90
        1
176
     0
 90
        6
176
     0
 90
        2
176
     0
 62
     7
176
     0
 90
        5
176
     0
 90
        0
176
     0
 90
        0
176
     0
290
     0
176
     0
 90
        1
176
     0
 40
0.0
176
     0
 90
        0
176
     0
290
     0
176
     0
290
     1
176
     0
290
     1
176
     0
290
     0
176
     0
290
     0
176
     0
290
     0
176
     0
290
     0
176
     0
290
     0
176
     0
290
     0
176
     0
 90
       50
176
     0
 40
0.0
176
     0
 40
1.0
176
     0
 90
        0
176
     0
 62
    18
420
        0
176
     0
 90
       50
176
     0
 90
        3
176
     0
 62
     5
420
      255
176
     0
290
     0
176
     0
 90
       50
176
     0
 90
       50
176
     0
 90
       50
176
     0
290
     0
176
     0
 90
       50
176
     0
 62
   256
176
     0
 40
1.0
176
     0
 90
        2
176
     0
  1
strokes_ogs.tif
176
     0
290
     0
176
     0
 40
1.0
176
     0
 40
1.0
176
     0
  0
VISUALSTYLE
  5
38
102
{ACAD_REACTORS
330
2A
102
}
330
2A
100
AcDbVisualStyle
  2
Linepattern
 70
    14
177
     3
291
     1
 70
    58
 90
        2
176
     1
 90
        2
176
     1
 90
        0
176
     1
 90
        0
176
     1
 40
0.6
176
     1
 40
30.0
176
     1
 62
     7
420
 16777215
176
     1
 90
        1
176
     1
 90
        4
176
     1
 62
     7
176
     1
 62
   257
176
     1
 90
        7
176
     1
 90
        7
176
     1
 40
1.0
176
     1
 90
        8
176
     1
 62
     7
176
     1
 40
1.0
176
     1
 90
        1
176
     1
 90
        6
176
     1
 90
        2
176
     1
 62
     7
176
     1
 90
        5
176
     1
 90
        0
176
     1
 90
        0
176
     1
290
     0
176
     1
 90
        1
176
     1
 40
0.0
176
     1
 90
        0
176
     1
290
     0
176
     1
290
     1
176
     1
290
     1
176
     1
290
     0
176
     1
290
     0
176
     1
290
     0
176
     1
290
     0
176
     1
290
     0
176
     1
290
     0
176
     1
 90
       50
176
     1
 40
0.0
176
     1
 40
1.0
176
     1
 90
        0
176
     1
 62
    18
420
        0
176
     1
 90
       50
176
     1
 90
        3
176
     1
 62
     5
420
      255
176
     1
290
     0
176
     1
 90
       50
176
     1
 90
       50
176
     1
 90
       50
176
     1
290
     0
176
     1
 90
       50
176
     1
 62
   256
176
     0
 40
1.0
176
     0
 90
        2
176
     1
  1
strokes_ogs.tif
176
     1
290
     0
176
     1
 40
1.0
176
     1
 40
1.0
176
     1
  0
VISUALSTYLE
  5
3C
102
{ACAD_REACTORS
330
2A
102
}
330
2A
100
AcDbVisualStyle
  2
OverhangOff
 70
    21
177
     3
291
     1
 70
    58
 90
        2
176
     0
 90
        2
176
     0
 90
        0
176
     0
 90
        0
176
     0
 40
0.6
176
     0
 40
30.0
176
     0
 62
     7
420
 16777215
176
     0
 90
        1
176
     0
 90
        4
176
     0
 62
     7
176
     0
 62
   257
176
     0
 90
        1
176
     0
 90
        1
176
     0
 40
1.0
176
     0
 90
        9
176
     2
 62
     7
176
     0
 40
1.0
176
     0
 90
        1
176
     0
 90
        6
176
     0
 90
        2
176
     0
 62
     7
176
     0
 90
        5
176
     0
 90
        0
176
     0
 90
        0
176
     0
290
     0
176
     0
 90
        1
176
     0
 40
0.0
176
     0
 90
        0
176
     0
290
     0
176
     0
290
     1
176
     0
290
     1
176
     0
290
     0
176
     0
290
     0
176
     0
290
     0
176
     0
290
     0
176
     0
290
     0
176
     0
290
     0
176
     0
 90
       50
176
     0
 40
0.0
176
     0
 40
1.0
176
     0
 90
        0
176
     0
 62
    18
420
        0
176
     0
 90
       50
176
     0
 90
        3
176
     0
 62
     5
420
      255
176
     0
290
     0
176
     0
 90
       50
176
     0
 90
       50
176
     0
 90
       50
176
     0
290
     0
176
     0
 90
       50
176
     0
 62
   256
176
     0
 40
1.0
176
     0
 90
        2
176
     0
  1
strokes_ogs.tif
176
     0
290
     0
176
     0
 40
1.0
176
     0
 40
1.0
176
     0
  0
VISUALSTYLE
  5
33
102
{ACAD_REACTORS
330
2A
102
}
330
2A
100
AcDbVisualStyle
  2
Realistic
 70
     8
177
     3
291
     0
 70
    58
 90
        2
176
     1
 90
        3
176
     1
 90
        0
176
     1
 90
        2
176
     1
 40
0.6
176
     1
 40
30.0
176
     1
 62
     7
420
 16777215
176
     1
 90
        0
176
     1
 90
        0
176
     1
 62
     7
176
     1
 62
   257
176
     1
 90
        1
176
     1
 90
        1
176
     1
 40
1.0
176
     1
 90
        8
176
     1
 62
   257
176
     1
 40
1.0
176
     1
 90
        1
176
     1
 90
        6
176
     1
 90
        2
176
     1
 62
     7
176
     1
 90
        3
176
     1
 90
        0
176
     1
 90
        0
176
     1
290
     0
176
     1
 90
       13
176
     1
 40
0.0
176
     1
 90
        0
176
     1
290
     0
176
     1
290
     1
176
     1
290
     1
176
     1
290
     0
176
     1
290
     0
176
     1
290
     0
176
     1
290
     0
176
     1
290
     0
176
     1
290
     0
176
     1
 90
       50
176
     1
 40
0.0
176
     1
 40
1.0
176
     1
 90
        0
176
     1
 62
    18
420
        0
176
     1
 90
       50
176
     1
 90
        3
176
     1
 62
     5
420
      255
176
     1
290
     0
176
     1
 90
       50
176
     1
 90
       50
176
     1
 90
       50
176
     1
290
     0
176
     1
 90
       50
176
     1
 62
   256
176
     0
 40
1.0
176
     0
 90
        2
176
     1
  1
strokes_ogs.tif
176
     1
290
     0
176
     1
 40
1.0
176
     1
 40
1.0
176
     1
  0
VISUALSTYLE
  5
42
102
{ACAD_REACTORS
330
2A
102
}
330
2A
100
AcDbVisualStyle
  2
Shaded
 70
    27
177
     3
291
     0
 70
    58
 90
        2
176
     1
 90
        2
176
     1
 90
        1
176
     1
 90
        2
176
     1
 40
0.6
176
     1
 40
30.0
176
     1
 62
     7
420
 16777215
176
     1
 90
        0
176
     1
 90
        4
176
     1
 62
     7
176
     1
 62
   257
176
     1
 90
        1
176
     1
 90
        1
176
     1
 40
1.0
176
     1
 90
        8
176
     1
 62
   257
176
     1
 40
1.0
176
     1
 90
        1
176
     1
 90
        6
176
     1
 90
        2
176
     1
 62
     8
420
  7895160
176
     1
 90
        3
176
     1
 90
        0
176
     1
 90
        0
176
     1
290
     0
176
     1
 90
        5
176
     1
 40
0.0
176
     1
 90
        0
176
     1
290
     0
176
     1
290
     1
176
     1
290
     1
176
     1
290
     0
176
     1
290
     0
176
     1
290
     0
176
     1
290
     0
176
     1
290
     0
176
     1
290
     0
176
     1
 90
       50
176
     1
 40
0.0
176
     1
 40
1.0
176
     1
 90
        0
176
     1
 62
    18
420
        0
176
     1
 90
       50
176
     1
 90
        3
176
     1
 62
     5
420
      255
176
     1
290
     0
176
     1
 90
       50
176
     1
 90
       50
176
     1
 90
       50
176
     1
290
     0
176
     1
 90
       50
176
     1
 62
   256
176
     0
 40
1.0
176
     0
 90
        2
176
     1
  1
strokes_ogs.tif
176
     1
290
     0
176
     1
 40
1.0
176
     1
 40
1.0
176
     1
  0
VISUALSTYLE
  5
41
102
{ACAD_REACTORS
330
2A
102
}
330
2A
100
AcDbVisualStyle
  2
Shaded with edges
 70
    26
177
     3
291
     0
 70
    58
 90
        2
176
     1
 90
        2
176
     1
 90
        1
176
     1
 90
        2
176
     1
 40
0.6
176
     1
 40
30.0
176
     1
 62
     7
420
 16777215
176
     1
 90
        1
176
     1
 90
       10
176
     1
 62
     7
176
     1
 62
   257
176
     1
 90
        2
176
     1
 90
        1
176
     1
 40
1.0
176
     1
 90
        8
176
     1
 62
   257
176
     1
 40
1.0
176
     1
 90
        1
176
     1
 90
        6
176
     1
 90
        2
176
     1
 62
     7
176
     1
 90
        3
176
     1
 90
        0
176
     1
 90
        0
176
     1
290
     0
176
     1
 90
        5
176
     1
 40
0.0
176
     1
 90
        0
176
     1
290
     0
176
     1
290
     1
176
     1
290
     1
176
     1
290
     0
176
     1
290
     0
176
     1
290
     0
176
     1
290
     0
176
     1
290
     0
176
     1
290
     0
176
     1
 90
       50
176
     1
 40
0.0
176
     1
 40
1.0
176
     1
 90
        0
176
     1
 62
    18
420
        0
176
     1
 90
       50
176
     1
 90
        3
176
     1
 62
     5
420
      255
176
     1
290
     0
176
     1
 90
       50
176
     1
 90
       50
176
     1
 90
       50
176
     1
290
     0
176
     1
 90
       50
176
     1
 62
   256
176
     0
 40
1.0
176
     0
 90
        2
176
     1
  1
strokes_ogs.tif
176
     1
290
     0
176
     1
 40
1.0
176
     1
 40
1.0
176
     1
  0
VISUALSTYLE
  5
3E
102
{ACAD_REACTORS
330
2A
102
}
330
2A
100
AcDbVisualStyle
  2
Shades of Gray
 70
    23
177
     3
291
     0
 70
    58
 90
        2
176
     1
 90
        2
176
     1
 90
        3
176
     1
 90
        0
176
     1
 40
0.6
176
     1
 40
30.0
176
     1
 62
     7
420
 16777215
176
     1
 90
        2
176
     1
 90
        2
176
     1
 62
     7
176
     1
 62
     7
176
     1
 90
        1
176
     1
 90
        1
176
     1
 40
40.0
176
     1
 90
        8
176
     1
 62
     7
176
     1
 40
1.0
176
     1
 90
        1
176
     1
 90
        6
176
     1
 90
        2
176
     1
 62
     7
176
     1
 90
        3
176
     1
 90
        0
176
     1
 90
        0
176
     1
290
     0
176
     1
 90
        1
176
     1
 40
0.0
176
     1
 90
        0
176
     1
290
     0
176
     1
290
     1
176
     1
290
     1
176
     1
290
     0
176
     1
290
     0
176
     1
290
     0
176
     1
290
     0
176
     1
290
     0
176
     1
290
     0
176
     1
 90
       50
176
     1
 40
0.0
176
     1
 40
1.0
176
     1
 90
        0
176
     1
 62
    18
420
        0
176
     1
 90
       50
176
     1
 90
        3
176
     1
 62
     5
420
      255
176
     1
290
     0
176
     1
 90
       50
176
     1
 90
       50
176
     1
 90
       50
176
     1
290
     0
176
     1
 90
       50
176
     1
 62
   256
176
     0
 40
1.0
176
     0
 90
        2
176
     1
  1
strokes_ogs.tif
176
     1
290
     0
176
     1
 40
1.0
176
     1
 40
1.0
176
     1
  0
VISUALSTYLE
  5
3F
102
{ACAD_REACTORS
330
2A
102
}
330
2A
100
AcDbVisualStyle
  2
Sketchy
 70
    24
177
     3
291
     0
 70
    58
 90
        1
176
     1
 90
        2
176
     1
 90
        2
176
     1
 90
        0
176
     1
 40
0.6
176
     1
 40
30.0
176
     1
 62
     7
420
 16777215
176
     1
 90
        2
176
     1
 90
        2
176
     1
 62
     7
176
     1
 62
     7
176
     1
 90
        1
176
     1
 90
        1
176
     1
 40
40.0
176
     1
 90
       11
176
     1
 62
     7
176
     1
 40
1.0
176
     1
 90
        1
176
     1
 90
        6
176
     1
 90
        2
176
     1
 62
     7
176
     1
 90
        6
176
     1
 90
        0
176
     1
 90
        0
176
     1
290
     0
176
     1
 90
        1
176
     1
 40
0.0
176
     1
 90
        0
176
     1
290
     0
176
     1
290
     1
176
     1
290
     1
176
     1
290
     0
176
     1
290
     0
176
     1
290
     0
176
     1
290
     0
176
     1
290
     0
176
     1
290
     0
176
     1
 90
       50
176
     1
 40
0.0
176
     1
 40
1.0
176
     1
 90
        0
176
     1
 62
    18
420
        0
176
     1
 90
       50
176
     1
 90
        3
176
     1
 62
     5
420
      255
176
     1
290
     0
176
     1
 90
       50
176
     1
 90
       50
176
     1
 90
       50
176
     1
290
     0
176
     1
 90
       50
176
     1
 62
   256
176
     0
 40
1.0
176
     0
 90
        2
176
     1
  1
strokes_ogs.tif
176
     1
290
     0
176
     1
 40
1.0
176
     1
 40
1.0
176
     1
  0
VISUALSTYLE
  5
37
102
{ACAD_REACTORS
330
2A
102
}
330
2A
100
AcDbVisualStyle
  2
Thicken
 70
    13
177
     3
291
     1
 70
    58
 90
        2
176
     1
 90
        2
176
     1
 90
        0
176
     1
 90
        0
176
     1
 40
0.6
176
     1
 40
30.0
176
     1
 62
     7
420
 16777215
176
     1
 90
        1
176
     1
 90
        4
176
     1
 62
     7
176
     1
 62
   257
176
     1
 90
        1
176
     1
 90
        1
176
     1
 40
1.0
176
     1
 90
       12
176
     1
 62
     7
176
     1
 40
1.0
176
     1
 90
        1
176
     1
 90
        6
176
     1
 90
        2
176
     1
 62
     7
176
     1
 90
        5
176
     1
 90
        0
176
     1
 90
        0
176
     1
290
     0
176
     1
 90
        1
176
     1
 40
0.0
176
     1
 90
        0
176
     1
290
     0
176
     1
290
     1
176
     1
290
     1
176
     1
290
     0
176
     1
290
     0
176
     1
290
     0
176
     1
290
     0
176
     1
290
     0
176
     1
290
     0
176
     1
 90
       50
176
     1
 40
0.0
176
     1
 40
1.0
176
     1
 90
        0
176
     1
 62
    18
420
        0
176
     1
 90
       50
176
     1
 90
        3
176
     1
 62
     5
420
      255
176
     1
290
     0
176
     1
 90
       50
176
     1
 90
       50
176
     1
 90
       50
176
     1
290
     0
176
     1
 90
       50
176
     1
 62
   256
176
     0
 40
1.0
176
     0
 90
        2
176
     1
  1
strokes_ogs.tif
176
     1
290
     0
176
     1
 40
1.0
176
     1
 40
1.0
176
     1
  0
VISUALSTYLE
  5
30
102
{ACAD_REACTORS
330
2A
102
}
330
2A
100
AcDbVisualStyle
  2
Wireframe
 70
     5
177
     3
291
     0
 70
    58
 90
        0
176
     1
 90
        2
176
     1
 90
        0
176
     1
 90
        0
176
     1
 40
0.6
176
     1
 40
30.0
176
     1
 62
     7
420
 16777215
176
     1
 90
        1
176
     1
 90
        4
176
     1
 62
     7
176
     1
 62
   257
176
     1
 90
        1
176
     1
 90
        1
176
     1
 40
1.0
176
     1
 90
        0
176
     1
 62
   257
176
     1
 40
1.0
176
     1
 90
        1
176
     1
 90
        6
176
     1
 90
        2
176
     1
 62
     7
176
     1
 90
        3
176
     1
 90
        0
176
     1
 90
        0
176
     1
290
     0
176
     1
 90
        1
176
     1
 40
0.0
176
     1
 90
        0
176
     1
290
     0
176
     1
290
     1
176
     1
290
     1
176
     1
290
     0
176
     1
290
     0
176
     1
290
     0
176
     1
290
     0
176
     1
290
     0
176
     1
290
     0
176
     1
 90
       50
176
     1
 40
0.0
176
     1
 40
1.0
176
     1
 90
        0
176
     1
 62
    18
420
        0
176
     1
 90
       50
176
     1
 90
        3
176
     1
 62
     5
420
      255
176
     1
290
     0
176
     1
 90
       50
176
     1
 90
       50
176
     1
 90
       50
176
     1
290
     0
176
     1
 90
       50
176
     1
 62
   256
176
     0
 40
1.0
176
     0
 90
        2
176
     1
  1
strokes_ogs.tif
176
     1
290
     0
176
     1
 40
1.0
176
     1
 40
1.0
176
     1
  0
VISUALSTYLE
  5
40
102
{ACAD_REACTORS
330
2A
102
}
330
2A
100
AcDbVisualStyle
  2
X-Ray
 70
    25
177
     3
291
     0
 70
    58
 90
        2
176
     1
 90
        2
176
     1
 90
        1
176
     1
 90
        1
176
     1
 40
0.5
176
     1
 40
30.0
176
     1
 62
     7
420
 16777215
176
     1
 90
        1
176
     1
 90
        0
176
     1
 62
     7
176
     1
 62
   257
176
     1
 90
        1
176
     1
 90
        1
176
     1
 40
1.0
176
     1
 90
        8
176
     1
 62
     7
176
     1
 40
1.0
176
     1
 90
        1
176
     1
 90
        6
176
     1
 90
        2
176
     1
 62
     7
176
     1
 90
        3
176
     1
 90
        0
176
     1
 90
        0
176
     1
290
     0
176
     1
 90
       13
176
     1
 40
0.0
176
     1
 90
        0
176
     1
290
     0
176
     1
290
     1
176
     1
290
     1
176
     1
290
     0
176
     1
290
     0
176
     1
290
     0
176
     1
290
     0
176
     1
290
     0
176
     1
290
     0
176
     1
 90
       50
176
     1
 40
0.0
176
     1
 40
1.0
176
     1
 90
        0
176
     1
 62
    18
420
        0
176
     1
 90
       50
176
     1
 90
        3
176
     1
 62
     5
420
      255
176
     1
290
     0
176
     1
 90
       50
176
     1
 90
       50
176
     1
 90
       50
176
     1
290
     0
176
     1
 90
       50
176
     1
 62
   256
176
     0
 40
1.0
176
     0
 90
        2
176
     1
  1
strokes_ogs.tif
176
     1
290
     0
176
     1
 40
1.0
176
     1
 40
1.0
176
     1
  0
DICTIONARYVAR
  5
439
102
{ACAD_REACTORS
330
438
102
}
330
438
100
DictionaryVariables
280
     0
  1
1:1
  0
DICTIONARYVAR
  5
43E
102
{ACAD_REACTORS
330
438
102
}
330
438
100
DictionaryVariables
280
     0
  1
Standard
  0
DICTIONARYVAR
  5
43D
102
{ACAD_REACTORS
330
438
102
}
330
438
100
DictionaryVariables
280
     0
  1
Standard
  0
DICTIONARYVAR
  5
441
102
{ACAD_REACTORS
330
438
102
}
330
438
100
DictionaryVariables
280
     0
  1
0
  0
DICTIONARY
  5
43A
330
6A
100
AcDbDictionary
280
     1
281
     1
  3
ACAD_ROUNDTRIP_2008_TABLESTYLE_CELLSTYLEMAP
360
43B
  0
CELLSTYLEMAP
  5
43B
102
{ACAD_REACTORS
330
43A
102
}
330
43A
100
AcDbCellStyleMap
 90
        3
300
CELLSTYLE
  1
TABLEFORMAT_BEGIN
 90
        5
170
     1
 91
        0
 92
    32768
 62
   257
 93
        1
300
CONTENTFORMAT
  1
CONTENTFORMAT_BEGIN
 90
        0
 91
        0
 92
        4
 93
        0
300

 40
0.0
140
1.0
 94
        5
 62
     0
340
11
144
0.25
309
CONTENTFORMAT_END
171
     1
301
MARGIN
  1
CELLMARGIN_BEGIN
 40
0.06
 40
0.06
 40
0.06
 40
0.06
 40
0.06
 40
0.06
309
CELLMARGIN_END
 94
        6
 95
        1
302
GRIDFORMAT
  1
GRIDFORMAT_BEGIN
 90
        0
 91
        1
 62
     0
 92
       -2
340
14
 93
        0
 40
0.045
309
GRIDFORMAT_END
 95
        2
302
GRIDFORMAT
  1
GRIDFORMAT_BEGIN
 90
        0
 91
        1
 62
     0
 92
       -2
340
14
 93
        0
 40
0.045
309
GRIDFORMAT_END
 95
        4
302
GRIDFORMAT
  1
GRIDFORMAT_BEGIN
 90
        0
 91
        1
 62
     0
 92
       -2
340
14
 93
        0
 40
0.045
309
GRIDFORMAT_END
 95
        8
302
GRIDFORMAT
  1
GRIDFORMAT_BEGIN
 90
        0
 91
        1
 62
     0
 92
       -2
340
14
 93
        0
 40
0.045
309
GRIDFORMAT_END
 95
       16
302
GRIDFORMAT
  1
GRIDFORMAT_BEGIN
 90
        0
 91
        1
 62
     0
 92
       -2
340
14
 93
        0
 40
0.045
309
GRIDFORMAT_END
 95
       32
302
GRIDFORMAT
  1
GRIDFORMAT_BEGIN
 90
        0
 91
        1
 62
     0
 92
       -2
340
14
 93
        0
 40
0.045
309
GRIDFORMAT_END
309
TABLEFORMAT_END
  1
CELLSTYLE_BEGIN
 90
        1
 91
        1
300
_TITLE
309
CELLSTYLE_END
300
CELLSTYLE
  1
TABLEFORMAT_BEGIN
 90
        5
170
     1
 91
        0
 92
        0
 62
   257
 93
        1
300
CONTENTFORMAT
  1
CONTENTFORMAT_BEGIN
 90
        0
 91
        0
 92
        4
 93
        0
300

 40
0.0
140
1.0
 94
        5
 62
     0
340
11
144
0.18
309
CONTENTFORMAT_END
171
     1
301
MARGIN
  1
CELLMARGIN_BEGIN
 40
0.06
 40
0.06
 40
0.06
 40
0.06
 40
0.06
 40
0.06
309
CELLMARGIN_END
 94
        6
 95
        1
302
GRIDFORMAT
  1
GRIDFORMAT_BEGIN
 90
        0
 91
        1
 62
     0
 92
       -2
340
14
 93
        0
 40
0.045
309
GRIDFORMAT_END
 95
        2
302
GRIDFORMAT
  1
GRIDFORMAT_BEGIN
 90
        0
 91
        1
 62
     0
 92
       -2
340
14
 93
        0
 40
0.045
309
GRIDFORMAT_END
 95
        4
302
GRIDFORMAT
  1
GRIDFORMAT_BEGIN
 90
        0
 91
        1
 62
     0
 92
       -2
340
14
 93
        0
 40
0.045
309
GRIDFORMAT_END
 95
        8
302
GRIDFORMAT
  1
GRIDFORMAT_BEGIN
 90
        0
 91
        1
 62
     0
 92
       -2
340
14
 93
        0
 40
0.045
309
GRIDFORMAT_END
 95
       16
302
GRIDFORMAT
  1
GRIDFORMAT_BEGIN
 90
        0
 91
        1
 62
     0
 92
       -2
340
14
 93
        0
 40
0.045
309
GRIDFORMAT_END
 95
       32
302
GRIDFORMAT
  1
GRIDFORMAT_BEGIN
 90
        0
 91
        1
 62
     0
 92
       -2
340
14
 93
        0
 40
0.045
309
GRIDFORMAT_END
309
TABLEFORMAT_END
  1
CELLSTYLE_BEGIN
 90
        2
 91
        1
300
_HEADER
309
CELLSTYLE_END
300
CELLSTYLE
  1
TABLEFORMAT_BEGIN
 90
        5
170
     1
 91
        0
 92
        0
 62
   257
 93
        1
300
CONTENTFORMAT
  1
CONTENTFORMAT_BEGIN
 90
        0
 91
        0
 92
        4
 93
        0
300

 40
0.0
140
1.0
 94
        2
 62
     0
340
11
144
0.18
309
CONTENTFORMAT_END
171
     1
301
MARGIN
  1
CELLMARGIN_BEGIN
 40
0.06
 40
0.06
 40
0.06
 40
0.06
 40
0.06
 40
0.06
309
CELLMARGIN_END
 94
        6
 95
        1
302
GRIDFORMAT
  1
GRIDFORMAT_BEGIN
 90
        0
 91
        1
 62
     0
 92
       -2
340
14
 93
        0
 40
0.045
309
GRIDFORMAT_END
 95
        2
302
GRIDFORMAT
  1
GRIDFORMAT_BEGIN
 90
        0
 91
        1
 62
     0
 92
       -2
340
14
 93
        0
 40
0.045
309
GRIDFORMAT_END
 95
        4
302
GRIDFORMAT
  1
GRIDFORMAT_BEGIN
 90
        0
 91
        1
 62
     0
 92
       -2
340
14
 93
        0
 40
0.045
309
GRIDFORMAT_END
 95
        8
302
GRIDFORMAT
  1
GRIDFORMAT_BEGIN
 90
        0
 91
        1
 62
     0
 92
       -2
340
14
 93
        0
 40
0.045
309
GRIDFORMAT_END
 95
       16
302
GRIDFORMAT
  1
GRIDFORMAT_BEGIN
 90
        0
 91
        1
 62
     0
 92
       -2
340
14
 93
        0
 40
0.045
309
GRIDFORMAT_END
 95
       32
302
GRIDFORMAT
  1
GRIDFORMAT_BEGIN
 90
        0
 91
        1
 62
     0
 92
       -2
340
14
 93
        0
 40
0.045
309
GRIDFORMAT_END
309
TABLEFORMAT_END
  1
CELLSTYLE_BEGIN
 90
        3
 91
        2
300
_DATA
309
CELLSTYLE_END
  0
ENDSEC
  0
EOF
