  0
SECTION
  2
HEADER
  9
$ACADVER
  1
AC1027
  9
$ACADMAINTVER
 70
   105
  9
$DWGCODEPAGE
  3
ANSI_1252
  9
$REQUIREDVERSIONS
160
                 0
  9
$INSBASE
 10
0.0
 20
0.0
 30
0.0
  9
$EXTMIN
 10
5818.30034309757
 20
557.8407142404321
 30
0.0
  9
$EXTMAX
 10
6212.30034309757
 20
1099.840714240432
 30
0.0
  9
$LIMMIN
 10
0.0
 20
0.0
  9
$LIMMAX
 10
12.0
 20
9.0
  9
$ORTHOMODE
 70
     0
  9
$REGENMODE
 70
     1
  9
$FILLMODE
 70
     1
  9
$QTEXTMODE
 70
     0
  9
$MIRRTEXT
 70
     1
  9
$LTSCALE
 40
2.0
  9
$ATTMODE
 70
     1
  9
$TEXTSIZE
 40
0.2
  9
$TRACEWID
 40
0.05
  9
$TEXTSTYLE
  7
Standard
  9
$CLAYER
  8
0
  9
$CELTYPE
  6
ByLayer
  9
$CECOLOR
 62
   256
  9
$CELTSCALE
 40
1.0
  9
$DISPSILH
 70
     0
  9
$DIMSCALE
 40
1.0
  9
$DIMASZ
 40
0.18
  9
$DIMEXO
 40
0.0625
  9
$DIMDLI
 40
0.38
  9
$DIMRND
 40
0.0
  9
$DIMDLE
 40
0.0
  9
$DIMEXE
 40
0.18
  9
$DIMTP
 40
0.0
  9
$DIMTM
 40
0.0
  9
$DIMTXT
 40
0.18
  9
$DIMCEN
 40
0.09
  9
$DIMTSZ
 40
0.0
  9
$DIMTOL
 70
     0
  9
$DIMLIM
 70
     0
  9
$DIMTIH
 70
     1
  9
$DIMTOH
 70
     1
  9
$DIMSE1
 70
     0
  9
$DIMSE2
 70
     0
  9
$DIMTAD
 70
     0
  9
$DIMZIN
 70
     0
  9
$DIMBLK
  1

  9
$DIMASO
 70
     1
  9
$DIMSHO
 70
     1
  9
$DIMPOST
  1

  9
$DIMAPOST
  1

  9
$DIMALT
 70
     0
  9
$DIMALTD
 70
     2
  9
$DIMALTF
 40
25.4
  9
$DIMLFAC
 40
1.0
  9
$DIMTOFL
 70
     1
  9
$DIMTVP
 40
0.0
  9
$DIMTIX
 70
     0
  9
$DIMSOXD
 70
     1
  9
$DIMSAH
 70
     0
  9
$DIMBLK1
  1

  9
$DIMBLK2
  1

  9
$DIMSTYLE
  2
Standard
  9
$DIMCLRD
 70
     0
  9
$DIMCLRE
 70
     0
  9
$DIMCLRT
 70
     0
  9
$DIMTFAC
 40
1.0
  9
$DIMGAP
 40
0.09
  9
$DIMJUST
 70
     0
  9
$DIMSD1
 70
     0
  9
$DIMSD2
 70
     0
  9
$DIMTOLJ
 70
     1
  9
$DIMTZIN
 70
     0
  9
$DIMALTZ
 70
     0
  9
$DIMALTTZ
 70
     0
  9
$DIMUPT
 70
     0
  9
$DIMDEC
 70
     4
  9
$DIMTDEC
 70
     4
  9
$DIMALTU
 70
     2
  9
$DIMALTTD
 70
     2
  9
$DIMTXSTY
  7
Standard
  9
$DIMAUNIT
 70
     0
  9
$DIMADEC
 70
     0
  9
$DIMALTRND
 40
0.0
  9
$DIMAZIN
 70
     0
  9
$DIMDSEP
 70
    46
  9
$DIMATFIT
 70
     3
  9
$DIMFRAC
 70
     0
  9
$DIMLDRBLK
  1

  9
$DIMLUNIT
 70
     2
  9
$DIMLWD
 70
    -2
  9
$DIMLWE
 70
    -2
  9
$DIMTMOVE
 70
     2
  9
$DIMFXL
 40
1.0
  9
$DIMFXLON
 70
     0
  9
$DIMJOGANG
 40
0.7853981633974483
  9
$DIMTFILL
 70
     0
  9
$DIMTFILLCLR
 70
     0
  9
$DIMARCSYM
 70
     0
  9
$DIMLTYPE
  6

  9
$DIMLTEX1
  6

  9
$DIMLTEX2
  6

  9
$DIMTXTDIRECTION
 70
     0
  9
$LUNITS
 70
     2
  9
$LUPREC
 70
     4
  9
$SKETCHINC
 40
0.1
  9
$FILLETRAD
 40
0.5
  9
$AUNITS
 70
     0
  9
$AUPREC
 70
     0
  9
$MENU
  1
.
  9
$ELEVATION
 40
0.0
  9
$PELEVATION
 40
0.0
  9
$THICKNESS
 40
0.0
  9
$LIMCHECK
 70
     0
  9
$CHAMFERA
 40
0.0
  9
$CHAMFERB
 40
0.0
  9
$CHAMFERC
 40
0.0
  9
$CHAMFERD
 40
0.0
  9
$SKPOLY
 70
     0
  9
$TDCREATE
 40
2459198.745873391
  9
$TDUCREATE
 40
2459198.704206725
  9
$TDUPDATE
 40
2459198.745875486
  9
$TDUUPDATE
 40
2459198.70420882
  9
$TDINDWG
 40
0.0000000116
  9
$TDUSRTIMER
 40
0.0000000116
  9
$USRTIMER
 70
     1
  9
$ANGBASE
 50
0.0
  9
$ANGDIR
 70
     0
  9
$PDMODE
 70
     0
  9
$PDSIZE
 40
0.0
  9
$PLINEWID
 40
0.0
  9
$SPLFRAME
 70
     0
  9
$SPLINETYPE
 70
     6
  9
$SPLINESEGS
 70
     8
  9
$HANDSEED
  5
417
  9
$SURFTAB1
 70
     6
  9
$SURFTAB2
 70
     6
  9
$SURFTYPE
 70
     6
  9
$SURFU
 70
     6
  9
$SURFV
 70
     6
  9
$UCSBASE
  2

  9
$UCSNAME
  2

  9
$UCSORG
 10
0.0
 20
0.0
 30
0.0
  9
$UCSXDIR
 10
1.0
 20
0.0
 30
0.0
  9
$UCSYDIR
 10
0.0
 20
1.0
 30
0.0
  9
$UCSORTHOREF
  2

  9
$UCSORTHOVIEW
 70
     0
  9
$UCSORGTOP
 10
0.0
 20
0.0
 30
0.0
  9
$UCSORGBOTTOM
 10
0.0
 20
0.0
 30
0.0
  9
$UCSORGLEFT
 10
0.0
 20
0.0
 30
0.0
  9
$UCSORGRIGHT
 10
0.0
 20
0.0
 30
0.0
  9
$UCSORGFRONT
 10
0.0
 20
0.0
 30
0.0
  9
$UCSORGBACK
 10
0.0
 20
0.0
 30
0.0
  9
$PUCSBASE
  2

  9
$PUCSNAME
  2

  9
$PUCSORG
 10
0.0
 20
0.0
 30
0.0
  9
$PUCSXDIR
 10
1.0
 20
0.0
 30
0.0
  9
$PUCSYDIR
 10
0.0
 20
1.0
 30
0.0
  9
$PUCSORTHOREF
  2

  9
$PUCSORTHOVIEW
 70
     0
  9
$PUCSORGTOP
 10
0.0
 20
0.0
 30
0.0
  9
$PUCSORGBOTTOM
 10
0.0
 20
0.0
 30
0.0
  9
$PUCSORGLEFT
 10
0.0
 20
0.0
 30
0.0
  9
$PUCSORGRIGHT
 10
0.0
 20
0.0
 30
0.0
  9
$PUCSORGFRONT
 10
0.0
 20
0.0
 30
0.0
  9
$PUCSORGBACK
 10
0.0
 20
0.0
 30
0.0
  9
$USERI1
 70
     0
  9
$USERI2
 70
     0
  9
$USERI3
 70
     0
  9
$USERI4
 70
     0
  9
$USERI5
 70
     0
  9
$USERR1
 40
0.0
  9
$USERR2
 40
0.0
  9
$USERR3
 40
0.0
  9
$USERR4
 40
0.0
  9
$USERR5
 40
0.0
  9
$WORLDVIEW
 70
     1
  9
$SHADEDGE
 70
     3
  9
$SHADEDIF
 70
    70
  9
$TILEMODE
 70
     1
  9
$MAXACTVP
 70
    64
  9
$PINSBASE
 10
0.0
 20
0.0
 30
0.0
  9
$PLIMCHECK
 70
     0
  9
$PEXTMIN
 10
0.0
 20
0.0
 30
0.0
  9
$PEXTMAX
 10
197.6
 20
271.5999999999964
 30
0.0
  9
$PLIMMIN
 10
-20.0
 20
-7.5
  9
$PLIMMAX
 10
277.0
 20
202.5
  9
$UNITMODE
 70
     0
  9
$VISRETAIN
 70
     1
  9
$PLINEGEN
 70
     0
  9
$PSLTSCALE
 70
     0
  9
$TREEDEPTH
 70
  3020
  9
$CMLSTYLE
  2
Standard
  9
$CMLJUST
 70
     0
  9
$CMLSCALE
 40
1.0
  9
$PROXYGRAPHICS
 70
     1
  9
$MEASUREMENT
 70
     1
  9
$CELWEIGHT
370
    -1
  9
$ENDCAPS
280
     0
  9
$JOINSTYLE
280
     0
  9
$LWDISPLAY
290
     0
  9
$INSUNITS
 70
     4
  9
$HYPERLINKBASE
  1

  9
$STYLESHEET
  1

  9
$XEDIT
290
     1
  9
$CEPSNTYPE
380
     0
  9
$PSTYLEMODE
290
     0
  9
$FINGERPRINTGUID
  2
{559C97CB-2AA4-4ADF-9989-0DDFF6ABC789}
  9
$VERSIONGUID
  2
{FAEB1C32-E019-11D5-929B-00C0DF256EC4}
  9
$EXTNAMES
290
     1
  9
$PSVPSCALE
 40
0.0
  9
$OLESTARTUP
290
     0
  9
$SORTENTS
280
   127
  9
$INDEXCTL
280
     0
  9
$HIDETEXT
280
     1
  9
$XCLIPFRAME
280
     2
  9
$HALOGAP
280
     0
  9
$OBSCOLOR
 70
   257
  9
$OBSLTYPE
280
     0
  9
$INTERSECTIONDISPLAY
280
     0
  9
$INTERSECTIONCOLOR
 70
   257
  9
$DIMASSOC
280
     2
  9
$PROJECTNAME
  1

  9
$CAMERADISPLAY
290
     0
  9
$LENSLENGTH
 40
50.0
  9
$CAMERAHEIGHT
 40
0.0
  9
$STEPSPERSEC
 40
2.0
  9
$STEPSIZE
 40
6.0
  9
$3DDWFPREC
 40
2.0
  9
$PSOLWIDTH
 40
0.25
  9
$PSOLHEIGHT
 40
4.0
  9
$LOFTANG1
 40
1.570796326794897
  9
$LOFTANG2
 40
1.570796326794897
  9
$LOFTMAG1
 40
0.0
  9
$LOFTMAG2
 40
0.0
  9
$LOFTPARAM
 70
     7
  9
$LOFTNORMALS
280
     1
  9
$LATITUDE
 40
37.795
  9
$LONGITUDE
 40
-122.394
  9
$NORTHDIRECTION
 40
0.0
  9
$TIMEZONE
 70
 -8000
  9
$LIGHTGLYPHDISPLAY
280
     1
  9
$TILEMODELIGHTSYNCH
280
     1
  9
$CMATERIAL
347
44
  9
$SOLIDHIST
280
     0
  9
$SHOWHIST
280
     1
  9
$DWFFRAME
280
     2
  9
$DGNFRAME
280
     2
  9
$REALWORLDSCALE
290
     1
  9
$INTERFERECOLOR
 62
   256
  9
$CSHADOW
280
     0
  9
$SHADOWPLANELOCATION
 40
0.0
  0
ENDSEC
  0
SECTION
  2
CLASSES
  0
CLASS
  1
ACDBDICTIONARYWDFLT
  2
AcDbDictionaryWithDefault
  3
ObjectDBX Classes
 90
        0
 91
        3
280
     0
281
     0
  0
CLASS
  1
VISUALSTYLE
  2
AcDbVisualStyle
  3
ObjectDBX Classes
 90
     4095
 91
        3
280
     0
281
     0
  0
CLASS
  1
MATERIAL
  2
AcDbMaterial
  3
ObjectDBX Classes
 90
     1153
 91
        3
280
     0
281
     0
  0
CLASS
  1
SCALE
  2
AcDbScale
  3
ObjectDBX Classes
 90
     1153
 91
        3
280
     0
281
     0
  0
CLASS
  1
TABLESTYLE
  2
AcDbTableStyle
  3
ObjectDBX Classes
 90
     4095
 91
        3
280
     0
281
     0
  0
CLASS
  1
MLEADERSTYLE
  2
AcDbMLeaderStyle
  3
ACDB_MLEADERSTYLE_CLASS
 90
     4095
 91
        3
280
     0
281
     0
  0
CLASS
  1
SUN
  2
AcDbSun
  3
SCENEOE
 90
     1153
 91
        3
280
     0
281
     0
  0
CLASS
  1
RASTERVARIABLES
  2
AcDbRasterVariables
  3
ISM
 90
        0
 91
        3
280
     0
281
     0
  0
CLASS
  1
PLOTSETTINGS
  2
AcDbPlotSettings
  3
ObjectDBX Classes
 90
        0
 91
        3
280
     0
281
     0
  0
CLASS
  1
IMAGEDEF
  2
AcDbRasterImageDef
  3
ISM
 90
        0
 91
        3
280
     0
281
     0
  0
CLASS
  1
IMAGE
  2
AcDbRasterImage
  3
ISM
 90
      127
 91
        4
280
     0
281
     1
  0
CLASS
  1
IMAGEDEF_REACTOR
  2
AcDbRasterImageDefReactor
  3
ISM
 90
        1
 91
        3
280
     0
281
     0
  0
CLASS
  1
DICTIONARYVAR
  2
AcDbDictionaryVar
  3
ObjectDBX Classes
 90
        0
 91
        3
280
     0
281
     0
  0
CLASS
  1
CELLSTYLEMAP
  2
AcDbCellStyleMap
  3
ObjectDBX Classes
 90
     1152
 91
        3
280
     0
281
     0
  0
ENDSEC
  0
SECTION
  2
TABLES
  0
TABLE
  2
VPORT
  5
8
330
0
100
AcDbSymbolTable
 70
     1
  0
VPORT
  5
29
330
8
100
AcDbSymbolTableRecord
100
AcDbViewportTableRecord
  2
*Active
 70
     0
 10
0.0
 20
0.0
 11
1.0
 21
1.0
 12
10.42990654205607
 22
4.5
 13
0.0
 23
0.0
 14
0.5
 24
0.5
 15
0.5
 25
0.5
 16
0.0
 26
0.0
 36
1.0
 17
0.0
 27
0.0
 37
0.0
 40
9.0
 41
1.972972972850329
 42
50.0
 43
0.0
 44
0.0
 50
0.0
 51
0.0
 71
     0
 72
   100
 73
     1
 74
     3
 75
     0
 76
     0
 77
     0
 78
     0
281
     0
 65
     1
110
0.0
120
0.0
130
0.0
111
1.0
121
0.0
131
0.0
112
0.0
122
1.0
132
0.0
 79
     0
146
0.0
348
2F
 60
     3
 61
     5
292
     1
282
     1
141
0.0
142
0.0
 63
   250
361
6D
  0
ENDTAB
  0
TABLE
  2
LTYPE
  5
5
330
0
100
AcDbSymbolTable
 70
     2
  0
LTYPE
  5
14
330
5
100
AcDbSymbolTableRecord
100
AcDbLinetypeTableRecord
  2
ByBlock
 70
     0
  3

 72
    65
 73
     0
 40
0.0
  0
LTYPE
  5
15
330
5
100
AcDbSymbolTableRecord
100
AcDbLinetypeTableRecord
  2
ByLayer
 70
     0
  3

 72
    65
 73
     0
 40
0.0
  0
LTYPE
  5
16
330
5
100
AcDbSymbolTableRecord
100
AcDbLinetypeTableRecord
  2
Continuous
 70
     0
  3
Solid line
 72
    65
 73
     0
 40
0.0
  0
LTYPE
  5
191
330
5
100
AcDbSymbolTableRecord
100
AcDbLinetypeTableRecord
  2
CADWORK_3
 70
     0
  3

 72
    65
 73
     2
 40
4.0
 49
2.0
 74
     0
 49
-2.0
 74
     0
  0
ENDTAB
  0
TABLE
  2
LAYER
  5
2
330
0
100
AcDbSymbolTable
 70
    33
  0
LAYER
  5
10
330
2
100
AcDbSymbolTableRecord
100
AcDbLayerTableRecord
  2
0
 70
     0
 62
     7
  6
Continuous
370
    -3
390
F
347
46
348
0
  0
LAYER
  5
70
330
2
100
AcDbSymbolTableRecord
100
AcDbLayerTableRecord
  2
Standard
 70
     0
 62
     7
  6
Continuous
370
    -3
390
F
347
46
348
0
  0
LAYER
  5
71
330
2
100
AcDbSymbolTableRecord
100
AcDbLayerTableRecord
  2
Ech.1_1
 70
     0
 62
     7
  6
Continuous
370
    -3
390
F
347
46
348
0
  0
LAYER
  5
72
330
2
100
AcDbSymbolTableRecord
100
AcDbLayerTableRecord
  2
Ech.1_2
 70
     0
 62
     7
  6
Continuous
370
    -3
390
F
347
46
348
0
  0
LAYER
  5
73
330
2
100
AcDbSymbolTableRecord
100
AcDbLayerTableRecord
  2
Ech.1_5
 70
     0
 62
     7
  6
Continuous
370
    -3
390
F
347
46
348
0
  0
LAYER
  5
74
330
2
100
AcDbSymbolTableRecord
100
AcDbLayerTableRecord
  2
Ech.1_10
 70
     0
 62
     7
  6
Continuous
370
    -3
390
F
347
46
348
0
  0
LAYER
  5
75
330
2
100
AcDbSymbolTableRecord
100
AcDbLayerTableRecord
  2
Ech.1_20
 70
     0
 62
     7
  6
Continuous
370
    -3
390
F
347
46
348
0
  0
LAYER
  5
76
330
2
100
AcDbSymbolTableRecord
100
AcDbLayerTableRecord
  2
Ech.1_25
 70
     0
 62
     7
  6
Continuous
370
    -3
390
F
347
46
348
0
  0
LAYER
  5
77
330
2
100
AcDbSymbolTableRecord
100
AcDbLayerTableRecord
  2
Ech.1_33
 70
     0
 62
     7
  6
Continuous
370
    -3
390
F
347
46
348
0
  0
LAYER
  5
78
330
2
100
AcDbSymbolTableRecord
100
AcDbLayerTableRecord
  2
Ech.1_50
 70
     0
 62
     7
  6
Continuous
370
    -3
390
F
347
46
348
0
  0
LAYER
  5
79
330
2
100
AcDbSymbolTableRecord
100
AcDbLayerTableRecord
  2
Ech.1_75
 70
     0
 62
     7
  6
Continuous
370
    -3
390
F
347
46
348
0
  0
LAYER
  5
7A
330
2
100
AcDbSymbolTableRecord
100
AcDbLayerTableRecord
  2
Ech.1_100
 70
     0
 62
     7
  6
Continuous
370
    -3
390
F
347
46
348
0
  0
LAYER
  5
7B
330
2
100
AcDbSymbolTableRecord
100
AcDbLayerTableRecord
  2
Ech.1_200
 70
     0
 62
     7
  6
Continuous
370
    -3
390
F
347
46
348
0
  0
LAYER
  5
7C
330
2
100
AcDbSymbolTableRecord
100
AcDbLayerTableRecord
  2
Ech.1_500
 70
     0
 62
     7
  6
Continuous
370
    -3
390
F
347
46
348
0
  0
LAYER
  5
7D
330
2
100
AcDbSymbolTableRecord
100
AcDbLayerTableRecord
  2
Ech.1_1000
 70
     0
 62
     7
  6
Continuous
370
    -3
390
F
347
46
348
0
  0
LAYER
  5
7E
330
2
100
AcDbSymbolTableRecord
100
AcDbLayerTableRecord
  2
Cadres traceur
 70
     0
 62
     7
  6
Continuous
370
    -3
390
F
347
46
348
0
  0
LAYER
  5
7F
330
2
100
AcDbSymbolTableRecord
100
AcDbLayerTableRecord
  2
Cadres laser
 70
     0
 62
     7
  6
Continuous
370
    -3
390
F
347
46
348
0
  0
LAYER
  5
80
330
2
100
AcDbSymbolTableRecord
100
AcDbLayerTableRecord
  2
Légende d_aide
 70
     0
 62
     7
  6
Continuous
370
    -3
390
F
347
46
348
0
  0
LAYER
  5
81
330
2
100
AcDbSymbolTableRecord
100
AcDbLayerTableRecord
  2
hachures ok
 70
     0
 62
     7
  6
Continuous
370
    -3
390
F
347
46
348
0
  0
LAYER
  5
82
330
2
100
AcDbSymbolTableRecord
100
AcDbLayerTableRecord
  2
ossature bois
 70
     0
 62
     7
  6
Continuous
370
    -3
390
F
347
46
348
0
  0
LAYER
  5
83
330
2
100
AcDbSymbolTableRecord
100
AcDbLayerTableRecord
  2
VR
 70
     0
 62
     7
  6
Continuous
370
    -3
390
F
347
46
348
0
  0
LAYER
  5
84
330
2
100
AcDbSymbolTableRecord
100
AcDbLayerTableRecord
  2
Calque1
 70
     0
 62
     7
  6
Continuous
370
    -3
390
F
347
46
348
0
  0
LAYER
  5
85
330
2
100
AcDbSymbolTableRecord
100
AcDbLayerTableRecord
  2
0_
 70
     0
 62
     7
  6
Continuous
370
    -3
390
F
347
46
348
0
  0
LAYER
  5
86
330
2
100
AcDbSymbolTableRecord
100
AcDbLayerTableRecord
  2
menuiserie
 70
     0
 62
     7
  6
Continuous
370
    -3
390
F
347
46
348
0
  0
LAYER
  5
87
330
2
100
AcDbSymbolTableRecord
100
AcDbLayerTableRecord
  2
cotation
 70
     0
 62
   250
  6
Continuous
370
    -3
390
F
347
46
348
0
  0
LAYER
  5
88
330
2
100
AcDbSymbolTableRecord
100
AcDbLayerTableRecord
  2
Defpoints
 70
     0
 62
    10
  6
Continuous
290
     0
370
    -3
390
F
347
46
348
0
  0
LAYER
  5
89
330
2
100
AcDbSymbolTableRecord
100
AcDbLayerTableRecord
  2
HACHURE
 70
     0
 62
   254
  6
Continuous
370
    -3
390
F
347
46
348
0
  0
LAYER
  5
8A
330
2
100
AcDbSymbolTableRecord
100
AcDbLayerTableRecord
  2
mat1
 70
     0
 62
     7
  6
Continuous
370
    -3
390
F
347
46
348
0
  0
LAYER
  5
8B
330
2
100
AcDbSymbolTableRecord
100
AcDbLayerTableRecord
  2
mat2
 70
     0
 62
     7
  6
Continuous
370
    -3
390
F
347
46
348
0
  0
LAYER
  5
8C
330
2
100
AcDbSymbolTableRecord
100
AcDbLayerTableRecord
  2
hach
 70
     0
 62
     8
  6
Continuous
370
    -3
390
F
347
46
348
0
  0
LAYER
  5
8D
330
2
100
AcDbSymbolTableRecord
100
AcDbLayerTableRecord
  2
menuiseries
 70
     0
 62
     7
  6
Continuous
370
    -3
390
F
347
46
348
0
  0
LAYER
  5
8E
330
2
100
AcDbSymbolTableRecord
100
AcDbLayerTableRecord
  2
BétonMétal
 70
     0
 62
     7
  6
Continuous
370
    -3
390
F
347
46
348
0
  0
LAYER
  5
8F
330
2
100
AcDbSymbolTableRecord
100
AcDbLayerTableRecord
  2
bois
 70
     0
 62
     7
  6
Continuous
370
    -3
390
F
347
46
348
0
  0
ENDTAB
  0
TABLE
  2
STYLE
  5
3
330
0
100
AcDbSymbolTable
 70
     9
  0
STYLE
  5
11
330
3
100
AcDbSymbolTableRecord
100
AcDbTextStyleTableRecord
  2
Standard
 70
     0
 40
0.0
 41
1.0
 50
0.0
 71
     0
 42
0.2
  3
txt
  4

  0
STYLE
  5
90
330
3
100
AcDbSymbolTableRecord
100
AcDbTextStyleTableRecord
  2
CwStyleShx
 70
     0
 40
1.0
 41
1.0
 50
0.0
 71
     0
 42
0.2
  3

  4

  0
STYLE
  5
91
330
3
100
AcDbSymbolTableRecord
100
AcDbTextStyleTableRecord
  2
CwStyleShx16
 70
     0
 40
1.0
 41
1.0
 50
0.0
 71
     0
 42
0.2
  3

  4

  0
STYLE
  5
92
330
3
100
AcDbSymbolTableRecord
100
AcDbTextStyleTableRecord
  2
MONOTXT
 70
     0
 40
0.0
 41
1.0
 50
0.0
 71
     0
 42
0.2
  3
MONOTXT
  4

  0
STYLE
  5
93
330
3
100
AcDbSymbolTableRecord
100
AcDbTextStyleTableRecord
  2
SYMAP
 70
     0
 40
1.0
 41
1.0
 50
0.0
 71
     0
 42
0.2
  3
SYMAP
  4

  0
STYLE
  5
94
330
3
100
AcDbSymbolTableRecord
100
AcDbTextStyleTableRecord
  2
CwStyleTtf
 70
     0
 40
1.0
 41
1.0
 50
0.0
 71
     0
 42
0.2
  3
arial.ttf
  4

  0
STYLE
  5
3DE
330
3
100
AcDbSymbolTableRecord
100
AcDbTextStyleTableRecord
  2
arial-z
 70
     0
 40
0.0
 41
1.0
 50
0.0
 71
     0
 42
0.2
  3
arial.ttf
  4

1001
ACAD
1000
Arial
1071
        0
  0
STYLE
  5
408
330
3
100
AcDbSymbolTableRecord
100
AcDbTextStyleTableRecord
  2
arial-
 70
     0
 40
1.0
 41
1.0
 50
0.0
 71
     0
 42
0.2
  3

  4

1001
ACAD
1000
Arial
1071
        0
  0
STYLE
  5
40B
330
3
100
AcDbSymbolTableRecord
100
AcDbTextStyleTableRecord
  2
arial-b
 70
     0
 40
1.0
 41
1.0
 50
0.0
 71
     0
 42
0.2
  3
arialbd.ttf
  4

1001
ACAD
1000
Arial
1071
 33554432
  0
ENDTAB
  0
TABLE
  2
VIEW
  5
6
330
0
100
AcDbSymbolTable
 70
     0
  0
ENDTAB
  0
TABLE
  2
UCS
  5
7
330
0
100
AcDbSymbolTable
 70
     0
  0
ENDTAB
  0
TABLE
  2
APPID
  5
9
330
0
100
AcDbSymbolTable
 70
     3
  0
APPID
  5
12
330
9
100
AcDbSymbolTableRecord
100
AcDbRegAppTableRecord
  2
ACAD
 70
     0
  0
APPID
  5
6E
330
9
100
AcDbSymbolTableRecord
100
AcDbRegAppTableRecord
  2
Cadwork
 70
     0
  0
APPID
  5
241
330
9
100
AcDbSymbolTableRecord
100
AcDbRegAppTableRecord
  2
PLOTTRANSPARENCY
 70
     0
  0
ENDTAB
  0
TABLE
  2
DIMSTYLE
  5
A
330
0
100
AcDbSymbolTable
 70
     1
100
AcDbDimStyleTable
  0
DIMSTYLE
105
27
102
{ACAD_REACTORS
330
3DF
330
3ED
102
}
330
A
100
AcDbSymbolTableRecord
100
AcDbDimStyleTableRecord
  2
Standard
 70
     0
178
     0
340
11
  0
ENDTAB
  0
TABLE
  2
BLOCK_RECORD
  5
1
330
0
100
AcDbSymbolTable
 70
    71
  0
BLOCK_RECORD
  5
1F
330
1
100
AcDbSymbolTableRecord
100
AcDbBlockTableRecord
  2
*Model_Space
340
22
 70
     0
280
     1
281
     0
  0
BLOCK_RECORD
  5
23C
330
1
100
AcDbSymbolTableRecord
100
AcDbBlockTableRecord
  2
*Paper_Space
340
23D
 70
     0
280
     1
281
     0
  0
BLOCK_RECORD
  5
95
330
1
100
AcDbSymbolTableRecord
100
AcDbBlockTableRecord
  2
CDWK_PTTYP1
340
0
 70
     0
280
     1
281
     1
  0
BLOCK_RECORD
  5
9C
330
1
100
AcDbSymbolTableRecord
100
AcDbBlockTableRecord
  2
CDWK_PTTYP2
340
0
 70
     0
280
     1
281
     1
  0
BLOCK_RECORD
  5
A1
330
1
100
AcDbSymbolTableRecord
100
AcDbBlockTableRecord
  2
CDWK_PTTYP4
340
0
 70
     0
280
     1
281
     1
  0
BLOCK_RECORD
  5
A5
330
1
100
AcDbSymbolTableRecord
100
AcDbBlockTableRecord
  2
CDWK_PTTYP5
340
0
 70
     0
280
     1
281
     1
  0
BLOCK_RECORD
  5
AE
330
1
100
AcDbSymbolTableRecord
100
AcDbBlockTableRecord
  2
CDWK_PTTYP6
340
0
 70
     0
280
     1
281
     1
  0
BLOCK_RECORD
  5
B6
330
1
100
AcDbSymbolTableRecord
100
AcDbBlockTableRecord
  2
CDWK_PTTYP7
340
0
 70
     0
280
     1
281
     1
  0
BLOCK_RECORD
  5
BF
330
1
100
AcDbSymbolTableRecord
100
AcDbBlockTableRecord
  2
CDWK_PTTYP8
340
0
 70
     0
280
     1
281
     1
  0
BLOCK_RECORD
  5
C3
330
1
100
AcDbSymbolTableRecord
100
AcDbBlockTableRecord
  2
CDWK_PTTYP9
340
0
 70
     0
280
     1
281
     1
  0
BLOCK_RECORD
  5
C8
330
1
100
AcDbSymbolTableRecord
100
AcDbBlockTableRecord
  2
CDWK_PTTYP10
340
0
 70
     0
280
     1
281
     1
  0
BLOCK_RECORD
  5
CC
330
1
100
AcDbSymbolTableRecord
100
AcDbBlockTableRecord
  2
CDWK_PTTYP11
340
0
 70
     0
280
     1
281
     1
  0
BLOCK_RECORD
  5
D1
330
1
100
AcDbSymbolTableRecord
100
AcDbBlockTableRecord
  2
CDWK_PTTYP12
340
0
 70
     0
280
     1
281
     1
  0
BLOCK_RECORD
  5
D6
330
1
100
AcDbSymbolTableRecord
100
AcDbBlockTableRecord
  2
CDWK_PTTYP13
340
0
 70
     0
280
     1
281
     1
  0
BLOCK_RECORD
  5
DC
330
1
100
AcDbSymbolTableRecord
100
AcDbBlockTableRecord
  2
CDWK_PTTYP16
340
0
 70
     0
280
     1
281
     1
  0
BLOCK_RECORD
  5
E3
330
1
100
AcDbSymbolTableRecord
100
AcDbBlockTableRecord
  2
CDWK_PTTYP17
340
0
 70
     0
280
     1
281
     1
  0
BLOCK_RECORD
  5
E8
330
1
100
AcDbSymbolTableRecord
100
AcDbBlockTableRecord
  2
CDWK_PTTYP18
340
0
 70
     0
280
     1
281
     1
  0
BLOCK_RECORD
  5
ED
330
1
100
AcDbSymbolTableRecord
100
AcDbBlockTableRecord
  2
CDWK_PTTYP19
340
0
 70
     0
280
     1
281
     1
  0
BLOCK_RECORD
  5
F3
330
1
100
AcDbSymbolTableRecord
100
AcDbBlockTableRecord
  2
CDWK_PTTYP20
340
0
 70
     0
280
     1
281
     1
  0
BLOCK_RECORD
  5
F8
330
1
100
AcDbSymbolTableRecord
100
AcDbBlockTableRecord
  2
CDWK_PTTYP21
340
0
 70
     0
280
     1
281
     1
  0
BLOCK_RECORD
  5
FD
330
1
100
AcDbSymbolTableRecord
100
AcDbBlockTableRecord
  2
CDWK_PTTYP25
340
0
 70
     0
280
     1
281
     1
  0
BLOCK_RECORD
  5
104
330
1
100
AcDbSymbolTableRecord
100
AcDbBlockTableRecord
  2
CDWK_PTTYP26
340
0
 70
     0
280
     1
281
     1
  0
BLOCK_RECORD
  5
10B
330
1
100
AcDbSymbolTableRecord
100
AcDbBlockTableRecord
  2
CDWK_PTTYP27
340
0
 70
     0
280
     1
281
     1
  0
BLOCK_RECORD
  5
113
330
1
100
AcDbSymbolTableRecord
100
AcDbBlockTableRecord
  2
CDWK_PTTYP28
340
0
 70
     0
280
     1
281
     1
  0
BLOCK_RECORD
  5
11A
330
1
100
AcDbSymbolTableRecord
100
AcDbBlockTableRecord
  2
CDWK_PTTYP29
340
0
 70
     0
280
     1
281
     1
  0
BLOCK_RECORD
  5
120
330
1
100
AcDbSymbolTableRecord
100
AcDbBlockTableRecord
  2
CDWK_PTTYP30
340
0
 70
     0
280
     1
281
     1
  0
BLOCK_RECORD
  5
127
330
1
100
AcDbSymbolTableRecord
100
AcDbBlockTableRecord
  2
CDWK_PTTYP31
340
0
 70
     0
280
     1
281
     1
  0
BLOCK_RECORD
  5
12F
330
1
100
AcDbSymbolTableRecord
100
AcDbBlockTableRecord
  2
CDWK_PTTYP32
340
0
 70
     0
280
     1
281
     1
  0
BLOCK_RECORD
  5
138
330
1
100
AcDbSymbolTableRecord
100
AcDbBlockTableRecord
  2
CDWK_PTTYP33
340
0
 70
     0
280
     1
281
     1
  0
BLOCK_RECORD
  5
13E
330
1
100
AcDbSymbolTableRecord
100
AcDbBlockTableRecord
  2
CDWK_PTTYP34
340
0
 70
     0
280
     1
281
     1
  0
BLOCK_RECORD
  5
144
330
1
100
AcDbSymbolTableRecord
100
AcDbBlockTableRecord
  2
CDWK_PTTYP35
340
0
 70
     0
280
     1
281
     1
  0
BLOCK_RECORD
  5
14A
330
1
100
AcDbSymbolTableRecord
100
AcDbBlockTableRecord
  2
CDWK_PTTYP36
340
0
 70
     0
280
     1
281
     1
  0
BLOCK_RECORD
  5
152
330
1
100
AcDbSymbolTableRecord
100
AcDbBlockTableRecord
  2
CDWK_PTTYP37
340
0
 70
     0
280
     1
281
     1
  0
BLOCK_RECORD
  5
157
330
1
100
AcDbSymbolTableRecord
100
AcDbBlockTableRecord
  2
CDWK_PTTYP38
340
0
 70
     0
280
     1
281
     1
  0
BLOCK_RECORD
  5
15D
330
1
100
AcDbSymbolTableRecord
100
AcDbBlockTableRecord
  2
CDWK_PTTYP41
340
0
 70
     0
280
     1
281
     1
  0
BLOCK_RECORD
  5
167
330
1
100
AcDbSymbolTableRecord
100
AcDbBlockTableRecord
  2
CDWK_PTTYP42
340
0
 70
     0
280
     1
281
     1
  0
BLOCK_RECORD
  5
170
330
1
100
AcDbSymbolTableRecord
100
AcDbBlockTableRecord
  2
CDWK_PTTYP43
340
0
 70
     0
280
     1
281
     1
  0
BLOCK_RECORD
  5
176
330
1
100
AcDbSymbolTableRecord
100
AcDbBlockTableRecord
  2
CDWK_PTTYP44
340
0
 70
     0
280
     1
281
     1
  0
BLOCK_RECORD
  5
17F
330
1
100
AcDbSymbolTableRecord
100
AcDbBlockTableRecord
  2
CDWK_PTTYP45
340
0
 70
     0
280
     1
281
     1
  0
BLOCK_RECORD
  5
184
330
1
100
AcDbSymbolTableRecord
100
AcDbBlockTableRecord
  2
CDWK_PTTYP46
340
0
 70
     0
280
     1
281
     1
  0
BLOCK_RECORD
  5
189
330
1
100
AcDbSymbolTableRecord
100
AcDbBlockTableRecord
  2
CDWK_PTTYP47
340
0
 70
     0
280
     1
281
     1
  0
BLOCK_RECORD
  5
192
330
1
100
AcDbSymbolTableRecord
100
AcDbBlockTableRecord
  2
CDWK_PTTYP48
340
0
 70
     0
280
     1
281
     1
  0
BLOCK_RECORD
  5
197
330
1
100
AcDbSymbolTableRecord
100
AcDbBlockTableRecord
  2
CDWK_PTTYP49
340
0
 70
     0
280
     1
281
     1
  0
BLOCK_RECORD
  5
19E
330
1
100
AcDbSymbolTableRecord
100
AcDbBlockTableRecord
  2
CDWK_PTTYP50
340
0
 70
     0
280
     1
281
     1
  0
BLOCK_RECORD
  5
1A8
330
1
100
AcDbSymbolTableRecord
100
AcDbBlockTableRecord
  2
CDWK_PTTYP51
340
0
 70
     0
280
     1
281
     1
  0
BLOCK_RECORD
  5
1AD
330
1
100
AcDbSymbolTableRecord
100
AcDbBlockTableRecord
  2
CDWK_PTTYP52
340
0
 70
     0
280
     1
281
     1
  0
BLOCK_RECORD
  5
1B3
330
1
100
AcDbSymbolTableRecord
100
AcDbBlockTableRecord
  2
cw-dimension-symbol1
340
0
 70
     0
280
     1
281
     0
  0
BLOCK_RECORD
  5
1BA
330
1
100
AcDbSymbolTableRecord
100
AcDbBlockTableRecord
  2
cw-dimension-symbol2
340
0
102
{BLKREFS
331
3E8
331
3E7
331
3F6
331
3F5
102
}
 70
     0
280
     1
281
     0
  0
BLOCK_RECORD
  5
1BF
330
1
100
AcDbSymbolTableRecord
100
AcDbBlockTableRecord
  2
cw-dimension-symbol3
340
0
 70
     0
280
     1
281
     0
  0
BLOCK_RECORD
  5
1C4
330
1
100
AcDbSymbolTableRecord
100
AcDbBlockTableRecord
  2
cw-dimension-symbol5
340
0
 70
     0
280
     1
281
     0
  0
BLOCK_RECORD
  5
1CB
330
1
100
AcDbSymbolTableRecord
100
AcDbBlockTableRecord
  2
cw-dimension-symbol6
340
0
 70
     0
280
     1
281
     0
  0
BLOCK_RECORD
  5
1D1
330
1
100
AcDbSymbolTableRecord
100
AcDbBlockTableRecord
  2
cw-dimension-symbol11
340
0
 70
     0
280
     1
281
     0
  0
BLOCK_RECORD
  5
1D7
330
1
100
AcDbSymbolTableRecord
100
AcDbBlockTableRecord
  2
cw-dimension-symbol13
340
0
 70
     0
280
     1
281
     0
  0
BLOCK_RECORD
  5
1DD
330
1
100
AcDbSymbolTableRecord
100
AcDbBlockTableRecord
  2
cw-dimension-symbol15
340
0
 70
     0
280
     1
281
     0
  0
BLOCK_RECORD
  5
1E4
330
1
100
AcDbSymbolTableRecord
100
AcDbBlockTableRecord
  2
cw-dimension-symbol16
340
0
 70
     0
280
     1
281
     0
  0
BLOCK_RECORD
  5
1EB
330
1
100
AcDbSymbolTableRecord
100
AcDbBlockTableRecord
  2
cw-dimension-symbol17
340
0
 70
     0
280
     1
281
     0
  0
BLOCK_RECORD
  5
1F2
330
1
100
AcDbSymbolTableRecord
100
AcDbBlockTableRecord
  2
cw-dimension-symbol18
340
0
 70
     0
280
     1
281
     0
  0
BLOCK_RECORD
  5
1F9
330
1
100
AcDbSymbolTableRecord
100
AcDbBlockTableRecord
  2
cw-dimension-symbol19
340
0
 70
     0
280
     1
281
     0
  0
BLOCK_RECORD
  5
1FC
330
1
100
AcDbSymbolTableRecord
100
AcDbBlockTableRecord
  2
cw-dimension-symbol20
340
0
 70
     0
280
     1
281
     0
  0
BLOCK_RECORD
  5
203
330
1
100
AcDbSymbolTableRecord
100
AcDbBlockTableRecord
  2
cw-dimension-symbol21
340
0
 70
     0
280
     1
281
     0
  0
BLOCK_RECORD
  5
20A
330
1
100
AcDbSymbolTableRecord
100
AcDbBlockTableRecord
  2
cw-line-extremity0
340
0
 70
     0
280
     1
281
     0
  0
BLOCK_RECORD
  5
20E
330
1
100
AcDbSymbolTableRecord
100
AcDbBlockTableRecord
  2
cw-line-extremity2
340
0
 70
     0
280
     1
281
     0
  0
BLOCK_RECORD
  5
213
330
1
100
AcDbSymbolTableRecord
100
AcDbBlockTableRecord
  2
cw-line-extremity3
340
0
 70
     0
280
     1
281
     0
  0
BLOCK_RECORD
  5
218
330
1
100
AcDbSymbolTableRecord
100
AcDbBlockTableRecord
  2
cw-line-extremity301
340
0
 70
     0
280
     1
281
     0
  0
BLOCK_RECORD
  5
21A
330
1
100
AcDbSymbolTableRecord
100
AcDbBlockTableRecord
  2
cw-line-extremity4
340
0
102
{BLKREFS
331
256
331
258
331
25A
331
25E
331
3D6
331
3D8
331
3DA
331
3DC
102
}
 70
     0
280
     1
281
     0
  0
BLOCK_RECORD
  5
21C
330
1
100
AcDbSymbolTableRecord
100
AcDbBlockTableRecord
  2
cw-line-extremity5
340
0
 70
     0
280
     1
281
     0
  0
BLOCK_RECORD
  5
21E
330
1
100
AcDbSymbolTableRecord
100
AcDbBlockTableRecord
  2
cw-line-extremity6
340
0
 70
     0
280
     1
281
     0
  0
BLOCK_RECORD
  5
220
330
1
100
AcDbSymbolTableRecord
100
AcDbBlockTableRecord
  2
cw-line-extremity9
340
0
 70
     0
280
     1
281
     0
  0
BLOCK_RECORD
  5
222
330
1
100
AcDbSymbolTableRecord
100
AcDbBlockTableRecord
  2
cw-line-extremity10
340
0
 70
     0
280
     1
281
     0
  0
BLOCK_RECORD
  5
224
330
1
100
AcDbSymbolTableRecord
100
AcDbBlockTableRecord
  2
cw-line-extremity1
340
0
 70
     0
280
     1
281
     0
  0
BLOCK_RECORD
  5
1B
330
1
100
AcDbSymbolTableRecord
100
AcDbBlockTableRecord
  2
*Paper_Space69
340
1E
 70
     0
280
     1
281
     0
  0
BLOCK_RECORD
  5
3E1
330
1
100
AcDbSymbolTableRecord
100
AcDbBlockTableRecord
  2
*D70
340
0
 70
     0
280
     1
281
     0
  0
BLOCK_RECORD
  5
3EF
330
1
100
AcDbSymbolTableRecord
100
AcDbBlockTableRecord
  2
*D71
340
0
 70
     0
280
     1
281
     0
  0
ENDTAB
  0
ENDSEC
  0
SECTION
  2
BLOCKS
  0
BLOCK
  5
20
330
1F
100
AcDbEntity
  8
0
100
AcDbBlockBegin
  2
*Model_Space
 70
     0
 10
0.0
 20
0.0
 30
0.0
  3
*Model_Space
  1

  0
ENDBLK
  5
21
330
1F
100
AcDbEntity
  8
0
100
AcDbBlockEnd
  0
BLOCK
  5
23E
330
23C
100
AcDbEntity
 67
     1
  8
0
100
AcDbBlockBegin
  2
*Paper_Space
 70
     0
 10
0.0
 20
0.0
 30
0.0
  3
*Paper_Space
  1

  0
ENDBLK
  5
23F
330
23C
100
AcDbEntity
 67
     1
  8
0
100
AcDbBlockEnd
  0
BLOCK
  5
9A
330
95
100
AcDbEntity
  8
0
100
AcDbBlockBegin
  2
CDWK_PTTYP1
 70
     0
 10
0.0
 20
0.0
 30
0.0
  3
CDWK_PTTYP1
  1

  0
LINE
  5
96
330
95
100
AcDbEntity
  8
0
 62
     0
370
    -2
100
AcDbLine
 10
-0.5
 20
0.5
 30
0.0
 11
0.5
 21
0.5
 31
0.0
  0
LINE
  5
97
330
95
100
AcDbEntity
  8
0
 62
     0
370
    -2
100
AcDbLine
 10
0.5
 20
0.5
 30
0.0
 11
0.5
 21
-0.5
 31
0.0
  0
LINE
  5
98
330
95
100
AcDbEntity
  8
0
 62
     0
370
    -2
100
AcDbLine
 10
0.5
 20
-0.5
 30
0.0
 11
-0.5
 21
-0.5
 31
0.0
  0
LINE
  5
99
330
95
100
AcDbEntity
  8
0
 62
     0
370
    -2
100
AcDbLine
 10
-0.5
 20
-0.5
 30
0.0
 11
-0.5
 21
0.5
 31
0.0
  0
ENDBLK
  5
9B
330
95
100
AcDbEntity
  8
0
100
AcDbBlockEnd
  0
BLOCK
  5
9F
330
9C
100
AcDbEntity
  8
0
100
AcDbBlockBegin
  2
CDWK_PTTYP2
 70
     0
 10
0.0
 20
0.0
 30
0.0
  3
CDWK_PTTYP2
  1

  0
LINE
  5
9D
330
9C
100
AcDbEntity
  8
0
 62
     0
370
    -2
100
AcDbLine
 10
0.0
 20
0.5
 30
0.0
 11
0.0
 21
-0.5
 31
0.0
  0
LINE
  5
9E
330
9C
100
AcDbEntity
  8
0
 62
     0
370
    -2
100
AcDbLine
 10
0.5
 20
0.0
 30
0.0
 11
-0.5
 21
0.0
 31
0.0
  0
ENDBLK
  5
A0
330
9C
100
AcDbEntity
  8
0
100
AcDbBlockEnd
  0
BLOCK
  5
A3
330
A1
100
AcDbEntity
  8
0
100
AcDbBlockBegin
  2
CDWK_PTTYP4
 70
     0
 10
0.0
 20
0.0
 30
0.0
  3
CDWK_PTTYP4
  1

  0
HATCH
  5
A2
330
A1
100
AcDbEntity
  8
0
 62
     0
370
    -2
100
AcDbHatch
 10
0.0
 20
0.0
 30
0.0
210
0.0
220
0.0
230
1.0
  2
SOLID
 70
     1
 71
     1
 91
        1
 92
        1
 93
        1
 72
     2
 10
0.0
 20
0.0
 40
0.5
 50
0.0
 51
360.0
 73
     1
 97
        0
 75
     0
 76
     1
 98
        0
  0
ENDBLK
  5
A4
330
A1
100
AcDbEntity
  8
0
100
AcDbBlockEnd
  0
BLOCK
  5
AC
330
A5
100
AcDbEntity
  8
0
100
AcDbBlockBegin
  2
CDWK_PTTYP5
 70
     0
 10
0.0
 20
0.0
 30
0.0
  3
CDWK_PTTYP5
  1

  0
LINE
  5
A6
330
A5
100
AcDbEntity
  8
0
 62
     0
370
    -2
100
AcDbLine
 10
-0.5
 20
0.5
 30
0.0
 11
0.5
 21
0.5
 31
0.0
  0
LINE
  5
A7
330
A5
100
AcDbEntity
  8
0
 62
     0
370
    -2
100
AcDbLine
 10
0.5
 20
0.5
 30
0.0
 11
0.5
 21
-0.5
 31
0.0
  0
LINE
  5
A8
330
A5
100
AcDbEntity
  8
0
 62
     0
370
    -2
100
AcDbLine
 10
0.5
 20
-0.5
 30
0.0
 11
-0.5
 21
-0.5
 31
0.0
  0
LINE
  5
A9
330
A5
100
AcDbEntity
  8
0
 62
     0
370
    -2
100
AcDbLine
 10
-0.5
 20
-0.5
 30
0.0
 11
-0.5
 21
0.5
 31
0.0
  0
HATCH
  5
AA
330
A5
100
AcDbEntity
  8
0
 62
     0
370
    -2
100
AcDbHatch
 10
0.0
 20
0.0
 30
0.0
210
0.0
220
0.0
230
1.0
  2
SOLID
 70
     1
 71
     1
 91
        1
 92
        3
 72
     0
 73
     1
 93
        4
 10
-0.5
 20
0.0
 10
0.0
 20
0.0
 10
0.0
 20
-0.5
 10
-0.5
 20
-0.5
 97
        0
 75
     0
 76
     1
 98
        0
  0
HATCH
  5
AB
330
A5
100
AcDbEntity
  8
0
 62
     0
370
    -2
100
AcDbHatch
 10
0.0
 20
0.0
 30
0.0
210
0.0
220
0.0
230
1.0
  2
SOLID
 70
     1
 71
     1
 91
        1
 92
        3
 72
     0
 73
     1
 93
        4
 10
0.0
 20
0.0
 10
0.5
 20
0.0
 10
0.5
 20
0.5
 10
0.0
 20
0.5
 97
        0
 75
     0
 76
     1
 98
        0
  0
ENDBLK
  5
AD
330
A5
100
AcDbEntity
  8
0
100
AcDbBlockEnd
  0
BLOCK
  5
B4
330
AE
100
AcDbEntity
  8
0
100
AcDbBlockBegin
  2
CDWK_PTTYP6
 70
     0
 10
0.0
 20
0.0
 30
0.0
  3
CDWK_PTTYP6
  1

  0
LINE
  5
AF
330
AE
100
AcDbEntity
  8
0
 62
     0
370
    -2
100
AcDbLine
 10
-0.5
 20
0.5
 30
0.0
 11
0.5
 21
0.5
 31
0.0
  0
LINE
  5
B0
330
AE
100
AcDbEntity
  8
0
 62
     0
370
    -2
100
AcDbLine
 10
0.5
 20
0.5
 30
0.0
 11
0.5
 21
-0.5
 31
0.0
  0
LINE
  5
B1
330
AE
100
AcDbEntity
  8
0
 62
     0
370
    -2
100
AcDbLine
 10
0.5
 20
-0.5
 30
0.0
 11
-0.5
 21
-0.5
 31
0.0
  0
LINE
  5
B2
330
AE
100
AcDbEntity
  8
0
 62
     0
370
    -2
100
AcDbLine
 10
-0.5
 20
-0.5
 30
0.0
 11
-0.5
 21
0.5
 31
0.0
  0
HATCH
  5
B3
330
AE
100
AcDbEntity
  8
0
 62
     0
370
    -2
100
AcDbHatch
 10
0.0
 20
0.0
 30
0.0
210
0.0
220
0.0
230
1.0
  2
SOLID
 70
     1
 71
     1
 91
        1
 92
        3
 72
     0
 73
     1
 93
        3
 10
-0.5
 20
-0.5
 10
-0.5
 20
0.5
 10
0.5
 20
0.5
 97
        0
 75
     0
 76
     1
 98
        0
  0
ENDBLK
  5
B5
330
AE
100
AcDbEntity
  8
0
100
AcDbBlockEnd
  0
BLOCK
  5
BD
330
B6
100
AcDbEntity
  8
0
100
AcDbBlockBegin
  2
CDWK_PTTYP7
 70
     0
 10
0.0
 20
0.0
 30
0.0
  3
CDWK_PTTYP7
  1

  0
LINE
  5
B7
330
B6
100
AcDbEntity
  8
0
 62
     0
370
    -2
100
AcDbLine
 10
-0.5
 20
0.5
 30
0.0
 11
0.5
 21
0.5
 31
0.0
  0
LINE
  5
B8
330
B6
100
AcDbEntity
  8
0
 62
     0
370
    -2
100
AcDbLine
 10
0.5
 20
0.5
 30
0.0
 11
0.5
 21
-0.5
 31
0.0
  0
LINE
  5
B9
330
B6
100
AcDbEntity
  8
0
 62
     0
370
    -2
100
AcDbLine
 10
0.5
 20
-0.5
 30
0.0
 11
-0.5
 21
-0.5
 31
0.0
  0
LINE
  5
BA
330
B6
100
AcDbEntity
  8
0
 62
     0
370
    -2
100
AcDbLine
 10
-0.5
 20
-0.5
 30
0.0
 11
-0.5
 21
0.5
 31
0.0
  0
LINE
  5
BB
330
B6
100
AcDbEntity
  8
0
 62
     0
370
    -2
100
AcDbLine
 10
0.0
 20
0.5
 30
0.0
 11
0.0
 21
-0.5
 31
0.0
  0
LINE
  5
BC
330
B6
100
AcDbEntity
  8
0
 62
     0
370
    -2
100
AcDbLine
 10
0.5
 20
0.0
 30
0.0
 11
-0.5
 21
0.0
 31
0.0
  0
ENDBLK
  5
BE
330
B6
100
AcDbEntity
  8
0
100
AcDbBlockEnd
  0
BLOCK
  5
C1
330
BF
100
AcDbEntity
  8
0
100
AcDbBlockBegin
  2
CDWK_PTTYP8
 70
     0
 10
0.0
 20
0.0
 30
0.0
  3
CDWK_PTTYP8
  1

  0
HATCH
  5
C0
330
BF
100
AcDbEntity
  8
0
 62
     0
370
    -2
100
AcDbHatch
 10
0.0
 20
0.0
 30
0.0
210
0.0
220
0.0
230
1.0
  2
SOLID
 70
     1
 71
     1
 91
        1
 92
        3
 72
     0
 73
     1
 93
        4
 10
0.5
 20
0.5
 10
0.5
 20
-0.5
 10
-0.5
 20
-0.5
 10
-0.5
 20
0.5
 97
        0
 75
     0
 76
     1
 98
        0
  0
ENDBLK
  5
C2
330
BF
100
AcDbEntity
  8
0
100
AcDbBlockEnd
  0
BLOCK
  5
C6
330
C3
100
AcDbEntity
  8
0
100
AcDbBlockBegin
  2
CDWK_PTTYP9
 70
     0
 10
0.0
 20
0.0
 30
0.0
  3
CDWK_PTTYP9
  1

  0
CIRCLE
  5
C4
330
C3
100
AcDbEntity
  8
0
 62
     0
370
    -2
100
AcDbCircle
 10
0.0
 20
0.0
 30
0.0
 40
0.1666666666666667
  0
CIRCLE
  5
C5
330
C3
100
AcDbEntity
  8
0
 62
     0
370
    -2
100
AcDbCircle
 10
0.0
 20
0.0
 30
0.0
 40
0.5
  0
ENDBLK
  5
C7
330
C3
100
AcDbEntity
  8
0
100
AcDbBlockEnd
  0
BLOCK
  5
CA
330
C8
100
AcDbEntity
  8
0
100
AcDbBlockBegin
  2
CDWK_PTTYP10
 70
     0
 10
0.0
 20
0.0
 30
0.0
  3
CDWK_PTTYP10
  1

  0
CIRCLE
  5
C9
330
C8
100
AcDbEntity
  8
0
 62
     0
370
    -2
100
AcDbCircle
 10
0.0
 20
0.0
 30
0.0
 40
0.5
  0
ENDBLK
  5
CB
330
C8
100
AcDbEntity
  8
0
100
AcDbBlockEnd
  0
BLOCK
  5
CF
330
CC
100
AcDbEntity
  8
0
100
AcDbBlockBegin
  2
CDWK_PTTYP11
 70
     0
 10
0.0
 20
0.0
 30
0.0
  3
CDWK_PTTYP11
  1

  0
CIRCLE
  5
CD
330
CC
100
AcDbEntity
  8
0
 62
     0
370
    -2
100
AcDbCircle
 10
0.0
 20
0.0
 30
0.0
 40
0.25
  0
CIRCLE
  5
CE
330
CC
100
AcDbEntity
  8
0
 62
     0
370
    -2
100
AcDbCircle
 10
0.0
 20
0.0
 30
0.0
 40
0.5
  0
ENDBLK
  5
D0
330
CC
100
AcDbEntity
  8
0
100
AcDbBlockEnd
  0
BLOCK
  5
D4
330
D1
100
AcDbEntity
  8
0
100
AcDbBlockBegin
  2
CDWK_PTTYP12
 70
     0
 10
0.0
 20
0.0
 30
0.0
  3
CDWK_PTTYP12
  1

  0
CIRCLE
  5
D2
330
D1
100
AcDbEntity
  8
0
 62
     0
370
    -2
100
AcDbCircle
 10
0.25
 20
0.0
 30
0.0
 40
0.25
  0
CIRCLE
  5
D3
330
D1
100
AcDbEntity
  8
0
 62
     0
370
    -2
100
AcDbCircle
 10
0.0
 20
0.0
 30
0.0
 40
0.5
  0
ENDBLK
  5
D5
330
D1
100
AcDbEntity
  8
0
100
AcDbBlockEnd
  0
BLOCK
  5
DA
330
D6
100
AcDbEntity
  8
0
100
AcDbBlockBegin
  2
CDWK_PTTYP13
 70
     0
 10
0.0
 20
0.0
 30
0.0
  3
CDWK_PTTYP13
  1

  0
CIRCLE
  5
D7
330
D6
100
AcDbEntity
  8
0
 62
     0
370
    -2
100
AcDbCircle
 10
-0.25
 20
0.0
 30
0.0
 40
0.25
  0
CIRCLE
  5
D8
330
D6
100
AcDbEntity
  8
0
 62
     0
370
    -2
100
AcDbCircle
 10
0.25
 20
0.0
 30
0.0
 40
0.25
  0
CIRCLE
  5
D9
330
D6
100
AcDbEntity
  8
0
 62
     0
370
    -2
100
AcDbCircle
 10
0.0
 20
0.0
 30
0.0
 40
0.5
  0
ENDBLK
  5
DB
330
D6
100
AcDbEntity
  8
0
100
AcDbBlockEnd
  0
BLOCK
  5
E1
330
DC
100
AcDbEntity
  8
0
100
AcDbBlockBegin
  2
CDWK_PTTYP16
 70
     0
 10
0.0
 20
0.0
 30
0.0
  3
CDWK_PTTYP16
  1

  0
LINE
  5
DD
330
DC
100
AcDbEntity
  8
0
 62
     0
370
    -2
100
AcDbLine
 10
-0.5
 20
-0.289
 30
0.0
 11
0.5
 21
-0.289
 31
0.0
  0
LINE
  5
DE
330
DC
100
AcDbEntity
  8
0
 62
     0
370
    -2
100
AcDbLine
 10
0.5
 20
-0.289
 30
0.0
 11
0.0
 21
0.577
 31
0.0
  0
LINE
  5
DF
330
DC
100
AcDbEntity
  8
0
 62
     0
370
    -2
100
AcDbLine
 10
0.0
 20
0.577
 30
0.0
 11
-0.5
 21
-0.289
 31
0.0
  0
CIRCLE
  5
E0
330
DC
100
AcDbEntity
  8
0
 62
     0
370
    -2
100
AcDbCircle
 10
0.0
 20
0.0
 30
0.0
 40
0.289
  0
ENDBLK
  5
E2
330
DC
100
AcDbEntity
  8
0
100
AcDbBlockEnd
  0
BLOCK
  5
E6
330
E3
100
AcDbEntity
  8
0
100
AcDbBlockBegin
  2
CDWK_PTTYP17
 70
     0
 10
0.0
 20
0.0
 30
0.0
  3
CDWK_PTTYP17
  1

  0
CIRCLE
  5
E4
330
E3
100
AcDbEntity
  8
0
 62
     0
370
    -2
100
AcDbCircle
 10
0.0
 20
0.0
 30
0.0
 40
0.5
  0
HATCH
  5
E5
330
E3
100
AcDbEntity
  8
0
 62
     0
370
    -2
100
AcDbHatch
 10
0.0
 20
0.0
 30
0.0
210
0.0
220
0.0
230
1.0
  2
SOLID
 70
     1
 71
     1
 91
        1
 92
        1
 93
        1
 72
     2
 10
0.0
 20
0.0
 40
0.25
 50
0.0
 51
360.0
 73
     1
 97
        0
 75
     0
 76
     1
 98
        0
  0
ENDBLK
  5
E7
330
E3
100
AcDbEntity
  8
0
100
AcDbBlockEnd
  0
BLOCK
  5
EB
330
E8
100
AcDbEntity
  8
0
100
AcDbBlockBegin
  2
CDWK_PTTYP18
 70
     0
 10
0.0
 20
0.0
 30
0.0
  3
CDWK_PTTYP18
  1

  0
CIRCLE
  5
E9
330
E8
100
AcDbEntity
  8
0
 62
     0
370
    -2
100
AcDbCircle
 10
0.0
 20
0.0
 30
0.0
 40
0.5
  0
CIRCLE
  5
EA
330
E8
100
AcDbEntity
  8
0
 62
     0
370
    -2
100
AcDbCircle
 10
0.0
 20
0.0
 30
0.0
 40
0.208
  0
ENDBLK
  5
EC
330
E8
100
AcDbEntity
  8
0
100
AcDbBlockEnd
  0
BLOCK
  5
F1
330
ED
100
AcDbEntity
  8
0
100
AcDbBlockBegin
  2
CDWK_PTTYP19
 70
     0
 10
0.0
 20
0.0
 30
0.0
  3
CDWK_PTTYP19
  1

  0
CIRCLE
  5
EE
330
ED
100
AcDbEntity
  8
0
 62
     0
370
    -2
100
AcDbCircle
 10
0.0
 20
0.0
 30
0.0
 40
0.25
  0
CIRCLE
  5
EF
330
ED
100
AcDbEntity
  8
0
 62
     0
370
    -2
100
AcDbCircle
 10
0.0
 20
0.0
 30
0.0
 40
0.35
  0
LINE
  5
F0
330
ED
100
AcDbEntity
  8
0
 62
     0
370
    -2
100
AcDbLine
 10
-0.25
 20
0.0
 30
0.0
 11
0.25
 21
0.0
 31
0.0
  0
ENDBLK
  5
F2
330
ED
100
AcDbEntity
  8
0
100
AcDbBlockEnd
  0
BLOCK
  5
F6
330
F3
100
AcDbEntity
  8
0
100
AcDbBlockBegin
  2
CDWK_PTTYP20
 70
     0
 10
0.0
 20
0.0
 30
0.0
  3
CDWK_PTTYP20
  1

  0
CIRCLE
  5
F4
330
F3
100
AcDbEntity
  8
0
 62
     0
370
    -2
100
AcDbCircle
 10
0.0
 20
0.0
 30
0.0
 40
0.3333333333333333
  0
CIRCLE
  5
F5
330
F3
100
AcDbEntity
  8
0
 62
     0
370
    -2
100
AcDbCircle
 10
0.0
 20
0.0
 30
0.0
 40
0.5
  0
ENDBLK
  5
F7
330
F3
100
AcDbEntity
  8
0
100
AcDbBlockEnd
  0
BLOCK
  5
FB
330
F8
100
AcDbEntity
  8
0
100
AcDbBlockBegin
  2
CDWK_PTTYP21
 70
     0
 10
0.0
 20
0.0
 30
0.0
  3
CDWK_PTTYP21
  1

  0
CIRCLE
  5
F9
330
F8
100
AcDbEntity
  8
0
 62
     0
370
    -2
100
AcDbCircle
 10
0.0
 20
0.0
 30
0.0
 40
0.5
  0
LINE
  5
FA
330
F8
100
AcDbEntity
  8
0
 62
     0
370
    -2
100
AcDbLine
 10
-0.5
 20
0.0
 30
0.0
 11
0.5
 21
0.0
 31
0.0
  0
ENDBLK
  5
FC
330
F8
100
AcDbEntity
  8
0
100
AcDbBlockEnd
  0
BLOCK
  5
102
330
FD
100
AcDbEntity
  8
0
100
AcDbBlockBegin
  2
CDWK_PTTYP25
 70
     0
 10
0.0
 20
0.0
 30
0.0
  3
CDWK_PTTYP25
  1

  0
LINE
  5
FE
330
FD
100
AcDbEntity
  8
0
 62
     0
370
    -2
100
AcDbLine
 10
0.0
 20
0.5
 30
0.0
 11
-0.4330127018922193
 21
-0.25
 31
0.0
  0
LINE
  5
FF
330
FD
100
AcDbEntity
  8
0
 62
     0
370
    -2
100
AcDbLine
 10
-0.4330127018922193
 20
-0.25
 30
0.0
 11
0.4330127018922193
 21
-0.25
 31
0.0
  0
LINE
  5
100
330
FD
100
AcDbEntity
  8
0
 62
     0
370
    -2
100
AcDbLine
 10
0.4330127018922193
 20
-0.25
 30
0.0
 11
0.0
 21
0.5
 31
0.0
  0
CIRCLE
  5
101
330
FD
100
AcDbEntity
  8
0
 62
     0
370
    -2
100
AcDbCircle
 10
0.0
 20
0.0
 30
0.0
 40
0.5
  0
ENDBLK
  5
103
330
FD
100
AcDbEntity
  8
0
100
AcDbBlockEnd
  0
BLOCK
  5
109
330
104
100
AcDbEntity
  8
0
100
AcDbBlockBegin
  2
CDWK_PTTYP26
 70
     0
 10
0.0
 20
0.0
 30
0.0
  3
CDWK_PTTYP26
  1

  0
LINE
  5
105
330
104
100
AcDbEntity
  8
0
 62
     0
370
    -2
100
AcDbLine
 10
-0.5
 20
-0.289
 30
0.0
 11
0.5
 21
-0.289
 31
0.0
  0
LINE
  5
106
330
104
100
AcDbEntity
  8
0
 62
     0
370
    -2
100
AcDbLine
 10
0.5
 20
-0.289
 30
0.0
 11
0.0
 21
0.577
 31
0.0
  0
LINE
  5
107
330
104
100
AcDbEntity
  8
0
 62
     0
370
    -2
100
AcDbLine
 10
0.0
 20
0.577
 30
0.0
 11
-0.5
 21
-0.289
 31
0.0
  0
CIRCLE
  5
108
330
104
100
AcDbEntity
  8
0
 62
     0
370
    -2
100
AcDbCircle
 10
0.0
 20
0.0
 30
0.0
 40
0.125
  0
ENDBLK
  5
10A
330
104
100
AcDbEntity
  8
0
100
AcDbBlockEnd
  0
BLOCK
  5
111
330
10B
100
AcDbEntity
  8
0
100
AcDbBlockBegin
  2
CDWK_PTTYP27
 70
     0
 10
0.0
 20
0.0
 30
0.0
  3
CDWK_PTTYP27
  1

  0
LINE
  5
10C
330
10B
100
AcDbEntity
  8
0
 62
     0
370
    -2
100
AcDbLine
 10
0.0
 20
0.5
 30
0.0
 11
-0.4330127018922193
 21
-0.25
 31
0.0
  0
LINE
  5
10D
330
10B
100
AcDbEntity
  8
0
 62
     0
370
    -2
100
AcDbLine
 10
-0.4330127018922193
 20
-0.25
 30
0.0
 11
0.4330127018922193
 21
-0.25
 31
0.0
  0
LINE
  5
10E
330
10B
100
AcDbEntity
  8
0
 62
     0
370
    -2
100
AcDbLine
 10
0.4330127018922193
 20
-0.25
 30
0.0
 11
0.0
 21
0.5
 31
0.0
  0
CIRCLE
  5
10F
330
10B
100
AcDbEntity
  8
0
 62
     0
370
    -2
100
AcDbCircle
 10
0.0
 20
0.0
 30
0.0
 40
0.125
  0
CIRCLE
  5
110
330
10B
100
AcDbEntity
  8
0
 62
     0
370
    -2
100
AcDbCircle
 10
0.0
 20
0.0
 30
0.0
 40
0.5
  0
ENDBLK
  5
112
330
10B
100
AcDbEntity
  8
0
100
AcDbBlockEnd
  0
BLOCK
  5
118
330
113
100
AcDbEntity
  8
0
100
AcDbBlockBegin
  2
CDWK_PTTYP28
 70
     0
 10
0.0
 20
0.0
 30
0.0
  3
CDWK_PTTYP28
  1

  0
LINE
  5
114
330
113
100
AcDbEntity
  8
0
 62
     0
370
    -2
100
AcDbLine
 10
-0.5
 20
0.5
 30
0.0
 11
0.5
 21
0.5
 31
0.0
  0
LINE
  5
115
330
113
100
AcDbEntity
  8
0
 62
     0
370
    -2
100
AcDbLine
 10
0.5
 20
0.5
 30
0.0
 11
-0.5
 21
-0.5
 31
0.0
  0
LINE
  5
116
330
113
100
AcDbEntity
  8
0
 62
     0
370
    -2
100
AcDbLine
 10
0.5
 20
-0.5
 30
0.0
 11
-0.5
 21
-0.5
 31
0.0
  0
LINE
  5
117
330
113
100
AcDbEntity
  8
0
 62
     0
370
    -2
100
AcDbLine
 10
-0.5
 20
0.5
 30
0.0
 11
0.5
 21
-0.5
 31
0.0
  0
ENDBLK
  5
119
330
113
100
AcDbEntity
  8
0
100
AcDbBlockEnd
  0
BLOCK
  5
11E
330
11A
100
AcDbEntity
  8
0
100
AcDbBlockBegin
  2
CDWK_PTTYP29
 70
     0
 10
0.0
 20
0.0
 30
0.0
  3
CDWK_PTTYP29
  1

  0
CIRCLE
  5
11B
330
11A
100
AcDbEntity
  8
0
 62
     0
370
    -2
100
AcDbCircle
 10
0.0
 20
0.0
 30
0.0
 40
0.2
  0
CIRCLE
  5
11C
330
11A
100
AcDbEntity
  8
0
 62
     0
370
    -2
100
AcDbCircle
 10
0.0
 20
0.0
 30
0.0
 40
0.35
  0
CIRCLE
  5
11D
330
11A
100
AcDbEntity
  8
0
 62
     0
370
    -2
100
AcDbCircle
 10
0.0
 20
0.0
 30
0.0
 40
0.5
  0
ENDBLK
  5
11F
330
11A
100
AcDbEntity
  8
0
100
AcDbBlockEnd
  0
BLOCK
  5
125
330
120
100
AcDbEntity
  8
0
100
AcDbBlockBegin
  2
CDWK_PTTYP30
 70
     0
 10
0.0
 20
0.0
 30
0.0
  3
CDWK_PTTYP30
  1

  0
LINE
  5
121
330
120
100
AcDbEntity
  8
0
 62
     0
370
    -2
100
AcDbLine
 10
-0.5
 20
0.5
 30
0.0
 11
-0.1
 21
0.1
 31
0.0
  0
LINE
  5
122
330
120
100
AcDbEntity
  8
0
 62
     0
370
    -2
100
AcDbLine
 10
0.5
 20
0.5
 30
0.0
 11
0.1
 21
0.1
 31
0.0
  0
LINE
  5
123
330
120
100
AcDbEntity
  8
0
 62
     0
370
    -2
100
AcDbLine
 10
0.5
 20
-0.5
 30
0.0
 11
0.1
 21
-0.1
 31
0.0
  0
LINE
  5
124
330
120
100
AcDbEntity
  8
0
 62
     0
370
    -2
100
AcDbLine
 10
-0.5
 20
-0.5
 30
0.0
 11
-0.1
 21
-0.1
 31
0.0
  0
ENDBLK
  5
126
330
120
100
AcDbEntity
  8
0
100
AcDbBlockEnd
  0
BLOCK
  5
12D
330
127
100
AcDbEntity
  8
0
100
AcDbBlockBegin
  2
CDWK_PTTYP31
 70
     0
 10
0.0
 20
0.0
 30
0.0
  3
CDWK_PTTYP31
  1

  0
LINE
  5
128
330
127
100
AcDbEntity
  8
0
 62
     0
370
    -2
100
AcDbLine
 10
-0.5
 20
0.0
 30
0.0
 11
-0.1
 21
0.0
 31
0.0
  0
LINE
  5
129
330
127
100
AcDbEntity
  8
0
 62
     0
370
    -2
100
AcDbLine
 10
0.1
 20
0.0
 30
0.0
 11
0.5
 21
0.0
 31
0.0
  0
LINE
  5
12A
330
127
100
AcDbEntity
  8
0
 62
     0
370
    -2
100
AcDbLine
 10
0.0
 20
0.5
 30
0.0
 11
0.0
 21
0.1
 31
0.0
  0
LINE
  5
12B
330
127
100
AcDbEntity
  8
0
 62
     0
370
    -2
100
AcDbLine
 10
0.0
 20
-0.1
 30
0.0
 11
0.0
 21
-0.5
 31
0.0
  0
CIRCLE
  5
12C
330
127
100
AcDbEntity
  8
0
 62
     0
370
    -2
100
AcDbCircle
 10
0.0
 20
0.0
 30
0.0
 40
0.1
  0
ENDBLK
  5
12E
330
127
100
AcDbEntity
  8
0
100
AcDbBlockEnd
  0
BLOCK
  5
136
330
12F
100
AcDbEntity
  8
0
100
AcDbBlockBegin
  2
CDWK_PTTYP32
 70
     0
 10
0.0
 20
0.0
 30
0.0
  3
CDWK_PTTYP32
  1

  0
CIRCLE
  5
130
330
12F
100
AcDbEntity
  8
0
 62
     0
370
    -2
100
AcDbCircle
 10
0.0
 20
0.0
 30
0.0
 40
0.2
  0
CIRCLE
  5
131
330
12F
100
AcDbEntity
  8
0
 62
     0
370
    -2
100
AcDbCircle
 10
0.0
 20
0.0
 30
0.0
 40
0.5
  0
LINE
  5
132
330
12F
100
AcDbEntity
  8
0
 62
     0
370
    -2
100
AcDbLine
 10
0.1414213562373095
 20
0.1414213562373095
 30
0.0
 11
0.3535533905932738
 21
0.3535533905932738
 31
0.0
  0
LINE
  5
133
330
12F
100
AcDbEntity
  8
0
 62
     0
370
    -2
100
AcDbLine
 10
-0.1414213562373095
 20
0.1414213562373095
 30
0.0
 11
-0.3535533905932738
 21
0.3535533905932738
 31
0.0
  0
LINE
  5
134
330
12F
100
AcDbEntity
  8
0
 62
     0
370
    -2
100
AcDbLine
 10
0.1414213562373095
 20
-0.1414213562373095
 30
0.0
 11
0.3535533905932738
 21
-0.3535533905932738
 31
0.0
  0
LINE
  5
135
330
12F
100
AcDbEntity
  8
0
 62
     0
370
    -2
100
AcDbLine
 10
-0.1414213562373095
 20
-0.1414213562373095
 30
0.0
 11
-0.3535533905932738
 21
-0.3535533905932738
 31
0.0
  0
ENDBLK
  5
137
330
12F
100
AcDbEntity
  8
0
100
AcDbBlockEnd
  0
BLOCK
  5
13C
330
138
100
AcDbEntity
  8
0
100
AcDbBlockBegin
  2
CDWK_PTTYP33
 70
     0
 10
0.0
 20
0.0
 30
0.0
  3
CDWK_PTTYP33
  1

  0
LINE
  5
139
330
138
100
AcDbEntity
  8
0
 62
     0
370
    -2
100
AcDbLine
 10
0.0
 20
-0.5
 30
0.0
 11
0.0
 21
0.5
 31
0.0
  0
LINE
  5
13A
330
138
100
AcDbEntity
  8
0
 62
     0
370
    -2
100
AcDbLine
 10
0.5
 20
0.0
 30
0.0
 11
-0.5
 21
0.0
 31
0.0
  0
CIRCLE
  5
13B
330
138
100
AcDbEntity
  8
0
 62
     0
370
    -2
100
AcDbCircle
 10
0.0
 20
0.0
 30
0.0
 40
0.5
  0
ENDBLK
  5
13D
330
138
100
AcDbEntity
  8
0
100
AcDbBlockEnd
  0
BLOCK
  5
142
330
13E
100
AcDbEntity
  8
0
100
AcDbBlockBegin
  2
CDWK_PTTYP34
 70
     0
 10
0.0
 20
0.0
 30
0.0
  3
CDWK_PTTYP34
  1

  0
CIRCLE
  5
13F
330
13E
100
AcDbEntity
  8
0
 62
     0
370
    -2
100
AcDbCircle
 10
0.0
 20
0.0
 30
0.0
 40
0.5
  0
LINE
  5
140
330
13E
100
AcDbEntity
  8
0
 62
     0
370
    -2
100
AcDbLine
 10
-0.4
 20
-0.3
 30
0.0
 11
0.3
 21
0.4
 31
0.0
  0
LINE
  5
141
330
13E
100
AcDbEntity
  8
0
 62
     0
370
    -2
100
AcDbLine
 10
-0.3
 20
-0.4
 30
0.0
 11
0.4
 21
0.3
 31
0.0
  0
ENDBLK
  5
143
330
13E
100
AcDbEntity
  8
0
100
AcDbBlockEnd
  0
BLOCK
  5
148
330
144
100
AcDbEntity
  8
0
100
AcDbBlockBegin
  2
CDWK_PTTYP35
 70
     0
 10
0.0
 20
0.0
 30
0.0
  3
CDWK_PTTYP35
  1

  0
LINE
  5
145
330
144
100
AcDbEntity
  8
0
 62
     0
370
    -2
100
AcDbLine
 10
0.0
 20
0.2
 30
0.0
 11
0.0
 21
0.5
 31
0.0
  0
LINE
  5
146
330
144
100
AcDbEntity
  8
0
 62
     0
370
    -2
100
AcDbLine
 10
0.0
 20
-0.2
 30
0.0
 11
0.0
 21
-0.5
 31
0.0
  0
CIRCLE
  5
147
330
144
100
AcDbEntity
  8
0
 62
     0
370
    -2
100
AcDbCircle
 10
0.0
 20
0.0
 30
0.0
 40
0.2
  0
ENDBLK
  5
149
330
144
100
AcDbEntity
  8
0
100
AcDbBlockEnd
  0
BLOCK
  5
150
330
14A
100
AcDbEntity
  8
0
100
AcDbBlockBegin
  2
CDWK_PTTYP36
 70
     0
 10
0.0
 20
0.0
 30
0.0
  3
CDWK_PTTYP36
  1

  0
LINE
  5
14B
330
14A
100
AcDbEntity
  8
0
 62
     0
370
    -2
100
AcDbLine
 10
-0.5
 20
0.2
 30
0.0
 11
0.5
 21
0.2
 31
0.0
  0
LINE
  5
14C
330
14A
100
AcDbEntity
  8
0
 62
     0
370
    -2
100
AcDbLine
 10
0.5
 20
0.2
 30
0.0
 11
0.5
 21
-0.2
 31
0.0
  0
LINE
  5
14D
330
14A
100
AcDbEntity
  8
0
 62
     0
370
    -2
100
AcDbLine
 10
0.5
 20
-0.2
 30
0.0
 11
-0.5
 21
-0.2
 31
0.0
  0
LINE
  5
14E
330
14A
100
AcDbEntity
  8
0
 62
     0
370
    -2
100
AcDbLine
 10
-0.5
 20
-0.2
 30
0.0
 11
-0.5
 21
0.2
 31
0.0
  0
HATCH
  5
14F
330
14A
100
AcDbEntity
  8
0
 62
     0
370
    -2
100
AcDbHatch
 10
0.0
 20
0.0
 30
0.0
210
0.0
220
0.0
230
1.0
  2
SOLID
 70
     1
 71
     1
 91
        1
 92
        3
 72
     0
 73
     1
 93
        3
 10
-0.5
 20
-0.2
 10
0.5
 20
-0.2
 10
0.5
 20
0.2
 97
        0
 75
     0
 76
     1
 98
        0
  0
ENDBLK
  5
151
330
14A
100
AcDbEntity
  8
0
100
AcDbBlockEnd
  0
BLOCK
  5
155
330
152
100
AcDbEntity
  8
0
100
AcDbBlockBegin
  2
CDWK_PTTYP37
 70
     0
 10
0.0
 20
0.0
 30
0.0
  3
CDWK_PTTYP37
  1

  0
HATCH
  5
153
330
152
100
AcDbEntity
  8
0
 62
     0
370
    -2
100
AcDbHatch
 10
0.0
 20
0.0
 30
0.0
210
0.0
220
0.0
230
1.0
  2
SOLID
 70
     1
 71
     1
 91
        1
 92
        3
 72
     0
 73
     1
 93
      202
 10
-0.3535533905932738
 20
-0.3535533905932738
 10
-0.3485533905932738
 20
-0.3535533905932737
 10
-0.3435533905932738
 20
-0.3584836591895546
 10
-0.3385533905932738
 20
-0.3632782236961988
 10
-0.3335533905932738
 20
-0.367942389128785
 10
-0.3285533905932738
 20
-0.372481054046687
 10
-0.3235533905932738
 20
-0.3768987523588579
 10
-0.3185533905932738
 20
-0.3811996897107819
 10
-0.3135533905932738
 20
-0.3853877752881235
 10
-0.3085533905932737
 20
-0.3894666497242888
 10
-0.3035533905932737
 20
-0.3934397096803965
 10
-0.2985533905932737
 20
-0.3973101295704999
 10
-0.2935533905932737
 20
-0.4010808808273714
 10
-0.2885533905932737
 20
-0.4047547490409382
 10
-0.2835533905932737
 20
-0.4083343492496384
 10
-0.2785533905932737
 20
-0.4118221396222626
 10
-0.2735533905932737
 20
-0.4152204337324827
 10
-0.2685533905932737
 20
-0.4185314115988474
 10
-0.2635533905932737
 20
-0.4217571296384408
 10
-0.2585533905932737
 20
-0.4248995296617653
 10
-0.2535533905932737
 20
-0.4279604470190231
 10
-0.2485533905932737
 20
-0.4309416179932669
 10
-0.2435533905932737
 20
-0.4338446865234004
 10
-0.2385533905932737
 20
-0.4366712103293738
 10
-0.2335533905932737
 20
-0.439422666502825
 10
-0.2285533905932737
 20
-0.4421004566186126
 10
-0.2235533905932737
 20
-0.4447059114159811
 10
-0.2185533905932737
 20
-0.4472402950923041
 10
-0.2135533905932737
 20
-0.4497048092473372
 10
-0.2085533905932737
 20
-0.4521005965115692
 10
-0.2035533905932737
 20
-0.4544287438884664
 10
-0.1985533905932736
 20
-0.456690285837111
 10
-0.1935533905932736
 20
-0.45888620711884
 10
-0.1885533905932736
 20
-0.4610174454289638
 10
-0.1835533905932736
 20
-0.4630848938324164
 10
-0.1785533905932736
 20
-0.4650894030202291
 10
-0.1735533905932736
 20
-0.4670317834019928
 10
-0.1685533905932736
 20
-0.46891280704794
 10
-0.1635533905932736
 20
-0.4707332094929264
 10
-0.1585533905932736
 20
-0.4724936914133818
 10
-0.1535533905932736
 20
-0.4741949201872336
 10
-0.1485533905932736
 20
-0.4758375313458466
 10
-0.1435533905932736
 20
-0.4774221299261716
 10
-0.1385533905932736
 20
-0.4789492917305286
 10
-0.1335533905932736
 20
-0.4804195645007682
 10
-0.1285533905932736
 20
-0.4818334690129366
 10
-0.1235533905932736
 20
-0.4831915000980183
 10
-0.1185533905932736
 20
-0.4844941275938295
 10
-0.1135533905932736
 20
-0.4857417972326848
 10
-0.1085533905932736
 20
-0.4869349314690531
 10
-0.1035533905932736
 20
-0.4880739302510473
 10
-0.0985533905932736
 20
-0.489159171739258
 10
-0.0935533905932736
 20
-0.4901910129761353
 10
-0.0885533905932736
 20
-0.4911697905088447
 10
-0.0835533905932735
 20
-0.4920958209682695
 10
-0.0785533905932735
 20
-0.4929694016065986
 10
-0.0735533905932735
 20
-0.4937908107957261
 10
-0.0685533905932735
 20
-0.494560308488493
 10
-0.0635533905932735
 20
-0.4952781366446192
 10
-0.0585533905932735
 20
-0.4959445196230107
 10
-0.0535533905932735
 20
-0.4965596645419678
 10
-0.0485533905932735
 20
-0.4971237616086806
 10
-0.0435533905932735
 20
-0.4976369844192622
 10
-0.0385533905932735
 20
-0.4980994902304456
 10
-0.0335533905932735
 20
-0.4985114202039533
 10
-0.0285533905932735
 20
-0.4988728996244386
 10
-0.0235533905932735
 20
-0.4991840380917923
 10
-0.0185533905932735
 20
-0.49944492968851
 10
-0.0135533905932735
 20
-0.4996556531227215
 10
-0.0085533905932735
 20
-0.4998162718473921
 10
-0.0035533905932735
 20
-0.4999268341561182
 10
0.0014466094067265
 20
-0.499987373255857
 10
0.0064466094067265
 20
-0.4999979073168451
 10
0.0114466094067265
 20
-0.4999584394998819
 10
0.0164466094067265
 20
-0.4998689579610739
 10
0.0214466094067265
 20
-0.4997294358340547
 10
0.0264466094067265
 20
-0.4995398311896213
 10
0.0314466094067265
 20
-0.4993000869726422
 10
0.0364466094067265
 20
-0.4990101309160174
 10
0.0414466094067265
 20
-0.4986698754313855
 10
0.0464466094067265
 20
-0.498279217476192
 10
0.0514466094067265
 20
-0.4978380383966446
 10
0.0564466094067265
 20
-0.497346203745994
 10
0.0614466094067265
 20
-0.4968035630774849
 10
0.0664466094067264
 20
-0.4962099497112257
 10
0.0714466094067265
 20
-0.4955651804741228
 10
0.0764466094067265
 20
-0.4948690554119167
 10
0.0814466094067265
 20
-0.4941213574722463
 10
0.0864466094067265
 20
-0.4933218521575424
 10
0.0914466094067265
 20
-0.4924702871464235
 10
0.0964466094067265
 20
-0.4915663918821278
 10
0.1014466094067265
 20
-0.4906098771263643
 10
0.1064466094067265
 20
-0.4896004344768079
 10
0.1114466094067265
 20
-0.4885377358462822
 10
0.1164466094067265
 20
-0.4874214329014929
 10
0.1214466094067265
 20
-0.4862511564589613
 10
0.1264466094067265
 20
-0.4850265158355881
 10
0.1314466094067265
 20
-0.4837470981510305
 10
0.1364466094067265
 20
-0.482412467578809
 10
0.1414466094067265
 20
-0.4810221645427664
 10
0.1464466094067265
 20
-0.4795757048551781
 10
0.1514466094067265
 20
-0.4780725787924608
 10
0.1564466094067265
 20
-0.4765122501040308
 10
0.1614466094067265
 20
-0.4748941549494363
 10
0.1664466094067265
 20
-0.4732177007584056
 10
0.1714466094067265
 20
-0.4714822650079264
 10
0.1764466094067265
 20
-0.4696871939098801
 10
0.1814466094067266
 20
-0.4678318010021017
 10
0.1864466094067266
 20
-0.4659153656350076
 10
0.1914466094067266
 20
-0.4639371313451162
 10
0.1964466094067266
 20
-0.4618963041058764
 10
0.2014466094067266
 20
-0.4597920504451997
 10
0.2064466094067266
 20
-0.4576234954179405
 10
0.2114466094067266
 20
-0.4553897204202862
 10
0.2164466094067266
 20
-0.4530897608315588
 10
0.2214466094067266
 20
-0.45072260346729
 10
0.2264466094067266
 20
-0.4482871838255748
 10
0.2314466094067266
 20
-0.4457823831065977
 10
0.2364466094067266
 20
-0.4432070249828292
 10
0.2414466094067266
 20
-0.4405598720946596
 10
0.2464466094067266
 20
-0.4378396222431172
 10
0.2514466094067266
 20
-0.4350449042477435
 10
0.2564466094067266
 20
-0.4321742734336012
 10
0.2614466094067266
 20
-0.4292262067066663
 10
0.2664466094067266
 20
-0.4261990971714118
 10
0.2714466094067266
 20
-0.4230912482380831
 10
0.2764466094067266
 20
-0.4199008671598476
 10
0.2814466094067266
 20
-0.4166260579314797
 10
0.2864466094067266
 20
-0.4132648134712868
 10
0.2914466094067266
 20
-0.4098150069963156
 10
0.2964466094067266
 20
-0.4062743824871597
 10
0.3014466094067266
 20
-0.4026405441224911
 10
0.3064466094067266
 20
-0.3989109445442534
 10
0.3114466094067266
 20
-0.3950828717916294
 10
0.3164466094067266
 20
-0.391153434714632
 10
0.3214466094067266
 20
-0.3871195466454601
 10
0.3264466094067267
 20
-0.3829779070663467
 10
0.3314466094067267
 20
-0.3787249809648844
 10
0.3364466094067267
 20
-0.3743569755097196
 10
0.3414466094067267
 20
-0.3698698136084067
 10
0.3464466094067267
 20
-0.3652591038217257
 10
0.3514466094067267
 20
-0.3605201060004601
 10
0.3564466094067267
 20
-0.3556476918757041
 10
0.3614466094067267
 20
-0.3506362996645505
 10
0.3664466094067267
 20
-0.34547988153926
 10
0.3714466094067267
 20
-0.3401718425359658
 10
0.3764466094067267
 20
-0.334704969129899
 10
0.3814466094067267
 20
-0.3290713452523318
 10
0.3864466094067267
 20
-0.3232622529342269
 10
0.3914466094067267
 20
-0.3172680539828188
 10
0.3964466094067267
 20
-0.3110780480586465
 10
0.4014466094067267
 20
-0.304680301118911
 10
0.4064466094067267
 20
-0.2980614362775617
 10
0.4114466094067267
 20
-0.291206376478565
 10
0.4164466094067267
 20
-0.2840980246459106
 10
0.4214466094067267
 20
-0.276716861635935
 10
0.4264466094067267
 20
-0.2690404345439063
 10
0.4314466094067267
 20
-0.2610426963649944
 10
0.4364466094067267
 20
-0.2526931404518915
 10
0.4414466094067268
 20
-0.2439556458403291
 10
0.4464466094067268
 20
-0.2347869056044327
 10
0.4514466094067268
 20
-0.2251342376211081
 10
0.4564466094067268
 20
-0.2149324518428296
 10
0.4614466094067268
 20
-0.2040992228331676
 10
0.4664466094067268
 20
-0.1925279893081412
 10
0.4714466094067268
 20
-0.1800765408735088
 10
0.4764466094067268
 20
-0.1665475742210051
 10
0.4814466094067268
 20
-0.1516529867323223
 10
0.4864466094067268
 20
-0.1349413290684758
 10
0.4914466094067268
 20
-0.1156274024472547
 10
0.4964466094067268
 20
-0.0920881648347501
 10
0.5
 20
0.0
 10
0.495
 20
0.0
 10
0.49
 20
0.0705336798983295
 10
0.485
 20
0.0994987437106621
 10
0.48
 20
0.1215524578114322
 10
0.475
 20
0.14
 10
0.47
 20
0.15612494995996
 10
0.465
 20
0.1705872210923199
 10
0.46
 20
0.1837797594948911
 10
0.455
 20
0.1959591794226544
 10
0.45
 20
0.2073041244162789
 10
0.445
 20
0.2179449471770338
 10
0.4399999999999999
 20
0.2279802623035601
 10
0.4349999999999999
 20
0.2374868417407584
 10
0.4299999999999999
 20
0.2465258607124211
 10
0.4249999999999999
 20
0.2551470164434615
 10
0.4199999999999999
 20
0.2633913438213186
 10
0.4149999999999999
 20
0.2712931993250108
 10
0.4099999999999999
 20
0.2788816953476869
 10
0.4049999999999999
 20
0.2861817604250838
 10
0.3999999999999999
 20
0.2932149382279151
 10
0.3949999999999999
 20
0.3000000000000002
 10
0.3899999999999999
 20
0.3065534211193868
 10
0.3849999999999999
 20
0.3128897569432404
 10
0.3799999999999999
 20
0.3190219428189855
 10
0.3749999999999999
 20
0.3249615361854385
 10
0.3699999999999999
 20
0.330718913883074
 10
0.3649999999999999
 20
0.3363034344160049
 10
0.3599999999999999
 20
0.3417235724968357
 10
0.3549999999999999
 20
0.3469870314579496
 10
0.3535533905932738
 20
0.3535533905932738
 97
        0
 75
     0
 76
     1
 98
        0
  0
CIRCLE
  5
154
330
152
100
AcDbEntity
  8
0
 62
     0
370
    -2
100
AcDbCircle
 10
0.0
 20
0.0
 30
0.0
 40
0.5
  0
ENDBLK
  5
156
330
152
100
AcDbEntity
  8
0
100
AcDbBlockEnd
  0
BLOCK
  5
15B
330
157
100
AcDbEntity
  8
0
100
AcDbBlockBegin
  2
CDWK_PTTYP38
 70
     0
 10
0.0
 20
0.0
 30
0.0
  3
CDWK_PTTYP38
  1

  0
HATCH
  5
158
330
157
100
AcDbEntity
  8
0
 62
     0
370
    -2
100
AcDbHatch
 10
0.0
 20
0.0
 30
0.0
210
0.0
220
0.0
230
1.0
  2
SOLID
 70
     1
 71
     1
 91
        1
 92
        3
 72
     0
 73
     1
 93
      102
 10
0.0
 20
0.0
 10
0.0
 20
0.5
 10
0.005
 20
0.5
 10
0.01
 20
0.4999749993749688
 10
0.015
 20
0.4998999899979995
 10
0.02
 20
0.4997749493522059
 10
0.025
 20
0.4995998398718718
 10
0.03
 20
0.4993746088859545
 10
0.035
 20
0.4990991885387112
 10
0.04
 20
0.4987734956871706
 10
0.045
 20
0.4983974317750845
 10
0.05
 20
0.4979708826829135
 10
0.055
 20
0.49749371855331
 10
0.06
 20
0.4969657935914704
 10
0.065
 20
0.4963869458396343
 10
0.07
 20
0.4957569969249047
 10
0.075
 20
0.4950757517794626
 10
0.08
 20
0.4943429983321297
 10
0.085
 20
0.4935585071701227
 10
0.09
 20
0.4927220311697053
 10
0.095
 20
0.4918333050943175
 10
0.1
 20
0.4908920451586071
 10
0.105
 20
0.4898979485566356
 10
0.11
 20
0.4888506929523574
 10
0.115
 20
0.4877499359302879
 10
0.12
 20
0.4865953144040744
 10
0.125
 20
0.4853864439804639
 10
0.13
 20
0.4841229182759271
 10
0.135
 20
0.4828043081829325
 10
0.14
 20
0.4814301610825811
 10
0.145
 20
0.48
 10
0.15
 20
0.478513322698543
 10
0.1550000000000001
 20
0.4769696007084728
 10
0.1600000000000001
 20
0.4753682782853731
 10
0.1650000000000001
 20
0.4737087712930804
 10
0.1700000000000001
 20
0.4719904660054056
 10
0.1750000000000001
 20
0.4702127178203498
 10
0.1800000000000001
 20
0.4683748498798799
 10
0.1850000000000001
 20
0.466476151587624
 10
0.1900000000000001
 20
0.4645158770160606
 10
0.1950000000000001
 20
0.4624932431938871
 10
0.2000000000000001
 20
0.460407428263272
 10
0.2050000000000001
 20
0.4582575694955839
 10
0.2100000000000001
 20
0.4560427611529427
 10
0.2150000000000001
 20
0.4537620521815371
 10
0.2200000000000001
 20
0.4514144437210665
 10
0.2250000000000001
 20
0.4489988864128729
 10
0.2300000000000001
 20
0.4465142774872937
 10
0.2350000000000001
 20
0.4439594576084622
 10
0.2400000000000001
 20
0.4413332074521472
 10
0.2450000000000001
 20
0.4386342439892261
 10
0.2500000000000001
 20
0.4358612164439502
 10
0.2550000000000001
 20
0.4330127018922192
 10
0.2600000000000001
 20
0.4300872004605577
 10
0.2650000000000001
 20
0.4270831300812524
 10
0.2700000000000001
 20
0.423998820753077
 10
0.2750000000000001
 20
0.4208325082500162
 10
0.2800000000000001
 20
0.4175823272122516
 10
0.2850000000000001
 20
0.4142463035441595
 10
0.2900000000000001
 20
0.4108223460329293
 10
0.2950000000000002
 20
0.4073082370883259
 10
0.3000000000000002
 20
0.403701622488689
 10
0.3050000000000002
 20
0.3999999999999999
 10
0.3100000000000002
 20
0.3962007067131506
 10
0.3150000000000002
 20
0.3923009049186605
 10
0.3200000000000002
 20
0.3882975663070783
 10
0.3250000000000002
 20
0.3841874542459708
 10
0.3300000000000002
 20
0.3799671038392664
 10
0.3350000000000002
 20
0.3756327994198588
 10
0.3400000000000002
 20
0.3711805490593491
 10
0.3450000000000002
 20
0.366606055596467
 10
0.3500000000000002
 20
0.3619046835839512
 10
0.3550000000000002
 20
0.3570714214271423
 10
0.3600000000000002
 20
0.3521008378291649
 10
0.3650000000000002
 20
0.3469870314579492
 10
0.3700000000000002
 20
0.3417235724968353
 10
0.3750000000000002
 20
0.3363034344160045
 10
0.3800000000000002
 20
0.3307189138830736
 10
0.3850000000000002
 20
0.3249615361854382
 10
0.3900000000000002
 20
0.3190219428189851
 10
0.3950000000000002
 20
0.31288975694324
 10
0.4000000000000002
 20
0.3065534211193863
 10
0.4050000000000002
 20
0.2999999999999997
 10
0.4100000000000003
 20
0.2932149382279147
 10
0.4150000000000003
 20
0.2861817604250834
 10
0.4200000000000003
 20
0.2788816953476864
 10
0.4250000000000003
 20
0.2712931993250103
 10
0.4300000000000003
 20
0.263391343821318
 10
0.4350000000000003
 20
0.255147016443461
 10
0.4400000000000003
 20
0.2465258607124206
 10
0.4450000000000003
 20
0.2374868417407578
 10
0.4500000000000003
 20
0.2279802623035594
 10
0.4550000000000003
 20
0.2179449471770331
 10
0.4600000000000003
 20
0.2073041244162782
 10
0.4650000000000003
 20
0.1959591794226536
 10
0.4700000000000003
 20
0.1837797594948903
 10
0.4750000000000003
 20
0.170587221092319
 10
0.4800000000000003
 20
0.156124949959959
 10
0.4850000000000003
 20
0.1399999999999989
 10
0.4900000000000003
 20
0.1215524578114309
 10
0.4950000000000003
 20
0.0994987437106604
 10
0.5
 20
0.0
 97
        0
 75
     0
 76
     1
 98
        0
  0
HATCH
  5
159
330
157
100
AcDbEntity
  8
0
 62
     0
370
    -2
100
AcDbHatch
 10
0.0
 20
0.0
 30
0.0
210
0.0
220
0.0
230
1.0
  2
SOLID
 70
     1
 71
     1
 91
        1
 92
        3
 72
     0
 73
     1
 93
      102
 10
0.0
 20
0.0
 10
-0.5
 20
0.0
 10
-0.495
 20
0.0
 10
-0.49
 20
-0.0705336798983295
 10
-0.485
 20
-0.0994987437106621
 10
-0.48
 20
-0.1215524578114322
 10
-0.475
 20
-0.14
 10
-0.47
 20
-0.15612494995996
 10
-0.465
 20
-0.1705872210923199
 10
-0.46
 20
-0.1837797594948911
 10
-0.455
 20
-0.1959591794226544
 10
-0.45
 20
-0.2073041244162789
 10
-0.445
 20
-0.2179449471770338
 10
-0.4399999999999999
 20
-0.2279802623035601
 10
-0.4349999999999999
 20
-0.2374868417407584
 10
-0.4299999999999999
 20
-0.2465258607124211
 10
-0.4249999999999999
 20
-0.2551470164434615
 10
-0.4199999999999999
 20
-0.2633913438213186
 10
-0.4149999999999999
 20
-0.2712931993250108
 10
-0.4099999999999999
 20
-0.2788816953476869
 10
-0.4049999999999999
 20
-0.2861817604250838
 10
-0.3999999999999999
 20
-0.2932149382279151
 10
-0.3949999999999999
 20
-0.3000000000000002
 10
-0.3899999999999999
 20
-0.3065534211193868
 10
-0.3849999999999999
 20
-0.3128897569432404
 10
-0.3799999999999999
 20
-0.3190219428189855
 10
-0.3749999999999999
 20
-0.3249615361854385
 10
-0.3699999999999999
 20
-0.330718913883074
 10
-0.3649999999999999
 20
-0.3363034344160049
 10
-0.3599999999999999
 20
-0.3417235724968357
 10
-0.3549999999999999
 20
-0.3469870314579496
 10
-0.3499999999999999
 20
-0.3521008378291652
 10
-0.3449999999999999
 20
-0.3570714214271427
 10
-0.3399999999999999
 20
-0.3619046835839516
 10
-0.3349999999999999
 20
-0.3666060555964674
 10
-0.3299999999999998
 20
-0.3711805490593494
 10
-0.3249999999999998
 20
-0.3756327994198591
 10
-0.3199999999999998
 20
-0.3799671038392667
 10
-0.3149999999999998
 20
-0.3841874542459711
 10
-0.3099999999999998
 20
-0.3882975663070786
 10
-0.3049999999999998
 20
-0.3923009049186608
 10
-0.2999999999999998
 20
-0.3962007067131507
 10
-0.2949999999999998
 20
-0.4000000000000001
 10
-0.2899999999999998
 20
-0.4037016224886891
 10
-0.2849999999999998
 20
-0.4073082370883261
 10
-0.2799999999999998
 20
-0.4108223460329296
 10
-0.2749999999999998
 20
-0.4142463035441597
 10
-0.2699999999999998
 20
-0.4175823272122518
 10
-0.2649999999999998
 20
-0.4208325082500164
 10
-0.2599999999999998
 20
-0.4239988207530773
 10
-0.2549999999999998
 20
-0.4270831300812526
 10
-0.2499999999999998
 20
-0.4300872004605579
 10
-0.2449999999999998
 20
-0.4330127018922195
 10
-0.2399999999999998
 20
-0.4358612164439503
 10
-0.2349999999999998
 20
-0.4386342439892263
 10
-0.2299999999999998
 20
-0.4413332074521473
 10
-0.2249999999999998
 20
-0.4439594576084624
 10
-0.2199999999999998
 20
-0.4465142774872939
 10
-0.2149999999999997
 20
-0.4489988864128731
 10
-0.2099999999999997
 20
-0.4514144437210667
 10
-0.2049999999999997
 20
-0.4537620521815372
 10
-0.1999999999999997
 20
-0.4560427611529429
 10
-0.1949999999999997
 20
-0.4582575694955841
 10
-0.1899999999999997
 20
-0.4604074282632722
 10
-0.1849999999999997
 20
-0.4624932431938872
 10
-0.1799999999999997
 20
-0.4645158770160608
 10
-0.1749999999999997
 20
-0.4664761515876241
 10
-0.1699999999999997
 20
-0.46837484987988
 10
-0.1649999999999997
 20
-0.47021271782035
 10
-0.1599999999999997
 20
-0.4719904660054058
 10
-0.1549999999999997
 20
-0.4737087712930805
 10
-0.1499999999999997
 20
-0.4753682782853733
 10
-0.1449999999999997
 20
-0.4769696007084729
 10
-0.1399999999999997
 20
-0.4785133226985431
 10
-0.1349999999999997
 20
-0.4800000000000001
 10
-0.1299999999999997
 20
-0.4814301610825812
 10
-0.1249999999999997
 20
-0.4828043081829325
 10
-0.1199999999999997
 20
-0.4841229182759272
 10
-0.1149999999999997
 20
-0.485386443980464
 10
-0.1099999999999997
 20
-0.4865953144040744
 10
-0.1049999999999996
 20
-0.487749935930288
 10
-0.0999999999999996
 20
-0.4888506929523574
 10
-0.0949999999999996
 20
-0.4898979485566357
 10
-0.0899999999999996
 20
-0.4908920451586072
 10
-0.0849999999999996
 20
-0.4918333050943176
 10
-0.0799999999999996
 20
-0.4927220311697053
 10
-0.0749999999999996
 20
-0.4935585071701227
 10
-0.0699999999999996
 20
-0.4943429983321298
 10
-0.0649999999999996
 20
-0.4950757517794626
 10
-0.0599999999999996
 20
-0.4957569969249048
 10
-0.0549999999999996
 20
-0.4963869458396343
 10
-0.0499999999999996
 20
-0.4969657935914705
 10
-0.0449999999999996
 20
-0.49749371855331
 10
-0.0399999999999996
 20
-0.4979708826829135
 10
-0.0349999999999996
 20
-0.4983974317750846
 10
-0.0299999999999996
 20
-0.4987734956871706
 10
-0.0249999999999996
 20
-0.4990991885387112
 10
-0.0199999999999996
 20
-0.4993746088859545
 10
-0.0149999999999996
 20
-0.4995998398718719
 10
-0.0099999999999996
 20
-0.499774949352206
 10
-0.0049999999999996
 20
-0.4998999899979995
 10
0.0
 20
-0.5
 97
        0
 75
     0
 76
     1
 98
        0
  0
CIRCLE
  5
15A
330
157
100
AcDbEntity
  8
0
 62
     0
370
    -2
100
AcDbCircle
 10
0.0
 20
0.0
 30
0.0
 40
0.5
  0
ENDBLK
  5
15C
330
157
100
AcDbEntity
  8
0
100
AcDbBlockEnd
  0
BLOCK
  5
165
330
15D
100
AcDbEntity
  8
0
100
AcDbBlockBegin
  2
CDWK_PTTYP41
 70
     0
 10
0.0
 20
0.0
 30
0.0
  3
CDWK_PTTYP41
  1

  0
LINE
  5
15E
330
15D
100
AcDbEntity
  8
0
 62
     0
370
    -2
100
AcDbLine
 10
-0.5
 20
0.5
 30
0.0
 11
0.5
 21
0.5
 31
0.0
  0
LINE
  5
15F
330
15D
100
AcDbEntity
  8
0
 62
     0
370
    -2
100
AcDbLine
 10
0.5
 20
0.5
 30
0.0
 11
0.5
 21
-0.5
 31
0.0
  0
LINE
  5
160
330
15D
100
AcDbEntity
  8
0
 62
     0
370
    -2
100
AcDbLine
 10
0.5
 20
-0.5
 30
0.0
 11
-0.5
 21
-0.5
 31
0.0
  0
LINE
  5
161
330
15D
100
AcDbEntity
  8
0
 62
     0
370
    -2
100
AcDbLine
 10
-0.5
 20
-0.5
 30
0.0
 11
-0.5
 21
0.5
 31
0.0
  0
LINE
  5
162
330
15D
100
AcDbEntity
  8
0
 62
     0
370
    -2
100
AcDbLine
 10
-0.375
 20
0.25
 30
0.0
 11
0.375
 21
0.25
 31
0.0
  0
LINE
  5
163
330
15D
100
AcDbEntity
  8
0
 62
     0
370
    -2
100
AcDbLine
 10
-0.375
 20
0.0
 30
0.0
 11
0.375
 21
0.0
 31
0.0
  0
LINE
  5
164
330
15D
100
AcDbEntity
  8
0
 62
     0
370
    -2
100
AcDbLine
 10
-0.375
 20
-0.25
 30
0.0
 11
0.375
 21
-0.25
 31
0.0
  0
ENDBLK
  5
166
330
15D
100
AcDbEntity
  8
0
100
AcDbBlockEnd
  0
BLOCK
  5
16E
330
167
100
AcDbEntity
  8
0
100
AcDbBlockBegin
  2
CDWK_PTTYP42
 70
     0
 10
0.0
 20
0.0
 30
0.0
  3
CDWK_PTTYP42
  1

  0
LINE
  5
168
330
167
100
AcDbEntity
  8
0
 62
     0
370
    -2
100
AcDbLine
 10
-0.5
 20
0.5
 30
0.0
 11
0.5
 21
0.5
 31
0.0
  0
LINE
  5
169
330
167
100
AcDbEntity
  8
0
 62
     0
370
    -2
100
AcDbLine
 10
0.5
 20
0.5
 30
0.0
 11
0.5
 21
-0.5
 31
0.0
  0
LINE
  5
16A
330
167
100
AcDbEntity
  8
0
 62
     0
370
    -2
100
AcDbLine
 10
0.5
 20
-0.5
 30
0.0
 11
-0.5
 21
-0.5
 31
0.0
  0
LINE
  5
16B
330
167
100
AcDbEntity
  8
0
 62
     0
370
    -2
100
AcDbLine
 10
-0.5
 20
-0.5
 30
0.0
 11
-0.5
 21
0.5
 31
0.0
  0
LINE
  5
16C
330
167
100
AcDbEntity
  8
0
 62
     0
370
    -2
100
AcDbLine
 10
-0.375
 20
0.125
 30
0.0
 11
0.375
 21
0.125
 31
0.0
  0
LINE
  5
16D
330
167
100
AcDbEntity
  8
0
 62
     0
370
    -2
100
AcDbLine
 10
-0.375
 20
-0.125
 30
0.0
 11
0.375
 21
-0.125
 31
0.0
  0
ENDBLK
  5
16F
330
167
100
AcDbEntity
  8
0
100
AcDbBlockEnd
  0
BLOCK
  5
174
330
170
100
AcDbEntity
  8
0
100
AcDbBlockBegin
  2
CDWK_PTTYP43
 70
     0
 10
0.0
 20
0.0
 30
0.0
  3
CDWK_PTTYP43
  1

  0
CIRCLE
  5
171
330
170
100
AcDbEntity
  8
0
 62
     0
370
    -2
100
AcDbCircle
 10
0.0
 20
0.0
 30
0.0
 40
0.5
  0
LINE
  5
172
330
170
100
AcDbEntity
  8
0
 62
     0
370
    -2
100
AcDbLine
 10
-0.375
 20
0.166
 30
0.0
 11
0.375
 21
0.166
 31
0.0
  0
LINE
  5
173
330
170
100
AcDbEntity
  8
0
 62
     0
370
    -2
100
AcDbLine
 10
-0.375
 20
-0.166
 30
0.0
 11
0.375
 21
-0.166
 31
0.0
  0
ENDBLK
  5
175
330
170
100
AcDbEntity
  8
0
100
AcDbBlockEnd
  0
BLOCK
  5
17D
330
176
100
AcDbEntity
  8
0
100
AcDbBlockBegin
  2
CDWK_PTTYP44
 70
     0
 10
0.0
 20
0.0
 30
0.0
  3
CDWK_PTTYP44
  1

  0
CIRCLE
  5
177
330
176
100
AcDbEntity
  8
0
 62
     0
370
    -2
100
AcDbCircle
 10
0.0
 20
0.0
 30
0.0
 40
0.5
  0
LINE
  5
178
330
176
100
AcDbEntity
  8
0
 62
     0
370
    -2
100
AcDbLine
 10
-0.375
 20
0.333
 30
0.0
 11
0.375
 21
0.333
 31
0.0
  0
LINE
  5
179
330
176
100
AcDbEntity
  8
0
 62
     0
370
    -2
100
AcDbLine
 10
-0.375
 20
0.166
 30
0.0
 11
0.375
 21
0.166
 31
0.0
  0
LINE
  5
17A
330
176
100
AcDbEntity
  8
0
 62
     0
370
    -2
100
AcDbLine
 10
-0.375
 20
0.0
 30
0.0
 11
0.375
 21
0.0
 31
0.0
  0
LINE
  5
17B
330
176
100
AcDbEntity
  8
0
 62
     0
370
    -2
100
AcDbLine
 10
-0.375
 20
-0.166
 30
0.0
 11
0.375
 21
-0.166
 31
0.0
  0
LINE
  5
17C
330
176
100
AcDbEntity
  8
0
 62
     0
370
    -2
100
AcDbLine
 10
-0.375
 20
-0.333
 30
0.0
 11
0.375
 21
-0.333
 31
0.0
  0
ENDBLK
  5
17E
330
176
100
AcDbEntity
  8
0
100
AcDbBlockEnd
  0
BLOCK
  5
182
330
17F
100
AcDbEntity
  8
0
100
AcDbBlockBegin
  2
CDWK_PTTYP45
 70
     0
 10
0.0
 20
0.0
 30
0.0
  3
CDWK_PTTYP45
  1

  0
ELLIPSE
  5
180
330
17F
100
AcDbEntity
  8
0
 62
     0
370
    -2
100
AcDbEllipse
 10
0.0
 20
0.0
 30
0.0
 11
0.5
 21
0.0
 31
0.0
210
0.0
220
0.0
230
1.0
 40
0.82
 41
0.0
 42
6.283185307179586
  0
CIRCLE
  5
181
330
17F
100
AcDbEntity
  8
0
 62
     0
370
    -2
100
AcDbCircle
 10
-0.235
 20
0.0
 30
0.0
 40
0.26
  0
ENDBLK
  5
183
330
17F
100
AcDbEntity
  8
0
100
AcDbBlockEnd
  0
BLOCK
  5
187
330
184
100
AcDbEntity
  8
0
100
AcDbBlockBegin
  2
CDWK_PTTYP46
 70
     0
 10
0.0
 20
0.0
 30
0.0
  3
CDWK_PTTYP46
  1

  0
ELLIPSE
  5
185
330
184
100
AcDbEntity
  8
0
 62
     0
370
    -2
100
AcDbEllipse
 10
0.0
 20
0.0
 30
0.0
 11
0.5
 21
0.0
 31
0.0
210
0.0
220
0.0
230
1.0
 40
0.82
 41
0.0
 42
6.283185307179586
  0
CIRCLE
  5
186
330
184
100
AcDbEntity
  8
0
 62
     0
370
    -2
100
AcDbCircle
 10
0.0
 20
0.15
 30
0.0
 40
0.26
  0
ENDBLK
  5
188
330
184
100
AcDbEntity
  8
0
100
AcDbBlockEnd
  0
BLOCK
  5
18F
330
189
100
AcDbEntity
  8
0
100
AcDbBlockBegin
  2
CDWK_PTTYP47
 70
     0
 10
0.0
 20
0.0
 30
0.0
  3
CDWK_PTTYP47
  1

  0
LINE
  5
18A
330
189
100
AcDbEntity
  8
0
 62
     0
370
    -2
100
AcDbLine
 10
-0.5
 20
0.166
 30
0.0
 11
0.5
 21
0.166
 31
0.0
  0
LINE
  5
18B
330
189
100
AcDbEntity
  8
0
 62
     0
370
    -2
100
AcDbLine
 10
0.5
 20
0.166
 30
0.0
 11
0.5
 21
-0.166
 31
0.0
  0
LINE
  5
18C
330
189
100
AcDbEntity
  8
0
 62
     0
370
    -2
100
AcDbLine
 10
0.5
 20
-0.166
 30
0.0
 11
-0.5
 21
-0.166
 31
0.0
  0
LINE
  5
18D
330
189
100
AcDbEntity
  8
0
 62
     0
370
    -2
100
AcDbLine
 10
-0.5
 20
-0.166
 30
0.0
 11
-0.5
 21
0.166
 31
0.0
  0
CIRCLE
  5
18E
330
189
100
AcDbEntity
  8
0
 62
     0
370
    -2
100
AcDbCircle
 10
0.0
 20
-0.313
 30
0.0
 40
0.4
  0
ENDBLK
  5
190
330
189
100
AcDbEntity
  8
0
100
AcDbBlockEnd
  0
BLOCK
  5
195
330
192
100
AcDbEntity
  8
0
100
AcDbBlockBegin
  2
CDWK_PTTYP48
 70
     0
 10
0.0
 20
0.0
 30
0.0
  3
CDWK_PTTYP48
  1

  0
CIRCLE
  5
193
330
192
100
AcDbEntity
  8
0
  6
CADWORK_3
 62
     0
 48
0.1
370
    -2
100
AcDbCircle
 10
0.0
 20
0.0
 30
0.0
 40
0.5
  0
CIRCLE
  5
194
330
192
100
AcDbEntity
  8
0
 62
     0
370
    -2
100
AcDbCircle
 10
0.0
 20
0.0
 30
0.0
 40
0.25
  0
ENDBLK
  5
196
330
192
100
AcDbEntity
  8
0
100
AcDbBlockEnd
  0
BLOCK
  5
19C
330
197
100
AcDbEntity
  8
0
100
AcDbBlockBegin
  2
CDWK_PTTYP49
 70
     0
 10
0.0
 20
0.0
 30
0.0
  3
CDWK_PTTYP49
  1

  0
LINE
  5
198
330
197
100
AcDbEntity
  8
0
 62
     0
370
    -2
100
AcDbLine
 10
-0.5
 20
0.166
 30
0.0
 11
0.5
 21
0.166
 31
0.0
  0
LINE
  5
199
330
197
100
AcDbEntity
  8
0
 62
     0
370
    -2
100
AcDbLine
 10
0.5
 20
0.166
 30
0.0
 11
0.5
 21
-0.166
 31
0.0
  0
LINE
  5
19A
330
197
100
AcDbEntity
  8
0
 62
     0
370
    -2
100
AcDbLine
 10
0.5
 20
-0.166
 30
0.0
 11
-0.5
 21
-0.166
 31
0.0
  0
LINE
  5
19B
330
197
100
AcDbEntity
  8
0
 62
     0
370
    -2
100
AcDbLine
 10
-0.5
 20
-0.166
 30
0.0
 11
-0.5
 21
0.166
 31
0.0
  0
ENDBLK
  5
19D
330
197
100
AcDbEntity
  8
0
100
AcDbBlockEnd
  0
BLOCK
  5
1A6
330
19E
100
AcDbEntity
  8
0
100
AcDbBlockBegin
  2
CDWK_PTTYP50
 70
     0
 10
0.0
 20
0.0
 30
0.0
  3
CDWK_PTTYP50
  1

  0
LINE
  5
19F
330
19E
100
AcDbEntity
  8
0
 62
     0
370
    -2
100
AcDbLine
 10
-0.5
 20
0.166
 30
0.0
 11
0.5
 21
0.166
 31
0.0
  0
LINE
  5
1A0
330
19E
100
AcDbEntity
  8
0
 62
     0
370
    -2
100
AcDbLine
 10
0.5
 20
0.166
 30
0.0
 11
0.5
 21
-0.166
 31
0.0
  0
LINE
  5
1A1
330
19E
100
AcDbEntity
  8
0
 62
     0
370
    -2
100
AcDbLine
 10
0.5
 20
-0.166
 30
0.0
 11
-0.5
 21
-0.166
 31
0.0
  0
LINE
  5
1A2
330
19E
100
AcDbEntity
  8
0
 62
     0
370
    -2
100
AcDbLine
 10
-0.5
 20
-0.166
 30
0.0
 11
-0.5
 21
0.166
 31
0.0
  0
LINE
  5
1A3
330
19E
100
AcDbEntity
  8
0
 62
     0
370
    -2
100
AcDbLine
 10
-0.25
 20
-0.166
 30
0.0
 11
-0.25
 21
0.166
 31
0.0
  0
LINE
  5
1A4
330
19E
100
AcDbEntity
  8
0
 62
     0
370
    -2
100
AcDbLine
 10
0.0
 20
-0.166
 30
0.0
 11
0.0
 21
0.166
 31
0.0
  0
LINE
  5
1A5
330
19E
100
AcDbEntity
  8
0
 62
     0
370
    -2
100
AcDbLine
 10
0.25
 20
-0.166
 30
0.0
 11
0.25
 21
0.166
 31
0.0
  0
ENDBLK
  5
1A7
330
19E
100
AcDbEntity
  8
0
100
AcDbBlockEnd
  0
BLOCK
  5
1AB
330
1A8
100
AcDbEntity
  8
0
100
AcDbBlockBegin
  2
CDWK_PTTYP51
 70
     0
 10
0.0
 20
0.0
 30
0.0
  3
CDWK_PTTYP51
  1

  0
SPLINE
  5
1A9
330
1A8
100
AcDbEntity
  8
0
 62
     0
370
    -2
100
AcDbSpline
210
0.0
220
0.0
230
1.0
 70
  1064
 71
     3
 72
    12
 73
     8
 74
     6
 42
0.000000001
 43
0.0000000001
 44
0.0000000001
 40
0.0
 40
0.0
 40
0.0
 40
0.0
 40
0.1690118339052032
 40
0.5175774661755118
 40
0.8011704844252565
 40
0.9154070810132151
 40
0.975822310881188
 40
0.975822310881188
 40
0.975822310881188
 40
0.975822310881188
 10
-0.5
 20
-0.077
 30
0.0
 10
-0.443824324006723
 20
-0.0900581618560981
 30
0.0
 10
-0.2717933876546281
 20
-0.1300471387828842
 30
0.0
 10
-0.0276699186086479
 20
-0.0006977790990417
 30
0.0
 10
0.2303349729129116
 20
0.0817803270207037
 30
0.0
 10
0.3686157174766292
 20
0.0066250198607167
 30
0.0
 10
0.4216533294581816
 20
-0.0168719667726145
 30
0.0
 10
0.44
 20
-0.025
 30
0.0
 11
-0.5
 21
-0.077
 31
0.0
 11
-0.333
 21
-0.103
 31
0.0
 11
0.0
 21
0.0
 31
0.0
 11
0.28
 21
0.045
 31
0.0
 11
0.385
 21
0.0
 31
0.0
 11
0.44
 21
-0.025
 31
0.0
  0
HATCH
  5
1AA
330
1A8
100
AcDbEntity
  8
0
 62
     0
370
    -2
100
AcDbHatch
 10
0.0
 20
0.0
 30
0.0
210
0.0
220
0.0
230
1.0
  2
SOLID
 70
     1
 71
     1
 91
        1
 92
        3
 72
     0
 73
     1
 93
        3
 10
0.365
 20
-0.05
 10
0.5
 20
-0.042
 10
0.395
 20
0.045
 97
        0
 75
     0
 76
     1
 98
        0
  0
ENDBLK
  5
1AC
330
1A8
100
AcDbEntity
  8
0
100
AcDbBlockEnd
  0
BLOCK
  5
1B1
330
1AD
100
AcDbEntity
  8
0
100
AcDbBlockBegin
  2
CDWK_PTTYP52
 70
     0
 10
0.0
 20
0.0
 30
0.0
  3
CDWK_PTTYP52
  1

  0
LINE
  5
1AE
330
1AD
100
AcDbEntity
  8
0
 62
     0
370
    -2
100
AcDbLine
 10
-0.5
 20
-0.289
 30
0.0
 11
0.5
 21
-0.289
 31
0.0
  0
LINE
  5
1AF
330
1AD
100
AcDbEntity
  8
0
 62
     0
370
    -2
100
AcDbLine
 10
0.5
 20
-0.289
 30
0.0
 11
0.0
 21
0.577
 31
0.0
  0
LINE
  5
1B0
330
1AD
100
AcDbEntity
  8
0
 62
     0
370
    -2
100
AcDbLine
 10
0.0
 20
0.577
 30
0.0
 11
-0.5
 21
-0.289
 31
0.0
  0
ENDBLK
  5
1B2
330
1AD
100
AcDbEntity
  8
0
100
AcDbBlockEnd
  0
BLOCK
  5
1B8
330
1B3
100
AcDbEntity
  8
0
100
AcDbBlockBegin
  2
cw-dimension-symbol1
 70
     0
 10
0.0
 20
0.0
 30
0.0
  3
cw-dimension-symbol1
  1

  0
LINE
  5
1B4
330
1B3
100
AcDbEntity
  8
0
 62
     0
370
    -2
100
AcDbLine
 10
0.0
 20
0.0
 30
0.0
 11
-1.0
 21
0.25
 31
0.0
  0
LINE
  5
1B5
330
1B3
100
AcDbEntity
  8
0
 62
     0
370
    -2
100
AcDbLine
 10
0.0
 20
0.0
 30
0.0
 11
-1.0
 21
-0.25
 31
0.0
  0
LINE
  5
1B6
330
1B3
100
AcDbEntity
  8
0
 62
     0
370
    -2
100
AcDbLine
 10
-1.0
 20
0.25
 30
0.0
 11
-1.0
 21
-0.25
 31
0.0
  0
LINE
  5
1B7
330
1B3
100
AcDbEntity
  8
0
 62
     0
370
    -2
100
AcDbLine
 10
0.0
 20
0.0
 30
0.0
 11
-1.0
 21
0.0
 31
0.0
  0
ENDBLK
  5
1B9
330
1B3
100
AcDbEntity
  8
0
100
AcDbBlockEnd
  0
BLOCK
  5
1BD
330
1BA
100
AcDbEntity
  8
0
100
AcDbBlockBegin
  2
cw-dimension-symbol2
 70
     0
 10
0.0
 20
0.0
 30
0.0
  3
cw-dimension-symbol2
  1

  0
LINE
  5
1BB
330
1BA
100
AcDbEntity
  8
0
 62
     0
370
    -2
100
AcDbLine
 10
-1.0
 20
0.0
 30
0.0
 11
1.0
 21
0.0
 31
0.0
  0
LINE
  5
1BC
330
1BA
100
AcDbEntity
  8
0
 62
     0
370
    -2
100
AcDbLine
 10
-0.5
 20
-0.5
 30
0.0
 11
0.5
 21
0.5
 31
0.0
  0
ENDBLK
  5
1BE
330
1BA
100
AcDbEntity
  8
0
100
AcDbBlockEnd
  0
BLOCK
  5
1C2
330
1BF
100
AcDbEntity
  8
0
100
AcDbBlockBegin
  2
cw-dimension-symbol3
 70
     0
 10
0.0
 20
0.0
 30
0.0
  3
cw-dimension-symbol3
  1

  0
LINE
  5
1C0
330
1BF
100
AcDbEntity
  8
0
 62
     0
370
    -2
100
AcDbLine
 10
-1.0
 20
0.0
 30
0.0
 11
1.0
 21
0.0
 31
0.0
  0
CIRCLE
  5
1C1
330
1BF
100
AcDbEntity
  8
0
 62
     0
370
    -2
100
AcDbCircle
 10
0.0
 20
0.0
 30
0.0
 40
0.25
  0
ENDBLK
  5
1C3
330
1BF
100
AcDbEntity
  8
0
100
AcDbBlockEnd
  0
BLOCK
  5
1C9
330
1C4
100
AcDbEntity
  8
0
100
AcDbBlockBegin
  2
cw-dimension-symbol5
 70
     0
 10
0.0
 20
0.0
 30
0.0
  3
cw-dimension-symbol5
  1

  0
HATCH
  5
1C5
330
1C4
100
AcDbEntity
  8
0
 62
     0
370
    -2
100
AcDbHatch
 10
0.0
 20
0.0
 30
0.0
210
0.0
220
0.0
230
1.0
  2
SOLID
 70
     1
 71
     1
 91
        1
 92
        3
 72
     0
 73
     1
 93
        3
 10
0.0
 20
0.0
 10
-1.0
 20
0.25
 10
-1.0
 20
-0.25
 97
        0
 75
     0
 76
     1
 98
        0
  0
LINE
  5
1C6
330
1C4
100
AcDbEntity
  8
0
 62
     0
370
    -2
100
AcDbLine
 10
0.0
 20
0.0
 30
0.0
 11
-1.0
 21
0.25
 31
0.0
  0
LINE
  5
1C7
330
1C4
100
AcDbEntity
  8
0
 62
     0
370
    -2
100
AcDbLine
 10
-1.0
 20
0.25
 30
0.0
 11
-1.0
 21
-0.25
 31
0.0
  0
LINE
  5
1C8
330
1C4
100
AcDbEntity
  8
0
 62
     0
370
    -2
100
AcDbLine
 10
-1.0
 20
-0.25
 30
0.0
 11
0.0
 21
0.0
 31
0.0
  0
ENDBLK
  5
1CA
330
1C4
100
AcDbEntity
  8
0
100
AcDbBlockEnd
  0
BLOCK
  5
1CF
330
1CB
100
AcDbEntity
  8
0
100
AcDbBlockBegin
  2
cw-dimension-symbol6
 70
     0
 10
0.0
 20
0.0
 30
0.0
  3
cw-dimension-symbol6
  1

  0
LINE
  5
1CC
330
1CB
100
AcDbEntity
  8
0
 62
     0
370
    -2
100
AcDbLine
 10
0.0
 20
0.0
 30
0.0
 11
-1.0
 21
0.25
 31
0.0
  0
LINE
  5
1CD
330
1CB
100
AcDbEntity
  8
0
 62
     0
370
    -2
100
AcDbLine
 10
0.0
 20
0.0
 30
0.0
 11
-1.0
 21
-0.25
 31
0.0
  0
LINE
  5
1CE
330
1CB
100
AcDbEntity
  8
0
 62
     0
370
    -2
100
AcDbLine
 10
0.0
 20
0.0
 30
0.0
 11
-1.0
 21
0.0
 31
0.0
  0
ENDBLK
  5
1D0
330
1CB
100
AcDbEntity
  8
0
100
AcDbBlockEnd
  0
BLOCK
  5
1D5
330
1D1
100
AcDbEntity
  8
0
100
AcDbBlockBegin
  2
cw-dimension-symbol11
 70
     0
 10
0.0
 20
0.0
 30
0.0
  3
cw-dimension-symbol11
  1

  0
LINE
  5
1D2
330
1D1
100
AcDbEntity
  8
0
 62
     0
370
    -2
100
AcDbLine
 10
-1.0
 20
1.0
 30
0.0
 11
1.0
 21
1.0
 31
0.0
  0
LINE
  5
1D3
330
1D1
100
AcDbEntity
  8
0
 62
     0
370
    -2
100
AcDbLine
 10
0.0
 20
0.0
 30
0.0
 11
-1.0
 21
1.0
 31
0.0
  0
LINE
  5
1D4
330
1D1
100
AcDbEntity
  8
0
 62
     0
370
    -2
100
AcDbLine
 10
0.0
 20
0.0
 30
0.0
 11
1.0
 21
1.0
 31
0.0
  0
ENDBLK
  5
1D6
330
1D1
100
AcDbEntity
  8
0
100
AcDbBlockEnd
  0
BLOCK
  5
1DB
330
1D7
100
AcDbEntity
  8
0
100
AcDbBlockBegin
  2
cw-dimension-symbol13
 70
     0
 10
0.0
 20
0.0
 30
0.0
  3
cw-dimension-symbol13
  1

  0
LINE
  5
1D8
330
1D7
100
AcDbEntity
  8
0
 62
     0
370
    -2
100
AcDbLine
 10
-1.0
 20
-1.0
 30
0.0
 11
1.0
 21
-1.0
 31
0.0
  0
LINE
  5
1D9
330
1D7
100
AcDbEntity
  8
0
 62
     0
370
    -2
100
AcDbLine
 10
0.0
 20
0.0
 30
0.0
 11
-1.0
 21
-1.0
 31
0.0
  0
LINE
  5
1DA
330
1D7
100
AcDbEntity
  8
0
 62
     0
370
    -2
100
AcDbLine
 10
0.0
 20
0.0
 30
0.0
 11
1.0
 21
-1.0
 31
0.0
  0
ENDBLK
  5
1DC
330
1D7
100
AcDbEntity
  8
0
100
AcDbBlockEnd
  0
BLOCK
  5
1E2
330
1DD
100
AcDbEntity
  8
0
100
AcDbBlockBegin
  2
cw-dimension-symbol15
 70
     0
 10
0.0
 20
0.0
 30
0.0
  3
cw-dimension-symbol15
  1

  0
HATCH
  5
1DE
330
1DD
100
AcDbEntity
  8
0
 62
     0
370
    -2
100
AcDbHatch
 10
0.0
 20
0.0
 30
0.0
210
0.0
220
0.0
230
1.0
  2
SOLID
 70
     1
 71
     1
 91
        1
 92
        3
 72
     0
 73
     1
 93
        3
 10
0.0
 20
0.0
 10
-1.0
 20
1.0
 10
1.0
 20
1.0
 97
        0
 75
     0
 76
     1
 98
        0
  0
LINE
  5
1DF
330
1DD
100
AcDbEntity
  8
0
 62
     0
370
    -2
100
AcDbLine
 10
0.0
 20
0.0
 30
0.0
 11
-1.0
 21
1.0
 31
0.0
  0
LINE
  5
1E0
330
1DD
100
AcDbEntity
  8
0
 62
     0
370
    -2
100
AcDbLine
 10
-1.0
 20
1.0
 30
0.0
 11
1.0
 21
1.0
 31
0.0
  0
LINE
  5
1E1
330
1DD
100
AcDbEntity
  8
0
 62
     0
370
    -2
100
AcDbLine
 10
1.0
 20
1.0
 30
0.0
 11
0.0
 21
0.0
 31
0.0
  0
ENDBLK
  5
1E3
330
1DD
100
AcDbEntity
  8
0
100
AcDbBlockEnd
  0
BLOCK
  5
1E9
330
1E4
100
AcDbEntity
  8
0
100
AcDbBlockBegin
  2
cw-dimension-symbol16
 70
     0
 10
0.0
 20
0.0
 30
0.0
  3
cw-dimension-symbol16
  1

  0
HATCH
  5
1E5
330
1E4
100
AcDbEntity
  8
0
 62
     0
370
    -2
100
AcDbHatch
 10
0.0
 20
0.0
 30
0.0
210
0.0
220
0.0
230
1.0
  2
SOLID
 70
     1
 71
     1
 91
        1
 92
        3
 72
     0
 73
     1
 93
        3
 10
0.0
 20
0.0
 10
-1.0
 20
-1.0
 10
1.0
 20
-1.0
 97
        0
 75
     0
 76
     1
 98
        0
  0
LINE
  5
1E6
330
1E4
100
AcDbEntity
  8
0
 62
     0
370
    -2
100
AcDbLine
 10
0.0
 20
0.0
 30
0.0
 11
-1.0
 21
-1.0
 31
0.0
  0
LINE
  5
1E7
330
1E4
100
AcDbEntity
  8
0
 62
     0
370
    -2
100
AcDbLine
 10
-1.0
 20
-1.0
 30
0.0
 11
1.0
 21
-1.0
 31
0.0
  0
LINE
  5
1E8
330
1E4
100
AcDbEntity
  8
0
 62
     0
370
    -2
100
AcDbLine
 10
1.0
 20
-1.0
 30
0.0
 11
0.0
 21
0.0
 31
0.0
  0
ENDBLK
  5
1EA
330
1E4
100
AcDbEntity
  8
0
100
AcDbBlockEnd
  0
BLOCK
  5
1F0
330
1EB
100
AcDbEntity
  8
0
100
AcDbBlockBegin
  2
cw-dimension-symbol17
 70
     0
 10
0.0
 20
0.0
 30
0.0
  3
cw-dimension-symbol17
  1

  0
LINE
  5
1EC
330
1EB
100
AcDbEntity
  8
0
 62
     0
370
    -2
100
AcDbLine
 10
0.0
 20
0.0
 30
0.0
 11
1.0
 21
1.0
 31
0.0
  0
LINE
  5
1ED
330
1EB
100
AcDbEntity
  8
0
 62
     0
370
    -2
100
AcDbLine
 10
1.0
 20
1.0
 30
0.0
 11
-1.0
 21
1.0
 31
0.0
  0
LINE
  5
1EE
330
1EB
100
AcDbEntity
  8
0
 62
     0
370
    -2
100
AcDbLine
 10
-1.0
 20
1.0
 30
0.0
 11
0.0
 21
0.0
 31
0.0
  0
HATCH
  5
1EF
330
1EB
100
AcDbEntity
  8
0
 62
     0
370
    -2
100
AcDbHatch
 10
0.0
 20
0.0
 30
0.0
210
0.0
220
0.0
230
1.0
  2
SOLID
 70
     1
 71
     1
 91
        1
 92
        3
 72
     0
 73
     1
 93
        3
 10
0.0
 20
0.0
 10
-1.0
 20
1.0
 10
0.0
 20
1.0
 97
        0
 75
     0
 76
     1
 98
        0
  0
ENDBLK
  5
1F1
330
1EB
100
AcDbEntity
  8
0
100
AcDbBlockEnd
  0
BLOCK
  5
1F7
330
1F2
100
AcDbEntity
  8
0
100
AcDbBlockBegin
  2
cw-dimension-symbol18
 70
     0
 10
0.0
 20
0.0
 30
0.0
  3
cw-dimension-symbol18
  1

  0
LINE
  5
1F3
330
1F2
100
AcDbEntity
  8
0
 62
     0
370
    -2
100
AcDbLine
 10
0.0
 20
0.0
 30
0.0
 11
1.0
 21
-1.0
 31
0.0
  0
LINE
  5
1F4
330
1F2
100
AcDbEntity
  8
0
 62
     0
370
    -2
100
AcDbLine
 10
1.0
 20
-1.0
 30
0.0
 11
-1.0
 21
-1.0
 31
0.0
  0
LINE
  5
1F5
330
1F2
100
AcDbEntity
  8
0
 62
     0
370
    -2
100
AcDbLine
 10
-1.0
 20
-1.0
 30
0.0
 11
0.0
 21
0.0
 31
0.0
  0
HATCH
  5
1F6
330
1F2
100
AcDbEntity
  8
0
 62
     0
370
    -2
100
AcDbHatch
 10
0.0
 20
0.0
 30
0.0
210
0.0
220
0.0
230
1.0
  2
SOLID
 70
     1
 71
     1
 91
        1
 92
        3
 72
     0
 73
     1
 93
        3
 10
0.0
 20
0.0
 10
-1.0
 20
-1.0
 10
0.0
 20
-1.0
 97
        0
 75
     0
 76
     1
 98
        0
  0
ENDBLK
  5
1F8
330
1F2
100
AcDbEntity
  8
0
100
AcDbBlockEnd
  0
BLOCK
  5
1FA
330
1F9
100
AcDbEntity
  8
0
100
AcDbBlockBegin
  2
cw-dimension-symbol19
 70
     0
 10
0.0
 20
0.0
 30
0.0
  3
cw-dimension-symbol19
  1

  0
ENDBLK
  5
1FB
330
1F9
100
AcDbEntity
  8
0
100
AcDbBlockEnd
  0
BLOCK
  5
201
330
1FC
100
AcDbEntity
  8
0
100
AcDbBlockBegin
  2
cw-dimension-symbol20
 70
     0
 10
0.0
 20
0.0
 30
0.0
  3
cw-dimension-symbol20
  1

  0
LINE
  5
1FD
330
1FC
100
AcDbEntity
  8
0
 62
     0
370
    -2
100
AcDbLine
 10
0.0
 20
0.0
 30
0.0
 11
0.0
 21
2.0
 31
0.0
  0
LINE
  5
1FE
330
1FC
100
AcDbEntity
  8
0
 62
     0
370
    -2
100
AcDbLine
 10
0.0
 20
0.0
 30
0.0
 11
-1.0
 21
0.33
 31
0.0
  0
LINE
  5
1FF
330
1FC
100
AcDbEntity
  8
0
 62
     0
370
    -2
100
AcDbLine
 10
0.0
 20
0.0
 30
0.0
 11
1.0
 21
0.33
 31
0.0
  0
LINE
  5
200
330
1FC
100
AcDbEntity
  8
0
 62
     0
370
    -2
100
AcDbLine
 10
0.0
 20
2.0
 30
0.0
 11
4.15
 21
2.0
 31
0.0
  0
ENDBLK
  5
202
330
1FC
100
AcDbEntity
  8
0
100
AcDbBlockEnd
  0
BLOCK
  5
208
330
203
100
AcDbEntity
  8
0
100
AcDbBlockBegin
  2
cw-dimension-symbol21
 70
     0
 10
0.0
 20
0.0
 30
0.0
  3
cw-dimension-symbol21
  1

  0
LINE
  5
204
330
203
100
AcDbEntity
  8
0
 62
     0
370
    -2
100
AcDbLine
 10
0.0
 20
0.0
 30
0.0
 11
0.0
 21
-2.0
 31
0.0
  0
LINE
  5
205
330
203
100
AcDbEntity
  8
0
 62
     0
370
    -2
100
AcDbLine
 10
0.0
 20
0.0
 30
0.0
 11
-1.0
 21
-0.33
 31
0.0
  0
LINE
  5
206
330
203
100
AcDbEntity
  8
0
 62
     0
370
    -2
100
AcDbLine
 10
0.0
 20
0.0
 30
0.0
 11
1.0
 21
-0.33
 31
0.0
  0
LINE
  5
207
330
203
100
AcDbEntity
  8
0
 62
     0
370
    -2
100
AcDbLine
 10
0.0
 20
-2.0
 30
0.0
 11
4.15
 21
-2.0
 31
0.0
  0
ENDBLK
  5
209
330
203
100
AcDbEntity
  8
0
100
AcDbBlockEnd
  0
BLOCK
  5
23A
330
20A
100
AcDbEntity
  8
0
100
AcDbBlockBegin
  2
cw-line-extremity0
 70
     0
 10
0.0
 20
0.0
 30
0.0
  3
cw-line-extremity0
  1

  0
LINE
  5
20B
330
20A
100
AcDbEntity
  8
0
 62
     0
370
    -2
100
AcDbLine
 10
0.0
 20
0.0
 30
0.0
 11
4.0
 21
1.0
 31
0.0
  0
LINE
  5
20C
330
20A
100
AcDbEntity
  8
0
 62
     0
370
    -2
100
AcDbLine
 10
0.0
 20
0.0
 30
0.0
 11
4.0
 21
-1.0
 31
0.0
  0
LINE
  5
20D
330
20A
100
AcDbEntity
  8
0
 62
     0
370
    -2
100
AcDbLine
 10
4.0
 20
1.0
 30
0.0
 11
4.0
 21
-1.0
 31
0.0
  0
ENDBLK
  5
23B
330
20A
100
AcDbEntity
  8
0
100
AcDbBlockEnd
  0
BLOCK
  5
238
330
20E
100
AcDbEntity
  8
0
100
AcDbBlockBegin
  2
cw-line-extremity2
 70
     0
 10
0.0
 20
0.0
 30
0.0
  3
cw-line-extremity2
  1

  0
HATCH
  5
20F
330
20E
100
AcDbEntity
  8
0
 62
     0
370
     0
100
AcDbHatch
 10
0.0
 20
0.0
 30
0.0
210
0.0
220
0.0
230
1.0
  2
SOLID
 70
     1
 71
     1
 91
        1
 92
        3
 72
     0
 73
     1
 93
        3
 10
0.0
 20
0.0
 10
4.0
 20
1.0
 10
4.0
 20
-1.0
 97
        0
 75
     0
 76
     1
 98
        0
  0
LINE
  5
210
330
20E
100
AcDbEntity
  8
0
 62
     0
370
    -2
100
AcDbLine
 10
0.0
 20
0.0
 30
0.0
 11
4.0
 21
1.0
 31
0.0
  0
LINE
  5
211
330
20E
100
AcDbEntity
  8
0
 62
     0
370
    -2
100
AcDbLine
 10
4.0
 20
1.0
 30
0.0
 11
4.0
 21
-1.0
 31
0.0
  0
LINE
  5
212
330
20E
100
AcDbEntity
  8
0
 62
     0
370
    -2
100
AcDbLine
 10
4.0
 20
-1.0
 30
0.0
 11
0.0
 21
0.0
 31
0.0
  0
ENDBLK
  5
239
330
20E
100
AcDbEntity
  8
0
100
AcDbBlockEnd
  0
BLOCK
  5
236
330
213
100
AcDbEntity
  8
0
100
AcDbBlockBegin
  2
cw-line-extremity3
 70
     0
 10
0.0
 20
0.0
 30
0.0
  3
cw-line-extremity3
  1

  0
HATCH
  5
214
330
213
100
AcDbEntity
  8
0
 62
     0
370
     0
100
AcDbHatch
 10
0.0
 20
0.0
 30
0.0
210
0.0
220
0.0
230
1.0
  2
SOLID
 70
     1
 71
     1
 91
        1
 92
        3
 72
     0
 73
     1
 93
        3
 10
0.0
 20
0.0
 10
4.0
 20
1.0
 10
4.0
 20
-1.0
 97
        0
 75
     0
 76
     1
 98
        0
  0
LINE
  5
215
330
213
100
AcDbEntity
  8
0
 62
     0
370
    -2
100
AcDbLine
 10
0.0
 20
0.0
 30
0.0
 11
4.0
 21
1.0
 31
0.0
  0
LINE
  5
216
330
213
100
AcDbEntity
  8
0
 62
     0
370
    -2
100
AcDbLine
 10
4.0
 20
1.0
 30
0.0
 11
4.0
 21
-1.0
 31
0.0
  0
LINE
  5
217
330
213
100
AcDbEntity
  8
0
 62
     0
370
    -2
100
AcDbLine
 10
4.0
 20
-1.0
 30
0.0
 11
0.0
 21
0.0
 31
0.0
  0
ENDBLK
  5
237
330
213
100
AcDbEntity
  8
0
100
AcDbBlockEnd
  0
BLOCK
  5
234
330
218
100
AcDbEntity
  8
0
100
AcDbBlockBegin
  2
cw-line-extremity301
 70
     0
 10
0.0
 20
0.0
 30
0.0
  3
cw-line-extremity301
  1

  0
LINE
  5
219
330
218
100
AcDbEntity
  8
0
 62
     0
370
    -2
100
AcDbLine
 10
0.0
 20
2.66666
 30
0.0
 11
0.0
 21
-2.66666
 31
0.0
  0
ENDBLK
  5
235
330
218
100
AcDbEntity
  8
0
100
AcDbBlockEnd
  0
BLOCK
  5
232
330
21A
100
AcDbEntity
  8
0
100
AcDbBlockBegin
  2
cw-line-extremity4
 70
     0
 10
0.0
 20
0.0
 30
0.0
  3
cw-line-extremity4
  1

  0
HATCH
  5
21B
330
21A
100
AcDbEntity
  8
0
 62
     0
370
     5
100
AcDbHatch
 10
0.0
 20
0.0
 30
0.0
210
0.0
220
0.0
230
1.0
  2
SOLID
 70
     1
 71
     1
 91
        1
 92
        1
 93
        1
 72
     2
 10
0.0
 20
0.0
 40
1.0
 50
0.0
 51
360.0
 73
     1
 97
        0
 75
     0
 76
     1
 98
        0
  0
ENDBLK
  5
233
330
21A
100
AcDbEntity
  8
0
100
AcDbBlockEnd
  0
BLOCK
  5
230
330
21C
100
AcDbEntity
  8
0
100
AcDbBlockBegin
  2
cw-line-extremity5
 70
     0
 10
0.0
 20
0.0
 30
0.0
  3
cw-line-extremity5
  1

  0
LINE
  5
21D
330
21C
100
AcDbEntity
  8
0
 62
     0
370
    -2
100
AcDbLine
 10
0.0
 20
0.0
 30
0.0
 11
-1.0
 21
0.0
 31
0.0
  0
ENDBLK
  5
231
330
21C
100
AcDbEntity
  8
0
100
AcDbBlockEnd
  0
BLOCK
  5
22E
330
21E
100
AcDbEntity
  8
0
100
AcDbBlockBegin
  2
cw-line-extremity6
 70
     0
 10
0.0
 20
0.0
 30
0.0
  3
cw-line-extremity6
  1

  0
LINE
  5
21F
330
21E
100
AcDbEntity
  8
0
 62
     0
370
    18
100
AcDbLine
 10
0.0
 20
1.0
 30
0.0
 11
0.0
 21
-1.0
 31
0.0
  0
ENDBLK
  5
22F
330
21E
100
AcDbEntity
  8
0
100
AcDbBlockEnd
  0
BLOCK
  5
22C
330
220
100
AcDbEntity
  8
0
100
AcDbBlockBegin
  2
cw-line-extremity9
 70
     0
 10
0.0
 20
0.0
 30
0.0
  3
cw-line-extremity9
  1

  0
LINE
  5
221
330
220
100
AcDbEntity
  8
0
 62
     0
370
    18
100
AcDbLine
 10
-1.0
 20
-1.0
 30
0.0
 11
1.0
 21
1.0
 31
0.0
  0
ENDBLK
  5
22D
330
220
100
AcDbEntity
  8
0
100
AcDbBlockEnd
  0
BLOCK
  5
22A
330
222
100
AcDbEntity
  8
0
100
AcDbBlockBegin
  2
cw-line-extremity10
 70
     0
 10
0.0
 20
0.0
 30
0.0
  3
cw-line-extremity10
  1

  0
CIRCLE
  5
223
330
222
100
AcDbEntity
  8
0
 62
     0
370
    -2
100
AcDbCircle
 10
0.0
 20
0.0
 30
0.0
 40
1.0
  0
ENDBLK
  5
22B
330
222
100
AcDbEntity
  8
0
100
AcDbBlockEnd
  0
BLOCK
  5
228
330
224
100
AcDbEntity
  8
0
100
AcDbBlockBegin
  2
cw-line-extremity1
 70
     0
 10
0.0
 20
0.0
 30
0.0
  3
cw-line-extremity1
  1

  0
LINE
  5
225
330
224
100
AcDbEntity
  8
0
 62
     0
370
    -2
100
AcDbLine
 10
0.0
 20
0.0
 30
0.0
 11
0.0
 21
1.0
 31
0.0
  0
LINE
  5
226
330
224
100
AcDbEntity
  8
0
 62
     0
370
    -2
100
AcDbLine
 10
0.0
 20
1.0
 30
0.0
 11
0.5
 21
1.5
 31
0.0
  0
LINE
  5
227
330
224
100
AcDbEntity
  8
0
 62
     0
370
    -2
100
AcDbLine
 10
0.5
 20
1.5
 30
0.0
 11
1.5
 21
1.5
 31
0.0
  0
ENDBLK
  5
229
330
224
100
AcDbEntity
  8
0
100
AcDbBlockEnd
  0
BLOCK
  5
1C
330
1B
100
AcDbEntity
  8
0
100
AcDbBlockBegin
  2
*Paper_Space69
 70
     0
 10
0.0
 20
0.0
 30
0.0
  3
*Paper_Space69
  1

  0
ENDBLK
  5
1D
330
1B
100
AcDbEntity
  8
0
100
AcDbBlockEnd
  0
BLOCK
  5
3E2
330
3E1
100
AcDbEntity
  8
0
100
AcDbBlockBegin
  2
*D70
 70
     1
 10
0.0
 20
0.0
 30
0.0
  3
*D70
  1

  0
LINE
  5
3E4
330
3E1
100
AcDbEntity
  8
Ech.1_2
 62
     0
370
    -2
100
AcDbLine
 10
6000.392154427584
 20
809.6273630668074
 30
0.0
 11
5984.219505267112
 21
809.6273630668074
 31
0.0
  0
LINE
  5
3E5
330
3E1
100
AcDbEntity
  8
Ech.1_2
 62
     0
370
    -2
100
AcDbLine
 10
6040.80034309757
 20
839.6273630668074
 30
0.0
 11
5984.219505267112
 21
839.6273630668074
 31
0.0
  0
LINE
  5
3E6
330
3E1
100
AcDbEntity
  8
Ech.1_2
 62
     0
370
    -2
100
AcDbLine
 10
5986.219505267112
 20
811.6273630668074
 30
0.0
 11
5986.219505267112
 21
837.6273630668074
 31
0.0
  0
INSERT
  5
3E7
330
3E1
100
AcDbEntity
  8
Ech.1_2
 62
     0
370
    -2
100
AcDbBlockReference
  2
cw-dimension-symbol2
 10
5986.219505267112
 20
809.6273630668074
 30
0.0
 41
2.0
 42
2.0
 43
2.0
 50
270.0
  0
INSERT
  5
3E8
330
3E1
100
AcDbEntity
  8
Ech.1_2
 62
     0
370
    -2
100
AcDbBlockReference
  2
cw-dimension-symbol2
 10
5986.219505267112
 20
839.6273630668074
 30
0.0
 41
2.0
 42
2.0
 43
2.0
 50
90.0
  0
MTEXT
  5
3E9
330
3E1
100
AcDbEntity
  8
Ech.1_2
 62
   190
370
    15
100
AcDbMText
 10
5981.719505267112
 20
824.6273630668074
 30
0.0
 40
5.0
 41
0.0
 46
0.0
 71
     5
 72
     1
  1
\A1;30
  7
arial-z
 11
6.123233995736766E-17
 21
1.0
 31
0.0
 73
     1
 44
1.0
  0
POINT
  5
3EA
330
3E1
100
AcDbEntity
  8
Defpoints
 62
     0
100
AcDbPoint
 10
6000.392154427584
 20
809.6273630668074
 30
0.0
  0
POINT
  5
3EB
330
3E1
100
AcDbEntity
  8
Defpoints
 62
     0
100
AcDbPoint
 10
6040.80034309757
 20
839.6273630668074
 30
0.0
  0
POINT
  5
3EC
330
3E1
100
AcDbEntity
  8
Defpoints
 62
     0
100
AcDbPoint
 10
5986.219505267112
 20
839.6273630668074
 30
0.0
  0
ENDBLK
  5
3E3
330
3E1
100
AcDbEntity
  8
0
100
AcDbBlockEnd
  0
BLOCK
  5
3F0
330
3EF
100
AcDbEntity
  8
0
100
AcDbBlockBegin
  2
*D71
 70
     1
 10
0.0
 20
0.0
 30
0.0
  3
*D71
  1

  0
LINE
  5
3F2
330
3EF
100
AcDbEntity
  8
Ech.1_2
 62
     0
370
    -2
100
AcDbLine
 10
6023.297705423294
 20
823.7307921018
 30
0.0
 11
6023.297705423294
 21
814.2965190563036
 31
0.0
  0
LINE
  5
3F3
330
3EF
100
AcDbEntity
  8
Ech.1_2
 62
     0
370
    -2
100
AcDbLine
 10
6043.280636244626
 20
818.022087270605
 30
0.0
 11
6043.280636244626
 21
814.2965190563036
 31
0.0
  0
LINE
  5
3F4
330
3EF
100
AcDbEntity
  8
Ech.1_2
 62
     0
370
    -2
100
AcDbLine
 10
6025.297705423294
 20
816.2965190563036
 30
0.0
 11
6041.280636244626
 21
816.2965190563036
 31
0.0
  0
INSERT
  5
3F5
330
3EF
100
AcDbEntity
  8
Ech.1_2
 62
     0
370
    -2
100
AcDbBlockReference
  2
cw-dimension-symbol2
 10
6023.297705423294
 20
816.2965190563036
 30
0.0
 41
2.0
 42
2.0
 43
2.0
 50
180.0
  0
INSERT
  5
3F6
330
3EF
100
AcDbEntity
  8
Ech.1_2
 62
     0
370
    -2
100
AcDbBlockReference
  2
cw-dimension-symbol2
 10
6043.280636244626
 20
816.2965190563036
 30
0.0
 41
2.0
 42
2.0
 43
2.0
  0
MTEXT
  5
3F7
330
3EF
100
AcDbEntity
  8
Ech.1_2
 62
   190
370
    15
100
AcDbMText
 10
6033.28917083396
 20
820.7965190563036
 30
0.0
 40
5.0
 41
0.0
 46
0.0
 71
     5
 72
     1
  1
\A1;10 mini
  7
arial-z
 73
     1
 44
1.0
  0
POINT
  5
3F8
330
3EF
100
AcDbEntity
  8
Defpoints
 62
     0
100
AcDbPoint
 10
6023.297705423294
 20
823.7307921018
 30
0.0
  0
POINT
  5
3F9
330
3EF
100
AcDbEntity
  8
Defpoints
 62
     0
100
AcDbPoint
 10
6043.280636244626
 20
818.022087270605
 30
0.0
  0
POINT
  5
3FA
330
3EF
100
AcDbEntity
  8
Defpoints
 62
     0
100
AcDbPoint
 10
6043.280636244626
 20
816.2965190563036
 30
0.0
  0
ENDBLK
  5
3F1
330
3EF
100
AcDbEntity
  8
0
100
AcDbBlockEnd
  0
ENDSEC
  0
SECTION
  2
ENTITIES
  0
HATCH
  5
245
330
1F
100
AcDbEntity
  8
Ech.1_2
 62
   254
420
 15326711
440
 33554687
370
     5
100
AcDbHatch
 10
0.0
 20
0.0
 30
0.0
210
0.0
220
0.0
230
1.0
  2
SOLID
 70
     1
 71
     1
 91
        1
 92
        3
 72
     0
 73
     1
 93
       16
 10
6085.750568352662
 20
629.5936584616065
 10
6092.345109985265
 20
636.78499910338
 10
6132.30034309757
 20
636.78499910338
 10
6132.30034309757
 20
847.8288992093803
 10
6125.109178966643
 20
854.423100471744
 10
6139.491458971366
 20
848.7791244646214
 10
6132.300118329595
 20
855.3736660972281
 10
6132.30034309757
 20
1011.710214022751
 10
6092.345109985265
 20
1011.710214022751
 10
6085.750568352662
 20
1004.518873380985
 10
6091.394544359784
 20
1018.901153385705
 10
6084.800343097422
 20
1011.70890927696
 10
6082.30034309757
 20
1011.70890927696
 10
6082.30034309757
 20
636.784698348587
 10
6084.800343097422
 20
636.78499910338
 10
6091.394544359784
 20
643.9759384663339
 97
        0
 75
     0
 76
     1
 98
        0
  0
LWPOLYLINE
  5
246
330
1F
100
AcDbEntity
  8
Ech.1_2
 62
   190
370
    15
100
AcDbPolyline
 90
       17
 70
     0
 43
0.0
 10
6085.750568352662
 20
629.5936584616065
 10
6092.345109985265
 20
636.78499910338
 10
6132.30034309757
 20
636.78499910338
 10
6132.30034309757
 20
847.8288992093803
 10
6125.109178966643
 20
854.423100471744
 10
6139.491458971366
 20
848.7791244646214
 10
6132.300118329595
 20
855.3736660972281
 10
6132.30034309757
 20
1011.710214022751
 10
6092.345109985265
 20
1011.710214022751
 10
6085.750568352662
 20
1004.518873380985
 10
6091.394544359784
 20
1018.901153385705
 10
6084.800343097422
 20
1011.70890927696
 10
6082.30034309757
 20
1011.70890927696
 10
6082.30034309757
 20
636.784698348587
 10
6084.800343097422
 20
636.78499910338
 10
6091.394544359784
 20
643.9759384663339
 10
6085.750568352662
 20
629.5936584616065
  0
LINE
  5
247
330
1F
100
AcDbEntity
  8
Ech.1_2
 62
     7
370
    18
100
AcDbLine
 10
6082.30034309757
 20
1011.70890927696
 30
0.0
 11
6082.30034309757
 21
636.784698348587
 31
0.0
  0
HATCH
  5
248
330
1F
100
AcDbEntity
  8
Ech.1_2
 62
    35
420
  9529928
440
 33554687
370
    20
100
AcDbHatch
 10
0.0
 20
0.0
 30
0.0
210
0.0
220
0.0
230
1.0
  2
SOLID
 70
     1
 71
     1
 91
        1
 92
        3
 72
     0
 73
     1
 93
        4
 10
6082.30034309757
 20
818.6273630668074
 10
6055.300343097275
 20
818.6273630668074
 10
6055.300343097275
 20
636.7846169130426
 10
6082.30034309757
 20
636.784698348587
 97
        0
 75
     0
 76
     1
 98
        0
  0
LWPOLYLINE
  5
249
330
1F
100
AcDbEntity
  8
Ech.1_2
 62
   190
370
    15
100
AcDbPolyline
 90
        5
 70
     0
 43
0.0
 10
6082.30034309757
 20
818.6273630668074
 10
6055.300343097275
 20
818.6273630668074
 10
6055.300343097275
 20
636.7846169130426
 10
6082.30034309757
 20
636.784698348587
 10
6082.30034309757
 20
818.6273630668074
  0
LINE
  5
24A
330
1F
100
AcDbEntity
  8
Ech.1_2
 62
     7
370
    18
100
AcDbLine
 10
6055.300343097275
 20
750.490908357664
 30
0.0
 11
6055.300343097275
 21
818.6273630668074
 31
0.0
  0
LWPOLYLINE
  5
24B
330
1F
100
AcDbEntity
  8
Ech.1_2
 62
   190
370
    15
100
AcDbPolyline
 90
        6
 70
     0
 43
0.0
 10
6132.30034309757
 20
621.78499910338
 10
6132.300118329595
 20
847.8288992093803
 10
6125.109178966643
 20
854.423100471744
 10
6139.491458971366
 20
848.7791244646214
 10
6132.300118329595
 20
855.3736660972281
 10
6132.30034309757
 20
1026.710214022751
  0
HATCH
  5
24C
330
1F
100
AcDbEntity
  8
Ech.1_2
 62
   254
420
 15326711
440
 33554687
370
     5
100
AcDbHatch
 10
0.0
 20
0.0
 30
0.0
210
0.0
220
0.0
230
1.0
  2
SOLID
 70
     1
 71
     1
 91
        1
 92
        3
 72
     0
 73
     1
 93
        4
 10
6082.30034309757
 20
1011.710206417527
 10
6050.30034309757
 20
1011.710206417527
 10
6050.30034309757
 20
849.867460263762
 10
6082.30034309757
 20
849.8675416993065
 97
        0
 75
     0
 76
     1
 98
        0
  0
LWPOLYLINE
  5
24D
330
1F
100
AcDbEntity
  8
Ech.1_2
 62
   190
370
    15
100
AcDbPolyline
 90
        5
 70
     0
 43
0.0
 10
6082.30034309757
 20
1011.710206417527
 10
6050.30034309757
 20
1011.710206417527
 10
6050.30034309757
 20
849.867460263762
 10
6082.30034309757
 20
849.8675416993065
 10
6082.30034309757
 20
1011.710206417527
  0
LWPOLYLINE
  5
24E
330
1F
100
AcDbEntity
  8
Ech.1_2
 62
   190
370
    15
100
AcDbPolyline
 90
        8
 70
     0
 43
0.0
 10
6023.297705423294
 20
1011.710099942102
 10
6023.297705423294
 20
829.7307921018
 10
6008.236994988245
 20
810.1762399495128
 10
6007.147534944208
 20
809.6273630668074
 10
6004.392154427584
 20
809.6273630668074
 10
6003.297705423585
 20
811.2492084958722
 10
6003.297705423585
 20
816.5578366153422
 10
6003.297705423585
 20
1011.710069529232
  0
HATCH
  5
24F
330
1F
100
AcDbEntity
  8
Ech.1_2
 62
   254
420
 15326711
440
 33554687
370
     5
100
AcDbHatch
 10
0.0
 20
0.0
 30
0.0
210
0.0
220
0.0
230
1.0
  2
SOLID
 70
     1
 71
     1
 91
        1
 92
        3
 72
     0
 73
     1
 93
        8
 10
6023.297705423294
 20
1011.710099942102
 10
6003.297705423585
 20
1011.71005648499
 10
6003.297705423585
 20
816.5578366153422
 10
6003.297705423585
 20
811.2492084958722
 10
6004.392154427584
 20
809.6273630668074
 10
6007.147534944208
 20
809.6273630668074
 10
6008.236994988245
 20
810.1762399495128
 10
6023.297705423294
 20
829.7307921018
 97
        0
 75
     0
 76
     1
 98
        0
  0
LWPOLYLINE
  5
250
330
1F
100
AcDbEntity
  8
Ech.1_2
 62
   190
370
    15
100
AcDbPolyline
 90
        9
 70
     0
 43
0.0
 10
6023.297705423294
 20
1011.710099942102
 10
6003.297705423585
 20
1011.71005648499
 10
6003.297705423585
 20
816.5578366153422
 10
6003.297705423585
 20
811.2492084958722
 10
6004.392154427584
 20
809.6273630668074
 10
6007.147534944208
 20
809.6273630668074
 10
6008.236994988245
 20
810.1762399495128
 10
6023.297705423294
 20
829.7307921018
 10
6023.297705423294
 20
1011.710099942102
  0
HATCH
  5
251
330
1F
100
AcDbEntity
  8
Ech.1_2
 62
   254
420
 15326711
440
 33554687
370
     5
100
AcDbHatch
 10
0.0
 20
0.0
 30
0.0
210
0.0
220
0.0
230
1.0
  2
SOLID
 70
     1
 71
     1
 91
        1
 92
        3
 72
     0
 73
     1
 93
        4
 10
6050.30034309757
 20
881.867460263762
 10
6023.297705423585
 20
881.867460263762
 10
6023.297705423585
 20
849.867460263762
 10
6050.30034309757
 20
849.867460263762
 97
        0
 75
     0
 76
     1
 98
        0
  0
LWPOLYLINE
  5
252
330
1F
100
AcDbEntity
  8
Ech.1_2
 62
   190
370
    15
100
AcDbPolyline
 90
        5
 70
     0
 43
0.0
 10
6050.30034309757
 20
881.867460263762
 10
6023.297705423585
 20
881.867460263762
 10
6023.297705423585
 20
849.867460263762
 10
6050.30034309757
 20
849.867460263762
 10
6050.30034309757
 20
881.867460263762
  0
LWPOLYLINE
  5
253
330
1F
100
AcDbEntity
  8
Ech.1_2
 62
   190
370
    15
100
AcDbPolyline
 90
        4
 70
     0
 43
0.0
 10
6023.297705423585
 20
849.867460263762
 10
6050.30034309757
 20
881.867460263762
 10
6023.297705423585
 20
881.867460263762
 10
6050.30034309757
 20
849.867460263762
  0
LWPOLYLINE
  5
254
330
1F
100
AcDbEntity
  8
Ech.1_2
 62
     5
370
    40
100
AcDbPolyline
 90
        5
 70
     0
 43
0.0
 10
6050.30034309757
 20
881.867460263762
 10
6023.297705423585
 20
881.867460263762
 10
6023.297705423585
 20
849.867460263762
 10
6050.30034309757
 20
849.867460263762
 10
6050.30034309757
 20
881.867460263762
  0
LWPOLYLINE
  5
255
330
1F
100
AcDbEntity
  8
Ech.1_2
 62
   190
370
    15
100
AcDbPolyline
 90
        3
 70
     0
 43
0.0
 10
6013.29770542344
 20
979.6897572573362
 10
5998.979634595547
 20
979.6897572573362
 10
5990.979634595547
 20
979.6897572573362
  0
INSERT
  5
256
330
1F
100
AcDbEntity
  8
Ech.1_2
 62
   190
370
    15
100
AcDbBlockReference
  2
cw-line-extremity4
 10
6013.29770542344
 20
979.6897572573362
 30
0.0
 50
180.0
  0
LWPOLYLINE
  5
257
330
1F
100
AcDbEntity
  8
Ech.1_2
 62
   190
370
    15
100
AcDbPolyline
 90
        3
 70
     0
 43
0.0
 10
6066.30034309757
 20
901.5101983315226
 10
5998.979634595547
 20
901.5101983315226
 10
5990.979634595547
 20
901.5101983315226
  0
INSERT
  5
258
330
1F
100
AcDbEntity
  8
Ech.1_2
 62
   190
370
    15
100
AcDbBlockReference
  2
cw-line-extremity4
 10
6066.30034309757
 20
901.5101983315226
 30
0.0
 50
180.0
  0
LWPOLYLINE
  5
259
330
1F
100
AcDbEntity
  8
Ech.1_2
 62
   190
370
    15
100
AcDbPolyline
 90
        3
 70
     0
 43
0.0
 10
6037.799024260432
 20
874.2050795166479
 10
5998.979634595547
 20
901.5101983315226
 10
5990.979634595547
 20
901.5101983315226
  0
INSERT
  5
25A
330
1F
100
AcDbEntity
  8
Ech.1_2
 62
   190
370
    15
100
AcDbBlockReference
  2
cw-line-extremity4
 10
6037.799024260432
 20
874.2050795166479
 30
0.0
 50
144.8778808245856
  0
LWPOLYLINE
  5
25B
330
1F
100
AcDbEntity
  8
Ech.1_2
 62
     8
370
    90
100
AcDbPolyline
 90
        3
 70
     0
 43
0.0
 10
6055.300343097579
 20
818.6273630668074
 10
6082.30034309757
 20
818.6273630668074
 10
6082.30034309757
 20
780.3796022304232
  0
LWPOLYLINE
  5
25C
330
1F
100
AcDbEntity
  8
Ech.1_2
 62
     8
370
    90
100
AcDbPolyline
 90
        3
 70
     0
 43
0.0
 10
6050.30034309757
 20
849.867460263762
 10
6082.30034309757
 20
849.8675416993065
 10
6082.30034309757
 20
888.1153025356907
  0
LWPOLYLINE
  5
25D
330
1F
100
AcDbEntity
  8
Ech.1_2
 62
   190
370
    15
100
AcDbPolyline
 90
        3
 70
     0
 43
0.0
 10
6082.30034309757
 20
861.878833297953
 10
5994.179634595548
 20
861.878833297953
 10
5990.979634595547
 20
861.878833297953
  0
INSERT
  5
25E
330
1F
100
AcDbEntity
  8
Ech.1_2
 62
   190
370
    15
100
AcDbBlockReference
  2
cw-line-extremity4
 10
6082.30034309757
 20
861.878833297953
 30
0.0
 50
180.0
  0
LWPOLYLINE
  5
25F
330
1F
100
AcDbEntity
  8
Ech.1_2
 62
   190
370
    15
100
AcDbPolyline
 90
      219
 70
     0
 43
0.0
 10
6066.869498177832
 20
792.1988713948886
 10
6066.989819305305
 20
794.2070424798683
 10
6067.106752703025
 20
796.2189458617106
 10
6067.216910641238
 20
798.2383138372775
 10
6067.268390147482
 20
799.2519633904774
 10
6067.316905390191
 20
800.2688787034317
 10
6067.362032903147
 20
801.2895263132488
 10
6067.403349220131
 20
802.3143727570358
 10
6067.440430874924
 20
803.3438845719011
 10
6067.472854401305
 20
804.378528294952
 10
6067.500196333057
 20
805.4187704632966
 10
6067.522033203959
 20
806.4650776140427
 10
6067.537941547792
 20
807.5179162842979
 10
6067.547497898338
 20
808.5777530111704
 10
6067.550278789377
 20
809.6450543317674
 10
6067.545860754693
 20
810.7202867831976
 10
6067.533820328061
 20
811.803916902568
 10
6067.513734043266
 20
812.8964112269865
 10
6067.485178434086
 20
813.9982362935611
 10
6067.447730034307
 20
815.1098586393997
 10
6067.400965377704
 20
816.2317448016098
 10
6067.344460998061
 20
817.3643613172995
 10
6067.277793429157
 20
818.5081747235766
 10
6067.24051611554
 20
819.0844260535315
 10
6067.200539204775
 20
819.6636515575487
 10
6067.157809763587
 20
820.2459095527665
 10
6067.112274858694
 20
820.8312583563237
 10
6067.063881556822
 20
821.4197562853582
 10
6067.012576924694
 20
822.011461657009
 10
6066.958308029034
 20
822.6064327884148
 10
6066.90102193656
 20
823.2047279967134
 10
6066.840661038266
 20
823.8063930584311
 10
6066.777044182501
 20
824.4111424007723
 10
6066.709857072056
 20
825.0183333459903
 10
6066.638778810032
 20
825.6273055155488
 10
6066.56348849954
 20
826.2373985309135
 10
6066.483665243678
 20
826.8479520135486
 10
6066.398988145552
 20
827.4583055849188
 10
6066.309136308268
 20
828.0677988664888
 10
6066.213788834926
 20
828.675771479723
 10
6066.112624828635
 20
829.2815630460866
 10
6066.005323392496
 20
829.8845131870437
 10
6065.891563629613
 20
830.483961524059
 10
6065.771024643091
 20
831.0792476785977
 10
6065.643385536034
 20
831.6697112721239
 10
6065.508325411547
 20
832.2546919261025
 10
6065.36552337273
 20
832.8335292619979
 10
6065.214658522694
 20
833.4055629012752
 10
6065.055409964536
 20
833.9701324653986
 10
6064.887456801364
 20
834.526577575833
 10
6064.710478136284
 20
835.0742378540433
 10
6064.524153072396
 20
835.6124529214936
 10
6064.328160712805
 20
836.1405623996488
 10
6064.122180160615
 20
836.6579059099738
 10
6063.905890518932
 20
837.1638230739329
 10
6063.793779509249
 20
837.4122904077329
 10
6063.678970890858
 20
837.6576535129909
 10
6063.561424551645
 20
837.8998298423896
 10
6063.441100379498
 20
838.1387368486123
 10
6063.317958262306
 20
838.3742919843422
 10
6063.191958087956
 20
838.606412702262
 10
6063.063059744338
 20
838.8350164550553
 10
6062.931223119338
 20
839.0600206954048
 10
6062.796408100843
 20
839.2813428759936
 10
6062.658574576744
 20
839.4989004495048
 10
6062.517682434927
 20
839.7126108686217
 10
6062.373691563281
 20
839.9223915860272
 10
6062.226561849693
 20
840.1281600544044
 10
6062.076253182052
 20
840.3298337264363
 10
6061.922725448246
 20
840.5273300548062
 10
6061.765938536162
 20
840.7205664921969
 10
6061.605852333689
 20
840.9094604912917
 10
6061.442426728714
 20
841.0939295047735
 10
6061.275621609127
 20
841.2738909853256
 10
6061.105396862813
 20
841.4492623856311
 10
6060.931712377664
 20
841.6199611583728
 10
6060.754528041563
 20
841.785904756234
 10
6060.573803742402
 20
841.9470106318978
 10
6060.389499368068
 20
842.1031962380471
 10
6060.201574806449
 20
842.2543790273652
 10
6060.009989945431
 20
842.400476452535
 10
6059.814704672904
 20
842.5414059662396
 10
6059.615678876758
 20
842.6770850211622
 10
6059.412872444877
 20
842.807431069986
 10
6059.206245265151
 20
842.9323615653935
 10
6058.99575722547
 20
843.0517939600686
 10
6058.781368213716
 20
843.1656457066937
 10
6058.563038117783
 20
843.2738342579522
 10
6058.340732721076
 20
843.3762819716967
 10
6058.114509412216
 20
843.4729874228077
 10
6057.884497873132
 20
843.5640093353842
 10
6057.650829750911
 20
843.6494080685616
 10
6057.413636692632
 20
843.7292439814739
 10
6057.173050345376
 20
843.8035774332562
 10
6056.929202356228
 20
843.8724687830428
 10
6056.682224372266
 20
843.9359783899689
 10
6056.432248040577
 20
843.9941666131689
 10
6056.179405008239
 20
844.0470938117775
 10
6055.923826922333
 20
844.0948203449292
 10
6055.665645429945
 20
844.137406571759
 10
6055.404992178152
 20
844.1749128514015
 10
6055.141998814041
 20
844.2073995429912
 10
6054.876796984692
 20
844.2349270056633
 10
6054.609518337184
 20
844.2575555985514
 10
6054.340294518603
 20
844.2753456807915
 10
6054.069257176028
 20
844.2883576115175
 10
6053.796537956544
 20
844.2966517498643
 10
6053.52226850723
 20
844.3002884549667
 10
6053.246580475169
 20
844.2993280859589
 10
6052.969605507443
 20
844.293831001976
 10
6052.691475251134
 20
844.2838575621528
 10
6052.412321353323
 20
844.2694681256237
 10
6052.132275461094
 20
844.2507230515234
 10
6051.851469221526
 20
844.227682698987
 10
6051.570034281704
 20
844.2004074271485
 10
6051.288102288708
 20
844.1689575951432
 10
6051.005804889619
 20
844.1333935621053
 10
6050.440640461495
 20
844.0501643294714
 10
6049.875594173988
 20
843.9512026023242
 10
6049.31171920375
 20
843.8369912537411
 10
6048.750068727441
 20
843.7080131567998
 10
6048.191695921712
 20
843.5647511845777
 10
6047.637653963221
 20
843.4076882101523
 10
6047.088996028625
 20
843.2373071066011
 10
6046.546775294573
 20
843.0540907470015
 10
6046.012044937727
 20
842.8585220044313
 10
6045.485858134738
 20
842.6510837519672
 10
6044.969200095458
 20
842.432240438886
 10
6044.462372314879
 20
842.2022711794666
 10
6043.965280954626
 20
841.9613479247395
 10
6043.477827369103
 20
841.7096413226383
 10
6042.999912912718
 20
841.4473220210963
 10
6042.531438939875
 20
841.1745606680478
 10
6042.072306804983
 20
840.8915279114265
 10
6041.622417862445
 20
840.5983943991656
 10
6041.181673466669
 20
840.2953307791993
 10
6040.74997497206
 20
839.982507699461
 10
6040.327223733023
 20
839.6600958078848
 10
6039.913321103964
 20
839.328265752404
 10
6039.508168439294
 20
838.9871881809526
 10
6039.111667093412
 20
838.6370337414642
 10
6038.723718420727
 20
838.2779730818728
 10
6038.344223775645
 20
837.9101768501116
 10
6037.973084512571
 20
837.533815694115
 10
6037.610201985913
 20
837.149060261816
 10
6037.255477550074
 20
836.7560812011488
 10
6036.908812559463
 20
836.3550491600471
 10
6036.570108368482
 20
835.9461347864444
 10
6036.239266331541
 20
835.5295087282744
 10
6035.916187803045
 20
835.1053416334712
 10
6035.600774137399
 20
834.6738041499682
 10
6035.292926689009
 20
834.2350669256994
 10
6034.99254681228
 20
833.7893006085981
 10
6034.69953586162
 20
833.3366758465983
 10
6034.413795191435
 20
832.8773632876339
 10
6034.13522615613
 20
832.4115335796381
 10
6033.863730110109
 20
831.939357370545
 10
6033.599208407781
 20
831.4610053082883
 10
6033.341562403551
 20
830.9766480408019
 10
6033.090693451824
 20
830.4864562160191
 10
6032.846502907008
 20
829.9906004818738
 10
6032.608892123506
 20
829.4892514862997
 10
6032.377762455727
 20
828.9825798772306
 10
6032.153015258076
 20
828.4707563026003
 10
6031.934551884957
 20
827.9539514103424
 10
6031.722273690779
 20
827.4323358483906
 10
6031.516082029946
 20
826.9060802646787
 10
6031.315878256862
 20
826.3753553071402
 10
6031.121563725937
 20
825.8403316237093
 10
6030.933039791576
 20
825.3011798623194
 10
6030.750207808183
 20
824.7580706709041
 10
6030.572969130166
 20
824.2111746973974
 10
6030.401225111928
 20
823.6606625897327
 10
6030.23487710788
 20
823.1067049958442
 10
6030.073826472424
 20
822.5494725636652
 10
6029.917974559967
 20
821.9891359411297
 10
6029.767222724913
 20
821.4258657761711
 10
6029.621472321671
 20
820.8598327167234
 10
6029.480624704645
 20
820.2912074107204
 10
6029.344581228243
 20
819.7201605060955
 10
6029.213243246868
 20
819.1468626507826
 10
6029.086512114929
 20
818.5714844927156
 10
6028.96428918683
 20
817.994196679828
 10
6028.846475816978
 20
817.4151698600534
 10
6028.732973359777
 20
816.8345746813258
 10
6028.623683169633
 20
816.2525817915785
 10
6028.518506600957
 20
815.669361838746
 10
6028.417345008151
 20
815.0850854707613
 10
6028.22667216777
 20
813.9140460810711
 10
6028.05087548374
 20
812.7408288059779
 10
6027.889165791312
 20
811.5667988289512
 10
6027.74075392573
 20
810.3933213334612
 10
6027.604850722243
 20
809.2217615029773
 10
6027.480667016099
 20
808.0534845209695
 10
6027.367413642544
 20
806.8898555709077
 10
6027.264301436827
 20
805.7322398362612
 10
6027.170541555717
 20
804.5820013500044
 10
6027.085466004473
 20
803.4400717177383
 10
6027.00870853633
 20
802.3063028121554
 10
6026.93994922501
 20
801.1803807591521
 10
6026.878868144243
 20
800.0619916846251
 10
6026.825145367755
 20
798.9508217144719
 10
6026.778460969274
 20
797.8465569745886
 10
6026.738495022526
 20
796.7488835908723
 10
6026.704927601239
 20
795.6574876892198
 10
6026.677438779139
 20
794.5720553955281
 10
6026.655708629954
 20
793.4922728356936
 10
6026.639417227411
 20
792.4178261356134
 10
6026.628244645236
 20
791.3484014211842
 10
6026.621870957155
 20
790.2836848183028
 10
6026.619976236897
 20
789.2233624528662
 10
6026.622240558188
 20
788.1671204507711
 10
6026.628343994757
 20
787.1146449379141
 10
6026.637966620328
 20
786.0656220401925
 10
6026.650788508628
 20
785.0197378835024
 10
6026.666489733388
 20
783.9766785937411
 10
6026.705250487184
 20
781.8977791185922
 10
6026.751689471534
 20
779.8264126219199
 10
6026.857364491152
 20
775.6962345927022
  0
LWPOLYLINE
  5
260
330
1F
100
AcDbEntity
  8
Ech.1_2
 62
   190
370
    15
100
AcDbPolyline
 90
        4
 70
     0
 43
0.0
 10
6024.094280345354
 20
796.6355535447365
 10
6026.857364491152
 20
775.6962345927022
 10
6030.086711364838
 20
796.1305379576515
 10
6024.094280345354
 20
796.6355535447365
  0
LWPOLYLINE
  5
261
330
1F
100
AcDbEntity
  8
Ech.1_2
 62
   190
370
    15
100
AcDbPolyline
 90
        6
 70
     0
 43
0.0
 10
5992.297705423585
 20
1011.710023892156
 10
6084.800343097422
 20
1011.710214022751
 10
6091.394544359784
 20
1018.901153385705
 10
6085.750568352662
 20
1004.518873380985
 10
6092.345109985265
 20
1011.710214022751
 10
6147.30034309757
 20
1011.710214022751
  0
LWPOLYLINE
  5
262
330
1F
100
AcDbEntity
  8
Ech.1_2
 62
   190
370
    15
100
AcDbPolyline
 90
        5
 70
     0
 43
0.0
 10
5818.30034309757
 20
612.8059430664543
 10
6212.30034309757
 20
612.8059430664543
 10
6212.30034309757
 20
557.8407142404321
 10
5818.30034309757
 20
557.8407142404321
 10
5818.30034309757
 20
612.8059430664543
  0
LWPOLYLINE
  5
263
330
1F
100
AcDbEntity
  8
Ech.1_2
 62
   190
370
    15
100
AcDbPolyline
 90
        5
 70
     0
 43
0.0
 10
6212.30034309757
 20
1061.633929038126
 10
5818.30034309757
 20
1061.633929038126
 10
5818.30034309757
 20
1099.840714240385
 10
6212.30034309757
 20
1099.840714240385
 10
6212.30034309757
 20
1061.633929038126
  0
LWPOLYLINE
  5
264
330
1F
100
AcDbEntity
  8
Ech.1_2
 62
   190
370
    15
100
AcDbPolyline
 90
        5
 70
     0
 43
0.0
 10
6212.30034309757
 20
604.0059430664551
 10
5818.30034309757
 20
604.0059430664551
 10
5818.30034309757
 20
612.8059430664543
 10
6212.30034309757
 20
612.8059430664543
 10
6212.30034309757
 20
604.0059430664551
  0
LWPOLYLINE
  5
265
330
1F
100
AcDbEntity
  8
Ech.1_2
 62
   190
370
    15
100
AcDbPolyline
 90
        5
 70
     0
 43
0.0
 10
6212.30034309757
 20
581.2574849743214
 10
5818.30034309757
 20
581.2574849743214
 10
5818.30034309757
 20
590.7482962986142
 10
6212.30034309757
 20
590.7482962986142
 10
6212.30034309757
 20
581.2574849743214
  0
LINE
  5
266
330
1F
100
AcDbEntity
  8
Ech.1_2
 62
   190
370
    15
100
AcDbLine
 10
5893.582167882752
 20
612.8059430664543
 30
0.0
 11
5893.582167882752
 21
604.0059430664551
 31
0.0
  0
LINE
  5
267
330
1F
100
AcDbEntity
  8
Ech.1_2
 62
   190
370
    15
100
AcDbLine
 10
6156.381408934971
 20
612.8059430664543
 30
0.0
 11
6156.381408934971
 21
604.0059430664551
 31
0.0
  0
LINE
  5
268
330
1F
100
AcDbEntity
  8
Ech.1_2
 62
   190
370
    15
100
AcDbLine
 10
5956.044255080893
 20
612.8059430664543
 30
0.0
 11
5956.044255080893
 21
604.0059430664551
 31
0.0
  0
IMAGE
  5
26B
330
1F
100
AcDbEntity
  8
Ech.1_2
160
                 8
310
0800000000000000
100
AcDbRasterImage
 90
        0
 10
5894.726042593922
 20
559.8549332328512
 30
0.0
 11
0.1133603238866397
 21
0.0
 31
0.0
 12
0.0
 22
0.1111111111111111
 32
0.0
 13
247.0
 23
171.0
340
26A
 70
     3
280
     0
281
    50
282
    50
283
     0
360
26C
 71
     1
 91
        2
 14
-0.5
 24
-0.5
 14
246.5
 24
170.5
290
     0
  0
IMAGE
  5
26E
330
1F
100
AcDbEntity
  8
Ech.1_2
160
                 8
310
0800000000000000
100
AcDbRasterImage
 90
        0
 10
5999.157111090713
 20
558.8330883113376
 30
0.0
 11
0.16
 21
0.0
 31
0.0
 12
0.0
 22
0.1578947368421053
 32
0.0
 13
200.0
 23
133.0
340
26D
 70
     3
280
     0
281
    50
282
    50
283
     0
360
26F
 71
     1
 91
        2
 14
-0.5
 24
-0.5
 14
199.5
 24
132.5
290
     0
  0
IMAGE
  5
271
330
1F
100
AcDbEntity
  8
Ech.1_2
160
                 8
310
0800000000000000
100
AcDbRasterImage
 90
        0
 10
6096.506977642371
 20
558.3510971453579
 30
0.0
 11
0.03770739064856712
 21
0.0
 31
0.0
 12
0.0
 22
0.03793103448275862
 32
0.0
 13
1326.0
 23
580.0
340
270
 70
     3
280
     0
281
    50
282
    50
283
     0
360
272
 71
     1
 91
        2
 14
-0.5
 24
-0.5
 14
1325.5
 24
579.5
290
     0
  0
LWPOLYLINE
  5
273
330
1F
100
AcDbEntity
  8
Ech.1_2
 62
   190
370
    15
100
AcDbPolyline
 90
        5
 70
     0
 43
0.0
 10
6212.30034309757
 20
557.8407142404321
 10
6212.30034309757
 20
1099.840714240432
 10
5818.30034309757
 20
1099.840714240432
 10
5818.30034309757
 20
557.8407142404321
 10
6212.30034309757
 20
557.8407142404321
  0
LINE
  5
274
330
1F
100
AcDbEntity
  8
Ech.1_2
 62
   190
370
    15
100
AcDbLine
 10
6212.30034309757
 20
1087.840714240363
 30
0.0
 11
5818.30034309757
 21
1087.840714240363
 31
0.0
  0
LINE
  5
275
330
1F
100
AcDbEntity
  8
Ech.1_2
 62
   190
370
     9
100
AcDbLine
 10
6002.742149424308
 20
868.3862102637504
 30
0.0
 11
6002.436594423405
 21
868.3862102637504
 31
0.0
  0
LINE
  5
276
330
1F
100
AcDbEntity
  8
Ech.1_2
 62
   190
370
     9
100
AcDbLine
 10
6002.436594423405
 20
868.3862102637504
 30
0.0
 11
6002.436594423405
 21
863.3487102637737
 31
0.0
  0
LINE
  5
277
330
1F
100
AcDbEntity
  8
Ech.1_2
 62
   190
370
     9
100
AcDbLine
 10
6002.742149424306
 20
863.3487102637737
 30
0.0
 11
6002.436594423405
 21
863.3487102637737
 31
0.0
  0
HATCH
  5
278
330
1F
100
AcDbEntity
  8
Ech.1_2
 62
   252
440
 33554687
370
     5
100
AcDbHatch
 10
0.0
 20
0.0
 30
0.0
210
0.0
220
0.0
230
1.0
  2
SOLID
 70
     1
 71
     1
 91
        1
 92
        3
 72
     0
 73
     1
 93
        4
 10
6042.547704425503
 20
864.7375992637099
 10
6043.381038424422
 20
864.7375992637099
 10
6043.381038424422
 20
866.997321263756
 10
6042.547704425503
 20
866.997321263756
 97
        0
 75
     0
 76
     1
 98
        0
  0
LWPOLYLINE
  5
279
330
1F
100
AcDbEntity
  8
Ech.1_2
 62
     7
370
     9
100
AcDbPolyline
 90
        5
 70
     0
 43
0.0
 10
6042.547704425503
 20
864.7375992637099
 10
6043.381038424422
 20
864.7375992637099
 10
6043.381038424422
 20
866.997321263756
 10
6042.547704425503
 20
866.997321263756
 10
6042.547704425503
 20
864.7375992637099
  0
LINE
  5
27A
330
1F
100
AcDbEntity
  8
Ech.1_2
 62
   190
370
     9
100
AcDbLine
 10
6045.580122422926
 20
866.997321263756
 30
0.0
 11
6003.297705423585
 21
866.997321263756
 31
0.0
  0
LINE
  5
27B
330
1F
100
AcDbEntity
  8
Ech.1_2
 62
   190
370
     9
100
AcDbLine
 10
6045.580122422926
 20
864.7375992637099
 30
0.0
 11
6003.297705423585
 21
864.7375992637099
 31
0.0
  0
ARC
  5
27C
330
1F
100
AcDbEntity
  8
Ech.1_2
 62
   190
370
     9
100
AcDbCircle
 10
6014.999797814239
 20
865.8674602637329
 30
0.0
 40
12.81320339083424
100
AcDbArc
 50
168.6632793503132
 51
191.3367206496868
  0
LINE
  5
27D
330
1F
100
AcDbEntity
  8
Ech.1_2
 62
   190
370
     9
100
AcDbLine
 10
6002.742149424308
 20
868.3862102637504
 30
0.0
 11
6002.742149424306
 21
867.5528772637917
 31
0.0
  0
ARC
  5
27E
330
1F
100
AcDbEntity
  8
Ech.1_2
 62
   190
370
     9
100
AcDbCircle
 10
6003.297705414205
 20
867.5528772536549
 30
0.0
 40
0.5555559898988739
100
AcDbArc
 50
179.9999989545593
 51
270.0000009674357
  0
LINE
  5
27F
330
1F
100
AcDbEntity
  8
Ech.1_2
 62
   190
370
     9
100
AcDbLine
 10
6002.742149424306
 20
867.5528772637917
 30
0.0
 11
6002.742149424306
 21
864.1820432637323
 31
0.0
  0
ARC
  5
280
330
1F
100
AcDbEntity
  8
Ech.1_2
 62
   190
370
     9
100
AcDbCircle
 10
6003.297705414106
 20
864.1820432739104
 30
0.0
 40
0.555555989799507
100
AcDbArc
 50
89.99999902234032
 51
180.0000010496851
  0
LINE
  5
281
330
1F
100
AcDbEntity
  8
Ech.1_2
 62
   190
370
     9
100
AcDbLine
 10
6002.742149424306
 20
863.3487102637737
 30
0.0
 11
6002.742149424306
 21
864.1820432637323
 31
0.0
  0
LINE
  5
282
330
1F
100
AcDbEntity
  8
Ech.1_2
 62
   190
370
     9
100
AcDbLine
 10
6013.381038424422
 20
866.997321263756
 30
0.0
 11
6013.381038424422
 21
864.7375992637099
 31
0.0
  0
LINE
  5
283
330
1F
100
AcDbEntity
  8
Ech.1_2
 62
   190
370
     9
100
AcDbLine
 10
6014.214371424962
 20
866.997321263756
 30
0.0
 11
6014.214371424962
 21
864.7375992637099
 31
0.0
  0
LINE
  5
284
330
1F
100
AcDbEntity
  8
Ech.1_2
 62
   190
370
     9
100
AcDbLine
 10
6010.881038424422
 20
866.997321263756
 30
0.0
 11
6010.881038424422
 21
864.7375992637099
 31
0.0
  0
LINE
  5
285
330
1F
100
AcDbEntity
  8
Ech.1_2
 62
   190
370
     9
100
AcDbLine
 10
6011.714371424962
 20
866.997321263756
 30
0.0
 11
6011.714371424962
 21
864.7375992637099
 31
0.0
  0
LINE
  5
286
330
1F
100
AcDbEntity
  8
Ech.1_2
 62
   190
370
     9
100
AcDbLine
 10
6012.547704425503
 20
866.997321263756
 30
0.0
 11
6012.547704425503
 21
864.7375992637099
 31
0.0
  0
LINE
  5
287
330
1F
100
AcDbEntity
  8
Ech.1_2
 62
   190
370
     9
100
AcDbLine
 10
6008.381038424421
 20
866.997321263756
 30
0.0
 11
6008.381038424421
 21
864.7375992637099
 31
0.0
  0
LINE
  5
288
330
1F
100
AcDbEntity
  8
Ech.1_2
 62
   190
370
     9
100
AcDbLine
 10
6009.214371424962
 20
866.997321263756
 30
0.0
 11
6009.214371424962
 21
864.7375992637099
 31
0.0
  0
LINE
  5
289
330
1F
100
AcDbEntity
  8
Ech.1_2
 62
   190
370
     9
100
AcDbLine
 10
6010.047704425503
 20
866.997321263756
 30
0.0
 11
6010.047704425503
 21
864.7375992637099
 31
0.0
  0
LINE
  5
28A
330
1F
100
AcDbEntity
  8
Ech.1_2
 62
   190
370
     9
100
AcDbLine
 10
6007.547704425502
 20
866.997321263756
 30
0.0
 11
6007.547704425502
 21
864.7375992637099
 31
0.0
  0
LINE
  5
28B
330
1F
100
AcDbEntity
  8
Ech.1_2
 62
   190
370
     9
100
AcDbLine
 10
6006.714371424961
 20
866.997321263756
 30
0.0
 11
6006.714371424961
 21
864.7375992637099
 31
0.0
  0
LINE
  5
28C
330
1F
100
AcDbEntity
  8
Ech.1_2
 62
   190
370
     9
100
AcDbLine
 10
6005.881038424421
 20
866.997321263756
 30
0.0
 11
6005.881038424421
 21
864.7375992637099
 31
0.0
  0
LINE
  5
28D
330
1F
100
AcDbEntity
  8
Ech.1_2
 62
   190
370
     9
100
AcDbLine
 10
6005.047704425502
 20
866.997321263756
 30
0.0
 11
6005.047704425502
 21
864.7375992637099
 31
0.0
  0
LINE
  5
28E
330
1F
100
AcDbEntity
  8
Ech.1_2
 62
   190
370
     9
100
AcDbLine
 10
6040.047704425503
 20
866.997321263756
 30
0.0
 11
6040.047704425503
 21
864.7375992637099
 31
0.0
  0
LINE
  5
28F
330
1F
100
AcDbEntity
  8
Ech.1_2
 62
   190
370
     9
100
AcDbLine
 10
6039.214371424962
 20
866.997321263756
 30
0.0
 11
6039.214371424962
 21
864.7375992637099
 31
0.0
  0
LINE
  5
290
330
1F
100
AcDbEntity
  8
Ech.1_2
 62
   190
370
     9
100
AcDbLine
 10
6040.881038424422
 20
866.997321263756
 30
0.0
 11
6040.881038424422
 21
864.7375992637099
 31
0.0
  0
LINE
  5
291
330
1F
100
AcDbEntity
  8
Ech.1_2
 62
   190
370
     9
100
AcDbLine
 10
6036.714371424962
 20
866.997321263756
 30
0.0
 11
6036.714371424962
 21
864.7375992637099
 31
0.0
  0
LINE
  5
292
330
1F
100
AcDbEntity
  8
Ech.1_2
 62
   190
370
     9
100
AcDbLine
 10
6037.547704425503
 20
866.997321263756
 30
0.0
 11
6037.547704425503
 21
864.7375992637099
 31
0.0
  0
LINE
  5
293
330
1F
100
AcDbEntity
  8
Ech.1_2
 62
   190
370
     9
100
AcDbLine
 10
6038.381038424422
 20
866.997321263756
 30
0.0
 11
6038.381038424422
 21
864.7375992637099
 31
0.0
  0
LINE
  5
294
330
1F
100
AcDbEntity
  8
Ech.1_2
 62
   190
370
     9
100
AcDbLine
 10
6034.214371424962
 20
866.997321263756
 30
0.0
 11
6034.214371424962
 21
864.7375992637099
 31
0.0
  0
LINE
  5
295
330
1F
100
AcDbEntity
  8
Ech.1_2
 62
   190
370
     9
100
AcDbLine
 10
6035.047704425503
 20
866.997321263756
 30
0.0
 11
6035.047704425503
 21
864.7375992637099
 31
0.0
  0
LINE
  5
296
330
1F
100
AcDbEntity
  8
Ech.1_2
 62
   190
370
     9
100
AcDbLine
 10
6035.881038424422
 20
866.997321263756
 30
0.0
 11
6035.881038424422
 21
864.7375992637099
 31
0.0
  0
LINE
  5
297
330
1F
100
AcDbEntity
  8
Ech.1_2
 62
   190
370
     9
100
AcDbLine
 10
6031.714371424962
 20
866.997321263756
 30
0.0
 11
6031.714371424962
 21
864.7375992637099
 31
0.0
  0
LINE
  5
298
330
1F
100
AcDbEntity
  8
Ech.1_2
 62
   190
370
     9
100
AcDbLine
 10
6032.547704425503
 20
866.997321263756
 30
0.0
 11
6032.547704425503
 21
864.7375992637099
 31
0.0
  0
LINE
  5
299
330
1F
100
AcDbEntity
  8
Ech.1_2
 62
   190
370
     9
100
AcDbLine
 10
6033.381038424422
 20
866.997321263756
 30
0.0
 11
6033.381038424422
 21
864.7375992637099
 31
0.0
  0
LINE
  5
29A
330
1F
100
AcDbEntity
  8
Ech.1_2
 62
   190
370
     9
100
AcDbLine
 10
6030.881038424422
 20
866.997321263756
 30
0.0
 11
6030.881038424422
 21
864.7375992637099
 31
0.0
  0
LINE
  5
29B
330
1F
100
AcDbEntity
  8
Ech.1_2
 62
   190
370
     9
100
AcDbLine
 10
6017.547704425503
 20
866.997321263756
 30
0.0
 11
6017.547704425503
 21
864.7375992637099
 31
0.0
  0
LINE
  5
29C
330
1F
100
AcDbEntity
  8
Ech.1_2
 62
   190
370
     9
100
AcDbLine
 10
6018.381038424422
 20
866.997321263756
 30
0.0
 11
6018.381038424422
 21
864.7375992637099
 31
0.0
  0
LINE
  5
29D
330
1F
100
AcDbEntity
  8
Ech.1_2
 62
   190
370
     9
100
AcDbLine
 10
6019.214371424962
 20
866.997321263756
 30
0.0
 11
6019.214371424962
 21
864.7375992637099
 31
0.0
  0
LINE
  5
29E
330
1F
100
AcDbEntity
  8
Ech.1_2
 62
   190
370
     9
100
AcDbLine
 10
6020.047704425503
 20
866.997321263756
 30
0.0
 11
6020.047704425503
 21
864.7375992637099
 31
0.0
  0
LINE
  5
29F
330
1F
100
AcDbEntity
  8
Ech.1_2
 62
   190
370
     9
100
AcDbLine
 10
6022.547704425503
 20
866.997321263756
 30
0.0
 11
6022.547704425503
 21
864.7375992637099
 31
0.0
  0
LINE
  5
2A0
330
1F
100
AcDbEntity
  8
Ech.1_2
 62
   190
370
     9
100
AcDbLine
 10
6021.714371424962
 20
866.997321263756
 30
0.0
 11
6021.714371424962
 21
864.7375992637099
 31
0.0
  0
LINE
  5
2A1
330
1F
100
AcDbEntity
  8
Ech.1_2
 62
   190
370
     9
100
AcDbLine
 10
6020.881038424422
 20
866.997321263756
 30
0.0
 11
6020.881038424422
 21
864.7375992637099
 31
0.0
  0
LINE
  5
2A2
330
1F
100
AcDbEntity
  8
Ech.1_2
 62
   190
370
     9
100
AcDbLine
 10
6025.047704425503
 20
866.997321263756
 30
0.0
 11
6025.047704425503
 21
864.7375992637099
 31
0.0
  0
LINE
  5
2A3
330
1F
100
AcDbEntity
  8
Ech.1_2
 62
   190
370
     9
100
AcDbLine
 10
6024.214371424962
 20
866.997321263756
 30
0.0
 11
6024.214371424962
 21
864.7375992637099
 31
0.0
  0
LINE
  5
2A4
330
1F
100
AcDbEntity
  8
Ech.1_2
 62
   190
370
     9
100
AcDbLine
 10
6023.381038424422
 20
866.997321263756
 30
0.0
 11
6023.381038424422
 21
864.7375992637099
 31
0.0
  0
LINE
  5
2A5
330
1F
100
AcDbEntity
  8
Ech.1_2
 62
   190
370
     9
100
AcDbLine
 10
6027.547704425503
 20
866.997321263756
 30
0.0
 11
6027.547704425503
 21
864.7375992637099
 31
0.0
  0
LINE
  5
2A6
330
1F
100
AcDbEntity
  8
Ech.1_2
 62
   190
370
     9
100
AcDbLine
 10
6026.714371424962
 20
866.997321263756
 30
0.0
 11
6026.714371424962
 21
864.7375992637099
 31
0.0
  0
LINE
  5
2A7
330
1F
100
AcDbEntity
  8
Ech.1_2
 62
   190
370
     9
100
AcDbLine
 10
6025.881038424422
 20
866.997321263756
 30
0.0
 11
6025.881038424422
 21
864.7375992637099
 31
0.0
  0
LINE
  5
2A8
330
1F
100
AcDbEntity
  8
Ech.1_2
 62
   190
370
     9
100
AcDbLine
 10
6030.047704425503
 20
866.997321263756
 30
0.0
 11
6030.047704425503
 21
864.7375992637099
 31
0.0
  0
LINE
  5
2A9
330
1F
100
AcDbEntity
  8
Ech.1_2
 62
   190
370
     9
100
AcDbLine
 10
6029.214371424962
 20
866.997321263756
 30
0.0
 11
6029.214371424962
 21
864.7375992637099
 31
0.0
  0
LINE
  5
2AA
330
1F
100
AcDbEntity
  8
Ech.1_2
 62
   190
370
     9
100
AcDbLine
 10
6028.381038424422
 20
866.997321263756
 30
0.0
 11
6028.381038424422
 21
864.7375992637099
 31
0.0
  0
LINE
  5
2AB
330
1F
100
AcDbEntity
  8
Ech.1_2
 62
   190
370
     9
100
AcDbLine
 10
6015.881038424422
 20
866.997321263756
 30
0.0
 11
6015.881038424422
 21
864.7375992637099
 31
0.0
  0
LINE
  5
2AC
330
1F
100
AcDbEntity
  8
Ech.1_2
 62
   190
370
     9
100
AcDbLine
 10
6016.714371424962
 20
866.997321263756
 30
0.0
 11
6016.714371424962
 21
864.7375992637099
 31
0.0
  0
LINE
  5
2AD
330
1F
100
AcDbEntity
  8
Ech.1_2
 62
   190
370
     9
100
AcDbLine
 10
6017.547704425503
 20
866.997321263756
 30
0.0
 11
6017.547704425503
 21
864.7375992637099
 31
0.0
  0
LINE
  5
2AE
330
1F
100
AcDbEntity
  8
Ech.1_2
 62
   190
370
     9
100
AcDbLine
 10
6015.047704425503
 20
866.997321263756
 30
0.0
 11
6015.047704425503
 21
864.7375992637099
 31
0.0
  0
LINE
  5
2AF
330
1F
100
AcDbEntity
  8
Ech.1_2
 62
   190
370
     9
100
AcDbLine
 10
6048.242149424307
 20
865.867460263762
 30
0.0
 11
6045.580122422926
 21
866.997321263756
 31
0.0
  0
ARC
  5
2B0
330
1F
100
AcDbEntity
  8
Ech.1_2
 62
   190
370
     9
100
AcDbCircle
 10
6046.989473413534
 20
865.867460263762
 30
0.0
 40
1.806337996675907
100
AcDbArc
 50
141.2812399143139
 51
218.7187600856861
  0
LINE
  5
2B1
330
1F
100
AcDbEntity
  8
Ech.1_2
 62
   190
370
     9
100
AcDbLine
 10
6048.242149424307
 20
865.867460263762
 30
0.0
 11
6045.580122422926
 21
864.7375992637099
 31
0.0
  0
HATCH
  5
2B2
330
1F
100
AcDbEntity
  8
Ech.1_2
 62
   252
440
 33554687
370
     5
100
AcDbHatch
 10
0.0
 20
0.0
 30
0.0
210
0.0
220
0.0
230
1.0
  2
SOLID
 70
     1
 71
     1
 91
        1
 92
        3
 72
     0
 73
     1
 93
        4
 10
6005.047704425502
 20
864.7375992637099
 10
6005.881038424421
 20
864.7375992637099
 10
6005.881038424421
 20
866.997321263756
 10
6005.047704425502
 20
866.997321263756
 97
        0
 75
     0
 76
     1
 98
        0
  0
LWPOLYLINE
  5
2B3
330
1F
100
AcDbEntity
  8
Ech.1_2
 62
     7
370
     9
100
AcDbPolyline
 90
        5
 70
     0
 43
0.0
 10
6005.047704425502
 20
864.7375992637099
 10
6005.881038424421
 20
864.7375992637099
 10
6005.881038424421
 20
866.997321263756
 10
6005.047704425502
 20
866.997321263756
 10
6005.047704425502
 20
864.7375992637099
  0
HATCH
  5
2B4
330
1F
100
AcDbEntity
  8
Ech.1_2
 62
   252
440
 33554687
370
     5
100
AcDbHatch
 10
0.0
 20
0.0
 30
0.0
210
0.0
220
0.0
230
1.0
  2
SOLID
 70
     1
 71
     1
 91
        1
 92
        3
 72
     0
 73
     1
 93
        4
 10
6005.881038424421
 20
864.7375992637099
 10
6006.714372423339
 20
864.7375992637099
 10
6006.714372423339
 20
866.997321263756
 10
6005.881038424421
 20
866.997321263756
 97
        0
 75
     0
 76
     1
 98
        0
  0
LWPOLYLINE
  5
2B5
330
1F
100
AcDbEntity
  8
Ech.1_2
 62
     7
370
     9
100
AcDbPolyline
 90
        5
 70
     0
 43
0.0
 10
6005.881038424421
 20
864.7375992637099
 10
6006.714372423339
 20
864.7375992637099
 10
6006.714372423339
 20
866.997321263756
 10
6005.881038424421
 20
866.997321263756
 10
6005.881038424421
 20
864.7375992637099
  0
HATCH
  5
2B6
330
1F
100
AcDbEntity
  8
Ech.1_2
 62
   252
440
 33554687
370
     5
100
AcDbHatch
 10
0.0
 20
0.0
 30
0.0
210
0.0
220
0.0
230
1.0
  2
SOLID
 70
     1
 71
     1
 91
        1
 92
        3
 72
     0
 73
     1
 93
        4
 10
6006.714372423339
 20
864.7375992637099
 10
6007.547706422258
 20
864.7375992637099
 10
6007.547706422258
 20
866.997321263756
 10
6006.714372423339
 20
866.997321263756
 97
        0
 75
     0
 76
     1
 98
        0
  0
LWPOLYLINE
  5
2B7
330
1F
100
AcDbEntity
  8
Ech.1_2
 62
     7
370
     9
100
AcDbPolyline
 90
        5
 70
     0
 43
0.0
 10
6006.714372423339
 20
864.7375992637099
 10
6007.547706422258
 20
864.7375992637099
 10
6007.547706422258
 20
866.997321263756
 10
6006.714372423339
 20
866.997321263756
 10
6006.714372423339
 20
864.7375992637099
  0
HATCH
  5
2B8
330
1F
100
AcDbEntity
  8
Ech.1_2
 62
   252
440
 33554687
370
     5
100
AcDbHatch
 10
0.0
 20
0.0
 30
0.0
210
0.0
220
0.0
230
1.0
  2
SOLID
 70
     1
 71
     1
 91
        1
 92
        3
 72
     0
 73
     1
 93
        4
 10
6007.547706422258
 20
864.7375992637099
 10
6008.381040421176
 20
864.7375992637099
 10
6008.381040421176
 20
866.997321263756
 10
6007.547706422258
 20
866.997321263756
 97
        0
 75
     0
 76
     1
 98
        0
  0
LWPOLYLINE
  5
2B9
330
1F
100
AcDbEntity
  8
Ech.1_2
 62
     7
370
     9
100
AcDbPolyline
 90
        5
 70
     0
 43
0.0
 10
6007.547706422258
 20
864.7375992637099
 10
6008.381040421176
 20
864.7375992637099
 10
6008.381040421176
 20
866.997321263756
 10
6007.547706422258
 20
866.997321263756
 10
6007.547706422258
 20
864.7375992637099
  0
HATCH
  5
2BA
330
1F
100
AcDbEntity
  8
Ech.1_2
 62
   252
440
 33554687
370
     5
100
AcDbHatch
 10
0.0
 20
0.0
 30
0.0
210
0.0
220
0.0
230
1.0
  2
SOLID
 70
     1
 71
     1
 91
        1
 92
        3
 72
     0
 73
     1
 93
        4
 10
6008.381038424421
 20
864.7375992637099
 10
6009.21437242334
 20
864.7375992637099
 10
6009.21437242334
 20
866.997321263756
 10
6008.381038424421
 20
866.997321263756
 97
        0
 75
     0
 76
     1
 98
        0
  0
LWPOLYLINE
  5
2BB
330
1F
100
AcDbEntity
  8
Ech.1_2
 62
     7
370
     9
100
AcDbPolyline
 90
        5
 70
     0
 43
0.0
 10
6008.381038424421
 20
864.7375992637099
 10
6009.21437242334
 20
864.7375992637099
 10
6009.21437242334
 20
866.997321263756
 10
6008.381038424421
 20
866.997321263756
 10
6008.381038424421
 20
864.7375992637099
  0
HATCH
  5
2BC
330
1F
100
AcDbEntity
  8
Ech.1_2
 62
   252
440
 33554687
370
     5
100
AcDbHatch
 10
0.0
 20
0.0
 30
0.0
210
0.0
220
0.0
230
1.0
  2
SOLID
 70
     1
 71
     1
 91
        1
 92
        3
 72
     0
 73
     1
 93
        4
 10
6009.214371424962
 20
864.7375992637099
 10
6010.047705423881
 20
864.7375992637099
 10
6010.047705423881
 20
866.997321263756
 10
6009.214371424962
 20
866.997321263756
 97
        0
 75
     0
 76
     1
 98
        0
  0
LWPOLYLINE
  5
2BD
330
1F
100
AcDbEntity
  8
Ech.1_2
 62
     7
370
     9
100
AcDbPolyline
 90
        5
 70
     0
 43
0.0
 10
6009.214371424962
 20
864.7375992637099
 10
6010.047705423881
 20
864.7375992637099
 10
6010.047705423881
 20
866.997321263756
 10
6009.214371424962
 20
866.997321263756
 10
6009.214371424962
 20
864.7375992637099
  0
HATCH
  5
2BE
330
1F
100
AcDbEntity
  8
Ech.1_2
 62
   252
440
 33554687
370
     5
100
AcDbHatch
 10
0.0
 20
0.0
 30
0.0
210
0.0
220
0.0
230
1.0
  2
SOLID
 70
     1
 71
     1
 91
        1
 92
        3
 72
     0
 73
     1
 93
        4
 10
6010.047705423881
 20
864.7375992637099
 10
6010.881039422799
 20
864.7375992637099
 10
6010.881039422799
 20
866.997321263756
 10
6010.047705423881
 20
866.997321263756
 97
        0
 75
     0
 76
     1
 98
        0
  0
LWPOLYLINE
  5
2BF
330
1F
100
AcDbEntity
  8
Ech.1_2
 62
     7
370
     9
100
AcDbPolyline
 90
        5
 70
     0
 43
0.0
 10
6010.047705423881
 20
864.7375992637099
 10
6010.881039422799
 20
864.7375992637099
 10
6010.881039422799
 20
866.997321263756
 10
6010.047705423881
 20
866.997321263756
 10
6010.047705423881
 20
864.7375992637099
  0
HATCH
  5
2C0
330
1F
100
AcDbEntity
  8
Ech.1_2
 62
   252
440
 33554687
370
     5
100
AcDbHatch
 10
0.0
 20
0.0
 30
0.0
210
0.0
220
0.0
230
1.0
  2
SOLID
 70
     1
 71
     1
 91
        1
 92
        3
 72
     0
 73
     1
 93
        4
 10
6010.881038424422
 20
864.7375992637099
 10
6011.71437242334
 20
864.7375992637099
 10
6011.71437242334
 20
866.997321263756
 10
6010.881038424422
 20
866.997321263756
 97
        0
 75
     0
 76
     1
 98
        0
  0
LWPOLYLINE
  5
2C1
330
1F
100
AcDbEntity
  8
Ech.1_2
 62
     7
370
     9
100
AcDbPolyline
 90
        5
 70
     0
 43
0.0
 10
6010.881038424422
 20
864.7375992637099
 10
6011.71437242334
 20
864.7375992637099
 10
6011.71437242334
 20
866.997321263756
 10
6010.881038424422
 20
866.997321263756
 10
6010.881038424422
 20
864.7375992637099
  0
HATCH
  5
2C2
330
1F
100
AcDbEntity
  8
Ech.1_2
 62
   252
440
 33554687
370
     5
100
AcDbHatch
 10
0.0
 20
0.0
 30
0.0
210
0.0
220
0.0
230
1.0
  2
SOLID
 70
     1
 71
     1
 91
        1
 92
        3
 72
     0
 73
     1
 93
        4
 10
6011.71437242334
 20
864.7375992637099
 10
6012.547706422259
 20
864.7375992637099
 10
6012.547706422259
 20
866.997321263756
 10
6011.71437242334
 20
866.997321263756
 97
        0
 75
     0
 76
     1
 98
        0
  0
LWPOLYLINE
  5
2C3
330
1F
100
AcDbEntity
  8
Ech.1_2
 62
     7
370
     9
100
AcDbPolyline
 90
        5
 70
     0
 43
0.0
 10
6011.71437242334
 20
864.7375992637099
 10
6012.547706422259
 20
864.7375992637099
 10
6012.547706422259
 20
866.997321263756
 10
6011.71437242334
 20
866.997321263756
 10
6011.71437242334
 20
864.7375992637099
  0
HATCH
  5
2C4
330
1F
100
AcDbEntity
  8
Ech.1_2
 62
   252
440
 33554687
370
     5
100
AcDbHatch
 10
0.0
 20
0.0
 30
0.0
210
0.0
220
0.0
230
1.0
  2
SOLID
 70
     1
 71
     1
 91
        1
 92
        3
 72
     0
 73
     1
 93
        4
 10
6012.547704425503
 20
864.7375992637099
 10
6013.381038424422
 20
864.7375992637099
 10
6013.381038424422
 20
866.997321263756
 10
6012.547704425503
 20
866.997321263756
 97
        0
 75
     0
 76
     1
 98
        0
  0
LWPOLYLINE
  5
2C5
330
1F
100
AcDbEntity
  8
Ech.1_2
 62
     7
370
     9
100
AcDbPolyline
 90
        5
 70
     0
 43
0.0
 10
6012.547704425503
 20
864.7375992637099
 10
6013.381038424422
 20
864.7375992637099
 10
6013.381038424422
 20
866.997321263756
 10
6012.547704425503
 20
866.997321263756
 10
6012.547704425503
 20
864.7375992637099
  0
HATCH
  5
2C6
330
1F
100
AcDbEntity
  8
Ech.1_2
 62
   252
440
 33554687
370
     5
100
AcDbHatch
 10
0.0
 20
0.0
 30
0.0
210
0.0
220
0.0
230
1.0
  2
SOLID
 70
     1
 71
     1
 91
        1
 92
        3
 72
     0
 73
     1
 93
        4
 10
6013.381038424422
 20
864.7375992637099
 10
6014.21437242334
 20
864.7375992637099
 10
6014.21437242334
 20
866.997321263756
 10
6013.381038424422
 20
866.997321263756
 97
        0
 75
     0
 76
     1
 98
        0
  0
LWPOLYLINE
  5
2C7
330
1F
100
AcDbEntity
  8
Ech.1_2
 62
     7
370
     9
100
AcDbPolyline
 90
        5
 70
     0
 43
0.0
 10
6013.381038424422
 20
864.7375992637099
 10
6014.21437242334
 20
864.7375992637099
 10
6014.21437242334
 20
866.997321263756
 10
6013.381038424422
 20
866.997321263756
 10
6013.381038424422
 20
864.7375992637099
  0
HATCH
  5
2C8
330
1F
100
AcDbEntity
  8
Ech.1_2
 62
   252
440
 33554687
370
     5
100
AcDbHatch
 10
0.0
 20
0.0
 30
0.0
210
0.0
220
0.0
230
1.0
  2
SOLID
 70
     1
 71
     1
 91
        1
 92
        3
 72
     0
 73
     1
 93
        4
 10
6014.21437242334
 20
864.7375992637099
 10
6015.047706422259
 20
864.7375992637099
 10
6015.04770642226
 20
866.997321263756
 10
6014.21437242334
 20
866.997321263756
 97
        0
 75
     0
 76
     1
 98
        0
  0
LWPOLYLINE
  5
2C9
330
1F
100
AcDbEntity
  8
Ech.1_2
 62
     7
370
     9
100
AcDbPolyline
 90
        5
 70
     0
 43
0.0
 10
6014.21437242334
 20
864.7375992637099
 10
6015.047706422259
 20
864.7375992637099
 10
6015.04770642226
 20
866.997321263756
 10
6014.21437242334
 20
866.997321263756
 10
6014.21437242334
 20
864.7375992637099
  0
HATCH
  5
2CA
330
1F
100
AcDbEntity
  8
Ech.1_2
 62
   252
440
 33554687
370
     5
100
AcDbHatch
 10
0.0
 20
0.0
 30
0.0
210
0.0
220
0.0
230
1.0
  2
SOLID
 70
     1
 71
     1
 91
        1
 92
        3
 72
     0
 73
     1
 93
        4
 10
6015.047706422259
 20
864.7375992637099
 10
6015.881040421177
 20
864.7375992637099
 10
6015.881040421177
 20
866.997321263756
 10
6015.04770642226
 20
866.997321263756
 97
        0
 75
     0
 76
     1
 98
        0
  0
LWPOLYLINE
  5
2CB
330
1F
100
AcDbEntity
  8
Ech.1_2
 62
     7
370
     9
100
AcDbPolyline
 90
        5
 70
     0
 43
0.0
 10
6015.047706422259
 20
864.7375992637099
 10
6015.881040421177
 20
864.7375992637099
 10
6015.881040421177
 20
866.997321263756
 10
6015.04770642226
 20
866.997321263756
 10
6015.047706422259
 20
864.7375992637099
  0
HATCH
  5
2CC
330
1F
100
AcDbEntity
  8
Ech.1_2
 62
   252
440
 33554687
370
     5
100
AcDbHatch
 10
0.0
 20
0.0
 30
0.0
210
0.0
220
0.0
230
1.0
  2
SOLID
 70
     1
 71
     1
 91
        1
 92
        3
 72
     0
 73
     1
 93
        4
 10
6015.881040421177
 20
864.7375992637099
 10
6016.714374420096
 20
864.7375992637099
 10
6016.714374420096
 20
866.997321263756
 10
6015.881040421177
 20
866.997321263756
 97
        0
 75
     0
 76
     1
 98
        0
  0
LWPOLYLINE
  5
2CD
330
1F
100
AcDbEntity
  8
Ech.1_2
 62
     7
370
     9
100
AcDbPolyline
 90
        5
 70
     0
 43
0.0
 10
6015.881040421177
 20
864.7375992637099
 10
6016.714374420096
 20
864.7375992637099
 10
6016.714374420096
 20
866.997321263756
 10
6015.881040421177
 20
866.997321263756
 10
6015.881040421177
 20
864.7375992637099
  0
HATCH
  5
2CE
330
1F
100
AcDbEntity
  8
Ech.1_2
 62
   252
440
 33554687
370
     5
100
AcDbHatch
 10
0.0
 20
0.0
 30
0.0
210
0.0
220
0.0
230
1.0
  2
SOLID
 70
     1
 71
     1
 91
        1
 92
        3
 72
     0
 73
     1
 93
        4
 10
6016.71437242334
 20
864.7375992637099
 10
6017.547706422259
 20
864.7375992637099
 10
6017.547706422259
 20
866.997321263756
 10
6016.71437242334
 20
866.997321263756
 97
        0
 75
     0
 76
     1
 98
        0
  0
LWPOLYLINE
  5
2CF
330
1F
100
AcDbEntity
  8
Ech.1_2
 62
     7
370
     9
100
AcDbPolyline
 90
        5
 70
     0
 43
0.0
 10
6016.71437242334
 20
864.7375992637099
 10
6017.547706422259
 20
864.7375992637099
 10
6017.547706422259
 20
866.997321263756
 10
6016.71437242334
 20
866.997321263756
 10
6016.71437242334
 20
864.7375992637099
  0
HATCH
  5
2D0
330
1F
100
AcDbEntity
  8
Ech.1_2
 62
   252
440
 33554687
370
     5
100
AcDbHatch
 10
0.0
 20
0.0
 30
0.0
210
0.0
220
0.0
230
1.0
  2
SOLID
 70
     1
 71
     1
 91
        1
 92
        3
 72
     0
 73
     1
 93
        4
 10
6017.547705423881
 20
864.7375992637099
 10
6018.381039422799
 20
864.7375992637099
 10
6018.381039422799
 20
866.997321263756
 10
6017.547705423881
 20
866.997321263756
 97
        0
 75
     0
 76
     1
 98
        0
  0
LWPOLYLINE
  5
2D1
330
1F
100
AcDbEntity
  8
Ech.1_2
 62
     7
370
     9
100
AcDbPolyline
 90
        5
 70
     0
 43
0.0
 10
6017.547705423881
 20
864.7375992637099
 10
6018.381039422799
 20
864.7375992637099
 10
6018.381039422799
 20
866.997321263756
 10
6017.547705423881
 20
866.997321263756
 10
6017.547705423881
 20
864.7375992637099
  0
HATCH
  5
2D2
330
1F
100
AcDbEntity
  8
Ech.1_2
 62
   252
440
 33554687
370
     5
100
AcDbHatch
 10
0.0
 20
0.0
 30
0.0
210
0.0
220
0.0
230
1.0
  2
SOLID
 70
     1
 71
     1
 91
        1
 92
        3
 72
     0
 73
     1
 93
        4
 10
6018.381039422799
 20
864.7375992637099
 10
6019.214373421718
 20
864.7375992637099
 10
6019.214373421718
 20
866.997321263756
 10
6018.381039422799
 20
866.997321263756
 97
        0
 75
     0
 76
     1
 98
        0
  0
LWPOLYLINE
  5
2D3
330
1F
100
AcDbEntity
  8
Ech.1_2
 62
     7
370
     9
100
AcDbPolyline
 90
        5
 70
     0
 43
0.0
 10
6018.381039422799
 20
864.7375992637099
 10
6019.214373421718
 20
864.7375992637099
 10
6019.214373421718
 20
866.997321263756
 10
6018.381039422799
 20
866.997321263756
 10
6018.381039422799
 20
864.7375992637099
  0
HATCH
  5
2D4
330
1F
100
AcDbEntity
  8
Ech.1_2
 62
   252
440
 33554687
370
     5
100
AcDbHatch
 10
0.0
 20
0.0
 30
0.0
210
0.0
220
0.0
230
1.0
  2
SOLID
 70
     1
 71
     1
 91
        1
 92
        3
 72
     0
 73
     1
 93
        4
 10
6019.21437242334
 20
864.7375992637099
 10
6020.047706422259
 20
864.7375992637099
 10
6020.047706422259
 20
866.997321263756
 10
6019.21437242334
 20
866.997321263756
 97
        0
 75
     0
 76
     1
 98
        0
  0
LWPOLYLINE
  5
2D5
330
1F
100
AcDbEntity
  8
Ech.1_2
 62
     7
370
     9
100
AcDbPolyline
 90
        5
 70
     0
 43
0.0
 10
6019.21437242334
 20
864.7375992637099
 10
6020.047706422259
 20
864.7375992637099
 10
6020.047706422259
 20
866.997321263756
 10
6019.21437242334
 20
866.997321263756
 10
6019.21437242334
 20
864.7375992637099
  0
HATCH
  5
2D6
330
1F
100
AcDbEntity
  8
Ech.1_2
 62
   252
440
 33554687
370
     5
100
AcDbHatch
 10
0.0
 20
0.0
 30
0.0
210
0.0
220
0.0
230
1.0
  2
SOLID
 70
     1
 71
     1
 91
        1
 92
        3
 72
     0
 73
     1
 93
        4
 10
6020.047706422259
 20
864.7375992637099
 10
6020.881040421177
 20
864.7375992637099
 10
6020.881040421177
 20
866.997321263756
 10
6020.047706422259
 20
866.997321263756
 97
        0
 75
     0
 76
     1
 98
        0
  0
LWPOLYLINE
  5
2D7
330
1F
100
AcDbEntity
  8
Ech.1_2
 62
     7
370
     9
100
AcDbPolyline
 90
        5
 70
     0
 43
0.0
 10
6020.047706422259
 20
864.7375992637099
 10
6020.881040421177
 20
864.7375992637099
 10
6020.881040421177
 20
866.997321263756
 10
6020.047706422259
 20
866.997321263756
 10
6020.047706422259
 20
864.7375992637099
  0
HATCH
  5
2D8
330
1F
100
AcDbEntity
  8
Ech.1_2
 62
   252
440
 33554687
370
     5
100
AcDbHatch
 10
0.0
 20
0.0
 30
0.0
210
0.0
220
0.0
230
1.0
  2
SOLID
 70
     1
 71
     1
 91
        1
 92
        3
 72
     0
 73
     1
 93
        4
 10
6020.881038424422
 20
864.7375992637099
 10
6021.71437242334
 20
864.7375992637099
 10
6021.71437242334
 20
866.997321263756
 10
6020.881038424422
 20
866.997321263756
 97
        0
 75
     0
 76
     1
 98
        0
  0
LWPOLYLINE
  5
2D9
330
1F
100
AcDbEntity
  8
Ech.1_2
 62
     7
370
     9
100
AcDbPolyline
 90
        5
 70
     0
 43
0.0
 10
6020.881038424422
 20
864.7375992637099
 10
6021.71437242334
 20
864.7375992637099
 10
6021.71437242334
 20
866.997321263756
 10
6020.881038424422
 20
866.997321263756
 10
6020.881038424422
 20
864.7375992637099
  0
HATCH
  5
2DA
330
1F
100
AcDbEntity
  8
Ech.1_2
 62
   252
440
 33554687
370
     5
100
AcDbHatch
 10
0.0
 20
0.0
 30
0.0
210
0.0
220
0.0
230
1.0
  2
SOLID
 70
     1
 71
     1
 91
        1
 92
        3
 72
     0
 73
     1
 93
        4
 10
6021.71437242334
 20
864.7375992637099
 10
6022.547706422259
 20
864.7375992637099
 10
6022.547706422259
 20
866.997321263756
 10
6021.71437242334
 20
866.997321263756
 97
        0
 75
     0
 76
     1
 98
        0
  0
LWPOLYLINE
  5
2DB
330
1F
100
AcDbEntity
  8
Ech.1_2
 62
     7
370
     9
100
AcDbPolyline
 90
        5
 70
     0
 43
0.0
 10
6021.71437242334
 20
864.7375992637099
 10
6022.547706422259
 20
864.7375992637099
 10
6022.547706422259
 20
866.997321263756
 10
6021.71437242334
 20
866.997321263756
 10
6021.71437242334
 20
864.7375992637099
  0
HATCH
  5
2DC
330
1F
100
AcDbEntity
  8
Ech.1_2
 62
   252
440
 33554687
370
     5
100
AcDbHatch
 10
0.0
 20
0.0
 30
0.0
210
0.0
220
0.0
230
1.0
  2
SOLID
 70
     1
 71
     1
 91
        1
 92
        3
 72
     0
 73
     1
 93
        4
 10
6022.547706422259
 20
864.7375992637099
 10
6023.381040421177
 20
864.7375992637099
 10
6023.381040421177
 20
866.997321263756
 10
6022.547706422259
 20
866.997321263756
 97
        0
 75
     0
 76
     1
 98
        0
  0
LWPOLYLINE
  5
2DD
330
1F
100
AcDbEntity
  8
Ech.1_2
 62
     7
370
     9
100
AcDbPolyline
 90
        5
 70
     0
 43
0.0
 10
6022.547706422259
 20
864.7375992637099
 10
6023.381040421177
 20
864.7375992637099
 10
6023.381040421177
 20
866.997321263756
 10
6022.547706422259
 20
866.997321263756
 10
6022.547706422259
 20
864.7375992637099
  0
HATCH
  5
2DE
330
1F
100
AcDbEntity
  8
Ech.1_2
 62
   252
440
 33554687
370
     5
100
AcDbHatch
 10
0.0
 20
0.0
 30
0.0
210
0.0
220
0.0
230
1.0
  2
SOLID
 70
     1
 71
     1
 91
        1
 92
        3
 72
     0
 73
     1
 93
        4
 10
6023.381040421177
 20
864.7375992637099
 10
6024.214374420098
 20
864.7375992637099
 10
6024.214374420096
 20
866.997321263756
 10
6023.381040421177
 20
866.997321263756
 97
        0
 75
     0
 76
     1
 98
        0
  0
LWPOLYLINE
  5
2DF
330
1F
100
AcDbEntity
  8
Ech.1_2
 62
     7
370
     9
100
AcDbPolyline
 90
        5
 70
     0
 43
0.0
 10
6023.381040421177
 20
864.7375992637099
 10
6024.214374420098
 20
864.7375992637099
 10
6024.214374420096
 20
866.997321263756
 10
6023.381040421177
 20
866.997321263756
 10
6023.381040421177
 20
864.7375992637099
  0
HATCH
  5
2E0
330
1F
100
AcDbEntity
  8
Ech.1_2
 62
   252
440
 33554687
370
     5
100
AcDbHatch
 10
0.0
 20
0.0
 30
0.0
210
0.0
220
0.0
230
1.0
  2
SOLID
 70
     1
 71
     1
 91
        1
 92
        3
 72
     0
 73
     1
 93
        4
 10
6024.214374420098
 20
864.7375992637099
 10
6025.047708419014
 20
864.7375992637099
 10
6025.047708419014
 20
866.997321263756
 10
6024.214374420096
 20
866.997321263756
 97
        0
 75
     0
 76
     1
 98
        0
  0
LWPOLYLINE
  5
2E1
330
1F
100
AcDbEntity
  8
Ech.1_2
 62
     7
370
     9
100
AcDbPolyline
 90
        5
 70
     0
 43
0.0
 10
6024.214374420098
 20
864.7375992637099
 10
6025.047708419014
 20
864.7375992637099
 10
6025.047708419014
 20
866.997321263756
 10
6024.214374420096
 20
866.997321263756
 10
6024.214374420098
 20
864.7375992637099
  0
HATCH
  5
2E2
330
1F
100
AcDbEntity
  8
Ech.1_2
 62
   252
440
 33554687
370
     5
100
AcDbHatch
 10
0.0
 20
0.0
 30
0.0
210
0.0
220
0.0
230
1.0
  2
SOLID
 70
     1
 71
     1
 91
        1
 92
        3
 72
     0
 73
     1
 93
        4
 10
6025.047706422259
 20
864.7375992637099
 10
6025.881040421177
 20
864.7375992637099
 10
6025.881040421177
 20
866.997321263756
 10
6025.047706422259
 20
866.997321263756
 97
        0
 75
     0
 76
     1
 98
        0
  0
LWPOLYLINE
  5
2E3
330
1F
100
AcDbEntity
  8
Ech.1_2
 62
     7
370
     9
100
AcDbPolyline
 90
        5
 70
     0
 43
0.0
 10
6025.047706422259
 20
864.7375992637099
 10
6025.881040421177
 20
864.7375992637099
 10
6025.881040421177
 20
866.997321263756
 10
6025.047706422259
 20
866.997321263756
 10
6025.047706422259
 20
864.7375992637099
  0
HATCH
  5
2E4
330
1F
100
AcDbEntity
  8
Ech.1_2
 62
   252
440
 33554687
370
     5
100
AcDbHatch
 10
0.0
 20
0.0
 30
0.0
210
0.0
220
0.0
230
1.0
  2
SOLID
 70
     1
 71
     1
 91
        1
 92
        3
 72
     0
 73
     1
 93
        4
 10
6025.881039422799
 20
864.7375992637099
 10
6026.714373421718
 20
864.7375992637099
 10
6026.714373421718
 20
866.997321263756
 10
6025.881039422799
 20
866.997321263756
 97
        0
 75
     0
 76
     1
 98
        0
  0
LWPOLYLINE
  5
2E5
330
1F
100
AcDbEntity
  8
Ech.1_2
 62
     7
370
     9
100
AcDbPolyline
 90
        5
 70
     0
 43
0.0
 10
6025.881039422799
 20
864.7375992637099
 10
6026.714373421718
 20
864.7375992637099
 10
6026.714373421718
 20
866.997321263756
 10
6025.881039422799
 20
866.997321263756
 10
6025.881039422799
 20
864.7375992637099
  0
HATCH
  5
2E6
330
1F
100
AcDbEntity
  8
Ech.1_2
 62
   252
440
 33554687
370
     5
100
AcDbHatch
 10
0.0
 20
0.0
 30
0.0
210
0.0
220
0.0
230
1.0
  2
SOLID
 70
     1
 71
     1
 91
        1
 92
        3
 72
     0
 73
     1
 93
        4
 10
6026.714373421718
 20
864.7375992637099
 10
6027.547707420636
 20
864.7375992637099
 10
6027.547707420636
 20
866.997321263756
 10
6026.714373421718
 20
866.997321263756
 97
        0
 75
     0
 76
     1
 98
        0
  0
LWPOLYLINE
  5
2E7
330
1F
100
AcDbEntity
  8
Ech.1_2
 62
     7
370
     9
100
AcDbPolyline
 90
        5
 70
     0
 43
0.0
 10
6026.714373421718
 20
864.7375992637099
 10
6027.547707420636
 20
864.7375992637099
 10
6027.547707420636
 20
866.997321263756
 10
6026.714373421718
 20
866.997321263756
 10
6026.714373421718
 20
864.7375992637099
  0
HATCH
  5
2E8
330
1F
100
AcDbEntity
  8
Ech.1_2
 62
   252
440
 33554687
370
     5
100
AcDbHatch
 10
0.0
 20
0.0
 30
0.0
210
0.0
220
0.0
230
1.0
  2
SOLID
 70
     1
 71
     1
 91
        1
 92
        3
 72
     0
 73
     1
 93
        4
 10
6027.547706422259
 20
864.7375992637099
 10
6028.381040421177
 20
864.7375992637099
 10
6028.381040421177
 20
866.997321263756
 10
6027.547706422259
 20
866.997321263756
 97
        0
 75
     0
 76
     1
 98
        0
  0
LWPOLYLINE
  5
2E9
330
1F
100
AcDbEntity
  8
Ech.1_2
 62
     7
370
     9
100
AcDbPolyline
 90
        5
 70
     0
 43
0.0
 10
6027.547706422259
 20
864.7375992637099
 10
6028.381040421177
 20
864.7375992637099
 10
6028.381040421177
 20
866.997321263756
 10
6027.547706422259
 20
866.997321263756
 10
6027.547706422259
 20
864.7375992637099
  0
HATCH
  5
2EA
330
1F
100
AcDbEntity
  8
Ech.1_2
 62
   252
440
 33554687
370
     5
100
AcDbHatch
 10
0.0
 20
0.0
 30
0.0
210
0.0
220
0.0
230
1.0
  2
SOLID
 70
     1
 71
     1
 91
        1
 92
        3
 72
     0
 73
     1
 93
        4
 10
6028.381040421177
 20
864.7375992637099
 10
6029.214374420096
 20
864.7375992637099
 10
6029.214374420096
 20
866.997321263756
 10
6028.381040421177
 20
866.997321263756
 97
        0
 75
     0
 76
     1
 98
        0
  0
LWPOLYLINE
  5
2EB
330
1F
100
AcDbEntity
  8
Ech.1_2
 62
     7
370
     9
100
AcDbPolyline
 90
        5
 70
     0
 43
0.0
 10
6028.381040421177
 20
864.7375992637099
 10
6029.214374420096
 20
864.7375992637099
 10
6029.214374420096
 20
866.997321263756
 10
6028.381040421177
 20
866.997321263756
 10
6028.381040421177
 20
864.7375992637099
  0
HATCH
  5
2EC
330
1F
100
AcDbEntity
  8
Ech.1_2
 62
   252
440
 33554687
370
     5
100
AcDbHatch
 10
0.0
 20
0.0
 30
0.0
210
0.0
220
0.0
230
1.0
  2
SOLID
 70
     1
 71
     1
 91
        1
 92
        3
 72
     0
 73
     1
 93
        4
 10
6029.21437242334
 20
864.7375992637099
 10
6030.047706422259
 20
864.7375992637099
 10
6030.047706422259
 20
866.997321263756
 10
6029.21437242334
 20
866.997321263756
 97
        0
 75
     0
 76
     1
 98
        0
  0
LWPOLYLINE
  5
2ED
330
1F
100
AcDbEntity
  8
Ech.1_2
 62
     7
370
     9
100
AcDbPolyline
 90
        5
 70
     0
 43
0.0
 10
6029.21437242334
 20
864.7375992637099
 10
6030.047706422259
 20
864.7375992637099
 10
6030.047706422259
 20
866.997321263756
 10
6029.21437242334
 20
866.997321263756
 10
6029.21437242334
 20
864.7375992637099
  0
HATCH
  5
2EE
330
1F
100
AcDbEntity
  8
Ech.1_2
 62
   252
440
 33554687
370
     5
100
AcDbHatch
 10
0.0
 20
0.0
 30
0.0
210
0.0
220
0.0
230
1.0
  2
SOLID
 70
     1
 71
     1
 91
        1
 92
        3
 72
     0
 73
     1
 93
        4
 10
6030.047704425503
 20
864.7375992637099
 10
6030.881038424422
 20
864.7375992637099
 10
6030.881038424422
 20
866.997321263756
 10
6030.047704425503
 20
866.997321263756
 97
        0
 75
     0
 76
     1
 98
        0
  0
LWPOLYLINE
  5
2EF
330
1F
100
AcDbEntity
  8
Ech.1_2
 62
     7
370
     9
100
AcDbPolyline
 90
        5
 70
     0
 43
0.0
 10
6030.047704425503
 20
864.7375992637099
 10
6030.881038424422
 20
864.7375992637099
 10
6030.881038424422
 20
866.997321263756
 10
6030.047704425503
 20
866.997321263756
 10
6030.047704425503
 20
864.7375992637099
  0
HATCH
  5
2F0
330
1F
100
AcDbEntity
  8
Ech.1_2
 62
   252
440
 33554687
370
     5
100
AcDbHatch
 10
0.0
 20
0.0
 30
0.0
210
0.0
220
0.0
230
1.0
  2
SOLID
 70
     1
 71
     1
 91
        1
 92
        3
 72
     0
 73
     1
 93
        4
 10
6030.881038424422
 20
864.7375992637099
 10
6031.71437242334
 20
864.7375992637099
 10
6031.71437242334
 20
866.997321263756
 10
6030.881038424422
 20
866.997321263756
 97
        0
 75
     0
 76
     1
 98
        0
  0
LWPOLYLINE
  5
2F1
330
1F
100
AcDbEntity
  8
Ech.1_2
 62
     7
370
     9
100
AcDbPolyline
 90
        5
 70
     0
 43
0.0
 10
6030.881038424422
 20
864.7375992637099
 10
6031.71437242334
 20
864.7375992637099
 10
6031.71437242334
 20
866.997321263756
 10
6030.881038424422
 20
866.997321263756
 10
6030.881038424422
 20
864.7375992637099
  0
HATCH
  5
2F2
330
1F
100
AcDbEntity
  8
Ech.1_2
 62
   252
440
 33554687
370
     5
100
AcDbHatch
 10
0.0
 20
0.0
 30
0.0
210
0.0
220
0.0
230
1.0
  2
SOLID
 70
     1
 71
     1
 91
        1
 92
        3
 72
     0
 73
     1
 93
        4
 10
6031.71437242334
 20
864.7375992637099
 10
6032.547706422259
 20
864.7375992637099
 10
6032.547706422259
 20
866.997321263756
 10
6031.71437242334
 20
866.997321263756
 97
        0
 75
     0
 76
     1
 98
        0
  0
LWPOLYLINE
  5
2F3
330
1F
100
AcDbEntity
  8
Ech.1_2
 62
     7
370
     9
100
AcDbPolyline
 90
        5
 70
     0
 43
0.0
 10
6031.71437242334
 20
864.7375992637099
 10
6032.547706422259
 20
864.7375992637099
 10
6032.547706422259
 20
866.997321263756
 10
6031.71437242334
 20
866.997321263756
 10
6031.71437242334
 20
864.7375992637099
  0
HATCH
  5
2F4
330
1F
100
AcDbEntity
  8
Ech.1_2
 62
   252
440
 33554687
370
     5
100
AcDbHatch
 10
0.0
 20
0.0
 30
0.0
210
0.0
220
0.0
230
1.0
  2
SOLID
 70
     1
 71
     1
 91
        1
 92
        3
 72
     0
 73
     1
 93
        4
 10
6032.547706422259
 20
864.7375992637099
 10
6033.381040421177
 20
864.7375992637099
 10
6033.381040421177
 20
866.997321263756
 10
6032.547706422259
 20
866.997321263756
 97
        0
 75
     0
 76
     1
 98
        0
  0
LWPOLYLINE
  5
2F5
330
1F
100
AcDbEntity
  8
Ech.1_2
 62
     7
370
     9
100
AcDbPolyline
 90
        5
 70
     0
 43
0.0
 10
6032.547706422259
 20
864.7375992637099
 10
6033.381040421177
 20
864.7375992637099
 10
6033.381040421177
 20
866.997321263756
 10
6032.547706422259
 20
866.997321263756
 10
6032.547706422259
 20
864.7375992637099
  0
HATCH
  5
2F6
330
1F
100
AcDbEntity
  8
Ech.1_2
 62
   252
440
 33554687
370
     5
100
AcDbHatch
 10
0.0
 20
0.0
 30
0.0
210
0.0
220
0.0
230
1.0
  2
SOLID
 70
     1
 71
     1
 91
        1
 92
        3
 72
     0
 73
     1
 93
        4
 10
6033.381038424422
 20
864.7375992637099
 10
6034.21437242334
 20
864.7375992637099
 10
6034.21437242334
 20
866.997321263756
 10
6033.381038424422
 20
866.997321263756
 97
        0
 75
     0
 76
     1
 98
        0
  0
LWPOLYLINE
  5
2F7
330
1F
100
AcDbEntity
  8
Ech.1_2
 62
     7
370
     9
100
AcDbPolyline
 90
        5
 70
     0
 43
0.0
 10
6033.381038424422
 20
864.7375992637099
 10
6034.21437242334
 20
864.7375992637099
 10
6034.21437242334
 20
866.997321263756
 10
6033.381038424422
 20
866.997321263756
 10
6033.381038424422
 20
864.7375992637099
  0
HATCH
  5
2F8
330
1F
100
AcDbEntity
  8
Ech.1_2
 62
   252
440
 33554687
370
     5
100
AcDbHatch
 10
0.0
 20
0.0
 30
0.0
210
0.0
220
0.0
230
1.0
  2
SOLID
 70
     1
 71
     1
 91
        1
 92
        3
 72
     0
 73
     1
 93
        4
 10
6034.214371424962
 20
864.7375992637099
 10
6035.047705423881
 20
864.7375992637099
 10
6035.047705423881
 20
866.997321263756
 10
6034.214371424962
 20
866.997321263756
 97
        0
 75
     0
 76
     1
 98
        0
  0
LWPOLYLINE
  5
2F9
330
1F
100
AcDbEntity
  8
Ech.1_2
 62
     7
370
     9
100
AcDbPolyline
 90
        5
 70
     0
 43
0.0
 10
6034.214371424962
 20
864.7375992637099
 10
6035.047705423881
 20
864.7375992637099
 10
6035.047705423881
 20
866.997321263756
 10
6034.214371424962
 20
866.997321263756
 10
6034.214371424962
 20
864.7375992637099
  0
HATCH
  5
2FA
330
1F
100
AcDbEntity
  8
Ech.1_2
 62
   252
440
 33554687
370
     5
100
AcDbHatch
 10
0.0
 20
0.0
 30
0.0
210
0.0
220
0.0
230
1.0
  2
SOLID
 70
     1
 71
     1
 91
        1
 92
        3
 72
     0
 73
     1
 93
        4
 10
6035.047705423881
 20
864.7375992637099
 10
6035.881039422799
 20
864.7375992637099
 10
6035.881039422799
 20
866.997321263756
 10
6035.047705423881
 20
866.997321263756
 97
        0
 75
     0
 76
     1
 98
        0
  0
LWPOLYLINE
  5
2FB
330
1F
100
AcDbEntity
  8
Ech.1_2
 62
     7
370
     9
100
AcDbPolyline
 90
        5
 70
     0
 43
0.0
 10
6035.047705423881
 20
864.7375992637099
 10
6035.881039422799
 20
864.7375992637099
 10
6035.881039422799
 20
866.997321263756
 10
6035.047705423881
 20
866.997321263756
 10
6035.047705423881
 20
864.7375992637099
  0
HATCH
  5
2FC
330
1F
100
AcDbEntity
  8
Ech.1_2
 62
   252
440
 33554687
370
     5
100
AcDbHatch
 10
0.0
 20
0.0
 30
0.0
210
0.0
220
0.0
230
1.0
  2
SOLID
 70
     1
 71
     1
 91
        1
 92
        3
 72
     0
 73
     1
 93
        4
 10
6035.881038424422
 20
864.7375992637099
 10
6036.71437242334
 20
864.7375992637099
 10
6036.71437242334
 20
866.997321263756
 10
6035.881038424422
 20
866.997321263756
 97
        0
 75
     0
 76
     1
 98
        0
  0
LWPOLYLINE
  5
2FD
330
1F
100
AcDbEntity
  8
Ech.1_2
 62
     7
370
     9
100
AcDbPolyline
 90
        5
 70
     0
 43
0.0
 10
6035.881038424422
 20
864.7375992637099
 10
6036.71437242334
 20
864.7375992637099
 10
6036.71437242334
 20
866.997321263756
 10
6035.881038424422
 20
866.997321263756
 10
6035.881038424422
 20
864.7375992637099
  0
HATCH
  5
2FE
330
1F
100
AcDbEntity
  8
Ech.1_2
 62
   252
440
 33554687
370
     5
100
AcDbHatch
 10
0.0
 20
0.0
 30
0.0
210
0.0
220
0.0
230
1.0
  2
SOLID
 70
     1
 71
     1
 91
        1
 92
        3
 72
     0
 73
     1
 93
        4
 10
6036.71437242334
 20
864.7375992637099
 10
6037.547706422259
 20
864.7375992637099
 10
6037.547706422259
 20
866.997321263756
 10
6036.71437242334
 20
866.997321263756
 97
        0
 75
     0
 76
     1
 98
        0
  0
LWPOLYLINE
  5
2FF
330
1F
100
AcDbEntity
  8
Ech.1_2
 62
     7
370
     9
100
AcDbPolyline
 90
        5
 70
     0
 43
0.0
 10
6036.71437242334
 20
864.7375992637099
 10
6037.547706422259
 20
864.7375992637099
 10
6037.547706422259
 20
866.997321263756
 10
6036.71437242334
 20
866.997321263756
 10
6036.71437242334
 20
864.7375992637099
  0
HATCH
  5
300
330
1F
100
AcDbEntity
  8
Ech.1_2
 62
   252
440
 33554687
370
     5
100
AcDbHatch
 10
0.0
 20
0.0
 30
0.0
210
0.0
220
0.0
230
1.0
  2
SOLID
 70
     1
 71
     1
 91
        1
 92
        3
 72
     0
 73
     1
 93
        4
 10
6037.547704425503
 20
864.7375992637099
 10
6038.381038424422
 20
864.7375992637099
 10
6038.381038424422
 20
866.997321263756
 10
6037.547704425503
 20
866.997321263756
 97
        0
 75
     0
 76
     1
 98
        0
  0
LWPOLYLINE
  5
301
330
1F
100
AcDbEntity
  8
Ech.1_2
 62
     7
370
     9
100
AcDbPolyline
 90
        5
 70
     0
 43
0.0
 10
6037.547704425503
 20
864.7375992637099
 10
6038.381038424422
 20
864.7375992637099
 10
6038.381038424422
 20
866.997321263756
 10
6037.547704425503
 20
866.997321263756
 10
6037.547704425503
 20
864.7375992637099
  0
HATCH
  5
302
330
1F
100
AcDbEntity
  8
Ech.1_2
 62
   252
440
 33554687
370
     5
100
AcDbHatch
 10
0.0
 20
0.0
 30
0.0
210
0.0
220
0.0
230
1.0
  2
SOLID
 70
     1
 71
     1
 91
        1
 92
        3
 72
     0
 73
     1
 93
        4
 10
6038.381038424422
 20
864.7375992637099
 10
6039.21437242334
 20
864.7375992637099
 10
6039.21437242334
 20
866.997321263756
 10
6038.381038424422
 20
866.997321263756
 97
        0
 75
     0
 76
     1
 98
        0
  0
LWPOLYLINE
  5
303
330
1F
100
AcDbEntity
  8
Ech.1_2
 62
     7
370
     9
100
AcDbPolyline
 90
        5
 70
     0
 43
0.0
 10
6038.381038424422
 20
864.7375992637099
 10
6039.21437242334
 20
864.7375992637099
 10
6039.21437242334
 20
866.997321263756
 10
6038.381038424422
 20
866.997321263756
 10
6038.381038424422
 20
864.7375992637099
  0
HATCH
  5
304
330
1F
100
AcDbEntity
  8
Ech.1_2
 62
   252
440
 33554687
370
     5
100
AcDbHatch
 10
0.0
 20
0.0
 30
0.0
210
0.0
220
0.0
230
1.0
  2
SOLID
 70
     1
 71
     1
 91
        1
 92
        3
 72
     0
 73
     1
 93
        4
 10
6039.21437242334
 20
864.7375992637099
 10
6040.047706422259
 20
864.7375992637099
 10
6040.047706422259
 20
866.997321263756
 10
6039.21437242334
 20
866.997321263756
 97
        0
 75
     0
 76
     1
 98
        0
  0
LWPOLYLINE
  5
305
330
1F
100
AcDbEntity
  8
Ech.1_2
 62
     7
370
     9
100
AcDbPolyline
 90
        5
 70
     0
 43
0.0
 10
6039.21437242334
 20
864.7375992637099
 10
6040.047706422259
 20
864.7375992637099
 10
6040.047706422259
 20
866.997321263756
 10
6039.21437242334
 20
866.997321263756
 10
6039.21437242334
 20
864.7375992637099
  0
HATCH
  5
306
330
1F
100
AcDbEntity
  8
Ech.1_2
 62
   252
440
 33554687
370
     5
100
AcDbHatch
 10
0.0
 20
0.0
 30
0.0
210
0.0
220
0.0
230
1.0
  2
SOLID
 70
     1
 71
     1
 91
        1
 92
        3
 72
     0
 73
     1
 93
        4
 10
6040.047706422259
 20
864.7375992637099
 10
6040.881040421177
 20
864.7375992637099
 10
6040.881040421177
 20
866.997321263756
 10
6040.047706422259
 20
866.997321263756
 97
        0
 75
     0
 76
     1
 98
        0
  0
LWPOLYLINE
  5
307
330
1F
100
AcDbEntity
  8
Ech.1_2
 62
     7
370
     9
100
AcDbPolyline
 90
        5
 70
     0
 43
0.0
 10
6040.047706422259
 20
864.7375992637099
 10
6040.881040421177
 20
864.7375992637099
 10
6040.881040421177
 20
866.997321263756
 10
6040.047706422259
 20
866.997321263756
 10
6040.047706422259
 20
864.7375992637099
  0
HATCH
  5
308
330
1F
100
AcDbEntity
  8
Ech.1_2
 62
   252
440
 33554687
370
     5
100
AcDbHatch
 10
0.0
 20
0.0
 30
0.0
210
0.0
220
0.0
230
1.0
  2
SOLID
 70
     1
 71
     1
 91
        1
 92
        3
 72
     1
 73
     1
 93
        4
 10
6045.580122422926
 20
866.997321263756
 42
0.0
 10
6044.214370426585
 20
866.997321263756
 42
0.0
 10
6044.214370426585
 20
864.7375992637099
 42
0.0
 10
6045.580122422926
 20
864.7375992637099
 42
-0.3513591548518968
 97
        0
 75
     0
 76
     1
 98
        0
  0
LWPOLYLINE
  5
309
330
1F
100
AcDbEntity
  8
Ech.1_2
 62
     7
370
     9
100
AcDbPolyline
 90
        5
 70
     0
 43
0.0
 10
6045.580122422926
 20
866.997321263756
 10
6044.214370426585
 20
866.997321263756
 10
6044.214370426585
 20
864.7375992637099
 10
6045.580122422926
 20
864.7375992637099
 42
-0.3513591548518972
 10
6045.580122422926
 20
866.997321263756
  0
HATCH
  5
30A
330
1F
100
AcDbEntity
  8
Ech.1_2
 62
   252
440
 33554687
370
     5
100
AcDbHatch
 10
0.0
 20
0.0
 30
0.0
210
0.0
220
0.0
230
1.0
  2
SOLID
 70
     1
 71
     1
 91
        1
 92
        3
 72
     1
 73
     1
 93
        3
 10
6048.242149424307
 20
865.867460263762
 42
0.0
 10
6045.580122422926
 20
866.997321263756
 42
0.3513591548518968
 10
6045.580122422926
 20
864.7375992637099
 42
0.0
 97
        0
 75
     0
 76
     1
 98
        0
  0
LWPOLYLINE
  5
30B
330
1F
100
AcDbEntity
  8
Ech.1_2
 62
     7
370
     9
100
AcDbPolyline
 90
        4
 70
     0
 43
0.0
 10
6048.242149424307
 20
865.867460263762
 10
6045.580122422926
 20
866.997321263756
 42
0.3513591548518956
 10
6045.580122422926
 20
864.7375992637099
 10
6048.242149424307
 20
865.867460263762
  0
HATCH
  5
30C
330
1F
100
AcDbEntity
  8
Ech.1_2
 62
   252
440
 33554687
370
     5
100
AcDbHatch
 10
0.0
 20
0.0
 30
0.0
210
0.0
220
0.0
230
1.0
  2
SOLID
 70
     1
 71
     1
 91
        1
 92
        3
 72
     1
 73
     1
 93
        6
 10
6005.047704425502
 20
864.7375992637099
 42
0.0
 10
6003.297705423585
 20
864.7375992637099
 42
0.4142135727375045
 10
6002.742149424306
 20
864.1820432637323
 42
0.0
 10
6002.742149424306
 20
867.5528772637917
 42
0.4142135726640322
 10
6003.297705423585
 20
866.997321263756
 42
0.0
 10
6005.047704425502
 20
866.997321263756
 42
0.0
 97
        0
 75
     0
 76
     1
 98
        0
  0
LWPOLYLINE
  5
30D
330
1F
100
AcDbEntity
  8
Ech.1_2
 62
     7
370
     9
100
AcDbPolyline
 90
        7
 70
     0
 43
0.0
 10
6005.047704425502
 20
864.7375992637099
 10
6003.297705423585
 20
864.7375992637099
 42
0.4142135727366852
 10
6002.742149424306
 20
864.1820432637323
 10
6002.742149424306
 20
867.5528772637917
 42
0.4142135726626001
 10
6003.297705423585
 20
866.997321263756
 10
6005.047704425502
 20
866.997321263756
 10
6005.047704425502
 20
864.7375992637099
  0
HATCH
  5
30E
330
1F
100
AcDbEntity
  8
Ech.1_2
 62
   252
440
 33554687
370
     5
100
AcDbHatch
 10
0.0
 20
0.0
 30
0.0
210
0.0
220
0.0
230
1.0
  2
SOLID
 70
     1
 71
     1
 91
        1
 92
        1
 93
        2
 72
     1
 10
6002.436594423405
 20
863.3487102373474
 11
6002.436594423405
 21
868.3862102901185
 72
     2
 10
6014.999797814229
 20
865.8674602637329
 40
12.81320339082451
 50
168.6632793503046
 51
191.3367206496955
 73
     1
 97
        0
 75
     0
 76
     1
 98
        0
  0
LWPOLYLINE
  5
30F
330
1F
100
AcDbEntity
  8
Ech.1_2
 62
     7
370
     9
100
AcDbPolyline
 90
        3
 70
     0
 43
0.0
 10
6002.436594423405
 20
863.3487102373474
 10
6002.436594423405
 20
868.3862102901185
 42
0.0992555820868614
 10
6002.436594423405
 20
863.3487102373474
  0
HATCH
  5
310
330
1F
100
AcDbEntity
  8
Ech.1_2
 62
   252
440
 33554687
370
     5
100
AcDbHatch
 10
0.0
 20
0.0
 30
0.0
210
0.0
220
0.0
230
1.0
  2
SOLID
 70
     1
 71
     1
 91
        1
 92
        3
 72
     0
 73
     1
 93
        6
 10
6002.742149424306
 20
863.3487102637737
 10
6002.742149424306
 20
864.1820432637323
 10
6002.742149424306
 20
867.5528772637917
 10
6002.742149424308
 20
868.3862102637504
 10
6002.436594423405
 20
868.3862102901185
 10
6002.436594423405
 20
863.3487102373474
 97
        0
 75
     0
 76
     1
 98
        0
  0
LWPOLYLINE
  5
311
330
1F
100
AcDbEntity
  8
Ech.1_2
 62
     7
370
     9
100
AcDbPolyline
 90
        7
 70
     0
 43
0.0
 10
6002.742149424306
 20
863.3487102637737
 10
6002.742149424306
 20
864.1820432637323
 10
6002.742149424306
 20
867.5528772637917
 10
6002.742149424308
 20
868.3862102637504
 10
6002.436594423405
 20
868.3862102901185
 10
6002.436594423405
 20
863.3487102373474
 10
6002.742149424306
 20
863.3487102637737
  0
HATCH
  5
312
330
1F
100
AcDbEntity
  8
Ech.1_2
 62
   252
440
 33554687
370
     5
100
AcDbHatch
 10
0.0
 20
0.0
 30
0.0
210
0.0
220
0.0
230
1.0
  2
SOLID
 70
     1
 71
     1
 91
        1
 92
        3
 72
     0
 73
     1
 93
        4
 10
6040.881040421177
 20
864.7375992637099
 10
6041.714374420096
 20
864.7375992637099
 10
6041.714374420096
 20
866.997321263756
 10
6040.881040421177
 20
866.997321263756
 97
        0
 75
     0
 76
     1
 98
        0
  0
LWPOLYLINE
  5
313
330
1F
100
AcDbEntity
  8
Ech.1_2
 62
     7
370
     9
100
AcDbPolyline
 90
        5
 70
     0
 43
0.0
 10
6040.881040421177
 20
864.7375992637099
 10
6041.714374420096
 20
864.7375992637099
 10
6041.714374420096
 20
866.997321263756
 10
6040.881040421177
 20
866.997321263756
 10
6040.881040421177
 20
864.7375992637099
  0
LINE
  5
314
330
1F
100
AcDbEntity
  8
Ech.1_2
 62
   190
370
     9
100
AcDbLine
 10
6042.547704425503
 20
866.997321263756
 30
0.0
 11
6042.547704425503
 21
864.7375992637099
 31
0.0
  0
LINE
  5
315
330
1F
100
AcDbEntity
  8
Ech.1_2
 62
   190
370
     9
100
AcDbLine
 10
6043.381038424422
 20
866.997321263756
 30
0.0
 11
6043.381038424422
 21
864.7375992637099
 31
0.0
  0
LINE
  5
316
330
1F
100
AcDbEntity
  8
Ech.1_2
 62
   190
370
     9
100
AcDbLine
 10
6044.214370426585
 20
866.997321263756
 30
0.0
 11
6044.214370426585
 21
864.7375992637099
 31
0.0
  0
LINE
  5
317
330
1F
100
AcDbEntity
  8
Ech.1_2
 62
   190
370
     9
100
AcDbLine
 10
6041.71437242334
 20
866.997321263756
 30
0.0
 11
6041.71437242334
 21
864.7375992637099
 31
0.0
  0
HATCH
  5
318
330
1F
100
AcDbEntity
  8
Ech.1_2
 62
   252
440
 33554687
370
     5
100
AcDbHatch
 10
0.0
 20
0.0
 30
0.0
210
0.0
220
0.0
230
1.0
  2
SOLID
 70
     1
 71
     1
 91
        1
 92
        3
 72
     0
 73
     1
 93
        4
 10
6041.714370426585
 20
864.7375992637099
 10
6042.547704425503
 20
864.7375992637099
 10
6042.547704425503
 20
866.997321263756
 10
6041.714370426585
 20
866.997321263756
 97
        0
 75
     0
 76
     1
 98
        0
  0
LWPOLYLINE
  5
319
330
1F
100
AcDbEntity
  8
Ech.1_2
 62
     7
370
     9
100
AcDbPolyline
 90
        5
 70
     0
 43
0.0
 10
6041.714370426585
 20
864.7375992637099
 10
6042.547704425503
 20
864.7375992637099
 10
6042.547704425503
 20
866.997321263756
 10
6041.714370426585
 20
866.997321263756
 10
6041.714370426585
 20
864.7375992637099
  0
HATCH
  5
31A
330
1F
100
AcDbEntity
  8
Ech.1_2
 62
   252
440
 33554687
370
     5
100
AcDbHatch
 10
0.0
 20
0.0
 30
0.0
210
0.0
220
0.0
230
1.0
  2
SOLID
 70
     1
 71
     1
 91
        1
 92
        3
 72
     0
 73
     1
 93
        4
 10
6043.381036427666
 20
864.7375992637099
 10
6044.214370426585
 20
864.7375992637099
 10
6044.214370426585
 20
866.997321263756
 10
6043.381036427666
 20
866.997321263756
 97
        0
 75
     0
 76
     1
 98
        0
  0
LWPOLYLINE
  5
31B
330
1F
100
AcDbEntity
  8
Ech.1_2
 62
     7
370
     9
100
AcDbPolyline
 90
        5
 70
     0
 43
0.0
 10
6043.381036427666
 20
864.7375992637099
 10
6044.214370426585
 20
864.7375992637099
 10
6044.214370426585
 20
866.997321263756
 10
6043.381036427666
 20
866.997321263756
 10
6043.381036427666
 20
864.7375992637099
  0
HATCH
  5
31C
330
1F
100
AcDbEntity
  8
Ech.1_2
 62
    17
420
  8405056
440
 33554687
370
    20
100
AcDbHatch
 10
0.0
 20
0.0
 30
0.0
210
0.0
220
0.0
230
1.0
  2
SOLID
 70
     1
 71
     1
 91
        1
 92
        3
 72
     0
 73
     1
 93
        4
 10
6055.300343097275
 20
636.7849093617392
 10
6055.300343097275
 20
839.6273630668074
 10
6045.300343097275
 20
833.7713631881479
 10
6045.300343097275
 20
636.7851774737196
 97
        0
 75
     0
 76
     1
 98
        0
  0
LWPOLYLINE
  5
31D
330
1F
100
AcDbEntity
  8
Ech.1_2
 62
     7
370
    20
100
AcDbPolyline
 90
        5
 70
     0
 43
0.0
 10
6055.300343097275
 20
636.7849093617392
 10
6055.300343097275
 20
839.6273630668074
 10
6045.300343097275
 20
833.7713631881479
 10
6045.300343097275
 20
636.7851774737196
 10
6055.300343097275
 20
636.7849093617392
  0
LINE
  5
31E
330
1F
100
AcDbEntity
  8
Ech.1_2
 62
     7
370
    20
100
AcDbLine
 10
6075.802343473297
 20
806.3146391969576
 30
0.0
 11
6075.671012999067
 21
806.2602403333804
 31
0.0
  0
LINE
  5
31F
330
1F
100
AcDbEntity
  8
Ech.1_2
 62
     7
370
    20
100
AcDbLine
 10
6077.012154535558
 20
808.7511213199032
 30
0.0
 11
6075.671012999067
 21
809.3066403333769
 31
0.0
  0
LINE
  5
320
330
1F
100
AcDbEntity
  8
Ech.1_2
 62
     7
370
    20
100
AcDbLine
 10
6075.802343473297
 20
806.3146391969576
 30
0.0
 11
6074.812343097276
 21
809.3066403333769
 31
0.0
  0
LINE
  5
321
330
1F
100
AcDbEntity
  8
Ech.1_2
 62
     7
370
    20
100
AcDbLine
 10
6076.439276222723
 20
806.5784653800911
 30
0.0
 11
6075.536571274947
 21
809.3066403333769
 31
0.0
  0
LINE
  5
322
330
1F
100
AcDbEntity
  8
Ech.1_2
 62
     7
370
    20
100
AcDbLine
 10
6075.174457186111
 20
809.9338403333786
 30
0.0
 11
6076.164457562133
 21
805.6874391969559
 31
0.0
  0
LINE
  5
323
330
1F
100
AcDbEntity
  8
Ech.1_2
 62
     7
370
    20
100
AcDbLine
 10
6045.300343097275
 20
804.4234405247862
 30
0.0
 11
6045.300343097275
 21
811.1434405760538
 31
0.0
  0
LWPOLYLINE
  5
324
330
1F
100
AcDbEntity
  8
Ech.1_2
 62
     7
370
    20
100
AcDbPolyline
 90
       12
 70
   128
 43
0.0
 10
6045.300343097275
 20
812.7114403333808
 42
0.4142135623658085
 10
6044.852343097275
 20
813.1594403333802
 42
-0.4142135623658045
 10
6045.300343097275
 20
812.7114403333808
 10
6045.300343097275
 20
802.855440333381
 42
-0.4142135623718972
 10
6044.852343097275
 20
802.4074403333816
 10
6044.567055565398
 20
802.4074403333816
 42
-0.280712537382165
 10
6044.16888195725
 20
802.6501070000468
 42
-0.080040099390762
 10
6043.060343097275
 20
806.0362406239083
 10
6043.060343097275
 20
809.5306409110171
 42
-0.0800400421140646
 10
6044.16888195725
 20
812.9167736667123
 42
-0.2807125373763145
 10
6044.567055565398
 20
813.1594403333802
 10
6044.852343097275
 20
813.1594403333802
  0
LINE
  5
325
330
1F
100
AcDbEntity
  8
Ech.1_2
 62
     7
370
    20
100
AcDbLine
 10
6045.300343097275
 20
802.8531626673648
 30
0.0
 11
6045.300343097275
 21
804.4234405247862
 31
0.0
  0
LINE
  5
326
330
1F
100
AcDbEntity
  8
Ech.1_2
 62
     7
370
    20
100
AcDbLine
 10
6045.300343097275
 20
812.7137188675597
 30
0.0
 11
6045.300343097275
 21
811.1434410101392
 31
0.0
  0
LINE
  5
327
330
1F
100
AcDbEntity
  8
Ech.1_2
 62
     7
370
    20
100
AcDbLine
 10
6061.708343097275
 20
806.2602403333804
 30
0.0
 11
6060.700343097275
 21
809.3066403333769
 31
0.0
  0
LINE
  5
328
330
1F
100
AcDbEntity
  8
Ech.1_2
 62
     7
370
    20
100
AcDbLine
 10
6062.432571274948
 20
806.2602403333804
 30
0.0
 11
6061.424571274947
 21
809.3066403333769
 31
0.0
  0
LINE
  5
329
330
1F
100
AcDbEntity
  8
Ech.1_2
 62
     7
370
    20
100
AcDbLine
 10
6061.062457186112
 20
809.9338403333786
 30
0.0
 11
6062.070457186112
 21
805.6330403333786
 31
0.0
  0
LINE
  5
32A
330
1F
100
AcDbEntity
  8
Ech.1_2
 62
     7
370
    20
100
AcDbLine
 10
6066.464571274948
 20
806.2602403333804
 30
0.0
 11
6065.456571274947
 21
809.3066403333769
 31
0.0
  0
LINE
  5
32B
330
1F
100
AcDbEntity
  8
Ech.1_2
 62
     7
370
    20
100
AcDbLine
 10
6065.094457186111
 20
809.9338403333786
 30
0.0
 11
6066.102457186112
 21
805.6330403333786
 31
0.0
  0
LINE
  5
32C
330
1F
100
AcDbEntity
  8
Ech.1_2
 62
     7
370
    20
100
AcDbLine
 10
6063.078457186111
 20
809.9338403333786
 30
0.0
 11
6064.086457186111
 21
805.6330403333786
 31
0.0
  0
LINE
  5
32D
330
1F
100
AcDbEntity
  8
Ech.1_2
 62
     7
370
    20
100
AcDbLine
 10
6064.448571274947
 20
806.2602403333804
 30
0.0
 11
6063.440571274947
 21
809.3066403333769
 31
0.0
  0
LINE
  5
32E
330
1F
100
AcDbEntity
  8
Ech.1_2
 62
     7
370
    20
100
AcDbLine
 10
6063.724343097275
 20
806.2602403333804
 30
0.0
 11
6062.716343097275
 21
809.3066403333769
 31
0.0
  0
LINE
  5
32F
330
1F
100
AcDbEntity
  8
Ech.1_2
 62
     7
370
    20
100
AcDbLine
 10
6065.740343097275
 20
806.2602403333804
 30
0.0
 11
6064.732343097276
 21
809.3066403333769
 31
0.0
  0
LINE
  5
330
330
1F
100
AcDbEntity
  8
Ech.1_2
 62
     7
370
    20
100
AcDbLine
 10
6067.110457186111
 20
809.9338403333786
 30
0.0
 11
6068.118457186111
 21
805.6330403333786
 31
0.0
  0
LINE
  5
331
330
1F
100
AcDbEntity
  8
Ech.1_2
 62
     7
370
    20
100
AcDbLine
 10
6068.480571274948
 20
806.2602403333804
 30
0.0
 11
6067.472571274948
 21
809.3066403333769
 31
0.0
  0
LINE
  5
332
330
1F
100
AcDbEntity
  8
Ech.1_2
 62
     7
370
    20
100
AcDbLine
 10
6067.756343097275
 20
806.2602403333804
 30
0.0
 11
6066.748343097275
 21
809.3066403333769
 31
0.0
  0
LINE
  5
333
330
1F
100
AcDbEntity
  8
Ech.1_2
 62
     7
370
    20
100
AcDbLine
 10
6056.052343333115
 20
809.4858403333792
 30
0.0
 11
6056.052343333115
 21
806.0810403333799
 31
0.0
  0
LINE
  5
334
330
1F
100
AcDbEntity
  8
Ech.1_2
 62
     7
370
    20
100
AcDbLine
 10
6072.512571274948
 20
806.2602403333804
 30
0.0
 11
6071.504571274947
 21
809.3066403333769
 31
0.0
  0
LINE
  5
335
330
1F
100
AcDbEntity
  8
Ech.1_2
 62
     7
370
    20
100
AcDbLine
 10
6071.142457186112
 20
809.9338403333786
 30
0.0
 11
6072.150457186111
 21
805.6330403333786
 31
0.0
  0
LINE
  5
336
330
1F
100
AcDbEntity
  8
Ech.1_2
 62
     7
370
    20
100
AcDbLine
 10
6069.126457186111
 20
809.9338403333786
 30
0.0
 11
6070.134457186112
 21
805.6330403333786
 31
0.0
  0
LINE
  5
337
330
1F
100
AcDbEntity
  8
Ech.1_2
 62
     7
370
    20
100
AcDbLine
 10
6070.496571274947
 20
806.2602403333804
 30
0.0
 11
6069.488571274947
 21
809.3066403333769
 31
0.0
  0
LINE
  5
338
330
1F
100
AcDbEntity
  8
Ech.1_2
 62
     7
370
    20
100
AcDbLine
 10
6069.772343097276
 20
806.2602403333804
 30
0.0
 11
6068.764343097275
 21
809.3066403333769
 31
0.0
  0
LINE
  5
339
330
1F
100
AcDbEntity
  8
Ech.1_2
 62
     7
370
    20
100
AcDbLine
 10
6071.788343097275
 20
806.2602403333804
 30
0.0
 11
6070.780343097274
 21
809.3066403333769
 31
0.0
  0
LINE
  5
33A
330
1F
100
AcDbEntity
  8
Ech.1_2
 62
     7
370
    20
100
AcDbLine
 10
6073.158457186111
 20
809.9338403333786
 30
0.0
 11
6074.166457186111
 21
805.6330403333786
 31
0.0
  0
LINE
  5
33B
330
1F
100
AcDbEntity
  8
Ech.1_2
 62
     7
370
    20
100
AcDbLine
 10
6074.528571274947
 20
806.2602403333804
 30
0.0
 11
6073.520571274947
 21
809.3066403333769
 31
0.0
  0
LINE
  5
33C
330
1F
100
AcDbEntity
  8
Ech.1_2
 62
     7
370
    20
100
AcDbLine
 10
6073.804343097276
 20
806.2602403333804
 30
0.0
 11
6072.796343097275
 21
809.3066403333769
 31
0.0
  0
LINE
  5
33D
330
1F
100
AcDbEntity
  8
Ech.1_2
 62
     7
370
    20
100
AcDbLine
 10
6068.118457186111
 20
805.6330403333786
 30
0.0
 11
6068.480571274948
 21
806.2602403333804
 31
0.0
  0
LINE
  5
33E
330
1F
100
AcDbEntity
  8
Ech.1_2
 62
     7
370
    20
100
AcDbLine
 10
6064.448571274947
 20
806.2602403333804
 30
0.0
 11
6065.740343097275
 21
806.2602403333804
 31
0.0
  0
LINE
  5
33F
330
1F
100
AcDbEntity
  8
Ech.1_2
 62
     7
370
    20
100
AcDbLine
 10
6062.432571274948
 20
806.2602403333804
 30
0.0
 11
6063.724343097275
 21
806.2602403333804
 31
0.0
  0
LINE
  5
340
330
1F
100
AcDbEntity
  8
Ech.1_2
 62
     7
370
    20
100
AcDbLine
 10
6062.070457186112
 20
805.6330403333786
 30
0.0
 11
6061.708343097275
 21
806.2602403333804
 31
0.0
  0
LINE
  5
341
330
1F
100
AcDbEntity
  8
Ech.1_2
 62
     7
370
    20
100
AcDbLine
 10
6062.070457186112
 20
805.6330403333786
 30
0.0
 11
6062.432571274948
 21
806.2602403333804
 31
0.0
  0
LINE
  5
342
330
1F
100
AcDbEntity
  8
Ech.1_2
 62
     7
370
    20
100
AcDbLine
 10
6064.086457186111
 20
805.6330403333786
 30
0.0
 11
6063.724343097275
 21
806.2602403333804
 31
0.0
  0
LINE
  5
343
330
1F
100
AcDbEntity
  8
Ech.1_2
 62
     7
370
    20
100
AcDbLine
 10
6064.086457186111
 20
805.6330403333786
 30
0.0
 11
6064.448571274947
 21
806.2602403333804
 31
0.0
  0
LINE
  5
344
330
1F
100
AcDbEntity
  8
Ech.1_2
 62
     7
370
    20
100
AcDbLine
 10
6066.464571274948
 20
806.2602403333804
 30
0.0
 11
6067.756343097275
 21
806.2602403333804
 31
0.0
  0
LINE
  5
345
330
1F
100
AcDbEntity
  8
Ech.1_2
 62
     7
370
    20
100
AcDbLine
 10
6066.102457186112
 20
805.6330403333786
 30
0.0
 11
6066.464571274948
 21
806.2602403333804
 31
0.0
  0
LINE
  5
346
330
1F
100
AcDbEntity
  8
Ech.1_2
 62
     7
370
    20
100
AcDbLine
 10
6066.102457186112
 20
805.6330403333786
 30
0.0
 11
6065.740343097275
 21
806.2602403333804
 31
0.0
  0
LINE
  5
347
330
1F
100
AcDbEntity
  8
Ech.1_2
 62
     7
370
    20
100
AcDbLine
 10
6068.118457186111
 20
805.6330403333786
 30
0.0
 11
6067.756343097275
 21
806.2602403333804
 31
0.0
  0
LINE
  5
348
330
1F
100
AcDbEntity
  8
Ech.1_2
 62
     7
370
    20
100
AcDbLine
 10
6072.150457186111
 20
805.6330403333786
 30
0.0
 11
6071.788343097275
 21
806.2602403333804
 31
0.0
  0
LINE
  5
349
330
1F
100
AcDbEntity
  8
Ech.1_2
 62
     7
370
    20
100
AcDbLine
 10
6070.134457186112
 20
805.6330403333786
 30
0.0
 11
6070.496571274947
 21
806.2602403333804
 31
0.0
  0
LINE
  5
34A
330
1F
100
AcDbEntity
  8
Ech.1_2
 62
     7
370
    20
100
AcDbLine
 10
6068.480571274948
 20
806.2602403333804
 30
0.0
 11
6069.772343097276
 21
806.2602403333804
 31
0.0
  0
LINE
  5
34B
330
1F
100
AcDbEntity
  8
Ech.1_2
 62
     7
370
    20
100
AcDbLine
 10
6070.134457186112
 20
805.6330403333786
 30
0.0
 11
6069.772343097276
 21
806.2602403333804
 31
0.0
  0
LINE
  5
34C
330
1F
100
AcDbEntity
  8
Ech.1_2
 62
     7
370
    20
100
AcDbLine
 10
6070.496571274947
 20
806.2602403333804
 30
0.0
 11
6071.788343097275
 21
806.2602403333804
 31
0.0
  0
LINE
  5
34D
330
1F
100
AcDbEntity
  8
Ech.1_2
 62
     7
370
    20
100
AcDbLine
 10
6074.166457186111
 20
805.6330403333786
 30
0.0
 11
6073.804343097276
 21
806.2602403333804
 31
0.0
  0
LINE
  5
34E
330
1F
100
AcDbEntity
  8
Ech.1_2
 62
     7
370
    20
100
AcDbLine
 10
6072.512571274948
 20
806.2602403333804
 30
0.0
 11
6073.804343097276
 21
806.2602403333804
 31
0.0
  0
LINE
  5
34F
330
1F
100
AcDbEntity
  8
Ech.1_2
 62
     7
370
    20
100
AcDbLine
 10
6072.150457186111
 20
805.6330403333786
 30
0.0
 11
6072.512571274948
 21
806.2602403333804
 31
0.0
  0
LINE
  5
350
330
1F
100
AcDbEntity
  8
Ech.1_2
 62
     7
370
    20
100
AcDbLine
 10
6074.166457186111
 20
805.6330403333786
 30
0.0
 11
6074.528571274947
 21
806.2602403333804
 31
0.0
  0
LINE
  5
351
330
1F
100
AcDbEntity
  8
Ech.1_2
 62
     7
370
    20
100
AcDbLine
 10
6074.528571274947
 20
806.2602403333804
 30
0.0
 11
6075.671012999067
 21
806.2602403333804
 31
0.0
  0
LINE
  5
352
330
1F
100
AcDbEntity
  8
Ech.1_2
 62
     7
370
    20
100
AcDbLine
 10
6061.062457186112
 20
809.9338403333786
 30
0.0
 11
6060.700343097275
 21
809.3066403333769
 31
0.0
  0
LINE
  5
353
330
1F
100
AcDbEntity
  8
Ech.1_2
 62
     7
370
    20
100
AcDbLine
 10
6067.472571274948
 20
809.3066403333769
 30
0.0
 11
6068.764343097275
 21
809.3066403333769
 31
0.0
  0
LINE
  5
354
330
1F
100
AcDbEntity
  8
Ech.1_2
 62
     7
370
    20
100
AcDbLine
 10
6063.440571274947
 20
809.3066403333769
 30
0.0
 11
6064.732343097276
 21
809.3066403333769
 31
0.0
  0
LINE
  5
355
330
1F
100
AcDbEntity
  8
Ech.1_2
 62
     7
370
    20
100
AcDbLine
 10
6063.078457186111
 20
809.9338403333786
 30
0.0
 11
6062.716343097275
 21
809.3066403333769
 31
0.0
  0
LINE
  5
356
330
1F
100
AcDbEntity
  8
Ech.1_2
 62
     7
370
    20
100
AcDbLine
 10
6061.062457186112
 20
809.9338403333786
 30
0.0
 11
6061.424571274947
 21
809.3066403333769
 31
0.0
  0
LINE
  5
357
330
1F
100
AcDbEntity
  8
Ech.1_2
 62
     7
370
    20
100
AcDbLine
 10
6061.424571274947
 20
809.3066403333769
 30
0.0
 11
6062.716343097275
 21
809.3066403333769
 31
0.0
  0
LINE
  5
358
330
1F
100
AcDbEntity
  8
Ech.1_2
 62
     7
370
    20
100
AcDbLine
 10
6063.078457186111
 20
809.9338403333786
 30
0.0
 11
6063.440571274947
 21
809.3066403333769
 31
0.0
  0
LINE
  5
359
330
1F
100
AcDbEntity
  8
Ech.1_2
 62
     7
370
    20
100
AcDbLine
 10
6065.456571274947
 20
809.3066403333769
 30
0.0
 11
6066.748343097275
 21
809.3066403333769
 31
0.0
  0
LINE
  5
35A
330
1F
100
AcDbEntity
  8
Ech.1_2
 62
     7
370
    20
100
AcDbLine
 10
6065.094457186111
 20
809.9338403333786
 30
0.0
 11
6064.732343097276
 21
809.3066403333769
 31
0.0
  0
LINE
  5
35B
330
1F
100
AcDbEntity
  8
Ech.1_2
 62
     7
370
    20
100
AcDbLine
 10
6065.094457186111
 20
809.9338403333786
 30
0.0
 11
6065.456571274947
 21
809.3066403333769
 31
0.0
  0
LINE
  5
35C
330
1F
100
AcDbEntity
  8
Ech.1_2
 62
     7
370
    20
100
AcDbLine
 10
6067.110457186111
 20
809.9338403333786
 30
0.0
 11
6066.748343097275
 21
809.3066403333769
 31
0.0
  0
LINE
  5
35D
330
1F
100
AcDbEntity
  8
Ech.1_2
 62
     7
370
    20
100
AcDbLine
 10
6067.110457186111
 20
809.9338403333786
 30
0.0
 11
6067.472571274948
 21
809.3066403333769
 31
0.0
  0
LINE
  5
35E
330
1F
100
AcDbEntity
  8
Ech.1_2
 62
     7
370
    20
100
AcDbLine
 10
6071.504571274947
 20
809.3066403333769
 30
0.0
 11
6072.796343097275
 21
809.3066403333769
 31
0.0
  0
LINE
  5
35F
330
1F
100
AcDbEntity
  8
Ech.1_2
 62
     7
370
    20
100
AcDbLine
 10
6069.488571274947
 20
809.3066403333769
 30
0.0
 11
6070.780343097274
 21
809.3066403333769
 31
0.0
  0
LINE
  5
360
330
1F
100
AcDbEntity
  8
Ech.1_2
 62
     7
370
    20
100
AcDbLine
 10
6069.126457186111
 20
809.9338403333786
 30
0.0
 11
6069.488571274947
 21
809.3066403333769
 31
0.0
  0
LINE
  5
361
330
1F
100
AcDbEntity
  8
Ech.1_2
 62
     7
370
    20
100
AcDbLine
 10
6069.126457186111
 20
809.9338403333786
 30
0.0
 11
6068.764343097275
 21
809.3066403333769
 31
0.0
  0
LINE
  5
362
330
1F
100
AcDbEntity
  8
Ech.1_2
 62
     7
370
    20
100
AcDbLine
 10
6071.142457186112
 20
809.9338403333786
 30
0.0
 11
6071.504571274947
 21
809.3066403333769
 31
0.0
  0
LINE
  5
363
330
1F
100
AcDbEntity
  8
Ech.1_2
 62
     7
370
    20
100
AcDbLine
 10
6071.142457186112
 20
809.9338403333786
 30
0.0
 11
6070.780343097274
 21
809.3066403333769
 31
0.0
  0
LINE
  5
364
330
1F
100
AcDbEntity
  8
Ech.1_2
 62
     7
370
    20
100
AcDbLine
 10
6073.520571274947
 20
809.3066403333769
 30
0.0
 11
6074.812343097276
 21
809.3066403333769
 31
0.0
  0
LINE
  5
365
330
1F
100
AcDbEntity
  8
Ech.1_2
 62
     7
370
    20
100
AcDbLine
 10
6073.158457186111
 20
809.9338403333786
 30
0.0
 11
6072.796343097275
 21
809.3066403333769
 31
0.0
  0
LINE
  5
366
330
1F
100
AcDbEntity
  8
Ech.1_2
 62
     7
370
    20
100
AcDbLine
 10
6073.158457186111
 20
809.9338403333786
 30
0.0
 11
6073.520571274947
 21
809.3066403333769
 31
0.0
  0
LINE
  5
367
330
1F
100
AcDbEntity
  8
Ech.1_2
 62
     7
370
    20
100
AcDbLine
 10
6075.536571274947
 20
809.3066403333769
 30
0.0
 11
6075.671012999067
 21
809.3066403333769
 31
0.0
  0
LINE
  5
368
330
1F
100
AcDbEntity
  8
Ech.1_2
 62
     7
370
    20
100
AcDbLine
 10
6075.174457186111
 20
809.9338403333786
 30
0.0
 11
6075.536571274947
 21
809.3066403333769
 31
0.0
  0
LINE
  5
369
330
1F
100
AcDbEntity
  8
Ech.1_2
 62
     7
370
    20
100
AcDbLine
 10
6075.174457186111
 20
809.9338403333786
 30
0.0
 11
6074.812343097276
 21
809.3066403333769
 31
0.0
  0
LINE
  5
36A
330
1F
100
AcDbEntity
  8
Ech.1_2
 62
     7
370
    20
100
AcDbLine
 10
6076.164457562133
 20
805.6874391969559
 30
0.0
 11
6076.439276222723
 21
806.5784653800911
 31
0.0
  0
LINE
  5
36B
330
1F
100
AcDbEntity
  8
Ech.1_2
 62
     7
370
    20
100
AcDbLine
 10
6076.164457562133
 20
805.6874391969559
 30
0.0
 11
6075.802343473297
 21
806.3146391969576
 31
0.0
  0
LINE
  5
36C
330
1F
100
AcDbEntity
  8
Ech.1_2
 62
     7
370
    20
100
AcDbLine
 10
6077.374268624394
 20
809.3783213199022
 30
0.0
 11
6077.851407305766
 21
808.4034914402209
 31
0.0
  0
LINE
  5
36D
330
1F
100
AcDbEntity
  8
Ech.1_2
 62
     7
370
    20
100
AcDbLine
 10
6077.937457374122
 20
806.4218397651684
 30
0.0
 11
6077.575343285285
 21
807.0490397651683
 31
0.0
  0
LINE
  5
36E
330
1F
100
AcDbEntity
  8
Ech.1_2
 62
     7
370
    20
100
AcDbLine
 10
6077.374268624394
 20
809.3783213199022
 30
0.0
 11
6077.937457374122
 21
806.4218397651684
 31
0.0
  0
LINE
  5
36F
330
1F
100
AcDbEntity
  8
Ech.1_2
 62
     7
370
    20
100
AcDbLine
 10
6077.575343285285
 20
807.0490397651683
 30
0.0
 11
6076.439276222723
 21
806.5784653800911
 31
0.0
  0
LINE
  5
370
330
1F
100
AcDbEntity
  8
Ech.1_2
 62
     7
370
    20
100
AcDbLine
 10
6077.374268624394
 20
809.3783213199022
 30
0.0
 11
6077.012154535558
 21
808.7511213199032
 31
0.0
  0
LINE
  5
371
330
1F
100
AcDbEntity
  8
Ech.1_2
 62
     7
370
    20
100
AcDbLine
 10
6077.575343285285
 20
807.0490397651683
 30
0.0
 11
6077.012154535558
 21
808.7511213199032
 31
0.0
  0
LINE
  5
372
330
1F
100
AcDbEntity
  8
Ech.1_2
 62
     7
370
    20
100
AcDbLine
 10
6077.937457374122
 20
806.4218397651684
 30
0.0
 11
6078.212276034713
 21
807.3128659483036
 31
0.0
  0
LINE
  5
373
330
1F
100
AcDbEntity
  8
Ech.1_2
 62
     7
370
    20
100
AcDbLine
 10
6078.212276034713
 20
807.3128659483036
 30
0.0
 11
6077.851407305766
 21
808.4034914402209
 31
0.0
  0
LINE
  5
374
330
1F
100
AcDbEntity
  8
Ech.1_2
 62
     7
370
    20
100
AcDbLine
 10
6079.348343097275
 20
807.7834403333763
 30
0.0
 11
6078.212276034713
 21
807.3128659483036
 31
0.0
  0
LINE
  5
375
330
1F
100
AcDbEntity
  8
Ech.1_2
 62
     7
370
    20
100
AcDbLine
 10
6079.348343097275
 20
807.7834403333763
 30
0.0
 11
6077.851407305766
 21
808.4034914402209
 31
0.0
  0
LINE
  5
376
330
1F
100
AcDbEntity
  8
Ech.1_2
 62
     7
370
    20
100
AcDbLine
 10
6056.052343333115
 20
806.0810403333799
 30
0.0
 11
6045.300343097275
 21
806.0810403333799
 31
0.0
  0
LINE
  5
377
330
1F
100
AcDbEntity
  8
Ech.1_2
 62
     7
370
    20
100
AcDbLine
 10
6056.052343333115
 20
809.4858403333792
 30
0.0
 11
6045.300343097275
 21
809.4858403333792
 31
0.0
  0
LINE
  5
378
330
1F
100
AcDbEntity
  8
Ech.1_2
 62
     7
370
    20
100
AcDbLine
 10
6056.944571510781
 20
809.3066403333769
 30
0.0
 11
6056.052343333115
 21
809.4858403333792
 31
0.0
  0
LINE
  5
379
330
1F
100
AcDbEntity
  8
Ech.1_2
 62
     7
370
    20
100
AcDbLine
 10
6056.052343333115
 20
806.0810403333799
 30
0.0
 11
6057.228343333116
 21
806.2602403333804
 31
0.0
  0
LINE
  5
37A
330
1F
100
AcDbEntity
  8
Ech.1_2
 62
     7
370
    20
100
AcDbLine
 10
6059.692343097276
 20
806.2602403333804
 30
0.0
 11
6058.684343097275
 21
809.3066403333769
 31
0.0
  0
LINE
  5
37B
330
1F
100
AcDbEntity
  8
Ech.1_2
 62
     7
370
    20
100
AcDbLine
 10
6060.416571274947
 20
806.2602403333804
 30
0.0
 11
6059.408571274947
 21
809.3066403333769
 31
0.0
  0
LINE
  5
37C
330
1F
100
AcDbEntity
  8
Ech.1_2
 62
     7
370
    20
100
AcDbLine
 10
6059.046457186111
 20
809.9338403333786
 30
0.0
 11
6060.054457186111
 21
805.6330403333786
 31
0.0
  0
LINE
  5
37D
330
1F
100
AcDbEntity
  8
Ech.1_2
 62
     7
370
    20
100
AcDbLine
 10
6060.416571274947
 20
806.2602403333804
 30
0.0
 11
6061.708343097275
 21
806.2602403333804
 31
0.0
  0
LINE
  5
37E
330
1F
100
AcDbEntity
  8
Ech.1_2
 62
     7
370
    20
100
AcDbLine
 10
6060.054457186111
 20
805.6330403333786
 30
0.0
 11
6059.692343097276
 21
806.2602403333804
 31
0.0
  0
LINE
  5
37F
330
1F
100
AcDbEntity
  8
Ech.1_2
 62
     7
370
    20
100
AcDbLine
 10
6060.054457186111
 20
805.6330403333786
 30
0.0
 11
6060.416571274947
 21
806.2602403333804
 31
0.0
  0
LINE
  5
380
330
1F
100
AcDbEntity
  8
Ech.1_2
 62
     7
370
    20
100
AcDbLine
 10
6059.046457186111
 20
809.9338403333786
 30
0.0
 11
6058.684343097275
 21
809.3066403333769
 31
0.0
  0
LINE
  5
381
330
1F
100
AcDbEntity
  8
Ech.1_2
 62
     7
370
    20
100
AcDbLine
 10
6059.046457186111
 20
809.9338403333786
 30
0.0
 11
6059.408571274947
 21
809.3066403333769
 31
0.0
  0
LINE
  5
382
330
1F
100
AcDbEntity
  8
Ech.1_2
 62
     7
370
    20
100
AcDbLine
 10
6059.408571274947
 20
809.3066403333769
 30
0.0
 11
6060.700343097275
 21
809.3066403333769
 31
0.0
  0
LINE
  5
383
330
1F
100
AcDbEntity
  8
Ech.1_2
 62
     7
370
    20
100
AcDbLine
 10
6058.400571274948
 20
806.2602403333804
 30
0.0
 11
6057.392571274948
 21
809.3066403333769
 31
0.0
  0
LINE
  5
384
330
1F
100
AcDbEntity
  8
Ech.1_2
 62
     7
370
    20
100
AcDbLine
 10
6057.030457186111
 20
809.9338403333786
 30
0.0
 11
6058.038457186111
 21
805.6330403333786
 31
0.0
  0
LINE
  5
385
330
1F
100
AcDbEntity
  8
Ech.1_2
 62
     7
370
    20
100
AcDbLine
 10
6058.400571274948
 20
806.2602403333804
 30
0.0
 11
6059.692343097276
 21
806.2602403333804
 31
0.0
  0
LINE
  5
386
330
1F
100
AcDbEntity
  8
Ech.1_2
 62
     7
370
    20
100
AcDbLine
 10
6058.038457186111
 20
805.6330403333786
 30
0.0
 11
6057.676343097275
 21
806.2602403333804
 31
0.0
  0
LINE
  5
387
330
1F
100
AcDbEntity
  8
Ech.1_2
 62
     7
370
    20
100
AcDbLine
 10
6058.038457186111
 20
805.6330403333786
 30
0.0
 11
6058.400571274948
 21
806.2602403333804
 31
0.0
  0
LINE
  5
388
330
1F
100
AcDbEntity
  8
Ech.1_2
 62
     7
370
    20
100
AcDbLine
 10
6057.030457186111
 20
809.9338403333786
 30
0.0
 11
6056.863412281924
 21
809.6445100721885
 31
0.0
  0
LINE
  5
389
330
1F
100
AcDbEntity
  8
Ech.1_2
 62
     7
370
    20
100
AcDbLine
 10
6057.030457186111
 20
809.9338403333786
 30
0.0
 11
6057.392571274948
 21
809.3066403333769
 31
0.0
  0
LINE
  5
38A
330
1F
100
AcDbEntity
  8
Ech.1_2
 62
     7
370
    20
100
AcDbLine
 10
6057.392571274948
 20
809.3066403333769
 30
0.0
 11
6058.684343097275
 21
809.3066403333769
 31
0.0
  0
LINE
  5
38B
330
1F
100
AcDbEntity
  8
Ech.1_2
 62
     7
370
    20
100
AcDbLine
 10
6057.676343097275
 20
806.2602403333804
 30
0.0
 11
6057.228343333116
 21
806.2602403333804
 31
0.0
  0
LINE
  5
38C
330
1F
100
AcDbEntity
  8
Ech.1_2
 62
     7
370
    20
100
AcDbLine
 10
6057.676343097275
 20
806.2602403333804
 30
0.0
 11
6056.863412281924
 21
809.6445100721885
 31
0.0
  0
HATCH
  5
38D
330
1F
100
AcDbEntity
  8
Ech.1_2
 62
   252
440
 33554687
370
     5
100
AcDbHatch
 10
0.0
 20
0.0
 30
0.0
210
0.0
220
0.0
230
1.0
  2
SOLID
 70
     1
 71
     1
 91
        1
 92
        3
 72
     0
 73
     1
 93
        4
 10
6056.052343333115
 20
806.0810403333799
 10
6056.052343333115
 20
809.4858403333792
 10
6045.300343097275
 20
809.4858403333792
 10
6045.300343097275
 20
806.0810403333799
 97
        0
 75
     0
 76
     1
 98
        0
  0
LWPOLYLINE
  5
38E
330
1F
100
AcDbEntity
  8
Ech.1_2
 62
     7
370
     9
100
AcDbPolyline
 90
        5
 70
     0
 43
0.0
 10
6056.052343333115
 20
806.0810403333799
 10
6056.052343333115
 20
809.4858403333792
 10
6045.300343097275
 20
809.4858403333792
 10
6045.300343097275
 20
806.0810403333799
 10
6056.052343333115
 20
806.0810403333799
  0
HATCH
  5
38F
330
1F
100
AcDbEntity
  8
Ech.1_2
 62
   252
440
 33554687
370
     5
100
AcDbHatch
 10
0.0
 20
0.0
 30
0.0
210
0.0
220
0.0
230
1.0
  2
SOLID
 70
     1
 71
     1
 91
        1
 92
        3
 72
     0
 73
     1
 93
        5
 10
6057.228343333116
 20
806.2602403333804
 10
6057.676343097275
 20
806.2602403333804
 10
6056.944571510783
 20
809.3066403333778
 10
6056.052343333115
 20
809.4858403333792
 10
6056.052343333115
 20
806.0810403333799
 97
        0
 75
     0
 76
     1
 98
        0
  0
LWPOLYLINE
  5
390
330
1F
100
AcDbEntity
  8
Ech.1_2
 62
     7
370
     9
100
AcDbPolyline
 90
        6
 70
     0
 43
0.0
 10
6057.228343333116
 20
806.2602403333804
 10
6057.676343097275
 20
806.2602403333804
 10
6056.944571510783
 20
809.3066403333778
 10
6056.052343333115
 20
809.4858403333792
 10
6056.052343333115
 20
806.0810403333799
 10
6057.228343333116
 20
806.2602403333804
  0
HATCH
  5
391
330
1F
100
AcDbEntity
  8
Ech.1_2
 62
   252
440
 33554687
370
     5
100
AcDbHatch
 10
0.0
 20
0.0
 30
0.0
210
0.0
220
0.0
230
1.0
  2
SOLID
 70
     1
 71
     1
 91
        1
 92
        3
 72
     0
 73
     1
 93
        4
 10
6057.676343097275
 20
806.2602403333804
 10
6058.038457186111
 20
805.6330403333786
 10
6057.030457186111
 20
809.9338403333786
 10
6056.863412281924
 20
809.6445100721885
 97
        0
 75
     0
 76
     1
 98
        0
  0
LWPOLYLINE
  5
392
330
1F
100
AcDbEntity
  8
Ech.1_2
 62
     7
370
     9
100
AcDbPolyline
 90
        5
 70
     0
 43
0.0
 10
6057.676343097275
 20
806.2602403333804
 10
6058.038457186111
 20
805.6330403333786
 10
6057.030457186111
 20
809.9338403333786
 10
6056.863412281924
 20
809.6445100721885
 10
6057.676343097275
 20
806.2602403333804
  0
HATCH
  5
393
330
1F
100
AcDbEntity
  8
Ech.1_2
 62
   252
440
 33554687
370
     5
100
AcDbHatch
 10
0.0
 20
0.0
 30
0.0
210
0.0
220
0.0
230
1.0
  2
SOLID
 70
     1
 71
     1
 91
        1
 92
        3
 72
     0
 73
     1
 93
        4
 10
6058.038457186111
 20
805.6330403333786
 10
6058.400571274948
 20
806.2602403333804
 10
6057.392571274948
 20
809.3066403333769
 10
6057.030457186111
 20
809.9338403333786
 97
        0
 75
     0
 76
     1
 98
        0
  0
LWPOLYLINE
  5
394
330
1F
100
AcDbEntity
  8
Ech.1_2
 62
     7
370
     9
100
AcDbPolyline
 90
        5
 70
     0
 43
0.0
 10
6058.038457186111
 20
805.6330403333786
 10
6058.400571274948
 20
806.2602403333804
 10
6057.392571274948
 20
809.3066403333769
 10
6057.030457186111
 20
809.9338403333786
 10
6058.038457186111
 20
805.6330403333786
  0
HATCH
  5
395
330
1F
100
AcDbEntity
  8
Ech.1_2
 62
   252
440
 33554687
370
     5
100
AcDbHatch
 10
0.0
 20
0.0
 30
0.0
210
0.0
220
0.0
230
1.0
  2
SOLID
 70
     1
 71
     1
 91
        1
 92
        3
 72
     0
 73
     1
 93
        4
 10
6059.692343097276
 20
806.2602403333804
 10
6058.684343097275
 20
809.3066403333769
 10
6057.392571274948
 20
809.3066403333769
 10
6058.400571274948
 20
806.2602403333804
 97
        0
 75
     0
 76
     1
 98
        0
  0
LWPOLYLINE
  5
396
330
1F
100
AcDbEntity
  8
Ech.1_2
 62
     7
370
     9
100
AcDbPolyline
 90
        5
 70
     0
 43
0.0
 10
6059.692343097276
 20
806.2602403333804
 10
6058.684343097275
 20
809.3066403333769
 10
6057.392571274948
 20
809.3066403333769
 10
6058.400571274948
 20
806.2602403333804
 10
6059.692343097276
 20
806.2602403333804
  0
HATCH
  5
397
330
1F
100
AcDbEntity
  8
Ech.1_2
 62
   252
440
 33554687
370
     5
100
AcDbHatch
 10
0.0
 20
0.0
 30
0.0
210
0.0
220
0.0
230
1.0
  2
SOLID
 70
     1
 71
     1
 91
        1
 92
        3
 72
     0
 73
     1
 93
        4
 10
6059.692343097276
 20
806.2602403333804
 10
6060.054457186111
 20
805.6330403333786
 10
6059.046457186111
 20
809.9338403333786
 10
6058.684343097275
 20
809.3066403333769
 97
        0
 75
     0
 76
     1
 98
        0
  0
LWPOLYLINE
  5
398
330
1F
100
AcDbEntity
  8
Ech.1_2
 62
     7
370
     9
100
AcDbPolyline
 90
        5
 70
     0
 43
0.0
 10
6059.692343097276
 20
806.2602403333804
 10
6060.054457186111
 20
805.6330403333786
 10
6059.046457186111
 20
809.9338403333786
 10
6058.684343097275
 20
809.3066403333769
 10
6059.692343097276
 20
806.2602403333804
  0
HATCH
  5
399
330
1F
100
AcDbEntity
  8
Ech.1_2
 62
   252
440
 33554687
370
     5
100
AcDbHatch
 10
0.0
 20
0.0
 30
0.0
210
0.0
220
0.0
230
1.0
  2
SOLID
 70
     1
 71
     1
 91
        1
 92
        3
 72
     0
 73
     1
 93
        4
 10
6060.054457186111
 20
805.6330403333786
 10
6060.416571274947
 20
806.2602403333804
 10
6059.408571274947
 20
809.3066403333769
 10
6059.046457186111
 20
809.9338403333786
 97
        0
 75
     0
 76
     1
 98
        0
  0
LWPOLYLINE
  5
39A
330
1F
100
AcDbEntity
  8
Ech.1_2
 62
     7
370
     9
100
AcDbPolyline
 90
        5
 70
     0
 43
0.0
 10
6060.054457186111
 20
805.6330403333786
 10
6060.416571274947
 20
806.2602403333804
 10
6059.408571274947
 20
809.3066403333769
 10
6059.046457186111
 20
809.9338403333786
 10
6060.054457186111
 20
805.6330403333786
  0
HATCH
  5
39B
330
1F
100
AcDbEntity
  8
Ech.1_2
 62
   252
440
 33554687
370
     5
100
AcDbHatch
 10
0.0
 20
0.0
 30
0.0
210
0.0
220
0.0
230
1.0
  2
SOLID
 70
     1
 71
     1
 91
        1
 92
        3
 72
     0
 73
     1
 93
        4
 10
6060.416571274947
 20
806.2602403333804
 10
6061.708343097275
 20
806.2602403333804
 10
6060.700343097275
 20
809.3066403333769
 10
6059.408571274947
 20
809.3066403333769
 97
        0
 75
     0
 76
     1
 98
        0
  0
LWPOLYLINE
  5
39C
330
1F
100
AcDbEntity
  8
Ech.1_2
 62
     7
370
     9
100
AcDbPolyline
 90
        5
 70
     0
 43
0.0
 10
6060.416571274947
 20
806.2602403333804
 10
6061.708343097275
 20
806.2602403333804
 10
6060.700343097275
 20
809.3066403333769
 10
6059.408571274947
 20
809.3066403333769
 10
6060.416571274947
 20
806.2602403333804
  0
HATCH
  5
39D
330
1F
100
AcDbEntity
  8
Ech.1_2
 62
   252
440
 33554687
370
     5
100
AcDbHatch
 10
0.0
 20
0.0
 30
0.0
210
0.0
220
0.0
230
1.0
  2
SOLID
 70
     1
 71
     1
 91
        1
 92
        3
 72
     0
 73
     1
 93
        4
 10
6061.708343097275
 20
806.2602403333804
 10
6062.070457186112
 20
805.6330403333786
 10
6061.062457186112
 20
809.9338403333786
 10
6060.700343097275
 20
809.3066403333769
 97
        0
 75
     0
 76
     1
 98
        0
  0
LWPOLYLINE
  5
39E
330
1F
100
AcDbEntity
  8
Ech.1_2
 62
     7
370
     9
100
AcDbPolyline
 90
        5
 70
     0
 43
0.0
 10
6061.708343097275
 20
806.2602403333804
 10
6062.070457186112
 20
805.6330403333786
 10
6061.062457186112
 20
809.9338403333786
 10
6060.700343097275
 20
809.3066403333769
 10
6061.708343097275
 20
806.2602403333804
  0
HATCH
  5
39F
330
1F
100
AcDbEntity
  8
Ech.1_2
 62
   252
440
 33554687
370
     5
100
AcDbHatch
 10
0.0
 20
0.0
 30
0.0
210
0.0
220
0.0
230
1.0
  2
SOLID
 70
     1
 71
     1
 91
        1
 92
        3
 72
     0
 73
     1
 93
        4
 10
6062.070457186112
 20
805.6330403333786
 10
6062.432571274948
 20
806.2602403333804
 10
6061.424571274947
 20
809.3066403333769
 10
6061.062457186112
 20
809.9338403333786
 97
        0
 75
     0
 76
     1
 98
        0
  0
LWPOLYLINE
  5
3A0
330
1F
100
AcDbEntity
  8
Ech.1_2
 62
     7
370
     9
100
AcDbPolyline
 90
        5
 70
     0
 43
0.0
 10
6062.070457186112
 20
805.6330403333786
 10
6062.432571274948
 20
806.2602403333804
 10
6061.424571274947
 20
809.3066403333769
 10
6061.062457186112
 20
809.9338403333786
 10
6062.070457186112
 20
805.6330403333786
  0
HATCH
  5
3A1
330
1F
100
AcDbEntity
  8
Ech.1_2
 62
   252
440
 33554687
370
     5
100
AcDbHatch
 10
0.0
 20
0.0
 30
0.0
210
0.0
220
0.0
230
1.0
  2
SOLID
 70
     1
 71
     1
 91
        1
 92
        3
 72
     0
 73
     1
 93
        4
 10
6062.432571274948
 20
806.2602403333804
 10
6063.724343097275
 20
806.2602403333804
 10
6062.716343097275
 20
809.3066403333769
 10
6061.424571274947
 20
809.3066403333769
 97
        0
 75
     0
 76
     1
 98
        0
  0
LWPOLYLINE
  5
3A2
330
1F
100
AcDbEntity
  8
Ech.1_2
 62
     7
370
     9
100
AcDbPolyline
 90
        5
 70
     0
 43
0.0
 10
6062.432571274948
 20
806.2602403333804
 10
6063.724343097275
 20
806.2602403333804
 10
6062.716343097275
 20
809.3066403333769
 10
6061.424571274947
 20
809.3066403333769
 10
6062.432571274948
 20
806.2602403333804
  0
HATCH
  5
3A3
330
1F
100
AcDbEntity
  8
Ech.1_2
 62
   252
440
 33554687
370
     5
100
AcDbHatch
 10
0.0
 20
0.0
 30
0.0
210
0.0
220
0.0
230
1.0
  2
SOLID
 70
     1
 71
     1
 91
        1
 92
        3
 72
     0
 73
     1
 93
        4
 10
6063.724343097275
 20
806.2602403333804
 10
6064.086457186111
 20
805.6330403333786
 10
6063.078457186111
 20
809.9338403333786
 10
6062.716343097275
 20
809.3066403333769
 97
        0
 75
     0
 76
     1
 98
        0
  0
LWPOLYLINE
  5
3A4
330
1F
100
AcDbEntity
  8
Ech.1_2
 62
     7
370
     9
100
AcDbPolyline
 90
        5
 70
     0
 43
0.0
 10
6063.724343097275
 20
806.2602403333804
 10
6064.086457186111
 20
805.6330403333786
 10
6063.078457186111
 20
809.9338403333786
 10
6062.716343097275
 20
809.3066403333769
 10
6063.724343097275
 20
806.2602403333804
  0
HATCH
  5
3A5
330
1F
100
AcDbEntity
  8
Ech.1_2
 62
   252
440
 33554687
370
     5
100
AcDbHatch
 10
0.0
 20
0.0
 30
0.0
210
0.0
220
0.0
230
1.0
  2
SOLID
 70
     1
 71
     1
 91
        1
 92
        3
 72
     0
 73
     1
 93
        4
 10
6064.086457186111
 20
805.6330403333786
 10
6064.448571274947
 20
806.2602403333804
 10
6063.440571274947
 20
809.3066403333769
 10
6063.078457186111
 20
809.9338403333786
 97
        0
 75
     0
 76
     1
 98
        0
  0
LWPOLYLINE
  5
3A6
330
1F
100
AcDbEntity
  8
Ech.1_2
 62
     7
370
     9
100
AcDbPolyline
 90
        5
 70
     0
 43
0.0
 10
6064.086457186111
 20
805.6330403333786
 10
6064.448571274947
 20
806.2602403333804
 10
6063.440571274947
 20
809.3066403333769
 10
6063.078457186111
 20
809.9338403333786
 10
6064.086457186111
 20
805.6330403333786
  0
HATCH
  5
3A7
330
1F
100
AcDbEntity
  8
Ech.1_2
 62
   252
440
 33554687
370
     5
100
AcDbHatch
 10
0.0
 20
0.0
 30
0.0
210
0.0
220
0.0
230
1.0
  2
SOLID
 70
     1
 71
     1
 91
        1
 92
        3
 72
     0
 73
     1
 93
        4
 10
6064.448571274947
 20
806.2602403333804
 10
6065.740343097275
 20
806.2602403333804
 10
6064.732343097276
 20
809.3066403333769
 10
6063.440571274947
 20
809.3066403333769
 97
        0
 75
     0
 76
     1
 98
        0
  0
LWPOLYLINE
  5
3A8
330
1F
100
AcDbEntity
  8
Ech.1_2
 62
     7
370
     9
100
AcDbPolyline
 90
        5
 70
     0
 43
0.0
 10
6064.448571274947
 20
806.2602403333804
 10
6065.740343097275
 20
806.2602403333804
 10
6064.732343097276
 20
809.3066403333769
 10
6063.440571274947
 20
809.3066403333769
 10
6064.448571274947
 20
806.2602403333804
  0
HATCH
  5
3A9
330
1F
100
AcDbEntity
  8
Ech.1_2
 62
   252
440
 33554687
370
     5
100
AcDbHatch
 10
0.0
 20
0.0
 30
0.0
210
0.0
220
0.0
230
1.0
  2
SOLID
 70
     1
 71
     1
 91
        1
 92
        3
 72
     0
 73
     1
 93
        4
 10
6065.740343097275
 20
806.2602403333804
 10
6066.102457186112
 20
805.6330403333786
 10
6065.094457186111
 20
809.9338403333786
 10
6064.732343097276
 20
809.3066403333769
 97
        0
 75
     0
 76
     1
 98
        0
  0
LWPOLYLINE
  5
3AA
330
1F
100
AcDbEntity
  8
Ech.1_2
 62
     7
370
     9
100
AcDbPolyline
 90
        5
 70
     0
 43
0.0
 10
6065.740343097275
 20
806.2602403333804
 10
6066.102457186112
 20
805.6330403333786
 10
6065.094457186111
 20
809.9338403333786
 10
6064.732343097276
 20
809.3066403333769
 10
6065.740343097275
 20
806.2602403333804
  0
HATCH
  5
3AB
330
1F
100
AcDbEntity
  8
Ech.1_2
 62
   252
440
 33554687
370
     5
100
AcDbHatch
 10
0.0
 20
0.0
 30
0.0
210
0.0
220
0.0
230
1.0
  2
SOLID
 70
     1
 71
     1
 91
        1
 92
        3
 72
     0
 73
     1
 93
        4
 10
6066.102457186112
 20
805.6330403333786
 10
6066.464571274948
 20
806.2602403333804
 10
6065.456571274947
 20
809.3066403333769
 10
6065.094457186111
 20
809.9338403333786
 97
        0
 75
     0
 76
     1
 98
        0
  0
LWPOLYLINE
  5
3AC
330
1F
100
AcDbEntity
  8
Ech.1_2
 62
     7
370
     9
100
AcDbPolyline
 90
        5
 70
     0
 43
0.0
 10
6066.102457186112
 20
805.6330403333786
 10
6066.464571274948
 20
806.2602403333804
 10
6065.456571274947
 20
809.3066403333769
 10
6065.094457186111
 20
809.9338403333786
 10
6066.102457186112
 20
805.6330403333786
  0
HATCH
  5
3AD
330
1F
100
AcDbEntity
  8
Ech.1_2
 62
   252
440
 33554687
370
     5
100
AcDbHatch
 10
0.0
 20
0.0
 30
0.0
210
0.0
220
0.0
230
1.0
  2
SOLID
 70
     1
 71
     1
 91
        1
 92
        3
 72
     0
 73
     1
 93
        4
 10
6067.756343097275
 20
806.2602403333804
 10
6066.748343097275
 20
809.3066403333769
 10
6065.456571274947
 20
809.3066403333769
 10
6066.464571274948
 20
806.2602403333804
 97
        0
 75
     0
 76
     1
 98
        0
  0
LWPOLYLINE
  5
3AE
330
1F
100
AcDbEntity
  8
Ech.1_2
 62
     7
370
     9
100
AcDbPolyline
 90
        5
 70
     0
 43
0.0
 10
6067.756343097275
 20
806.2602403333804
 10
6066.748343097275
 20
809.3066403333769
 10
6065.456571274947
 20
809.3066403333769
 10
6066.464571274948
 20
806.2602403333804
 10
6067.756343097275
 20
806.2602403333804
  0
HATCH
  5
3AF
330
1F
100
AcDbEntity
  8
Ech.1_2
 62
   252
440
 33554687
370
     5
100
AcDbHatch
 10
0.0
 20
0.0
 30
0.0
210
0.0
220
0.0
230
1.0
  2
SOLID
 70
     1
 71
     1
 91
        1
 92
        3
 72
     0
 73
     1
 93
        4
 10
6067.756343097275
 20
806.2602403333804
 10
6068.118457186111
 20
805.6330403333786
 10
6067.110457186111
 20
809.9338403333786
 10
6066.748343097275
 20
809.3066403333769
 97
        0
 75
     0
 76
     1
 98
        0
  0
LWPOLYLINE
  5
3B0
330
1F
100
AcDbEntity
  8
Ech.1_2
 62
     7
370
     9
100
AcDbPolyline
 90
        5
 70
     0
 43
0.0
 10
6067.756343097275
 20
806.2602403333804
 10
6068.118457186111
 20
805.6330403333786
 10
6067.110457186111
 20
809.9338403333786
 10
6066.748343097275
 20
809.3066403333769
 10
6067.756343097275
 20
806.2602403333804
  0
HATCH
  5
3B1
330
1F
100
AcDbEntity
  8
Ech.1_2
 62
   252
440
 33554687
370
     5
100
AcDbHatch
 10
0.0
 20
0.0
 30
0.0
210
0.0
220
0.0
230
1.0
  2
SOLID
 70
     1
 71
     1
 91
        1
 92
        3
 72
     0
 73
     1
 93
        4
 10
6068.118457186111
 20
805.6330403333786
 10
6068.480571274948
 20
806.2602403333804
 10
6067.472571274948
 20
809.3066403333769
 10
6067.110457186111
 20
809.9338403333786
 97
        0
 75
     0
 76
     1
 98
        0
  0
LWPOLYLINE
  5
3B2
330
1F
100
AcDbEntity
  8
Ech.1_2
 62
     7
370
     9
100
AcDbPolyline
 90
        5
 70
     0
 43
0.0
 10
6068.118457186111
 20
805.6330403333786
 10
6068.480571274948
 20
806.2602403333804
 10
6067.472571274948
 20
809.3066403333769
 10
6067.110457186111
 20
809.9338403333786
 10
6068.118457186111
 20
805.6330403333786
  0
HATCH
  5
3B3
330
1F
100
AcDbEntity
  8
Ech.1_2
 62
   252
440
 33554687
370
     5
100
AcDbHatch
 10
0.0
 20
0.0
 30
0.0
210
0.0
220
0.0
230
1.0
  2
SOLID
 70
     1
 71
     1
 91
        1
 92
        3
 72
     0
 73
     1
 93
        4
 10
6068.480571274948
 20
806.2602403333804
 10
6069.772343097276
 20
806.2602403333804
 10
6068.764343097275
 20
809.3066403333769
 10
6067.472571274948
 20
809.3066403333769
 97
        0
 75
     0
 76
     1
 98
        0
  0
LWPOLYLINE
  5
3B4
330
1F
100
AcDbEntity
  8
Ech.1_2
 62
     7
370
     9
100
AcDbPolyline
 90
        5
 70
     0
 43
0.0
 10
6068.480571274948
 20
806.2602403333804
 10
6069.772343097276
 20
806.2602403333804
 10
6068.764343097275
 20
809.3066403333769
 10
6067.472571274948
 20
809.3066403333769
 10
6068.480571274948
 20
806.2602403333804
  0
HATCH
  5
3B5
330
1F
100
AcDbEntity
  8
Ech.1_2
 62
   252
440
 33554687
370
     5
100
AcDbHatch
 10
0.0
 20
0.0
 30
0.0
210
0.0
220
0.0
230
1.0
  2
SOLID
 70
     1
 71
     1
 91
        1
 92
        3
 72
     0
 73
     1
 93
        4
 10
6069.772343097276
 20
806.2602403333804
 10
6070.134457186112
 20
805.6330403333786
 10
6069.126457186111
 20
809.9338403333786
 10
6068.764343097275
 20
809.3066403333769
 97
        0
 75
     0
 76
     1
 98
        0
  0
LWPOLYLINE
  5
3B6
330
1F
100
AcDbEntity
  8
Ech.1_2
 62
     7
370
     9
100
AcDbPolyline
 90
        5
 70
     0
 43
0.0
 10
6069.772343097276
 20
806.2602403333804
 10
6070.134457186112
 20
805.6330403333786
 10
6069.126457186111
 20
809.9338403333786
 10
6068.764343097275
 20
809.3066403333769
 10
6069.772343097276
 20
806.2602403333804
  0
HATCH
  5
3B7
330
1F
100
AcDbEntity
  8
Ech.1_2
 62
   252
440
 33554687
370
     5
100
AcDbHatch
 10
0.0
 20
0.0
 30
0.0
210
0.0
220
0.0
230
1.0
  2
SOLID
 70
     1
 71
     1
 91
        1
 92
        3
 72
     0
 73
     1
 93
        4
 10
6070.134457186112
 20
805.6330403333786
 10
6070.496571274947
 20
806.2602403333804
 10
6069.488571274947
 20
809.3066403333769
 10
6069.126457186111
 20
809.9338403333786
 97
        0
 75
     0
 76
     1
 98
        0
  0
LWPOLYLINE
  5
3B8
330
1F
100
AcDbEntity
  8
Ech.1_2
 62
     7
370
     9
100
AcDbPolyline
 90
        5
 70
     0
 43
0.0
 10
6070.134457186112
 20
805.6330403333786
 10
6070.496571274947
 20
806.2602403333804
 10
6069.488571274947
 20
809.3066403333769
 10
6069.126457186111
 20
809.9338403333786
 10
6070.134457186112
 20
805.6330403333786
  0
HATCH
  5
3B9
330
1F
100
AcDbEntity
  8
Ech.1_2
 62
   252
440
 33554687
370
     5
100
AcDbHatch
 10
0.0
 20
0.0
 30
0.0
210
0.0
220
0.0
230
1.0
  2
SOLID
 70
     1
 71
     1
 91
        1
 92
        3
 72
     0
 73
     1
 93
        4
 10
6070.496571274947
 20
806.2602403333804
 10
6071.788343097275
 20
806.2602403333804
 10
6070.780343097274
 20
809.3066403333769
 10
6069.488571274947
 20
809.3066403333769
 97
        0
 75
     0
 76
     1
 98
        0
  0
LWPOLYLINE
  5
3BA
330
1F
100
AcDbEntity
  8
Ech.1_2
 62
     7
370
     9
100
AcDbPolyline
 90
        5
 70
     0
 43
0.0
 10
6070.496571274947
 20
806.2602403333804
 10
6071.788343097275
 20
806.2602403333804
 10
6070.780343097274
 20
809.3066403333769
 10
6069.488571274947
 20
809.3066403333769
 10
6070.496571274947
 20
806.2602403333804
  0
HATCH
  5
3BB
330
1F
100
AcDbEntity
  8
Ech.1_2
 62
   252
440
 33554687
370
     5
100
AcDbHatch
 10
0.0
 20
0.0
 30
0.0
210
0.0
220
0.0
230
1.0
  2
SOLID
 70
     1
 71
     1
 91
        1
 92
        3
 72
     0
 73
     1
 93
        4
 10
6071.788343097275
 20
806.2602403333804
 10
6072.150457186111
 20
805.6330403333786
 10
6071.142457186112
 20
809.9338403333786
 10
6070.780343097274
 20
809.3066403333769
 97
        0
 75
     0
 76
     1
 98
        0
  0
LWPOLYLINE
  5
3BC
330
1F
100
AcDbEntity
  8
Ech.1_2
 62
     7
370
     9
100
AcDbPolyline
 90
        5
 70
     0
 43
0.0
 10
6071.788343097275
 20
806.2602403333804
 10
6072.150457186111
 20
805.6330403333786
 10
6071.142457186112
 20
809.9338403333786
 10
6070.780343097274
 20
809.3066403333769
 10
6071.788343097275
 20
806.2602403333804
  0
HATCH
  5
3BD
330
1F
100
AcDbEntity
  8
Ech.1_2
 62
   252
440
 33554687
370
     5
100
AcDbHatch
 10
0.0
 20
0.0
 30
0.0
210
0.0
220
0.0
230
1.0
  2
SOLID
 70
     1
 71
     1
 91
        1
 92
        3
 72
     0
 73
     1
 93
        4
 10
6072.150457186111
 20
805.6330403333786
 10
6072.512571274948
 20
806.2602403333804
 10
6071.504571274947
 20
809.3066403333769
 10
6071.142457186112
 20
809.9338403333786
 97
        0
 75
     0
 76
     1
 98
        0
  0
LWPOLYLINE
  5
3BE
330
1F
100
AcDbEntity
  8
Ech.1_2
 62
     7
370
     9
100
AcDbPolyline
 90
        5
 70
     0
 43
0.0
 10
6072.150457186111
 20
805.6330403333786
 10
6072.512571274948
 20
806.2602403333804
 10
6071.504571274947
 20
809.3066403333769
 10
6071.142457186112
 20
809.9338403333786
 10
6072.150457186111
 20
805.6330403333786
  0
HATCH
  5
3BF
330
1F
100
AcDbEntity
  8
Ech.1_2
 62
   252
440
 33554687
370
     5
100
AcDbHatch
 10
0.0
 20
0.0
 30
0.0
210
0.0
220
0.0
230
1.0
  2
SOLID
 70
     1
 71
     1
 91
        1
 92
        3
 72
     0
 73
     1
 93
        4
 10
6072.512571274948
 20
806.2602403333804
 10
6073.804343097276
 20
806.2602403333804
 10
6072.796343097275
 20
809.3066403333769
 10
6071.504571274947
 20
809.3066403333769
 97
        0
 75
     0
 76
     1
 98
        0
  0
LWPOLYLINE
  5
3C0
330
1F
100
AcDbEntity
  8
Ech.1_2
 62
     7
370
     9
100
AcDbPolyline
 90
        5
 70
     0
 43
0.0
 10
6072.512571274948
 20
806.2602403333804
 10
6073.804343097276
 20
806.2602403333804
 10
6072.796343097275
 20
809.3066403333769
 10
6071.504571274947
 20
809.3066403333769
 10
6072.512571274948
 20
806.2602403333804
  0
HATCH
  5
3C1
330
1F
100
AcDbEntity
  8
Ech.1_2
 62
   252
440
 33554687
370
     5
100
AcDbHatch
 10
0.0
 20
0.0
 30
0.0
210
0.0
220
0.0
230
1.0
  2
SOLID
 70
     1
 71
     1
 91
        1
 92
        3
 72
     0
 73
     1
 93
        4
 10
6073.804343097276
 20
806.2602403333804
 10
6074.166457186111
 20
805.6330403333786
 10
6073.158457186111
 20
809.9338403333786
 10
6072.796343097275
 20
809.3066403333769
 97
        0
 75
     0
 76
     1
 98
        0
  0
LWPOLYLINE
  5
3C2
330
1F
100
AcDbEntity
  8
Ech.1_2
 62
     7
370
     9
100
AcDbPolyline
 90
        5
 70
     0
 43
0.0
 10
6073.804343097276
 20
806.2602403333804
 10
6074.166457186111
 20
805.6330403333786
 10
6073.158457186111
 20
809.9338403333786
 10
6072.796343097275
 20
809.3066403333769
 10
6073.804343097276
 20
806.2602403333804
  0
HATCH
  5
3C3
330
1F
100
AcDbEntity
  8
Ech.1_2
 62
   252
440
 33554687
370
     5
100
AcDbHatch
 10
0.0
 20
0.0
 30
0.0
210
0.0
220
0.0
230
1.0
  2
SOLID
 70
     1
 71
     1
 91
        1
 92
        3
 72
     0
 73
     1
 93
        4
 10
6074.166457186111
 20
805.6330403333786
 10
6074.528571274947
 20
806.2602403333804
 10
6073.520571274947
 20
809.3066403333769
 10
6073.158457186111
 20
809.9338403333786
 97
        0
 75
     0
 76
     1
 98
        0
  0
LWPOLYLINE
  5
3C4
330
1F
100
AcDbEntity
  8
Ech.1_2
 62
     7
370
     9
100
AcDbPolyline
 90
        5
 70
     0
 43
0.0
 10
6074.166457186111
 20
805.6330403333786
 10
6074.528571274947
 20
806.2602403333804
 10
6073.520571274947
 20
809.3066403333769
 10
6073.158457186111
 20
809.9338403333786
 10
6074.166457186111
 20
805.6330403333786
  0
HATCH
  5
3C5
330
1F
100
AcDbEntity
  8
Ech.1_2
 62
   252
440
 33554687
370
     5
100
AcDbHatch
 10
0.0
 20
0.0
 30
0.0
210
0.0
220
0.0
230
1.0
  2
SOLID
 70
     1
 71
     1
 91
        1
 92
        3
 72
     0
 73
     1
 93
        5
 10
6074.528571274947
 20
806.2602403333804
 10
6075.671012999067
 20
806.2602403333804
 10
6075.802343473297
 20
806.3146391969576
 10
6074.812343097276
 20
809.3066403333769
 10
6073.520571274947
 20
809.3066403333769
 97
        0
 75
     0
 76
     1
 98
        0
  0
LWPOLYLINE
  5
3C6
330
1F
100
AcDbEntity
  8
Ech.1_2
 62
     7
370
     9
100
AcDbPolyline
 90
        6
 70
     0
 43
0.0
 10
6074.528571274947
 20
806.2602403333804
 10
6075.671012999067
 20
806.2602403333804
 10
6075.802343473297
 20
806.3146391969576
 10
6074.812343097276
 20
809.3066403333769
 10
6073.520571274947
 20
809.3066403333769
 10
6074.528571274947
 20
806.2602403333804
  0
HATCH
  5
3C7
330
1F
100
AcDbEntity
  8
Ech.1_2
 62
   252
440
 33554687
370
     5
100
AcDbHatch
 10
0.0
 20
0.0
 30
0.0
210
0.0
220
0.0
230
1.0
  2
SOLID
 70
     1
 71
     1
 91
        1
 92
        3
 72
     0
 73
     1
 93
        4
 10
6075.802343473297
 20
806.3146391969576
 10
6076.164457562133
 20
805.6874391969559
 10
6075.174457186111
 20
809.9338403333786
 10
6074.812343097276
 20
809.3066403333769
 97
        0
 75
     0
 76
     1
 98
        0
  0
LWPOLYLINE
  5
3C8
330
1F
100
AcDbEntity
  8
Ech.1_2
 62
     7
370
     9
100
AcDbPolyline
 90
        5
 70
     0
 43
0.0
 10
6075.802343473297
 20
806.3146391969576
 10
6076.164457562133
 20
805.6874391969559
 10
6075.174457186111
 20
809.9338403333786
 10
6074.812343097276
 20
809.3066403333769
 10
6075.802343473297
 20
806.3146391969576
  0
HATCH
  5
3C9
330
1F
100
AcDbEntity
  8
Ech.1_2
 62
   252
440
 33554687
370
     5
100
AcDbHatch
 10
0.0
 20
0.0
 30
0.0
210
0.0
220
0.0
230
1.0
  2
SOLID
 70
     1
 71
     1
 91
        1
 92
        3
 72
     0
 73
     1
 93
        4
 10
6076.164457562133
 20
805.6874391969559
 10
6076.439276222723
 20
806.5784653800911
 10
6075.536571274947
 20
809.3066403333769
 10
6075.174457186111
 20
809.9338403333786
 97
        0
 75
     0
 76
     1
 98
        0
  0
LWPOLYLINE
  5
3CA
330
1F
100
AcDbEntity
  8
Ech.1_2
 62
     7
370
     9
100
AcDbPolyline
 90
        5
 70
     0
 43
0.0
 10
6076.164457562133
 20
805.6874391969559
 10
6076.439276222723
 20
806.5784653800911
 10
6075.536571274947
 20
809.3066403333769
 10
6075.174457186111
 20
809.9338403333786
 10
6076.164457562133
 20
805.6874391969559
  0
HATCH
  5
3CB
330
1F
100
AcDbEntity
  8
Ech.1_2
 62
   252
440
 33554687
370
     5
100
AcDbHatch
 10
0.0
 20
0.0
 30
0.0
210
0.0
220
0.0
230
1.0
  2
SOLID
 70
     1
 71
     1
 91
        1
 92
        3
 72
     0
 73
     1
 93
        5
 10
6076.439276222723
 20
806.5784653800911
 10
6077.575343285285
 20
807.0490397651683
 10
6077.012154535558
 20
808.7511213199032
 10
6075.671012999067
 20
809.3066403333769
 10
6075.536571274947
 20
809.3066403333769
 97
        0
 75
     0
 76
     1
 98
        0
  0
LWPOLYLINE
  5
3CC
330
1F
100
AcDbEntity
  8
Ech.1_2
 62
     7
370
     9
100
AcDbPolyline
 90
        6
 70
     0
 43
0.0
 10
6076.439276222723
 20
806.5784653800911
 10
6077.575343285285
 20
807.0490397651683
 10
6077.012154535558
 20
808.7511213199032
 10
6075.671012999067
 20
809.3066403333769
 10
6075.536571274947
 20
809.3066403333769
 10
6076.439276222723
 20
806.5784653800911
  0
HATCH
  5
3CD
330
1F
100
AcDbEntity
  8
Ech.1_2
 62
   252
440
 33554687
370
     5
100
AcDbHatch
 10
0.0
 20
0.0
 30
0.0
210
0.0
220
0.0
230
1.0
  2
SOLID
 70
     1
 71
     1
 91
        1
 92
        3
 72
     0
 73
     1
 93
        4
 10
6077.575343285285
 20
807.0490397651683
 10
6077.937457374122
 20
806.4218397651684
 10
6077.374268624394
 20
809.3783213199022
 10
6077.012154535558
 20
808.7511213199032
 97
        0
 75
     0
 76
     1
 98
        0
  0
LWPOLYLINE
  5
3CE
330
1F
100
AcDbEntity
  8
Ech.1_2
 62
     7
370
     9
100
AcDbPolyline
 90
        5
 70
     0
 43
0.0
 10
6077.575343285285
 20
807.0490397651683
 10
6077.937457374122
 20
806.4218397651684
 10
6077.374268624394
 20
809.3783213199022
 10
6077.012154535558
 20
808.7511213199032
 10
6077.575343285285
 20
807.0490397651683
  0
HATCH
  5
3CF
330
1F
100
AcDbEntity
  8
Ech.1_2
 62
   252
440
 33554687
370
     5
100
AcDbHatch
 10
0.0
 20
0.0
 30
0.0
210
0.0
220
0.0
230
1.0
  2
SOLID
 70
     1
 71
     1
 91
        1
 92
        3
 72
     0
 73
     1
 93
        4
 10
6077.937457374122
 20
806.4218397651684
 10
6078.212276034713
 20
807.3128659483036
 10
6077.851407305766
 20
808.4034914402209
 10
6077.374268624394
 20
809.3783213199022
 97
        0
 75
     0
 76
     1
 98
        0
  0
LWPOLYLINE
  5
3D0
330
1F
100
AcDbEntity
  8
Ech.1_2
 62
     7
370
     9
100
AcDbPolyline
 90
        5
 70
     0
 43
0.0
 10
6077.937457374122
 20
806.4218397651684
 10
6078.212276034713
 20
807.3128659483036
 10
6077.851407305766
 20
808.4034914402209
 10
6077.374268624394
 20
809.3783213199022
 10
6077.937457374122
 20
806.4218397651684
  0
HATCH
  5
3D1
330
1F
100
AcDbEntity
  8
Ech.1_2
 62
   252
440
 33554687
370
     5
100
AcDbHatch
 10
0.0
 20
0.0
 30
0.0
210
0.0
220
0.0
230
1.0
  2
SOLID
 70
     1
 71
     1
 91
        1
 92
        3
 72
     0
 73
     1
 93
        3
 10
6079.348343097275
 20
807.7834403333763
 10
6077.851407305766
 20
808.4034914402209
 10
6078.212276034713
 20
807.3128659483036
 97
        0
 75
     0
 76
     1
 98
        0
  0
LWPOLYLINE
  5
3D2
330
1F
100
AcDbEntity
  8
Ech.1_2
 62
     7
370
     9
100
AcDbPolyline
 90
        4
 70
     0
 43
0.0
 10
6079.348343097275
 20
807.7834403333763
 10
6077.851407305766
 20
808.4034914402209
 10
6078.212276034713
 20
807.3128659483036
 10
6079.348343097275
 20
807.7834403333763
  0
HATCH
  5
3D3
330
1F
100
AcDbEntity
  8
Ech.1_2
 62
   252
440
 33554687
370
     5
100
AcDbHatch
 10
0.0
 20
0.0
 30
0.0
210
0.0
220
0.0
230
1.0
  2
SOLID
 70
     1
 71
     1
 91
        1
 92
        3
 72
     1
 73
     1
 93
       14
 10
6045.300343097275
 20
809.4858403333792
 42
0.0
 10
6045.300343097275
 20
811.1434405760538
 42
0.0
 10
6045.300343097275
 20
812.7114403333808
 42
0.4142135623668221
 10
6044.852343097275
 20
813.1594403333802
 42
0.0
 10
6044.567055565398
 20
813.1594403333802
 42
0.2807125373763116
 10
6044.16888195725
 20
812.9167736667123
 42
0.0800400421139765
 10
6043.060343097275
 20
809.5306409110171
 42
0.0
 10
6043.060343097275
 20
806.0362406239083
 42
0.0800400993907699
 10
6044.16888195725
 20
802.6501070000468
 42
0.2807125373817466
 10
6044.567055565398
 20
802.4074403333816
 42
0.0
 10
6044.852343097275
 20
802.4074403333816
 42
0.4127160716984069
 10
6045.300343097275
 20
802.8531626673648
 42
0.0
 10
6045.300343097275
 20
804.4234405247862
 42
0.0
 10
6045.300343097275
 20
806.0810403333799
 42
0.0
 97
        0
 75
     0
 76
     1
 98
        0
  0
LWPOLYLINE
  5
3D4
330
1F
100
AcDbEntity
  8
Ech.1_2
 62
     7
370
     9
100
AcDbPolyline
 90
       15
 70
     0
 43
0.0
 10
6045.300343097275
 20
809.4858403333792
 10
6045.300343097275
 20
811.1434405760538
 10
6045.300343097275
 20
812.7114403333808
 42
0.4142135623658085
 10
6044.852343097275
 20
813.1594403333802
 10
6044.567055565398
 20
813.1594403333802
 42
0.2807125373763157
 10
6044.16888195725
 20
812.9167736667123
 42
0.0800400421142013
 10
6043.060343097275
 20
809.5306409110171
 10
6043.060343097275
 20
806.0362406239083
 42
0.0800400993906394
 10
6044.16888195725
 20
802.6501070000468
 42
0.2807125373821672
 10
6044.567055565398
 20
802.4074403333816
 10
6044.852343097275
 20
802.4074403333816
 42
0.4127160716973158
 10
6045.300343097275
 20
802.8531626673648
 10
6045.300343097275
 20
804.4234405247862
 10
6045.300343097275
 20
806.0810403333799
 10
6045.300343097275
 20
809.4858403333792
  0
LWPOLYLINE
  5
3D5
330
1F
100
AcDbEntity
  8
Ech.1_2
 62
   190
370
    15
100
AcDbPolyline
 90
        3
 70
     0
 43
0.0
 10
6050.487315990753
 20
752.6382372774606
 10
6029.938223390884
 20
752.6382372774606
 10
6021.938223390884
 20
752.6382372774606
  0
INSERT
  5
3D6
330
1F
100
AcDbEntity
  8
Ech.1_2
 62
   190
370
    15
100
AcDbBlockReference
  2
cw-line-extremity4
 10
6050.487315990753
 20
752.6382372774606
 30
0.0
 50
180.0
  0
LWPOLYLINE
  5
3D7
330
1F
100
AcDbEntity
  8
Ech.1_2
 62
   190
370
    15
100
AcDbPolyline
 90
        3
 70
     0
 43
0.0
 10
6067.800343097422
 20
721.0950863570833
 10
6029.938223390884
 20
721.0950863570833
 10
6021.938223390884
 20
721.0950863570833
  0
INSERT
  5
3D8
330
1F
100
AcDbEntity
  8
Ech.1_2
 62
   190
370
    15
100
AcDbBlockReference
  2
cw-line-extremity4
 10
6067.800343097422
 20
721.0950863570833
 30
0.0
 50
180.0
  0
LWPOLYLINE
  5
3D9
330
1F
100
AcDbEntity
  8
Ech.1_2
 62
   190
370
    15
100
AcDbPolyline
 90
        3
 70
     0
 43
0.0
 10
6113.529509672833
 20
684.5274554469579
 10
6029.938223390884
 20
684.5274554469579
 10
6021.938223390884
 20
684.5274554469579
  0
INSERT
  5
3DA
330
1F
100
AcDbEntity
  8
Ech.1_2
 62
   190
370
    15
100
AcDbBlockReference
  2
cw-line-extremity4
 10
6113.529509672833
 20
684.5274554469579
 30
0.0
 50
180.0
  0
LWPOLYLINE
  5
3DB
330
1F
100
AcDbEntity
  8
Ech.1_2
 62
   190
370
    15
100
AcDbPolyline
 90
        3
 70
     0
 43
0.0
 10
6082.30034309757
 20
788.2776785402384
 10
6025.138223390884
 20
788.2776785402384
 10
6021.938223390884
 20
788.2776785402384
  0
INSERT
  5
3DC
330
1F
100
AcDbEntity
  8
Ech.1_2
 62
   190
370
    15
100
AcDbBlockReference
  2
cw-line-extremity4
 10
6082.30034309757
 20
788.2776785402384
 30
0.0
 50
180.0
  0
LWPOLYLINE
  5
3DD
330
1F
100
AcDbEntity
  8
Ech.1_2
 62
   190
370
    15
100
AcDbPolyline
 90
        6
 70
     0
 43
0.0
 10
6030.300343097275
 20
636.7848333095012
 10
6084.800343097422
 20
636.78499910338
 10
6091.394544359784
 20
643.9759384663339
 10
6085.750568352662
 20
629.5936584616065
 10
6092.345109985265
 20
636.78499910338
 10
6147.30034309757
 20
636.78499910338
  0
DIMENSION
  5
3DF
102
{ACAD_REACTORS
330
3E0
102
}
330
1F
100
AcDbEntity
  8
Ech.1_2
 62
   190
370
    15
100
AcDbDimension
280
     0
  2
*D70
 10
5986.219505267112
 20
839.6273630668074
 30
0.0
 11
5981.719505267112
 21
824.6273630668074
 31
0.0
 70
   160
 71
     5
 42
30.0
 73
     0
 74
     0
 75
     0
 53
90.0
  3
Standard
100
AcDbAlignedDimension
 13
6000.392154427584
 23
809.6273630668074
 33
0.0
 14
6040.80034309757
 24
839.6273630668074
 34
0.0
 50
-90.0
100
AcDbRotatedDimension
1001
ACAD
1000
DSTYLE
1002
{
1070
   178
1070
   190
1070
   271
1070
     0
1070
   147
1040
0.0
1070
   140
1040
5.0
1070
   340
1005
3DE
1070
   144
1040
1.0
1070
    42
1040
0.0
1070
    44
1040
2.0
1070
    41
1040
2.0
1070
   342
1005
1BA
1070
   175
1070
     1
1070
   279
1070
     2
1070
   172
1070
     1
1002
}
  0
DIMENSION
  5
3ED
102
{ACAD_REACTORS
330
3EE
102
}
330
1F
100
AcDbEntity
  8
Ech.1_2
 62
   190
370
    15
100
AcDbDimension
280
     0
  2
*D71
 10
6043.280636244626
 20
816.2965190563036
 30
0.0
 11
6033.28917083396
 21
820.7965190563036
 31
0.0
 70
   160
  1
10 mini
 71
     5
 42
19.98293082133205
 73
     0
 74
     0
 75
     0
  3
Standard
100
AcDbAlignedDimension
 13
6023.297705423294
 23
823.7307921018
 33
0.0
 14
6043.280636244626
 24
818.022087270605
 34
0.0
 50
180.0
100
AcDbRotatedDimension
1001
ACAD
1000
DSTYLE
1002
{
1070
   178
1070
   190
1070
   271
1070
     0
1070
   147
1040
0.0
1070
   140
1040
5.0
1070
   340
1005
3DE
1070
   144
1040
1.0
1070
    42
1040
0.0
1070
    44
1040
2.0
1070
    41
1040
2.0
1070
   342
1005
1BA
1070
   175
1070
     1
1070
   279
1070
     2
1070
   172
1070
     1
1002
}
  0
MTEXT
  5
3FB
330
1F
100
AcDbEntity
  8
Ech.1_2
 62
     4
420
    65535
100
AcDbMText
 10
5988.229634595547
 20
982.9397572573362
 30
0.0
 40
5.5
 41
115.044963059303
 46
0.0
 71
     3
 72
     1
  1
{\fArial|b0|i0;\W1.000000;\H5.500000;\c16711848;Bardage bois en pose verticale}
 73
     1
 44
1.07999975538982
  0
MTEXT
  5
3FC
330
1F
100
AcDbEntity
  8
Ech.1_2
 62
     4
420
    65535
100
AcDbMText
 10
5988.229634595547
 20
904.2601983315226
 30
0.0
 40
5.5
 41
152.0379440551369
 46
0.0
 71
     3
 72
     1
  1
{\fArial|b0|i0;\W1.000000;\H5.500000;\c16711848;Double-tasseautage bois support de bardage}
 73
     1
 44
1.07999975538982
  0
MTEXT
  5
3FD
330
1F
100
AcDbEntity
  8
Ech.1_2
 62
     4
420
    65535
100
AcDbMText
 10
5988.229634595547
 20
865.1181554782597
 30
0.0
 40
5.5
 41
86.2398199823765
 46
0.0
 71
     3
 72
     1
  1
{\fArial|b0|i0;\W1.000000;\H5.500000;\c16711848;Grille anti-rongeurs}
 73
     1
 44
1.07999975538982
  0
MTEXT
  5
3FE
330
1F
100
AcDbEntity
  8
Ech.1_2
 62
     4
420
    65535
100
AcDbMText
 10
6056.212832007932
 20
611.3303699484022
 30
0.0
 40
5.0
 41
195.3371538540778
 46
0.0
 71
     2
 72
     1
  1
{\fArial|b0|i0;\W1.000000;\H5.000000;\c16711848;Vue en coupe verticale}
 73
     1
 44
1.07999975538982
  0
MTEXT
  5
3FF
330
1F
100
AcDbEntity
  8
Ech.1_2
 62
     4
420
    65535
100
AcDbMText
 10
6184.34087601627
 20
611.397240545466
 30
0.0
 40
5.0
 41
50.91893416259882
 46
0.0
 71
     2
 72
     1
  1
{\fArial|b0|i0;\W1.000000;\H5.000000;\c16711848;Ech 1/2 }
 73
     1
 44
1.07999975538982
  0
MTEXT
  5
400
330
1F
100
AcDbEntity
  8
Ech.1_2
 62
     4
420
    65535
100
AcDbMText
 10
5924.813211481823
 20
611.5059430664551
 30
0.0
 40
5.0
 41
57.46208719814058
 46
0.0
 71
     2
 72
     1
  1
{\fArial|b0|i0;\W1.000000;\H5.000000;\c16711848;BPB10-05}
 73
     1
 44
1.07999975538982
  0
MTEXT
  5
401
330
1F
100
AcDbEntity
  8
Ech.1_2
 62
   200
420
 11010303
100
AcDbMText
 10
6015.30034309757
 20
602.7982961317211
 30
0.0
 40
2.5
 41
391.5
 46
0.0
 71
     2
 72
     1
  3
{\fArial|b0|i1;\W1.000000;\H2.500000;\c16711848; Il est rappelé à l'utilisateur qui consulte le site et utilise les informations qu'il contient, qu'il doit les utiliser sous sa seule responsabilité en vérifiant leur pertinence, leur cohérence et leur
  1
 non obsolescence.}
 73
     1
 44
1.07999975538982
  0
MTEXT
  5
402
330
1F
100
AcDbEntity
  8
Ech.1_2
 62
   200
420
 11010303
100
AcDbMText
 10
6015.30034309757
 20
589.1324849743214
 30
0.0
 40
3.25
 41
390.75
 46
0.0
 71
     2
 72
     1
  1
{\fArial|b0|i1;\W1.000000;\H3.250000;\c16711848;www.catalogue-bois-construction.fr}
 73
     1
 44
1.07999975538982
  0
MTEXT
  5
403
330
1F
100
AcDbEntity
  8
Ech.1_2
 62
     4
420
    65535
100
AcDbMText
 10
6015.30034309757
 20
1071.226725271215
 30
0.0
 40
6.5
 41
387.5
 46
0.0
 71
     2
 72
     1
  1
{\fArial|b0|i0;\W1.000000;\H6.500000;\c16711848;Raccordement horizontal avec bardage en pose verticale}
 73
     1
 44
1.07999975538982
  0
MTEXT
  5
404
330
1F
100
AcDbEntity
  8
Ech.1_2
 62
     4
420
    65535
100
AcDbMText
 10
6019.188223390884
 20
687.2458985057601
 30
0.0
 40
5.5
 41
73.4925035111446
 46
0.0
 71
     3
 72
     1
  1
{\fArial|b0|i0;\W1.000000;\H5.500000;\c16711848;Paroi support}
 73
     1
 44
1.07999975538982
  0
MTEXT
  5
405
330
1F
100
AcDbEntity
  8
Ech.1_2
 62
     4
420
    65535
100
AcDbMText
 10
6019.188223390884
 20
791.5170007205379
 30
0.0
 40
5.5
 41
86.2398199823765
 46
0.0
 71
     3
 72
     1
  1
{\fArial|b0|i0;\W1.000000;\H5.500000;\c16711848;Grille pare-insectes}
 73
     1
 44
1.07999975538982
  0
MTEXT
  5
406
330
1F
100
AcDbEntity
  8
Ech.1_2
 62
     4
420
    65535
100
AcDbMText
 10
6019.188223390884
 20
723.8450863570833
 30
0.0
 40
5.5
 41
117.7033164731756
 46
0.0
 71
     3
 72
     1
  1
{\fArial|b0|i0;\W1.000000;\H5.500000;\c16711848;Tasseau bois support de bardage}
 73
     1
 44
1.07999975538982
  0
MTEXT
  5
407
330
1F
100
AcDbEntity
  8
Ech.1_2
 62
     4
420
    65535
100
AcDbMText
 10
6019.188223390884
 20
760.3382371463304
 30
0.0
 40
5.5
 41
135.7590593339655
 46
0.0
 71
     3
 72
     1
  1
{\fArial|b0|i0;\W1.000000;\H5.500000;\c16711848;Bardage en panneau à base de bois - épaisseur 10 mm mini}
 73
     1
 44
1.07999975538982
  0
TEXT
  5
409
330
1F
100
AcDbEntity
  8
Ech.1_2
 62
   190
100
AcDbText
 10
5839.029195378486
 20
606.5335833265708
 30
0.0
 40
5.0
  1
30/11/2020
  7
arial-
100
AcDbText
  0
TEXT
  5
40A
330
1F
100
AcDbEntity
  8
Ech.1_2
 62
   190
100
AcDbText
 10
5888.996235431555
 20
1077.587327124154
 30
0.0
 40
6.6
  1
Epaisseur mini selon NF DTU 41.2 - hors exigences feu façade
  7
arial-
100
AcDbText
  0
TEXT
  5
40C
330
1F
100
AcDbEntity
  8
Ech.1_2
 62
   190
100
AcDbText
 10
5917.249661029698
 20
1090.540714240411
 30
0.0
 40
6.6
  1
BARDAGES EN PANNEAUX A BASE DE BOIS
  7
arial-b
100
AcDbText
  0
VIEWPORT
  5
242
330
23C
100
AcDbEntity
 67
     1
  8
0
100
AcDbViewport
 10
98.8
 20
135.7999999999982
 30
0.0
 40
209.0608
 41
287.3527999999962
 68
     1
 69
     1
 12
128.5
 22
97.5
 13
0.0
 23
0.0
 14
10.0
 24
10.0
 15
10.0
 25
10.0
 16
0.0
 26
0.0
 36
1.0
 17
0.0
 27
0.0
 37
0.0
 42
50.0
 43
0.0
 44
0.0
 45
222.18
 50
0.0
 51
0.0
 72
   100
 90
   557152
  1

281
     0
 71
     1
 74
     0
110
0.0
120
0.0
130
0.0
111
1.0
121
0.0
131
0.0
112
0.0
122
1.0
132
0.0
 79
     0
146
0.0
170
     0
 61
     5
348
2F
292
     1
282
     1
141
0.0
142
0.0
 63
   256
361
243
  0
VIEWPORT
  5
244
330
23C
100
AcDbEntity
 67
     1
  8
0
 60
     1
100
AcDbViewport
 10
98.8
 20
135.7999999999982
 30
0.0
 40
197.6
 41
271.5999999999964
 68
     2
 69
     2
 12
6015.30034309757
 22
828.8407142404285
 13
0.0
 23
0.0
 14
10.0
 24
10.0
 15
10.0
 25
10.0
 16
0.0
 26
0.0
 36
1.0
 17
0.0
 27
0.0
 37
0.0
 42
50.0
 43
0.0
 44
0.0
 45
543.1999999999928
 50
0.0
 51
0.0
 72
   100
 90
   557152
  1

281
     0
 71
     1
 74
     0
110
0.0
120
0.0
130
0.0
111
1.0
121
0.0
131
0.0
112
0.0
122
1.0
132
0.0
 79
     0
146
0.0
170
     0
 61
     5
348
2F
292
     1
282
     1
141
0.0
142
0.0
 63
   256
  0
ENDSEC
  0
SECTION
  2
OBJECTS
  0
DICTIONARY
  5
C
330
0
100
AcDbDictionary
281
     1
  3
ACAD_DETAILVIEWSTYLE
350
414
  3
ACAD_GROUP
350
D
  3
ACAD_IMAGE_DICT
350
269
  3
ACAD_IMAGE_VARS
350
6F
  3
ACAD_LAYOUT
350
1A
  3
ACAD_MATERIAL
350
43
  3
ACAD_MLEADERSTYLE
350
6B
  3
ACAD_MLINESTYLE
350
17
  3
ACAD_PLOTSETTINGS
350
19
  3
ACAD_PLOTSTYLENAME
350
E
  3
ACAD_SCALELIST
350
47
  3
ACAD_SECTIONVIEWSTYLE
350
415
  3
ACAD_TABLESTYLE
350
69
  3
ACAD_VISUALSTYLE
350
2A
  3
ACDB_RECOMPOSE_DATA
350
411
  3
AcDbVariableDictionary
350
40D
  0
SUN
  5
6D
330
29
100
AcDbSun
 90
        1
290
     0
 63
     7
421
 16777215
 40
1.0
291
     1
 91
  2455826
 92
 54000000
292
     0
 70
     2
 71
   256
280
     1
  0
IMAGEDEF_REACTOR
  5
26C
330
26B
100
AcDbRasterImageDefReactor
 90
        2
330
26B
  0
IMAGEDEF_REACTOR
  5
26F
330
26E
100
AcDbRasterImageDefReactor
 90
        2
330
26E
  0
IMAGEDEF_REACTOR
  5
272
330
271
100
AcDbRasterImageDefReactor
 90
        2
330
271
  0
SUN
  5
243
330
242
100
AcDbSun
 90
        1
290
     0
 63
     7
421
 16777215
 40
1.0
291
     1
 91
  2455826
 92
 54000000
292
     0
 70
     2
 71
   256
280
     1
  0
DICTIONARY
  5
414
102
{ACAD_REACTORS
330
C
102
}
330
C
100
AcDbDictionary
281
     1
  0
DICTIONARY
  5
D
102
{ACAD_REACTORS
330
C
102
}
330
C
100
AcDbDictionary
281
     1
  3
DIM30
350
3EE
  3
DIM4
350
3E0
  0
DICTIONARY
  5
269
102
{ACAD_REACTORS
330
C
102
}
330
C
100
AcDbDictionary
281
     1
  3
C:\Users\MAIFFR~1\AppData\Local\Temp\EXE_LOGO_FBF_soutien_Q_L.jpg1
350
26D
  3
C:\Users\MAIFFR~1\AppData\Local\Temp\fcba.jpg0
350
26A
  3
C:\Users\MAIFFR~1\AppData\Local\Temp\logo_codifab_baseline_soutien.jpg2
350
270
  0
RASTERVARIABLES
  5
6F
102
{ACAD_REACTORS
330
C
102
}
330
C
100
AcDbRasterVariables
 90
        0
 70
     0
 71
     1
 72
     1
  0
DICTIONARY
  5
1A
102
{ACAD_REACTORS
330
C
102
}
330
C
100
AcDbDictionary
281
     1
  3
CompleteLayout
350
1E
  3
Model
350
22
  3
PrintFrame_15
350
23D
  0
DICTIONARY
  5
43
102
{ACAD_REACTORS
330
C
102
}
330
C
100
AcDbDictionary
281
     1
  3
ByBlock
350
45
  3
ByLayer
350
44
  3
Global
350
46
  0
DICTIONARY
  5
6B
102
{ACAD_REACTORS
330
C
102
}
330
C
100
AcDbDictionary
281
     1
  3
Standard
350
6C
  0
DICTIONARY
  5
17
102
{ACAD_REACTORS
330
C
102
}
330
C
100
AcDbDictionary
281
     1
  3
Standard
350
18
  0
DICTIONARY
  5
19
102
{ACAD_REACTORS
330
C
102
}
330
C
100
AcDbDictionary
281
     1
  3
PlotSettings_
350
240
  0
ACDBDICTIONARYWDFLT
  5
E
102
{ACAD_REACTORS
330
C
102
}
330
C
100
AcDbDictionary
281
     1
  3
Normal
350
F
100
AcDbDictionaryWithDefault
340
F
  0
DICTIONARY
  5
47
102
{ACAD_REACTORS
330
C
102
}
330
C
100
AcDbDictionary
281
     1
  3
A0
350
48
  3
A1
350
49
  3
A2
350
4A
  3
A3
350
4B
  3
A4
350
4C
  3
A5
350
4D
  3
A6
350
4E
  3
A7
350
4F
  3
A8
350
50
  3
A9
350
51
  3
B0
350
52
  3
B1
350
53
  3
B2
350
54
  3
B3
350
55
  3
B4
350
56
  3
B5
350
57
  3
B6
350
58
  3
B7
350
59
  3
B8
350
5A
  3
B9
350
5B
  3
C0
350
5C
  3
C1
350
5D
  3
C2
350
5E
  3
C3
350
5F
  3
C4
350
60
  3
C5
350
61
  3
C6
350
62
  3
C7
350
63
  3
C8
350
64
  3
C9
350
65
  3
D0
350
66
  3
D1
350
67
  3
D2
350
68
  0
DICTIONARY
  5
415
102
{ACAD_REACTORS
330
C
102
}
330
C
100
AcDbDictionary
281
     1
  0
DICTIONARY
  5
69
102
{ACAD_REACTORS
330
C
102
}
330
C
100
AcDbDictionary
281
     1
  3
Standard
350
6A
  0
DICTIONARY
  5
2A
102
{ACAD_REACTORS
330
C
102
}
330
C
100
AcDbDictionary
281
     1
  3
2dWireframe
350
2F
  3
Basic
350
32
  3
Brighten
350
36
  3
ColorChange
350
3A
  3
Conceptual
350
34
  3
Dim
350
35
  3
EdgeColorOff
350
3D
  3
Facepattern
350
39
  3
Flat
350
2B
  3
FlatWithEdges
350
2C
  3
Gouraud
350
2D
  3
GouraudWithEdges
350
2E
  3
Hidden
350
31
  3
JitterOff
350
3B
  3
Linepattern
350
38
  3
OverhangOff
350
3C
  3
Realistic
350
33
  3
Shaded
350
42
  3
Shaded with edges
350
41
  3
Shades of Gray
350
3E
  3
Sketchy
350
3F
  3
Thicken
350
37
  3
Wireframe
350
30
  3
X-Ray
350
40
  0
XRECORD
  5
411
102
{ACAD_REACTORS
330
C
102
}
330
C
100
AcDbXrecord
280
     1
 90
        1
330
6A
  0
DICTIONARY
  5
40D
102
{ACAD_REACTORS
330
C
102
}
330
C
100
AcDbDictionary
281
     1
  3
CANNOSCALE
350
40E
  3
CMLEADERSTYLE
350
413
  3
CTABLESTYLE
350
412
  3
WIPEOUTFRAME
350
416
  0
GROUP
  5
3EE
102
{ACAD_REACTORS
330
D
102
}
330
D
100
AcDbGroup
300

 70
     0
 71
     1
340
3ED
  0
GROUP
  5
3E0
102
{ACAD_REACTORS
330
D
102
}
330
D
100
AcDbGroup
300

 70
     0
 71
     1
340
3DF
  0
IMAGEDEF
  5
26D
102
{ACAD_REACTORS
330
269
330
26F
102
}
330
269
100
AcDbRasterImageDef
 90
        0
  1
EXE_LOGO_FBF_soutien_Q_L.jpg
 10
200.0
 20
133.0
 11
0.3527336860670194
 21
0.3527336860670194
280
     1
281
     3
  0
IMAGEDEF
  5
26A
102
{ACAD_REACTORS
330
269
330
26C
102
}
330
269
100
AcDbRasterImageDef
 90
        0
  1
fcba.jpg
 10
247.0
 20
171.0
 11
0.3527336860670194
 21
0.3527336860670194
280
     1
281
     3
  0
IMAGEDEF
  5
270
102
{ACAD_REACTORS
330
269
330
272
102
}
330
269
100
AcDbRasterImageDef
 90
        0
  1
logo_codifab_baseline_soutien.jpg
 10
1326.0
 20
580.0
 11
0.08466683600033867
 21
0.08466683600033867
280
     1
281
     3
  0
LAYOUT
  5
1E
102
{ACAD_REACTORS
330
1A
102
}
330
1A
100
AcDbPlotSettings
  1

  2
none_device
  4

  6

 40
0.0
 41
0.0
 42
0.0
 43
0.0
 44
0.0
 45
0.0
 46
0.0
 47
0.0
 48
0.0
 49
0.0
140
0.0
141
0.0
142
1.0
143
1.0
 70
   688
 72
     0
 73
     0
 74
     5
  7

 75
    16
 76
     0
 77
     2
 78
   300
147
1.0
148
0.0
149
0.0
100
AcDbLayout
  1
CompleteLayout
 70
     1
 71
     1
 10
0.0
 20
0.0
 11
12.0
 21
9.0
 12
0.0
 22
0.0
 32
0.0
 14
1.000000000000000E+20
 24
1.000000000000000E+20
 34
1.000000000000000E+20
 15
-1.000000000000000E+20
 25
-1.000000000000000E+20
 35
-1.000000000000000E+20
146
0.0
 13
0.0
 23
0.0
 33
0.0
 16
1.0
 26
0.0
 36
0.0
 17
0.0
 27
1.0
 37
0.0
 76
     0
330
1B
  0
LAYOUT
  5
22
102
{ACAD_REACTORS
330
1A
102
}
330
1A
100
AcDbPlotSettings
  1

  2
none_device
  4
Letter_(8.50_x_11.00_Inches)
  6

 40
6.35
 41
6.35
 42
6.35000508
 43
6.35000508
 44
215.9
 45
279.4
 46
0.0
 47
0.0
 48
0.0
 49
0.0
140
0.0
141
0.0
142
1.0
143
1.0
 70
  1712
 72
     0
 73
     0
 74
     0
  7

 75
     0
 76
     0
 77
     2
 78
   300
147
1.0
148
0.0
149
0.0
100
AcDbLayout
  1
Model
 70
     1
 71
     0
 10
0.0
 20
0.0
 11
12.0
 21
9.0
 12
0.0
 22
0.0
 32
0.0
 14
5818.30034309757
 24
557.8407142404321
 34
0.0
 15
6212.30034309757
 25
1099.840714240432
 35
0.0
146
0.0
 13
0.0
 23
0.0
 33
0.0
 16
1.0
 26
0.0
 36
0.0
 17
0.0
 27
1.0
 37
0.0
 76
     0
330
1F
331
29
  0
LAYOUT
  5
23D
102
{ACAD_REACTORS
330
1A
102
}
330
1A
100
AcDbPlotSettings
  1
PlotSettings_
  2
Custom Device
  4
Custom_210.000000x297.000000_12.700000_12.700000_6.200000_6.200000
  6

 40
6.2
 41
12.7
 42
6.2
 43
12.7
 44
210.0
 45
296.9999999999964
 46
0.0
 47
0.0
 48
0.0
 49
0.0
140
0.0
141
0.0
142
1.0
143
1.0
 70
   752
 72
     1
 73
     0
 74
     5
  7

 75
    16
 76
     0
 77
     2
 78
   300
147
1.0
148
0.0
149
0.0
100
AcDbLayout
  1
PrintFrame_15
 70
     0
 71
     2
 10
-20.0
 20
-7.5
 11
277.0
 21
202.5
 12
0.0
 22
0.0
 32
0.0
 14
0.0
 24
0.0
 34
0.0
 15
197.6
 25
271.5999999999964
 35
0.0
146
0.0
 13
0.0
 23
0.0
 33
0.0
 16
1.0
 26
0.0
 36
0.0
 17
0.0
 27
1.0
 37
0.0
 76
     0
330
23C
331
242
1001
PLOTTRANSPARENCY
1071
        1
1000
layout-user-created
1070
     1
1000
layout-line-weight-scale
1042
1.0
  0
MATERIAL
  5
45
102
{ACAD_REACTORS
330
43
102
}
330
43
100
AcDbMaterial
  1
ByBlock
 72
     1
 94
      127
  0
MATERIAL
  5
44
102
{ACAD_REACTORS
330
43
102
}
330
43
100
AcDbMaterial
  1
ByLayer
 72
     1
 94
      127
  0
MATERIAL
  5
46
102
{ACAD_REACTORS
330
43
102
}
330
43
100
AcDbMaterial
  1
Global
 72
     1
 94
      127
  0
MLEADERSTYLE
  5
6C
102
{ACAD_REACTORS
330
6B
102
}
330
6B
100
AcDbMLeaderStyle
179
     2
170
     2
171
     1
172
     0
 90
        2
 40
0.0
 41
0.0
173
     1
 91
-1056964608
340
14
 92
       -2
290
     1
 42
0.09
291
     1
 43
0.36
  3
Standard
341
0
 44
0.18
300

342
11
174
     1
178
     6
175
     1
176
     0
 93
-1056964608
 45
0.18
292
     0
297
     0
 46
0.18
343
0
 94
-1056964608
 47
1.0
 49
1.0
140
1.0
293
     1
141
0.0
294
     1
177
     0
142
1.0
295
     0
296
     0
143
0.125
271
     0
272
     9
273
     9
298
     0
  0
MLINESTYLE
  5
18
102
{ACAD_REACTORS
330
17
102
}
330
17
100
AcDbMlineStyle
  2
Standard
 70
     0
  3

 62
   256
 51
90.0
 52
90.0
 71
     2
 49
0.5
 62
   256
  6
BYLAYER
 49
-0.5
 62
   256
  6
BYLAYER
  0
PLOTSETTINGS
  5
240
102
{ACAD_REACTORS
330
19
102
}
330
19
100
AcDbPlotSettings
  1
PlotSettings_
  2
Custom Device
  4
Custom_210.000000x297.000000_12.700000_12.700000_6.200000_6.200000
  6

 40
6.2
 41
12.7
 42
6.2
 43
12.7
 44
210.0
 45
296.9999999999964
 46
0.0
 47
0.0
 48
0.0
 49
0.0
140
0.0
141
0.0
142
1.0
143
1.0
 70
   752
 72
     1
 73
     0
 74
     5
  7

 75
    16
 76
     0
 77
     2
 78
   300
147
1.0
148
0.0
149
0.0
1001
PLOTTRANSPARENCY
1071
        1
1000
layout-user-created
1070
     1
1000
layout-line-weight-scale
1042
1.0
  0
ACDBPLACEHOLDER
  5
F
102
{ACAD_REACTORS
330
E
102
}
330
E
  0
SCALE
  5
48
102
{ACAD_REACTORS
330
47
102
}
330
47
100
AcDbScale
 70
     0
300
1:1
140
1.0
141
1.0
290
     1
  0
SCALE
  5
49
102
{ACAD_REACTORS
330
47
102
}
330
47
100
AcDbScale
 70
     0
300
1:2
140
1.0
141
2.0
290
     0
  0
SCALE
  5
4A
102
{ACAD_REACTORS
330
47
102
}
330
47
100
AcDbScale
 70
     0
300
1:4
140
1.0
141
4.0
290
     0
  0
SCALE
  5
4B
102
{ACAD_REACTORS
330
47
102
}
330
47
100
AcDbScale
 70
     0
300
1:5
140
1.0
141
5.0
290
     0
  0
SCALE
  5
4C
102
{ACAD_REACTORS
330
47
102
}
330
47
100
AcDbScale
 70
     0
300
1:8
140
1.0
141
8.0
290
     0
  0
SCALE
  5
4D
102
{ACAD_REACTORS
330
47
102
}
330
47
100
AcDbScale
 70
     0
300
1:10
140
1.0
141
10.0
290
     0
  0
SCALE
  5
4E
102
{ACAD_REACTORS
330
47
102
}
330
47
100
AcDbScale
 70
     0
300
1:16
140
1.0
141
16.0
290
     0
  0
SCALE
  5
4F
102
{ACAD_REACTORS
330
47
102
}
330
47
100
AcDbScale
 70
     0
300
1:20
140
1.0
141
20.0
290
     0
  0
SCALE
  5
50
102
{ACAD_REACTORS
330
47
102
}
330
47
100
AcDbScale
 70
     0
300
1:30
140
1.0
141
30.0
290
     0
  0
SCALE
  5
51
102
{ACAD_REACTORS
330
47
102
}
330
47
100
AcDbScale
 70
     0
300
1:40
140
1.0
141
40.0
290
     0
  0
SCALE
  5
52
102
{ACAD_REACTORS
330
47
102
}
330
47
100
AcDbScale
 70
     0
300
1:50
140
1.0
141
50.0
290
     0
  0
SCALE
  5
53
102
{ACAD_REACTORS
330
47
102
}
330
47
100
AcDbScale
 70
     0
300
1:100
140
1.0
141
100.0
290
     0
  0
SCALE
  5
54
102
{ACAD_REACTORS
330
47
102
}
330
47
100
AcDbScale
 70
     0
300
2:1
140
2.0
141
1.0
290
     0
  0
SCALE
  5
55
102
{ACAD_REACTORS
330
47
102
}
330
47
100
AcDbScale
 70
     0
300
4:1
140
4.0
141
1.0
290
     0
  0
SCALE
  5
56
102
{ACAD_REACTORS
330
47
102
}
330
47
100
AcDbScale
 70
     0
300
8:1
140
8.0
141
1.0
290
     0
  0
SCALE
  5
57
102
{ACAD_REACTORS
330
47
102
}
330
47
100
AcDbScale
 70
     0
300
10:1
140
10.0
141
1.0
290
     0
  0
SCALE
  5
58
102
{ACAD_REACTORS
330
47
102
}
330
47
100
AcDbScale
 70
     0
300
100:1
140
100.0
141
1.0
290
     0
  0
SCALE
  5
59
102
{ACAD_REACTORS
330
47
102
}
330
47
100
AcDbScale
 70
     0
300
1/128" = 1'-0"
140
0.0078125
141
12.0
290
     0
  0
SCALE
  5
5A
102
{ACAD_REACTORS
330
47
102
}
330
47
100
AcDbScale
 70
     0
300
1/64" = 1'-0"
140
0.015625
141
12.0
290
     0
  0
SCALE
  5
5B
102
{ACAD_REACTORS
330
47
102
}
330
47
100
AcDbScale
 70
     0
300
1/32" = 1'-0"
140
0.03125
141
12.0
290
     0
  0
SCALE
  5
5C
102
{ACAD_REACTORS
330
47
102
}
330
47
100
AcDbScale
 70
     0
300
1/16" = 1'-0"
140
0.0625
141
12.0
290
     0
  0
SCALE
  5
5D
102
{ACAD_REACTORS
330
47
102
}
330
47
100
AcDbScale
 70
     0
300
3/32" = 1'-0"
140
0.09375
141
12.0
290
     0
  0
SCALE
  5
5E
102
{ACAD_REACTORS
330
47
102
}
330
47
100
AcDbScale
 70
     0
300
1/8" = 1'-0"
140
0.125
141
12.0
290
     0
  0
SCALE
  5
5F
102
{ACAD_REACTORS
330
47
102
}
330
47
100
AcDbScale
 70
     0
300
3/16" = 1'-0"
140
0.1875
141
12.0
290
     0
  0
SCALE
  5
60
102
{ACAD_REACTORS
330
47
102
}
330
47
100
AcDbScale
 70
     0
300
1/4" = 1'-0"
140
0.25
141
12.0
290
     0
  0
SCALE
  5
61
102
{ACAD_REACTORS
330
47
102
}
330
47
100
AcDbScale
 70
     0
300
3/8" = 1'-0"
140
0.375
141
12.0
290
     0
  0
SCALE
  5
62
102
{ACAD_REACTORS
330
47
102
}
330
47
100
AcDbScale
 70
     0
300
1/2" = 1'-0"
140
0.5
141
12.0
290
     0
  0
SCALE
  5
63
102
{ACAD_REACTORS
330
47
102
}
330
47
100
AcDbScale
 70
     0
300
3/4" = 1'-0"
140
0.75
141
12.0
290
     0
  0
SCALE
  5
64
102
{ACAD_REACTORS
330
47
102
}
330
47
100
AcDbScale
 70
     0
300
1" = 1'-0"
140
1.0
141
12.0
290
     0
  0
SCALE
  5
65
102
{ACAD_REACTORS
330
47
102
}
330
47
100
AcDbScale
 70
     0
300
1-1/2" = 1'-0"
140
1.5
141
12.0
290
     0
  0
SCALE
  5
66
102
{ACAD_REACTORS
330
47
102
}
330
47
100
AcDbScale
 70
     0
300
3" = 1'-0"
140
3.0
141
12.0
290
     0
  0
SCALE
  5
67
102
{ACAD_REACTORS
330
47
102
}
330
47
100
AcDbScale
 70
     0
300
6" = 1'-0"
140
6.0
141
12.0
290
     0
  0
SCALE
  5
68
102
{ACAD_REACTORS
330
47
102
}
330
47
100
AcDbScale
 70
     0
300
1'-0" = 1'-0"
140
12.0
141
12.0
290
     0
  0
TABLESTYLE
  5
6A
102
{ACAD_REACTORS
330
69
102
}
102
{ACAD_XDICTIONARY
360
40F
102
}
330
69
100
AcDbTableStyle
  3
Standard
 70
     0
 71
     0
 40
0.06
 41
0.06
280
     0
281
     0
  7
Standard
140
0.18
170
     2
 62
     0
 63
   257
283
     0
 90
        4
 91
        0
  1

274
    -2
284
     1
 64
     0
275
    -2
285
     1
 65
     0
276
    -2
286
     1
 66
     0
277
    -2
287
     1
 67
     0
278
    -2
288
     1
 68
     0
279
    -2
289
     1
 69
     0
  7
Standard
140
0.25
170
     5
 62
     0
 63
   257
283
     0
 90
        4
 91
        0
  1

274
    -2
284
     1
 64
     0
275
    -2
285
     1
 65
     0
276
    -2
286
     1
 66
     0
277
    -2
287
     1
 67
     0
278
    -2
288
     1
 68
     0
279
    -2
289
     1
 69
     0
  7
Standard
140
0.18
170
     5
 62
     0
 63
   257
283
     0
 90
        4
 91
        0
  1

274
    -2
284
     1
 64
     0
275
    -2
285
     1
 65
     0
276
    -2
286
     1
 66
     0
277
    -2
287
     1
 67
     0
278
    -2
288
     1
 68
     0
279
    -2
289
     1
 69
     0
  0
VISUALSTYLE
  5
2F
102
{ACAD_REACTORS
330
2A
102
}
330
2A
100
AcDbVisualStyle
  2
2dWireframe
 70
     4
177
     3
291
     0
 70
    58
 90
        0
176
     1
 90
        2
176
     1
 90
        0
176
     1
 90
        0
176
     1
 40
0.6
176
     1
 40
30.0
176
     1
 62
     7
420
 16777215
176
     1
 90
        1
176
     1
 90
        4
176
     1
 62
     7
176
     1
 62
   257
176
     1
 90
        1
176
     1
 90
        1
176
     1
 40
1.0
176
     1
 90
        0
176
     1
 62
   257
176
     1
 40
1.0
176
     1
 90
        1
176
     1
 90
        6
176
     1
 90
        2
176
     1
 62
     7
176
     1
 90
        5
176
     1
 90
        0
176
     1
 90
        0
176
     1
290
     0
176
     1
 90
        1
176
     1
 40
0.0
176
     1
 90
        0
176
     1
290
     1
176
     1
290
     1
176
     1
290
     0
176
     1
290
     0
176
     1
290
     0
176
     1
290
     0
176
     1
290
     0
176
     1
290
     0
176
     1
290
     0
176
     1
 90
       50
176
     1
 40
0.0
176
     1
 40
1.0
176
     1
 90
        0
176
     1
 62
    18
420
        0
176
     1
 90
       50
176
     1
 90
        3
176
     1
 62
     5
420
      255
176
     1
290
     0
176
     1
 90
       50
176
     1
 90
       50
176
     1
 90
       50
176
     1
290
     0
176
     1
 90
       50
176
     1
 62
   256
176
     0
 40
1.0
176
     0
 90
        2
176
     1
  1
strokes_ogs.tif
176
     1
290
     0
176
     1
 40
1.0
176
     1
 40
1.0
176
     1
  0
VISUALSTYLE
  5
32
102
{ACAD_REACTORS
330
2A
102
}
330
2A
100
AcDbVisualStyle
  2
Basic
 70
     7
177
     3
291
     1
 70
    58
 90
        1
176
     1
 90
        0
176
     1
 90
        1
176
     1
 90
        0
176
     1
 40
0.6
176
     1
 40
30.0
176
     1
 62
     7
420
 16777215
176
     1
 90
        0
176
     1
 90
        4
176
     1
 62
     7
176
     1
 62
   257
176
     1
 90
        1
176
     1
 90
        1
176
     1
 40
1.0
176
     1
 90
        8
176
     1
 62
     7
176
     1
 40
1.0
176
     1
 90
        1
176
     1
 90
        6
176
     1
 90
        2
176
     1
 62
     7
176
     1
 90
        5
176
     1
 90
        0
176
     1
 90
        0
176
     1
290
     0
176
     1
 90
        1
176
     1
 40
0.0
176
     1
 90
        0
176
     1
290
     0
176
     1
290
     1
176
     1
290
     1
176
     1
290
     0
176
     1
290
     0
176
     1
290
     0
176
     1
290
     0
176
     1
290
     0
176
     1
290
     0
176
     1
 90
       50
176
     1
 40
0.0
176
     1
 40
1.0
176
     1
 90
        0
176
     1
 62
    18
420
        0
176
     1
 90
       50
176
     1
 90
        3
176
     1
 62
     5
420
      255
176
     1
290
     0
176
     1
 90
       50
176
     1
 90
       50
176
     1
 90
       50
176
     1
290
     0
176
     1
 90
       50
176
     1
 62
   256
176
     0
 40
1.0
176
     0
 90
        2
176
     1
  1
strokes_ogs.tif
176
     1
290
     0
176
     1
 40
1.0
176
     1
 40
1.0
176
     1
  0
VISUALSTYLE
  5
36
102
{ACAD_REACTORS
330
2A
102
}
330
2A
100
AcDbVisualStyle
  2
Brighten
 70
    12
177
     3
291
     1
 70
    58
 90
        2
176
     1
 90
        2
176
     1
 90
        0
176
     1
 90
        0
176
     1
 40
0.6
176
     1
 40
30.0
176
     1
 62
     7
420
 16777215
176
     1
 90
        1
176
     1
 90
        4
176
     1
 62
     7
176
     1
 62
   257
176
     1
 90
        1
176
     1
 90
        1
176
     1
 40
1.0
176
     1
 90
        8
176
     1
 62
     7
176
     1
 40
1.0
176
     1
 90
        1
176
     1
 90
        6
176
     1
 90
        2
176
     1
 62
     7
176
     1
 90
        5
176
     1
 90
        0
176
     1
 90
        0
176
     1
290
     0
176
     1
 90
        1
176
     1
 40
50.0
176
     1
 90
        0
176
     1
290
     0
176
     1
290
     1
176
     1
290
     1
176
     1
290
     0
176
     1
290
     0
176
     1
290
     0
176
     1
290
     0
176
     1
290
     0
176
     1
290
     0
176
     1
 90
       50
176
     1
 40
0.0
176
     1
 40
1.0
176
     1
 90
        0
176
     1
 62
    18
420
        0
176
     1
 90
       50
176
     1
 90
        3
176
     1
 62
     5
420
      255
176
     1
290
     0
176
     1
 90
       50
176
     1
 90
       50
176
     1
 90
       50
176
     1
290
     0
176
     1
 90
       50
176
     1
 62
   256
176
     0
 40
1.0
176
     0
 90
        2
176
     1
  1
strokes_ogs.tif
176
     1
290
     0
176
     1
 40
1.0
176
     1
 40
1.0
176
     1
  0
VISUALSTYLE
  5
3A
102
{ACAD_REACTORS
330
2A
102
}
330
2A
100
AcDbVisualStyle
  2
ColorChange
 70
    16
177
     3
291
     1
 70
    58
 90
        2
176
     1
 90
        2
176
     1
 90
        3
176
     1
 90
        0
176
     1
 40
0.6
176
     1
 40
30.0
176
     1
 62
     8
420
  8421504
176
     1
 90
        1
176
     1
 90
        4
176
     1
 62
     7
176
     1
 62
   257
176
     1
 90
        1
176
     1
 90
        1
176
     1
 40
1.0
176
     1
 90
        8
176
     1
 62
     8
420
  8421504
176
     1
 40
1.0
176
     1
 90
        1
176
     1
 90
        6
176
     1
 90
        2
176
     1
 62
     7
176
     1
 90
        5
176
     1
 90
        0
176
     1
 90
        0
176
     1
290
     0
176
     1
 90
        1
176
     1
 40
0.0
176
     1
 90
        0
176
     1
290
     0
176
     1
290
     1
176
     1
290
     1
176
     1
290
     0
176
     1
290
     0
176
     1
290
     0
176
     1
290
     0
176
     1
290
     0
176
     1
290
     0
176
     1
 90
       50
176
     1
 40
0.0
176
     1
 40
1.0
176
     1
 90
        0
176
     1
 62
    18
420
        0
176
     1
 90
       50
176
     1
 90
        3
176
     1
 62
     5
420
      255
176
     1
290
     0
176
     1
 90
       50
176
     1
 90
       50
176
     1
 90
       50
176
     1
290
     0
176
     1
 90
       50
176
     1
 62
   256
176
     0
 40
1.0
176
     0
 90
        2
176
     1
  1
strokes_ogs.tif
176
     1
290
     0
176
     1
 40
1.0
176
     1
 40
1.0
176
     1
  0
VISUALSTYLE
  5
34
102
{ACAD_REACTORS
330
2A
102
}
330
2A
100
AcDbVisualStyle
  2
Conceptual
 70
     9
177
     3
291
     0
 70
    58
 90
        3
176
     1
 90
        2
176
     1
 90
        0
176
     1
 90
        0
176
     1
 40
0.6
176
     1
 40
30.0
176
     1
 62
     7
420
 16777215
176
     1
 90
        2
176
     1
 90
        2
176
     1
 62
     7
176
     1
 62
   257
176
     1
 90
        1
176
     1
 90
        1
176
     1
 40
179.0
176
     1
 90
        8
176
     1
 62
     7
176
     1
 40
1.0
176
     1
 90
        1
176
     1
 90
        6
176
     1
 90
        2
176
     1
 62
     7
176
     1
 90
        3
176
     1
 90
        0
176
     1
 90
        0
176
     1
290
     0
176
     1
 90
        1
176
     1
 40
0.0
176
     1
 90
        0
176
     1
290
     0
176
     1
290
     1
176
     1
290
     1
176
     1
290
     0
176
     1
290
     0
176
     1
290
     0
176
     1
290
     0
176
     1
290
     0
176
     1
290
     0
176
     1
 90
       50
176
     1
 40
0.0
176
     1
 40
1.0
176
     1
 90
        0
176
     1
 62
    18
420
        0
176
     1
 90
       50
176
     1
 90
        3
176
     1
 62
     5
420
      255
176
     1
290
     0
176
     1
 90
       50
176
     1
 90
       50
176
     1
 90
       50
176
     1
290
     0
176
     1
 90
       50
176
     1
 62
   256
176
     0
 40
1.0
176
     0
 90
        2
176
     1
  1
strokes_ogs.tif
176
     1
290
     0
176
     1
 40
1.0
176
     1
 40
1.0
176
     1
  0
VISUALSTYLE
  5
35
102
{ACAD_REACTORS
330
2A
102
}
330
2A
100
AcDbVisualStyle
  2
Dim
 70
    11
177
     3
291
     1
 70
    58
 90
        2
176
     1
 90
        2
176
     1
 90
        0
176
     1
 90
        0
176
     1
 40
0.6
176
     1
 40
30.0
176
     1
 62
     7
420
 16777215
176
     1
 90
        1
176
     1
 90
        4
176
     1
 62
     7
176
     1
 62
   257
176
     1
 90
        1
176
     1
 90
        1
176
     1
 40
1.0
176
     1
 90
        8
176
     1
 62
     7
176
     1
 40
1.0
176
     1
 90
        1
176
     1
 90
        6
176
     1
 90
        2
176
     1
 62
     7
176
     1
 90
        5
176
     1
 90
        0
176
     1
 90
        0
176
     1
290
     0
176
     1
 90
        1
176
     1
 40
-50.0
176
     1
 90
        0
176
     1
290
     0
176
     1
290
     1
176
     1
290
     1
176
     1
290
     0
176
     1
290
     0
176
     1
290
     0
176
     1
290
     0
176
     1
290
     0
176
     1
290
     0
176
     1
 90
       50
176
     1
 40
0.0
176
     1
 40
1.0
176
     1
 90
        0
176
     1
 62
    18
420
        0
176
     1
 90
       50
176
     1
 90
        3
176
     1
 62
     5
420
      255
176
     1
290
     0
176
     1
 90
       50
176
     1
 90
       50
176
     1
 90
       50
176
     1
290
     0
176
     1
 90
       50
176
     1
 62
   256
176
     0
 40
1.0
176
     0
 90
        2
176
     1
  1
strokes_ogs.tif
176
     1
290
     0
176
     1
 40
1.0
176
     1
 40
1.0
176
     1
  0
VISUALSTYLE
  5
3D
102
{ACAD_REACTORS
330
2A
102
}
330
2A
100
AcDbVisualStyle
  2
EdgeColorOff
 70
    22
177
     3
291
     1
 70
    58
 90
        2
176
     0
 90
        2
176
     0
 90
        0
176
     0
 90
        0
176
     0
 40
0.6
176
     0
 40
30.0
176
     0
 62
     7
420
 16777215
176
     0
 90
        1
176
     0
 90
        4
176
     0
 62
     7
176
     0
 62
   257
176
     0
 90
        1
176
     0
 90
        1
176
     0
 40
1.0
176
     0
 90
        8
176
     2
 62
     7
176
     0
 40
1.0
176
     0
 90
        1
176
     0
 90
        6
176
     0
 90
        2
176
     0
 62
     7
176
     0
 90
        5
176
     0
 90
        0
176
     0
 90
        0
176
     0
290
     0
176
     0
 90
        1
176
     0
 40
0.0
176
     0
 90
        0
176
     0
290
     0
176
     0
290
     1
176
     0
290
     1
176
     0
290
     0
176
     0
290
     0
176
     0
290
     0
176
     0
290
     0
176
     0
290
     0
176
     0
290
     0
176
     0
 90
       50
176
     0
 40
0.0
176
     0
 40
1.0
176
     0
 90
        0
176
     0
 62
    18
420
        0
176
     0
 90
       50
176
     0
 90
        3
176
     0
 62
     5
420
      255
176
     0
290
     0
176
     0
 90
       50
176
     0
 90
       50
176
     0
 90
       50
176
     0
290
     0
176
     0
 90
       50
176
     0
 62
   256
176
     0
 40
1.0
176
     0
 90
        2
176
     0
  1
strokes_ogs.tif
176
     0
290
     0
176
     0
 40
1.0
176
     0
 40
1.0
176
     0
  0
VISUALSTYLE
  5
39
102
{ACAD_REACTORS
330
2A
102
}
330
2A
100
AcDbVisualStyle
  2
Facepattern
 70
    15
177
     3
291
     1
 70
    58
 90
        2
176
     1
 90
        2
176
     1
 90
        0
176
     1
 90
        0
176
     1
 40
0.6
176
     1
 40
30.0
176
     1
 62
     7
420
 16777215
176
     1
 90
        1
176
     1
 90
        4
176
     1
 62
     7
176
     1
 62
   257
176
     1
 90
        1
176
     1
 90
        1
176
     1
 40
1.0
176
     1
 90
        8
176
     1
 62
     7
176
     1
 40
1.0
176
     1
 90
        1
176
     1
 90
        6
176
     1
 90
        2
176
     1
 62
     7
176
     1
 90
        5
176
     1
 90
        0
176
     1
 90
        0
176
     1
290
     0
176
     1
 90
        1
176
     1
 40
0.0
176
     1
 90
        0
176
     1
290
     0
176
     1
290
     1
176
     1
290
     1
176
     1
290
     0
176
     1
290
     0
176
     1
290
     0
176
     1
290
     0
176
     1
290
     0
176
     1
290
     0
176
     1
 90
       50
176
     1
 40
0.0
176
     1
 40
1.0
176
     1
 90
        0
176
     1
 62
    18
420
        0
176
     1
 90
       50
176
     1
 90
        3
176
     1
 62
     5
420
      255
176
     1
290
     0
176
     1
 90
       50
176
     1
 90
       50
176
     1
 90
       50
176
     1
290
     0
176
     1
 90
       50
176
     1
 62
   256
176
     0
 40
1.0
176
     0
 90
        2
176
     1
  1
strokes_ogs.tif
176
     1
290
     0
176
     1
 40
1.0
176
     1
 40
1.0
176
     1
  0
VISUALSTYLE
  5
2B
102
{ACAD_REACTORS
330
2A
102
}
330
2A
100
AcDbVisualStyle
  2
Flat
 70
     0
177
     3
291
     1
 70
    58
 90
        2
176
     1
 90
        1
176
     1
 90
        1
176
     1
 90
        2
176
     1
 40
0.6
176
     1
 40
30.0
176
     1
 62
     7
420
 16777215
176
     1
 90
        0
176
     1
 90
        0
176
     1
 62
     7
176
     1
 62
   257
176
     1
 90
        1
176
     1
 90
        1
176
     1
 40
1.0
176
     1
 90
        8
176
     1
 62
     7
176
     1
 40
1.0
176
     1
 90
        1
176
     1
 90
        6
176
     1
 90
        2
176
     1
 62
     7
176
     1
 90
        5
176
     1
 90
        0
176
     1
 90
        0
176
     1
290
     0
176
     1
 90
       13
176
     1
 40
0.0
176
     1
 90
        0
176
     1
290
     0
176
     1
290
     1
176
     1
290
     1
176
     1
290
     0
176
     1
290
     0
176
     1
290
     0
176
     1
290
     0
176
     1
290
     0
176
     1
290
     0
176
     1
 90
       50
176
     1
 40
0.0
176
     1
 40
1.0
176
     1
 90
        0
176
     1
 62
    18
420
        0
176
     1
 90
       50
176
     1
 90
        3
176
     1
 62
     5
420
      255
176
     1
290
     0
176
     1
 90
       50
176
     1
 90
       50
176
     1
 90
       50
176
     1
290
     0
176
     1
 90
       50
176
     1
 62
   256
176
     0
 40
1.0
176
     0
 90
        2
176
     1
  1
strokes_ogs.tif
176
     1
290
     0
176
     1
 40
1.0
176
     1
 40
1.0
176
     1
  0
VISUALSTYLE
  5
2C
102
{ACAD_REACTORS
330
2A
102
}
330
2A
100
AcDbVisualStyle
  2
FlatWithEdges
 70
     1
177
     3
291
     1
 70
    58
 90
        2
176
     1
 90
        1
176
     1
 90
        1
176
     1
 90
        2
176
     1
 40
0.6
176
     1
 40
30.0
176
     1
 62
     7
420
 16777215
176
     1
 90
        1
176
     1
 90
        0
176
     1
 62
     7
176
     1
 62
   257
176
     1
 90
        1
176
     1
 90
        1
176
     1
 40
1.0
176
     1
 90
        0
176
     1
 62
   257
176
     1
 40
1.0
176
     1
 90
        1
176
     1
 90
        6
176
     1
 90
        2
176
     1
 62
     7
176
     1
 90
        5
176
     1
 90
        0
176
     1
 90
        0
176
     1
290
     0
176
     1
 90
       13
176
     1
 40
0.0
176
     1
 90
        0
176
     1
290
     0
176
     1
290
     1
176
     1
290
     1
176
     1
290
     0
176
     1
290
     0
176
     1
290
     0
176
     1
290
     0
176
     1
290
     0
176
     1
290
     0
176
     1
 90
       50
176
     1
 40
0.0
176
     1
 40
1.0
176
     1
 90
        0
176
     1
 62
    18
420
        0
176
     1
 90
       50
176
     1
 90
        3
176
     1
 62
     5
420
      255
176
     1
290
     0
176
     1
 90
       50
176
     1
 90
       50
176
     1
 90
       50
176
     1
290
     0
176
     1
 90
       50
176
     1
 62
   256
176
     0
 40
1.0
176
     0
 90
        2
176
     1
  1
strokes_ogs.tif
176
     1
290
     0
176
     1
 40
1.0
176
     1
 40
1.0
176
     1
  0
VISUALSTYLE
  5
2D
102
{ACAD_REACTORS
330
2A
102
}
330
2A
100
AcDbVisualStyle
  2
Gouraud
 70
     2
177
     3
291
     1
 70
    58
 90
        2
176
     1
 90
        2
176
     1
 90
        1
176
     1
 90
        2
176
     1
 40
0.6
176
     1
 40
30.0
176
     1
 62
     7
420
 16777215
176
     1
 90
        0
176
     1
 90
        0
176
     1
 62
     7
176
     1
 62
   257
176
     1
 90
        1
176
     1
 90
        1
176
     1
 40
1.0
176
     1
 90
        0
176
     1
 62
     7
176
     1
 40
1.0
176
     1
 90
        1
176
     1
 90
        6
176
     1
 90
        2
176
     1
 62
     7
176
     1
 90
        5
176
     1
 90
        0
176
     1
 90
        0
176
     1
290
     0
176
     1
 90
       13
176
     1
 40
0.0
176
     1
 90
        0
176
     1
290
     0
176
     1
290
     1
176
     1
290
     1
176
     1
290
     0
176
     1
290
     0
176
     1
290
     0
176
     1
290
     0
176
     1
290
     0
176
     1
290
     0
176
     1
 90
       50
176
     1
 40
0.0
176
     1
 40
1.0
176
     1
 90
        0
176
     1
 62
    18
420
        0
176
     1
 90
       50
176
     1
 90
        3
176
     1
 62
     5
420
      255
176
     1
290
     0
176
     1
 90
       50
176
     1
 90
       50
176
     1
 90
       50
176
     1
290
     0
176
     1
 90
       50
176
     1
 62
   256
176
     0
 40
1.0
176
     0
 90
        2
176
     1
  1
strokes_ogs.tif
176
     1
290
     0
176
     1
 40
1.0
176
     1
 40
1.0
176
     1
  0
VISUALSTYLE
  5
2E
102
{ACAD_REACTORS
330
2A
102
}
330
2A
100
AcDbVisualStyle
  2
GouraudWithEdges
 70
     3
177
     3
291
     1
 70
    58
 90
        2
176
     1
 90
        2
176
     1
 90
        1
176
     1
 90
        2
176
     1
 40
0.6
176
     1
 40
30.0
176
     1
 62
     7
420
 16777215
176
     1
 90
        1
176
     1
 90
        0
176
     1
 62
     7
176
     1
 62
   257
176
     1
 90
        1
176
     1
 90
        1
176
     1
 40
1.0
176
     1
 90
        0
176
     1
 62
   257
176
     1
 40
1.0
176
     1
 90
        1
176
     1
 90
        6
176
     1
 90
        2
176
     1
 62
     7
176
     1
 90
        5
176
     1
 90
        0
176
     1
 90
        0
176
     1
290
     0
176
     1
 90
       13
176
     1
 40
0.0
176
     1
 90
        0
176
     1
290
     0
176
     1
290
     1
176
     1
290
     1
176
     1
290
     0
176
     1
290
     0
176
     1
290
     0
176
     1
290
     0
176
     1
290
     0
176
     1
290
     0
176
     1
 90
       50
176
     1
 40
0.0
176
     1
 40
1.0
176
     1
 90
        0
176
     1
 62
    18
420
        0
176
     1
 90
       50
176
     1
 90
        3
176
     1
 62
     5
420
      255
176
     1
290
     0
176
     1
 90
       50
176
     1
 90
       50
176
     1
 90
       50
176
     1
290
     0
176
     1
 90
       50
176
     1
 62
   256
176
     0
 40
1.0
176
     0
 90
        2
176
     1
  1
strokes_ogs.tif
176
     1
290
     0
176
     1
 40
1.0
176
     1
 40
1.0
176
     1
  0
VISUALSTYLE
  5
31
102
{ACAD_REACTORS
330
2A
102
}
330
2A
100
AcDbVisualStyle
  2
Hidden
 70
     6
177
     3
291
     0
 70
    58
 90
        1
176
     1
 90
        2
176
     1
 90
        2
176
     1
 90
        0
176
     1
 40
0.6
176
     1
 40
30.0
176
     1
 62
     7
420
 16777215
176
     1
 90
        2
176
     1
 90
        2
176
     1
 62
     7
176
     1
 62
   257
176
     1
 90
        2
176
     1
 90
        1
176
     1
 40
40.0
176
     1
 90
        0
176
     1
 62
   257
176
     1
 40
1.0
176
     1
 90
        1
176
     1
 90
        6
176
     1
 90
        2
176
     1
 62
     7
176
     1
 90
        3
176
     1
 90
        0
176
     1
 90
        0
176
     1
290
     0
176
     1
 90
        1
176
     1
 40
0.0
176
     1
 90
        0
176
     1
290
     0
176
     1
290
     1
176
     1
290
     1
176
     1
290
     0
176
     1
290
     0
176
     1
290
     0
176
     1
290
     0
176
     1
290
     0
176
     1
290
     0
176
     1
 90
       50
176
     1
 40
0.0
176
     1
 40
1.0
176
     1
 90
        0
176
     1
 62
    18
420
        0
176
     1
 90
       50
176
     1
 90
        3
176
     1
 62
     5
420
      255
176
     1
290
     0
176
     1
 90
       50
176
     1
 90
       50
176
     1
 90
       50
176
     1
290
     0
176
     1
 90
       50
176
     1
 62
   256
176
     0
 40
1.0
176
     0
 90
        2
176
     1
  1
strokes_ogs.tif
176
     1
290
     0
176
     1
 40
1.0
176
     1
 40
1.0
176
     1
  0
VISUALSTYLE
  5
3B
102
{ACAD_REACTORS
330
2A
102
}
330
2A
100
AcDbVisualStyle
  2
JitterOff
 70
    20
177
     3
291
     1
 70
    58
 90
        2
176
     0
 90
        2
176
     0
 90
        0
176
     0
 90
        0
176
     0
 40
0.6
176
     0
 40
30.0
176
     0
 62
     7
420
 16777215
176
     0
 90
        1
176
     0
 90
        4
176
     0
 62
     7
176
     0
 62
   257
176
     0
 90
        1
176
     0
 90
        1
176
     0
 40
1.0
176
     0
 90
       10
176
     2
 62
     7
176
     0
 40
1.0
176
     0
 90
        1
176
     0
 90
        6
176
     0
 90
        2
176
     0
 62
     7
176
     0
 90
        5
176
     0
 90
        0
176
     0
 90
        0
176
     0
290
     0
176
     0
 90
        1
176
     0
 40
0.0
176
     0
 90
        0
176
     0
290
     0
176
     0
290
     1
176
     0
290
     1
176
     0
290
     0
176
     0
290
     0
176
     0
290
     0
176
     0
290
     0
176
     0
290
     0
176
     0
290
     0
176
     0
 90
       50
176
     0
 40
0.0
176
     0
 40
1.0
176
     0
 90
        0
176
     0
 62
    18
420
        0
176
     0
 90
       50
176
     0
 90
        3
176
     0
 62
     5
420
      255
176
     0
290
     0
176
     0
 90
       50
176
     0
 90
       50
176
     0
 90
       50
176
     0
290
     0
176
     0
 90
       50
176
     0
 62
   256
176
     0
 40
1.0
176
     0
 90
        2
176
     0
  1
strokes_ogs.tif
176
     0
290
     0
176
     0
 40
1.0
176
     0
 40
1.0
176
     0
  0
VISUALSTYLE
  5
38
102
{ACAD_REACTORS
330
2A
102
}
330
2A
100
AcDbVisualStyle
  2
Linepattern
 70
    14
177
     3
291
     1
 70
    58
 90
        2
176
     1
 90
        2
176
     1
 90
        0
176
     1
 90
        0
176
     1
 40
0.6
176
     1
 40
30.0
176
     1
 62
     7
420
 16777215
176
     1
 90
        1
176
     1
 90
        4
176
     1
 62
     7
176
     1
 62
   257
176
     1
 90
        7
176
     1
 90
        7
176
     1
 40
1.0
176
     1
 90
        8
176
     1
 62
     7
176
     1
 40
1.0
176
     1
 90
        1
176
     1
 90
        6
176
     1
 90
        2
176
     1
 62
     7
176
     1
 90
        5
176
     1
 90
        0
176
     1
 90
        0
176
     1
290
     0
176
     1
 90
        1
176
     1
 40
0.0
176
     1
 90
        0
176
     1
290
     0
176
     1
290
     1
176
     1
290
     1
176
     1
290
     0
176
     1
290
     0
176
     1
290
     0
176
     1
290
     0
176
     1
290
     0
176
     1
290
     0
176
     1
 90
       50
176
     1
 40
0.0
176
     1
 40
1.0
176
     1
 90
        0
176
     1
 62
    18
420
        0
176
     1
 90
       50
176
     1
 90
        3
176
     1
 62
     5
420
      255
176
     1
290
     0
176
     1
 90
       50
176
     1
 90
       50
176
     1
 90
       50
176
     1
290
     0
176
     1
 90
       50
176
     1
 62
   256
176
     0
 40
1.0
176
     0
 90
        2
176
     1
  1
strokes_ogs.tif
176
     1
290
     0
176
     1
 40
1.0
176
     1
 40
1.0
176
     1
  0
VISUALSTYLE
  5
3C
102
{ACAD_REACTORS
330
2A
102
}
330
2A
100
AcDbVisualStyle
  2
OverhangOff
 70
    21
177
     3
291
     1
 70
    58
 90
        2
176
     0
 90
        2
176
     0
 90
        0
176
     0
 90
        0
176
     0
 40
0.6
176
     0
 40
30.0
176
     0
 62
     7
420
 16777215
176
     0
 90
        1
176
     0
 90
        4
176
     0
 62
     7
176
     0
 62
   257
176
     0
 90
        1
176
     0
 90
        1
176
     0
 40
1.0
176
     0
 90
        9
176
     2
 62
     7
176
     0
 40
1.0
176
     0
 90
        1
176
     0
 90
        6
176
     0
 90
        2
176
     0
 62
     7
176
     0
 90
        5
176
     0
 90
        0
176
     0
 90
        0
176
     0
290
     0
176
     0
 90
        1
176
     0
 40
0.0
176
     0
 90
        0
176
     0
290
     0
176
     0
290
     1
176
     0
290
     1
176
     0
290
     0
176
     0
290
     0
176
     0
290
     0
176
     0
290
     0
176
     0
290
     0
176
     0
290
     0
176
     0
 90
       50
176
     0
 40
0.0
176
     0
 40
1.0
176
     0
 90
        0
176
     0
 62
    18
420
        0
176
     0
 90
       50
176
     0
 90
        3
176
     0
 62
     5
420
      255
176
     0
290
     0
176
     0
 90
       50
176
     0
 90
       50
176
     0
 90
       50
176
     0
290
     0
176
     0
 90
       50
176
     0
 62
   256
176
     0
 40
1.0
176
     0
 90
        2
176
     0
  1
strokes_ogs.tif
176
     0
290
     0
176
     0
 40
1.0
176
     0
 40
1.0
176
     0
  0
VISUALSTYLE
  5
33
102
{ACAD_REACTORS
330
2A
102
}
330
2A
100
AcDbVisualStyle
  2
Realistic
 70
     8
177
     3
291
     0
 70
    58
 90
        2
176
     1
 90
        3
176
     1
 90
        0
176
     1
 90
        2
176
     1
 40
0.6
176
     1
 40
30.0
176
     1
 62
     7
420
 16777215
176
     1
 90
        0
176
     1
 90
        0
176
     1
 62
     7
176
     1
 62
   257
176
     1
 90
        1
176
     1
 90
        1
176
     1
 40
1.0
176
     1
 90
        8
176
     1
 62
   257
176
     1
 40
1.0
176
     1
 90
        1
176
     1
 90
        6
176
     1
 90
        2
176
     1
 62
     7
176
     1
 90
        3
176
     1
 90
        0
176
     1
 90
        0
176
     1
290
     0
176
     1
 90
       13
176
     1
 40
0.0
176
     1
 90
        0
176
     1
290
     0
176
     1
290
     1
176
     1
290
     1
176
     1
290
     0
176
     1
290
     0
176
     1
290
     0
176
     1
290
     0
176
     1
290
     0
176
     1
290
     0
176
     1
 90
       50
176
     1
 40
0.0
176
     1
 40
1.0
176
     1
 90
        0
176
     1
 62
    18
420
        0
176
     1
 90
       50
176
     1
 90
        3
176
     1
 62
     5
420
      255
176
     1
290
     0
176
     1
 90
       50
176
     1
 90
       50
176
     1
 90
       50
176
     1
290
     0
176
     1
 90
       50
176
     1
 62
   256
176
     0
 40
1.0
176
     0
 90
        2
176
     1
  1
strokes_ogs.tif
176
     1
290
     0
176
     1
 40
1.0
176
     1
 40
1.0
176
     1
  0
VISUALSTYLE
  5
42
102
{ACAD_REACTORS
330
2A
102
}
330
2A
100
AcDbVisualStyle
  2
Shaded
 70
    27
177
     3
291
     0
 70
    58
 90
        2
176
     1
 90
        2
176
     1
 90
        1
176
     1
 90
        2
176
     1
 40
0.6
176
     1
 40
30.0
176
     1
 62
     7
420
 16777215
176
     1
 90
        0
176
     1
 90
        4
176
     1
 62
     7
176
     1
 62
   257
176
     1
 90
        1
176
     1
 90
        1
176
     1
 40
1.0
176
     1
 90
        8
176
     1
 62
   257
176
     1
 40
1.0
176
     1
 90
        1
176
     1
 90
        6
176
     1
 90
        2
176
     1
 62
     8
420
  7895160
176
     1
 90
        3
176
     1
 90
        0
176
     1
 90
        0
176
     1
290
     0
176
     1
 90
        5
176
     1
 40
0.0
176
     1
 90
        0
176
     1
290
     0
176
     1
290
     1
176
     1
290
     1
176
     1
290
     0
176
     1
290
     0
176
     1
290
     0
176
     1
290
     0
176
     1
290
     0
176
     1
290
     0
176
     1
 90
       50
176
     1
 40
0.0
176
     1
 40
1.0
176
     1
 90
        0
176
     1
 62
    18
420
        0
176
     1
 90
       50
176
     1
 90
        3
176
     1
 62
     5
420
      255
176
     1
290
     0
176
     1
 90
       50
176
     1
 90
       50
176
     1
 90
       50
176
     1
290
     0
176
     1
 90
       50
176
     1
 62
   256
176
     0
 40
1.0
176
     0
 90
        2
176
     1
  1
strokes_ogs.tif
176
     1
290
     0
176
     1
 40
1.0
176
     1
 40
1.0
176
     1
  0
VISUALSTYLE
  5
41
102
{ACAD_REACTORS
330
2A
102
}
330
2A
100
AcDbVisualStyle
  2
Shaded with edges
 70
    26
177
     3
291
     0
 70
    58
 90
        2
176
     1
 90
        2
176
     1
 90
        1
176
     1
 90
        2
176
     1
 40
0.6
176
     1
 40
30.0
176
     1
 62
     7
420
 16777215
176
     1
 90
        1
176
     1
 90
       10
176
     1
 62
     7
176
     1
 62
   257
176
     1
 90
        2
176
     1
 90
        1
176
     1
 40
1.0
176
     1
 90
        8
176
     1
 62
   257
176
     1
 40
1.0
176
     1
 90
        1
176
     1
 90
        6
176
     1
 90
        2
176
     1
 62
     7
176
     1
 90
        3
176
     1
 90
        0
176
     1
 90
        0
176
     1
290
     0
176
     1
 90
        5
176
     1
 40
0.0
176
     1
 90
        0
176
     1
290
     0
176
     1
290
     1
176
     1
290
     1
176
     1
290
     0
176
     1
290
     0
176
     1
290
     0
176
     1
290
     0
176
     1
290
     0
176
     1
290
     0
176
     1
 90
       50
176
     1
 40
0.0
176
     1
 40
1.0
176
     1
 90
        0
176
     1
 62
    18
420
        0
176
     1
 90
       50
176
     1
 90
        3
176
     1
 62
     5
420
      255
176
     1
290
     0
176
     1
 90
       50
176
     1
 90
       50
176
     1
 90
       50
176
     1
290
     0
176
     1
 90
       50
176
     1
 62
   256
176
     0
 40
1.0
176
     0
 90
        2
176
     1
  1
strokes_ogs.tif
176
     1
290
     0
176
     1
 40
1.0
176
     1
 40
1.0
176
     1
  0
VISUALSTYLE
  5
3E
102
{ACAD_REACTORS
330
2A
102
}
330
2A
100
AcDbVisualStyle
  2
Shades of Gray
 70
    23
177
     3
291
     0
 70
    58
 90
        2
176
     1
 90
        2
176
     1
 90
        3
176
     1
 90
        0
176
     1
 40
0.6
176
     1
 40
30.0
176
     1
 62
     7
420
 16777215
176
     1
 90
        2
176
     1
 90
        2
176
     1
 62
     7
176
     1
 62
     7
176
     1
 90
        1
176
     1
 90
        1
176
     1
 40
40.0
176
     1
 90
        8
176
     1
 62
     7
176
     1
 40
1.0
176
     1
 90
        1
176
     1
 90
        6
176
     1
 90
        2
176
     1
 62
     7
176
     1
 90
        3
176
     1
 90
        0
176
     1
 90
        0
176
     1
290
     0
176
     1
 90
        1
176
     1
 40
0.0
176
     1
 90
        0
176
     1
290
     0
176
     1
290
     1
176
     1
290
     1
176
     1
290
     0
176
     1
290
     0
176
     1
290
     0
176
     1
290
     0
176
     1
290
     0
176
     1
290
     0
176
     1
 90
       50
176
     1
 40
0.0
176
     1
 40
1.0
176
     1
 90
        0
176
     1
 62
    18
420
        0
176
     1
 90
       50
176
     1
 90
        3
176
     1
 62
     5
420
      255
176
     1
290
     0
176
     1
 90
       50
176
     1
 90
       50
176
     1
 90
       50
176
     1
290
     0
176
     1
 90
       50
176
     1
 62
   256
176
     0
 40
1.0
176
     0
 90
        2
176
     1
  1
strokes_ogs.tif
176
     1
290
     0
176
     1
 40
1.0
176
     1
 40
1.0
176
     1
  0
VISUALSTYLE
  5
3F
102
{ACAD_REACTORS
330
2A
102
}
330
2A
100
AcDbVisualStyle
  2
Sketchy
 70
    24
177
     3
291
     0
 70
    58
 90
        1
176
     1
 90
        2
176
     1
 90
        2
176
     1
 90
        0
176
     1
 40
0.6
176
     1
 40
30.0
176
     1
 62
     7
420
 16777215
176
     1
 90
        2
176
     1
 90
        2
176
     1
 62
     7
176
     1
 62
     7
176
     1
 90
        1
176
     1
 90
        1
176
     1
 40
40.0
176
     1
 90
       11
176
     1
 62
     7
176
     1
 40
1.0
176
     1
 90
        1
176
     1
 90
        6
176
     1
 90
        2
176
     1
 62
     7
176
     1
 90
        6
176
     1
 90
        0
176
     1
 90
        0
176
     1
290
     0
176
     1
 90
        1
176
     1
 40
0.0
176
     1
 90
        0
176
     1
290
     0
176
     1
290
     1
176
     1
290
     1
176
     1
290
     0
176
     1
290
     0
176
     1
290
     0
176
     1
290
     0
176
     1
290
     0
176
     1
290
     0
176
     1
 90
       50
176
     1
 40
0.0
176
     1
 40
1.0
176
     1
 90
        0
176
     1
 62
    18
420
        0
176
     1
 90
       50
176
     1
 90
        3
176
     1
 62
     5
420
      255
176
     1
290
     0
176
     1
 90
       50
176
     1
 90
       50
176
     1
 90
       50
176
     1
290
     0
176
     1
 90
       50
176
     1
 62
   256
176
     0
 40
1.0
176
     0
 90
        2
176
     1
  1
strokes_ogs.tif
176
     1
290
     0
176
     1
 40
1.0
176
     1
 40
1.0
176
     1
  0
VISUALSTYLE
  5
37
102
{ACAD_REACTORS
330
2A
102
}
330
2A
100
AcDbVisualStyle
  2
Thicken
 70
    13
177
     3
291
     1
 70
    58
 90
        2
176
     1
 90
        2
176
     1
 90
        0
176
     1
 90
        0
176
     1
 40
0.6
176
     1
 40
30.0
176
     1
 62
     7
420
 16777215
176
     1
 90
        1
176
     1
 90
        4
176
     1
 62
     7
176
     1
 62
   257
176
     1
 90
        1
176
     1
 90
        1
176
     1
 40
1.0
176
     1
 90
       12
176
     1
 62
     7
176
     1
 40
1.0
176
     1
 90
        1
176
     1
 90
        6
176
     1
 90
        2
176
     1
 62
     7
176
     1
 90
        5
176
     1
 90
        0
176
     1
 90
        0
176
     1
290
     0
176
     1
 90
        1
176
     1
 40
0.0
176
     1
 90
        0
176
     1
290
     0
176
     1
290
     1
176
     1
290
     1
176
     1
290
     0
176
     1
290
     0
176
     1
290
     0
176
     1
290
     0
176
     1
290
     0
176
     1
290
     0
176
     1
 90
       50
176
     1
 40
0.0
176
     1
 40
1.0
176
     1
 90
        0
176
     1
 62
    18
420
        0
176
     1
 90
       50
176
     1
 90
        3
176
     1
 62
     5
420
      255
176
     1
290
     0
176
     1
 90
       50
176
     1
 90
       50
176
     1
 90
       50
176
     1
290
     0
176
     1
 90
       50
176
     1
 62
   256
176
     0
 40
1.0
176
     0
 90
        2
176
     1
  1
strokes_ogs.tif
176
     1
290
     0
176
     1
 40
1.0
176
     1
 40
1.0
176
     1
  0
VISUALSTYLE
  5
30
102
{ACAD_REACTORS
330
2A
102
}
330
2A
100
AcDbVisualStyle
  2
Wireframe
 70
     5
177
     3
291
     0
 70
    58
 90
        0
176
     1
 90
        2
176
     1
 90
        0
176
     1
 90
        0
176
     1
 40
0.6
176
     1
 40
30.0
176
     1
 62
     7
420
 16777215
176
     1
 90
        1
176
     1
 90
        4
176
     1
 62
     7
176
     1
 62
   257
176
     1
 90
        1
176
     1
 90
        1
176
     1
 40
1.0
176
     1
 90
        0
176
     1
 62
   257
176
     1
 40
1.0
176
     1
 90
        1
176
     1
 90
        6
176
     1
 90
        2
176
     1
 62
     7
176
     1
 90
        3
176
     1
 90
        0
176
     1
 90
        0
176
     1
290
     0
176
     1
 90
        1
176
     1
 40
0.0
176
     1
 90
        0
176
     1
290
     0
176
     1
290
     1
176
     1
290
     1
176
     1
290
     0
176
     1
290
     0
176
     1
290
     0
176
     1
290
     0
176
     1
290
     0
176
     1
290
     0
176
     1
 90
       50
176
     1
 40
0.0
176
     1
 40
1.0
176
     1
 90
        0
176
     1
 62
    18
420
        0
176
     1
 90
       50
176
     1
 90
        3
176
     1
 62
     5
420
      255
176
     1
290
     0
176
     1
 90
       50
176
     1
 90
       50
176
     1
 90
       50
176
     1
290
     0
176
     1
 90
       50
176
     1
 62
   256
176
     0
 40
1.0
176
     0
 90
        2
176
     1
  1
strokes_ogs.tif
176
     1
290
     0
176
     1
 40
1.0
176
     1
 40
1.0
176
     1
  0
VISUALSTYLE
  5
40
102
{ACAD_REACTORS
330
2A
102
}
330
2A
100
AcDbVisualStyle
  2
X-Ray
 70
    25
177
     3
291
     0
 70
    58
 90
        2
176
     1
 90
        2
176
     1
 90
        1
176
     1
 90
        1
176
     1
 40
0.5
176
     1
 40
30.0
176
     1
 62
     7
420
 16777215
176
     1
 90
        1
176
     1
 90
        0
176
     1
 62
     7
176
     1
 62
   257
176
     1
 90
        1
176
     1
 90
        1
176
     1
 40
1.0
176
     1
 90
        8
176
     1
 62
     7
176
     1
 40
1.0
176
     1
 90
        1
176
     1
 90
        6
176
     1
 90
        2
176
     1
 62
     7
176
     1
 90
        3
176
     1
 90
        0
176
     1
 90
        0
176
     1
290
     0
176
     1
 90
       13
176
     1
 40
0.0
176
     1
 90
        0
176
     1
290
     0
176
     1
290
     1
176
     1
290
     1
176
     1
290
     0
176
     1
290
     0
176
     1
290
     0
176
     1
290
     0
176
     1
290
     0
176
     1
290
     0
176
     1
 90
       50
176
     1
 40
0.0
176
     1
 40
1.0
176
     1
 90
        0
176
     1
 62
    18
420
        0
176
     1
 90
       50
176
     1
 90
        3
176
     1
 62
     5
420
      255
176
     1
290
     0
176
     1
 90
       50
176
     1
 90
       50
176
     1
 90
       50
176
     1
290
     0
176
     1
 90
       50
176
     1
 62
   256
176
     0
 40
1.0
176
     0
 90
        2
176
     1
  1
strokes_ogs.tif
176
     1
290
     0
176
     1
 40
1.0
176
     1
 40
1.0
176
     1
  0
DICTIONARYVAR
  5
40E
102
{ACAD_REACTORS
330
40D
102
}
330
40D
100
DictionaryVariables
280
     0
  1
1:1
  0
DICTIONARYVAR
  5
413
102
{ACAD_REACTORS
330
40D
102
}
330
40D
100
DictionaryVariables
280
     0
  1
Standard
  0
DICTIONARYVAR
  5
412
102
{ACAD_REACTORS
330
40D
102
}
330
40D
100
DictionaryVariables
280
     0
  1
Standard
  0
DICTIONARYVAR
  5
416
102
{ACAD_REACTORS
330
40D
102
}
330
40D
100
DictionaryVariables
280
     0
  1
0
  0
DICTIONARY
  5
40F
330
6A
100
AcDbDictionary
280
     1
281
     1
  3
ACAD_ROUNDTRIP_2008_TABLESTYLE_CELLSTYLEMAP
360
410
  0
CELLSTYLEMAP
  5
410
102
{ACAD_REACTORS
330
40F
102
}
330
40F
100
AcDbCellStyleMap
 90
        3
300
CELLSTYLE
  1
TABLEFORMAT_BEGIN
 90
        5
170
     1
 91
        0
 92
    32768
 62
   257
 93
        1
300
CONTENTFORMAT
  1
CONTENTFORMAT_BEGIN
 90
        0
 91
        0
 92
        4
 93
        0
300

 40
0.0
140
1.0
 94
        5
 62
     0
340
11
144
0.25
309
CONTENTFORMAT_END
171
     1
301
MARGIN
  1
CELLMARGIN_BEGIN
 40
0.06
 40
0.06
 40
0.06
 40
0.06
 40
0.06
 40
0.06
309
CELLMARGIN_END
 94
        6
 95
        1
302
GRIDFORMAT
  1
GRIDFORMAT_BEGIN
 90
        0
 91
        1
 62
     0
 92
       -2
340
14
 93
        0
 40
0.045
309
GRIDFORMAT_END
 95
        2
302
GRIDFORMAT
  1
GRIDFORMAT_BEGIN
 90
        0
 91
        1
 62
     0
 92
       -2
340
14
 93
        0
 40
0.045
309
GRIDFORMAT_END
 95
        4
302
GRIDFORMAT
  1
GRIDFORMAT_BEGIN
 90
        0
 91
        1
 62
     0
 92
       -2
340
14
 93
        0
 40
0.045
309
GRIDFORMAT_END
 95
        8
302
GRIDFORMAT
  1
GRIDFORMAT_BEGIN
 90
        0
 91
        1
 62
     0
 92
       -2
340
14
 93
        0
 40
0.045
309
GRIDFORMAT_END
 95
       16
302
GRIDFORMAT
  1
GRIDFORMAT_BEGIN
 90
        0
 91
        1
 62
     0
 92
       -2
340
14
 93
        0
 40
0.045
309
GRIDFORMAT_END
 95
       32
302
GRIDFORMAT
  1
GRIDFORMAT_BEGIN
 90
        0
 91
        1
 62
     0
 92
       -2
340
14
 93
        0
 40
0.045
309
GRIDFORMAT_END
309
TABLEFORMAT_END
  1
CELLSTYLE_BEGIN
 90
        1
 91
        1
300
_TITLE
309
CELLSTYLE_END
300
CELLSTYLE
  1
TABLEFORMAT_BEGIN
 90
        5
170
     1
 91
        0
 92
        0
 62
   257
 93
        1
300
CONTENTFORMAT
  1
CONTENTFORMAT_BEGIN
 90
        0
 91
        0
 92
        4
 93
        0
300

 40
0.0
140
1.0
 94
        5
 62
     0
340
11
144
0.18
309
CONTENTFORMAT_END
171
     1
301
MARGIN
  1
CELLMARGIN_BEGIN
 40
0.06
 40
0.06
 40
0.06
 40
0.06
 40
0.06
 40
0.06
309
CELLMARGIN_END
 94
        6
 95
        1
302
GRIDFORMAT
  1
GRIDFORMAT_BEGIN
 90
        0
 91
        1
 62
     0
 92
       -2
340
14
 93
        0
 40
0.045
309
GRIDFORMAT_END
 95
        2
302
GRIDFORMAT
  1
GRIDFORMAT_BEGIN
 90
        0
 91
        1
 62
     0
 92
       -2
340
14
 93
        0
 40
0.045
309
GRIDFORMAT_END
 95
        4
302
GRIDFORMAT
  1
GRIDFORMAT_BEGIN
 90
        0
 91
        1
 62
     0
 92
       -2
340
14
 93
        0
 40
0.045
309
GRIDFORMAT_END
 95
        8
302
GRIDFORMAT
  1
GRIDFORMAT_BEGIN
 90
        0
 91
        1
 62
     0
 92
       -2
340
14
 93
        0
 40
0.045
309
GRIDFORMAT_END
 95
       16
302
GRIDFORMAT
  1
GRIDFORMAT_BEGIN
 90
        0
 91
        1
 62
     0
 92
       -2
340
14
 93
        0
 40
0.045
309
GRIDFORMAT_END
 95
       32
302
GRIDFORMAT
  1
GRIDFORMAT_BEGIN
 90
        0
 91
        1
 62
     0
 92
       -2
340
14
 93
        0
 40
0.045
309
GRIDFORMAT_END
309
TABLEFORMAT_END
  1
CELLSTYLE_BEGIN
 90
        2
 91
        1
300
_HEADER
309
CELLSTYLE_END
300
CELLSTYLE
  1
TABLEFORMAT_BEGIN
 90
        5
170
     1
 91
        0
 92
        0
 62
   257
 93
        1
300
CONTENTFORMAT
  1
CONTENTFORMAT_BEGIN
 90
        0
 91
        0
 92
        4
 93
        0
300

 40
0.0
140
1.0
 94
        2
 62
     0
340
11
144
0.18
309
CONTENTFORMAT_END
171
     1
301
MARGIN
  1
CELLMARGIN_BEGIN
 40
0.06
 40
0.06
 40
0.06
 40
0.06
 40
0.06
 40
0.06
309
CELLMARGIN_END
 94
        6
 95
        1
302
GRIDFORMAT
  1
GRIDFORMAT_BEGIN
 90
        0
 91
        1
 62
     0
 92
       -2
340
14
 93
        0
 40
0.045
309
GRIDFORMAT_END
 95
        2
302
GRIDFORMAT
  1
GRIDFORMAT_BEGIN
 90
        0
 91
        1
 62
     0
 92
       -2
340
14
 93
        0
 40
0.045
309
GRIDFORMAT_END
 95
        4
302
GRIDFORMAT
  1
GRIDFORMAT_BEGIN
 90
        0
 91
        1
 62
     0
 92
       -2
340
14
 93
        0
 40
0.045
309
GRIDFORMAT_END
 95
        8
302
GRIDFORMAT
  1
GRIDFORMAT_BEGIN
 90
        0
 91
        1
 62
     0
 92
       -2
340
14
 93
        0
 40
0.045
309
GRIDFORMAT_END
 95
       16
302
GRIDFORMAT
  1
GRIDFORMAT_BEGIN
 90
        0
 91
        1
 62
     0
 92
       -2
340
14
 93
        0
 40
0.045
309
GRIDFORMAT_END
 95
       32
302
GRIDFORMAT
  1
GRIDFORMAT_BEGIN
 90
        0
 91
        1
 62
     0
 92
       -2
340
14
 93
        0
 40
0.045
309
GRIDFORMAT_END
309
TABLEFORMAT_END
  1
CELLSTYLE_BEGIN
 90
        3
 91
        2
300
_DATA
309
CELLSTYLE_END
  0
ENDSEC
  0
EOF
