  0
SECTION
  2
HEADER
  9
$ACADVER
  1
AC1027
  9
$ACADMAINTVER
 70
   105
  9
$DWGCODEPAGE
  3
ANSI_1252
  9
$REQUIREDVERSIONS
160
                 0
  9
$INSBASE
 10
0.0
 20
0.0
 30
0.0
  9
$EXTMIN
 10
-474.4328742585185
 20
-3171.046099581818
 30
0.0
  9
$EXTMAX
 10
-80.43287425851489
 20
-2629.046099581818
 30
0.0
  9
$LIMMIN
 10
0.0
 20
0.0
  9
$LIMMAX
 10
12.0
 20
9.0
  9
$ORTHOMODE
 70
     0
  9
$REGENMODE
 70
     1
  9
$FILLMODE
 70
     1
  9
$QTEXTMODE
 70
     0
  9
$MIRRTEXT
 70
     1
  9
$LTSCALE
 40
2.0
  9
$ATTMODE
 70
     1
  9
$TEXTSIZE
 40
0.2
  9
$TRACEWID
 40
0.05
  9
$TEXTSTYLE
  7
Standard
  9
$CLAYER
  8
0
  9
$CELTYPE
  6
ByLayer
  9
$CECOLOR
 62
   256
  9
$CELTSCALE
 40
1.0
  9
$DISPSILH
 70
     0
  9
$DIMSCALE
 40
1.0
  9
$DIMASZ
 40
0.18
  9
$DIMEXO
 40
0.0625
  9
$DIMDLI
 40
0.38
  9
$DIMRND
 40
0.0
  9
$DIMDLE
 40
0.0
  9
$DIMEXE
 40
0.18
  9
$DIMTP
 40
0.0
  9
$DIMTM
 40
0.0
  9
$DIMTXT
 40
0.18
  9
$DIMCEN
 40
0.09
  9
$DIMTSZ
 40
0.0
  9
$DIMTOL
 70
     0
  9
$DIMLIM
 70
     0
  9
$DIMTIH
 70
     1
  9
$DIMTOH
 70
     1
  9
$DIMSE1
 70
     0
  9
$DIMSE2
 70
     0
  9
$DIMTAD
 70
     0
  9
$DIMZIN
 70
     0
  9
$DIMBLK
  1

  9
$DIMASO
 70
     1
  9
$DIMSHO
 70
     1
  9
$DIMPOST
  1

  9
$DIMAPOST
  1

  9
$DIMALT
 70
     0
  9
$DIMALTD
 70
     2
  9
$DIMALTF
 40
25.4
  9
$DIMLFAC
 40
1.0
  9
$DIMTOFL
 70
     1
  9
$DIMTVP
 40
0.0
  9
$DIMTIX
 70
     0
  9
$DIMSOXD
 70
     1
  9
$DIMSAH
 70
     0
  9
$DIMBLK1
  1

  9
$DIMBLK2
  1

  9
$DIMSTYLE
  2
Standard
  9
$DIMCLRD
 70
     0
  9
$DIMCLRE
 70
     0
  9
$DIMCLRT
 70
     0
  9
$DIMTFAC
 40
1.0
  9
$DIMGAP
 40
0.09
  9
$DIMJUST
 70
     0
  9
$DIMSD1
 70
     0
  9
$DIMSD2
 70
     0
  9
$DIMTOLJ
 70
     1
  9
$DIMTZIN
 70
     0
  9
$DIMALTZ
 70
     0
  9
$DIMALTTZ
 70
     0
  9
$DIMUPT
 70
     0
  9
$DIMDEC
 70
     4
  9
$DIMTDEC
 70
     4
  9
$DIMALTU
 70
     2
  9
$DIMALTTD
 70
     2
  9
$DIMTXSTY
  7
Standard
  9
$DIMAUNIT
 70
     0
  9
$DIMADEC
 70
     0
  9
$DIMALTRND
 40
0.0
  9
$DIMAZIN
 70
     0
  9
$DIMDSEP
 70
    46
  9
$DIMATFIT
 70
     3
  9
$DIMFRAC
 70
     0
  9
$DIMLDRBLK
  1

  9
$DIMLUNIT
 70
     2
  9
$DIMLWD
 70
    -2
  9
$DIMLWE
 70
    -2
  9
$DIMTMOVE
 70
     2
  9
$DIMFXL
 40
1.0
  9
$DIMFXLON
 70
     0
  9
$DIMJOGANG
 40
0.7853981633974483
  9
$DIMTFILL
 70
     0
  9
$DIMTFILLCLR
 70
     0
  9
$DIMARCSYM
 70
     0
  9
$DIMLTYPE
  6

  9
$DIMLTEX1
  6

  9
$DIMLTEX2
  6

  9
$DIMTXTDIRECTION
 70
     0
  9
$LUNITS
 70
     2
  9
$LUPREC
 70
     4
  9
$SKETCHINC
 40
0.1
  9
$FILLETRAD
 40
0.5
  9
$AUNITS
 70
     0
  9
$AUPREC
 70
     0
  9
$MENU
  1
.
  9
$ELEVATION
 40
0.0
  9
$PELEVATION
 40
0.0
  9
$THICKNESS
 40
0.0
  9
$LIMCHECK
 70
     0
  9
$CHAMFERA
 40
0.0
  9
$CHAMFERB
 40
0.0
  9
$CHAMFERC
 40
0.0
  9
$CHAMFERD
 40
0.0
  9
$SKPOLY
 70
     0
  9
$TDCREATE
 40
2459196.850087847
  9
$TDUCREATE
 40
2459196.808421181
  9
$TDUPDATE
 40
2459196.850101748
  9
$TDUUPDATE
 40
2459196.808435081
  9
$TDINDWG
 40
0.0000000116
  9
$TDUSRTIMER
 40
0.0000000116
  9
$USRTIMER
 70
     1
  9
$ANGBASE
 50
0.0
  9
$ANGDIR
 70
     0
  9
$PDMODE
 70
     0
  9
$PDSIZE
 40
0.0
  9
$PLINEWID
 40
0.0
  9
$SPLFRAME
 70
     0
  9
$SPLINETYPE
 70
     6
  9
$SPLINESEGS
 70
     8
  9
$HANDSEED
  5
423
  9
$SURFTAB1
 70
     6
  9
$SURFTAB2
 70
     6
  9
$SURFTYPE
 70
     6
  9
$SURFU
 70
     6
  9
$SURFV
 70
     6
  9
$UCSBASE
  2

  9
$UCSNAME
  2

  9
$UCSORG
 10
0.0
 20
0.0
 30
0.0
  9
$UCSXDIR
 10
1.0
 20
0.0
 30
0.0
  9
$UCSYDIR
 10
0.0
 20
1.0
 30
0.0
  9
$UCSORTHOREF
  2

  9
$UCSORTHOVIEW
 70
     0
  9
$UCSORGTOP
 10
0.0
 20
0.0
 30
0.0
  9
$UCSORGBOTTOM
 10
0.0
 20
0.0
 30
0.0
  9
$UCSORGLEFT
 10
0.0
 20
0.0
 30
0.0
  9
$UCSORGRIGHT
 10
0.0
 20
0.0
 30
0.0
  9
$UCSORGFRONT
 10
0.0
 20
0.0
 30
0.0
  9
$UCSORGBACK
 10
0.0
 20
0.0
 30
0.0
  9
$PUCSBASE
  2

  9
$PUCSNAME
  2

  9
$PUCSORG
 10
0.0
 20
0.0
 30
0.0
  9
$PUCSXDIR
 10
1.0
 20
0.0
 30
0.0
  9
$PUCSYDIR
 10
0.0
 20
1.0
 30
0.0
  9
$PUCSORTHOREF
  2

  9
$PUCSORTHOVIEW
 70
     0
  9
$PUCSORGTOP
 10
0.0
 20
0.0
 30
0.0
  9
$PUCSORGBOTTOM
 10
0.0
 20
0.0
 30
0.0
  9
$PUCSORGLEFT
 10
0.0
 20
0.0
 30
0.0
  9
$PUCSORGRIGHT
 10
0.0
 20
0.0
 30
0.0
  9
$PUCSORGFRONT
 10
0.0
 20
0.0
 30
0.0
  9
$PUCSORGBACK
 10
0.0
 20
0.0
 30
0.0
  9
$USERI1
 70
     0
  9
$USERI2
 70
     0
  9
$USERI3
 70
     0
  9
$USERI4
 70
     0
  9
$USERI5
 70
     0
  9
$USERR1
 40
0.0
  9
$USERR2
 40
0.0
  9
$USERR3
 40
0.0
  9
$USERR4
 40
0.0
  9
$USERR5
 40
0.0
  9
$WORLDVIEW
 70
     1
  9
$SHADEDGE
 70
     3
  9
$SHADEDIF
 70
    70
  9
$TILEMODE
 70
     1
  9
$MAXACTVP
 70
    64
  9
$PINSBASE
 10
0.0
 20
0.0
 30
0.0
  9
$PLIMCHECK
 70
     0
  9
$PEXTMIN
 10
0.0
 20
0.0
 30
0.0
  9
$PEXTMAX
 10
197.6
 20
271.6
 30
0.0
  9
$PLIMMIN
 10
-20.0
 20
-7.5
  9
$PLIMMAX
 10
277.0
 20
202.5
  9
$UNITMODE
 70
     0
  9
$VISRETAIN
 70
     1
  9
$PLINEGEN
 70
     0
  9
$PSLTSCALE
 70
     0
  9
$TREEDEPTH
 70
  3020
  9
$CMLSTYLE
  2
Standard
  9
$CMLJUST
 70
     0
  9
$CMLSCALE
 40
1.0
  9
$PROXYGRAPHICS
 70
     1
  9
$MEASUREMENT
 70
     1
  9
$CELWEIGHT
370
    -1
  9
$ENDCAPS
280
     0
  9
$JOINSTYLE
280
     0
  9
$LWDISPLAY
290
     0
  9
$INSUNITS
 70
     4
  9
$HYPERLINKBASE
  1

  9
$STYLESHEET
  1

  9
$XEDIT
290
     1
  9
$CEPSNTYPE
380
     0
  9
$PSTYLEMODE
290
     0
  9
$FINGERPRINTGUID
  2
{CF3B79A0-FB93-43A0-8B67-4369D41038FF}
  9
$VERSIONGUID
  2
{FAEB1C32-E019-11D5-929B-00C0DF256EC4}
  9
$EXTNAMES
290
     1
  9
$PSVPSCALE
 40
0.0
  9
$OLESTARTUP
290
     0
  9
$SORTENTS
280
   127
  9
$INDEXCTL
280
     0
  9
$HIDETEXT
280
     1
  9
$XCLIPFRAME
280
     2
  9
$HALOGAP
280
     0
  9
$OBSCOLOR
 70
   257
  9
$OBSLTYPE
280
     0
  9
$INTERSECTIONDISPLAY
280
     0
  9
$INTERSECTIONCOLOR
 70
   257
  9
$DIMASSOC
280
     2
  9
$PROJECTNAME
  1

  9
$CAMERADISPLAY
290
     0
  9
$LENSLENGTH
 40
50.0
  9
$CAMERAHEIGHT
 40
0.0
  9
$STEPSPERSEC
 40
2.0
  9
$STEPSIZE
 40
6.0
  9
$3DDWFPREC
 40
2.0
  9
$PSOLWIDTH
 40
0.25
  9
$PSOLHEIGHT
 40
4.0
  9
$LOFTANG1
 40
1.570796326794897
  9
$LOFTANG2
 40
1.570796326794897
  9
$LOFTMAG1
 40
0.0
  9
$LOFTMAG2
 40
0.0
  9
$LOFTPARAM
 70
     7
  9
$LOFTNORMALS
280
     1
  9
$LATITUDE
 40
37.795
  9
$LONGITUDE
 40
-122.394
  9
$NORTHDIRECTION
 40
0.0
  9
$TIMEZONE
 70
 -8000
  9
$LIGHTGLYPHDISPLAY
280
     1
  9
$TILEMODELIGHTSYNCH
280
     1
  9
$CMATERIAL
347
44
  9
$SOLIDHIST
280
     0
  9
$SHOWHIST
280
     1
  9
$DWFFRAME
280
     2
  9
$DGNFRAME
280
     2
  9
$REALWORLDSCALE
290
     1
  9
$INTERFERECOLOR
 62
   256
  9
$CSHADOW
280
     0
  9
$SHADOWPLANELOCATION
 40
0.0
  0
ENDSEC
  0
SECTION
  2
CLASSES
  0
CLASS
  1
ACDBDICTIONARYWDFLT
  2
AcDbDictionaryWithDefault
  3
ObjectDBX Classes
 90
        0
 91
        3
280
     0
281
     0
  0
CLASS
  1
VISUALSTYLE
  2
AcDbVisualStyle
  3
ObjectDBX Classes
 90
     4095
 91
        3
280
     0
281
     0
  0
CLASS
  1
MATERIAL
  2
AcDbMaterial
  3
ObjectDBX Classes
 90
     1153
 91
        3
280
     0
281
     0
  0
CLASS
  1
SCALE
  2
AcDbScale
  3
ObjectDBX Classes
 90
     1153
 91
        3
280
     0
281
     0
  0
CLASS
  1
TABLESTYLE
  2
AcDbTableStyle
  3
ObjectDBX Classes
 90
     4095
 91
        3
280
     0
281
     0
  0
CLASS
  1
MLEADERSTYLE
  2
AcDbMLeaderStyle
  3
ACDB_MLEADERSTYLE_CLASS
 90
     4095
 91
        3
280
     0
281
     0
  0
CLASS
  1
SUN
  2
AcDbSun
  3
SCENEOE
 90
     1153
 91
        3
280
     0
281
     0
  0
CLASS
  1
RASTERVARIABLES
  2
AcDbRasterVariables
  3
ISM
 90
        0
 91
        3
280
     0
281
     0
  0
CLASS
  1
PLOTSETTINGS
  2
AcDbPlotSettings
  3
ObjectDBX Classes
 90
        0
 91
        3
280
     0
281
     0
  0
CLASS
  1
IMAGEDEF
  2
AcDbRasterImageDef
  3
ISM
 90
        0
 91
        3
280
     0
281
     0
  0
CLASS
  1
IMAGE
  2
AcDbRasterImage
  3
ISM
 90
      127
 91
        4
280
     0
281
     1
  0
CLASS
  1
IMAGEDEF_REACTOR
  2
AcDbRasterImageDefReactor
  3
ISM
 90
        1
 91
        3
280
     0
281
     0
  0
CLASS
  1
DICTIONARYVAR
  2
AcDbDictionaryVar
  3
ObjectDBX Classes
 90
        0
 91
        3
280
     0
281
     0
  0
CLASS
  1
CELLSTYLEMAP
  2
AcDbCellStyleMap
  3
ObjectDBX Classes
 90
     1152
 91
        3
280
     0
281
     0
  0
ENDSEC
  0
SECTION
  2
TABLES
  0
TABLE
  2
VPORT
  5
8
330
0
100
AcDbSymbolTable
 70
     1
  0
VPORT
  5
29
330
8
100
AcDbSymbolTableRecord
100
AcDbViewportTableRecord
  2
*Active
 70
     0
 10
0.0
 20
0.0
 11
1.0
 21
1.0
 12
10.42990654205607
 22
4.5
 13
0.0
 23
0.0
 14
0.5
 24
0.5
 15
0.5
 25
0.5
 16
0.0
 26
0.0
 36
1.0
 17
0.0
 27
0.0
 37
0.0
 40
9.0
 41
1.972972972850329
 42
50.0
 43
0.0
 44
0.0
 50
0.0
 51
0.0
 71
     0
 72
   100
 73
     1
 74
     3
 75
     0
 76
     0
 77
     0
 78
     0
281
     0
 65
     1
110
0.0
120
0.0
130
0.0
111
1.0
121
0.0
131
0.0
112
0.0
122
1.0
132
0.0
 79
     0
146
0.0
348
2F
 60
     3
 61
     5
292
     1
282
     1
141
0.0
142
0.0
 63
   250
361
6D
  0
ENDTAB
  0
TABLE
  2
LTYPE
  5
5
330
0
100
AcDbSymbolTable
 70
     2
  0
LTYPE
  5
14
330
5
100
AcDbSymbolTableRecord
100
AcDbLinetypeTableRecord
  2
ByBlock
 70
     0
  3

 72
    65
 73
     0
 40
0.0
  0
LTYPE
  5
15
330
5
100
AcDbSymbolTableRecord
100
AcDbLinetypeTableRecord
  2
ByLayer
 70
     0
  3

 72
    65
 73
     0
 40
0.0
  0
LTYPE
  5
16
330
5
100
AcDbSymbolTableRecord
100
AcDbLinetypeTableRecord
  2
Continuous
 70
     0
  3
Solid line
 72
    65
 73
     0
 40
0.0
  0
LTYPE
  5
182
330
5
100
AcDbSymbolTableRecord
100
AcDbLinetypeTableRecord
  2
CADWORK_3
 70
     0
  3

 72
    65
 73
     2
 40
4.0
 49
2.0
 74
     0
 49
-2.0
 74
     0
  0
ENDTAB
  0
TABLE
  2
LAYER
  5
2
330
0
100
AcDbSymbolTable
 70
    19
  0
LAYER
  5
10
330
2
100
AcDbSymbolTableRecord
100
AcDbLayerTableRecord
  2
0
 70
     0
 62
     7
  6
Continuous
370
    -3
390
F
347
46
348
0
  0
LAYER
  5
70
330
2
100
AcDbSymbolTableRecord
100
AcDbLayerTableRecord
  2
Standard
 70
     0
 62
     7
  6
Continuous
370
    -3
390
F
347
46
348
0
  0
LAYER
  5
71
330
2
100
AcDbSymbolTableRecord
100
AcDbLayerTableRecord
  2
Ech.1_1
 70
     0
 62
     7
  6
Continuous
370
    -3
390
F
347
46
348
0
  0
LAYER
  5
72
330
2
100
AcDbSymbolTableRecord
100
AcDbLayerTableRecord
  2
Ech.1_2
 70
     0
 62
     7
  6
Continuous
370
    -3
390
F
347
46
348
0
  0
LAYER
  5
73
330
2
100
AcDbSymbolTableRecord
100
AcDbLayerTableRecord
  2
Ech.1_5
 70
     0
 62
     7
  6
Continuous
370
    -3
390
F
347
46
348
0
  0
LAYER
  5
74
330
2
100
AcDbSymbolTableRecord
100
AcDbLayerTableRecord
  2
Ech.1_10
 70
     0
 62
     7
  6
Continuous
370
    -3
390
F
347
46
348
0
  0
LAYER
  5
75
330
2
100
AcDbSymbolTableRecord
100
AcDbLayerTableRecord
  2
Ech.1_20
 70
     0
 62
     7
  6
Continuous
370
    -3
390
F
347
46
348
0
  0
LAYER
  5
76
330
2
100
AcDbSymbolTableRecord
100
AcDbLayerTableRecord
  2
Ech.1_25
 70
     0
 62
     7
  6
Continuous
370
    -3
390
F
347
46
348
0
  0
LAYER
  5
77
330
2
100
AcDbSymbolTableRecord
100
AcDbLayerTableRecord
  2
Ech.1_33
 70
     0
 62
     7
  6
Continuous
370
    -3
390
F
347
46
348
0
  0
LAYER
  5
78
330
2
100
AcDbSymbolTableRecord
100
AcDbLayerTableRecord
  2
Ech.1_50
 70
     0
 62
     7
  6
Continuous
370
    -3
390
F
347
46
348
0
  0
LAYER
  5
79
330
2
100
AcDbSymbolTableRecord
100
AcDbLayerTableRecord
  2
Ech.1_75
 70
     0
 62
     7
  6
Continuous
370
    -3
390
F
347
46
348
0
  0
LAYER
  5
7A
330
2
100
AcDbSymbolTableRecord
100
AcDbLayerTableRecord
  2
Ech.1_100
 70
     0
 62
     7
  6
Continuous
370
    -3
390
F
347
46
348
0
  0
LAYER
  5
7B
330
2
100
AcDbSymbolTableRecord
100
AcDbLayerTableRecord
  2
Ech.1_200
 70
     0
 62
     7
  6
Continuous
370
    -3
390
F
347
46
348
0
  0
LAYER
  5
7C
330
2
100
AcDbSymbolTableRecord
100
AcDbLayerTableRecord
  2
Ech.1_500
 70
     0
 62
     7
  6
Continuous
370
    -3
390
F
347
46
348
0
  0
LAYER
  5
7D
330
2
100
AcDbSymbolTableRecord
100
AcDbLayerTableRecord
  2
Ech.1_1000
 70
     0
 62
     7
  6
Continuous
370
    -3
390
F
347
46
348
0
  0
LAYER
  5
7E
330
2
100
AcDbSymbolTableRecord
100
AcDbLayerTableRecord
  2
Cadres traceur
 70
     0
 62
     7
  6
Continuous
370
    -3
390
F
347
46
348
0
  0
LAYER
  5
7F
330
2
100
AcDbSymbolTableRecord
100
AcDbLayerTableRecord
  2
Cadres laser
 70
     0
 62
     7
  6
Continuous
370
    -3
390
F
347
46
348
0
  0
LAYER
  5
80
330
2
100
AcDbSymbolTableRecord
100
AcDbLayerTableRecord
  2
Légende d_aide
 70
     0
 62
     7
  6
Continuous
370
    -3
390
F
347
46
348
0
  0
LAYER
  5
3CF
330
2
100
AcDbSymbolTableRecord
100
AcDbLayerTableRecord
  2
Defpoints
 70
     0
 62
     7
  6
Continuous
290
     0
370
    -3
390
F
347
46
348
0
  0
ENDTAB
  0
TABLE
  2
STYLE
  5
3
330
0
100
AcDbSymbolTable
 70
    10
  0
STYLE
  5
11
330
3
100
AcDbSymbolTableRecord
100
AcDbTextStyleTableRecord
  2
Standard
 70
     0
 40
0.0
 41
1.0
 50
0.0
 71
     0
 42
0.2
  3
txt
  4

  0
STYLE
  5
81
330
3
100
AcDbSymbolTableRecord
100
AcDbTextStyleTableRecord
  2
CwStyleShx
 70
     0
 40
1.0
 41
1.0
 50
0.0
 71
     0
 42
0.2
  3

  4

  0
STYLE
  5
82
330
3
100
AcDbSymbolTableRecord
100
AcDbTextStyleTableRecord
  2
CwStyleShx16
 70
     0
 40
1.0
 41
1.0
 50
0.0
 71
     0
 42
0.2
  3

  4

  0
STYLE
  5
83
330
3
100
AcDbSymbolTableRecord
100
AcDbTextStyleTableRecord
  2
MONOTXT
 70
     0
 40
0.0
 41
1.0
 50
0.0
 71
     0
 42
0.2
  3
MONOTXT
  4

  0
STYLE
  5
84
330
3
100
AcDbSymbolTableRecord
100
AcDbTextStyleTableRecord
  2
SYMAP
 70
     0
 40
1.0
 41
1.0
 50
0.0
 71
     0
 42
0.2
  3
SYMAP
  4

  0
STYLE
  5
85
330
3
100
AcDbSymbolTableRecord
100
AcDbTextStyleTableRecord
  2
CwStyleTtf
 70
     0
 40
1.0
 41
1.0
 50
0.0
 71
     0
 42
0.2
  3
arial.ttf
  4

  0
STYLE
  5
3CC
330
3
100
AcDbSymbolTableRecord
100
AcDbTextStyleTableRecord
  2
arial-z
 70
     0
 40
0.0
 41
1.0
 50
0.0
 71
     0
 42
0.2
  3
arial.ttf
  4

1001
ACAD
1000
Arial
1071
        0
  0
STYLE
  5
3FA
330
3
100
AcDbSymbolTableRecord
100
AcDbTextStyleTableRecord
  2
arial-
 70
     0
 40
1.0
 41
1.0
 50
0.0
 71
     0
 42
0.2
  3

  4

1001
ACAD
1000
Arial
1071
        0
  0
STYLE
  5
3FD
330
3
100
AcDbSymbolTableRecord
100
AcDbTextStyleTableRecord
  2
arial-b
 70
     0
 40
1.0
 41
1.0
 50
0.0
 71
     0
 42
0.2
  3
arialbd.ttf
  4

1001
ACAD
1000
Arial
1071
 33554432
  0
STYLE
  5
3FF
330
3
100
AcDbSymbolTableRecord
100
AcDbTextStyleTableRecord
  2
tahoma-b
 70
     0
 40
1.0
 41
1.0
 50
0.0
 71
     0
 42
0.2
  3
tahomabd.ttf
  4

1001
ACAD
1000
Tahoma
1071
 33554432
  0
ENDTAB
  0
TABLE
  2
VIEW
  5
6
330
0
100
AcDbSymbolTable
 70
     0
  0
ENDTAB
  0
TABLE
  2
UCS
  5
7
330
0
100
AcDbSymbolTable
 70
     0
  0
ENDTAB
  0
TABLE
  2
APPID
  5
9
330
0
100
AcDbSymbolTable
 70
     3
  0
APPID
  5
12
330
9
100
AcDbSymbolTableRecord
100
AcDbRegAppTableRecord
  2
ACAD
 70
     0
  0
APPID
  5
6E
330
9
100
AcDbSymbolTableRecord
100
AcDbRegAppTableRecord
  2
Cadwork
 70
     0
  0
APPID
  5
232
330
9
100
AcDbSymbolTableRecord
100
AcDbRegAppTableRecord
  2
PLOTTRANSPARENCY
 70
     0
  0
ENDTAB
  0
TABLE
  2
DIMSTYLE
  5
A
330
0
100
AcDbSymbolTable
 70
     1
100
AcDbDimStyleTable
  0
DIMSTYLE
105
27
102
{ACAD_REACTORS
330
3CD
330
3DE
102
}
330
A
100
AcDbSymbolTableRecord
100
AcDbDimStyleTableRecord
  2
Standard
 70
     0
178
     0
340
11
  0
ENDTAB
  0
TABLE
  2
BLOCK_RECORD
  5
1
330
0
100
AcDbSymbolTable
 70
    71
  0
BLOCK_RECORD
  5
1F
330
1
100
AcDbSymbolTableRecord
100
AcDbBlockTableRecord
  2
*Model_Space
340
22
 70
     0
280
     1
281
     0
  0
BLOCK_RECORD
  5
22D
330
1
100
AcDbSymbolTableRecord
100
AcDbBlockTableRecord
  2
*Paper_Space
340
22E
 70
     0
280
     1
281
     0
  0
BLOCK_RECORD
  5
86
330
1
100
AcDbSymbolTableRecord
100
AcDbBlockTableRecord
  2
CDWK_PTTYP1
340
0
 70
     0
280
     1
281
     1
  0
BLOCK_RECORD
  5
8D
330
1
100
AcDbSymbolTableRecord
100
AcDbBlockTableRecord
  2
CDWK_PTTYP2
340
0
 70
     0
280
     1
281
     1
  0
BLOCK_RECORD
  5
92
330
1
100
AcDbSymbolTableRecord
100
AcDbBlockTableRecord
  2
CDWK_PTTYP4
340
0
 70
     0
280
     1
281
     1
  0
BLOCK_RECORD
  5
96
330
1
100
AcDbSymbolTableRecord
100
AcDbBlockTableRecord
  2
CDWK_PTTYP5
340
0
 70
     0
280
     1
281
     1
  0
BLOCK_RECORD
  5
9F
330
1
100
AcDbSymbolTableRecord
100
AcDbBlockTableRecord
  2
CDWK_PTTYP6
340
0
 70
     0
280
     1
281
     1
  0
BLOCK_RECORD
  5
A7
330
1
100
AcDbSymbolTableRecord
100
AcDbBlockTableRecord
  2
CDWK_PTTYP7
340
0
 70
     0
280
     1
281
     1
  0
BLOCK_RECORD
  5
B0
330
1
100
AcDbSymbolTableRecord
100
AcDbBlockTableRecord
  2
CDWK_PTTYP8
340
0
 70
     0
280
     1
281
     1
  0
BLOCK_RECORD
  5
B4
330
1
100
AcDbSymbolTableRecord
100
AcDbBlockTableRecord
  2
CDWK_PTTYP9
340
0
 70
     0
280
     1
281
     1
  0
BLOCK_RECORD
  5
B9
330
1
100
AcDbSymbolTableRecord
100
AcDbBlockTableRecord
  2
CDWK_PTTYP10
340
0
 70
     0
280
     1
281
     1
  0
BLOCK_RECORD
  5
BD
330
1
100
AcDbSymbolTableRecord
100
AcDbBlockTableRecord
  2
CDWK_PTTYP11
340
0
 70
     0
280
     1
281
     1
  0
BLOCK_RECORD
  5
C2
330
1
100
AcDbSymbolTableRecord
100
AcDbBlockTableRecord
  2
CDWK_PTTYP12
340
0
 70
     0
280
     1
281
     1
  0
BLOCK_RECORD
  5
C7
330
1
100
AcDbSymbolTableRecord
100
AcDbBlockTableRecord
  2
CDWK_PTTYP13
340
0
 70
     0
280
     1
281
     1
  0
BLOCK_RECORD
  5
CD
330
1
100
AcDbSymbolTableRecord
100
AcDbBlockTableRecord
  2
CDWK_PTTYP16
340
0
 70
     0
280
     1
281
     1
  0
BLOCK_RECORD
  5
D4
330
1
100
AcDbSymbolTableRecord
100
AcDbBlockTableRecord
  2
CDWK_PTTYP17
340
0
 70
     0
280
     1
281
     1
  0
BLOCK_RECORD
  5
D9
330
1
100
AcDbSymbolTableRecord
100
AcDbBlockTableRecord
  2
CDWK_PTTYP18
340
0
 70
     0
280
     1
281
     1
  0
BLOCK_RECORD
  5
DE
330
1
100
AcDbSymbolTableRecord
100
AcDbBlockTableRecord
  2
CDWK_PTTYP19
340
0
 70
     0
280
     1
281
     1
  0
BLOCK_RECORD
  5
E4
330
1
100
AcDbSymbolTableRecord
100
AcDbBlockTableRecord
  2
CDWK_PTTYP20
340
0
 70
     0
280
     1
281
     1
  0
BLOCK_RECORD
  5
E9
330
1
100
AcDbSymbolTableRecord
100
AcDbBlockTableRecord
  2
CDWK_PTTYP21
340
0
 70
     0
280
     1
281
     1
  0
BLOCK_RECORD
  5
EE
330
1
100
AcDbSymbolTableRecord
100
AcDbBlockTableRecord
  2
CDWK_PTTYP25
340
0
 70
     0
280
     1
281
     1
  0
BLOCK_RECORD
  5
F5
330
1
100
AcDbSymbolTableRecord
100
AcDbBlockTableRecord
  2
CDWK_PTTYP26
340
0
 70
     0
280
     1
281
     1
  0
BLOCK_RECORD
  5
FC
330
1
100
AcDbSymbolTableRecord
100
AcDbBlockTableRecord
  2
CDWK_PTTYP27
340
0
 70
     0
280
     1
281
     1
  0
BLOCK_RECORD
  5
104
330
1
100
AcDbSymbolTableRecord
100
AcDbBlockTableRecord
  2
CDWK_PTTYP28
340
0
 70
     0
280
     1
281
     1
  0
BLOCK_RECORD
  5
10B
330
1
100
AcDbSymbolTableRecord
100
AcDbBlockTableRecord
  2
CDWK_PTTYP29
340
0
 70
     0
280
     1
281
     1
  0
BLOCK_RECORD
  5
111
330
1
100
AcDbSymbolTableRecord
100
AcDbBlockTableRecord
  2
CDWK_PTTYP30
340
0
 70
     0
280
     1
281
     1
  0
BLOCK_RECORD
  5
118
330
1
100
AcDbSymbolTableRecord
100
AcDbBlockTableRecord
  2
CDWK_PTTYP31
340
0
 70
     0
280
     1
281
     1
  0
BLOCK_RECORD
  5
120
330
1
100
AcDbSymbolTableRecord
100
AcDbBlockTableRecord
  2
CDWK_PTTYP32
340
0
 70
     0
280
     1
281
     1
  0
BLOCK_RECORD
  5
129
330
1
100
AcDbSymbolTableRecord
100
AcDbBlockTableRecord
  2
CDWK_PTTYP33
340
0
 70
     0
280
     1
281
     1
  0
BLOCK_RECORD
  5
12F
330
1
100
AcDbSymbolTableRecord
100
AcDbBlockTableRecord
  2
CDWK_PTTYP34
340
0
 70
     0
280
     1
281
     1
  0
BLOCK_RECORD
  5
135
330
1
100
AcDbSymbolTableRecord
100
AcDbBlockTableRecord
  2
CDWK_PTTYP35
340
0
 70
     0
280
     1
281
     1
  0
BLOCK_RECORD
  5
13B
330
1
100
AcDbSymbolTableRecord
100
AcDbBlockTableRecord
  2
CDWK_PTTYP36
340
0
 70
     0
280
     1
281
     1
  0
BLOCK_RECORD
  5
143
330
1
100
AcDbSymbolTableRecord
100
AcDbBlockTableRecord
  2
CDWK_PTTYP37
340
0
 70
     0
280
     1
281
     1
  0
BLOCK_RECORD
  5
148
330
1
100
AcDbSymbolTableRecord
100
AcDbBlockTableRecord
  2
CDWK_PTTYP38
340
0
 70
     0
280
     1
281
     1
  0
BLOCK_RECORD
  5
14E
330
1
100
AcDbSymbolTableRecord
100
AcDbBlockTableRecord
  2
CDWK_PTTYP41
340
0
 70
     0
280
     1
281
     1
  0
BLOCK_RECORD
  5
158
330
1
100
AcDbSymbolTableRecord
100
AcDbBlockTableRecord
  2
CDWK_PTTYP42
340
0
 70
     0
280
     1
281
     1
  0
BLOCK_RECORD
  5
161
330
1
100
AcDbSymbolTableRecord
100
AcDbBlockTableRecord
  2
CDWK_PTTYP43
340
0
 70
     0
280
     1
281
     1
  0
BLOCK_RECORD
  5
167
330
1
100
AcDbSymbolTableRecord
100
AcDbBlockTableRecord
  2
CDWK_PTTYP44
340
0
 70
     0
280
     1
281
     1
  0
BLOCK_RECORD
  5
170
330
1
100
AcDbSymbolTableRecord
100
AcDbBlockTableRecord
  2
CDWK_PTTYP45
340
0
 70
     0
280
     1
281
     1
  0
BLOCK_RECORD
  5
175
330
1
100
AcDbSymbolTableRecord
100
AcDbBlockTableRecord
  2
CDWK_PTTYP46
340
0
 70
     0
280
     1
281
     1
  0
BLOCK_RECORD
  5
17A
330
1
100
AcDbSymbolTableRecord
100
AcDbBlockTableRecord
  2
CDWK_PTTYP47
340
0
 70
     0
280
     1
281
     1
  0
BLOCK_RECORD
  5
183
330
1
100
AcDbSymbolTableRecord
100
AcDbBlockTableRecord
  2
CDWK_PTTYP48
340
0
 70
     0
280
     1
281
     1
  0
BLOCK_RECORD
  5
188
330
1
100
AcDbSymbolTableRecord
100
AcDbBlockTableRecord
  2
CDWK_PTTYP49
340
0
 70
     0
280
     1
281
     1
  0
BLOCK_RECORD
  5
18F
330
1
100
AcDbSymbolTableRecord
100
AcDbBlockTableRecord
  2
CDWK_PTTYP50
340
0
 70
     0
280
     1
281
     1
  0
BLOCK_RECORD
  5
199
330
1
100
AcDbSymbolTableRecord
100
AcDbBlockTableRecord
  2
CDWK_PTTYP51
340
0
 70
     0
280
     1
281
     1
  0
BLOCK_RECORD
  5
19E
330
1
100
AcDbSymbolTableRecord
100
AcDbBlockTableRecord
  2
CDWK_PTTYP52
340
0
 70
     0
280
     1
281
     1
  0
BLOCK_RECORD
  5
1A4
330
1
100
AcDbSymbolTableRecord
100
AcDbBlockTableRecord
  2
cw-dimension-symbol1
340
0
 70
     0
280
     1
281
     0
  0
BLOCK_RECORD
  5
1AB
330
1
100
AcDbSymbolTableRecord
100
AcDbBlockTableRecord
  2
cw-dimension-symbol2
340
0
102
{BLKREFS
331
3D9
331
3D8
331
3E9
331
3E8
102
}
 70
     0
280
     1
281
     0
  0
BLOCK_RECORD
  5
1B0
330
1
100
AcDbSymbolTableRecord
100
AcDbBlockTableRecord
  2
cw-dimension-symbol3
340
0
 70
     0
280
     1
281
     0
  0
BLOCK_RECORD
  5
1B5
330
1
100
AcDbSymbolTableRecord
100
AcDbBlockTableRecord
  2
cw-dimension-symbol5
340
0
 70
     0
280
     1
281
     0
  0
BLOCK_RECORD
  5
1BC
330
1
100
AcDbSymbolTableRecord
100
AcDbBlockTableRecord
  2
cw-dimension-symbol6
340
0
 70
     0
280
     1
281
     0
  0
BLOCK_RECORD
  5
1C2
330
1
100
AcDbSymbolTableRecord
100
AcDbBlockTableRecord
  2
cw-dimension-symbol11
340
0
 70
     0
280
     1
281
     0
  0
BLOCK_RECORD
  5
1C8
330
1
100
AcDbSymbolTableRecord
100
AcDbBlockTableRecord
  2
cw-dimension-symbol13
340
0
 70
     0
280
     1
281
     0
  0
BLOCK_RECORD
  5
1CE
330
1
100
AcDbSymbolTableRecord
100
AcDbBlockTableRecord
  2
cw-dimension-symbol15
340
0
 70
     0
280
     1
281
     0
  0
BLOCK_RECORD
  5
1D5
330
1
100
AcDbSymbolTableRecord
100
AcDbBlockTableRecord
  2
cw-dimension-symbol16
340
0
 70
     0
280
     1
281
     0
  0
BLOCK_RECORD
  5
1DC
330
1
100
AcDbSymbolTableRecord
100
AcDbBlockTableRecord
  2
cw-dimension-symbol17
340
0
 70
     0
280
     1
281
     0
  0
BLOCK_RECORD
  5
1E3
330
1
100
AcDbSymbolTableRecord
100
AcDbBlockTableRecord
  2
cw-dimension-symbol18
340
0
 70
     0
280
     1
281
     0
  0
BLOCK_RECORD
  5
1EA
330
1
100
AcDbSymbolTableRecord
100
AcDbBlockTableRecord
  2
cw-dimension-symbol19
340
0
 70
     0
280
     1
281
     0
  0
BLOCK_RECORD
  5
1ED
330
1
100
AcDbSymbolTableRecord
100
AcDbBlockTableRecord
  2
cw-dimension-symbol20
340
0
 70
     0
280
     1
281
     0
  0
BLOCK_RECORD
  5
1F4
330
1
100
AcDbSymbolTableRecord
100
AcDbBlockTableRecord
  2
cw-dimension-symbol21
340
0
 70
     0
280
     1
281
     0
  0
BLOCK_RECORD
  5
1FB
330
1
100
AcDbSymbolTableRecord
100
AcDbBlockTableRecord
  2
cw-line-extremity0
340
0
 70
     0
280
     1
281
     0
  0
BLOCK_RECORD
  5
1FF
330
1
100
AcDbSymbolTableRecord
100
AcDbBlockTableRecord
  2
cw-line-extremity2
340
0
 70
     0
280
     1
281
     0
  0
BLOCK_RECORD
  5
204
330
1
100
AcDbSymbolTableRecord
100
AcDbBlockTableRecord
  2
cw-line-extremity3
340
0
 70
     0
280
     1
281
     0
  0
BLOCK_RECORD
  5
209
330
1
100
AcDbSymbolTableRecord
100
AcDbBlockTableRecord
  2
cw-line-extremity301
340
0
 70
     0
280
     1
281
     0
  0
BLOCK_RECORD
  5
20B
330
1
100
AcDbSymbolTableRecord
100
AcDbBlockTableRecord
  2
cw-line-extremity4
340
0
102
{BLKREFS
331
3BC
331
3BE
331
3C0
331
3C3
331
3C5
331
3CB
102
}
 70
     0
280
     1
281
     0
  0
BLOCK_RECORD
  5
20D
330
1
100
AcDbSymbolTableRecord
100
AcDbBlockTableRecord
  2
cw-line-extremity5
340
0
 70
     0
280
     1
281
     0
  0
BLOCK_RECORD
  5
20F
330
1
100
AcDbSymbolTableRecord
100
AcDbBlockTableRecord
  2
cw-line-extremity6
340
0
 70
     0
280
     1
281
     0
  0
BLOCK_RECORD
  5
211
330
1
100
AcDbSymbolTableRecord
100
AcDbBlockTableRecord
  2
cw-line-extremity9
340
0
 70
     0
280
     1
281
     0
  0
BLOCK_RECORD
  5
213
330
1
100
AcDbSymbolTableRecord
100
AcDbBlockTableRecord
  2
cw-line-extremity10
340
0
 70
     0
280
     1
281
     0
  0
BLOCK_RECORD
  5
215
330
1
100
AcDbSymbolTableRecord
100
AcDbBlockTableRecord
  2
cw-line-extremity1
340
0
 70
     0
280
     1
281
     0
  0
BLOCK_RECORD
  5
1B
330
1
100
AcDbSymbolTableRecord
100
AcDbBlockTableRecord
  2
*Paper_Space69
340
1E
 70
     0
280
     1
281
     0
  0
BLOCK_RECORD
  5
3D0
330
1
100
AcDbSymbolTableRecord
100
AcDbBlockTableRecord
  2
*D70
340
0
 70
     0
280
     1
281
     0
  0
BLOCK_RECORD
  5
3E0
330
1
100
AcDbSymbolTableRecord
100
AcDbBlockTableRecord
  2
*D71
340
0
 70
     0
280
     1
281
     0
  0
ENDTAB
  0
ENDSEC
  0
SECTION
  2
BLOCKS
  0
BLOCK
  5
20
330
1F
100
AcDbEntity
  8
0
100
AcDbBlockBegin
  2
*Model_Space
 70
     0
 10
0.0
 20
0.0
 30
0.0
  3
*Model_Space
  1

  0
ENDBLK
  5
21
330
1F
100
AcDbEntity
  8
0
100
AcDbBlockEnd
  0
BLOCK
  5
22F
330
22D
100
AcDbEntity
 67
     1
  8
0
100
AcDbBlockBegin
  2
*Paper_Space
 70
     0
 10
0.0
 20
0.0
 30
0.0
  3
*Paper_Space
  1

  0
ENDBLK
  5
230
330
22D
100
AcDbEntity
 67
     1
  8
0
100
AcDbBlockEnd
  0
BLOCK
  5
8B
330
86
100
AcDbEntity
  8
0
100
AcDbBlockBegin
  2
CDWK_PTTYP1
 70
     0
 10
0.0
 20
0.0
 30
0.0
  3
CDWK_PTTYP1
  1

  0
LINE
  5
87
330
86
100
AcDbEntity
  8
0
 62
     0
370
    -2
100
AcDbLine
 10
-0.5
 20
0.5
 30
0.0
 11
0.5
 21
0.5
 31
0.0
  0
LINE
  5
88
330
86
100
AcDbEntity
  8
0
 62
     0
370
    -2
100
AcDbLine
 10
0.5
 20
0.5
 30
0.0
 11
0.5
 21
-0.5
 31
0.0
  0
LINE
  5
89
330
86
100
AcDbEntity
  8
0
 62
     0
370
    -2
100
AcDbLine
 10
0.5
 20
-0.5
 30
0.0
 11
-0.5
 21
-0.5
 31
0.0
  0
LINE
  5
8A
330
86
100
AcDbEntity
  8
0
 62
     0
370
    -2
100
AcDbLine
 10
-0.5
 20
-0.5
 30
0.0
 11
-0.5
 21
0.5
 31
0.0
  0
ENDBLK
  5
8C
330
86
100
AcDbEntity
  8
0
100
AcDbBlockEnd
  0
BLOCK
  5
90
330
8D
100
AcDbEntity
  8
0
100
AcDbBlockBegin
  2
CDWK_PTTYP2
 70
     0
 10
0.0
 20
0.0
 30
0.0
  3
CDWK_PTTYP2
  1

  0
LINE
  5
8E
330
8D
100
AcDbEntity
  8
0
 62
     0
370
    -2
100
AcDbLine
 10
0.0
 20
0.5
 30
0.0
 11
0.0
 21
-0.5
 31
0.0
  0
LINE
  5
8F
330
8D
100
AcDbEntity
  8
0
 62
     0
370
    -2
100
AcDbLine
 10
0.5
 20
0.0
 30
0.0
 11
-0.5
 21
0.0
 31
0.0
  0
ENDBLK
  5
91
330
8D
100
AcDbEntity
  8
0
100
AcDbBlockEnd
  0
BLOCK
  5
94
330
92
100
AcDbEntity
  8
0
100
AcDbBlockBegin
  2
CDWK_PTTYP4
 70
     0
 10
0.0
 20
0.0
 30
0.0
  3
CDWK_PTTYP4
  1

  0
HATCH
  5
93
330
92
100
AcDbEntity
  8
0
 62
     0
370
    -2
100
AcDbHatch
 10
0.0
 20
0.0
 30
0.0
210
0.0
220
0.0
230
1.0
  2
SOLID
 70
     1
 71
     1
 91
        1
 92
        1
 93
        1
 72
     2
 10
0.0
 20
0.0
 40
0.5
 50
0.0
 51
360.0
 73
     1
 97
        0
 75
     0
 76
     1
 98
        0
  0
ENDBLK
  5
95
330
92
100
AcDbEntity
  8
0
100
AcDbBlockEnd
  0
BLOCK
  5
9D
330
96
100
AcDbEntity
  8
0
100
AcDbBlockBegin
  2
CDWK_PTTYP5
 70
     0
 10
0.0
 20
0.0
 30
0.0
  3
CDWK_PTTYP5
  1

  0
LINE
  5
97
330
96
100
AcDbEntity
  8
0
 62
     0
370
    -2
100
AcDbLine
 10
-0.5
 20
0.5
 30
0.0
 11
0.5
 21
0.5
 31
0.0
  0
LINE
  5
98
330
96
100
AcDbEntity
  8
0
 62
     0
370
    -2
100
AcDbLine
 10
0.5
 20
0.5
 30
0.0
 11
0.5
 21
-0.5
 31
0.0
  0
LINE
  5
99
330
96
100
AcDbEntity
  8
0
 62
     0
370
    -2
100
AcDbLine
 10
0.5
 20
-0.5
 30
0.0
 11
-0.5
 21
-0.5
 31
0.0
  0
LINE
  5
9A
330
96
100
AcDbEntity
  8
0
 62
     0
370
    -2
100
AcDbLine
 10
-0.5
 20
-0.5
 30
0.0
 11
-0.5
 21
0.5
 31
0.0
  0
HATCH
  5
9B
330
96
100
AcDbEntity
  8
0
 62
     0
370
    -2
100
AcDbHatch
 10
0.0
 20
0.0
 30
0.0
210
0.0
220
0.0
230
1.0
  2
SOLID
 70
     1
 71
     1
 91
        1
 92
        3
 72
     0
 73
     1
 93
        4
 10
-0.5
 20
0.0
 10
0.0
 20
0.0
 10
0.0
 20
-0.5
 10
-0.5
 20
-0.5
 97
        0
 75
     0
 76
     1
 98
        0
  0
HATCH
  5
9C
330
96
100
AcDbEntity
  8
0
 62
     0
370
    -2
100
AcDbHatch
 10
0.0
 20
0.0
 30
0.0
210
0.0
220
0.0
230
1.0
  2
SOLID
 70
     1
 71
     1
 91
        1
 92
        3
 72
     0
 73
     1
 93
        4
 10
0.0
 20
0.0
 10
0.5
 20
0.0
 10
0.5
 20
0.5
 10
0.0
 20
0.5
 97
        0
 75
     0
 76
     1
 98
        0
  0
ENDBLK
  5
9E
330
96
100
AcDbEntity
  8
0
100
AcDbBlockEnd
  0
BLOCK
  5
A5
330
9F
100
AcDbEntity
  8
0
100
AcDbBlockBegin
  2
CDWK_PTTYP6
 70
     0
 10
0.0
 20
0.0
 30
0.0
  3
CDWK_PTTYP6
  1

  0
LINE
  5
A0
330
9F
100
AcDbEntity
  8
0
 62
     0
370
    -2
100
AcDbLine
 10
-0.5
 20
0.5
 30
0.0
 11
0.5
 21
0.5
 31
0.0
  0
LINE
  5
A1
330
9F
100
AcDbEntity
  8
0
 62
     0
370
    -2
100
AcDbLine
 10
0.5
 20
0.5
 30
0.0
 11
0.5
 21
-0.5
 31
0.0
  0
LINE
  5
A2
330
9F
100
AcDbEntity
  8
0
 62
     0
370
    -2
100
AcDbLine
 10
0.5
 20
-0.5
 30
0.0
 11
-0.5
 21
-0.5
 31
0.0
  0
LINE
  5
A3
330
9F
100
AcDbEntity
  8
0
 62
     0
370
    -2
100
AcDbLine
 10
-0.5
 20
-0.5
 30
0.0
 11
-0.5
 21
0.5
 31
0.0
  0
HATCH
  5
A4
330
9F
100
AcDbEntity
  8
0
 62
     0
370
    -2
100
AcDbHatch
 10
0.0
 20
0.0
 30
0.0
210
0.0
220
0.0
230
1.0
  2
SOLID
 70
     1
 71
     1
 91
        1
 92
        3
 72
     0
 73
     1
 93
        3
 10
-0.5
 20
-0.5
 10
-0.5
 20
0.5
 10
0.5
 20
0.5
 97
        0
 75
     0
 76
     1
 98
        0
  0
ENDBLK
  5
A6
330
9F
100
AcDbEntity
  8
0
100
AcDbBlockEnd
  0
BLOCK
  5
AE
330
A7
100
AcDbEntity
  8
0
100
AcDbBlockBegin
  2
CDWK_PTTYP7
 70
     0
 10
0.0
 20
0.0
 30
0.0
  3
CDWK_PTTYP7
  1

  0
LINE
  5
A8
330
A7
100
AcDbEntity
  8
0
 62
     0
370
    -2
100
AcDbLine
 10
-0.5
 20
0.5
 30
0.0
 11
0.5
 21
0.5
 31
0.0
  0
LINE
  5
A9
330
A7
100
AcDbEntity
  8
0
 62
     0
370
    -2
100
AcDbLine
 10
0.5
 20
0.5
 30
0.0
 11
0.5
 21
-0.5
 31
0.0
  0
LINE
  5
AA
330
A7
100
AcDbEntity
  8
0
 62
     0
370
    -2
100
AcDbLine
 10
0.5
 20
-0.5
 30
0.0
 11
-0.5
 21
-0.5
 31
0.0
  0
LINE
  5
AB
330
A7
100
AcDbEntity
  8
0
 62
     0
370
    -2
100
AcDbLine
 10
-0.5
 20
-0.5
 30
0.0
 11
-0.5
 21
0.5
 31
0.0
  0
LINE
  5
AC
330
A7
100
AcDbEntity
  8
0
 62
     0
370
    -2
100
AcDbLine
 10
0.0
 20
0.5
 30
0.0
 11
0.0
 21
-0.5
 31
0.0
  0
LINE
  5
AD
330
A7
100
AcDbEntity
  8
0
 62
     0
370
    -2
100
AcDbLine
 10
0.5
 20
0.0
 30
0.0
 11
-0.5
 21
0.0
 31
0.0
  0
ENDBLK
  5
AF
330
A7
100
AcDbEntity
  8
0
100
AcDbBlockEnd
  0
BLOCK
  5
B2
330
B0
100
AcDbEntity
  8
0
100
AcDbBlockBegin
  2
CDWK_PTTYP8
 70
     0
 10
0.0
 20
0.0
 30
0.0
  3
CDWK_PTTYP8
  1

  0
HATCH
  5
B1
330
B0
100
AcDbEntity
  8
0
 62
     0
370
    -2
100
AcDbHatch
 10
0.0
 20
0.0
 30
0.0
210
0.0
220
0.0
230
1.0
  2
SOLID
 70
     1
 71
     1
 91
        1
 92
        3
 72
     0
 73
     1
 93
        4
 10
0.5
 20
0.5
 10
0.5
 20
-0.5
 10
-0.5
 20
-0.5
 10
-0.5
 20
0.5
 97
        0
 75
     0
 76
     1
 98
        0
  0
ENDBLK
  5
B3
330
B0
100
AcDbEntity
  8
0
100
AcDbBlockEnd
  0
BLOCK
  5
B7
330
B4
100
AcDbEntity
  8
0
100
AcDbBlockBegin
  2
CDWK_PTTYP9
 70
     0
 10
0.0
 20
0.0
 30
0.0
  3
CDWK_PTTYP9
  1

  0
CIRCLE
  5
B5
330
B4
100
AcDbEntity
  8
0
 62
     0
370
    -2
100
AcDbCircle
 10
0.0
 20
0.0
 30
0.0
 40
0.1666666666666667
  0
CIRCLE
  5
B6
330
B4
100
AcDbEntity
  8
0
 62
     0
370
    -2
100
AcDbCircle
 10
0.0
 20
0.0
 30
0.0
 40
0.5
  0
ENDBLK
  5
B8
330
B4
100
AcDbEntity
  8
0
100
AcDbBlockEnd
  0
BLOCK
  5
BB
330
B9
100
AcDbEntity
  8
0
100
AcDbBlockBegin
  2
CDWK_PTTYP10
 70
     0
 10
0.0
 20
0.0
 30
0.0
  3
CDWK_PTTYP10
  1

  0
CIRCLE
  5
BA
330
B9
100
AcDbEntity
  8
0
 62
     0
370
    -2
100
AcDbCircle
 10
0.0
 20
0.0
 30
0.0
 40
0.5
  0
ENDBLK
  5
BC
330
B9
100
AcDbEntity
  8
0
100
AcDbBlockEnd
  0
BLOCK
  5
C0
330
BD
100
AcDbEntity
  8
0
100
AcDbBlockBegin
  2
CDWK_PTTYP11
 70
     0
 10
0.0
 20
0.0
 30
0.0
  3
CDWK_PTTYP11
  1

  0
CIRCLE
  5
BE
330
BD
100
AcDbEntity
  8
0
 62
     0
370
    -2
100
AcDbCircle
 10
0.0
 20
0.0
 30
0.0
 40
0.25
  0
CIRCLE
  5
BF
330
BD
100
AcDbEntity
  8
0
 62
     0
370
    -2
100
AcDbCircle
 10
0.0
 20
0.0
 30
0.0
 40
0.5
  0
ENDBLK
  5
C1
330
BD
100
AcDbEntity
  8
0
100
AcDbBlockEnd
  0
BLOCK
  5
C5
330
C2
100
AcDbEntity
  8
0
100
AcDbBlockBegin
  2
CDWK_PTTYP12
 70
     0
 10
0.0
 20
0.0
 30
0.0
  3
CDWK_PTTYP12
  1

  0
CIRCLE
  5
C3
330
C2
100
AcDbEntity
  8
0
 62
     0
370
    -2
100
AcDbCircle
 10
0.25
 20
0.0
 30
0.0
 40
0.25
  0
CIRCLE
  5
C4
330
C2
100
AcDbEntity
  8
0
 62
     0
370
    -2
100
AcDbCircle
 10
0.0
 20
0.0
 30
0.0
 40
0.5
  0
ENDBLK
  5
C6
330
C2
100
AcDbEntity
  8
0
100
AcDbBlockEnd
  0
BLOCK
  5
CB
330
C7
100
AcDbEntity
  8
0
100
AcDbBlockBegin
  2
CDWK_PTTYP13
 70
     0
 10
0.0
 20
0.0
 30
0.0
  3
CDWK_PTTYP13
  1

  0
CIRCLE
  5
C8
330
C7
100
AcDbEntity
  8
0
 62
     0
370
    -2
100
AcDbCircle
 10
-0.25
 20
0.0
 30
0.0
 40
0.25
  0
CIRCLE
  5
C9
330
C7
100
AcDbEntity
  8
0
 62
     0
370
    -2
100
AcDbCircle
 10
0.25
 20
0.0
 30
0.0
 40
0.25
  0
CIRCLE
  5
CA
330
C7
100
AcDbEntity
  8
0
 62
     0
370
    -2
100
AcDbCircle
 10
0.0
 20
0.0
 30
0.0
 40
0.5
  0
ENDBLK
  5
CC
330
C7
100
AcDbEntity
  8
0
100
AcDbBlockEnd
  0
BLOCK
  5
D2
330
CD
100
AcDbEntity
  8
0
100
AcDbBlockBegin
  2
CDWK_PTTYP16
 70
     0
 10
0.0
 20
0.0
 30
0.0
  3
CDWK_PTTYP16
  1

  0
LINE
  5
CE
330
CD
100
AcDbEntity
  8
0
 62
     0
370
    -2
100
AcDbLine
 10
-0.5
 20
-0.289
 30
0.0
 11
0.5
 21
-0.289
 31
0.0
  0
LINE
  5
CF
330
CD
100
AcDbEntity
  8
0
 62
     0
370
    -2
100
AcDbLine
 10
0.5
 20
-0.289
 30
0.0
 11
0.0
 21
0.577
 31
0.0
  0
LINE
  5
D0
330
CD
100
AcDbEntity
  8
0
 62
     0
370
    -2
100
AcDbLine
 10
0.0
 20
0.577
 30
0.0
 11
-0.5
 21
-0.289
 31
0.0
  0
CIRCLE
  5
D1
330
CD
100
AcDbEntity
  8
0
 62
     0
370
    -2
100
AcDbCircle
 10
0.0
 20
0.0
 30
0.0
 40
0.289
  0
ENDBLK
  5
D3
330
CD
100
AcDbEntity
  8
0
100
AcDbBlockEnd
  0
BLOCK
  5
D7
330
D4
100
AcDbEntity
  8
0
100
AcDbBlockBegin
  2
CDWK_PTTYP17
 70
     0
 10
0.0
 20
0.0
 30
0.0
  3
CDWK_PTTYP17
  1

  0
CIRCLE
  5
D5
330
D4
100
AcDbEntity
  8
0
 62
     0
370
    -2
100
AcDbCircle
 10
0.0
 20
0.0
 30
0.0
 40
0.5
  0
HATCH
  5
D6
330
D4
100
AcDbEntity
  8
0
 62
     0
370
    -2
100
AcDbHatch
 10
0.0
 20
0.0
 30
0.0
210
0.0
220
0.0
230
1.0
  2
SOLID
 70
     1
 71
     1
 91
        1
 92
        1
 93
        1
 72
     2
 10
0.0
 20
0.0
 40
0.25
 50
0.0
 51
360.0
 73
     1
 97
        0
 75
     0
 76
     1
 98
        0
  0
ENDBLK
  5
D8
330
D4
100
AcDbEntity
  8
0
100
AcDbBlockEnd
  0
BLOCK
  5
DC
330
D9
100
AcDbEntity
  8
0
100
AcDbBlockBegin
  2
CDWK_PTTYP18
 70
     0
 10
0.0
 20
0.0
 30
0.0
  3
CDWK_PTTYP18
  1

  0
CIRCLE
  5
DA
330
D9
100
AcDbEntity
  8
0
 62
     0
370
    -2
100
AcDbCircle
 10
0.0
 20
0.0
 30
0.0
 40
0.5
  0
CIRCLE
  5
DB
330
D9
100
AcDbEntity
  8
0
 62
     0
370
    -2
100
AcDbCircle
 10
0.0
 20
0.0
 30
0.0
 40
0.208
  0
ENDBLK
  5
DD
330
D9
100
AcDbEntity
  8
0
100
AcDbBlockEnd
  0
BLOCK
  5
E2
330
DE
100
AcDbEntity
  8
0
100
AcDbBlockBegin
  2
CDWK_PTTYP19
 70
     0
 10
0.0
 20
0.0
 30
0.0
  3
CDWK_PTTYP19
  1

  0
CIRCLE
  5
DF
330
DE
100
AcDbEntity
  8
0
 62
     0
370
    -2
100
AcDbCircle
 10
0.0
 20
0.0
 30
0.0
 40
0.25
  0
CIRCLE
  5
E0
330
DE
100
AcDbEntity
  8
0
 62
     0
370
    -2
100
AcDbCircle
 10
0.0
 20
0.0
 30
0.0
 40
0.35
  0
LINE
  5
E1
330
DE
100
AcDbEntity
  8
0
 62
     0
370
    -2
100
AcDbLine
 10
-0.25
 20
0.0
 30
0.0
 11
0.25
 21
0.0
 31
0.0
  0
ENDBLK
  5
E3
330
DE
100
AcDbEntity
  8
0
100
AcDbBlockEnd
  0
BLOCK
  5
E7
330
E4
100
AcDbEntity
  8
0
100
AcDbBlockBegin
  2
CDWK_PTTYP20
 70
     0
 10
0.0
 20
0.0
 30
0.0
  3
CDWK_PTTYP20
  1

  0
CIRCLE
  5
E5
330
E4
100
AcDbEntity
  8
0
 62
     0
370
    -2
100
AcDbCircle
 10
0.0
 20
0.0
 30
0.0
 40
0.3333333333333333
  0
CIRCLE
  5
E6
330
E4
100
AcDbEntity
  8
0
 62
     0
370
    -2
100
AcDbCircle
 10
0.0
 20
0.0
 30
0.0
 40
0.5
  0
ENDBLK
  5
E8
330
E4
100
AcDbEntity
  8
0
100
AcDbBlockEnd
  0
BLOCK
  5
EC
330
E9
100
AcDbEntity
  8
0
100
AcDbBlockBegin
  2
CDWK_PTTYP21
 70
     0
 10
0.0
 20
0.0
 30
0.0
  3
CDWK_PTTYP21
  1

  0
CIRCLE
  5
EA
330
E9
100
AcDbEntity
  8
0
 62
     0
370
    -2
100
AcDbCircle
 10
0.0
 20
0.0
 30
0.0
 40
0.5
  0
LINE
  5
EB
330
E9
100
AcDbEntity
  8
0
 62
     0
370
    -2
100
AcDbLine
 10
-0.5
 20
0.0
 30
0.0
 11
0.5
 21
0.0
 31
0.0
  0
ENDBLK
  5
ED
330
E9
100
AcDbEntity
  8
0
100
AcDbBlockEnd
  0
BLOCK
  5
F3
330
EE
100
AcDbEntity
  8
0
100
AcDbBlockBegin
  2
CDWK_PTTYP25
 70
     0
 10
0.0
 20
0.0
 30
0.0
  3
CDWK_PTTYP25
  1

  0
LINE
  5
EF
330
EE
100
AcDbEntity
  8
0
 62
     0
370
    -2
100
AcDbLine
 10
0.0
 20
0.5
 30
0.0
 11
-0.4330127018922193
 21
-0.25
 31
0.0
  0
LINE
  5
F0
330
EE
100
AcDbEntity
  8
0
 62
     0
370
    -2
100
AcDbLine
 10
-0.4330127018922193
 20
-0.25
 30
0.0
 11
0.4330127018922193
 21
-0.25
 31
0.0
  0
LINE
  5
F1
330
EE
100
AcDbEntity
  8
0
 62
     0
370
    -2
100
AcDbLine
 10
0.4330127018922193
 20
-0.25
 30
0.0
 11
0.0
 21
0.5
 31
0.0
  0
CIRCLE
  5
F2
330
EE
100
AcDbEntity
  8
0
 62
     0
370
    -2
100
AcDbCircle
 10
0.0
 20
0.0
 30
0.0
 40
0.5
  0
ENDBLK
  5
F4
330
EE
100
AcDbEntity
  8
0
100
AcDbBlockEnd
  0
BLOCK
  5
FA
330
F5
100
AcDbEntity
  8
0
100
AcDbBlockBegin
  2
CDWK_PTTYP26
 70
     0
 10
0.0
 20
0.0
 30
0.0
  3
CDWK_PTTYP26
  1

  0
LINE
  5
F6
330
F5
100
AcDbEntity
  8
0
 62
     0
370
    -2
100
AcDbLine
 10
-0.5
 20
-0.289
 30
0.0
 11
0.5
 21
-0.289
 31
0.0
  0
LINE
  5
F7
330
F5
100
AcDbEntity
  8
0
 62
     0
370
    -2
100
AcDbLine
 10
0.5
 20
-0.289
 30
0.0
 11
0.0
 21
0.577
 31
0.0
  0
LINE
  5
F8
330
F5
100
AcDbEntity
  8
0
 62
     0
370
    -2
100
AcDbLine
 10
0.0
 20
0.577
 30
0.0
 11
-0.5
 21
-0.289
 31
0.0
  0
CIRCLE
  5
F9
330
F5
100
AcDbEntity
  8
0
 62
     0
370
    -2
100
AcDbCircle
 10
0.0
 20
0.0
 30
0.0
 40
0.125
  0
ENDBLK
  5
FB
330
F5
100
AcDbEntity
  8
0
100
AcDbBlockEnd
  0
BLOCK
  5
102
330
FC
100
AcDbEntity
  8
0
100
AcDbBlockBegin
  2
CDWK_PTTYP27
 70
     0
 10
0.0
 20
0.0
 30
0.0
  3
CDWK_PTTYP27
  1

  0
LINE
  5
FD
330
FC
100
AcDbEntity
  8
0
 62
     0
370
    -2
100
AcDbLine
 10
0.0
 20
0.5
 30
0.0
 11
-0.4330127018922193
 21
-0.25
 31
0.0
  0
LINE
  5
FE
330
FC
100
AcDbEntity
  8
0
 62
     0
370
    -2
100
AcDbLine
 10
-0.4330127018922193
 20
-0.25
 30
0.0
 11
0.4330127018922193
 21
-0.25
 31
0.0
  0
LINE
  5
FF
330
FC
100
AcDbEntity
  8
0
 62
     0
370
    -2
100
AcDbLine
 10
0.4330127018922193
 20
-0.25
 30
0.0
 11
0.0
 21
0.5
 31
0.0
  0
CIRCLE
  5
100
330
FC
100
AcDbEntity
  8
0
 62
     0
370
    -2
100
AcDbCircle
 10
0.0
 20
0.0
 30
0.0
 40
0.125
  0
CIRCLE
  5
101
330
FC
100
AcDbEntity
  8
0
 62
     0
370
    -2
100
AcDbCircle
 10
0.0
 20
0.0
 30
0.0
 40
0.5
  0
ENDBLK
  5
103
330
FC
100
AcDbEntity
  8
0
100
AcDbBlockEnd
  0
BLOCK
  5
109
330
104
100
AcDbEntity
  8
0
100
AcDbBlockBegin
  2
CDWK_PTTYP28
 70
     0
 10
0.0
 20
0.0
 30
0.0
  3
CDWK_PTTYP28
  1

  0
LINE
  5
105
330
104
100
AcDbEntity
  8
0
 62
     0
370
    -2
100
AcDbLine
 10
-0.5
 20
0.5
 30
0.0
 11
0.5
 21
0.5
 31
0.0
  0
LINE
  5
106
330
104
100
AcDbEntity
  8
0
 62
     0
370
    -2
100
AcDbLine
 10
0.5
 20
0.5
 30
0.0
 11
-0.5
 21
-0.5
 31
0.0
  0
LINE
  5
107
330
104
100
AcDbEntity
  8
0
 62
     0
370
    -2
100
AcDbLine
 10
0.5
 20
-0.5
 30
0.0
 11
-0.5
 21
-0.5
 31
0.0
  0
LINE
  5
108
330
104
100
AcDbEntity
  8
0
 62
     0
370
    -2
100
AcDbLine
 10
-0.5
 20
0.5
 30
0.0
 11
0.5
 21
-0.5
 31
0.0
  0
ENDBLK
  5
10A
330
104
100
AcDbEntity
  8
0
100
AcDbBlockEnd
  0
BLOCK
  5
10F
330
10B
100
AcDbEntity
  8
0
100
AcDbBlockBegin
  2
CDWK_PTTYP29
 70
     0
 10
0.0
 20
0.0
 30
0.0
  3
CDWK_PTTYP29
  1

  0
CIRCLE
  5
10C
330
10B
100
AcDbEntity
  8
0
 62
     0
370
    -2
100
AcDbCircle
 10
0.0
 20
0.0
 30
0.0
 40
0.2
  0
CIRCLE
  5
10D
330
10B
100
AcDbEntity
  8
0
 62
     0
370
    -2
100
AcDbCircle
 10
0.0
 20
0.0
 30
0.0
 40
0.35
  0
CIRCLE
  5
10E
330
10B
100
AcDbEntity
  8
0
 62
     0
370
    -2
100
AcDbCircle
 10
0.0
 20
0.0
 30
0.0
 40
0.5
  0
ENDBLK
  5
110
330
10B
100
AcDbEntity
  8
0
100
AcDbBlockEnd
  0
BLOCK
  5
116
330
111
100
AcDbEntity
  8
0
100
AcDbBlockBegin
  2
CDWK_PTTYP30
 70
     0
 10
0.0
 20
0.0
 30
0.0
  3
CDWK_PTTYP30
  1

  0
LINE
  5
112
330
111
100
AcDbEntity
  8
0
 62
     0
370
    -2
100
AcDbLine
 10
-0.5
 20
0.5
 30
0.0
 11
-0.1
 21
0.1
 31
0.0
  0
LINE
  5
113
330
111
100
AcDbEntity
  8
0
 62
     0
370
    -2
100
AcDbLine
 10
0.5
 20
0.5
 30
0.0
 11
0.1
 21
0.1
 31
0.0
  0
LINE
  5
114
330
111
100
AcDbEntity
  8
0
 62
     0
370
    -2
100
AcDbLine
 10
0.5
 20
-0.5
 30
0.0
 11
0.1
 21
-0.1
 31
0.0
  0
LINE
  5
115
330
111
100
AcDbEntity
  8
0
 62
     0
370
    -2
100
AcDbLine
 10
-0.5
 20
-0.5
 30
0.0
 11
-0.1
 21
-0.1
 31
0.0
  0
ENDBLK
  5
117
330
111
100
AcDbEntity
  8
0
100
AcDbBlockEnd
  0
BLOCK
  5
11E
330
118
100
AcDbEntity
  8
0
100
AcDbBlockBegin
  2
CDWK_PTTYP31
 70
     0
 10
0.0
 20
0.0
 30
0.0
  3
CDWK_PTTYP31
  1

  0
LINE
  5
119
330
118
100
AcDbEntity
  8
0
 62
     0
370
    -2
100
AcDbLine
 10
-0.5
 20
0.0
 30
0.0
 11
-0.1
 21
0.0
 31
0.0
  0
LINE
  5
11A
330
118
100
AcDbEntity
  8
0
 62
     0
370
    -2
100
AcDbLine
 10
0.1
 20
0.0
 30
0.0
 11
0.5
 21
0.0
 31
0.0
  0
LINE
  5
11B
330
118
100
AcDbEntity
  8
0
 62
     0
370
    -2
100
AcDbLine
 10
0.0
 20
0.5
 30
0.0
 11
0.0
 21
0.1
 31
0.0
  0
LINE
  5
11C
330
118
100
AcDbEntity
  8
0
 62
     0
370
    -2
100
AcDbLine
 10
0.0
 20
-0.1
 30
0.0
 11
0.0
 21
-0.5
 31
0.0
  0
CIRCLE
  5
11D
330
118
100
AcDbEntity
  8
0
 62
     0
370
    -2
100
AcDbCircle
 10
0.0
 20
0.0
 30
0.0
 40
0.1
  0
ENDBLK
  5
11F
330
118
100
AcDbEntity
  8
0
100
AcDbBlockEnd
  0
BLOCK
  5
127
330
120
100
AcDbEntity
  8
0
100
AcDbBlockBegin
  2
CDWK_PTTYP32
 70
     0
 10
0.0
 20
0.0
 30
0.0
  3
CDWK_PTTYP32
  1

  0
CIRCLE
  5
121
330
120
100
AcDbEntity
  8
0
 62
     0
370
    -2
100
AcDbCircle
 10
0.0
 20
0.0
 30
0.0
 40
0.2
  0
CIRCLE
  5
122
330
120
100
AcDbEntity
  8
0
 62
     0
370
    -2
100
AcDbCircle
 10
0.0
 20
0.0
 30
0.0
 40
0.5
  0
LINE
  5
123
330
120
100
AcDbEntity
  8
0
 62
     0
370
    -2
100
AcDbLine
 10
0.1414213562373095
 20
0.1414213562373095
 30
0.0
 11
0.3535533905932738
 21
0.3535533905932738
 31
0.0
  0
LINE
  5
124
330
120
100
AcDbEntity
  8
0
 62
     0
370
    -2
100
AcDbLine
 10
-0.1414213562373095
 20
0.1414213562373095
 30
0.0
 11
-0.3535533905932738
 21
0.3535533905932738
 31
0.0
  0
LINE
  5
125
330
120
100
AcDbEntity
  8
0
 62
     0
370
    -2
100
AcDbLine
 10
0.1414213562373095
 20
-0.1414213562373095
 30
0.0
 11
0.3535533905932738
 21
-0.3535533905932738
 31
0.0
  0
LINE
  5
126
330
120
100
AcDbEntity
  8
0
 62
     0
370
    -2
100
AcDbLine
 10
-0.1414213562373095
 20
-0.1414213562373095
 30
0.0
 11
-0.3535533905932738
 21
-0.3535533905932738
 31
0.0
  0
ENDBLK
  5
128
330
120
100
AcDbEntity
  8
0
100
AcDbBlockEnd
  0
BLOCK
  5
12D
330
129
100
AcDbEntity
  8
0
100
AcDbBlockBegin
  2
CDWK_PTTYP33
 70
     0
 10
0.0
 20
0.0
 30
0.0
  3
CDWK_PTTYP33
  1

  0
LINE
  5
12A
330
129
100
AcDbEntity
  8
0
 62
     0
370
    -2
100
AcDbLine
 10
0.0
 20
-0.5
 30
0.0
 11
0.0
 21
0.5
 31
0.0
  0
LINE
  5
12B
330
129
100
AcDbEntity
  8
0
 62
     0
370
    -2
100
AcDbLine
 10
0.5
 20
0.0
 30
0.0
 11
-0.5
 21
0.0
 31
0.0
  0
CIRCLE
  5
12C
330
129
100
AcDbEntity
  8
0
 62
     0
370
    -2
100
AcDbCircle
 10
0.0
 20
0.0
 30
0.0
 40
0.5
  0
ENDBLK
  5
12E
330
129
100
AcDbEntity
  8
0
100
AcDbBlockEnd
  0
BLOCK
  5
133
330
12F
100
AcDbEntity
  8
0
100
AcDbBlockBegin
  2
CDWK_PTTYP34
 70
     0
 10
0.0
 20
0.0
 30
0.0
  3
CDWK_PTTYP34
  1

  0
CIRCLE
  5
130
330
12F
100
AcDbEntity
  8
0
 62
     0
370
    -2
100
AcDbCircle
 10
0.0
 20
0.0
 30
0.0
 40
0.5
  0
LINE
  5
131
330
12F
100
AcDbEntity
  8
0
 62
     0
370
    -2
100
AcDbLine
 10
-0.4
 20
-0.3
 30
0.0
 11
0.3
 21
0.4
 31
0.0
  0
LINE
  5
132
330
12F
100
AcDbEntity
  8
0
 62
     0
370
    -2
100
AcDbLine
 10
-0.3
 20
-0.4
 30
0.0
 11
0.4
 21
0.3
 31
0.0
  0
ENDBLK
  5
134
330
12F
100
AcDbEntity
  8
0
100
AcDbBlockEnd
  0
BLOCK
  5
139
330
135
100
AcDbEntity
  8
0
100
AcDbBlockBegin
  2
CDWK_PTTYP35
 70
     0
 10
0.0
 20
0.0
 30
0.0
  3
CDWK_PTTYP35
  1

  0
LINE
  5
136
330
135
100
AcDbEntity
  8
0
 62
     0
370
    -2
100
AcDbLine
 10
0.0
 20
0.2
 30
0.0
 11
0.0
 21
0.5
 31
0.0
  0
LINE
  5
137
330
135
100
AcDbEntity
  8
0
 62
     0
370
    -2
100
AcDbLine
 10
0.0
 20
-0.2
 30
0.0
 11
0.0
 21
-0.5
 31
0.0
  0
CIRCLE
  5
138
330
135
100
AcDbEntity
  8
0
 62
     0
370
    -2
100
AcDbCircle
 10
0.0
 20
0.0
 30
0.0
 40
0.2
  0
ENDBLK
  5
13A
330
135
100
AcDbEntity
  8
0
100
AcDbBlockEnd
  0
BLOCK
  5
141
330
13B
100
AcDbEntity
  8
0
100
AcDbBlockBegin
  2
CDWK_PTTYP36
 70
     0
 10
0.0
 20
0.0
 30
0.0
  3
CDWK_PTTYP36
  1

  0
LINE
  5
13C
330
13B
100
AcDbEntity
  8
0
 62
     0
370
    -2
100
AcDbLine
 10
-0.5
 20
0.2
 30
0.0
 11
0.5
 21
0.2
 31
0.0
  0
LINE
  5
13D
330
13B
100
AcDbEntity
  8
0
 62
     0
370
    -2
100
AcDbLine
 10
0.5
 20
0.2
 30
0.0
 11
0.5
 21
-0.2
 31
0.0
  0
LINE
  5
13E
330
13B
100
AcDbEntity
  8
0
 62
     0
370
    -2
100
AcDbLine
 10
0.5
 20
-0.2
 30
0.0
 11
-0.5
 21
-0.2
 31
0.0
  0
LINE
  5
13F
330
13B
100
AcDbEntity
  8
0
 62
     0
370
    -2
100
AcDbLine
 10
-0.5
 20
-0.2
 30
0.0
 11
-0.5
 21
0.2
 31
0.0
  0
HATCH
  5
140
330
13B
100
AcDbEntity
  8
0
 62
     0
370
    -2
100
AcDbHatch
 10
0.0
 20
0.0
 30
0.0
210
0.0
220
0.0
230
1.0
  2
SOLID
 70
     1
 71
     1
 91
        1
 92
        3
 72
     0
 73
     1
 93
        3
 10
-0.5
 20
-0.2
 10
0.5
 20
-0.2
 10
0.5
 20
0.2
 97
        0
 75
     0
 76
     1
 98
        0
  0
ENDBLK
  5
142
330
13B
100
AcDbEntity
  8
0
100
AcDbBlockEnd
  0
BLOCK
  5
146
330
143
100
AcDbEntity
  8
0
100
AcDbBlockBegin
  2
CDWK_PTTYP37
 70
     0
 10
0.0
 20
0.0
 30
0.0
  3
CDWK_PTTYP37
  1

  0
HATCH
  5
144
330
143
100
AcDbEntity
  8
0
 62
     0
370
    -2
100
AcDbHatch
 10
0.0
 20
0.0
 30
0.0
210
0.0
220
0.0
230
1.0
  2
SOLID
 70
     1
 71
     1
 91
        1
 92
        3
 72
     0
 73
     1
 93
      202
 10
-0.3535533905932738
 20
-0.3535533905932738
 10
-0.3485533905932738
 20
-0.3535533905932737
 10
-0.3435533905932738
 20
-0.3584836591895546
 10
-0.3385533905932738
 20
-0.3632782236961988
 10
-0.3335533905932738
 20
-0.367942389128785
 10
-0.3285533905932738
 20
-0.372481054046687
 10
-0.3235533905932738
 20
-0.3768987523588579
 10
-0.3185533905932738
 20
-0.3811996897107819
 10
-0.3135533905932738
 20
-0.3853877752881235
 10
-0.3085533905932737
 20
-0.3894666497242888
 10
-0.3035533905932737
 20
-0.3934397096803965
 10
-0.2985533905932737
 20
-0.3973101295704999
 10
-0.2935533905932737
 20
-0.4010808808273714
 10
-0.2885533905932737
 20
-0.4047547490409382
 10
-0.2835533905932737
 20
-0.4083343492496384
 10
-0.2785533905932737
 20
-0.4118221396222626
 10
-0.2735533905932737
 20
-0.4152204337324827
 10
-0.2685533905932737
 20
-0.4185314115988474
 10
-0.2635533905932737
 20
-0.4217571296384408
 10
-0.2585533905932737
 20
-0.4248995296617653
 10
-0.2535533905932737
 20
-0.4279604470190231
 10
-0.2485533905932737
 20
-0.4309416179932669
 10
-0.2435533905932737
 20
-0.4338446865234004
 10
-0.2385533905932737
 20
-0.4366712103293738
 10
-0.2335533905932737
 20
-0.439422666502825
 10
-0.2285533905932737
 20
-0.4421004566186126
 10
-0.2235533905932737
 20
-0.4447059114159811
 10
-0.2185533905932737
 20
-0.4472402950923041
 10
-0.2135533905932737
 20
-0.4497048092473372
 10
-0.2085533905932737
 20
-0.4521005965115692
 10
-0.2035533905932737
 20
-0.4544287438884664
 10
-0.1985533905932736
 20
-0.456690285837111
 10
-0.1935533905932736
 20
-0.45888620711884
 10
-0.1885533905932736
 20
-0.4610174454289638
 10
-0.1835533905932736
 20
-0.4630848938324164
 10
-0.1785533905932736
 20
-0.4650894030202291
 10
-0.1735533905932736
 20
-0.4670317834019928
 10
-0.1685533905932736
 20
-0.46891280704794
 10
-0.1635533905932736
 20
-0.4707332094929264
 10
-0.1585533905932736
 20
-0.4724936914133818
 10
-0.1535533905932736
 20
-0.4741949201872336
 10
-0.1485533905932736
 20
-0.4758375313458466
 10
-0.1435533905932736
 20
-0.4774221299261716
 10
-0.1385533905932736
 20
-0.4789492917305286
 10
-0.1335533905932736
 20
-0.4804195645007682
 10
-0.1285533905932736
 20
-0.4818334690129366
 10
-0.1235533905932736
 20
-0.4831915000980183
 10
-0.1185533905932736
 20
-0.4844941275938295
 10
-0.1135533905932736
 20
-0.4857417972326848
 10
-0.1085533905932736
 20
-0.4869349314690531
 10
-0.1035533905932736
 20
-0.4880739302510473
 10
-0.0985533905932736
 20
-0.489159171739258
 10
-0.0935533905932736
 20
-0.4901910129761353
 10
-0.0885533905932736
 20
-0.4911697905088447
 10
-0.0835533905932735
 20
-0.4920958209682695
 10
-0.0785533905932735
 20
-0.4929694016065986
 10
-0.0735533905932735
 20
-0.4937908107957261
 10
-0.0685533905932735
 20
-0.494560308488493
 10
-0.0635533905932735
 20
-0.4952781366446192
 10
-0.0585533905932735
 20
-0.4959445196230107
 10
-0.0535533905932735
 20
-0.4965596645419678
 10
-0.0485533905932735
 20
-0.4971237616086806
 10
-0.0435533905932735
 20
-0.4976369844192622
 10
-0.0385533905932735
 20
-0.4980994902304456
 10
-0.0335533905932735
 20
-0.4985114202039533
 10
-0.0285533905932735
 20
-0.4988728996244386
 10
-0.0235533905932735
 20
-0.4991840380917923
 10
-0.0185533905932735
 20
-0.49944492968851
 10
-0.0135533905932735
 20
-0.4996556531227215
 10
-0.0085533905932735
 20
-0.4998162718473921
 10
-0.0035533905932735
 20
-0.4999268341561182
 10
0.0014466094067265
 20
-0.499987373255857
 10
0.0064466094067265
 20
-0.4999979073168451
 10
0.0114466094067265
 20
-0.4999584394998819
 10
0.0164466094067265
 20
-0.4998689579610739
 10
0.0214466094067265
 20
-0.4997294358340547
 10
0.0264466094067265
 20
-0.4995398311896213
 10
0.0314466094067265
 20
-0.4993000869726422
 10
0.0364466094067265
 20
-0.4990101309160174
 10
0.0414466094067265
 20
-0.4986698754313855
 10
0.0464466094067265
 20
-0.498279217476192
 10
0.0514466094067265
 20
-0.4978380383966446
 10
0.0564466094067265
 20
-0.497346203745994
 10
0.0614466094067265
 20
-0.4968035630774849
 10
0.0664466094067264
 20
-0.4962099497112257
 10
0.0714466094067265
 20
-0.4955651804741228
 10
0.0764466094067265
 20
-0.4948690554119167
 10
0.0814466094067265
 20
-0.4941213574722463
 10
0.0864466094067265
 20
-0.4933218521575424
 10
0.0914466094067265
 20
-0.4924702871464235
 10
0.0964466094067265
 20
-0.4915663918821278
 10
0.1014466094067265
 20
-0.4906098771263643
 10
0.1064466094067265
 20
-0.4896004344768079
 10
0.1114466094067265
 20
-0.4885377358462822
 10
0.1164466094067265
 20
-0.4874214329014929
 10
0.1214466094067265
 20
-0.4862511564589613
 10
0.1264466094067265
 20
-0.4850265158355881
 10
0.1314466094067265
 20
-0.4837470981510305
 10
0.1364466094067265
 20
-0.482412467578809
 10
0.1414466094067265
 20
-0.4810221645427664
 10
0.1464466094067265
 20
-0.4795757048551781
 10
0.1514466094067265
 20
-0.4780725787924608
 10
0.1564466094067265
 20
-0.4765122501040308
 10
0.1614466094067265
 20
-0.4748941549494363
 10
0.1664466094067265
 20
-0.4732177007584056
 10
0.1714466094067265
 20
-0.4714822650079264
 10
0.1764466094067265
 20
-0.4696871939098801
 10
0.1814466094067266
 20
-0.4678318010021017
 10
0.1864466094067266
 20
-0.4659153656350076
 10
0.1914466094067266
 20
-0.4639371313451162
 10
0.1964466094067266
 20
-0.4618963041058764
 10
0.2014466094067266
 20
-0.4597920504451997
 10
0.2064466094067266
 20
-0.4576234954179405
 10
0.2114466094067266
 20
-0.4553897204202862
 10
0.2164466094067266
 20
-0.4530897608315588
 10
0.2214466094067266
 20
-0.45072260346729
 10
0.2264466094067266
 20
-0.4482871838255748
 10
0.2314466094067266
 20
-0.4457823831065977
 10
0.2364466094067266
 20
-0.4432070249828292
 10
0.2414466094067266
 20
-0.4405598720946596
 10
0.2464466094067266
 20
-0.4378396222431172
 10
0.2514466094067266
 20
-0.4350449042477435
 10
0.2564466094067266
 20
-0.4321742734336012
 10
0.2614466094067266
 20
-0.4292262067066663
 10
0.2664466094067266
 20
-0.4261990971714118
 10
0.2714466094067266
 20
-0.4230912482380831
 10
0.2764466094067266
 20
-0.4199008671598476
 10
0.2814466094067266
 20
-0.4166260579314797
 10
0.2864466094067266
 20
-0.4132648134712868
 10
0.2914466094067266
 20
-0.4098150069963156
 10
0.2964466094067266
 20
-0.4062743824871597
 10
0.3014466094067266
 20
-0.4026405441224911
 10
0.3064466094067266
 20
-0.3989109445442534
 10
0.3114466094067266
 20
-0.3950828717916294
 10
0.3164466094067266
 20
-0.391153434714632
 10
0.3214466094067266
 20
-0.3871195466454601
 10
0.3264466094067267
 20
-0.3829779070663467
 10
0.3314466094067267
 20
-0.3787249809648844
 10
0.3364466094067267
 20
-0.3743569755097196
 10
0.3414466094067267
 20
-0.3698698136084067
 10
0.3464466094067267
 20
-0.3652591038217257
 10
0.3514466094067267
 20
-0.3605201060004601
 10
0.3564466094067267
 20
-0.3556476918757041
 10
0.3614466094067267
 20
-0.3506362996645505
 10
0.3664466094067267
 20
-0.34547988153926
 10
0.3714466094067267
 20
-0.3401718425359658
 10
0.3764466094067267
 20
-0.334704969129899
 10
0.3814466094067267
 20
-0.3290713452523318
 10
0.3864466094067267
 20
-0.3232622529342269
 10
0.3914466094067267
 20
-0.3172680539828188
 10
0.3964466094067267
 20
-0.3110780480586465
 10
0.4014466094067267
 20
-0.304680301118911
 10
0.4064466094067267
 20
-0.2980614362775617
 10
0.4114466094067267
 20
-0.291206376478565
 10
0.4164466094067267
 20
-0.2840980246459106
 10
0.4214466094067267
 20
-0.276716861635935
 10
0.4264466094067267
 20
-0.2690404345439063
 10
0.4314466094067267
 20
-0.2610426963649944
 10
0.4364466094067267
 20
-0.2526931404518915
 10
0.4414466094067268
 20
-0.2439556458403291
 10
0.4464466094067268
 20
-0.2347869056044327
 10
0.4514466094067268
 20
-0.2251342376211081
 10
0.4564466094067268
 20
-0.2149324518428296
 10
0.4614466094067268
 20
-0.2040992228331676
 10
0.4664466094067268
 20
-0.1925279893081412
 10
0.4714466094067268
 20
-0.1800765408735088
 10
0.4764466094067268
 20
-0.1665475742210051
 10
0.4814466094067268
 20
-0.1516529867323223
 10
0.4864466094067268
 20
-0.1349413290684758
 10
0.4914466094067268
 20
-0.1156274024472547
 10
0.4964466094067268
 20
-0.0920881648347501
 10
0.5
 20
0.0
 10
0.495
 20
0.0
 10
0.49
 20
0.0705336798983295
 10
0.485
 20
0.0994987437106621
 10
0.48
 20
0.1215524578114322
 10
0.475
 20
0.14
 10
0.47
 20
0.15612494995996
 10
0.465
 20
0.1705872210923199
 10
0.46
 20
0.1837797594948911
 10
0.455
 20
0.1959591794226544
 10
0.45
 20
0.2073041244162789
 10
0.445
 20
0.2179449471770338
 10
0.4399999999999999
 20
0.2279802623035601
 10
0.4349999999999999
 20
0.2374868417407584
 10
0.4299999999999999
 20
0.2465258607124211
 10
0.4249999999999999
 20
0.2551470164434615
 10
0.4199999999999999
 20
0.2633913438213186
 10
0.4149999999999999
 20
0.2712931993250108
 10
0.4099999999999999
 20
0.2788816953476869
 10
0.4049999999999999
 20
0.2861817604250838
 10
0.3999999999999999
 20
0.2932149382279151
 10
0.3949999999999999
 20
0.3000000000000002
 10
0.3899999999999999
 20
0.3065534211193868
 10
0.3849999999999999
 20
0.3128897569432404
 10
0.3799999999999999
 20
0.3190219428189855
 10
0.3749999999999999
 20
0.3249615361854385
 10
0.3699999999999999
 20
0.330718913883074
 10
0.3649999999999999
 20
0.3363034344160049
 10
0.3599999999999999
 20
0.3417235724968357
 10
0.3549999999999999
 20
0.3469870314579496
 10
0.3535533905932738
 20
0.3535533905932738
 97
        0
 75
     0
 76
     1
 98
        0
  0
CIRCLE
  5
145
330
143
100
AcDbEntity
  8
0
 62
     0
370
    -2
100
AcDbCircle
 10
0.0
 20
0.0
 30
0.0
 40
0.5
  0
ENDBLK
  5
147
330
143
100
AcDbEntity
  8
0
100
AcDbBlockEnd
  0
BLOCK
  5
14C
330
148
100
AcDbEntity
  8
0
100
AcDbBlockBegin
  2
CDWK_PTTYP38
 70
     0
 10
0.0
 20
0.0
 30
0.0
  3
CDWK_PTTYP38
  1

  0
HATCH
  5
149
330
148
100
AcDbEntity
  8
0
 62
     0
370
    -2
100
AcDbHatch
 10
0.0
 20
0.0
 30
0.0
210
0.0
220
0.0
230
1.0
  2
SOLID
 70
     1
 71
     1
 91
        1
 92
        3
 72
     0
 73
     1
 93
      102
 10
0.0
 20
0.0
 10
0.0
 20
0.5
 10
0.005
 20
0.5
 10
0.01
 20
0.4999749993749688
 10
0.015
 20
0.4998999899979995
 10
0.02
 20
0.4997749493522059
 10
0.025
 20
0.4995998398718718
 10
0.03
 20
0.4993746088859545
 10
0.035
 20
0.4990991885387112
 10
0.04
 20
0.4987734956871706
 10
0.045
 20
0.4983974317750845
 10
0.05
 20
0.4979708826829135
 10
0.055
 20
0.49749371855331
 10
0.06
 20
0.4969657935914704
 10
0.065
 20
0.4963869458396343
 10
0.07
 20
0.4957569969249047
 10
0.075
 20
0.4950757517794626
 10
0.08
 20
0.4943429983321297
 10
0.085
 20
0.4935585071701227
 10
0.09
 20
0.4927220311697053
 10
0.095
 20
0.4918333050943175
 10
0.1
 20
0.4908920451586071
 10
0.105
 20
0.4898979485566356
 10
0.11
 20
0.4888506929523574
 10
0.115
 20
0.4877499359302879
 10
0.12
 20
0.4865953144040744
 10
0.125
 20
0.4853864439804639
 10
0.13
 20
0.4841229182759271
 10
0.135
 20
0.4828043081829325
 10
0.14
 20
0.4814301610825811
 10
0.145
 20
0.48
 10
0.15
 20
0.478513322698543
 10
0.1550000000000001
 20
0.4769696007084728
 10
0.1600000000000001
 20
0.4753682782853731
 10
0.1650000000000001
 20
0.4737087712930804
 10
0.1700000000000001
 20
0.4719904660054056
 10
0.1750000000000001
 20
0.4702127178203498
 10
0.1800000000000001
 20
0.4683748498798799
 10
0.1850000000000001
 20
0.466476151587624
 10
0.1900000000000001
 20
0.4645158770160606
 10
0.1950000000000001
 20
0.4624932431938871
 10
0.2000000000000001
 20
0.460407428263272
 10
0.2050000000000001
 20
0.4582575694955839
 10
0.2100000000000001
 20
0.4560427611529427
 10
0.2150000000000001
 20
0.4537620521815371
 10
0.2200000000000001
 20
0.4514144437210665
 10
0.2250000000000001
 20
0.4489988864128729
 10
0.2300000000000001
 20
0.4465142774872937
 10
0.2350000000000001
 20
0.4439594576084622
 10
0.2400000000000001
 20
0.4413332074521472
 10
0.2450000000000001
 20
0.4386342439892261
 10
0.2500000000000001
 20
0.4358612164439502
 10
0.2550000000000001
 20
0.4330127018922192
 10
0.2600000000000001
 20
0.4300872004605577
 10
0.2650000000000001
 20
0.4270831300812524
 10
0.2700000000000001
 20
0.423998820753077
 10
0.2750000000000001
 20
0.4208325082500162
 10
0.2800000000000001
 20
0.4175823272122516
 10
0.2850000000000001
 20
0.4142463035441595
 10
0.2900000000000001
 20
0.4108223460329293
 10
0.2950000000000002
 20
0.4073082370883259
 10
0.3000000000000002
 20
0.403701622488689
 10
0.3050000000000002
 20
0.3999999999999999
 10
0.3100000000000002
 20
0.3962007067131506
 10
0.3150000000000002
 20
0.3923009049186605
 10
0.3200000000000002
 20
0.3882975663070783
 10
0.3250000000000002
 20
0.3841874542459708
 10
0.3300000000000002
 20
0.3799671038392664
 10
0.3350000000000002
 20
0.3756327994198588
 10
0.3400000000000002
 20
0.3711805490593491
 10
0.3450000000000002
 20
0.366606055596467
 10
0.3500000000000002
 20
0.3619046835839512
 10
0.3550000000000002
 20
0.3570714214271423
 10
0.3600000000000002
 20
0.3521008378291649
 10
0.3650000000000002
 20
0.3469870314579492
 10
0.3700000000000002
 20
0.3417235724968353
 10
0.3750000000000002
 20
0.3363034344160045
 10
0.3800000000000002
 20
0.3307189138830736
 10
0.3850000000000002
 20
0.3249615361854382
 10
0.3900000000000002
 20
0.3190219428189851
 10
0.3950000000000002
 20
0.31288975694324
 10
0.4000000000000002
 20
0.3065534211193863
 10
0.4050000000000002
 20
0.2999999999999997
 10
0.4100000000000003
 20
0.2932149382279147
 10
0.4150000000000003
 20
0.2861817604250834
 10
0.4200000000000003
 20
0.2788816953476864
 10
0.4250000000000003
 20
0.2712931993250103
 10
0.4300000000000003
 20
0.263391343821318
 10
0.4350000000000003
 20
0.255147016443461
 10
0.4400000000000003
 20
0.2465258607124206
 10
0.4450000000000003
 20
0.2374868417407578
 10
0.4500000000000003
 20
0.2279802623035594
 10
0.4550000000000003
 20
0.2179449471770331
 10
0.4600000000000003
 20
0.2073041244162782
 10
0.4650000000000003
 20
0.1959591794226536
 10
0.4700000000000003
 20
0.1837797594948903
 10
0.4750000000000003
 20
0.170587221092319
 10
0.4800000000000003
 20
0.156124949959959
 10
0.4850000000000003
 20
0.1399999999999989
 10
0.4900000000000003
 20
0.1215524578114309
 10
0.4950000000000003
 20
0.0994987437106604
 10
0.5
 20
0.0
 97
        0
 75
     0
 76
     1
 98
        0
  0
HATCH
  5
14A
330
148
100
AcDbEntity
  8
0
 62
     0
370
    -2
100
AcDbHatch
 10
0.0
 20
0.0
 30
0.0
210
0.0
220
0.0
230
1.0
  2
SOLID
 70
     1
 71
     1
 91
        1
 92
        3
 72
     0
 73
     1
 93
      102
 10
0.0
 20
0.0
 10
-0.5
 20
0.0
 10
-0.495
 20
0.0
 10
-0.49
 20
-0.0705336798983295
 10
-0.485
 20
-0.0994987437106621
 10
-0.48
 20
-0.1215524578114322
 10
-0.475
 20
-0.14
 10
-0.47
 20
-0.15612494995996
 10
-0.465
 20
-0.1705872210923199
 10
-0.46
 20
-0.1837797594948911
 10
-0.455
 20
-0.1959591794226544
 10
-0.45
 20
-0.2073041244162789
 10
-0.445
 20
-0.2179449471770338
 10
-0.4399999999999999
 20
-0.2279802623035601
 10
-0.4349999999999999
 20
-0.2374868417407584
 10
-0.4299999999999999
 20
-0.2465258607124211
 10
-0.4249999999999999
 20
-0.2551470164434615
 10
-0.4199999999999999
 20
-0.2633913438213186
 10
-0.4149999999999999
 20
-0.2712931993250108
 10
-0.4099999999999999
 20
-0.2788816953476869
 10
-0.4049999999999999
 20
-0.2861817604250838
 10
-0.3999999999999999
 20
-0.2932149382279151
 10
-0.3949999999999999
 20
-0.3000000000000002
 10
-0.3899999999999999
 20
-0.3065534211193868
 10
-0.3849999999999999
 20
-0.3128897569432404
 10
-0.3799999999999999
 20
-0.3190219428189855
 10
-0.3749999999999999
 20
-0.3249615361854385
 10
-0.3699999999999999
 20
-0.330718913883074
 10
-0.3649999999999999
 20
-0.3363034344160049
 10
-0.3599999999999999
 20
-0.3417235724968357
 10
-0.3549999999999999
 20
-0.3469870314579496
 10
-0.3499999999999999
 20
-0.3521008378291652
 10
-0.3449999999999999
 20
-0.3570714214271427
 10
-0.3399999999999999
 20
-0.3619046835839516
 10
-0.3349999999999999
 20
-0.3666060555964674
 10
-0.3299999999999998
 20
-0.3711805490593494
 10
-0.3249999999999998
 20
-0.3756327994198591
 10
-0.3199999999999998
 20
-0.3799671038392667
 10
-0.3149999999999998
 20
-0.3841874542459711
 10
-0.3099999999999998
 20
-0.3882975663070786
 10
-0.3049999999999998
 20
-0.3923009049186608
 10
-0.2999999999999998
 20
-0.3962007067131507
 10
-0.2949999999999998
 20
-0.4000000000000001
 10
-0.2899999999999998
 20
-0.4037016224886891
 10
-0.2849999999999998
 20
-0.4073082370883261
 10
-0.2799999999999998
 20
-0.4108223460329296
 10
-0.2749999999999998
 20
-0.4142463035441597
 10
-0.2699999999999998
 20
-0.4175823272122518
 10
-0.2649999999999998
 20
-0.4208325082500164
 10
-0.2599999999999998
 20
-0.4239988207530773
 10
-0.2549999999999998
 20
-0.4270831300812526
 10
-0.2499999999999998
 20
-0.4300872004605579
 10
-0.2449999999999998
 20
-0.4330127018922195
 10
-0.2399999999999998
 20
-0.4358612164439503
 10
-0.2349999999999998
 20
-0.4386342439892263
 10
-0.2299999999999998
 20
-0.4413332074521473
 10
-0.2249999999999998
 20
-0.4439594576084624
 10
-0.2199999999999998
 20
-0.4465142774872939
 10
-0.2149999999999997
 20
-0.4489988864128731
 10
-0.2099999999999997
 20
-0.4514144437210667
 10
-0.2049999999999997
 20
-0.4537620521815372
 10
-0.1999999999999997
 20
-0.4560427611529429
 10
-0.1949999999999997
 20
-0.4582575694955841
 10
-0.1899999999999997
 20
-0.4604074282632722
 10
-0.1849999999999997
 20
-0.4624932431938872
 10
-0.1799999999999997
 20
-0.4645158770160608
 10
-0.1749999999999997
 20
-0.4664761515876241
 10
-0.1699999999999997
 20
-0.46837484987988
 10
-0.1649999999999997
 20
-0.47021271782035
 10
-0.1599999999999997
 20
-0.4719904660054058
 10
-0.1549999999999997
 20
-0.4737087712930805
 10
-0.1499999999999997
 20
-0.4753682782853733
 10
-0.1449999999999997
 20
-0.4769696007084729
 10
-0.1399999999999997
 20
-0.4785133226985431
 10
-0.1349999999999997
 20
-0.4800000000000001
 10
-0.1299999999999997
 20
-0.4814301610825812
 10
-0.1249999999999997
 20
-0.4828043081829325
 10
-0.1199999999999997
 20
-0.4841229182759272
 10
-0.1149999999999997
 20
-0.485386443980464
 10
-0.1099999999999997
 20
-0.4865953144040744
 10
-0.1049999999999996
 20
-0.487749935930288
 10
-0.0999999999999996
 20
-0.4888506929523574
 10
-0.0949999999999996
 20
-0.4898979485566357
 10
-0.0899999999999996
 20
-0.4908920451586072
 10
-0.0849999999999996
 20
-0.4918333050943176
 10
-0.0799999999999996
 20
-0.4927220311697053
 10
-0.0749999999999996
 20
-0.4935585071701227
 10
-0.0699999999999996
 20
-0.4943429983321298
 10
-0.0649999999999996
 20
-0.4950757517794626
 10
-0.0599999999999996
 20
-0.4957569969249048
 10
-0.0549999999999996
 20
-0.4963869458396343
 10
-0.0499999999999996
 20
-0.4969657935914705
 10
-0.0449999999999996
 20
-0.49749371855331
 10
-0.0399999999999996
 20
-0.4979708826829135
 10
-0.0349999999999996
 20
-0.4983974317750846
 10
-0.0299999999999996
 20
-0.4987734956871706
 10
-0.0249999999999996
 20
-0.4990991885387112
 10
-0.0199999999999996
 20
-0.4993746088859545
 10
-0.0149999999999996
 20
-0.4995998398718719
 10
-0.0099999999999996
 20
-0.499774949352206
 10
-0.0049999999999996
 20
-0.4998999899979995
 10
0.0
 20
-0.5
 97
        0
 75
     0
 76
     1
 98
        0
  0
CIRCLE
  5
14B
330
148
100
AcDbEntity
  8
0
 62
     0
370
    -2
100
AcDbCircle
 10
0.0
 20
0.0
 30
0.0
 40
0.5
  0
ENDBLK
  5
14D
330
148
100
AcDbEntity
  8
0
100
AcDbBlockEnd
  0
BLOCK
  5
156
330
14E
100
AcDbEntity
  8
0
100
AcDbBlockBegin
  2
CDWK_PTTYP41
 70
     0
 10
0.0
 20
0.0
 30
0.0
  3
CDWK_PTTYP41
  1

  0
LINE
  5
14F
330
14E
100
AcDbEntity
  8
0
 62
     0
370
    -2
100
AcDbLine
 10
-0.5
 20
0.5
 30
0.0
 11
0.5
 21
0.5
 31
0.0
  0
LINE
  5
150
330
14E
100
AcDbEntity
  8
0
 62
     0
370
    -2
100
AcDbLine
 10
0.5
 20
0.5
 30
0.0
 11
0.5
 21
-0.5
 31
0.0
  0
LINE
  5
151
330
14E
100
AcDbEntity
  8
0
 62
     0
370
    -2
100
AcDbLine
 10
0.5
 20
-0.5
 30
0.0
 11
-0.5
 21
-0.5
 31
0.0
  0
LINE
  5
152
330
14E
100
AcDbEntity
  8
0
 62
     0
370
    -2
100
AcDbLine
 10
-0.5
 20
-0.5
 30
0.0
 11
-0.5
 21
0.5
 31
0.0
  0
LINE
  5
153
330
14E
100
AcDbEntity
  8
0
 62
     0
370
    -2
100
AcDbLine
 10
-0.375
 20
0.25
 30
0.0
 11
0.375
 21
0.25
 31
0.0
  0
LINE
  5
154
330
14E
100
AcDbEntity
  8
0
 62
     0
370
    -2
100
AcDbLine
 10
-0.375
 20
0.0
 30
0.0
 11
0.375
 21
0.0
 31
0.0
  0
LINE
  5
155
330
14E
100
AcDbEntity
  8
0
 62
     0
370
    -2
100
AcDbLine
 10
-0.375
 20
-0.25
 30
0.0
 11
0.375
 21
-0.25
 31
0.0
  0
ENDBLK
  5
157
330
14E
100
AcDbEntity
  8
0
100
AcDbBlockEnd
  0
BLOCK
  5
15F
330
158
100
AcDbEntity
  8
0
100
AcDbBlockBegin
  2
CDWK_PTTYP42
 70
     0
 10
0.0
 20
0.0
 30
0.0
  3
CDWK_PTTYP42
  1

  0
LINE
  5
159
330
158
100
AcDbEntity
  8
0
 62
     0
370
    -2
100
AcDbLine
 10
-0.5
 20
0.5
 30
0.0
 11
0.5
 21
0.5
 31
0.0
  0
LINE
  5
15A
330
158
100
AcDbEntity
  8
0
 62
     0
370
    -2
100
AcDbLine
 10
0.5
 20
0.5
 30
0.0
 11
0.5
 21
-0.5
 31
0.0
  0
LINE
  5
15B
330
158
100
AcDbEntity
  8
0
 62
     0
370
    -2
100
AcDbLine
 10
0.5
 20
-0.5
 30
0.0
 11
-0.5
 21
-0.5
 31
0.0
  0
LINE
  5
15C
330
158
100
AcDbEntity
  8
0
 62
     0
370
    -2
100
AcDbLine
 10
-0.5
 20
-0.5
 30
0.0
 11
-0.5
 21
0.5
 31
0.0
  0
LINE
  5
15D
330
158
100
AcDbEntity
  8
0
 62
     0
370
    -2
100
AcDbLine
 10
-0.375
 20
0.125
 30
0.0
 11
0.375
 21
0.125
 31
0.0
  0
LINE
  5
15E
330
158
100
AcDbEntity
  8
0
 62
     0
370
    -2
100
AcDbLine
 10
-0.375
 20
-0.125
 30
0.0
 11
0.375
 21
-0.125
 31
0.0
  0
ENDBLK
  5
160
330
158
100
AcDbEntity
  8
0
100
AcDbBlockEnd
  0
BLOCK
  5
165
330
161
100
AcDbEntity
  8
0
100
AcDbBlockBegin
  2
CDWK_PTTYP43
 70
     0
 10
0.0
 20
0.0
 30
0.0
  3
CDWK_PTTYP43
  1

  0
CIRCLE
  5
162
330
161
100
AcDbEntity
  8
0
 62
     0
370
    -2
100
AcDbCircle
 10
0.0
 20
0.0
 30
0.0
 40
0.5
  0
LINE
  5
163
330
161
100
AcDbEntity
  8
0
 62
     0
370
    -2
100
AcDbLine
 10
-0.375
 20
0.166
 30
0.0
 11
0.375
 21
0.166
 31
0.0
  0
LINE
  5
164
330
161
100
AcDbEntity
  8
0
 62
     0
370
    -2
100
AcDbLine
 10
-0.375
 20
-0.166
 30
0.0
 11
0.375
 21
-0.166
 31
0.0
  0
ENDBLK
  5
166
330
161
100
AcDbEntity
  8
0
100
AcDbBlockEnd
  0
BLOCK
  5
16E
330
167
100
AcDbEntity
  8
0
100
AcDbBlockBegin
  2
CDWK_PTTYP44
 70
     0
 10
0.0
 20
0.0
 30
0.0
  3
CDWK_PTTYP44
  1

  0
CIRCLE
  5
168
330
167
100
AcDbEntity
  8
0
 62
     0
370
    -2
100
AcDbCircle
 10
0.0
 20
0.0
 30
0.0
 40
0.5
  0
LINE
  5
169
330
167
100
AcDbEntity
  8
0
 62
     0
370
    -2
100
AcDbLine
 10
-0.375
 20
0.333
 30
0.0
 11
0.375
 21
0.333
 31
0.0
  0
LINE
  5
16A
330
167
100
AcDbEntity
  8
0
 62
     0
370
    -2
100
AcDbLine
 10
-0.375
 20
0.166
 30
0.0
 11
0.375
 21
0.166
 31
0.0
  0
LINE
  5
16B
330
167
100
AcDbEntity
  8
0
 62
     0
370
    -2
100
AcDbLine
 10
-0.375
 20
0.0
 30
0.0
 11
0.375
 21
0.0
 31
0.0
  0
LINE
  5
16C
330
167
100
AcDbEntity
  8
0
 62
     0
370
    -2
100
AcDbLine
 10
-0.375
 20
-0.166
 30
0.0
 11
0.375
 21
-0.166
 31
0.0
  0
LINE
  5
16D
330
167
100
AcDbEntity
  8
0
 62
     0
370
    -2
100
AcDbLine
 10
-0.375
 20
-0.333
 30
0.0
 11
0.375
 21
-0.333
 31
0.0
  0
ENDBLK
  5
16F
330
167
100
AcDbEntity
  8
0
100
AcDbBlockEnd
  0
BLOCK
  5
173
330
170
100
AcDbEntity
  8
0
100
AcDbBlockBegin
  2
CDWK_PTTYP45
 70
     0
 10
0.0
 20
0.0
 30
0.0
  3
CDWK_PTTYP45
  1

  0
ELLIPSE
  5
171
330
170
100
AcDbEntity
  8
0
 62
     0
370
    -2
100
AcDbEllipse
 10
0.0
 20
0.0
 30
0.0
 11
0.5
 21
0.0
 31
0.0
210
0.0
220
0.0
230
1.0
 40
0.82
 41
0.0
 42
6.283185307179586
  0
CIRCLE
  5
172
330
170
100
AcDbEntity
  8
0
 62
     0
370
    -2
100
AcDbCircle
 10
-0.235
 20
0.0
 30
0.0
 40
0.26
  0
ENDBLK
  5
174
330
170
100
AcDbEntity
  8
0
100
AcDbBlockEnd
  0
BLOCK
  5
178
330
175
100
AcDbEntity
  8
0
100
AcDbBlockBegin
  2
CDWK_PTTYP46
 70
     0
 10
0.0
 20
0.0
 30
0.0
  3
CDWK_PTTYP46
  1

  0
ELLIPSE
  5
176
330
175
100
AcDbEntity
  8
0
 62
     0
370
    -2
100
AcDbEllipse
 10
0.0
 20
0.0
 30
0.0
 11
0.5
 21
0.0
 31
0.0
210
0.0
220
0.0
230
1.0
 40
0.82
 41
0.0
 42
6.283185307179586
  0
CIRCLE
  5
177
330
175
100
AcDbEntity
  8
0
 62
     0
370
    -2
100
AcDbCircle
 10
0.0
 20
0.15
 30
0.0
 40
0.26
  0
ENDBLK
  5
179
330
175
100
AcDbEntity
  8
0
100
AcDbBlockEnd
  0
BLOCK
  5
180
330
17A
100
AcDbEntity
  8
0
100
AcDbBlockBegin
  2
CDWK_PTTYP47
 70
     0
 10
0.0
 20
0.0
 30
0.0
  3
CDWK_PTTYP47
  1

  0
LINE
  5
17B
330
17A
100
AcDbEntity
  8
0
 62
     0
370
    -2
100
AcDbLine
 10
-0.5
 20
0.166
 30
0.0
 11
0.5
 21
0.166
 31
0.0
  0
LINE
  5
17C
330
17A
100
AcDbEntity
  8
0
 62
     0
370
    -2
100
AcDbLine
 10
0.5
 20
0.166
 30
0.0
 11
0.5
 21
-0.166
 31
0.0
  0
LINE
  5
17D
330
17A
100
AcDbEntity
  8
0
 62
     0
370
    -2
100
AcDbLine
 10
0.5
 20
-0.166
 30
0.0
 11
-0.5
 21
-0.166
 31
0.0
  0
LINE
  5
17E
330
17A
100
AcDbEntity
  8
0
 62
     0
370
    -2
100
AcDbLine
 10
-0.5
 20
-0.166
 30
0.0
 11
-0.5
 21
0.166
 31
0.0
  0
CIRCLE
  5
17F
330
17A
100
AcDbEntity
  8
0
 62
     0
370
    -2
100
AcDbCircle
 10
0.0
 20
-0.313
 30
0.0
 40
0.4
  0
ENDBLK
  5
181
330
17A
100
AcDbEntity
  8
0
100
AcDbBlockEnd
  0
BLOCK
  5
186
330
183
100
AcDbEntity
  8
0
100
AcDbBlockBegin
  2
CDWK_PTTYP48
 70
     0
 10
0.0
 20
0.0
 30
0.0
  3
CDWK_PTTYP48
  1

  0
CIRCLE
  5
184
330
183
100
AcDbEntity
  8
0
  6
CADWORK_3
 62
     0
 48
0.1
370
    -2
100
AcDbCircle
 10
0.0
 20
0.0
 30
0.0
 40
0.5
  0
CIRCLE
  5
185
330
183
100
AcDbEntity
  8
0
 62
     0
370
    -2
100
AcDbCircle
 10
0.0
 20
0.0
 30
0.0
 40
0.25
  0
ENDBLK
  5
187
330
183
100
AcDbEntity
  8
0
100
AcDbBlockEnd
  0
BLOCK
  5
18D
330
188
100
AcDbEntity
  8
0
100
AcDbBlockBegin
  2
CDWK_PTTYP49
 70
     0
 10
0.0
 20
0.0
 30
0.0
  3
CDWK_PTTYP49
  1

  0
LINE
  5
189
330
188
100
AcDbEntity
  8
0
 62
     0
370
    -2
100
AcDbLine
 10
-0.5
 20
0.166
 30
0.0
 11
0.5
 21
0.166
 31
0.0
  0
LINE
  5
18A
330
188
100
AcDbEntity
  8
0
 62
     0
370
    -2
100
AcDbLine
 10
0.5
 20
0.166
 30
0.0
 11
0.5
 21
-0.166
 31
0.0
  0
LINE
  5
18B
330
188
100
AcDbEntity
  8
0
 62
     0
370
    -2
100
AcDbLine
 10
0.5
 20
-0.166
 30
0.0
 11
-0.5
 21
-0.166
 31
0.0
  0
LINE
  5
18C
330
188
100
AcDbEntity
  8
0
 62
     0
370
    -2
100
AcDbLine
 10
-0.5
 20
-0.166
 30
0.0
 11
-0.5
 21
0.166
 31
0.0
  0
ENDBLK
  5
18E
330
188
100
AcDbEntity
  8
0
100
AcDbBlockEnd
  0
BLOCK
  5
197
330
18F
100
AcDbEntity
  8
0
100
AcDbBlockBegin
  2
CDWK_PTTYP50
 70
     0
 10
0.0
 20
0.0
 30
0.0
  3
CDWK_PTTYP50
  1

  0
LINE
  5
190
330
18F
100
AcDbEntity
  8
0
 62
     0
370
    -2
100
AcDbLine
 10
-0.5
 20
0.166
 30
0.0
 11
0.5
 21
0.166
 31
0.0
  0
LINE
  5
191
330
18F
100
AcDbEntity
  8
0
 62
     0
370
    -2
100
AcDbLine
 10
0.5
 20
0.166
 30
0.0
 11
0.5
 21
-0.166
 31
0.0
  0
LINE
  5
192
330
18F
100
AcDbEntity
  8
0
 62
     0
370
    -2
100
AcDbLine
 10
0.5
 20
-0.166
 30
0.0
 11
-0.5
 21
-0.166
 31
0.0
  0
LINE
  5
193
330
18F
100
AcDbEntity
  8
0
 62
     0
370
    -2
100
AcDbLine
 10
-0.5
 20
-0.166
 30
0.0
 11
-0.5
 21
0.166
 31
0.0
  0
LINE
  5
194
330
18F
100
AcDbEntity
  8
0
 62
     0
370
    -2
100
AcDbLine
 10
-0.25
 20
-0.166
 30
0.0
 11
-0.25
 21
0.166
 31
0.0
  0
LINE
  5
195
330
18F
100
AcDbEntity
  8
0
 62
     0
370
    -2
100
AcDbLine
 10
0.0
 20
-0.166
 30
0.0
 11
0.0
 21
0.166
 31
0.0
  0
LINE
  5
196
330
18F
100
AcDbEntity
  8
0
 62
     0
370
    -2
100
AcDbLine
 10
0.25
 20
-0.166
 30
0.0
 11
0.25
 21
0.166
 31
0.0
  0
ENDBLK
  5
198
330
18F
100
AcDbEntity
  8
0
100
AcDbBlockEnd
  0
BLOCK
  5
19C
330
199
100
AcDbEntity
  8
0
100
AcDbBlockBegin
  2
CDWK_PTTYP51
 70
     0
 10
0.0
 20
0.0
 30
0.0
  3
CDWK_PTTYP51
  1

  0
SPLINE
  5
19A
330
199
100
AcDbEntity
  8
0
 62
     0
370
    -2
100
AcDbSpline
210
0.0
220
0.0
230
1.0
 70
  1064
 71
     3
 72
    12
 73
     8
 74
     6
 42
0.000000001
 43
0.0000000001
 44
0.0000000001
 40
0.0
 40
0.0
 40
0.0
 40
0.0
 40
0.1690118339052032
 40
0.5175774661755118
 40
0.8011704844252565
 40
0.9154070810132151
 40
0.975822310881188
 40
0.975822310881188
 40
0.975822310881188
 40
0.975822310881188
 10
-0.5
 20
-0.077
 30
0.0
 10
-0.443824324006723
 20
-0.0900581618560981
 30
0.0
 10
-0.2717933876546281
 20
-0.1300471387828842
 30
0.0
 10
-0.0276699186086479
 20
-0.0006977790990417
 30
0.0
 10
0.2303349729129116
 20
0.0817803270207037
 30
0.0
 10
0.3686157174766292
 20
0.0066250198607167
 30
0.0
 10
0.4216533294581816
 20
-0.0168719667726145
 30
0.0
 10
0.44
 20
-0.025
 30
0.0
 11
-0.5
 21
-0.077
 31
0.0
 11
-0.333
 21
-0.103
 31
0.0
 11
0.0
 21
0.0
 31
0.0
 11
0.28
 21
0.045
 31
0.0
 11
0.385
 21
0.0
 31
0.0
 11
0.44
 21
-0.025
 31
0.0
  0
HATCH
  5
19B
330
199
100
AcDbEntity
  8
0
 62
     0
370
    -2
100
AcDbHatch
 10
0.0
 20
0.0
 30
0.0
210
0.0
220
0.0
230
1.0
  2
SOLID
 70
     1
 71
     1
 91
        1
 92
        3
 72
     0
 73
     1
 93
        3
 10
0.365
 20
-0.05
 10
0.5
 20
-0.042
 10
0.395
 20
0.045
 97
        0
 75
     0
 76
     1
 98
        0
  0
ENDBLK
  5
19D
330
199
100
AcDbEntity
  8
0
100
AcDbBlockEnd
  0
BLOCK
  5
1A2
330
19E
100
AcDbEntity
  8
0
100
AcDbBlockBegin
  2
CDWK_PTTYP52
 70
     0
 10
0.0
 20
0.0
 30
0.0
  3
CDWK_PTTYP52
  1

  0
LINE
  5
19F
330
19E
100
AcDbEntity
  8
0
 62
     0
370
    -2
100
AcDbLine
 10
-0.5
 20
-0.289
 30
0.0
 11
0.5
 21
-0.289
 31
0.0
  0
LINE
  5
1A0
330
19E
100
AcDbEntity
  8
0
 62
     0
370
    -2
100
AcDbLine
 10
0.5
 20
-0.289
 30
0.0
 11
0.0
 21
0.577
 31
0.0
  0
LINE
  5
1A1
330
19E
100
AcDbEntity
  8
0
 62
     0
370
    -2
100
AcDbLine
 10
0.0
 20
0.577
 30
0.0
 11
-0.5
 21
-0.289
 31
0.0
  0
ENDBLK
  5
1A3
330
19E
100
AcDbEntity
  8
0
100
AcDbBlockEnd
  0
BLOCK
  5
1A9
330
1A4
100
AcDbEntity
  8
0
100
AcDbBlockBegin
  2
cw-dimension-symbol1
 70
     0
 10
0.0
 20
0.0
 30
0.0
  3
cw-dimension-symbol1
  1

  0
LINE
  5
1A5
330
1A4
100
AcDbEntity
  8
0
 62
     0
370
    -2
100
AcDbLine
 10
0.0
 20
0.0
 30
0.0
 11
-1.0
 21
0.25
 31
0.0
  0
LINE
  5
1A6
330
1A4
100
AcDbEntity
  8
0
 62
     0
370
    -2
100
AcDbLine
 10
0.0
 20
0.0
 30
0.0
 11
-1.0
 21
-0.25
 31
0.0
  0
LINE
  5
1A7
330
1A4
100
AcDbEntity
  8
0
 62
     0
370
    -2
100
AcDbLine
 10
-1.0
 20
0.25
 30
0.0
 11
-1.0
 21
-0.25
 31
0.0
  0
LINE
  5
1A8
330
1A4
100
AcDbEntity
  8
0
 62
     0
370
    -2
100
AcDbLine
 10
0.0
 20
0.0
 30
0.0
 11
-1.0
 21
0.0
 31
0.0
  0
ENDBLK
  5
1AA
330
1A4
100
AcDbEntity
  8
0
100
AcDbBlockEnd
  0
BLOCK
  5
1AE
330
1AB
100
AcDbEntity
  8
0
100
AcDbBlockBegin
  2
cw-dimension-symbol2
 70
     0
 10
0.0
 20
0.0
 30
0.0
  3
cw-dimension-symbol2
  1

  0
LINE
  5
1AC
330
1AB
100
AcDbEntity
  8
0
 62
     0
370
    -2
100
AcDbLine
 10
-1.0
 20
0.0
 30
0.0
 11
1.0
 21
0.0
 31
0.0
  0
LINE
  5
1AD
330
1AB
100
AcDbEntity
  8
0
 62
     0
370
    -2
100
AcDbLine
 10
-0.5
 20
-0.5
 30
0.0
 11
0.5
 21
0.5
 31
0.0
  0
ENDBLK
  5
1AF
330
1AB
100
AcDbEntity
  8
0
100
AcDbBlockEnd
  0
BLOCK
  5
1B3
330
1B0
100
AcDbEntity
  8
0
100
AcDbBlockBegin
  2
cw-dimension-symbol3
 70
     0
 10
0.0
 20
0.0
 30
0.0
  3
cw-dimension-symbol3
  1

  0
LINE
  5
1B1
330
1B0
100
AcDbEntity
  8
0
 62
     0
370
    -2
100
AcDbLine
 10
-1.0
 20
0.0
 30
0.0
 11
1.0
 21
0.0
 31
0.0
  0
CIRCLE
  5
1B2
330
1B0
100
AcDbEntity
  8
0
 62
     0
370
    -2
100
AcDbCircle
 10
0.0
 20
0.0
 30
0.0
 40
0.25
  0
ENDBLK
  5
1B4
330
1B0
100
AcDbEntity
  8
0
100
AcDbBlockEnd
  0
BLOCK
  5
1BA
330
1B5
100
AcDbEntity
  8
0
100
AcDbBlockBegin
  2
cw-dimension-symbol5
 70
     0
 10
0.0
 20
0.0
 30
0.0
  3
cw-dimension-symbol5
  1

  0
HATCH
  5
1B6
330
1B5
100
AcDbEntity
  8
0
 62
     0
370
    -2
100
AcDbHatch
 10
0.0
 20
0.0
 30
0.0
210
0.0
220
0.0
230
1.0
  2
SOLID
 70
     1
 71
     1
 91
        1
 92
        3
 72
     0
 73
     1
 93
        3
 10
0.0
 20
0.0
 10
-1.0
 20
0.25
 10
-1.0
 20
-0.25
 97
        0
 75
     0
 76
     1
 98
        0
  0
LINE
  5
1B7
330
1B5
100
AcDbEntity
  8
0
 62
     0
370
    -2
100
AcDbLine
 10
0.0
 20
0.0
 30
0.0
 11
-1.0
 21
0.25
 31
0.0
  0
LINE
  5
1B8
330
1B5
100
AcDbEntity
  8
0
 62
     0
370
    -2
100
AcDbLine
 10
-1.0
 20
0.25
 30
0.0
 11
-1.0
 21
-0.25
 31
0.0
  0
LINE
  5
1B9
330
1B5
100
AcDbEntity
  8
0
 62
     0
370
    -2
100
AcDbLine
 10
-1.0
 20
-0.25
 30
0.0
 11
0.0
 21
0.0
 31
0.0
  0
ENDBLK
  5
1BB
330
1B5
100
AcDbEntity
  8
0
100
AcDbBlockEnd
  0
BLOCK
  5
1C0
330
1BC
100
AcDbEntity
  8
0
100
AcDbBlockBegin
  2
cw-dimension-symbol6
 70
     0
 10
0.0
 20
0.0
 30
0.0
  3
cw-dimension-symbol6
  1

  0
LINE
  5
1BD
330
1BC
100
AcDbEntity
  8
0
 62
     0
370
    -2
100
AcDbLine
 10
0.0
 20
0.0
 30
0.0
 11
-1.0
 21
0.25
 31
0.0
  0
LINE
  5
1BE
330
1BC
100
AcDbEntity
  8
0
 62
     0
370
    -2
100
AcDbLine
 10
0.0
 20
0.0
 30
0.0
 11
-1.0
 21
-0.25
 31
0.0
  0
LINE
  5
1BF
330
1BC
100
AcDbEntity
  8
0
 62
     0
370
    -2
100
AcDbLine
 10
0.0
 20
0.0
 30
0.0
 11
-1.0
 21
0.0
 31
0.0
  0
ENDBLK
  5
1C1
330
1BC
100
AcDbEntity
  8
0
100
AcDbBlockEnd
  0
BLOCK
  5
1C6
330
1C2
100
AcDbEntity
  8
0
100
AcDbBlockBegin
  2
cw-dimension-symbol11
 70
     0
 10
0.0
 20
0.0
 30
0.0
  3
cw-dimension-symbol11
  1

  0
LINE
  5
1C3
330
1C2
100
AcDbEntity
  8
0
 62
     0
370
    -2
100
AcDbLine
 10
-1.0
 20
1.0
 30
0.0
 11
1.0
 21
1.0
 31
0.0
  0
LINE
  5
1C4
330
1C2
100
AcDbEntity
  8
0
 62
     0
370
    -2
100
AcDbLine
 10
0.0
 20
0.0
 30
0.0
 11
-1.0
 21
1.0
 31
0.0
  0
LINE
  5
1C5
330
1C2
100
AcDbEntity
  8
0
 62
     0
370
    -2
100
AcDbLine
 10
0.0
 20
0.0
 30
0.0
 11
1.0
 21
1.0
 31
0.0
  0
ENDBLK
  5
1C7
330
1C2
100
AcDbEntity
  8
0
100
AcDbBlockEnd
  0
BLOCK
  5
1CC
330
1C8
100
AcDbEntity
  8
0
100
AcDbBlockBegin
  2
cw-dimension-symbol13
 70
     0
 10
0.0
 20
0.0
 30
0.0
  3
cw-dimension-symbol13
  1

  0
LINE
  5
1C9
330
1C8
100
AcDbEntity
  8
0
 62
     0
370
    -2
100
AcDbLine
 10
-1.0
 20
-1.0
 30
0.0
 11
1.0
 21
-1.0
 31
0.0
  0
LINE
  5
1CA
330
1C8
100
AcDbEntity
  8
0
 62
     0
370
    -2
100
AcDbLine
 10
0.0
 20
0.0
 30
0.0
 11
-1.0
 21
-1.0
 31
0.0
  0
LINE
  5
1CB
330
1C8
100
AcDbEntity
  8
0
 62
     0
370
    -2
100
AcDbLine
 10
0.0
 20
0.0
 30
0.0
 11
1.0
 21
-1.0
 31
0.0
  0
ENDBLK
  5
1CD
330
1C8
100
AcDbEntity
  8
0
100
AcDbBlockEnd
  0
BLOCK
  5
1D3
330
1CE
100
AcDbEntity
  8
0
100
AcDbBlockBegin
  2
cw-dimension-symbol15
 70
     0
 10
0.0
 20
0.0
 30
0.0
  3
cw-dimension-symbol15
  1

  0
HATCH
  5
1CF
330
1CE
100
AcDbEntity
  8
0
 62
     0
370
    -2
100
AcDbHatch
 10
0.0
 20
0.0
 30
0.0
210
0.0
220
0.0
230
1.0
  2
SOLID
 70
     1
 71
     1
 91
        1
 92
        3
 72
     0
 73
     1
 93
        3
 10
0.0
 20
0.0
 10
-1.0
 20
1.0
 10
1.0
 20
1.0
 97
        0
 75
     0
 76
     1
 98
        0
  0
LINE
  5
1D0
330
1CE
100
AcDbEntity
  8
0
 62
     0
370
    -2
100
AcDbLine
 10
0.0
 20
0.0
 30
0.0
 11
-1.0
 21
1.0
 31
0.0
  0
LINE
  5
1D1
330
1CE
100
AcDbEntity
  8
0
 62
     0
370
    -2
100
AcDbLine
 10
-1.0
 20
1.0
 30
0.0
 11
1.0
 21
1.0
 31
0.0
  0
LINE
  5
1D2
330
1CE
100
AcDbEntity
  8
0
 62
     0
370
    -2
100
AcDbLine
 10
1.0
 20
1.0
 30
0.0
 11
0.0
 21
0.0
 31
0.0
  0
ENDBLK
  5
1D4
330
1CE
100
AcDbEntity
  8
0
100
AcDbBlockEnd
  0
BLOCK
  5
1DA
330
1D5
100
AcDbEntity
  8
0
100
AcDbBlockBegin
  2
cw-dimension-symbol16
 70
     0
 10
0.0
 20
0.0
 30
0.0
  3
cw-dimension-symbol16
  1

  0
HATCH
  5
1D6
330
1D5
100
AcDbEntity
  8
0
 62
     0
370
    -2
100
AcDbHatch
 10
0.0
 20
0.0
 30
0.0
210
0.0
220
0.0
230
1.0
  2
SOLID
 70
     1
 71
     1
 91
        1
 92
        3
 72
     0
 73
     1
 93
        3
 10
0.0
 20
0.0
 10
-1.0
 20
-1.0
 10
1.0
 20
-1.0
 97
        0
 75
     0
 76
     1
 98
        0
  0
LINE
  5
1D7
330
1D5
100
AcDbEntity
  8
0
 62
     0
370
    -2
100
AcDbLine
 10
0.0
 20
0.0
 30
0.0
 11
-1.0
 21
-1.0
 31
0.0
  0
LINE
  5
1D8
330
1D5
100
AcDbEntity
  8
0
 62
     0
370
    -2
100
AcDbLine
 10
-1.0
 20
-1.0
 30
0.0
 11
1.0
 21
-1.0
 31
0.0
  0
LINE
  5
1D9
330
1D5
100
AcDbEntity
  8
0
 62
     0
370
    -2
100
AcDbLine
 10
1.0
 20
-1.0
 30
0.0
 11
0.0
 21
0.0
 31
0.0
  0
ENDBLK
  5
1DB
330
1D5
100
AcDbEntity
  8
0
100
AcDbBlockEnd
  0
BLOCK
  5
1E1
330
1DC
100
AcDbEntity
  8
0
100
AcDbBlockBegin
  2
cw-dimension-symbol17
 70
     0
 10
0.0
 20
0.0
 30
0.0
  3
cw-dimension-symbol17
  1

  0
LINE
  5
1DD
330
1DC
100
AcDbEntity
  8
0
 62
     0
370
    -2
100
AcDbLine
 10
0.0
 20
0.0
 30
0.0
 11
1.0
 21
1.0
 31
0.0
  0
LINE
  5
1DE
330
1DC
100
AcDbEntity
  8
0
 62
     0
370
    -2
100
AcDbLine
 10
1.0
 20
1.0
 30
0.0
 11
-1.0
 21
1.0
 31
0.0
  0
LINE
  5
1DF
330
1DC
100
AcDbEntity
  8
0
 62
     0
370
    -2
100
AcDbLine
 10
-1.0
 20
1.0
 30
0.0
 11
0.0
 21
0.0
 31
0.0
  0
HATCH
  5
1E0
330
1DC
100
AcDbEntity
  8
0
 62
     0
370
    -2
100
AcDbHatch
 10
0.0
 20
0.0
 30
0.0
210
0.0
220
0.0
230
1.0
  2
SOLID
 70
     1
 71
     1
 91
        1
 92
        3
 72
     0
 73
     1
 93
        3
 10
0.0
 20
0.0
 10
-1.0
 20
1.0
 10
0.0
 20
1.0
 97
        0
 75
     0
 76
     1
 98
        0
  0
ENDBLK
  5
1E2
330
1DC
100
AcDbEntity
  8
0
100
AcDbBlockEnd
  0
BLOCK
  5
1E8
330
1E3
100
AcDbEntity
  8
0
100
AcDbBlockBegin
  2
cw-dimension-symbol18
 70
     0
 10
0.0
 20
0.0
 30
0.0
  3
cw-dimension-symbol18
  1

  0
LINE
  5
1E4
330
1E3
100
AcDbEntity
  8
0
 62
     0
370
    -2
100
AcDbLine
 10
0.0
 20
0.0
 30
0.0
 11
1.0
 21
-1.0
 31
0.0
  0
LINE
  5
1E5
330
1E3
100
AcDbEntity
  8
0
 62
     0
370
    -2
100
AcDbLine
 10
1.0
 20
-1.0
 30
0.0
 11
-1.0
 21
-1.0
 31
0.0
  0
LINE
  5
1E6
330
1E3
100
AcDbEntity
  8
0
 62
     0
370
    -2
100
AcDbLine
 10
-1.0
 20
-1.0
 30
0.0
 11
0.0
 21
0.0
 31
0.0
  0
HATCH
  5
1E7
330
1E3
100
AcDbEntity
  8
0
 62
     0
370
    -2
100
AcDbHatch
 10
0.0
 20
0.0
 30
0.0
210
0.0
220
0.0
230
1.0
  2
SOLID
 70
     1
 71
     1
 91
        1
 92
        3
 72
     0
 73
     1
 93
        3
 10
0.0
 20
0.0
 10
-1.0
 20
-1.0
 10
0.0
 20
-1.0
 97
        0
 75
     0
 76
     1
 98
        0
  0
ENDBLK
  5
1E9
330
1E3
100
AcDbEntity
  8
0
100
AcDbBlockEnd
  0
BLOCK
  5
1EB
330
1EA
100
AcDbEntity
  8
0
100
AcDbBlockBegin
  2
cw-dimension-symbol19
 70
     0
 10
0.0
 20
0.0
 30
0.0
  3
cw-dimension-symbol19
  1

  0
ENDBLK
  5
1EC
330
1EA
100
AcDbEntity
  8
0
100
AcDbBlockEnd
  0
BLOCK
  5
1F2
330
1ED
100
AcDbEntity
  8
0
100
AcDbBlockBegin
  2
cw-dimension-symbol20
 70
     0
 10
0.0
 20
0.0
 30
0.0
  3
cw-dimension-symbol20
  1

  0
LINE
  5
1EE
330
1ED
100
AcDbEntity
  8
0
 62
     0
370
    -2
100
AcDbLine
 10
0.0
 20
0.0
 30
0.0
 11
0.0
 21
2.0
 31
0.0
  0
LINE
  5
1EF
330
1ED
100
AcDbEntity
  8
0
 62
     0
370
    -2
100
AcDbLine
 10
0.0
 20
0.0
 30
0.0
 11
-1.0
 21
0.33
 31
0.0
  0
LINE
  5
1F0
330
1ED
100
AcDbEntity
  8
0
 62
     0
370
    -2
100
AcDbLine
 10
0.0
 20
0.0
 30
0.0
 11
1.0
 21
0.33
 31
0.0
  0
LINE
  5
1F1
330
1ED
100
AcDbEntity
  8
0
 62
     0
370
    -2
100
AcDbLine
 10
0.0
 20
2.0
 30
0.0
 11
4.15
 21
2.0
 31
0.0
  0
ENDBLK
  5
1F3
330
1ED
100
AcDbEntity
  8
0
100
AcDbBlockEnd
  0
BLOCK
  5
1F9
330
1F4
100
AcDbEntity
  8
0
100
AcDbBlockBegin
  2
cw-dimension-symbol21
 70
     0
 10
0.0
 20
0.0
 30
0.0
  3
cw-dimension-symbol21
  1

  0
LINE
  5
1F5
330
1F4
100
AcDbEntity
  8
0
 62
     0
370
    -2
100
AcDbLine
 10
0.0
 20
0.0
 30
0.0
 11
0.0
 21
-2.0
 31
0.0
  0
LINE
  5
1F6
330
1F4
100
AcDbEntity
  8
0
 62
     0
370
    -2
100
AcDbLine
 10
0.0
 20
0.0
 30
0.0
 11
-1.0
 21
-0.33
 31
0.0
  0
LINE
  5
1F7
330
1F4
100
AcDbEntity
  8
0
 62
     0
370
    -2
100
AcDbLine
 10
0.0
 20
0.0
 30
0.0
 11
1.0
 21
-0.33
 31
0.0
  0
LINE
  5
1F8
330
1F4
100
AcDbEntity
  8
0
 62
     0
370
    -2
100
AcDbLine
 10
0.0
 20
-2.0
 30
0.0
 11
4.15
 21
-2.0
 31
0.0
  0
ENDBLK
  5
1FA
330
1F4
100
AcDbEntity
  8
0
100
AcDbBlockEnd
  0
BLOCK
  5
22B
330
1FB
100
AcDbEntity
  8
0
100
AcDbBlockBegin
  2
cw-line-extremity0
 70
     0
 10
0.0
 20
0.0
 30
0.0
  3
cw-line-extremity0
  1

  0
LINE
  5
1FC
330
1FB
100
AcDbEntity
  8
0
 62
     0
370
    -2
100
AcDbLine
 10
0.0
 20
0.0
 30
0.0
 11
4.0
 21
1.0
 31
0.0
  0
LINE
  5
1FD
330
1FB
100
AcDbEntity
  8
0
 62
     0
370
    -2
100
AcDbLine
 10
0.0
 20
0.0
 30
0.0
 11
4.0
 21
-1.0
 31
0.0
  0
LINE
  5
1FE
330
1FB
100
AcDbEntity
  8
0
 62
     0
370
    -2
100
AcDbLine
 10
4.0
 20
1.0
 30
0.0
 11
4.0
 21
-1.0
 31
0.0
  0
ENDBLK
  5
22C
330
1FB
100
AcDbEntity
  8
0
100
AcDbBlockEnd
  0
BLOCK
  5
229
330
1FF
100
AcDbEntity
  8
0
100
AcDbBlockBegin
  2
cw-line-extremity2
 70
     0
 10
0.0
 20
0.0
 30
0.0
  3
cw-line-extremity2
  1

  0
HATCH
  5
200
330
1FF
100
AcDbEntity
  8
0
 62
     0
370
     0
100
AcDbHatch
 10
0.0
 20
0.0
 30
0.0
210
0.0
220
0.0
230
1.0
  2
SOLID
 70
     1
 71
     1
 91
        1
 92
        3
 72
     0
 73
     1
 93
        3
 10
0.0
 20
0.0
 10
4.0
 20
1.0
 10
4.0
 20
-1.0
 97
        0
 75
     0
 76
     1
 98
        0
  0
LINE
  5
201
330
1FF
100
AcDbEntity
  8
0
 62
     0
370
    -2
100
AcDbLine
 10
0.0
 20
0.0
 30
0.0
 11
4.0
 21
1.0
 31
0.0
  0
LINE
  5
202
330
1FF
100
AcDbEntity
  8
0
 62
     0
370
    -2
100
AcDbLine
 10
4.0
 20
1.0
 30
0.0
 11
4.0
 21
-1.0
 31
0.0
  0
LINE
  5
203
330
1FF
100
AcDbEntity
  8
0
 62
     0
370
    -2
100
AcDbLine
 10
4.0
 20
-1.0
 30
0.0
 11
0.0
 21
0.0
 31
0.0
  0
ENDBLK
  5
22A
330
1FF
100
AcDbEntity
  8
0
100
AcDbBlockEnd
  0
BLOCK
  5
227
330
204
100
AcDbEntity
  8
0
100
AcDbBlockBegin
  2
cw-line-extremity3
 70
     0
 10
0.0
 20
0.0
 30
0.0
  3
cw-line-extremity3
  1

  0
HATCH
  5
205
330
204
100
AcDbEntity
  8
0
 62
     0
370
     0
100
AcDbHatch
 10
0.0
 20
0.0
 30
0.0
210
0.0
220
0.0
230
1.0
  2
SOLID
 70
     1
 71
     1
 91
        1
 92
        3
 72
     0
 73
     1
 93
        3
 10
0.0
 20
0.0
 10
4.0
 20
1.0
 10
4.0
 20
-1.0
 97
        0
 75
     0
 76
     1
 98
        0
  0
LINE
  5
206
330
204
100
AcDbEntity
  8
0
 62
     0
370
    -2
100
AcDbLine
 10
0.0
 20
0.0
 30
0.0
 11
4.0
 21
1.0
 31
0.0
  0
LINE
  5
207
330
204
100
AcDbEntity
  8
0
 62
     0
370
    -2
100
AcDbLine
 10
4.0
 20
1.0
 30
0.0
 11
4.0
 21
-1.0
 31
0.0
  0
LINE
  5
208
330
204
100
AcDbEntity
  8
0
 62
     0
370
    -2
100
AcDbLine
 10
4.0
 20
-1.0
 30
0.0
 11
0.0
 21
0.0
 31
0.0
  0
ENDBLK
  5
228
330
204
100
AcDbEntity
  8
0
100
AcDbBlockEnd
  0
BLOCK
  5
225
330
209
100
AcDbEntity
  8
0
100
AcDbBlockBegin
  2
cw-line-extremity301
 70
     0
 10
0.0
 20
0.0
 30
0.0
  3
cw-line-extremity301
  1

  0
LINE
  5
20A
330
209
100
AcDbEntity
  8
0
 62
     0
370
    -2
100
AcDbLine
 10
0.0
 20
2.66666
 30
0.0
 11
0.0
 21
-2.66666
 31
0.0
  0
ENDBLK
  5
226
330
209
100
AcDbEntity
  8
0
100
AcDbBlockEnd
  0
BLOCK
  5
223
330
20B
100
AcDbEntity
  8
0
100
AcDbBlockBegin
  2
cw-line-extremity4
 70
     0
 10
0.0
 20
0.0
 30
0.0
  3
cw-line-extremity4
  1

  0
HATCH
  5
20C
330
20B
100
AcDbEntity
  8
0
 62
     0
370
     5
100
AcDbHatch
 10
0.0
 20
0.0
 30
0.0
210
0.0
220
0.0
230
1.0
  2
SOLID
 70
     1
 71
     1
 91
        1
 92
        1
 93
        1
 72
     2
 10
0.0
 20
0.0
 40
1.0
 50
0.0
 51
360.0
 73
     1
 97
        0
 75
     0
 76
     1
 98
        0
  0
ENDBLK
  5
224
330
20B
100
AcDbEntity
  8
0
100
AcDbBlockEnd
  0
BLOCK
  5
221
330
20D
100
AcDbEntity
  8
0
100
AcDbBlockBegin
  2
cw-line-extremity5
 70
     0
 10
0.0
 20
0.0
 30
0.0
  3
cw-line-extremity5
  1

  0
LINE
  5
20E
330
20D
100
AcDbEntity
  8
0
 62
     0
370
    -2
100
AcDbLine
 10
0.0
 20
0.0
 30
0.0
 11
-1.0
 21
0.0
 31
0.0
  0
ENDBLK
  5
222
330
20D
100
AcDbEntity
  8
0
100
AcDbBlockEnd
  0
BLOCK
  5
21F
330
20F
100
AcDbEntity
  8
0
100
AcDbBlockBegin
  2
cw-line-extremity6
 70
     0
 10
0.0
 20
0.0
 30
0.0
  3
cw-line-extremity6
  1

  0
LINE
  5
210
330
20F
100
AcDbEntity
  8
0
 62
     0
370
    18
100
AcDbLine
 10
0.0
 20
1.0
 30
0.0
 11
0.0
 21
-1.0
 31
0.0
  0
ENDBLK
  5
220
330
20F
100
AcDbEntity
  8
0
100
AcDbBlockEnd
  0
BLOCK
  5
21D
330
211
100
AcDbEntity
  8
0
100
AcDbBlockBegin
  2
cw-line-extremity9
 70
     0
 10
0.0
 20
0.0
 30
0.0
  3
cw-line-extremity9
  1

  0
LINE
  5
212
330
211
100
AcDbEntity
  8
0
 62
     0
370
    18
100
AcDbLine
 10
-1.0
 20
-1.0
 30
0.0
 11
1.0
 21
1.0
 31
0.0
  0
ENDBLK
  5
21E
330
211
100
AcDbEntity
  8
0
100
AcDbBlockEnd
  0
BLOCK
  5
21B
330
213
100
AcDbEntity
  8
0
100
AcDbBlockBegin
  2
cw-line-extremity10
 70
     0
 10
0.0
 20
0.0
 30
0.0
  3
cw-line-extremity10
  1

  0
CIRCLE
  5
214
330
213
100
AcDbEntity
  8
0
 62
     0
370
    -2
100
AcDbCircle
 10
0.0
 20
0.0
 30
0.0
 40
1.0
  0
ENDBLK
  5
21C
330
213
100
AcDbEntity
  8
0
100
AcDbBlockEnd
  0
BLOCK
  5
219
330
215
100
AcDbEntity
  8
0
100
AcDbBlockBegin
  2
cw-line-extremity1
 70
     0
 10
0.0
 20
0.0
 30
0.0
  3
cw-line-extremity1
  1

  0
LINE
  5
216
330
215
100
AcDbEntity
  8
0
 62
     0
370
    -2
100
AcDbLine
 10
0.0
 20
0.0
 30
0.0
 11
0.0
 21
1.0
 31
0.0
  0
LINE
  5
217
330
215
100
AcDbEntity
  8
0
 62
     0
370
    -2
100
AcDbLine
 10
0.0
 20
1.0
 30
0.0
 11
0.5
 21
1.5
 31
0.0
  0
LINE
  5
218
330
215
100
AcDbEntity
  8
0
 62
     0
370
    -2
100
AcDbLine
 10
0.5
 20
1.5
 30
0.0
 11
1.5
 21
1.5
 31
0.0
  0
ENDBLK
  5
21A
330
215
100
AcDbEntity
  8
0
100
AcDbBlockEnd
  0
BLOCK
  5
1C
330
1B
100
AcDbEntity
  8
0
100
AcDbBlockBegin
  2
*Paper_Space69
 70
     0
 10
0.0
 20
0.0
 30
0.0
  3
*Paper_Space69
  1

  0
ENDBLK
  5
1D
330
1B
100
AcDbEntity
  8
0
100
AcDbBlockEnd
  0
BLOCK
  5
3D1
330
3D0
100
AcDbEntity
  8
0
100
AcDbBlockBegin
  2
*D70
 70
     1
 10
0.0
 20
0.0
 30
0.0
  3
*D70
  1

  0
LINE
  5
3D3
330
3D0
100
AcDbEntity
  8
Ech.1_5
 62
     0
370
    -2
100
AcDbLine
 10
-296.3368974873109
 20
-2843.937432052635
 30
0.0
 11
-291.9407073341132
 21
-2843.937432052635
 31
0.0
  0
LINE
  5
3D4
330
3D0
100
AcDbEntity
  8
Ech.1_5
 62
     0
370
    -2
100
AcDbLine
 10
-284.3368974873109
 20
-2841.904065262403
 30
0.0
 11
-295.9407073341132
 21
-2841.904065262403
 31
0.0
  0
LINE
  5
3D5
330
3D0
100
AcDbEntity
  8
Ech.1_5
 62
     0
370
    -2
100
AcDbLine
 10
-293.9407073341132
 20
-2843.937432052635
 30
0.0
 11
-293.9407073341132
 21
-2841.904065262403
 31
0.0
  0
LINE
  5
3D6
330
3D0
100
AcDbEntity
  8
Ech.1_5
 62
     0
370
    -2
100
AcDbLine
 10
-293.9407073341132
 20
-2845.937432052635
 30
0.0
 11
-293.9407073341132
 21
-2847.937432052635
 31
0.0
  0
LINE
  5
3D7
330
3D0
100
AcDbEntity
  8
Ech.1_5
 62
     0
370
    -2
100
AcDbLine
 10
-293.9407073341132
 20
-2839.904065262403
 30
0.0
 11
-293.9407073341132
 21
-2837.904065262403
 31
0.0
  0
INSERT
  5
3D8
330
3D0
100
AcDbEntity
  8
Ech.1_5
 62
     0
370
    -2
100
AcDbBlockReference
  2
cw-dimension-symbol2
 10
-293.9407073341132
 20
-2843.937432052635
 30
0.0
 41
2.0
 42
2.0
 43
2.0
 50
90.0
  0
INSERT
  5
3D9
330
3D0
100
AcDbEntity
  8
Ech.1_5
 62
     0
370
    -2
100
AcDbBlockReference
  2
cw-dimension-symbol2
 10
-293.9407073341132
 20
-2841.904065262403
 30
0.0
 41
2.0
 42
2.0
 43
2.0
 50
270.0
  0
MTEXT
  5
3DA
330
3D0
100
AcDbEntity
  8
Ech.1_5
 62
   190
370
    20
100
AcDbMText
 10
-298.4407073341132
 20
-2842.920748657519
 30
0.0
 40
5.0
 41
0.0
 46
0.0
 71
     5
 72
     1
  1
\A1;5 mm
  7
arial-z
 11
6.123233995736766E-17
 21
1.0
 31
0.0
 73
     1
 44
1.0
  0
POINT
  5
3DB
330
3D0
100
AcDbEntity
  8
Defpoints
 62
     0
100
AcDbPoint
 10
-296.3368974873109
 20
-2843.937432052635
 30
0.0
  0
POINT
  5
3DC
330
3D0
100
AcDbEntity
  8
Defpoints
 62
     0
100
AcDbPoint
 10
-284.3368974873109
 20
-2841.904065262403
 30
0.0
  0
POINT
  5
3DD
330
3D0
100
AcDbEntity
  8
Defpoints
 62
     0
100
AcDbPoint
 10
-293.9407073341132
 20
-2841.904065262403
 30
0.0
  0
ENDBLK
  5
3D2
330
3D0
100
AcDbEntity
  8
0
100
AcDbBlockEnd
  0
BLOCK
  5
3E1
330
3E0
100
AcDbEntity
  8
0
100
AcDbBlockBegin
  2
*D71
 70
     1
 10
0.0
 20
0.0
 30
0.0
  3
*D71
  1

  0
LINE
  5
3E3
330
3E0
100
AcDbEntity
  8
Ech.1_5
 62
     0
370
    -2
100
AcDbLine
 10
-296.3368974873109
 20
-2917.578697705575
 30
0.0
 11
-291.9407073341132
 21
-2917.578697705575
 31
0.0
  0
LINE
  5
3E4
330
3E0
100
AcDbEntity
  8
Ech.1_5
 62
     0
370
    -2
100
AcDbLine
 10
-284.3368974873109
 20
-2915.545330915342
 30
0.0
 11
-295.9407073341132
 21
-2915.545330915342
 31
0.0
  0
LINE
  5
3E5
330
3E0
100
AcDbEntity
  8
Ech.1_5
 62
     0
370
    -2
100
AcDbLine
 10
-293.9407073341132
 20
-2917.578697705575
 30
0.0
 11
-293.9407073341132
 21
-2915.545330915342
 31
0.0
  0
LINE
  5
3E6
330
3E0
100
AcDbEntity
  8
Ech.1_5
 62
     0
370
    -2
100
AcDbLine
 10
-293.9407073341132
 20
-2919.578697705575
 30
0.0
 11
-293.9407073341132
 21
-2921.578697705575
 31
0.0
  0
LINE
  5
3E7
330
3E0
100
AcDbEntity
  8
Ech.1_5
 62
     0
370
    -2
100
AcDbLine
 10
-293.9407073341132
 20
-2913.545330915342
 30
0.0
 11
-293.9407073341132
 21
-2911.545330915342
 31
0.0
  0
INSERT
  5
3E8
330
3E0
100
AcDbEntity
  8
Ech.1_5
 62
     0
370
    -2
100
AcDbBlockReference
  2
cw-dimension-symbol2
 10
-293.9407073341132
 20
-2917.578697705575
 30
0.0
 41
2.0
 42
2.0
 43
2.0
 50
90.0
  0
INSERT
  5
3E9
330
3E0
100
AcDbEntity
  8
Ech.1_5
 62
     0
370
    -2
100
AcDbBlockReference
  2
cw-dimension-symbol2
 10
-293.9407073341132
 20
-2915.545330915342
 30
0.0
 41
2.0
 42
2.0
 43
2.0
 50
270.0
  0
MTEXT
  5
3EA
330
3E0
100
AcDbEntity
  8
Ech.1_5
 62
   190
370
    20
100
AcDbMText
 10
-298.4407073341132
 20
-2916.562014310459
 30
0.0
 40
5.0
 41
0.0
 46
0.0
 71
     5
 72
     1
  1
\A1;5 mm
  7
arial-z
 11
6.123233995736766E-17
 21
1.0
 31
0.0
 73
     1
 44
1.0
  0
POINT
  5
3EB
330
3E0
100
AcDbEntity
  8
Defpoints
 62
     0
100
AcDbPoint
 10
-296.3368974873109
 20
-2917.578697705575
 30
0.0
  0
POINT
  5
3EC
330
3E0
100
AcDbEntity
  8
Defpoints
 62
     0
100
AcDbPoint
 10
-284.3368974873109
 20
-2915.545330915342
 30
0.0
  0
POINT
  5
3ED
330
3E0
100
AcDbEntity
  8
Defpoints
 62
     0
100
AcDbPoint
 10
-293.9407073341132
 20
-2915.545330915342
 30
0.0
  0
ENDBLK
  5
3E2
330
3E0
100
AcDbEntity
  8
0
100
AcDbBlockEnd
  0
ENDSEC
  0
SECTION
  2
ENTITIES
  0
HATCH
  5
236
330
1F
100
AcDbEntity
  8
Ech.1_5
 62
   254
420
 15326711
440
 33554687
370
     5
100
AcDbHatch
 10
0.0
 20
0.0
 30
0.0
210
0.0
220
0.0
230
1.0
  2
SOLID
 70
     1
 71
     1
 91
        1
 92
        3
 72
     0
 73
     1
 93
        8
 10
-207.7564031084152
 20
-2717.99931769099
 10
-234.6116362206955
 20
-2717.998819881076
 10
-241.2061778532949
 20
-2725.190160522847
 10
-235.5622018461723
 20
-2710.807880518124
 10
-242.1564031085374
 20
-2717.998819881076
 10
-279.7564031088372
 20
-2717.998976033044
 10
-279.7564031085374
 20
-2841.904065262403
 10
-207.7564031084152
 20
-2841.904065262403
 97
        0
 75
     0
 76
     1
 98
        0
  0
LWPOLYLINE
  5
237
330
1F
100
AcDbEntity
  8
Ech.1_5
 62
   190
370
    20
100
AcDbPolyline
 90
        9
 70
     0
 43
0.0
 10
-207.7564031084152
 20
-2717.99931769099
 10
-234.6116362206955
 20
-2717.998819881076
 10
-241.2061778532949
 20
-2725.190160522847
 10
-235.5622018461723
 20
-2710.807880518124
 10
-242.1564031085374
 20
-2717.998819881076
 10
-279.7564031088372
 20
-2717.998976033044
 10
-279.7564031085374
 20
-2841.904065262403
 10
-207.7564031084152
 20
-2841.904065262403
 10
-207.7564031084152
 20
-2717.99931769099
  0
HATCH
  5
238
330
1F
100
AcDbEntity
  8
Ech.1_5
 62
   254
420
 15326711
440
 33554687
370
     5
100
AcDbHatch
 10
0.0
 20
0.0
 30
0.0
210
0.0
220
0.0
230
1.0
  2
SOLID
 70
     1
 71
     1
 91
        1
 92
        3
 72
     0
 73
     1
 93
       10
 10
-207.7564031084734
 20
-2972.026519868317
 10
-207.7564031084152
 20
-2960.426520650139
 10
-207.7564031084152
 20
-2917.446832306308
 10
-279.756403108485
 20
-2917.446832306308
 10
-279.7564031084152
 20
-3039.15519170517
 10
-242.1564031085374
 20
-3039.155308342147
 10
-235.5618614759322
 20
-3031.963967700376
 10
-241.2058374830547
 20
-3046.346247705099
 10
-234.6116362206955
 20
-3039.155308342147
 10
-207.7564031084152
 20
-3039.154656522236
 97
        0
 75
     0
 76
     1
 98
        0
  0
LWPOLYLINE
  5
239
330
1F
100
AcDbEntity
  8
Ech.1_5
 62
   190
370
    20
100
AcDbPolyline
 90
       11
 70
     0
 43
0.0
 10
-207.7564031084734
 20
-2972.026519868317
 10
-207.7564031084152
 20
-2960.426520650139
 10
-207.7564031084152
 20
-2917.446832306308
 10
-279.756403108485
 20
-2917.446832306308
 10
-279.7564031084152
 20
-3039.15519170517
 10
-242.1564031085374
 20
-3039.155308342147
 10
-235.5618614759322
 20
-3031.963967700376
 10
-241.2058374830547
 20
-3046.346247705099
 10
-234.6116362206955
 20
-3039.155308342147
 10
-207.7564031084152
 20
-3039.154656522236
 10
-207.7564031084734
 20
-2972.026519868317
  0
LINE
  5
23A
330
1F
100
AcDbEntity
  8
Ech.1_5
 62
   190
370
    20
100
AcDbLine
 10
-153.3774457433825
 20
-2843.904065262408
 30
0.0
 11
-322.4360943595672
 21
-2843.904065262402
 31
0.0
  0
LINE
  5
23B
330
1F
100
AcDbEntity
  8
Ech.1_5
 62
   190
370
    20
100
AcDbLine
 10
-153.3774457433796
 20
-2915.545330915342
 30
0.0
 11
-322.4360943595643
 21
-2915.545330915342
 31
0.0
  0
LWPOLYLINE
  5
23C
330
1F
100
AcDbEntity
  8
Ech.1_5
 62
   190
370
    20
100
AcDbPolyline
 90
       41
 70
     0
 43
0.0
 10
-322.4360943595672
 20
-2915.545330915342
 10
-319.8268157816954
 20
-2915.104319484315
 10
-317.28178630211
 20
-2913.792144356299
 10
-314.863672993067
 20
-2911.641115637809
 10
-312.632017829493
 20
-2908.704198794752
 10
-310.6417715679531
 20
-2905.05371046686
 10
-308.9419406766563
 20
-2900.779537792054
 10
-307.5743806335635
 20
-2895.98692508675
 10
-306.5727653056001
 20
-2890.793882381518
 10
-305.9617577863214
 20
-2885.328279622485
 10
-305.7564031086626
 20
-2879.724698088875
 10
-305.9617577863214
 20
-2874.121116555259
 10
-306.5727653056001
 20
-2868.655513796231
 10
-307.5743806335635
 20
-2863.462471091
 10
-308.9419406766563
 20
-2858.669858385691
 10
-310.6417715679531
 20
-2854.395685710884
 10
-312.632017829493
 20
-2850.745197382998
 10
-314.863672993067
 20
-2847.808280539935
 10
-317.28178630211
 20
-2845.657251821445
 10
-319.8268157816954
 20
-2844.345076693429
 10
-322.4360943595672
 20
-2843.904065262402
 10
-325.0453729374389
 20
-2844.345076693429
 10
-327.5904024170243
 20
-2845.657251821445
 10
-330.0085157260703
 20
-2847.80828053993
 10
-332.2401708896443
 20
-2850.745197382992
 10
-334.2304171511813
 20
-2854.395685710884
 10
-335.930248042478
 20
-2858.669858385691
 10
-337.2978080855737
 20
-2863.462471090994
 10
-338.2994234135342
 20
-2868.655513796226
 10
-338.9104309328159
 20
-2874.121116555259
 10
-339.1157856104746
 20
-2879.724698088875
 10
-338.9104309328159
 20
-2885.328279622485
 10
-338.2994234135342
 20
-2890.793882381518
 10
-337.2978080855737
 20
-2895.98692508675
 10
-335.930248042478
 20
-2900.779537792054
 10
-334.2304171511813
 20
-2905.05371046686
 10
-332.2401708896443
 20
-2908.704198794752
 10
-330.0085157260703
 20
-2911.641115637814
 10
-327.5904024170243
 20
-2913.792144356299
 10
-325.0453729374389
 20
-2915.104319484315
 10
-322.4360943595672
 20
-2915.545330915342
  0
LWPOLYLINE
  5
23D
330
1F
100
AcDbEntity
  8
Ech.1_5
 62
   190
370
    20
100
AcDbPolyline
 90
       41
 70
     0
 43
0.0
 10
-153.3774457433825
 20
-2915.545330915342
 10
-150.7681671655108
 20
-2915.104319484315
 10
-148.2231376859254
 20
-2913.792144356299
 10
-145.8050243768823
 20
-2911.641115637809
 10
-143.5733692133083
 20
-2908.704198794752
 10
-141.5831229517684
 20
-2905.05371046686
 10
-139.8832920604717
 20
-2900.779537792054
 10
-138.5157320173788
 20
-2895.98692508675
 10
-137.5141166894155
 20
-2890.793882381518
 10
-136.9031091701367
 20
-2885.328279622485
 10
-136.6977544924779
 20
-2879.724698088875
 10
-136.9031091701367
 20
-2874.121116555259
 10
-137.5141166894155
 20
-2868.655513796231
 10
-138.5157320173788
 20
-2863.462471091
 10
-139.8832920604717
 20
-2858.669858385691
 10
-141.5831229517684
 20
-2854.395685710884
 10
-143.5733692133083
 20
-2850.745197382998
 10
-145.8050243768823
 20
-2847.808280539935
 10
-148.2231376859254
 20
-2845.657251821445
 10
-150.7681671655108
 20
-2844.345076693429
 10
-153.3774457433825
 20
-2843.904065262402
 10
-155.9867243212542
 20
-2844.345076693429
 10
-158.5317538008396
 20
-2845.657251821445
 10
-160.9498671098856
 20
-2847.80828053993
 10
-163.1815222734596
 20
-2850.745197382992
 10
-165.1717685349966
 20
-2854.395685710884
 10
-166.8715994262933
 20
-2858.669858385691
 10
-168.2391594693891
 20
-2863.462471090994
 10
-169.2407747973495
 20
-2868.655513796226
 10
-169.8517823166312
 20
-2874.121116555259
 10
-170.05713699429
 20
-2879.724698088875
 10
-169.8517823166312
 20
-2885.328279622485
 10
-169.2407747973495
 20
-2890.793882381518
 10
-168.2391594693891
 20
-2895.98692508675
 10
-166.8715994262933
 20
-2900.779537792054
 10
-165.1717685349966
 20
-2905.05371046686
 10
-163.1815222734596
 20
-2908.704198794752
 10
-160.9498671098856
 20
-2911.641115637814
 10
-158.5317538008396
 20
-2913.792144356299
 10
-155.9867243212542
 20
-2915.104319484315
 10
-153.3774457433825
 20
-2915.545330915342
  0
LWPOLYLINE
  5
23E
330
1F
100
AcDbEntity
  8
Ech.1_5
 62
   190
370
    20
100
AcDbPolyline
 90
        5
 70
     0
 43
0.0
 10
-474.4328742585185
 20
-2629.046099581818
 10
-80.43287425851852
 20
-2629.046099581818
 10
-80.43287425851852
 20
-3171.046099581818
 10
-474.4328742585185
 20
-3171.046099581818
 10
-474.4328742585185
 20
-2629.046099581818
  0
LWPOLYLINE
  5
23F
330
1F
100
AcDbEntity
  8
Ech.1_5
 62
   190
370
    20
100
AcDbPolyline
 90
        5
 70
     0
 43
0.0
 10
-474.4328742585185
 20
-3116.080870755796
 10
-80.43287425851852
 20
-3116.080870755796
 10
-80.43287425851852
 20
-3171.046099581818
 10
-474.4328742585185
 20
-3171.046099581818
 10
-474.4328742585185
 20
-3116.080870755796
  0
LWPOLYLINE
  5
240
330
1F
100
AcDbEntity
  8
Ech.1_5
 62
   190
370
    20
100
AcDbPolyline
 90
        5
 70
     0
 43
0.0
 10
-80.43287425851852
 20
-2667.252884784125
 10
-474.4328742585185
 20
-2667.252884784125
 10
-474.4328742585185
 20
-2629.046099581866
 10
-80.43287425851852
 20
-2629.046099581866
 10
-80.43287425851852
 20
-2667.252884784125
  0
LWPOLYLINE
  5
241
330
1F
100
AcDbEntity
  8
Ech.1_5
 62
   190
370
    20
100
AcDbPolyline
 90
        5
 70
     0
 43
0.0
 10
-80.43287425851852
 20
-3124.880870755795
 10
-474.4328742585185
 20
-3124.880870755795
 10
-474.4328742585185
 20
-3116.080870755796
 10
-80.43287425851852
 20
-3116.080870755796
 10
-80.43287425851852
 20
-3124.880870755795
  0
LWPOLYLINE
  5
242
330
1F
100
AcDbEntity
  8
Ech.1_5
 62
   190
370
    20
100
AcDbPolyline
 90
        5
 70
     0
 43
0.0
 10
-80.43287425851852
 20
-3147.629328847932
 10
-474.4328742585185
 20
-3147.629328847932
 10
-474.4328742585185
 20
-3138.138517523636
 10
-80.43287425851852
 20
-3138.138517523636
 10
-80.43287425851852
 20
-3147.629328847932
  0
LINE
  5
243
330
1F
100
AcDbEntity
  8
Ech.1_5
 62
   190
370
    20
100
AcDbLine
 10
-399.1510494733357
 20
-3116.080870755796
 30
0.0
 11
-399.1510494733357
 21
-3124.880870755795
 31
0.0
  0
LINE
  5
244
330
1F
100
AcDbEntity
  8
Ech.1_5
 62
   190
370
    20
100
AcDbLine
 10
-136.3518084211169
 20
-3116.080870755796
 30
0.0
 11
-136.3518084211169
 21
-3124.880870755795
 31
0.0
  0
LINE
  5
245
330
1F
100
AcDbEntity
  8
Ech.1_5
 62
   190
370
    20
100
AcDbLine
 10
-336.688962275194
 20
-3116.080870755796
 30
0.0
 11
-336.688962275194
 21
-3124.880870755795
 31
0.0
  0
IMAGE
  5
248
330
1F
100
AcDbEntity
  8
Ech.1_5
160
                 8
310
0800000000000000
100
AcDbRasterImage
 90
        0
 10
-398.0071747621656
 20
-3169.031880589399
 30
0.0
 11
0.1133603238866397
 21
0.0
 31
0.0
 12
0.0
 22
0.1111111111111111
 32
0.0
 13
247.0
 23
171.0
340
247
 70
     3
280
     0
281
    50
282
    50
283
     0
360
249
 71
     1
 91
        2
 14
-0.5
 24
-0.5
 14
246.5
 24
170.5
290
     0
  0
IMAGE
  5
24B
330
1F
100
AcDbEntity
  8
Ech.1_5
160
                 8
310
0800000000000000
100
AcDbRasterImage
 90
        0
 10
-293.5761062653746
 20
-3170.053725510912
 30
0.0
 11
0.16
 21
0.0
 31
0.0
 12
0.0
 22
0.1578947368421053
 32
0.0
 13
200.0
 23
133.0
340
24A
 70
     3
280
     0
281
    50
282
    50
283
     0
360
24C
 71
     1
 91
        2
 14
-0.5
 24
-0.5
 14
199.5
 24
132.5
290
     0
  0
IMAGE
  5
24E
330
1F
100
AcDbEntity
  8
Ech.1_5
160
                 8
310
0800000000000000
100
AcDbRasterImage
 90
        0
 10
-196.2262397137162
 20
-3170.535716676892
 30
0.0
 11
0.03770739064856712
 21
0.0
 31
0.0
 12
0.0
 22
0.03793103448275862
 32
0.0
 13
1326.0
 23
580.0
340
24D
 70
     3
280
     0
281
    50
282
    50
283
     0
360
24F
 71
     1
 91
        2
 14
-0.5
 24
-0.5
 14
1325.5
 24
579.5
290
     0
  0
LINE
  5
250
330
1F
100
AcDbEntity
  8
Ech.1_5
 62
   190
370
    20
100
AcDbLine
 10
-80.43287425851489
 20
-2641.046099581822
 30
0.0
 11
-474.4328742585149
 21
-2641.046099581822
 31
0.0
  0
LWPOLYLINE
  5
251
330
1F
100
AcDbEntity
  8
Ech.1_5
 62
   190
370
    20
100
AcDbPolyline
 90
        5
 70
     0
 43
0.0
 10
-80.43287425851852
 20
-3171.046099581818
 10
-80.43287425851852
 20
-2629.046099581818
 10
-474.4328742585185
 20
-2629.046099581818
 10
-474.4328742585185
 20
-3171.046099581818
 10
-80.43287425851852
 20
-3171.046099581818
  0
LWPOLYLINE
  5
252
330
1F
100
AcDbEntity
  8
Ech.1_5
 62
   190
370
    20
100
AcDbPolyline
 90
        9
 70
     0
 43
0.0
 10
-207.7564031084152
 20
-2717.99931769099
 10
-234.6116362206955
 20
-2717.998819881076
 10
-241.2061778532949
 20
-2725.190160522847
 10
-235.5622018461723
 20
-2710.807880518124
 10
-242.1564031085374
 20
-2717.998819881076
 10
-279.7564031088372
 20
-2717.998976033044
 10
-279.7564031085374
 20
-2841.904065262403
 10
-207.7564031084152
 20
-2841.904065262403
 10
-207.7564031084152
 20
-2717.99931769099
  0
LWPOLYLINE
  5
253
330
1F
100
AcDbEntity
  8
Ech.1_5
 62
   154
420
    21156
370
    20
100
AcDbPolyline
 90
      194
 70
     0
 43
0.0
 10
-131.2661339320937
 20
-2699.300828634931
 10
-130.8954335105503
 20
-2700.37090722357
 10
-130.5322834745552
 20
-2701.44240501133
 10
-130.3558993466222
 20
-2701.979129604604
 10
-130.1842342096569
 20
-2702.516741197328
 10
-130.0182318618528
 20
-2703.055417189394
 10
-129.8588361014036
 20
-2703.59533498069
 10
-129.7069907265027
 20
-2704.136671971106
 10
-129.5636395353437
 20
-2704.679605560531
 10
-129.4297263261203
 20
-2705.224313148859
 10
-129.3061948970257
 20
-2705.770972135975
 10
-129.1939890462538
 20
-2706.319759921773
 10
-129.0940525719978
 20
-2706.870853906141
 10
-129.0073292724516
 20
-2707.42443148897
 10
-128.9347629458085
 20
-2707.980670070149
 10
-128.8772973902622
 20
-2708.539747049568
 10
-128.8545223385858
 20
-2708.820405376084
 10
-128.8358764040061
 20
-2709.101839827119
 10
-128.8214775612974
 20
-2709.384072577659
 10
-128.8114437852338
 20
-2709.66712580269
 10
-128.8058930505896
 20
-2709.951021677199
 10
-128.804943332139
 20
-2710.235782376173
 10
-128.8086851793393
 20
-2710.521424175884
 10
-128.8168632662667
 20
-2710.807888960808
 10
-128.8445554420921
 20
-2711.382850391608
 10
-128.8840514179286
 20
-2711.959787530743
 10
-128.9313781506364
 20
-2712.537820250693
 10
-129.0336317141071
 20
-2713.693651922953
 10
-129.0806124585904
 20
-2714.269690620223
 10
-129.1195317873861
 20
-2714.843304388223
 10
-129.1464166573543
 20
-2715.413613099436
 10
-129.1541045942969
 20
-2715.697253018896
 10
-129.1572940253553
 20
-2715.979736626338
 10
-129.1554883201369
 20
-2716.260953905823
 10
-129.1481908482494
 20
-2716.540794841411
 10
-129.1349049793001
 20
-2716.81914941716
 10
-129.1151340828967
 20
-2717.095907617132
 10
-129.0883815286467
 20
-2717.370959425385
 10
-129.0541506861577
 20
-2717.644194825981
 10
-129.0119449250371
 20
-2717.915503802978
 10
-128.9612676148924
 20
-2718.184776340438
 10
-128.9016221253313
 20
-2718.451902422419
 10
-128.8325118259613
 20
-2718.716772032981
 10
-128.7534400863898
 20
-2718.979275156185
 10
-128.6639102762244
 20
-2719.239301776091
 10
-128.5634257650726
 20
-2719.496741876756
 10
-128.4514926998133
 20
-2719.751485165432
 10
-128.3278979463305
 20
-2720.003393369828
 10
-128.1929460859232
 20
-2720.252276616469
 10
-128.0469975179225
 20
-2720.497939468441
 10
-127.8904126416595
 20
-2720.740186488827
 10
-127.7235518564655
 20
-2720.978822240715
 10
-127.5467755616714
 20
-2721.21365128719
 10
-127.3604441566086
 20
-2721.444478191337
 10
-127.164918040608
 20
-2721.671107516241
 10
-126.9605576130009
 20
-2721.893343824989
 10
-126.7477232731184
 20
-2722.110991680665
 10
-126.5267754202915
 20
-2722.323855646356
 10
-126.2980744538516
 20
-2722.531740285147
 10
-126.0619807731297
 20
-2722.734450160123
 10
-125.818854777457
 20
-2722.931789834371
 10
-125.5690568661645
 20
-2723.123563870975
 10
-125.3129474385835
 20
-2723.309576833021
 10
-125.050886894045
 20
-2723.489633283595
 10
-124.7832356318803
 20
-2723.663537785782
 10
-124.5103540514205
 20
-2723.831094902668
 10
-124.2326025519966
 20
-2723.992109197338
 10
-123.9503415329399
 20
-2724.146385232878
 10
-123.6639313935814
 20
-2724.293727572374
 10
-123.3737325332525
 20
-2724.433940778911
 10
-123.080105351284
 20
-2724.566829415574
 10
-122.7834102470073
 20
-2724.692198045449
 10
-122.4840076197534
 20
-2724.809851231622
 10
-122.1822578688535
 20
-2724.919593537178
 10
-121.8785213936387
 20
-2725.021229525203
 10
-121.5731585934403
 20
-2725.114563758782
 10
-121.2665298675892
 20
-2725.199400801001
 10
-120.9589956154167
 20
-2725.275545214944
 10
-120.6509162362539
 20
-2725.3428015637
 10
-120.3426521294319
 20
-2725.400974410352
 10
-120.0345636942819
 20
-2725.449868317986
 10
-119.727011330135
 20
-2725.489287849687
 10
-119.4203554363224
 20
-2725.519037568542
 10
-119.1149564121751
 20
-2725.538922037634
 10
-118.8111746570244
 20
-2725.548745820052
 10
-118.5093705702014
 20
-2725.548313478879
 10
-118.2099045510373
 20
-2725.537429577202
 10
-117.913136998863
 20
-2725.515898678104
 10
-117.6194283130099
 20
-2725.483525344674
 10
-117.3291388928091
 20
-2725.440114139996
 10
-117.0426291375916
 20
-2725.385469627155
 10
-116.7602594466886
 20
-2725.319396369237
 10
-116.4823902194314
 20
-2725.241698929328
 10
-116.2093818551509
 20
-2725.152181870513
 10
-115.9415947531784
 20
-2725.050649755879
 10
-115.679389312845
 20
-2724.936907148508
 10
-115.4231148672365
 20
-2724.81078050647
 10
-115.1729579283631
 20
-2724.672418435416
 10
-114.9289810663903
 20
-2724.522214764579
 10
-114.6912437429908
 20
-2724.360569473458
 10
-114.4598054198376
 20
-2724.187882541552
 10
-114.2347255586034
 20
-2724.004553948361
 10
-114.016063620961
 20
-2723.810983673384
 10
-113.8038790685833
 20
-2723.60757169612
 10
-113.598231363143
 20
-2723.39471799607
 10
-113.399179966313
 20
-2723.172822552733
 10
-113.2067843397661
 20
-2722.942285345607
 10
-113.0211039451751
 20
-2722.703506354194
 10
-112.8421982442129
 20
-2722.456885557992
 10
-112.6701266985522
 20
-2722.202822936501
 10
-112.5049487698658
 20
-2721.941718469221
 10
-112.3467239198266
 20
-2721.67397213565
 10
-112.1955116101074
 20
-2721.399983915288
 10
-112.051371302381
 20
-2721.120153787635
 10
-111.9143624583203
 20
-2720.834881732191
 10
-111.784544539598
 20
-2720.544567728455
 10
-111.6619770078869
 20
-2720.249611755925
 10
-111.5467193248599
 20
-2719.950413794103
 10
-111.4388309521897
 20
-2719.647373822487
 10
-111.3383713515494
 20
-2719.340891820577
 10
-111.2453999846115
 20
-2719.031367767873
 10
-111.1599763130489
 20
-2718.719201643873
 10
-111.0821597985345
 20
-2718.404793428078
 10
-111.0120099027411
 20
-2718.088543099987
 10
-110.9495860873414
 20
-2717.770850639099
 10
-110.8949478140083
 20
-2717.452116024914
 10
-110.8481545444147
 20
-2717.132739236932
 10
-110.8092657402333
 20
-2716.813120254651
 10
-110.778340863137
 20
-2716.493659057573
 10
-110.7554393747985
 20
-2716.174755625195
 10
-110.7406207368906
 20
-2715.856809937018
 10
-110.7339444110863
 20
-2715.540221972541
 10
-110.7354698590583
 20
-2715.225391711263
 10
-110.7452565424794
 20
-2714.912719132685
 10
-110.7633639230225
 20
-2714.602604216305
 10
-110.7898514623603
 20
-2714.295446941623
 10
-110.8247786221657
 20
-2713.991647288139
 10
-110.8682048641115
 20
-2713.691605235352
 10
-110.9201896498704
 20
-2713.395720762761
 10
-110.9807924411155
 20
-2713.104393849866
 10
-111.0500726995193
 20
-2712.818024476167
 10
-111.1280898867548
 20
-2712.537012621164
 10
-111.2149034644947
 20
-2712.261758264354
 10
-111.310572894412
 20
-2711.99266138524
 10
-111.4151576381794
 20
-2711.730121963319
 10
-111.5287171574697
 20
-2711.474539978091
 10
-111.6513109139557
 20
-2711.226315409056
 10
-111.7829883871516
 20
-2710.985829410236
 10
-111.9236232391205
 20
-2710.753131559326
 10
-112.0729388366756
 20
-2710.527987990337
 10
-112.2306537083072
 20
-2710.310155712624
 10
-112.3964863825058
 20
-2710.099391735544
 10
-112.5701553877615
 20
-2709.89545306845
 10
-112.7513792525649
 20
-2709.698096720701
 10
-112.9398765054062
 20
-2709.50707970165
 10
-113.1353656747757
 20
-2709.322159020654
 10
-113.337565289164
 20
-2709.143091687068
 10
-113.5461938770612
 20
-2708.969634710249
 10
-113.7609699669578
 20
-2708.801545099553
 10
-113.9816120873441
 20
-2708.638579864333
 10
-114.2078387667104
 20
-2708.480496013947
 10
-114.4393685335472
 20
-2708.327050557749
 10
-114.6759199163447
 20
-2708.178000505098
 10
-114.9172114435934
 20
-2708.033102865346
 10
-115.1629616437835
 20
-2707.892114647851
 10
-115.4128890454055
 20
-2707.754792861969
 10
-115.6667121769497
 20
-2707.620894517053
 10
-115.9241495669064
 20
-2707.490176622462
 10
-116.1849197437659
 20
-2707.362396187549
 10
-116.7153325721552
 20
-2707.114675734185
 10
-117.2556988900403
 20
-2706.875789231806
 10
-117.803766925344
 20
-2706.643792755259
 10
-118.3572849059891
 20
-2706.416742379388
 10
-119.4716636149952
 20
-2705.969704229064
 10
-120.0280207992018
 20
-2705.745828604301
 10
-120.580820840441
 20
-2705.519123379598
 10
-121.127811966636
 20
-2705.287644629801
 10
-121.6669488690537
 20
-2705.049625766968
 10
-122.197842384847
 20
-2704.804722713728
 10
-122.720899860234
 20
-2704.553275536893
 10
-123.2365337183938
 20
-2704.295628664022
 10
-123.7451563825059
 20
-2704.032126522673
 10
-124.2471802757495
 20
-2703.763113540402
 10
-124.7430178213039
 20
-2703.488934144767
 10
-125.2330814423483
 20
-2703.209932763326
 10
-125.717783562062
 20
-2702.926453823636
 10
-126.1975366036244
 20
-2702.638841753255
 10
-126.6727529902146
 20
-2702.347440979741
 10
-127.1438451450121
 20
-2702.052595930652
 10
-127.611225491196
 20
-2701.754651033543
 10
-128.5365004504403
 20
-2701.150839405503
 10
-129.4518772533819
 20
-2700.53876151608
 10
-130.3606552854549
 20
-2699.921172785736
 10
-131.2661339320937
 20
-2699.300828634931
  0
LWPOLYLINE
  5
254
330
1F
100
AcDbEntity
  8
Ech.1_5
 62
   154
420
    21156
370
    20
100
AcDbPolyline
 90
       95
 70
     0
 43
0.0
 10
-113.710570762819
 20
-2710.985573797181
 10
-113.7293468252391
 20
-2711.520368240372
 10
-113.7483215856508
 20
-2712.064558553811
 10
-113.7579455707259
 20
-2712.343113371324
 10
-113.7676937420458
 20
-2712.627540607743
 10
-113.7775909368593
 20
-2712.919014746846
 10
-113.7876619924156
 20
-2713.218710272414
 10
-113.7979317459635
 20
-2713.52780166823
 10
-113.8084250347519
 20
-2713.847463418072
 10
-113.8191666960299
 20
-2714.178870005724
 10
-113.8301815670463
 20
-2714.523195914965
 10
-113.8414944850502
 20
-2714.881615629575
 10
-113.8531302872905
 20
-2715.255303633337
 10
-113.8590770316396
 20
-2715.44824026983
 10
-113.8651138110161
 20
-2715.645434410029
 10
-113.8773639305186
 20
-2716.05243899942
 10
-113.889184754022
 20
-2716.472435196687
 10
-113.8996592314685
 20
-2716.899989134003
 10
-113.9078700214194
 20
-2717.329664899191
 10
-113.9128997824359
 20
-2717.756026580074
 10
-113.9138311730793
 20
-2718.173638264476
 10
-113.9124733103114
 20
-2718.37746413544
 10
-113.9097468519107
 20
-2718.577064040218
 10
-113.9055371301974
 20
-2718.771758489786
 10
-113.8997294774915
 20
-2718.960867995124
 10
-113.8922092261133
 20
-2719.143713067208
 10
-113.8828617083828
 20
-2719.319614217017
 10
-113.8715722566203
 20
-2719.487891955528
 10
-113.8582262031459
 20
-2719.647866793719
 10
-113.8427088802797
 20
-2719.798859242569
 10
-113.824905620342
 20
-2719.940189813055
 10
-113.8047017556528
 20
-2720.071179016154
 10
-113.7819826185324
 20
-2720.191147362846
 10
-113.7566335413007
 20
-2720.299415364107
 10
-113.7285398562781
 20
-2720.395303530915
 10
-113.6975868957848
 20
-2720.478132374249
 10
-113.6636599921407
 20
-2720.547222405085
 10
-113.6266444776661
 20
-2720.601894134403
 10
-113.5864256846812
 20
-2720.64146807318
 10
-113.5650792250973
 20
-2720.655381030796
 10
-113.542888945506
 20
-2720.665264732394
 10
-113.5198405124472
 20
-2720.671034241846
 10
-113.4959195924608
 20
-2720.672604623022
 10
-113.4711125439857
 20
-2720.669893164938
 10
-113.4454299059063
 20
-2720.662894920735
 10
-113.4189121410765
 20
-2720.651701178805
 10
-113.3916015693327
 20
-2720.636409199587
 10
-113.334771284449
 20
-2720.593919571035
 10
-113.2752776099474
 20
-2720.536204118575
 10
-113.2134591045197
 20
-2720.464040925708
 10
-113.149654326858
 20
-2720.378208075927
 10
-113.0842018356542
 20
-2720.279483652733
 10
-113.0174401896004
 20
-2720.16864573962
 10
-112.9497079473885
 20
-2720.046472420089
 10
-112.8813436677105
 20
-2719.913741777636
 10
-112.8126859092584
 20
-2719.771231895757
 10
-112.7440732307243
 20
-2719.619720857951
 10
-112.6758441907999
 20
-2719.459986747716
 10
-112.6083373481775
 20
-2719.292807648549
 10
-112.5418912615489
 20
-2719.118961643947
 10
-112.4768444896062
 20
-2718.939226817408
 10
-112.4135355910412
 20
-2718.754381252429
 10
-112.3523031245461
 20
-2718.565203032507
 10
-112.2374217225333
 20
-2718.176960961827
 10
-112.1349087531035
 20
-2717.780725273348
 10
-112.0891368273373
 20
-2717.581555031177
 10
-112.0474726857928
 20
-2717.382720635049
 10
-112.0102548871621
 20
-2717.185000168461
 10
-111.977821990137
 20
-2716.98917171491
 10
-111.950511927419
 20
-2716.796012224572
 10
-111.9285283180718
 20
-2716.606055480042
 10
-111.9117743183148
 20
-2716.419291292173
 10
-111.9001123068431
 20
-2716.235635646316
 10
-111.8934046623517
 20
-2716.055004527825
 10
-111.8915137635356
 20
-2715.877313922047
 10
-111.8943019890897
 20
-2715.702479814336
 10
-111.9016317177091
 20
-2715.530418190041
 10
-111.9133653280887
 20
-2715.361045034515
 10
-111.9293651989236
 20
-2715.194276333108
 10
-111.9494937089087
 20
-2715.030028071171
 10
-111.9736132367391
 20
-2714.868216234055
 10
-112.0015861611096
 20
-2714.708756807111
 10
-112.0332748607154
 20
-2714.551565775689
 10
-112.0685417142514
 20
-2714.396559125142
 10
-112.1072491004126
 20
-2714.243652840819
 10
-112.1944349853905
 20
-2713.943805312254
 10
-112.2937315452091
 20
-2713.6513510728
 10
-112.4040378094283
 20
-2713.365618005266
 10
-112.524252807608
 20
-2713.08593399246
 10
-112.6532755693083
 20
-2712.811626917191
 10
-112.7900051240891
 20
-2712.542024662265
 10
-112.9333405015101
 20
-2712.276455110491
 10
-113.0821807311316
 20
-2712.014246144677
 10
-113.391971865215
 20
-2711.497221502161
 10
-113.710570762819
 20
-2710.985573797181
  0
LWPOLYLINE
  5
255
330
1F
100
AcDbEntity
  8
Ech.1_5
 62
   154
420
    21156
370
    20
100
AcDbPolyline
 90
      171
 70
     0
 43
0.0
 10
-143.6494965382543
 20
-2705.327205136773
 10
-143.3161236699173
 20
-2706.486091239527
 10
-143.1562979907345
 20
-2707.066804860692
 10
-143.0047052175345
 20
-2707.649043165605
 10
-142.8640896523118
 20
-2708.23331438218
 10
-142.7371955970606
 20
-2708.820126738334
 10
-142.6797517300474
 20
-2709.114644664975
 10
-142.6267673537751
 20
-2709.40998846198
 10
-142.5785855059927
 20
-2709.706221657837
 10
-142.5355492244496
 20
-2710.003407781036
 10
-142.4980015468951
 20
-2710.301610360067
 10
-142.4662855110785
 20
-2710.600892923418
 10
-142.440744154749
 20
-2710.901318999579
 10
-142.421720515656
 20
-2711.202952117039
 10
-142.4095576315488
 20
-2711.505855804289
 10
-142.4045985401765
 20
-2711.810093589818
 10
-142.4071862792885
 20
-2712.115729002113
 10
-142.4176638866342
 20
-2712.422825569667
 10
-142.4360711438153
 20
-2712.731380933843
 10
-142.4607614982559
 20
-2713.041026353629
 10
-142.5200736942949
 20
-2713.661605820781
 10
-142.5777620838227
 20
-2714.280600288254
 10
-142.6004226801245
 20
-2714.588264458442
 10
-142.6159877195739
 20
-2714.894045952307
 10
-142.6222273337627
 20
-2715.197449294383
 10
-142.6169116542826
 20
-2715.497979009201
 10
-142.5978108127255
 20
-2715.795139621293
 10
-142.5823941222905
 20
-2715.942301677734
 10
-142.5626949406832
 20
-2716.088435655193
 10
-142.5384345343525
 20
-2716.233479619238
 10
-142.5093341697474
 20
-2716.377371635433
 10
-142.4751151133169
 20
-2716.520049769346
 10
-142.4354986315099
 20
-2716.661452086545
 10
-142.3902059907755
 20
-2716.801516652594
 10
-142.3389584575626
 20
-2716.940181533062
 10
-142.2814772983201
 20
-2717.077384793512
 10
-142.2175032323856
 20
-2717.21306212384
 10
-142.1470485007829
 20
-2717.347116054495
 10
-142.070324793662
 20
-2717.479424758305
 10
-141.9875484081748
 20
-2717.609865845472
 10
-141.8989356414733
 20
-2717.7383169262
 10
-141.8047027907092
 20
-2717.864655610686
 10
-141.7050661530346
 20
-2717.988759509137
 10
-141.6002420256014
 20
-2718.11050623175
 10
-141.4904467055614
 20
-2718.22977338873
 10
-141.3758964900665
 20
-2718.346438590276
 10
-141.2568076762687
 20
-2718.460379446593
 10
-141.1333965613198
 20
-2718.57147356788
 10
-141.0058794423718
 20
-2718.67959856434
 10
-140.8744726165766
 20
-2718.784632046174
 10
-140.7393923810861
 20
-2718.886451623584
 10
-140.6008550330522
 20
-2718.984934906773
 10
-140.4590768696268
 20
-2719.07995950594
 10
-140.3142741879617
 20
-2719.171403031288
 10
-140.166663285209
 20
-2719.259143093019
 10
-140.0164604585205
 20
-2719.343057301335
 10
-139.8638820050481
 20
-2719.423023266437
 10
-139.7091442219437
 20
-2719.498918598526
 10
-139.5524634063593
 20
-2719.570620907806
 10
-139.3940558554468
 20
-2719.638007804476
 10
-139.2341378663579
 20
-2719.70095689874
 10
-139.0729257362447
 20
-2719.759345800797
 10
-138.9106357622591
 20
-2719.813052120852
 10
-138.7474842415529
 20
-2719.861953469104
 10
-138.5836874712782
 20
-2719.905927455757
 10
-138.4194617485867
 20
-2719.94485169101
 10
-138.2550233706304
 20
-2719.978603785067
 10
-138.0905886345612
 20
-2720.007061348128
 10
-137.9263738375309
 20
-2720.030101990396
 10
-137.7625952766916
 20
-2720.047603322072
 10
-137.5994692491951
 20
-2720.059442953358
 10
-137.4372120521934
 20
-2720.065498494456
 10
-137.2760399828382
 20
-2720.065647555567
 10
-137.1161693382816
 20
-2720.059767746894
 10
-136.9578164156754
 20
-2720.047736678636
 10
-136.8011975121716
 20
-2720.029431960998
 10
-136.6465289249221
 20
-2720.004731204179
 10
-136.4940269510786
 20
-2719.973512018382
 10
-136.3439078877933
 20
-2719.935652013809
 10
-136.1963880322179
 20
-2719.89102880066
 10
-136.0516836815043
 20
-2719.839519989138
 10
-135.9100111328046
 20
-2719.781003189446
 10
-135.7715862597583
 20
-2719.715356916865
 10
-135.6365705126086
 20
-2719.642575994082
 10
-135.5050178891045
 20
-2719.562884878854
 10
-135.3769697929992
 20
-2719.476534943373
 10
-135.2524676280457
 20
-2719.383777559834
 10
-135.1315527979972
 20
-2719.284864100426
 10
-135.0142667066067
 20
-2719.180045937341
 10
-134.9006507576274
 20
-2719.069574442774
 10
-134.7907463548122
 20
-2718.953700988916
 10
-134.6845949019144
 20
-2718.832676947958
 10
-134.5822378026869
 20
-2718.706753692095
 10
-134.483716460883
 20
-2718.576182593518
 10
-134.3890722802555
 20
-2718.441215024419
 10
-134.2983466645578
 20
-2718.30210235699
 10
-134.2115810175428
 20
-2718.159095963424
 10
-134.1288167429636
 20
-2718.012447215912
 10
-134.0500952445733
 20
-2717.862407486648
 10
-133.9754579261251
 20
-2717.709228147824
 10
-133.9049461913719
 20
-2717.553160571632
 10
-133.838601444067
 20
-2717.394456130265
 10
-133.7764650879633
 20
-2717.233366195913
 10
-133.718578526814
 20
-2717.070142140771
 10
-133.6649831643721
 20
-2716.905035337029
 10
-133.6157204043908
 20
-2716.73829715688
 10
-133.5708316506231
 20
-2716.570178972519
 10
-133.5303583068222
 20
-2716.400932156134
 10
-133.494341776741
 20
-2716.230808079919
 10
-133.4628234641327
 20
-2716.060058116068
 10
-133.4358447727505
 20
-2715.888933636771
 10
-133.4134471063473
 20
-2715.71768601422
 10
-133.3956718686763
 20
-2715.546566620611
 10
-133.3825604634905
 20
-2715.375826828132
 10
-133.3741542945431
 20
-2715.205718008977
 10
-133.3704947655871
 20
-2715.036491535339
 10
-133.3716232803756
 20
-2714.868398779409
 10
-133.3775812426618
 20
-2714.701691113381
 10
-133.3884100561986
 20
-2714.536619909445
 10
-133.4041511247392
 20
-2714.373436539795
 10
-133.4248458520367
 20
-2714.212392376623
 10
-133.4505356418442
 20
-2714.05373879212
 10
-133.4812618979147
 20
-2713.897727158479
 10
-133.5170660240013
 20
-2713.744608847895
 10
-133.5579894238572
 20
-2713.594635232556
 10
-133.6040735012354
 20
-2713.448057684656
 10
-133.6553596598891
 20
-2713.305127576389
 10
-133.7118893035712
 20
-2713.166096279945
 10
-133.7737038360349
 20
-2713.031215167517
 10
-133.8408446610332
 20
-2712.900735611298
 10
-133.9133454690273
 20
-2712.774894868382
 10
-133.9911159390606
 20
-2712.653703258628
 10
-134.073965688241
 20
-2712.536987991502
 10
-134.1617014795271
 20
-2712.424571053461
 10
-134.254130075877
 20
-2712.316274430962
 10
-134.3510582402491
 20
-2712.211920110461
 10
-134.4522927356016
 20
-2712.111330078415
 10
-134.557640324893
 20
-2712.014326321282
 10
-134.6669077710815
 20
-2711.920730825518
 10
-134.7799018371254
 20
-2711.83036557758
 10
-134.8964292859831
 20
-2711.743052563925
 10
-135.0162968806127
 20
-2711.658613771007
 10
-135.1393113839728
 20
-2711.576871185287
 10
-135.3940081687172
 20
-2711.420762581261
 10
-135.6589737438829
 20
-2711.2733026435
 10
-135.9326622131362
 20
-2711.133067263659
 10
-136.2135276801437
 20
-2710.998632333392
 10
-136.5000242485719
 20
-2710.868573744353
 10
-137.0837271043562
 20
-2710.615889156578
 10
-137.6714036098212
 20
-2710.363620633567
 10
-137.9628672403501
 20
-2710.234082125483
 10
-138.2506865942987
 20
-2710.100375308553
 10
-138.5333157753335
 20
-2709.961076074433
 10
-138.8092801055271
 20
-2709.814827288422
 10
-139.0781241799902
 20
-2709.661230338192
 10
-139.3401541749261
 20
-2709.500602800773
 10
-139.5956945703122
 20
-2709.333279466035
 10
-139.8450698461261
 20
-2709.159595123839
 10
-140.0886044823451
 20
-2708.979884564055
 10
-140.3266229589469
 20
-2708.794482576547
 10
-140.5594497559089
 20
-2708.603723951182
 10
-140.7874093532086
 20
-2708.407943477826
 10
-141.0108262308234
 20
-2708.207475946344
 10
-141.230024868731
 20
-2708.002656146605
 10
-141.4453297469086
 20
-2707.793818868471
 10
-141.6570653453339
 20
-2707.581298901812
 10
-141.8655561439843
 20
-2707.365431036491
 10
-142.0711266228374
 20
-2707.146550062376
 10
-142.4748045410612
 20
-2706.701087947225
 10
-142.8706949398254
 20
-2706.247590875289
 10
-143.6494965382543
 20
-2705.327205136773
  0
LWPOLYLINE
  5
256
330
1F
100
AcDbEntity
  8
Ech.1_5
 62
   154
420
    21156
370
    20
100
AcDbPolyline
 90
       70
 70
     0
 43
0.0
 10
-134.871715517237
 20
-2712.780586261511
 10
-134.9148829112947
 20
-2713.051893690237
 10
-134.9580376217725
 20
-2713.327733348655
 10
-135.0011669650907
 20
-2713.61263746646
 10
-135.0442582576693
 20
-2713.911138273341
 10
-135.0657856713126
 20
-2714.066903756966
 10
-135.0872988159286
 20
-2714.227767998996
 10
-135.1087961060698
 20
-2714.394297528142
 10
-135.1302759562887
 20
-2714.567058873115
 10
-135.1517367811378
 20
-2714.746618562628
 10
-135.1731769951697
 20
-2714.933543125392
 10
-135.1945950129369
 20
-2715.128399090117
 10
-135.2159396657777
 20
-2715.331513089275
 10
-135.2367399374716
 20
-2715.541180425697
 10
-135.2563135001442
 20
-2715.754674022515
 10
-135.2890447617984
 20
-2716.182200603429
 10
-135.3008345924667
 20
-2716.390763890574
 10
-135.3086619774866
 20
-2716.592214044211
 10
-135.3118429827016
 20
-2716.783816215863
 10
-135.3096936739547
 20
-2716.962835557056
 10
-135.3064064224216
 20
-2717.046772026081
 10
-135.3015301170894
 20
-2717.126537219313
 10
-135.2949792661882
 20
-2717.201789280693
 10
-135.2866683779487
 20
-2717.272186354159
 10
-135.2765119606012
 20
-2717.337386583654
 10
-135.2644245223761
 20
-2717.397048113118
 10
-135.2503205715038
 20
-2717.450829086491
 10
-135.2341146162147
 20
-2717.498387647714
 10
-135.2157211647393
 20
-2717.539381940727
 10
-135.1950547253079
 20
-2717.573470109472
 10
-135.1720298061508
 20
-2717.600310297887
 10
-135.1465609154987
 20
-2717.619560649915
 10
-135.1185625615819
 20
-2717.630879309496
 10
-135.0879566968095
 20
-2717.633941625548
 10
-135.0548147420802
 20
-2717.628768398421
 10
-135.019346418708
 20
-2717.615700068251
 10
-134.9817666543475
 20
-2717.595089108063
 10
-134.9422903766536
 20
-2717.567287990884
 10
-134.9011325132811
 20
-2717.53264918974
 10
-134.8585079918848
 20
-2717.491525177655
 10
-134.8146317401195
 20
-2717.444268427658
 10
-134.7697186856398
 20
-2717.391231412772
 10
-134.7239837561007
 20
-2717.332766606024
 10
-134.6776418791569
 20
-2717.269226480439
 10
-134.6309079824632
 20
-2717.200963509045
 10
-134.5839969936744
 20
-2717.128330164867
 10
-134.4905034504305
 20
-2716.97136225026
 10
-134.3988806706635
 20
-2716.801142520827
 10
-134.3108480756117
 20
-2716.620490760776
 10
-134.2281250865134
 20
-2716.432226754313
 10
-134.1524311246069
 20
-2716.239170285644
 10
-134.0854856111304
 20
-2716.044141138979
 10
-134.0290079673221
 20
-2715.849959098522
 10
-133.9847119544753
 20
-2715.659436649597
 10
-133.9535625674412
 20
-2715.474420691924
 10
-133.935034875284
 20
-2715.294836763904
 10
-133.9284276727327
 20
-2715.120383086112
 10
-133.9330397545165
 20
-2714.950757879124
 10
-133.9481699153643
 20
-2714.785659363512
 10
-133.9731169500053
 20
-2714.624785759854
 10
-134.0071796531685
 20
-2714.467835288723
 10
-134.0496568195829
 20
-2714.314506170693
 10
-134.0998472439777
 20
-2714.164496626342
 10
-134.1570497210819
 20
-2714.017504876241
 10
-134.2205630456245
 20
-2713.873229140967
 10
-134.2896860123346
 20
-2713.731367641094
 10
-134.3637174159413
 20
-2713.591618597198
 10
-134.5237007127607
 20
-2713.317250759634
 10
-134.6949032939151
 20
-2713.047711392871
 10
-134.871715517237
 20
-2712.780586261511
  0
CIRCLE
  5
257
330
1F
100
AcDbEntity
  8
Ech.1_5
 62
   154
420
    21156
370
    50
100
AcDbCircle
 10
-130.4318562799814
 20
-2711.550037222366
 30
0.0
 40
29.99694606438652
  0
HATCH
  5
258
330
1F
100
AcDbEntity
  8
Ech.1_5
 62
    35
420
  9529928
440
 33554687
370
    20
100
AcDbHatch
 10
0.0
 20
0.0
 30
0.0
210
0.0
220
0.0
230
1.0
  2
SOLID
 70
     1
 71
     1
 91
        1
 92
        3
 72
     0
 73
     1
 93
        4
 10
-279.7564031085374
 20
-2841.904065262403
 10
-279.7564031085367
 20
-2717.998976033044
 10
-290.5564031085651
 20
-2717.998976033044
 10
-290.5564031085374
 20
-2841.904065262403
 97
        0
 75
     0
 76
     1
 98
        0
  0
LWPOLYLINE
  5
259
330
1F
100
AcDbEntity
  8
Ech.1_5
 62
   190
370
    20
100
AcDbPolyline
 90
        5
 70
     0
 43
0.0
 10
-279.7564031085374
 20
-2841.904065262403
 10
-279.7564031085367
 20
-2717.998976033044
 10
-290.5564031085651
 20
-2717.998976033044
 10
-290.5564031085374
 20
-2841.904065262403
 10
-279.7564031085374
 20
-2841.904065262403
  0
LWPOLYLINE
  5
25A
330
1F
100
AcDbEntity
  8
Ech.1_5
 62
     7
370
    20
100
AcDbPolyline
 90
        3
 70
     0
 43
0.0
 10
-279.7564031085374
 20
-2841.904065262403
 10
-290.5564031085374
 20
-2841.904065262403
 10
-290.5564031085374
 20
-2717.998976033044
  0
HATCH
  5
25B
330
1F
100
AcDbEntity
  8
Ech.1_5
 62
    17
420
  8405056
440
 33554687
370
    20
100
AcDbHatch
 10
0.0
 20
0.0
 30
0.0
210
0.0
220
0.0
230
1.0
  2
SOLID
 70
     1
 71
     1
 91
        1
 92
        3
 72
     0
 73
     1
 93
        4
 10
-301.3564031085374
 20
-2841.904065262403
 10
-301.3564031085374
 20
-2717.99902941734
 10
-309.3792375951216
 20
-2717.998976033044
 10
-309.3792375951216
 20
-2841.904065262403
 97
        0
 75
     0
 76
     1
 98
        0
  0
LWPOLYLINE
  5
25C
330
1F
100
AcDbEntity
  8
Ech.1_5
 62
     7
370
    20
100
AcDbPolyline
 90
        5
 70
     0
 43
0.0
 10
-301.3564031085374
 20
-2841.904065262403
 10
-301.3564031085374
 20
-2717.99902941734
 10
-309.3792375951216
 20
-2717.998976033044
 10
-309.3792375951216
 20
-2841.904065262403
 10
-301.3564031085374
 20
-2841.904065262403
  0
HATCH
  5
25D
330
1F
100
AcDbEntity
  8
Ech.1_5
 62
    35
420
  9529928
440
 33554687
370
    20
100
AcDbHatch
 10
0.0
 20
0.0
 30
0.0
210
0.0
220
0.0
230
1.0
  2
SOLID
 70
     1
 71
     1
 91
        1
 92
        3
 72
     0
 73
     1
 93
        4
 10
-301.3564031085374
 20
-2825.904065071551
 10
-301.3564031085374
 20
-2841.904065262403
 10
-290.5564031085374
 20
-2841.904065262403
 10
-290.5564031085374
 20
-2825.904065262403
 97
        0
 75
     0
 76
     1
 98
        0
  0
LWPOLYLINE
  5
25E
330
1F
100
AcDbEntity
  8
Ech.1_5
 62
   190
370
    20
100
AcDbPolyline
 90
        5
 70
     0
 43
0.0
 10
-301.3564031085374
 20
-2825.904065071551
 10
-301.3564031085374
 20
-2841.904065262403
 10
-290.5564031085374
 20
-2841.904065262403
 10
-290.5564031085374
 20
-2825.904065262403
 10
-301.3564031085374
 20
-2825.904065071551
  0
LWPOLYLINE
  5
25F
330
1F
100
AcDbEntity
  8
Ech.1_5
 62
   190
370
    20
100
AcDbPolyline
 90
        4
 70
     0
 43
0.0
 10
-290.5564031085374
 20
-2825.904065262403
 10
-301.3564031085374
 20
-2841.904065262403
 10
-290.5564031085374
 20
-2841.904065262403
 10
-301.3564031085374
 20
-2825.904110396024
  0
LWPOLYLINE
  5
260
330
1F
100
AcDbEntity
  8
Ech.1_5
 62
     5
370
    40
100
AcDbPolyline
 90
        5
 70
     0
 43
0.0
 10
-301.3564031085374
 20
-2825.904110396024
 10
-301.3564031085374
 20
-2841.904065262403
 10
-290.5564031085374
 20
-2841.904065262403
 10
-290.5564031085374
 20
-2825.904065262403
 10
-301.3564031085374
 20
-2825.904110396024
  0
LWPOLYLINE
  5
261
330
1F
100
AcDbEntity
  8
Ech.1_5
 62
     7
370
    20
100
AcDbPolyline
 90
        4
 70
     0
 43
0.0
 10
-309.3792375951216
 20
-2717.998976033044
 10
-309.3792375951216
 20
-2841.904065262403
 10
-301.3564031085374
 20
-2841.904065262403
 10
-301.3564031085374
 20
-2717.99902941734
  0
LINE
  5
262
330
1F
100
AcDbEntity
  8
Ech.1_5
 62
   190
370
     9
100
AcDbLine
 10
-309.6014599948325
 20
-2832.896565262408
 30
0.0
 11
-309.7236819951937
 21
-2832.896565262408
 31
0.0
  0
LINE
  5
263
330
1F
100
AcDbEntity
  8
Ech.1_5
 62
   190
370
     9
100
AcDbLine
 10
-309.7236819951937
 20
-2832.896565262408
 30
0.0
 11
-309.7236819951937
 21
-2834.911565262399
 31
0.0
  0
LINE
  5
264
330
1F
100
AcDbEntity
  8
Ech.1_5
 62
   190
370
     9
100
AcDbLine
 10
-309.6014599948332
 20
-2834.911565262399
 30
0.0
 11
-309.7236819951937
 21
-2834.911565262399
 31
0.0
  0
HATCH
  5
265
330
1F
100
AcDbEntity
  8
Ech.1_5
 62
   252
440
 33554687
370
     5
100
AcDbHatch
 10
0.0
 20
0.0
 30
0.0
210
0.0
220
0.0
230
1.0
  2
SOLID
 70
     1
 71
     1
 91
        1
 92
        3
 72
     0
 73
     1
 93
        4
 10
-293.6792379943549
 20
-2834.356009662424
 10
-293.3459043947875
 20
-2834.356009662424
 10
-293.3459043947875
 20
-2833.452120862406
 10
-293.6792379943549
 20
-2833.452120862406
 97
        0
 75
     0
 76
     1
 98
        0
  0
LWPOLYLINE
  5
266
330
1F
100
AcDbEntity
  8
Ech.1_5
 62
     7
370
     9
100
AcDbPolyline
 90
        5
 70
     0
 43
0.0
 10
-293.6792379943549
 20
-2834.356009662424
 10
-293.3459043947875
 20
-2834.356009662424
 10
-293.3459043947875
 20
-2833.452120862406
 10
-293.6792379943549
 20
-2833.452120862406
 10
-293.6792379943549
 20
-2834.356009662424
  0
LINE
  5
267
330
1F
100
AcDbEntity
  8
Ech.1_5
 62
   190
370
     9
100
AcDbLine
 10
-292.4662707953856
 20
-2833.452120862406
 30
0.0
 11
-309.3792375951216
 21
-2833.452120862406
 31
0.0
  0
LINE
  5
268
330
1F
100
AcDbEntity
  8
Ech.1_5
 62
   190
370
     9
100
AcDbLine
 10
-292.4662707953856
 20
-2834.356009662424
 30
0.0
 11
-309.3792375951216
 21
-2834.356009662424
 31
0.0
  0
ARC
  5
269
330
1F
100
AcDbEntity
  8
Ech.1_5
 62
   190
370
     9
100
AcDbCircle
 10
-304.6984006388616
 20
-2833.904065262415
 30
0.0
 40
5.125281356332094
100
AcDbArc
 50
168.6632793503078
 51
191.3367206496872
  0
LINE
  5
26A
330
1F
100
AcDbEntity
  8
Ech.1_5
 62
   190
370
     9
100
AcDbLine
 10
-309.6014599948325
 20
-2832.896565262408
 30
0.0
 11
-309.6014599948332
 21
-2833.229898462389
 31
0.0
  0
ARC
  5
26B
330
1F
100
AcDbEntity
  8
Ech.1_5
 62
   190
370
     9
100
AcDbCircle
 10
-309.3792375988737
 20
-2833.229898466446
 30
0.0
 40
0.2222223959596077
100
AcDbArc
 50
179.9999989537972
 51
270.0000009673976
  0
LINE
  5
26C
330
1F
100
AcDbEntity
  8
Ech.1_5
 62
   190
370
     9
100
AcDbLine
 10
-309.6014599948332
 20
-2833.229898462389
 30
0.0
 11
-309.6014599948332
 21
-2834.578232062415
 31
0.0
  0
ARC
  5
26D
330
1F
100
AcDbEntity
  8
Ech.1_5
 62
   190
370
     9
100
AcDbCircle
 10
-309.3792375989179
 20
-2834.578232058339
 30
0.0
 40
0.2222223959153585
100
AcDbArc
 50
89.99999902120007
 51
180.0000010508927
  0
LINE
  5
26E
330
1F
100
AcDbEntity
  8
Ech.1_5
 62
   190
370
     9
100
AcDbLine
 10
-309.6014599948332
 20
-2834.911565262399
 30
0.0
 11
-309.6014599948332
 21
-2834.578232062415
 31
0.0
  0
LINE
  5
26F
330
1F
100
AcDbEntity
  8
Ech.1_5
 62
   190
370
     9
100
AcDbLine
 10
-305.3459043947875
 20
-2833.452120862406
 30
0.0
 11
-305.3459043947875
 21
-2834.356009662424
 31
0.0
  0
LINE
  5
270
330
1F
100
AcDbEntity
  8
Ech.1_5
 62
   190
370
     9
100
AcDbLine
 10
-305.0125711945711
 20
-2833.452120862406
 30
0.0
 11
-305.0125711945711
 21
-2834.356009662424
 31
0.0
  0
LINE
  5
271
330
1F
100
AcDbEntity
  8
Ech.1_5
 62
   190
370
     9
100
AcDbLine
 10
-306.3459043947875
 20
-2833.452120862406
 30
0.0
 11
-306.3459043947875
 21
-2834.356009662424
 31
0.0
  0
LINE
  5
272
330
1F
100
AcDbEntity
  8
Ech.1_5
 62
   190
370
     9
100
AcDbLine
 10
-306.0125711945711
 20
-2833.452120862406
 30
0.0
 11
-306.0125711945711
 21
-2834.356009662424
 31
0.0
  0
LINE
  5
273
330
1F
100
AcDbEntity
  8
Ech.1_5
 62
   190
370
     9
100
AcDbLine
 10
-305.6792379943549
 20
-2833.452120862406
 30
0.0
 11
-305.6792379943549
 21
-2834.356009662424
 31
0.0
  0
LINE
  5
274
330
1F
100
AcDbEntity
  8
Ech.1_5
 62
   190
370
     9
100
AcDbLine
 10
-307.3459043947875
 20
-2833.452120862406
 30
0.0
 11
-307.3459043947875
 21
-2834.356009662424
 31
0.0
  0
LINE
  5
275
330
1F
100
AcDbEntity
  8
Ech.1_5
 62
   190
370
     9
100
AcDbLine
 10
-307.0125711945704
 20
-2833.452120862406
 30
0.0
 11
-307.0125711945704
 21
-2834.356009662424
 31
0.0
  0
LINE
  5
276
330
1F
100
AcDbEntity
  8
Ech.1_5
 62
   190
370
     9
100
AcDbLine
 10
-306.6792379943541
 20
-2833.452120862406
 30
0.0
 11
-306.6792379943541
 21
-2834.356009662424
 31
0.0
  0
LINE
  5
277
330
1F
100
AcDbEntity
  8
Ech.1_5
 62
   190
370
     9
100
AcDbLine
 10
-307.6792379943549
 20
-2833.452120862406
 30
0.0
 11
-307.6792379943549
 21
-2834.356009662424
 31
0.0
  0
LINE
  5
278
330
1F
100
AcDbEntity
  8
Ech.1_5
 62
   190
370
     9
100
AcDbLine
 10
-308.0125711945711
 20
-2833.452120862406
 30
0.0
 11
-308.0125711945711
 21
-2834.356009662424
 31
0.0
  0
LINE
  5
279
330
1F
100
AcDbEntity
  8
Ech.1_5
 62
   190
370
     9
100
AcDbLine
 10
-308.3459043947875
 20
-2833.452120862406
 30
0.0
 11
-308.3459043947875
 21
-2834.356009662424
 31
0.0
  0
LINE
  5
27A
330
1F
100
AcDbEntity
  8
Ech.1_5
 62
   190
370
     9
100
AcDbLine
 10
-308.6792379943549
 20
-2833.452120862406
 30
0.0
 11
-308.6792379943549
 21
-2834.356009662421
 31
0.0
  0
LINE
  5
27B
330
1F
100
AcDbEntity
  8
Ech.1_5
 62
   190
370
     9
100
AcDbLine
 10
-294.6792379943549
 20
-2833.452120862406
 30
0.0
 11
-294.6792379943549
 21
-2834.356009662424
 31
0.0
  0
LINE
  5
27C
330
1F
100
AcDbEntity
  8
Ech.1_5
 62
   190
370
     9
100
AcDbLine
 10
-295.0125711945711
 20
-2833.452120862406
 30
0.0
 11
-295.0125711945711
 21
-2834.356009662424
 31
0.0
  0
LINE
  5
27D
330
1F
100
AcDbEntity
  8
Ech.1_5
 62
   190
370
     9
100
AcDbLine
 10
-294.3459043947875
 20
-2833.452120862406
 30
0.0
 11
-294.3459043947875
 21
-2834.356009662424
 31
0.0
  0
LINE
  5
27E
330
1F
100
AcDbEntity
  8
Ech.1_5
 62
   190
370
     9
100
AcDbLine
 10
-296.0125711945711
 20
-2833.452120862406
 30
0.0
 11
-296.0125711945711
 21
-2834.356009662424
 31
0.0
  0
LINE
  5
27F
330
1F
100
AcDbEntity
  8
Ech.1_5
 62
   190
370
     9
100
AcDbLine
 10
-295.6792379943549
 20
-2833.452120862406
 30
0.0
 11
-295.6792379943549
 21
-2834.356009662424
 31
0.0
  0
LINE
  5
280
330
1F
100
AcDbEntity
  8
Ech.1_5
 62
   190
370
     9
100
AcDbLine
 10
-295.3459043947875
 20
-2833.452120862406
 30
0.0
 11
-295.3459043947875
 21
-2834.356009662424
 31
0.0
  0
LINE
  5
281
330
1F
100
AcDbEntity
  8
Ech.1_5
 62
   190
370
     9
100
AcDbLine
 10
-297.0125711945711
 20
-2833.452120862406
 30
0.0
 11
-297.0125711945711
 21
-2834.356009662424
 31
0.0
  0
LINE
  5
282
330
1F
100
AcDbEntity
  8
Ech.1_5
 62
   190
370
     9
100
AcDbLine
 10
-296.6792379943549
 20
-2833.452120862406
 30
0.0
 11
-296.6792379943549
 21
-2834.356009662424
 31
0.0
  0
LINE
  5
283
330
1F
100
AcDbEntity
  8
Ech.1_5
 62
   190
370
     9
100
AcDbLine
 10
-296.3459043947875
 20
-2833.452120862406
 30
0.0
 11
-296.3459043947875
 21
-2834.356009662424
 31
0.0
  0
LINE
  5
284
330
1F
100
AcDbEntity
  8
Ech.1_5
 62
   190
370
     9
100
AcDbLine
 10
-298.0125711945711
 20
-2833.452120862406
 30
0.0
 11
-298.0125711945711
 21
-2834.356009662424
 31
0.0
  0
LINE
  5
285
330
1F
100
AcDbEntity
  8
Ech.1_5
 62
   190
370
     9
100
AcDbLine
 10
-297.6792379943549
 20
-2833.452120862406
 30
0.0
 11
-297.6792379943549
 21
-2834.356009662424
 31
0.0
  0
LINE
  5
286
330
1F
100
AcDbEntity
  8
Ech.1_5
 62
   190
370
     9
100
AcDbLine
 10
-297.3459043947875
 20
-2833.452120862406
 30
0.0
 11
-297.3459043947875
 21
-2834.356009662424
 31
0.0
  0
LINE
  5
287
330
1F
100
AcDbEntity
  8
Ech.1_5
 62
   190
370
     9
100
AcDbLine
 10
-298.3459043947875
 20
-2833.452120862406
 30
0.0
 11
-298.3459043947875
 21
-2834.356009662424
 31
0.0
  0
LINE
  5
288
330
1F
100
AcDbEntity
  8
Ech.1_5
 62
   190
370
     9
100
AcDbLine
 10
-303.6792379943549
 20
-2833.452120862406
 30
0.0
 11
-303.6792379943549
 21
-2834.356009662424
 31
0.0
  0
LINE
  5
289
330
1F
100
AcDbEntity
  8
Ech.1_5
 62
   190
370
     9
100
AcDbLine
 10
-303.3459043947875
 20
-2833.452120862406
 30
0.0
 11
-303.3459043947875
 21
-2834.356009662424
 31
0.0
  0
LINE
  5
28A
330
1F
100
AcDbEntity
  8
Ech.1_5
 62
   190
370
     9
100
AcDbLine
 10
-303.0125711945711
 20
-2833.452120862406
 30
0.0
 11
-303.0125711945711
 21
-2834.356009662424
 31
0.0
  0
LINE
  5
28B
330
1F
100
AcDbEntity
  8
Ech.1_5
 62
   190
370
     9
100
AcDbLine
 10
-302.6792379943549
 20
-2833.452120862406
 30
0.0
 11
-302.6792379943549
 21
-2834.356009662424
 31
0.0
  0
LINE
  5
28C
330
1F
100
AcDbEntity
  8
Ech.1_5
 62
   190
370
     9
100
AcDbLine
 10
-301.6792379943549
 20
-2833.452120862406
 30
0.0
 11
-301.6792379943549
 21
-2834.356009662424
 31
0.0
  0
LINE
  5
28D
330
1F
100
AcDbEntity
  8
Ech.1_5
 62
   190
370
     9
100
AcDbLine
 10
-302.0125711945711
 20
-2833.452120862406
 30
0.0
 11
-302.0125711945711
 21
-2834.356009662424
 31
0.0
  0
LINE
  5
28E
330
1F
100
AcDbEntity
  8
Ech.1_5
 62
   190
370
     9
100
AcDbLine
 10
-302.3459043947875
 20
-2833.452120862406
 30
0.0
 11
-302.3459043947875
 21
-2834.356009662424
 31
0.0
  0
LINE
  5
28F
330
1F
100
AcDbEntity
  8
Ech.1_5
 62
   190
370
     9
100
AcDbLine
 10
-300.6792379943549
 20
-2833.452120862406
 30
0.0
 11
-300.6792379943549
 21
-2834.356009662424
 31
0.0
  0
LINE
  5
290
330
1F
100
AcDbEntity
  8
Ech.1_5
 62
   190
370
     9
100
AcDbLine
 10
-301.0125711945711
 20
-2833.452120862406
 30
0.0
 11
-301.0125711945711
 21
-2834.356009662424
 31
0.0
  0
LINE
  5
291
330
1F
100
AcDbEntity
  8
Ech.1_5
 62
   190
370
     9
100
AcDbLine
 10
-301.3459043947875
 20
-2833.452120862406
 30
0.0
 11
-301.3459043947875
 21
-2834.356009662424
 31
0.0
  0
LINE
  5
292
330
1F
100
AcDbEntity
  8
Ech.1_5
 62
   190
370
     9
100
AcDbLine
 10
-299.6792379943549
 20
-2833.452120862406
 30
0.0
 11
-299.6792379943549
 21
-2834.356009662424
 31
0.0
  0
LINE
  5
293
330
1F
100
AcDbEntity
  8
Ech.1_5
 62
   190
370
     9
100
AcDbLine
 10
-300.0125711945711
 20
-2833.452120862406
 30
0.0
 11
-300.0125711945711
 21
-2834.356009662424
 31
0.0
  0
LINE
  5
294
330
1F
100
AcDbEntity
  8
Ech.1_5
 62
   190
370
     9
100
AcDbLine
 10
-300.3459043947875
 20
-2833.452120862406
 30
0.0
 11
-300.3459043947875
 21
-2834.356009662424
 31
0.0
  0
LINE
  5
295
330
1F
100
AcDbEntity
  8
Ech.1_5
 62
   190
370
     9
100
AcDbLine
 10
-298.6792379943549
 20
-2833.452120862406
 30
0.0
 11
-298.6792379943549
 21
-2834.356009662424
 31
0.0
  0
LINE
  5
296
330
1F
100
AcDbEntity
  8
Ech.1_5
 62
   190
370
     9
100
AcDbLine
 10
-299.0125711945711
 20
-2833.452120862406
 30
0.0
 11
-299.0125711945711
 21
-2834.356009662424
 31
0.0
  0
LINE
  5
297
330
1F
100
AcDbEntity
  8
Ech.1_5
 62
   190
370
     9
100
AcDbLine
 10
-299.3459043947875
 20
-2833.452120862406
 30
0.0
 11
-299.3459043947875
 21
-2834.356009662424
 31
0.0
  0
LINE
  5
298
330
1F
100
AcDbEntity
  8
Ech.1_5
 62
   190
370
     9
100
AcDbLine
 10
-304.3459043947875
 20
-2833.452120862406
 30
0.0
 11
-304.3459043947875
 21
-2834.356009662424
 31
0.0
  0
LINE
  5
299
330
1F
100
AcDbEntity
  8
Ech.1_5
 62
   190
370
     9
100
AcDbLine
 10
-304.0125711945711
 20
-2833.452120862406
 30
0.0
 11
-304.0125711945711
 21
-2834.356009662424
 31
0.0
  0
LINE
  5
29A
330
1F
100
AcDbEntity
  8
Ech.1_5
 62
   190
370
     9
100
AcDbLine
 10
-303.6792379943549
 20
-2833.452120862406
 30
0.0
 11
-303.6792379943549
 21
-2834.356009662424
 31
0.0
  0
LINE
  5
29B
330
1F
100
AcDbEntity
  8
Ech.1_5
 62
   190
370
     9
100
AcDbLine
 10
-304.6792379943549
 20
-2833.452120862406
 30
0.0
 11
-304.6792379943549
 21
-2834.356009662424
 31
0.0
  0
LINE
  5
29C
330
1F
100
AcDbEntity
  8
Ech.1_5
 62
   190
370
     9
100
AcDbLine
 10
-291.4014599948332
 20
-2833.904065262403
 30
0.0
 11
-292.4662707953856
 21
-2833.452120862406
 31
0.0
  0
ARC
  5
29D
330
1F
100
AcDbEntity
  8
Ech.1_5
 62
   190
370
     9
100
AcDbCircle
 10
-291.9025303991468
 20
-2833.904065262402
 30
0.0
 40
0.7225351986660836
100
AcDbArc
 50
141.2812399141953
 51
218.7187600858047
  0
LINE
  5
29E
330
1F
100
AcDbEntity
  8
Ech.1_5
 62
   190
370
     9
100
AcDbLine
 10
-291.4014599948332
 20
-2833.904065262403
 30
0.0
 11
-292.4662707953856
 21
-2834.356009662424
 31
0.0
  0
HATCH
  5
29F
330
1F
100
AcDbEntity
  8
Ech.1_5
 62
   252
440
 33554687
370
     5
100
AcDbHatch
 10
0.0
 20
0.0
 30
0.0
210
0.0
220
0.0
230
1.0
  2
SOLID
 70
     1
 71
     1
 91
        1
 92
        3
 72
     0
 73
     1
 93
        4
 10
-308.6792379943549
 20
-2834.356009662421
 10
-308.3459043947875
 20
-2834.356009662424
 10
-308.3459043947875
 20
-2833.452120862406
 10
-308.6792379943549
 20
-2833.452120862406
 97
        0
 75
     0
 76
     1
 98
        0
  0
LWPOLYLINE
  5
2A0
330
1F
100
AcDbEntity
  8
Ech.1_5
 62
     7
370
     9
100
AcDbPolyline
 90
        5
 70
     0
 43
0.0
 10
-308.6792379943549
 20
-2834.356009662421
 10
-308.3459043947875
 20
-2834.356009662424
 10
-308.3459043947875
 20
-2833.452120862406
 10
-308.6792379943549
 20
-2833.452120862406
 10
-308.6792379943549
 20
-2834.356009662421
  0
HATCH
  5
2A1
330
1F
100
AcDbEntity
  8
Ech.1_5
 62
   252
440
 33554687
370
     5
100
AcDbHatch
 10
0.0
 20
0.0
 30
0.0
210
0.0
220
0.0
230
1.0
  2
SOLID
 70
     1
 71
     1
 91
        1
 92
        3
 72
     0
 73
     1
 93
        4
 10
-308.3459043947875
 20
-2834.356009662424
 10
-308.01257079522
 20
-2834.356009662424
 10
-308.01257079522
 20
-2833.452120862406
 10
-308.3459043947875
 20
-2833.452120862406
 97
        0
 75
     0
 76
     1
 98
        0
  0
LWPOLYLINE
  5
2A2
330
1F
100
AcDbEntity
  8
Ech.1_5
 62
     7
370
     9
100
AcDbPolyline
 90
        5
 70
     0
 43
0.0
 10
-308.3459043947875
 20
-2834.356009662424
 10
-308.01257079522
 20
-2834.356009662424
 10
-308.01257079522
 20
-2833.452120862406
 10
-308.3459043947875
 20
-2833.452120862406
 10
-308.3459043947875
 20
-2834.356009662424
  0
HATCH
  5
2A3
330
1F
100
AcDbEntity
  8
Ech.1_5
 62
   252
440
 33554687
370
     5
100
AcDbHatch
 10
0.0
 20
0.0
 30
0.0
210
0.0
220
0.0
230
1.0
  2
SOLID
 70
     1
 71
     1
 91
        1
 92
        3
 72
     0
 73
     1
 93
        4
 10
-308.01257079522
 20
-2834.356009662424
 10
-307.6792371956526
 20
-2834.356009662424
 10
-307.6792371956526
 20
-2833.452120862406
 10
-308.01257079522
 20
-2833.452120862406
 97
        0
 75
     0
 76
     1
 98
        0
  0
LWPOLYLINE
  5
2A4
330
1F
100
AcDbEntity
  8
Ech.1_5
 62
     7
370
     9
100
AcDbPolyline
 90
        5
 70
     0
 43
0.0
 10
-308.01257079522
 20
-2834.356009662424
 10
-307.6792371956526
 20
-2834.356009662424
 10
-307.6792371956526
 20
-2833.452120862406
 10
-308.01257079522
 20
-2833.452120862406
 10
-308.01257079522
 20
-2834.356009662424
  0
HATCH
  5
2A5
330
1F
100
AcDbEntity
  8
Ech.1_5
 62
   252
440
 33554687
370
     5
100
AcDbHatch
 10
0.0
 20
0.0
 30
0.0
210
0.0
220
0.0
230
1.0
  2
SOLID
 70
     1
 71
     1
 91
        1
 92
        3
 72
     0
 73
     1
 93
        4
 10
-307.6792371956526
 20
-2834.356009662424
 10
-307.3459035960852
 20
-2834.356009662424
 10
-307.3459035960852
 20
-2833.452120862406
 10
-307.6792371956526
 20
-2833.452120862406
 97
        0
 75
     0
 76
     1
 98
        0
  0
LWPOLYLINE
  5
2A6
330
1F
100
AcDbEntity
  8
Ech.1_5
 62
     7
370
     9
100
AcDbPolyline
 90
        5
 70
     0
 43
0.0
 10
-307.6792371956526
 20
-2834.356009662424
 10
-307.3459035960852
 20
-2834.356009662424
 10
-307.3459035960852
 20
-2833.452120862406
 10
-307.6792371956526
 20
-2833.452120862406
 10
-307.6792371956526
 20
-2834.356009662424
  0
HATCH
  5
2A7
330
1F
100
AcDbEntity
  8
Ech.1_5
 62
   252
440
 33554687
370
     5
100
AcDbHatch
 10
0.0
 20
0.0
 30
0.0
210
0.0
220
0.0
230
1.0
  2
SOLID
 70
     1
 71
     1
 91
        1
 92
        3
 72
     0
 73
     1
 93
        4
 10
-307.3459043947875
 20
-2834.356009662424
 10
-307.0125707952193
 20
-2834.356009662424
 10
-307.0125707952193
 20
-2833.452120862406
 10
-307.3459043947875
 20
-2833.452120862406
 97
        0
 75
     0
 76
     1
 98
        0
  0
LWPOLYLINE
  5
2A8
330
1F
100
AcDbEntity
  8
Ech.1_5
 62
     7
370
     9
100
AcDbPolyline
 90
        5
 70
     0
 43
0.0
 10
-307.3459043947875
 20
-2834.356009662424
 10
-307.0125707952193
 20
-2834.356009662424
 10
-307.0125707952193
 20
-2833.452120862406
 10
-307.3459043947875
 20
-2833.452120862406
 10
-307.3459043947875
 20
-2834.356009662424
  0
HATCH
  5
2A9
330
1F
100
AcDbEntity
  8
Ech.1_5
 62
   252
440
 33554687
370
     5
100
AcDbHatch
 10
0.0
 20
0.0
 30
0.0
210
0.0
220
0.0
230
1.0
  2
SOLID
 70
     1
 71
     1
 91
        1
 92
        3
 72
     0
 73
     1
 93
        4
 10
-307.0125711945704
 20
-2834.356009662424
 10
-306.679237595003
 20
-2834.356009662424
 10
-306.679237595003
 20
-2833.452120862403
 10
-307.0125711945704
 20
-2833.452120862406
 97
        0
 75
     0
 76
     1
 98
        0
  0
LWPOLYLINE
  5
2AA
330
1F
100
AcDbEntity
  8
Ech.1_5
 62
     7
370
     9
100
AcDbPolyline
 90
        5
 70
     0
 43
0.0
 10
-307.0125711945704
 20
-2834.356009662424
 10
-306.679237595003
 20
-2834.356009662424
 10
-306.679237595003
 20
-2833.452120862403
 10
-307.0125711945704
 20
-2833.452120862406
 10
-307.0125711945704
 20
-2834.356009662424
  0
HATCH
  5
2AB
330
1F
100
AcDbEntity
  8
Ech.1_5
 62
   252
440
 33554687
370
     5
100
AcDbHatch
 10
0.0
 20
0.0
 30
0.0
210
0.0
220
0.0
230
1.0
  2
SOLID
 70
     1
 71
     1
 91
        1
 92
        3
 72
     0
 73
     1
 93
        4
 10
-306.679237595003
 20
-2834.356009662424
 10
-306.3459039954363
 20
-2834.356009662424
 10
-306.3459039954363
 20
-2833.452120862406
 10
-306.679237595003
 20
-2833.452120862403
 97
        0
 75
     0
 76
     1
 98
        0
  0
LWPOLYLINE
  5
2AC
330
1F
100
AcDbEntity
  8
Ech.1_5
 62
     7
370
     9
100
AcDbPolyline
 90
        5
 70
     0
 43
0.0
 10
-306.679237595003
 20
-2834.356009662424
 10
-306.3459039954363
 20
-2834.356009662424
 10
-306.3459039954363
 20
-2833.452120862406
 10
-306.679237595003
 20
-2833.452120862403
 10
-306.679237595003
 20
-2834.356009662424
  0
HATCH
  5
2AD
330
1F
100
AcDbEntity
  8
Ech.1_5
 62
   252
440
 33554687
370
     5
100
AcDbHatch
 10
0.0
 20
0.0
 30
0.0
210
0.0
220
0.0
230
1.0
  2
SOLID
 70
     1
 71
     1
 91
        1
 92
        3
 72
     0
 73
     1
 93
        4
 10
-306.3459043947875
 20
-2834.356009662424
 10
-306.01257079522
 20
-2834.356009662424
 10
-306.01257079522
 20
-2833.452120862406
 10
-306.3459043947875
 20
-2833.452120862406
 97
        0
 75
     0
 76
     1
 98
        0
  0
LWPOLYLINE
  5
2AE
330
1F
100
AcDbEntity
  8
Ech.1_5
 62
     7
370
     9
100
AcDbPolyline
 90
        5
 70
     0
 43
0.0
 10
-306.3459043947875
 20
-2834.356009662424
 10
-306.01257079522
 20
-2834.356009662424
 10
-306.01257079522
 20
-2833.452120862406
 10
-306.3459043947875
 20
-2833.452120862406
 10
-306.3459043947875
 20
-2834.356009662424
  0
HATCH
  5
2AF
330
1F
100
AcDbEntity
  8
Ech.1_5
 62
   252
440
 33554687
370
     5
100
AcDbHatch
 10
0.0
 20
0.0
 30
0.0
210
0.0
220
0.0
230
1.0
  2
SOLID
 70
     1
 71
     1
 91
        1
 92
        3
 72
     0
 73
     1
 93
        4
 10
-306.01257079522
 20
-2834.356009662424
 10
-305.6792371956526
 20
-2834.356009662424
 10
-305.6792371956526
 20
-2833.452120862406
 10
-306.01257079522
 20
-2833.452120862406
 97
        0
 75
     0
 76
     1
 98
        0
  0
LWPOLYLINE
  5
2B0
330
1F
100
AcDbEntity
  8
Ech.1_5
 62
     7
370
     9
100
AcDbPolyline
 90
        5
 70
     0
 43
0.0
 10
-306.01257079522
 20
-2834.356009662424
 10
-305.6792371956526
 20
-2834.356009662424
 10
-305.6792371956526
 20
-2833.452120862406
 10
-306.01257079522
 20
-2833.452120862406
 10
-306.01257079522
 20
-2834.356009662424
  0
HATCH
  5
2B1
330
1F
100
AcDbEntity
  8
Ech.1_5
 62
   252
440
 33554687
370
     5
100
AcDbHatch
 10
0.0
 20
0.0
 30
0.0
210
0.0
220
0.0
230
1.0
  2
SOLID
 70
     1
 71
     1
 91
        1
 92
        3
 72
     0
 73
     1
 93
        4
 10
-305.6792379943549
 20
-2834.356009662424
 10
-305.3459043947875
 20
-2834.356009662424
 10
-305.3459043947875
 20
-2833.452120862406
 10
-305.6792379943549
 20
-2833.452120862406
 97
        0
 75
     0
 76
     1
 98
        0
  0
LWPOLYLINE
  5
2B2
330
1F
100
AcDbEntity
  8
Ech.1_5
 62
     7
370
     9
100
AcDbPolyline
 90
        5
 70
     0
 43
0.0
 10
-305.6792379943549
 20
-2834.356009662424
 10
-305.3459043947875
 20
-2834.356009662424
 10
-305.3459043947875
 20
-2833.452120862406
 10
-305.6792379943549
 20
-2833.452120862406
 10
-305.6792379943549
 20
-2834.356009662424
  0
HATCH
  5
2B3
330
1F
100
AcDbEntity
  8
Ech.1_5
 62
   252
440
 33554687
370
     5
100
AcDbHatch
 10
0.0
 20
0.0
 30
0.0
210
0.0
220
0.0
230
1.0
  2
SOLID
 70
     1
 71
     1
 91
        1
 92
        3
 72
     0
 73
     1
 93
        4
 10
-305.3459043947875
 20
-2834.356009662424
 10
-305.01257079522
 20
-2834.356009662424
 10
-305.01257079522
 20
-2833.452120862406
 10
-305.3459043947875
 20
-2833.452120862406
 97
        0
 75
     0
 76
     1
 98
        0
  0
LWPOLYLINE
  5
2B4
330
1F
100
AcDbEntity
  8
Ech.1_5
 62
     7
370
     9
100
AcDbPolyline
 90
        5
 70
     0
 43
0.0
 10
-305.3459043947875
 20
-2834.356009662424
 10
-305.01257079522
 20
-2834.356009662424
 10
-305.01257079522
 20
-2833.452120862406
 10
-305.3459043947875
 20
-2833.452120862406
 10
-305.3459043947875
 20
-2834.356009662424
  0
HATCH
  5
2B5
330
1F
100
AcDbEntity
  8
Ech.1_5
 62
   252
440
 33554687
370
     5
100
AcDbHatch
 10
0.0
 20
0.0
 30
0.0
210
0.0
220
0.0
230
1.0
  2
SOLID
 70
     1
 71
     1
 91
        1
 92
        3
 72
     0
 73
     1
 93
        4
 10
-305.01257079522
 20
-2834.356009662424
 10
-304.6792371956526
 20
-2834.356009662424
 10
-304.6792371956519
 20
-2833.452120862406
 10
-305.01257079522
 20
-2833.452120862406
 97
        0
 75
     0
 76
     1
 98
        0
  0
LWPOLYLINE
  5
2B6
330
1F
100
AcDbEntity
  8
Ech.1_5
 62
     7
370
     9
100
AcDbPolyline
 90
        5
 70
     0
 43
0.0
 10
-305.01257079522
 20
-2834.356009662424
 10
-304.6792371956526
 20
-2834.356009662424
 10
-304.6792371956519
 20
-2833.452120862406
 10
-305.01257079522
 20
-2833.452120862406
 10
-305.01257079522
 20
-2834.356009662424
  0
HATCH
  5
2B7
330
1F
100
AcDbEntity
  8
Ech.1_5
 62
   252
440
 33554687
370
     5
100
AcDbHatch
 10
0.0
 20
0.0
 30
0.0
210
0.0
220
0.0
230
1.0
  2
SOLID
 70
     1
 71
     1
 91
        1
 92
        3
 72
     0
 73
     1
 93
        4
 10
-304.6792371956526
 20
-2834.356009662424
 10
-304.3459035960852
 20
-2834.356009662424
 10
-304.3459035960852
 20
-2833.452120862406
 10
-304.6792371956519
 20
-2833.452120862406
 97
        0
 75
     0
 76
     1
 98
        0
  0
LWPOLYLINE
  5
2B8
330
1F
100
AcDbEntity
  8
Ech.1_5
 62
     7
370
     9
100
AcDbPolyline
 90
        5
 70
     0
 43
0.0
 10
-304.6792371956526
 20
-2834.356009662424
 10
-304.3459035960852
 20
-2834.356009662424
 10
-304.3459035960852
 20
-2833.452120862406
 10
-304.6792371956519
 20
-2833.452120862406
 10
-304.6792371956526
 20
-2834.356009662424
  0
HATCH
  5
2B9
330
1F
100
AcDbEntity
  8
Ech.1_5
 62
   252
440
 33554687
370
     5
100
AcDbHatch
 10
0.0
 20
0.0
 30
0.0
210
0.0
220
0.0
230
1.0
  2
SOLID
 70
     1
 71
     1
 91
        1
 92
        3
 72
     0
 73
     1
 93
        4
 10
-304.3459035960852
 20
-2834.356009662424
 10
-304.0125699965178
 20
-2834.356009662424
 10
-304.0125699965178
 20
-2833.452120862406
 10
-304.3459035960852
 20
-2833.452120862406
 97
        0
 75
     0
 76
     1
 98
        0
  0
LWPOLYLINE
  5
2BA
330
1F
100
AcDbEntity
  8
Ech.1_5
 62
     7
370
     9
100
AcDbPolyline
 90
        5
 70
     0
 43
0.0
 10
-304.3459035960852
 20
-2834.356009662424
 10
-304.0125699965178
 20
-2834.356009662424
 10
-304.0125699965178
 20
-2833.452120862406
 10
-304.3459035960852
 20
-2833.452120862406
 10
-304.3459035960852
 20
-2834.356009662424
  0
HATCH
  5
2BB
330
1F
100
AcDbEntity
  8
Ech.1_5
 62
   252
440
 33554687
370
     5
100
AcDbHatch
 10
0.0
 20
0.0
 30
0.0
210
0.0
220
0.0
230
1.0
  2
SOLID
 70
     1
 71
     1
 91
        1
 92
        3
 72
     0
 73
     1
 93
        4
 10
-304.01257079522
 20
-2834.356009662424
 10
-303.6792371956526
 20
-2834.356009662424
 10
-303.6792371956526
 20
-2833.452120862406
 10
-304.01257079522
 20
-2833.452120862406
 97
        0
 75
     0
 76
     1
 98
        0
  0
LWPOLYLINE
  5
2BC
330
1F
100
AcDbEntity
  8
Ech.1_5
 62
     7
370
     9
100
AcDbPolyline
 90
        5
 70
     0
 43
0.0
 10
-304.01257079522
 20
-2834.356009662424
 10
-303.6792371956526
 20
-2834.356009662424
 10
-303.6792371956526
 20
-2833.452120862406
 10
-304.01257079522
 20
-2833.452120862406
 10
-304.01257079522
 20
-2834.356009662424
  0
HATCH
  5
2BD
330
1F
100
AcDbEntity
  8
Ech.1_5
 62
   252
440
 33554687
370
     5
100
AcDbHatch
 10
0.0
 20
0.0
 30
0.0
210
0.0
220
0.0
230
1.0
  2
SOLID
 70
     1
 71
     1
 91
        1
 92
        3
 72
     0
 73
     1
 93
        4
 10
-303.6792375950037
 20
-2834.356009662424
 10
-303.3459039954363
 20
-2834.356009662424
 10
-303.3459039954363
 20
-2833.452120862406
 10
-303.6792375950037
 20
-2833.452120862406
 97
        0
 75
     0
 76
     1
 98
        0
  0
LWPOLYLINE
  5
2BE
330
1F
100
AcDbEntity
  8
Ech.1_5
 62
     7
370
     9
100
AcDbPolyline
 90
        5
 70
     0
 43
0.0
 10
-303.6792375950037
 20
-2834.356009662424
 10
-303.3459039954363
 20
-2834.356009662424
 10
-303.3459039954363
 20
-2833.452120862406
 10
-303.6792375950037
 20
-2833.452120862406
 10
-303.6792375950037
 20
-2834.356009662424
  0
HATCH
  5
2BF
330
1F
100
AcDbEntity
  8
Ech.1_5
 62
   252
440
 33554687
370
     5
100
AcDbHatch
 10
0.0
 20
0.0
 30
0.0
210
0.0
220
0.0
230
1.0
  2
SOLID
 70
     1
 71
     1
 91
        1
 92
        3
 72
     0
 73
     1
 93
        4
 10
-303.3459039954363
 20
-2834.356009662424
 10
-303.0125703958689
 20
-2834.356009662424
 10
-303.0125703958689
 20
-2833.452120862406
 10
-303.3459039954363
 20
-2833.452120862406
 97
        0
 75
     0
 76
     1
 98
        0
  0
LWPOLYLINE
  5
2C0
330
1F
100
AcDbEntity
  8
Ech.1_5
 62
     7
370
     9
100
AcDbPolyline
 90
        5
 70
     0
 43
0.0
 10
-303.3459039954363
 20
-2834.356009662424
 10
-303.0125703958689
 20
-2834.356009662424
 10
-303.0125703958689
 20
-2833.452120862406
 10
-303.3459039954363
 20
-2833.452120862406
 10
-303.3459039954363
 20
-2834.356009662424
  0
HATCH
  5
2C1
330
1F
100
AcDbEntity
  8
Ech.1_5
 62
   252
440
 33554687
370
     5
100
AcDbHatch
 10
0.0
 20
0.0
 30
0.0
210
0.0
220
0.0
230
1.0
  2
SOLID
 70
     1
 71
     1
 91
        1
 92
        3
 72
     0
 73
     1
 93
        4
 10
-303.01257079522
 20
-2834.356009662424
 10
-302.6792371956526
 20
-2834.356009662424
 10
-302.6792371956526
 20
-2833.452120862406
 10
-303.01257079522
 20
-2833.452120862406
 97
        0
 75
     0
 76
     1
 98
        0
  0
LWPOLYLINE
  5
2C2
330
1F
100
AcDbEntity
  8
Ech.1_5
 62
     7
370
     9
100
AcDbPolyline
 90
        5
 70
     0
 43
0.0
 10
-303.01257079522
 20
-2834.356009662424
 10
-302.6792371956526
 20
-2834.356009662424
 10
-302.6792371956526
 20
-2833.452120862406
 10
-303.01257079522
 20
-2833.452120862406
 10
-303.01257079522
 20
-2834.356009662424
  0
HATCH
  5
2C3
330
1F
100
AcDbEntity
  8
Ech.1_5
 62
   252
440
 33554687
370
     5
100
AcDbHatch
 10
0.0
 20
0.0
 30
0.0
210
0.0
220
0.0
230
1.0
  2
SOLID
 70
     1
 71
     1
 91
        1
 92
        3
 72
     0
 73
     1
 93
        4
 10
-302.6792371956526
 20
-2834.356009662424
 10
-302.3459035960852
 20
-2834.356009662424
 10
-302.3459035960852
 20
-2833.452120862406
 10
-302.6792371956526
 20
-2833.452120862406
 97
        0
 75
     0
 76
     1
 98
        0
  0
LWPOLYLINE
  5
2C4
330
1F
100
AcDbEntity
  8
Ech.1_5
 62
     7
370
     9
100
AcDbPolyline
 90
        5
 70
     0
 43
0.0
 10
-302.6792371956526
 20
-2834.356009662424
 10
-302.3459035960852
 20
-2834.356009662424
 10
-302.3459035960852
 20
-2833.452120862406
 10
-302.6792371956526
 20
-2833.452120862406
 10
-302.6792371956526
 20
-2834.356009662424
  0
HATCH
  5
2C5
330
1F
100
AcDbEntity
  8
Ech.1_5
 62
   252
440
 33554687
370
     5
100
AcDbHatch
 10
0.0
 20
0.0
 30
0.0
210
0.0
220
0.0
230
1.0
  2
SOLID
 70
     1
 71
     1
 91
        1
 92
        3
 72
     0
 73
     1
 93
        4
 10
-302.3459043947875
 20
-2834.356009662424
 10
-302.01257079522
 20
-2834.356009662424
 10
-302.01257079522
 20
-2833.452120862406
 10
-302.3459043947875
 20
-2833.452120862406
 97
        0
 75
     0
 76
     1
 98
        0
  0
LWPOLYLINE
  5
2C6
330
1F
100
AcDbEntity
  8
Ech.1_5
 62
     7
370
     9
100
AcDbPolyline
 90
        5
 70
     0
 43
0.0
 10
-302.3459043947875
 20
-2834.356009662424
 10
-302.01257079522
 20
-2834.356009662424
 10
-302.01257079522
 20
-2833.452120862406
 10
-302.3459043947875
 20
-2833.452120862406
 10
-302.3459043947875
 20
-2834.356009662424
  0
HATCH
  5
2C7
330
1F
100
AcDbEntity
  8
Ech.1_5
 62
   252
440
 33554687
370
     5
100
AcDbHatch
 10
0.0
 20
0.0
 30
0.0
210
0.0
220
0.0
230
1.0
  2
SOLID
 70
     1
 71
     1
 91
        1
 92
        3
 72
     0
 73
     1
 93
        4
 10
-302.01257079522
 20
-2834.356009662424
 10
-301.6792371956526
 20
-2834.356009662424
 10
-301.6792371956526
 20
-2833.452120862406
 10
-302.01257079522
 20
-2833.452120862406
 97
        0
 75
     0
 76
     1
 98
        0
  0
LWPOLYLINE
  5
2C8
330
1F
100
AcDbEntity
  8
Ech.1_5
 62
     7
370
     9
100
AcDbPolyline
 90
        5
 70
     0
 43
0.0
 10
-302.01257079522
 20
-2834.356009662424
 10
-301.6792371956526
 20
-2834.356009662424
 10
-301.6792371956526
 20
-2833.452120862406
 10
-302.01257079522
 20
-2833.452120862406
 10
-302.01257079522
 20
-2834.356009662424
  0
HATCH
  5
2C9
330
1F
100
AcDbEntity
  8
Ech.1_5
 62
   252
440
 33554687
370
     5
100
AcDbHatch
 10
0.0
 20
0.0
 30
0.0
210
0.0
220
0.0
230
1.0
  2
SOLID
 70
     1
 71
     1
 91
        1
 92
        3
 72
     0
 73
     1
 93
        4
 10
-301.6792371956526
 20
-2834.356009662424
 10
-301.3459035960852
 20
-2834.356009662424
 10
-301.3459035960852
 20
-2833.452120862406
 10
-301.6792371956526
 20
-2833.452120862406
 97
        0
 75
     0
 76
     1
 98
        0
  0
LWPOLYLINE
  5
2CA
330
1F
100
AcDbEntity
  8
Ech.1_5
 62
     7
370
     9
100
AcDbPolyline
 90
        5
 70
     0
 43
0.0
 10
-301.6792371956526
 20
-2834.356009662424
 10
-301.3459035960852
 20
-2834.356009662424
 10
-301.3459035960852
 20
-2833.452120862406
 10
-301.6792371956526
 20
-2833.452120862406
 10
-301.6792371956526
 20
-2834.356009662424
  0
HATCH
  5
2CB
330
1F
100
AcDbEntity
  8
Ech.1_5
 62
   252
440
 33554687
370
     5
100
AcDbHatch
 10
0.0
 20
0.0
 30
0.0
210
0.0
220
0.0
230
1.0
  2
SOLID
 70
     1
 71
     1
 91
        1
 92
        3
 72
     0
 73
     1
 93
        4
 10
-301.3459035960852
 20
-2834.356009662424
 10
-301.0125699965171
 20
-2834.356009662424
 10
-301.0125699965178
 20
-2833.452120862406
 10
-301.3459035960852
 20
-2833.452120862406
 97
        0
 75
     0
 76
     1
 98
        0
  0
LWPOLYLINE
  5
2CC
330
1F
100
AcDbEntity
  8
Ech.1_5
 62
     7
370
     9
100
AcDbPolyline
 90
        5
 70
     0
 43
0.0
 10
-301.3459035960852
 20
-2834.356009662424
 10
-301.0125699965171
 20
-2834.356009662424
 10
-301.0125699965178
 20
-2833.452120862406
 10
-301.3459035960852
 20
-2833.452120862406
 10
-301.3459035960852
 20
-2834.356009662424
  0
HATCH
  5
2CD
330
1F
100
AcDbEntity
  8
Ech.1_5
 62
   252
440
 33554687
370
     5
100
AcDbHatch
 10
0.0
 20
0.0
 30
0.0
210
0.0
220
0.0
230
1.0
  2
SOLID
 70
     1
 71
     1
 91
        1
 92
        3
 72
     0
 73
     1
 93
        4
 10
-301.0125699965171
 20
-2834.356009662424
 10
-300.6792363969504
 20
-2834.356009662424
 10
-300.6792363969504
 20
-2833.452120862406
 10
-301.0125699965178
 20
-2833.452120862406
 97
        0
 75
     0
 76
     1
 98
        0
  0
LWPOLYLINE
  5
2CE
330
1F
100
AcDbEntity
  8
Ech.1_5
 62
     7
370
     9
100
AcDbPolyline
 90
        5
 70
     0
 43
0.0
 10
-301.0125699965171
 20
-2834.356009662424
 10
-300.6792363969504
 20
-2834.356009662424
 10
-300.6792363969504
 20
-2833.452120862406
 10
-301.0125699965178
 20
-2833.452120862406
 10
-301.0125699965171
 20
-2834.356009662424
  0
HATCH
  5
2CF
330
1F
100
AcDbEntity
  8
Ech.1_5
 62
   252
440
 33554687
370
     5
100
AcDbHatch
 10
0.0
 20
0.0
 30
0.0
210
0.0
220
0.0
230
1.0
  2
SOLID
 70
     1
 71
     1
 91
        1
 92
        3
 72
     0
 73
     1
 93
        4
 10
-300.6792371956526
 20
-2834.356009662424
 10
-300.3459035960852
 20
-2834.356009662424
 10
-300.3459035960852
 20
-2833.452120862406
 10
-300.6792371956526
 20
-2833.452120862406
 97
        0
 75
     0
 76
     1
 98
        0
  0
LWPOLYLINE
  5
2D0
330
1F
100
AcDbEntity
  8
Ech.1_5
 62
     7
370
     9
100
AcDbPolyline
 90
        5
 70
     0
 43
0.0
 10
-300.6792371956526
 20
-2834.356009662424
 10
-300.3459035960852
 20
-2834.356009662424
 10
-300.3459035960852
 20
-2833.452120862406
 10
-300.6792371956526
 20
-2833.452120862406
 10
-300.6792371956526
 20
-2834.356009662424
  0
HATCH
  5
2D1
330
1F
100
AcDbEntity
  8
Ech.1_5
 62
   252
440
 33554687
370
     5
100
AcDbHatch
 10
0.0
 20
0.0
 30
0.0
210
0.0
220
0.0
230
1.0
  2
SOLID
 70
     1
 71
     1
 91
        1
 92
        3
 72
     0
 73
     1
 93
        4
 10
-300.3459039954363
 20
-2834.356009662424
 10
-300.0125703958689
 20
-2834.356009662424
 10
-300.0125703958689
 20
-2833.452120862406
 10
-300.3459039954363
 20
-2833.452120862406
 97
        0
 75
     0
 76
     1
 98
        0
  0
LWPOLYLINE
  5
2D2
330
1F
100
AcDbEntity
  8
Ech.1_5
 62
     7
370
     9
100
AcDbPolyline
 90
        5
 70
     0
 43
0.0
 10
-300.3459039954363
 20
-2834.356009662424
 10
-300.0125703958689
 20
-2834.356009662424
 10
-300.0125703958689
 20
-2833.452120862406
 10
-300.3459039954363
 20
-2833.452120862406
 10
-300.3459039954363
 20
-2834.356009662424
  0
HATCH
  5
2D3
330
1F
100
AcDbEntity
  8
Ech.1_5
 62
   252
440
 33554687
370
     5
100
AcDbHatch
 10
0.0
 20
0.0
 30
0.0
210
0.0
220
0.0
230
1.0
  2
SOLID
 70
     1
 71
     1
 91
        1
 92
        3
 72
     0
 73
     1
 93
        4
 10
-300.0125703958689
 20
-2834.356009662424
 10
-299.6792367963015
 20
-2834.356009662424
 10
-299.6792367963015
 20
-2833.452120862406
 10
-300.0125703958689
 20
-2833.452120862406
 97
        0
 75
     0
 76
     1
 98
        0
  0
LWPOLYLINE
  5
2D4
330
1F
100
AcDbEntity
  8
Ech.1_5
 62
     7
370
     9
100
AcDbPolyline
 90
        5
 70
     0
 43
0.0
 10
-300.0125703958689
 20
-2834.356009662424
 10
-299.6792367963015
 20
-2834.356009662424
 10
-299.6792367963015
 20
-2833.452120862406
 10
-300.0125703958689
 20
-2833.452120862406
 10
-300.0125703958689
 20
-2834.356009662424
  0
HATCH
  5
2D5
330
1F
100
AcDbEntity
  8
Ech.1_5
 62
   252
440
 33554687
370
     5
100
AcDbHatch
 10
0.0
 20
0.0
 30
0.0
210
0.0
220
0.0
230
1.0
  2
SOLID
 70
     1
 71
     1
 91
        1
 92
        3
 72
     0
 73
     1
 93
        4
 10
-299.6792371956526
 20
-2834.356009662424
 10
-299.3459035960852
 20
-2834.356009662424
 10
-299.3459035960852
 20
-2833.452120862406
 10
-299.6792371956526
 20
-2833.452120862406
 97
        0
 75
     0
 76
     1
 98
        0
  0
LWPOLYLINE
  5
2D6
330
1F
100
AcDbEntity
  8
Ech.1_5
 62
     7
370
     9
100
AcDbPolyline
 90
        5
 70
     0
 43
0.0
 10
-299.6792371956526
 20
-2834.356009662424
 10
-299.3459035960852
 20
-2834.356009662424
 10
-299.3459035960852
 20
-2833.452120862406
 10
-299.6792371956526
 20
-2833.452120862406
 10
-299.6792371956526
 20
-2834.356009662424
  0
HATCH
  5
2D7
330
1F
100
AcDbEntity
  8
Ech.1_5
 62
   252
440
 33554687
370
     5
100
AcDbHatch
 10
0.0
 20
0.0
 30
0.0
210
0.0
220
0.0
230
1.0
  2
SOLID
 70
     1
 71
     1
 91
        1
 92
        3
 72
     0
 73
     1
 93
        4
 10
-299.3459035960852
 20
-2834.356009662424
 10
-299.0125699965178
 20
-2834.356009662424
 10
-299.0125699965178
 20
-2833.452120862406
 10
-299.3459035960852
 20
-2833.452120862406
 97
        0
 75
     0
 76
     1
 98
        0
  0
LWPOLYLINE
  5
2D8
330
1F
100
AcDbEntity
  8
Ech.1_5
 62
     7
370
     9
100
AcDbPolyline
 90
        5
 70
     0
 43
0.0
 10
-299.3459035960852
 20
-2834.356009662424
 10
-299.0125699965178
 20
-2834.356009662424
 10
-299.0125699965178
 20
-2833.452120862406
 10
-299.3459035960852
 20
-2833.452120862406
 10
-299.3459035960852
 20
-2834.356009662424
  0
HATCH
  5
2D9
330
1F
100
AcDbEntity
  8
Ech.1_5
 62
   252
440
 33554687
370
     5
100
AcDbHatch
 10
0.0
 20
0.0
 30
0.0
210
0.0
220
0.0
230
1.0
  2
SOLID
 70
     1
 71
     1
 91
        1
 92
        3
 72
     0
 73
     1
 93
        4
 10
-299.01257079522
 20
-2834.356009662424
 10
-298.6792371956526
 20
-2834.356009662424
 10
-298.6792371956526
 20
-2833.452120862406
 10
-299.01257079522
 20
-2833.452120862406
 97
        0
 75
     0
 76
     1
 98
        0
  0
LWPOLYLINE
  5
2DA
330
1F
100
AcDbEntity
  8
Ech.1_5
 62
     7
370
     9
100
AcDbPolyline
 90
        5
 70
     0
 43
0.0
 10
-299.01257079522
 20
-2834.356009662424
 10
-298.6792371956526
 20
-2834.356009662424
 10
-298.6792371956526
 20
-2833.452120862406
 10
-299.01257079522
 20
-2833.452120862406
 10
-299.01257079522
 20
-2834.356009662424
  0
HATCH
  5
2DB
330
1F
100
AcDbEntity
  8
Ech.1_5
 62
   252
440
 33554687
370
     5
100
AcDbHatch
 10
0.0
 20
0.0
 30
0.0
210
0.0
220
0.0
230
1.0
  2
SOLID
 70
     1
 71
     1
 91
        1
 92
        3
 72
     0
 73
     1
 93
        4
 10
-298.6792379943549
 20
-2834.356009662424
 10
-298.3459043947875
 20
-2834.356009662424
 10
-298.3459043947875
 20
-2833.452120862406
 10
-298.6792379943549
 20
-2833.452120862406
 97
        0
 75
     0
 76
     1
 98
        0
  0
LWPOLYLINE
  5
2DC
330
1F
100
AcDbEntity
  8
Ech.1_5
 62
     7
370
     9
100
AcDbPolyline
 90
        5
 70
     0
 43
0.0
 10
-298.6792379943549
 20
-2834.356009662424
 10
-298.3459043947875
 20
-2834.356009662424
 10
-298.3459043947875
 20
-2833.452120862406
 10
-298.6792379943549
 20
-2833.452120862406
 10
-298.6792379943549
 20
-2834.356009662424
  0
HATCH
  5
2DD
330
1F
100
AcDbEntity
  8
Ech.1_5
 62
   252
440
 33554687
370
     5
100
AcDbHatch
 10
0.0
 20
0.0
 30
0.0
210
0.0
220
0.0
230
1.0
  2
SOLID
 70
     1
 71
     1
 91
        1
 92
        3
 72
     0
 73
     1
 93
        4
 10
-298.3459043947875
 20
-2834.356009662424
 10
-298.01257079522
 20
-2834.356009662424
 10
-298.01257079522
 20
-2833.452120862406
 10
-298.3459043947875
 20
-2833.452120862406
 97
        0
 75
     0
 76
     1
 98
        0
  0
LWPOLYLINE
  5
2DE
330
1F
100
AcDbEntity
  8
Ech.1_5
 62
     7
370
     9
100
AcDbPolyline
 90
        5
 70
     0
 43
0.0
 10
-298.3459043947875
 20
-2834.356009662424
 10
-298.01257079522
 20
-2834.356009662424
 10
-298.01257079522
 20
-2833.452120862406
 10
-298.3459043947875
 20
-2833.452120862406
 10
-298.3459043947875
 20
-2834.356009662424
  0
HATCH
  5
2DF
330
1F
100
AcDbEntity
  8
Ech.1_5
 62
   252
440
 33554687
370
     5
100
AcDbHatch
 10
0.0
 20
0.0
 30
0.0
210
0.0
220
0.0
230
1.0
  2
SOLID
 70
     1
 71
     1
 91
        1
 92
        3
 72
     0
 73
     1
 93
        4
 10
-298.01257079522
 20
-2834.356009662424
 10
-297.6792371956526
 20
-2834.356009662424
 10
-297.6792371956526
 20
-2833.452120862406
 10
-298.01257079522
 20
-2833.452120862406
 97
        0
 75
     0
 76
     1
 98
        0
  0
LWPOLYLINE
  5
2E0
330
1F
100
AcDbEntity
  8
Ech.1_5
 62
     7
370
     9
100
AcDbPolyline
 90
        5
 70
     0
 43
0.0
 10
-298.01257079522
 20
-2834.356009662424
 10
-297.6792371956526
 20
-2834.356009662424
 10
-297.6792371956526
 20
-2833.452120862406
 10
-298.01257079522
 20
-2833.452120862406
 10
-298.01257079522
 20
-2834.356009662424
  0
HATCH
  5
2E1
330
1F
100
AcDbEntity
  8
Ech.1_5
 62
   252
440
 33554687
370
     5
100
AcDbHatch
 10
0.0
 20
0.0
 30
0.0
210
0.0
220
0.0
230
1.0
  2
SOLID
 70
     1
 71
     1
 91
        1
 92
        3
 72
     0
 73
     1
 93
        4
 10
-297.6792371956526
 20
-2834.356009662424
 10
-297.3459035960852
 20
-2834.356009662424
 10
-297.3459035960852
 20
-2833.452120862406
 10
-297.6792371956526
 20
-2833.452120862406
 97
        0
 75
     0
 76
     1
 98
        0
  0
LWPOLYLINE
  5
2E2
330
1F
100
AcDbEntity
  8
Ech.1_5
 62
     7
370
     9
100
AcDbPolyline
 90
        5
 70
     0
 43
0.0
 10
-297.6792371956526
 20
-2834.356009662424
 10
-297.3459035960852
 20
-2834.356009662424
 10
-297.3459035960852
 20
-2833.452120862406
 10
-297.6792371956526
 20
-2833.452120862406
 10
-297.6792371956526
 20
-2834.356009662424
  0
HATCH
  5
2E3
330
1F
100
AcDbEntity
  8
Ech.1_5
 62
   252
440
 33554687
370
     5
100
AcDbHatch
 10
0.0
 20
0.0
 30
0.0
210
0.0
220
0.0
230
1.0
  2
SOLID
 70
     1
 71
     1
 91
        1
 92
        3
 72
     0
 73
     1
 93
        4
 10
-297.3459043947875
 20
-2834.356009662424
 10
-297.01257079522
 20
-2834.356009662424
 10
-297.01257079522
 20
-2833.452120862406
 10
-297.3459043947875
 20
-2833.452120862406
 97
        0
 75
     0
 76
     1
 98
        0
  0
LWPOLYLINE
  5
2E4
330
1F
100
AcDbEntity
  8
Ech.1_5
 62
     7
370
     9
100
AcDbPolyline
 90
        5
 70
     0
 43
0.0
 10
-297.3459043947875
 20
-2834.356009662424
 10
-297.01257079522
 20
-2834.356009662424
 10
-297.01257079522
 20
-2833.452120862406
 10
-297.3459043947875
 20
-2833.452120862406
 10
-297.3459043947875
 20
-2834.356009662424
  0
HATCH
  5
2E5
330
1F
100
AcDbEntity
  8
Ech.1_5
 62
   252
440
 33554687
370
     5
100
AcDbHatch
 10
0.0
 20
0.0
 30
0.0
210
0.0
220
0.0
230
1.0
  2
SOLID
 70
     1
 71
     1
 91
        1
 92
        3
 72
     0
 73
     1
 93
        4
 10
-297.0125711945711
 20
-2834.356009662424
 10
-296.6792375950037
 20
-2834.356009662424
 10
-296.6792375950037
 20
-2833.452120862406
 10
-297.0125711945711
 20
-2833.452120862406
 97
        0
 75
     0
 76
     1
 98
        0
  0
LWPOLYLINE
  5
2E6
330
1F
100
AcDbEntity
  8
Ech.1_5
 62
     7
370
     9
100
AcDbPolyline
 90
        5
 70
     0
 43
0.0
 10
-297.0125711945711
 20
-2834.356009662424
 10
-296.6792375950037
 20
-2834.356009662424
 10
-296.6792375950037
 20
-2833.452120862406
 10
-297.0125711945711
 20
-2833.452120862406
 10
-297.0125711945711
 20
-2834.356009662424
  0
HATCH
  5
2E7
330
1F
100
AcDbEntity
  8
Ech.1_5
 62
   252
440
 33554687
370
     5
100
AcDbHatch
 10
0.0
 20
0.0
 30
0.0
210
0.0
220
0.0
230
1.0
  2
SOLID
 70
     1
 71
     1
 91
        1
 92
        3
 72
     0
 73
     1
 93
        4
 10
-296.6792375950037
 20
-2834.356009662424
 10
-296.3459039954363
 20
-2834.356009662424
 10
-296.3459039954363
 20
-2833.452120862406
 10
-296.6792375950037
 20
-2833.452120862406
 97
        0
 75
     0
 76
     1
 98
        0
  0
LWPOLYLINE
  5
2E8
330
1F
100
AcDbEntity
  8
Ech.1_5
 62
     7
370
     9
100
AcDbPolyline
 90
        5
 70
     0
 43
0.0
 10
-296.6792375950037
 20
-2834.356009662424
 10
-296.3459039954363
 20
-2834.356009662424
 10
-296.3459039954363
 20
-2833.452120862406
 10
-296.6792375950037
 20
-2833.452120862406
 10
-296.6792375950037
 20
-2834.356009662424
  0
HATCH
  5
2E9
330
1F
100
AcDbEntity
  8
Ech.1_5
 62
   252
440
 33554687
370
     5
100
AcDbHatch
 10
0.0
 20
0.0
 30
0.0
210
0.0
220
0.0
230
1.0
  2
SOLID
 70
     1
 71
     1
 91
        1
 92
        3
 72
     0
 73
     1
 93
        4
 10
-296.3459043947875
 20
-2834.356009662424
 10
-296.01257079522
 20
-2834.356009662424
 10
-296.01257079522
 20
-2833.452120862406
 10
-296.3459043947875
 20
-2833.452120862406
 97
        0
 75
     0
 76
     1
 98
        0
  0
LWPOLYLINE
  5
2EA
330
1F
100
AcDbEntity
  8
Ech.1_5
 62
     7
370
     9
100
AcDbPolyline
 90
        5
 70
     0
 43
0.0
 10
-296.3459043947875
 20
-2834.356009662424
 10
-296.01257079522
 20
-2834.356009662424
 10
-296.01257079522
 20
-2833.452120862406
 10
-296.3459043947875
 20
-2833.452120862406
 10
-296.3459043947875
 20
-2834.356009662424
  0
HATCH
  5
2EB
330
1F
100
AcDbEntity
  8
Ech.1_5
 62
   252
440
 33554687
370
     5
100
AcDbHatch
 10
0.0
 20
0.0
 30
0.0
210
0.0
220
0.0
230
1.0
  2
SOLID
 70
     1
 71
     1
 91
        1
 92
        3
 72
     0
 73
     1
 93
        4
 10
-296.01257079522
 20
-2834.356009662424
 10
-295.6792371956526
 20
-2834.356009662424
 10
-295.6792371956526
 20
-2833.452120862406
 10
-296.01257079522
 20
-2833.452120862406
 97
        0
 75
     0
 76
     1
 98
        0
  0
LWPOLYLINE
  5
2EC
330
1F
100
AcDbEntity
  8
Ech.1_5
 62
     7
370
     9
100
AcDbPolyline
 90
        5
 70
     0
 43
0.0
 10
-296.01257079522
 20
-2834.356009662424
 10
-295.6792371956526
 20
-2834.356009662424
 10
-295.6792371956526
 20
-2833.452120862406
 10
-296.01257079522
 20
-2833.452120862406
 10
-296.01257079522
 20
-2834.356009662424
  0
HATCH
  5
2ED
330
1F
100
AcDbEntity
  8
Ech.1_5
 62
   252
440
 33554687
370
     5
100
AcDbHatch
 10
0.0
 20
0.0
 30
0.0
210
0.0
220
0.0
230
1.0
  2
SOLID
 70
     1
 71
     1
 91
        1
 92
        3
 72
     0
 73
     1
 93
        4
 10
-295.6792379943549
 20
-2834.356009662424
 10
-295.3459043947875
 20
-2834.356009662424
 10
-295.3459043947875
 20
-2833.452120862406
 10
-295.6792379943549
 20
-2833.452120862406
 97
        0
 75
     0
 76
     1
 98
        0
  0
LWPOLYLINE
  5
2EE
330
1F
100
AcDbEntity
  8
Ech.1_5
 62
     7
370
     9
100
AcDbPolyline
 90
        5
 70
     0
 43
0.0
 10
-295.6792379943549
 20
-2834.356009662424
 10
-295.3459043947875
 20
-2834.356009662424
 10
-295.3459043947875
 20
-2833.452120862406
 10
-295.6792379943549
 20
-2833.452120862406
 10
-295.6792379943549
 20
-2834.356009662424
  0
HATCH
  5
2EF
330
1F
100
AcDbEntity
  8
Ech.1_5
 62
   252
440
 33554687
370
     5
100
AcDbHatch
 10
0.0
 20
0.0
 30
0.0
210
0.0
220
0.0
230
1.0
  2
SOLID
 70
     1
 71
     1
 91
        1
 92
        3
 72
     0
 73
     1
 93
        4
 10
-295.3459043947875
 20
-2834.356009662424
 10
-295.01257079522
 20
-2834.356009662424
 10
-295.01257079522
 20
-2833.452120862406
 10
-295.3459043947875
 20
-2833.452120862406
 97
        0
 75
     0
 76
     1
 98
        0
  0
LWPOLYLINE
  5
2F0
330
1F
100
AcDbEntity
  8
Ech.1_5
 62
     7
370
     9
100
AcDbPolyline
 90
        5
 70
     0
 43
0.0
 10
-295.3459043947875
 20
-2834.356009662424
 10
-295.01257079522
 20
-2834.356009662424
 10
-295.01257079522
 20
-2833.452120862406
 10
-295.3459043947875
 20
-2833.452120862406
 10
-295.3459043947875
 20
-2834.356009662424
  0
HATCH
  5
2F1
330
1F
100
AcDbEntity
  8
Ech.1_5
 62
   252
440
 33554687
370
     5
100
AcDbHatch
 10
0.0
 20
0.0
 30
0.0
210
0.0
220
0.0
230
1.0
  2
SOLID
 70
     1
 71
     1
 91
        1
 92
        3
 72
     0
 73
     1
 93
        4
 10
-295.01257079522
 20
-2834.356009662424
 10
-294.6792371956526
 20
-2834.356009662424
 10
-294.6792371956526
 20
-2833.452120862406
 10
-295.01257079522
 20
-2833.452120862406
 97
        0
 75
     0
 76
     1
 98
        0
  0
LWPOLYLINE
  5
2F2
330
1F
100
AcDbEntity
  8
Ech.1_5
 62
     7
370
     9
100
AcDbPolyline
 90
        5
 70
     0
 43
0.0
 10
-295.01257079522
 20
-2834.356009662424
 10
-294.6792371956526
 20
-2834.356009662424
 10
-294.6792371956526
 20
-2833.452120862406
 10
-295.01257079522
 20
-2833.452120862406
 10
-295.01257079522
 20
-2834.356009662424
  0
HATCH
  5
2F3
330
1F
100
AcDbEntity
  8
Ech.1_5
 62
   252
440
 33554687
370
     5
100
AcDbHatch
 10
0.0
 20
0.0
 30
0.0
210
0.0
220
0.0
230
1.0
  2
SOLID
 70
     1
 71
     1
 91
        1
 92
        3
 72
     0
 73
     1
 93
        4
 10
-294.6792371956526
 20
-2834.356009662424
 10
-294.3459035960852
 20
-2834.356009662424
 10
-294.3459035960852
 20
-2833.452120862406
 10
-294.6792371956526
 20
-2833.452120862406
 97
        0
 75
     0
 76
     1
 98
        0
  0
LWPOLYLINE
  5
2F4
330
1F
100
AcDbEntity
  8
Ech.1_5
 62
     7
370
     9
100
AcDbPolyline
 90
        5
 70
     0
 43
0.0
 10
-294.6792371956526
 20
-2834.356009662424
 10
-294.3459035960852
 20
-2834.356009662424
 10
-294.3459035960852
 20
-2833.452120862406
 10
-294.6792371956526
 20
-2833.452120862406
 10
-294.6792371956526
 20
-2834.356009662424
  0
HATCH
  5
2F5
330
1F
100
AcDbEntity
  8
Ech.1_5
 62
   252
440
 33554687
370
     5
100
AcDbHatch
 10
0.0
 20
0.0
 30
0.0
210
0.0
220
0.0
230
1.0
  2
SOLID
 70
     1
 71
     1
 91
        1
 92
        3
 72
     1
 73
     1
 93
        4
 10
-292.4662707953856
 20
-2833.452120862406
 42
0.0
 10
-293.0125715939222
 20
-2833.452120862406
 42
0.0
 10
-293.0125715939222
 20
-2834.356009662424
 42
0.0
 10
-292.4662707953856
 20
-2834.356009662424
 42
-0.3513591548518519
 97
        0
 75
     0
 76
     1
 98
        0
  0
LWPOLYLINE
  5
2F6
330
1F
100
AcDbEntity
  8
Ech.1_5
 62
     7
370
     9
100
AcDbPolyline
 90
        5
 70
     0
 43
0.0
 10
-292.4662707953856
 20
-2833.452120862406
 10
-293.0125715939222
 20
-2833.452120862406
 10
-293.0125715939222
 20
-2834.356009662424
 10
-292.4662707953856
 20
-2834.356009662424
 42
-0.3513591548518972
 10
-292.4662707953856
 20
-2833.452120862406
  0
HATCH
  5
2F7
330
1F
100
AcDbEntity
  8
Ech.1_5
 62
   252
440
 33554687
370
     5
100
AcDbHatch
 10
0.0
 20
0.0
 30
0.0
210
0.0
220
0.0
230
1.0
  2
SOLID
 70
     1
 71
     1
 91
        1
 92
        3
 72
     1
 73
     1
 93
        3
 10
-291.4014599948332
 20
-2833.904065262403
 42
0.0
 10
-292.4662707953856
 20
-2833.452120862406
 42
0.3513591548516752
 10
-292.4662707953856
 20
-2834.356009662424
 42
0.0
 97
        0
 75
     0
 76
     1
 98
        0
  0
LWPOLYLINE
  5
2F8
330
1F
100
AcDbEntity
  8
Ech.1_5
 62
     7
370
     9
100
AcDbPolyline
 90
        4
 70
     0
 43
0.0
 10
-291.4014599948332
 20
-2833.904065262403
 10
-292.4662707953856
 20
-2833.452120862406
 42
0.3513591548518956
 10
-292.4662707953856
 20
-2834.356009662424
 10
-291.4014599948332
 20
-2833.904065262403
  0
HATCH
  5
2F9
330
1F
100
AcDbEntity
  8
Ech.1_5
 62
   252
440
 33554687
370
     5
100
AcDbHatch
 10
0.0
 20
0.0
 30
0.0
210
0.0
220
0.0
230
1.0
  2
SOLID
 70
     1
 71
     1
 91
        1
 92
        3
 72
     1
 73
     1
 93
        6
 10
-308.6792379943549
 20
-2834.356009662421
 42
0.0
 10
-309.3792375951216
 20
-2834.356009662424
 42
0.4142135727485812
 10
-309.6014599948332
 20
-2834.578232062415
 42
0.0
 10
-309.6014599948332
 20
-2833.229898462389
 42
0.4142135726659344
 10
-309.3792375951216
 20
-2833.452120862406
 42
0.0
 10
-308.6792379943549
 20
-2833.452120862406
 42
0.0
 97
        0
 75
     0
 76
     1
 98
        0
  0
LWPOLYLINE
  5
2FA
330
1F
100
AcDbEntity
  8
Ech.1_5
 62
     7
370
     9
100
AcDbPolyline
 90
        7
 70
     0
 43
0.0
 10
-308.6792379943549
 20
-2834.356009662421
 10
-309.3792375951216
 20
-2834.356009662424
 42
0.4142135727497837
 10
-309.6014599948332
 20
-2834.578232062415
 10
-309.6014599948332
 20
-2833.229898462389
 42
0.414213572666436
 10
-309.3792375951216
 20
-2833.452120862406
 10
-308.6792379943549
 20
-2833.452120862406
 10
-308.6792379943549
 20
-2834.356009662421
  0
HATCH
  5
2FB
330
1F
100
AcDbEntity
  8
Ech.1_5
 62
   252
440
 33554687
370
     5
100
AcDbHatch
 10
0.0
 20
0.0
 30
0.0
210
0.0
220
0.0
230
1.0
  2
SOLID
 70
     1
 71
     1
 91
        1
 92
        1
 93
        2
 72
     1
 10
-309.7236819951937
 20
-2834.911565272969
 11
-309.7236819951937
 21
-2832.896565251861
 72
     2
 10
-304.6984006388642
 20
-2833.904065262415
 40
5.125281356329573
 50
168.6632793503046
 51
191.3367206496955
 73
     1
 97
        0
 75
     0
 76
     1
 98
        0
  0
LWPOLYLINE
  5
2FC
330
1F
100
AcDbEntity
  8
Ech.1_5
 62
     7
370
     9
100
AcDbPolyline
 90
        3
 70
     0
 43
0.0
 10
-309.7236819951937
 20
-2834.911565272969
 10
-309.7236819951937
 20
-2832.896565251861
 42
0.0992555820868614
 10
-309.7236819951937
 20
-2834.911565272969
  0
HATCH
  5
2FD
330
1F
100
AcDbEntity
  8
Ech.1_5
 62
   252
440
 33554687
370
     5
100
AcDbHatch
 10
0.0
 20
0.0
 30
0.0
210
0.0
220
0.0
230
1.0
  2
SOLID
 70
     1
 71
     1
 91
        1
 92
        3
 72
     0
 73
     1
 93
        6
 10
-309.6014599948332
 20
-2834.911565262399
 10
-309.6014599948332
 20
-2834.578232062415
 10
-309.6014599948332
 20
-2833.229898462389
 10
-309.6014599948325
 20
-2832.896565262408
 10
-309.7236819951937
 20
-2832.896565251861
 10
-309.7236819951937
 20
-2834.911565272969
 97
        0
 75
     0
 76
     1
 98
        0
  0
LWPOLYLINE
  5
2FE
330
1F
100
AcDbEntity
  8
Ech.1_5
 62
     7
370
     9
100
AcDbPolyline
 90
        7
 70
     0
 43
0.0
 10
-309.6014599948332
 20
-2834.911565262399
 10
-309.6014599948332
 20
-2834.578232062415
 10
-309.6014599948332
 20
-2833.229898462389
 10
-309.6014599948325
 20
-2832.896565262408
 10
-309.7236819951937
 20
-2832.896565251861
 10
-309.7236819951937
 20
-2834.911565272969
 10
-309.6014599948332
 20
-2834.911565262399
  0
HATCH
  5
2FF
330
1F
100
AcDbEntity
  8
Ech.1_5
 62
   252
440
 33554687
370
     5
100
AcDbHatch
 10
0.0
 20
0.0
 30
0.0
210
0.0
220
0.0
230
1.0
  2
SOLID
 70
     1
 71
     1
 91
        1
 92
        3
 72
     0
 73
     1
 93
        4
 10
-294.3459035960852
 20
-2834.356009662424
 10
-294.0125699965178
 20
-2834.356009662424
 10
-294.0125699965178
 20
-2833.452120862406
 10
-294.3459035960852
 20
-2833.452120862406
 97
        0
 75
     0
 76
     1
 98
        0
  0
LWPOLYLINE
  5
300
330
1F
100
AcDbEntity
  8
Ech.1_5
 62
     7
370
     9
100
AcDbPolyline
 90
        5
 70
     0
 43
0.0
 10
-294.3459035960852
 20
-2834.356009662424
 10
-294.0125699965178
 20
-2834.356009662424
 10
-294.0125699965178
 20
-2833.452120862406
 10
-294.3459035960852
 20
-2833.452120862406
 10
-294.3459035960852
 20
-2834.356009662424
  0
LINE
  5
301
330
1F
100
AcDbEntity
  8
Ech.1_5
 62
   190
370
     9
100
AcDbLine
 10
-293.6792379943549
 20
-2833.452120862406
 30
0.0
 11
-293.6792379943549
 21
-2834.356009662424
 31
0.0
  0
LINE
  5
302
330
1F
100
AcDbEntity
  8
Ech.1_5
 62
   190
370
     9
100
AcDbLine
 10
-293.3459043947875
 20
-2833.452120862406
 30
0.0
 11
-293.3459043947875
 21
-2834.356009662424
 31
0.0
  0
LINE
  5
303
330
1F
100
AcDbEntity
  8
Ech.1_5
 62
   190
370
     9
100
AcDbLine
 10
-293.0125715939222
 20
-2833.452120862406
 30
0.0
 11
-293.0125715939222
 21
-2834.356009662424
 31
0.0
  0
LINE
  5
304
330
1F
100
AcDbEntity
  8
Ech.1_5
 62
   190
370
     9
100
AcDbLine
 10
-294.01257079522
 20
-2833.452120862406
 30
0.0
 11
-294.01257079522
 21
-2834.356009662424
 31
0.0
  0
HATCH
  5
305
330
1F
100
AcDbEntity
  8
Ech.1_5
 62
   252
440
 33554687
370
     5
100
AcDbHatch
 10
0.0
 20
0.0
 30
0.0
210
0.0
220
0.0
230
1.0
  2
SOLID
 70
     1
 71
     1
 91
        1
 92
        3
 72
     0
 73
     1
 93
        4
 10
-294.0125715939222
 20
-2834.356009662424
 10
-293.6792379943549
 20
-2834.356009662424
 10
-293.6792379943549
 20
-2833.452120862406
 10
-294.0125715939222
 20
-2833.452120862406
 97
        0
 75
     0
 76
     1
 98
        0
  0
LWPOLYLINE
  5
306
330
1F
100
AcDbEntity
  8
Ech.1_5
 62
     7
370
     9
100
AcDbPolyline
 90
        5
 70
     0
 43
0.0
 10
-294.0125715939222
 20
-2834.356009662424
 10
-293.6792379943549
 20
-2834.356009662424
 10
-293.6792379943549
 20
-2833.452120862406
 10
-294.0125715939222
 20
-2833.452120862406
 10
-294.0125715939222
 20
-2834.356009662424
  0
HATCH
  5
307
330
1F
100
AcDbEntity
  8
Ech.1_5
 62
   252
440
 33554687
370
     5
100
AcDbHatch
 10
0.0
 20
0.0
 30
0.0
210
0.0
220
0.0
230
1.0
  2
SOLID
 70
     1
 71
     1
 91
        1
 92
        3
 72
     0
 73
     1
 93
        4
 10
-293.3459051934897
 20
-2834.356009662424
 10
-293.0125715939222
 20
-2834.356009662424
 10
-293.0125715939222
 20
-2833.452120862406
 10
-293.3459051934897
 20
-2833.452120862406
 97
        0
 75
     0
 76
     1
 98
        0
  0
LWPOLYLINE
  5
308
330
1F
100
AcDbEntity
  8
Ech.1_5
 62
     7
370
     9
100
AcDbPolyline
 90
        5
 70
     0
 43
0.0
 10
-293.3459051934897
 20
-2834.356009662424
 10
-293.0125715939222
 20
-2834.356009662424
 10
-293.0125715939222
 20
-2833.452120862406
 10
-293.3459051934897
 20
-2833.452120862406
 10
-293.3459051934897
 20
-2834.356009662424
  0
HATCH
  5
309
330
1F
100
AcDbEntity
  8
Ech.1_5
 62
    35
420
  9529928
440
 33554687
370
    20
100
AcDbHatch
 10
0.0
 20
0.0
 30
0.0
210
0.0
220
0.0
230
1.0
  2
SOLID
 70
     1
 71
     1
 91
        1
 92
        3
 72
     0
 73
     1
 93
        4
 10
-279.7564031085378
 20
-2917.578697705575
 10
-290.5564031085378
 20
-2917.578697705575
 10
-290.5564031085618
 20
-3039.155166232908
 10
-279.7564031085363
 20
-3039.155166232908
 97
        0
 75
     0
 76
     1
 98
        0
  0
LWPOLYLINE
  5
30A
330
1F
100
AcDbEntity
  8
Ech.1_5
 62
   190
370
    20
100
AcDbPolyline
 90
        5
 70
     0
 43
0.0
 10
-279.7564031085378
 20
-2917.578697705575
 10
-290.5564031085378
 20
-2917.578697705575
 10
-290.5564031085618
 20
-3039.155166232908
 10
-279.7564031085363
 20
-3039.155166232908
 10
-279.7564031085378
 20
-2917.578697705575
  0
LWPOLYLINE
  5
30B
330
1F
100
AcDbEntity
  8
Ech.1_5
 62
     7
370
    20
100
AcDbPolyline
 90
        3
 70
     0
 43
0.0
 10
-279.7564031085378
 20
-2917.578697705575
 10
-290.5564031085378
 20
-2917.578697705575
 10
-290.5564031085378
 20
-3039.155166232908
  0
HATCH
  5
30C
330
1F
100
AcDbEntity
  8
Ech.1_5
 62
    17
420
  8405056
440
 33554687
370
    20
100
AcDbHatch
 10
0.0
 20
0.0
 30
0.0
210
0.0
220
0.0
230
1.0
  2
SOLID
 70
     1
 71
     1
 91
        1
 92
        3
 72
     0
 73
     1
 93
        4
 10
-301.3564031085378
 20
-2917.578697705575
 10
-309.379237595122
 20
-2917.578697705575
 10
-309.379237595122
 20
-3039.155166232908
 10
-301.3764653698716
 20
-3039.155166232908
 97
        0
 75
     0
 76
     1
 98
        0
  0
LWPOLYLINE
  5
30D
330
1F
100
AcDbEntity
  8
Ech.1_5
 62
     7
370
    20
100
AcDbPolyline
 90
        5
 70
     0
 43
0.0
 10
-301.3564031085378
 20
-2917.578697705575
 10
-309.379237595122
 20
-2917.578697705575
 10
-309.379237595122
 20
-3039.155166232908
 10
-301.3764653698716
 20
-3039.155166232908
 10
-301.3564031085378
 20
-2917.578697705575
  0
HATCH
  5
30E
330
1F
100
AcDbEntity
  8
Ech.1_5
 62
    35
420
  9529928
440
 33554687
370
    20
100
AcDbHatch
 10
0.0
 20
0.0
 30
0.0
210
0.0
220
0.0
230
1.0
  2
SOLID
 70
     1
 71
     1
 91
        1
 92
        3
 72
     0
 73
     1
 93
        4
 10
-301.3564031085374
 20
-2933.578697896428
 10
-301.3564031085374
 20
-2917.578697705575
 10
-290.5564031085374
 20
-2917.578697705575
 10
-290.5564031085374
 20
-2933.578697705575
 97
        0
 75
     0
 76
     1
 98
        0
  0
LWPOLYLINE
  5
30F
330
1F
100
AcDbEntity
  8
Ech.1_5
 62
   190
370
    20
100
AcDbPolyline
 90
        5
 70
     0
 43
0.0
 10
-301.3564031085374
 20
-2933.578697896428
 10
-301.3564031085374
 20
-2917.578697705575
 10
-290.5564031085374
 20
-2917.578697705575
 10
-290.5564031085374
 20
-2933.578697705575
 10
-301.3564031085374
 20
-2933.578697896428
  0
LWPOLYLINE
  5
310
330
1F
100
AcDbEntity
  8
Ech.1_5
 62
   190
370
    20
100
AcDbPolyline
 90
        4
 70
     0
 43
0.0
 10
-290.5564031085374
 20
-2933.578697705575
 10
-301.3564031085374
 20
-2917.578697705575
 10
-290.5564031085374
 20
-2917.578697705575
 10
-301.3564031085374
 20
-2933.578652571955
  0
LWPOLYLINE
  5
311
330
1F
100
AcDbEntity
  8
Ech.1_5
 62
     5
370
    40
100
AcDbPolyline
 90
        5
 70
     0
 43
0.0
 10
-301.3564031085374
 20
-2933.578652571955
 10
-301.3564031085374
 20
-2917.578697705575
 10
-290.5564031085374
 20
-2917.578697705575
 10
-290.5564031085374
 20
-2933.578697705575
 10
-301.3564031085374
 20
-2933.578652571955
  0
LWPOLYLINE
  5
312
330
1F
100
AcDbEntity
  8
Ech.1_5
 62
     7
370
    20
100
AcDbPolyline
 90
        4
 70
     0
 43
0.0
 10
-309.379237595122
 20
-3039.155166232908
 10
-309.379237595122
 20
-2917.578697705575
 10
-301.3564031085378
 20
-2917.578697705575
 10
-301.3764653698716
 20
-3039.155166232908
  0
LINE
  5
313
330
1F
100
AcDbEntity
  8
Ech.1_5
 62
   190
370
     9
100
AcDbLine
 10
-309.6014599948325
 20
-2926.586197705571
 30
0.0
 11
-309.7236819951937
 21
-2926.586197705571
 31
0.0
  0
LINE
  5
314
330
1F
100
AcDbEntity
  8
Ech.1_5
 62
   190
370
     9
100
AcDbLine
 10
-309.7236819951937
 20
-2926.586197705571
 30
0.0
 11
-309.7236819951937
 21
-2924.57119770558
 31
0.0
  0
LINE
  5
315
330
1F
100
AcDbEntity
  8
Ech.1_5
 62
   190
370
     9
100
AcDbLine
 10
-309.6014599948332
 20
-2924.57119770558
 30
0.0
 11
-309.7236819951937
 21
-2924.57119770558
 31
0.0
  0
HATCH
  5
316
330
1F
100
AcDbEntity
  8
Ech.1_5
 62
   252
440
 33554687
370
     5
100
AcDbHatch
 10
0.0
 20
0.0
 30
0.0
210
0.0
220
0.0
230
1.0
  2
SOLID
 70
     1
 71
     1
 91
        1
 92
        3
 72
     0
 73
     1
 93
        4
 10
-293.6792379943549
 20
-2925.126753305554
 10
-293.3459043947875
 20
-2925.126753305554
 10
-293.3459043947875
 20
-2926.030642105573
 10
-293.6792379943549
 20
-2926.030642105573
 97
        0
 75
     0
 76
     1
 98
        0
  0
LWPOLYLINE
  5
317
330
1F
100
AcDbEntity
  8
Ech.1_5
 62
     7
370
     9
100
AcDbPolyline
 90
        5
 70
     0
 43
0.0
 10
-293.6792379943549
 20
-2925.126753305554
 10
-293.3459043947875
 20
-2925.126753305554
 10
-293.3459043947875
 20
-2926.030642105573
 10
-293.6792379943549
 20
-2926.030642105573
 10
-293.6792379943549
 20
-2925.126753305554
  0
LINE
  5
318
330
1F
100
AcDbEntity
  8
Ech.1_5
 62
   190
370
     9
100
AcDbLine
 10
-292.4662707953856
 20
-2926.030642105573
 30
0.0
 11
-309.3792375951216
 21
-2926.030642105573
 31
0.0
  0
LINE
  5
319
330
1F
100
AcDbEntity
  8
Ech.1_5
 62
   190
370
     9
100
AcDbLine
 10
-292.4662707953856
 20
-2925.126753305554
 30
0.0
 11
-309.3792375951216
 21
-2925.126753305554
 31
0.0
  0
ARC
  5
31A
330
1F
100
AcDbEntity
  8
Ech.1_5
 62
   190
370
     9
100
AcDbCircle
 10
-304.6984006388616
 20
-2925.578697705564
 30
0.0
 40
5.125281356332095
100
AcDbArc
 50
168.6632793503078
 51
191.3367206496872
  0
LINE
  5
31B
330
1F
100
AcDbEntity
  8
Ech.1_5
 62
   190
370
     9
100
AcDbLine
 10
-309.6014599948325
 20
-2926.586197705571
 30
0.0
 11
-309.6014599948332
 21
-2926.25286450559
 31
0.0
  0
ARC
  5
31C
330
1F
100
AcDbEntity
  8
Ech.1_5
 62
   190
370
     9
100
AcDbCircle
 10
-309.3792375988737
 20
-2926.252864501533
 30
0.0
 40
0.2222223959596077
100
AcDbArc
 50
89.99999903260243
 51
180.0000010460855
  0
LINE
  5
31D
330
1F
100
AcDbEntity
  8
Ech.1_5
 62
   190
370
     9
100
AcDbLine
 10
-309.6014599948332
 20
-2926.25286450559
 30
0.0
 11
-309.6014599948332
 21
-2924.904530905564
 31
0.0
  0
ARC
  5
31E
330
1F
100
AcDbEntity
  8
Ech.1_5
 62
   190
370
     9
100
AcDbCircle
 10
-309.3792375989187
 20
-2924.90453090964
 30
0.0
 40
0.2222223959145822
100
AcDbArc
 50
179.9999989491073
 51
270.0000009790051
  0
LINE
  5
31F
330
1F
100
AcDbEntity
  8
Ech.1_5
 62
   190
370
     9
100
AcDbLine
 10
-309.6014599948332
 20
-2924.57119770558
 30
0.0
 11
-309.6014599948332
 21
-2924.904530905564
 31
0.0
  0
LINE
  5
320
330
1F
100
AcDbEntity
  8
Ech.1_5
 62
   190
370
     9
100
AcDbLine
 10
-305.3459043947875
 20
-2926.030642105573
 30
0.0
 11
-305.3459043947875
 21
-2925.126753305554
 31
0.0
  0
LINE
  5
321
330
1F
100
AcDbEntity
  8
Ech.1_5
 62
   190
370
     9
100
AcDbLine
 10
-305.0125711945711
 20
-2926.030642105573
 30
0.0
 11
-305.0125711945711
 21
-2925.126753305554
 31
0.0
  0
LINE
  5
322
330
1F
100
AcDbEntity
  8
Ech.1_5
 62
   190
370
     9
100
AcDbLine
 10
-306.3459043947875
 20
-2926.030642105573
 30
0.0
 11
-306.3459043947875
 21
-2925.126753305554
 31
0.0
  0
LINE
  5
323
330
1F
100
AcDbEntity
  8
Ech.1_5
 62
   190
370
     9
100
AcDbLine
 10
-306.0125711945711
 20
-2926.030642105573
 30
0.0
 11
-306.0125711945711
 21
-2925.126753305554
 31
0.0
  0
LINE
  5
324
330
1F
100
AcDbEntity
  8
Ech.1_5
 62
   190
370
     9
100
AcDbLine
 10
-305.6792379943549
 20
-2926.030642105573
 30
0.0
 11
-305.6792379943549
 21
-2925.126753305554
 31
0.0
  0
LINE
  5
325
330
1F
100
AcDbEntity
  8
Ech.1_5
 62
   190
370
     9
100
AcDbLine
 10
-307.3459043947875
 20
-2926.030642105573
 30
0.0
 11
-307.3459043947875
 21
-2925.126753305554
 31
0.0
  0
LINE
  5
326
330
1F
100
AcDbEntity
  8
Ech.1_5
 62
   190
370
     9
100
AcDbLine
 10
-307.0125711945704
 20
-2926.030642105573
 30
0.0
 11
-307.0125711945704
 21
-2925.126753305554
 31
0.0
  0
LINE
  5
327
330
1F
100
AcDbEntity
  8
Ech.1_5
 62
   190
370
     9
100
AcDbLine
 10
-306.6792379943541
 20
-2926.030642105573
 30
0.0
 11
-306.6792379943541
 21
-2925.126753305554
 31
0.0
  0
LINE
  5
328
330
1F
100
AcDbEntity
  8
Ech.1_5
 62
   190
370
     9
100
AcDbLine
 10
-307.6792379943549
 20
-2926.030642105573
 30
0.0
 11
-307.6792379943549
 21
-2925.126753305554
 31
0.0
  0
LINE
  5
329
330
1F
100
AcDbEntity
  8
Ech.1_5
 62
   190
370
     9
100
AcDbLine
 10
-308.0125711945711
 20
-2926.030642105573
 30
0.0
 11
-308.0125711945711
 21
-2925.126753305554
 31
0.0
  0
LINE
  5
32A
330
1F
100
AcDbEntity
  8
Ech.1_5
 62
   190
370
     9
100
AcDbLine
 10
-308.3459043947875
 20
-2926.030642105573
 30
0.0
 11
-308.3459043947875
 21
-2925.126753305554
 31
0.0
  0
LINE
  5
32B
330
1F
100
AcDbEntity
  8
Ech.1_5
 62
   190
370
     9
100
AcDbLine
 10
-308.6792379943549
 20
-2926.030642105573
 30
0.0
 11
-308.6792379943549
 21
-2925.126753305557
 31
0.0
  0
LINE
  5
32C
330
1F
100
AcDbEntity
  8
Ech.1_5
 62
   190
370
     9
100
AcDbLine
 10
-294.6792379943549
 20
-2926.030642105573
 30
0.0
 11
-294.6792379943549
 21
-2925.126753305554
 31
0.0
  0
LINE
  5
32D
330
1F
100
AcDbEntity
  8
Ech.1_5
 62
   190
370
     9
100
AcDbLine
 10
-295.0125711945711
 20
-2926.030642105573
 30
0.0
 11
-295.0125711945711
 21
-2925.126753305554
 31
0.0
  0
LINE
  5
32E
330
1F
100
AcDbEntity
  8
Ech.1_5
 62
   190
370
     9
100
AcDbLine
 10
-294.3459043947875
 20
-2926.030642105573
 30
0.0
 11
-294.3459043947875
 21
-2925.126753305554
 31
0.0
  0
LINE
  5
32F
330
1F
100
AcDbEntity
  8
Ech.1_5
 62
   190
370
     9
100
AcDbLine
 10
-296.0125711945711
 20
-2926.030642105573
 30
0.0
 11
-296.0125711945711
 21
-2925.126753305554
 31
0.0
  0
LINE
  5
330
330
1F
100
AcDbEntity
  8
Ech.1_5
 62
   190
370
     9
100
AcDbLine
 10
-295.6792379943549
 20
-2926.030642105573
 30
0.0
 11
-295.6792379943549
 21
-2925.126753305554
 31
0.0
  0
LINE
  5
331
330
1F
100
AcDbEntity
  8
Ech.1_5
 62
   190
370
     9
100
AcDbLine
 10
-295.3459043947875
 20
-2926.030642105573
 30
0.0
 11
-295.3459043947875
 21
-2925.126753305554
 31
0.0
  0
LINE
  5
332
330
1F
100
AcDbEntity
  8
Ech.1_5
 62
   190
370
     9
100
AcDbLine
 10
-297.0125711945711
 20
-2926.030642105573
 30
0.0
 11
-297.0125711945711
 21
-2925.126753305554
 31
0.0
  0
LINE
  5
333
330
1F
100
AcDbEntity
  8
Ech.1_5
 62
   190
370
     9
100
AcDbLine
 10
-296.6792379943549
 20
-2926.030642105573
 30
0.0
 11
-296.6792379943549
 21
-2925.126753305554
 31
0.0
  0
LINE
  5
334
330
1F
100
AcDbEntity
  8
Ech.1_5
 62
   190
370
     9
100
AcDbLine
 10
-296.3459043947875
 20
-2926.030642105573
 30
0.0
 11
-296.3459043947875
 21
-2925.126753305554
 31
0.0
  0
LINE
  5
335
330
1F
100
AcDbEntity
  8
Ech.1_5
 62
   190
370
     9
100
AcDbLine
 10
-298.0125711945711
 20
-2926.030642105573
 30
0.0
 11
-298.0125711945711
 21
-2925.126753305554
 31
0.0
  0
LINE
  5
336
330
1F
100
AcDbEntity
  8
Ech.1_5
 62
   190
370
     9
100
AcDbLine
 10
-297.6792379943549
 20
-2926.030642105573
 30
0.0
 11
-297.6792379943549
 21
-2925.126753305554
 31
0.0
  0
LINE
  5
337
330
1F
100
AcDbEntity
  8
Ech.1_5
 62
   190
370
     9
100
AcDbLine
 10
-297.3459043947875
 20
-2926.030642105573
 30
0.0
 11
-297.3459043947875
 21
-2925.126753305554
 31
0.0
  0
LINE
  5
338
330
1F
100
AcDbEntity
  8
Ech.1_5
 62
   190
370
     9
100
AcDbLine
 10
-298.3459043947875
 20
-2926.030642105573
 30
0.0
 11
-298.3459043947875
 21
-2925.126753305554
 31
0.0
  0
LINE
  5
339
330
1F
100
AcDbEntity
  8
Ech.1_5
 62
   190
370
     9
100
AcDbLine
 10
-303.6792379943549
 20
-2926.030642105573
 30
0.0
 11
-303.6792379943549
 21
-2925.126753305554
 31
0.0
  0
LINE
  5
33A
330
1F
100
AcDbEntity
  8
Ech.1_5
 62
   190
370
     9
100
AcDbLine
 10
-303.3459043947875
 20
-2926.030642105573
 30
0.0
 11
-303.3459043947875
 21
-2925.126753305554
 31
0.0
  0
LINE
  5
33B
330
1F
100
AcDbEntity
  8
Ech.1_5
 62
   190
370
     9
100
AcDbLine
 10
-303.0125711945711
 20
-2926.030642105573
 30
0.0
 11
-303.0125711945711
 21
-2925.126753305554
 31
0.0
  0
LINE
  5
33C
330
1F
100
AcDbEntity
  8
Ech.1_5
 62
   190
370
     9
100
AcDbLine
 10
-302.6792379943549
 20
-2926.030642105573
 30
0.0
 11
-302.6792379943549
 21
-2925.126753305554
 31
0.0
  0
LINE
  5
33D
330
1F
100
AcDbEntity
  8
Ech.1_5
 62
   190
370
     9
100
AcDbLine
 10
-301.6792379943549
 20
-2926.030642105573
 30
0.0
 11
-301.6792379943549
 21
-2925.126753305554
 31
0.0
  0
LINE
  5
33E
330
1F
100
AcDbEntity
  8
Ech.1_5
 62
   190
370
     9
100
AcDbLine
 10
-302.0125711945711
 20
-2926.030642105573
 30
0.0
 11
-302.0125711945711
 21
-2925.126753305554
 31
0.0
  0
LINE
  5
33F
330
1F
100
AcDbEntity
  8
Ech.1_5
 62
   190
370
     9
100
AcDbLine
 10
-302.3459043947875
 20
-2926.030642105573
 30
0.0
 11
-302.3459043947875
 21
-2925.126753305554
 31
0.0
  0
LINE
  5
340
330
1F
100
AcDbEntity
  8
Ech.1_5
 62
   190
370
     9
100
AcDbLine
 10
-300.6792379943549
 20
-2926.030642105573
 30
0.0
 11
-300.6792379943549
 21
-2925.126753305554
 31
0.0
  0
LINE
  5
341
330
1F
100
AcDbEntity
  8
Ech.1_5
 62
   190
370
     9
100
AcDbLine
 10
-301.0125711945711
 20
-2926.030642105573
 30
0.0
 11
-301.0125711945711
 21
-2925.126753305554
 31
0.0
  0
LINE
  5
342
330
1F
100
AcDbEntity
  8
Ech.1_5
 62
   190
370
     9
100
AcDbLine
 10
-301.3459043947875
 20
-2926.030642105573
 30
0.0
 11
-301.3459043947875
 21
-2925.126753305554
 31
0.0
  0
LINE
  5
343
330
1F
100
AcDbEntity
  8
Ech.1_5
 62
   190
370
     9
100
AcDbLine
 10
-299.6792379943549
 20
-2926.030642105573
 30
0.0
 11
-299.6792379943549
 21
-2925.126753305554
 31
0.0
  0
LINE
  5
344
330
1F
100
AcDbEntity
  8
Ech.1_5
 62
   190
370
     9
100
AcDbLine
 10
-300.0125711945711
 20
-2926.030642105573
 30
0.0
 11
-300.0125711945711
 21
-2925.126753305554
 31
0.0
  0
LINE
  5
345
330
1F
100
AcDbEntity
  8
Ech.1_5
 62
   190
370
     9
100
AcDbLine
 10
-300.3459043947875
 20
-2926.030642105573
 30
0.0
 11
-300.3459043947875
 21
-2925.126753305554
 31
0.0
  0
LINE
  5
346
330
1F
100
AcDbEntity
  8
Ech.1_5
 62
   190
370
     9
100
AcDbLine
 10
-298.6792379943549
 20
-2926.030642105573
 30
0.0
 11
-298.6792379943549
 21
-2925.126753305554
 31
0.0
  0
LINE
  5
347
330
1F
100
AcDbEntity
  8
Ech.1_5
 62
   190
370
     9
100
AcDbLine
 10
-299.0125711945711
 20
-2926.030642105573
 30
0.0
 11
-299.0125711945711
 21
-2925.126753305554
 31
0.0
  0
LINE
  5
348
330
1F
100
AcDbEntity
  8
Ech.1_5
 62
   190
370
     9
100
AcDbLine
 10
-299.3459043947875
 20
-2926.030642105573
 30
0.0
 11
-299.3459043947875
 21
-2925.126753305554
 31
0.0
  0
LINE
  5
349
330
1F
100
AcDbEntity
  8
Ech.1_5
 62
   190
370
     9
100
AcDbLine
 10
-304.3459043947875
 20
-2926.030642105573
 30
0.0
 11
-304.3459043947875
 21
-2925.126753305554
 31
0.0
  0
LINE
  5
34A
330
1F
100
AcDbEntity
  8
Ech.1_5
 62
   190
370
     9
100
AcDbLine
 10
-304.0125711945711
 20
-2926.030642105573
 30
0.0
 11
-304.0125711945711
 21
-2925.126753305554
 31
0.0
  0
LINE
  5
34B
330
1F
100
AcDbEntity
  8
Ech.1_5
 62
   190
370
     9
100
AcDbLine
 10
-303.6792379943549
 20
-2926.030642105573
 30
0.0
 11
-303.6792379943549
 21
-2925.126753305554
 31
0.0
  0
LINE
  5
34C
330
1F
100
AcDbEntity
  8
Ech.1_5
 62
   190
370
     9
100
AcDbLine
 10
-304.6792379943549
 20
-2926.030642105573
 30
0.0
 11
-304.6792379943549
 21
-2925.126753305554
 31
0.0
  0
LINE
  5
34D
330
1F
100
AcDbEntity
  8
Ech.1_5
 62
   190
370
     9
100
AcDbLine
 10
-291.4014599948332
 20
-2925.578697705575
 30
0.0
 11
-292.4662707953856
 21
-2926.030642105573
 31
0.0
  0
ARC
  5
34E
330
1F
100
AcDbEntity
  8
Ech.1_5
 62
   190
370
     9
100
AcDbCircle
 10
-291.9025303991468
 20
-2925.578697705577
 30
0.0
 40
0.7225351986660833
100
AcDbArc
 50
141.2812399141953
 51
218.7187600858047
  0
LINE
  5
34F
330
1F
100
AcDbEntity
  8
Ech.1_5
 62
   190
370
     9
100
AcDbLine
 10
-291.4014599948332
 20
-2925.578697705575
 30
0.0
 11
-292.4662707953856
 21
-2925.126753305554
 31
0.0
  0
HATCH
  5
350
330
1F
100
AcDbEntity
  8
Ech.1_5
 62
   252
440
 33554687
370
     5
100
AcDbHatch
 10
0.0
 20
0.0
 30
0.0
210
0.0
220
0.0
230
1.0
  2
SOLID
 70
     1
 71
     1
 91
        1
 92
        3
 72
     0
 73
     1
 93
        4
 10
-308.6792379943549
 20
-2925.126753305557
 10
-308.3459043947875
 20
-2925.126753305554
 10
-308.3459043947875
 20
-2926.030642105573
 10
-308.6792379943549
 20
-2926.030642105573
 97
        0
 75
     0
 76
     1
 98
        0
  0
LWPOLYLINE
  5
351
330
1F
100
AcDbEntity
  8
Ech.1_5
 62
     7
370
     9
100
AcDbPolyline
 90
        5
 70
     0
 43
0.0
 10
-308.6792379943549
 20
-2925.126753305557
 10
-308.3459043947875
 20
-2925.126753305554
 10
-308.3459043947875
 20
-2926.030642105573
 10
-308.6792379943549
 20
-2926.030642105573
 10
-308.6792379943549
 20
-2925.126753305557
  0
HATCH
  5
352
330
1F
100
AcDbEntity
  8
Ech.1_5
 62
   252
440
 33554687
370
     5
100
AcDbHatch
 10
0.0
 20
0.0
 30
0.0
210
0.0
220
0.0
230
1.0
  2
SOLID
 70
     1
 71
     1
 91
        1
 92
        3
 72
     0
 73
     1
 93
        4
 10
-308.3459043947875
 20
-2925.126753305554
 10
-308.01257079522
 20
-2925.126753305554
 10
-308.01257079522
 20
-2926.030642105573
 10
-308.3459043947875
 20
-2926.030642105573
 97
        0
 75
     0
 76
     1
 98
        0
  0
LWPOLYLINE
  5
353
330
1F
100
AcDbEntity
  8
Ech.1_5
 62
     7
370
     9
100
AcDbPolyline
 90
        5
 70
     0
 43
0.0
 10
-308.3459043947875
 20
-2925.126753305554
 10
-308.01257079522
 20
-2925.126753305554
 10
-308.01257079522
 20
-2926.030642105573
 10
-308.3459043947875
 20
-2926.030642105573
 10
-308.3459043947875
 20
-2925.126753305554
  0
HATCH
  5
354
330
1F
100
AcDbEntity
  8
Ech.1_5
 62
   252
440
 33554687
370
     5
100
AcDbHatch
 10
0.0
 20
0.0
 30
0.0
210
0.0
220
0.0
230
1.0
  2
SOLID
 70
     1
 71
     1
 91
        1
 92
        3
 72
     0
 73
     1
 93
        4
 10
-308.01257079522
 20
-2925.126753305554
 10
-307.6792371956526
 20
-2925.126753305554
 10
-307.6792371956526
 20
-2926.030642105573
 10
-308.01257079522
 20
-2926.030642105573
 97
        0
 75
     0
 76
     1
 98
        0
  0
LWPOLYLINE
  5
355
330
1F
100
AcDbEntity
  8
Ech.1_5
 62
     7
370
     9
100
AcDbPolyline
 90
        5
 70
     0
 43
0.0
 10
-308.01257079522
 20
-2925.126753305554
 10
-307.6792371956526
 20
-2925.126753305554
 10
-307.6792371956526
 20
-2926.030642105573
 10
-308.01257079522
 20
-2926.030642105573
 10
-308.01257079522
 20
-2925.126753305554
  0
HATCH
  5
356
330
1F
100
AcDbEntity
  8
Ech.1_5
 62
   252
440
 33554687
370
     5
100
AcDbHatch
 10
0.0
 20
0.0
 30
0.0
210
0.0
220
0.0
230
1.0
  2
SOLID
 70
     1
 71
     1
 91
        1
 92
        3
 72
     0
 73
     1
 93
        4
 10
-307.6792371956526
 20
-2925.126753305554
 10
-307.3459035960852
 20
-2925.126753305554
 10
-307.3459035960852
 20
-2926.030642105573
 10
-307.6792371956526
 20
-2926.030642105573
 97
        0
 75
     0
 76
     1
 98
        0
  0
LWPOLYLINE
  5
357
330
1F
100
AcDbEntity
  8
Ech.1_5
 62
     7
370
     9
100
AcDbPolyline
 90
        5
 70
     0
 43
0.0
 10
-307.6792371956526
 20
-2925.126753305554
 10
-307.3459035960852
 20
-2925.126753305554
 10
-307.3459035960852
 20
-2926.030642105573
 10
-307.6792371956526
 20
-2926.030642105573
 10
-307.6792371956526
 20
-2925.126753305554
  0
HATCH
  5
358
330
1F
100
AcDbEntity
  8
Ech.1_5
 62
   252
440
 33554687
370
     5
100
AcDbHatch
 10
0.0
 20
0.0
 30
0.0
210
0.0
220
0.0
230
1.0
  2
SOLID
 70
     1
 71
     1
 91
        1
 92
        3
 72
     0
 73
     1
 93
        4
 10
-307.3459043947875
 20
-2925.126753305554
 10
-307.0125707952193
 20
-2925.126753305554
 10
-307.0125707952193
 20
-2926.030642105573
 10
-307.3459043947875
 20
-2926.030642105573
 97
        0
 75
     0
 76
     1
 98
        0
  0
LWPOLYLINE
  5
359
330
1F
100
AcDbEntity
  8
Ech.1_5
 62
     7
370
     9
100
AcDbPolyline
 90
        5
 70
     0
 43
0.0
 10
-307.3459043947875
 20
-2925.126753305554
 10
-307.0125707952193
 20
-2925.126753305554
 10
-307.0125707952193
 20
-2926.030642105573
 10
-307.3459043947875
 20
-2926.030642105573
 10
-307.3459043947875
 20
-2925.126753305554
  0
HATCH
  5
35A
330
1F
100
AcDbEntity
  8
Ech.1_5
 62
   252
440
 33554687
370
     5
100
AcDbHatch
 10
0.0
 20
0.0
 30
0.0
210
0.0
220
0.0
230
1.0
  2
SOLID
 70
     1
 71
     1
 91
        1
 92
        3
 72
     0
 73
     1
 93
        4
 10
-307.0125711945704
 20
-2925.126753305554
 10
-306.679237595003
 20
-2925.126753305554
 10
-306.679237595003
 20
-2926.030642105576
 10
-307.0125711945704
 20
-2926.030642105573
 97
        0
 75
     0
 76
     1
 98
        0
  0
LWPOLYLINE
  5
35B
330
1F
100
AcDbEntity
  8
Ech.1_5
 62
     7
370
     9
100
AcDbPolyline
 90
        5
 70
     0
 43
0.0
 10
-307.0125711945704
 20
-2925.126753305554
 10
-306.679237595003
 20
-2925.126753305554
 10
-306.679237595003
 20
-2926.030642105576
 10
-307.0125711945704
 20
-2926.030642105573
 10
-307.0125711945704
 20
-2925.126753305554
  0
HATCH
  5
35C
330
1F
100
AcDbEntity
  8
Ech.1_5
 62
   252
440
 33554687
370
     5
100
AcDbHatch
 10
0.0
 20
0.0
 30
0.0
210
0.0
220
0.0
230
1.0
  2
SOLID
 70
     1
 71
     1
 91
        1
 92
        3
 72
     0
 73
     1
 93
        4
 10
-306.679237595003
 20
-2925.126753305554
 10
-306.3459039954363
 20
-2925.126753305554
 10
-306.3459039954363
 20
-2926.030642105573
 10
-306.679237595003
 20
-2926.030642105576
 97
        0
 75
     0
 76
     1
 98
        0
  0
LWPOLYLINE
  5
35D
330
1F
100
AcDbEntity
  8
Ech.1_5
 62
     7
370
     9
100
AcDbPolyline
 90
        5
 70
     0
 43
0.0
 10
-306.679237595003
 20
-2925.126753305554
 10
-306.3459039954363
 20
-2925.126753305554
 10
-306.3459039954363
 20
-2926.030642105573
 10
-306.679237595003
 20
-2926.030642105576
 10
-306.679237595003
 20
-2925.126753305554
  0
HATCH
  5
35E
330
1F
100
AcDbEntity
  8
Ech.1_5
 62
   252
440
 33554687
370
     5
100
AcDbHatch
 10
0.0
 20
0.0
 30
0.0
210
0.0
220
0.0
230
1.0
  2
SOLID
 70
     1
 71
     1
 91
        1
 92
        3
 72
     0
 73
     1
 93
        4
 10
-306.3459043947875
 20
-2925.126753305554
 10
-306.01257079522
 20
-2925.126753305554
 10
-306.01257079522
 20
-2926.030642105573
 10
-306.3459043947875
 20
-2926.030642105573
 97
        0
 75
     0
 76
     1
 98
        0
  0
LWPOLYLINE
  5
35F
330
1F
100
AcDbEntity
  8
Ech.1_5
 62
     7
370
     9
100
AcDbPolyline
 90
        5
 70
     0
 43
0.0
 10
-306.3459043947875
 20
-2925.126753305554
 10
-306.01257079522
 20
-2925.126753305554
 10
-306.01257079522
 20
-2926.030642105573
 10
-306.3459043947875
 20
-2926.030642105573
 10
-306.3459043947875
 20
-2925.126753305554
  0
HATCH
  5
360
330
1F
100
AcDbEntity
  8
Ech.1_5
 62
   252
440
 33554687
370
     5
100
AcDbHatch
 10
0.0
 20
0.0
 30
0.0
210
0.0
220
0.0
230
1.0
  2
SOLID
 70
     1
 71
     1
 91
        1
 92
        3
 72
     0
 73
     1
 93
        4
 10
-306.01257079522
 20
-2925.126753305554
 10
-305.6792371956526
 20
-2925.126753305554
 10
-305.6792371956526
 20
-2926.030642105573
 10
-306.01257079522
 20
-2926.030642105573
 97
        0
 75
     0
 76
     1
 98
        0
  0
LWPOLYLINE
  5
361
330
1F
100
AcDbEntity
  8
Ech.1_5
 62
     7
370
     9
100
AcDbPolyline
 90
        5
 70
     0
 43
0.0
 10
-306.01257079522
 20
-2925.126753305554
 10
-305.6792371956526
 20
-2925.126753305554
 10
-305.6792371956526
 20
-2926.030642105573
 10
-306.01257079522
 20
-2926.030642105573
 10
-306.01257079522
 20
-2925.126753305554
  0
HATCH
  5
362
330
1F
100
AcDbEntity
  8
Ech.1_5
 62
   252
440
 33554687
370
     5
100
AcDbHatch
 10
0.0
 20
0.0
 30
0.0
210
0.0
220
0.0
230
1.0
  2
SOLID
 70
     1
 71
     1
 91
        1
 92
        3
 72
     0
 73
     1
 93
        4
 10
-305.6792379943549
 20
-2925.126753305554
 10
-305.3459043947875
 20
-2925.126753305554
 10
-305.3459043947875
 20
-2926.030642105573
 10
-305.6792379943549
 20
-2926.030642105573
 97
        0
 75
     0
 76
     1
 98
        0
  0
LWPOLYLINE
  5
363
330
1F
100
AcDbEntity
  8
Ech.1_5
 62
     7
370
     9
100
AcDbPolyline
 90
        5
 70
     0
 43
0.0
 10
-305.6792379943549
 20
-2925.126753305554
 10
-305.3459043947875
 20
-2925.126753305554
 10
-305.3459043947875
 20
-2926.030642105573
 10
-305.6792379943549
 20
-2926.030642105573
 10
-305.6792379943549
 20
-2925.126753305554
  0
HATCH
  5
364
330
1F
100
AcDbEntity
  8
Ech.1_5
 62
   252
440
 33554687
370
     5
100
AcDbHatch
 10
0.0
 20
0.0
 30
0.0
210
0.0
220
0.0
230
1.0
  2
SOLID
 70
     1
 71
     1
 91
        1
 92
        3
 72
     0
 73
     1
 93
        4
 10
-305.3459043947875
 20
-2925.126753305554
 10
-305.01257079522
 20
-2925.126753305554
 10
-305.01257079522
 20
-2926.030642105573
 10
-305.3459043947875
 20
-2926.030642105573
 97
        0
 75
     0
 76
     1
 98
        0
  0
LWPOLYLINE
  5
365
330
1F
100
AcDbEntity
  8
Ech.1_5
 62
     7
370
     9
100
AcDbPolyline
 90
        5
 70
     0
 43
0.0
 10
-305.3459043947875
 20
-2925.126753305554
 10
-305.01257079522
 20
-2925.126753305554
 10
-305.01257079522
 20
-2926.030642105573
 10
-305.3459043947875
 20
-2926.030642105573
 10
-305.3459043947875
 20
-2925.126753305554
  0
HATCH
  5
366
330
1F
100
AcDbEntity
  8
Ech.1_5
 62
   252
440
 33554687
370
     5
100
AcDbHatch
 10
0.0
 20
0.0
 30
0.0
210
0.0
220
0.0
230
1.0
  2
SOLID
 70
     1
 71
     1
 91
        1
 92
        3
 72
     0
 73
     1
 93
        4
 10
-305.01257079522
 20
-2925.126753305554
 10
-304.6792371956526
 20
-2925.126753305554
 10
-304.6792371956519
 20
-2926.030642105573
 10
-305.01257079522
 20
-2926.030642105573
 97
        0
 75
     0
 76
     1
 98
        0
  0
LWPOLYLINE
  5
367
330
1F
100
AcDbEntity
  8
Ech.1_5
 62
     7
370
     9
100
AcDbPolyline
 90
        5
 70
     0
 43
0.0
 10
-305.01257079522
 20
-2925.126753305554
 10
-304.6792371956526
 20
-2925.126753305554
 10
-304.6792371956519
 20
-2926.030642105573
 10
-305.01257079522
 20
-2926.030642105573
 10
-305.01257079522
 20
-2925.126753305554
  0
HATCH
  5
368
330
1F
100
AcDbEntity
  8
Ech.1_5
 62
   252
440
 33554687
370
     5
100
AcDbHatch
 10
0.0
 20
0.0
 30
0.0
210
0.0
220
0.0
230
1.0
  2
SOLID
 70
     1
 71
     1
 91
        1
 92
        3
 72
     0
 73
     1
 93
        4
 10
-304.6792371956526
 20
-2925.126753305554
 10
-304.3459035960852
 20
-2925.126753305554
 10
-304.3459035960852
 20
-2926.030642105573
 10
-304.6792371956519
 20
-2926.030642105573
 97
        0
 75
     0
 76
     1
 98
        0
  0
LWPOLYLINE
  5
369
330
1F
100
AcDbEntity
  8
Ech.1_5
 62
     7
370
     9
100
AcDbPolyline
 90
        5
 70
     0
 43
0.0
 10
-304.6792371956526
 20
-2925.126753305554
 10
-304.3459035960852
 20
-2925.126753305554
 10
-304.3459035960852
 20
-2926.030642105573
 10
-304.6792371956519
 20
-2926.030642105573
 10
-304.6792371956526
 20
-2925.126753305554
  0
HATCH
  5
36A
330
1F
100
AcDbEntity
  8
Ech.1_5
 62
   252
440
 33554687
370
     5
100
AcDbHatch
 10
0.0
 20
0.0
 30
0.0
210
0.0
220
0.0
230
1.0
  2
SOLID
 70
     1
 71
     1
 91
        1
 92
        3
 72
     0
 73
     1
 93
        4
 10
-304.3459035960852
 20
-2925.126753305554
 10
-304.0125699965178
 20
-2925.126753305554
 10
-304.0125699965178
 20
-2926.030642105573
 10
-304.3459035960852
 20
-2926.030642105573
 97
        0
 75
     0
 76
     1
 98
        0
  0
LWPOLYLINE
  5
36B
330
1F
100
AcDbEntity
  8
Ech.1_5
 62
     7
370
     9
100
AcDbPolyline
 90
        5
 70
     0
 43
0.0
 10
-304.3459035960852
 20
-2925.126753305554
 10
-304.0125699965178
 20
-2925.126753305554
 10
-304.0125699965178
 20
-2926.030642105573
 10
-304.3459035960852
 20
-2926.030642105573
 10
-304.3459035960852
 20
-2925.126753305554
  0
HATCH
  5
36C
330
1F
100
AcDbEntity
  8
Ech.1_5
 62
   252
440
 33554687
370
     5
100
AcDbHatch
 10
0.0
 20
0.0
 30
0.0
210
0.0
220
0.0
230
1.0
  2
SOLID
 70
     1
 71
     1
 91
        1
 92
        3
 72
     0
 73
     1
 93
        4
 10
-304.01257079522
 20
-2925.126753305554
 10
-303.6792371956526
 20
-2925.126753305554
 10
-303.6792371956526
 20
-2926.030642105573
 10
-304.01257079522
 20
-2926.030642105573
 97
        0
 75
     0
 76
     1
 98
        0
  0
LWPOLYLINE
  5
36D
330
1F
100
AcDbEntity
  8
Ech.1_5
 62
     7
370
     9
100
AcDbPolyline
 90
        5
 70
     0
 43
0.0
 10
-304.01257079522
 20
-2925.126753305554
 10
-303.6792371956526
 20
-2925.126753305554
 10
-303.6792371956526
 20
-2926.030642105573
 10
-304.01257079522
 20
-2926.030642105573
 10
-304.01257079522
 20
-2925.126753305554
  0
HATCH
  5
36E
330
1F
100
AcDbEntity
  8
Ech.1_5
 62
   252
440
 33554687
370
     5
100
AcDbHatch
 10
0.0
 20
0.0
 30
0.0
210
0.0
220
0.0
230
1.0
  2
SOLID
 70
     1
 71
     1
 91
        1
 92
        3
 72
     0
 73
     1
 93
        4
 10
-303.6792375950037
 20
-2925.126753305554
 10
-303.3459039954363
 20
-2925.126753305554
 10
-303.3459039954363
 20
-2926.030642105573
 10
-303.6792375950037
 20
-2926.030642105573
 97
        0
 75
     0
 76
     1
 98
        0
  0
LWPOLYLINE
  5
36F
330
1F
100
AcDbEntity
  8
Ech.1_5
 62
     7
370
     9
100
AcDbPolyline
 90
        5
 70
     0
 43
0.0
 10
-303.6792375950037
 20
-2925.126753305554
 10
-303.3459039954363
 20
-2925.126753305554
 10
-303.3459039954363
 20
-2926.030642105573
 10
-303.6792375950037
 20
-2926.030642105573
 10
-303.6792375950037
 20
-2925.126753305554
  0
HATCH
  5
370
330
1F
100
AcDbEntity
  8
Ech.1_5
 62
   252
440
 33554687
370
     5
100
AcDbHatch
 10
0.0
 20
0.0
 30
0.0
210
0.0
220
0.0
230
1.0
  2
SOLID
 70
     1
 71
     1
 91
        1
 92
        3
 72
     0
 73
     1
 93
        4
 10
-303.3459039954363
 20
-2925.126753305554
 10
-303.0125703958689
 20
-2925.126753305554
 10
-303.0125703958689
 20
-2926.030642105573
 10
-303.3459039954363
 20
-2926.030642105573
 97
        0
 75
     0
 76
     1
 98
        0
  0
LWPOLYLINE
  5
371
330
1F
100
AcDbEntity
  8
Ech.1_5
 62
     7
370
     9
100
AcDbPolyline
 90
        5
 70
     0
 43
0.0
 10
-303.3459039954363
 20
-2925.126753305554
 10
-303.0125703958689
 20
-2925.126753305554
 10
-303.0125703958689
 20
-2926.030642105573
 10
-303.3459039954363
 20
-2926.030642105573
 10
-303.3459039954363
 20
-2925.126753305554
  0
HATCH
  5
372
330
1F
100
AcDbEntity
  8
Ech.1_5
 62
   252
440
 33554687
370
     5
100
AcDbHatch
 10
0.0
 20
0.0
 30
0.0
210
0.0
220
0.0
230
1.0
  2
SOLID
 70
     1
 71
     1
 91
        1
 92
        3
 72
     0
 73
     1
 93
        4
 10
-303.01257079522
 20
-2925.126753305554
 10
-302.6792371956526
 20
-2925.126753305554
 10
-302.6792371956526
 20
-2926.030642105573
 10
-303.01257079522
 20
-2926.030642105573
 97
        0
 75
     0
 76
     1
 98
        0
  0
LWPOLYLINE
  5
373
330
1F
100
AcDbEntity
  8
Ech.1_5
 62
     7
370
     9
100
AcDbPolyline
 90
        5
 70
     0
 43
0.0
 10
-303.01257079522
 20
-2925.126753305554
 10
-302.6792371956526
 20
-2925.126753305554
 10
-302.6792371956526
 20
-2926.030642105573
 10
-303.01257079522
 20
-2926.030642105573
 10
-303.01257079522
 20
-2925.126753305554
  0
HATCH
  5
374
330
1F
100
AcDbEntity
  8
Ech.1_5
 62
   252
440
 33554687
370
     5
100
AcDbHatch
 10
0.0
 20
0.0
 30
0.0
210
0.0
220
0.0
230
1.0
  2
SOLID
 70
     1
 71
     1
 91
        1
 92
        3
 72
     0
 73
     1
 93
        4
 10
-302.6792371956526
 20
-2925.126753305554
 10
-302.3459035960852
 20
-2925.126753305554
 10
-302.3459035960852
 20
-2926.030642105573
 10
-302.6792371956526
 20
-2926.030642105573
 97
        0
 75
     0
 76
     1
 98
        0
  0
LWPOLYLINE
  5
375
330
1F
100
AcDbEntity
  8
Ech.1_5
 62
     7
370
     9
100
AcDbPolyline
 90
        5
 70
     0
 43
0.0
 10
-302.6792371956526
 20
-2925.126753305554
 10
-302.3459035960852
 20
-2925.126753305554
 10
-302.3459035960852
 20
-2926.030642105573
 10
-302.6792371956526
 20
-2926.030642105573
 10
-302.6792371956526
 20
-2925.126753305554
  0
HATCH
  5
376
330
1F
100
AcDbEntity
  8
Ech.1_5
 62
   252
440
 33554687
370
     5
100
AcDbHatch
 10
0.0
 20
0.0
 30
0.0
210
0.0
220
0.0
230
1.0
  2
SOLID
 70
     1
 71
     1
 91
        1
 92
        3
 72
     0
 73
     1
 93
        4
 10
-302.3459043947875
 20
-2925.126753305554
 10
-302.01257079522
 20
-2925.126753305554
 10
-302.01257079522
 20
-2926.030642105573
 10
-302.3459043947875
 20
-2926.030642105573
 97
        0
 75
     0
 76
     1
 98
        0
  0
LWPOLYLINE
  5
377
330
1F
100
AcDbEntity
  8
Ech.1_5
 62
     7
370
     9
100
AcDbPolyline
 90
        5
 70
     0
 43
0.0
 10
-302.3459043947875
 20
-2925.126753305554
 10
-302.01257079522
 20
-2925.126753305554
 10
-302.01257079522
 20
-2926.030642105573
 10
-302.3459043947875
 20
-2926.030642105573
 10
-302.3459043947875
 20
-2925.126753305554
  0
HATCH
  5
378
330
1F
100
AcDbEntity
  8
Ech.1_5
 62
   252
440
 33554687
370
     5
100
AcDbHatch
 10
0.0
 20
0.0
 30
0.0
210
0.0
220
0.0
230
1.0
  2
SOLID
 70
     1
 71
     1
 91
        1
 92
        3
 72
     0
 73
     1
 93
        4
 10
-302.01257079522
 20
-2925.126753305554
 10
-301.6792371956526
 20
-2925.126753305554
 10
-301.6792371956526
 20
-2926.030642105573
 10
-302.01257079522
 20
-2926.030642105573
 97
        0
 75
     0
 76
     1
 98
        0
  0
LWPOLYLINE
  5
379
330
1F
100
AcDbEntity
  8
Ech.1_5
 62
     7
370
     9
100
AcDbPolyline
 90
        5
 70
     0
 43
0.0
 10
-302.01257079522
 20
-2925.126753305554
 10
-301.6792371956526
 20
-2925.126753305554
 10
-301.6792371956526
 20
-2926.030642105573
 10
-302.01257079522
 20
-2926.030642105573
 10
-302.01257079522
 20
-2925.126753305554
  0
HATCH
  5
37A
330
1F
100
AcDbEntity
  8
Ech.1_5
 62
   252
440
 33554687
370
     5
100
AcDbHatch
 10
0.0
 20
0.0
 30
0.0
210
0.0
220
0.0
230
1.0
  2
SOLID
 70
     1
 71
     1
 91
        1
 92
        3
 72
     0
 73
     1
 93
        4
 10
-301.6792371956526
 20
-2925.126753305554
 10
-301.3459035960852
 20
-2925.126753305554
 10
-301.3459035960852
 20
-2926.030642105573
 10
-301.6792371956526
 20
-2926.030642105573
 97
        0
 75
     0
 76
     1
 98
        0
  0
LWPOLYLINE
  5
37B
330
1F
100
AcDbEntity
  8
Ech.1_5
 62
     7
370
     9
100
AcDbPolyline
 90
        5
 70
     0
 43
0.0
 10
-301.6792371956526
 20
-2925.126753305554
 10
-301.3459035960852
 20
-2925.126753305554
 10
-301.3459035960852
 20
-2926.030642105573
 10
-301.6792371956526
 20
-2926.030642105573
 10
-301.6792371956526
 20
-2925.126753305554
  0
HATCH
  5
37C
330
1F
100
AcDbEntity
  8
Ech.1_5
 62
   252
440
 33554687
370
     5
100
AcDbHatch
 10
0.0
 20
0.0
 30
0.0
210
0.0
220
0.0
230
1.0
  2
SOLID
 70
     1
 71
     1
 91
        1
 92
        3
 72
     0
 73
     1
 93
        4
 10
-301.3459035960852
 20
-2925.126753305554
 10
-301.0125699965171
 20
-2925.126753305554
 10
-301.0125699965178
 20
-2926.030642105573
 10
-301.3459035960852
 20
-2926.030642105573
 97
        0
 75
     0
 76
     1
 98
        0
  0
LWPOLYLINE
  5
37D
330
1F
100
AcDbEntity
  8
Ech.1_5
 62
     7
370
     9
100
AcDbPolyline
 90
        5
 70
     0
 43
0.0
 10
-301.3459035960852
 20
-2925.126753305554
 10
-301.0125699965171
 20
-2925.126753305554
 10
-301.0125699965178
 20
-2926.030642105573
 10
-301.3459035960852
 20
-2926.030642105573
 10
-301.3459035960852
 20
-2925.126753305554
  0
HATCH
  5
37E
330
1F
100
AcDbEntity
  8
Ech.1_5
 62
   252
440
 33554687
370
     5
100
AcDbHatch
 10
0.0
 20
0.0
 30
0.0
210
0.0
220
0.0
230
1.0
  2
SOLID
 70
     1
 71
     1
 91
        1
 92
        3
 72
     0
 73
     1
 93
        4
 10
-301.0125699965171
 20
-2925.126753305554
 10
-300.6792363969504
 20
-2925.126753305554
 10
-300.6792363969504
 20
-2926.030642105573
 10
-301.0125699965178
 20
-2926.030642105573
 97
        0
 75
     0
 76
     1
 98
        0
  0
LWPOLYLINE
  5
37F
330
1F
100
AcDbEntity
  8
Ech.1_5
 62
     7
370
     9
100
AcDbPolyline
 90
        5
 70
     0
 43
0.0
 10
-301.0125699965171
 20
-2925.126753305554
 10
-300.6792363969504
 20
-2925.126753305554
 10
-300.6792363969504
 20
-2926.030642105573
 10
-301.0125699965178
 20
-2926.030642105573
 10
-301.0125699965171
 20
-2925.126753305554
  0
HATCH
  5
380
330
1F
100
AcDbEntity
  8
Ech.1_5
 62
   252
440
 33554687
370
     5
100
AcDbHatch
 10
0.0
 20
0.0
 30
0.0
210
0.0
220
0.0
230
1.0
  2
SOLID
 70
     1
 71
     1
 91
        1
 92
        3
 72
     0
 73
     1
 93
        4
 10
-300.6792371956526
 20
-2925.126753305554
 10
-300.3459035960852
 20
-2925.126753305554
 10
-300.3459035960852
 20
-2926.030642105573
 10
-300.6792371956526
 20
-2926.030642105573
 97
        0
 75
     0
 76
     1
 98
        0
  0
LWPOLYLINE
  5
381
330
1F
100
AcDbEntity
  8
Ech.1_5
 62
     7
370
     9
100
AcDbPolyline
 90
        5
 70
     0
 43
0.0
 10
-300.6792371956526
 20
-2925.126753305554
 10
-300.3459035960852
 20
-2925.126753305554
 10
-300.3459035960852
 20
-2926.030642105573
 10
-300.6792371956526
 20
-2926.030642105573
 10
-300.6792371956526
 20
-2925.126753305554
  0
HATCH
  5
382
330
1F
100
AcDbEntity
  8
Ech.1_5
 62
   252
440
 33554687
370
     5
100
AcDbHatch
 10
0.0
 20
0.0
 30
0.0
210
0.0
220
0.0
230
1.0
  2
SOLID
 70
     1
 71
     1
 91
        1
 92
        3
 72
     0
 73
     1
 93
        4
 10
-300.3459039954363
 20
-2925.126753305554
 10
-300.0125703958689
 20
-2925.126753305554
 10
-300.0125703958689
 20
-2926.030642105573
 10
-300.3459039954363
 20
-2926.030642105573
 97
        0
 75
     0
 76
     1
 98
        0
  0
LWPOLYLINE
  5
383
330
1F
100
AcDbEntity
  8
Ech.1_5
 62
     7
370
     9
100
AcDbPolyline
 90
        5
 70
     0
 43
0.0
 10
-300.3459039954363
 20
-2925.126753305554
 10
-300.0125703958689
 20
-2925.126753305554
 10
-300.0125703958689
 20
-2926.030642105573
 10
-300.3459039954363
 20
-2926.030642105573
 10
-300.3459039954363
 20
-2925.126753305554
  0
HATCH
  5
384
330
1F
100
AcDbEntity
  8
Ech.1_5
 62
   252
440
 33554687
370
     5
100
AcDbHatch
 10
0.0
 20
0.0
 30
0.0
210
0.0
220
0.0
230
1.0
  2
SOLID
 70
     1
 71
     1
 91
        1
 92
        3
 72
     0
 73
     1
 93
        4
 10
-300.0125703958689
 20
-2925.126753305554
 10
-299.6792367963015
 20
-2925.126753305554
 10
-299.6792367963015
 20
-2926.030642105573
 10
-300.0125703958689
 20
-2926.030642105573
 97
        0
 75
     0
 76
     1
 98
        0
  0
LWPOLYLINE
  5
385
330
1F
100
AcDbEntity
  8
Ech.1_5
 62
     7
370
     9
100
AcDbPolyline
 90
        5
 70
     0
 43
0.0
 10
-300.0125703958689
 20
-2925.126753305554
 10
-299.6792367963015
 20
-2925.126753305554
 10
-299.6792367963015
 20
-2926.030642105573
 10
-300.0125703958689
 20
-2926.030642105573
 10
-300.0125703958689
 20
-2925.126753305554
  0
HATCH
  5
386
330
1F
100
AcDbEntity
  8
Ech.1_5
 62
   252
440
 33554687
370
     5
100
AcDbHatch
 10
0.0
 20
0.0
 30
0.0
210
0.0
220
0.0
230
1.0
  2
SOLID
 70
     1
 71
     1
 91
        1
 92
        3
 72
     0
 73
     1
 93
        4
 10
-299.6792371956526
 20
-2925.126753305554
 10
-299.3459035960852
 20
-2925.126753305554
 10
-299.3459035960852
 20
-2926.030642105573
 10
-299.6792371956526
 20
-2926.030642105573
 97
        0
 75
     0
 76
     1
 98
        0
  0
LWPOLYLINE
  5
387
330
1F
100
AcDbEntity
  8
Ech.1_5
 62
     7
370
     9
100
AcDbPolyline
 90
        5
 70
     0
 43
0.0
 10
-299.6792371956526
 20
-2925.126753305554
 10
-299.3459035960852
 20
-2925.126753305554
 10
-299.3459035960852
 20
-2926.030642105573
 10
-299.6792371956526
 20
-2926.030642105573
 10
-299.6792371956526
 20
-2925.126753305554
  0
HATCH
  5
388
330
1F
100
AcDbEntity
  8
Ech.1_5
 62
   252
440
 33554687
370
     5
100
AcDbHatch
 10
0.0
 20
0.0
 30
0.0
210
0.0
220
0.0
230
1.0
  2
SOLID
 70
     1
 71
     1
 91
        1
 92
        3
 72
     0
 73
     1
 93
        4
 10
-299.3459035960852
 20
-2925.126753305554
 10
-299.0125699965178
 20
-2925.126753305554
 10
-299.0125699965178
 20
-2926.030642105573
 10
-299.3459035960852
 20
-2926.030642105573
 97
        0
 75
     0
 76
     1
 98
        0
  0
LWPOLYLINE
  5
389
330
1F
100
AcDbEntity
  8
Ech.1_5
 62
     7
370
     9
100
AcDbPolyline
 90
        5
 70
     0
 43
0.0
 10
-299.3459035960852
 20
-2925.126753305554
 10
-299.0125699965178
 20
-2925.126753305554
 10
-299.0125699965178
 20
-2926.030642105573
 10
-299.3459035960852
 20
-2926.030642105573
 10
-299.3459035960852
 20
-2925.126753305554
  0
HATCH
  5
38A
330
1F
100
AcDbEntity
  8
Ech.1_5
 62
   252
440
 33554687
370
     5
100
AcDbHatch
 10
0.0
 20
0.0
 30
0.0
210
0.0
220
0.0
230
1.0
  2
SOLID
 70
     1
 71
     1
 91
        1
 92
        3
 72
     0
 73
     1
 93
        4
 10
-299.01257079522
 20
-2925.126753305554
 10
-298.6792371956526
 20
-2925.126753305554
 10
-298.6792371956526
 20
-2926.030642105573
 10
-299.01257079522
 20
-2926.030642105573
 97
        0
 75
     0
 76
     1
 98
        0
  0
LWPOLYLINE
  5
38B
330
1F
100
AcDbEntity
  8
Ech.1_5
 62
     7
370
     9
100
AcDbPolyline
 90
        5
 70
     0
 43
0.0
 10
-299.01257079522
 20
-2925.126753305554
 10
-298.6792371956526
 20
-2925.126753305554
 10
-298.6792371956526
 20
-2926.030642105573
 10
-299.01257079522
 20
-2926.030642105573
 10
-299.01257079522
 20
-2925.126753305554
  0
HATCH
  5
38C
330
1F
100
AcDbEntity
  8
Ech.1_5
 62
   252
440
 33554687
370
     5
100
AcDbHatch
 10
0.0
 20
0.0
 30
0.0
210
0.0
220
0.0
230
1.0
  2
SOLID
 70
     1
 71
     1
 91
        1
 92
        3
 72
     0
 73
     1
 93
        4
 10
-298.6792379943549
 20
-2925.126753305554
 10
-298.3459043947875
 20
-2925.126753305554
 10
-298.3459043947875
 20
-2926.030642105573
 10
-298.6792379943549
 20
-2926.030642105573
 97
        0
 75
     0
 76
     1
 98
        0
  0
LWPOLYLINE
  5
38D
330
1F
100
AcDbEntity
  8
Ech.1_5
 62
     7
370
     9
100
AcDbPolyline
 90
        5
 70
     0
 43
0.0
 10
-298.6792379943549
 20
-2925.126753305554
 10
-298.3459043947875
 20
-2925.126753305554
 10
-298.3459043947875
 20
-2926.030642105573
 10
-298.6792379943549
 20
-2926.030642105573
 10
-298.6792379943549
 20
-2925.126753305554
  0
HATCH
  5
38E
330
1F
100
AcDbEntity
  8
Ech.1_5
 62
   252
440
 33554687
370
     5
100
AcDbHatch
 10
0.0
 20
0.0
 30
0.0
210
0.0
220
0.0
230
1.0
  2
SOLID
 70
     1
 71
     1
 91
        1
 92
        3
 72
     0
 73
     1
 93
        4
 10
-298.3459043947875
 20
-2925.126753305554
 10
-298.01257079522
 20
-2925.126753305554
 10
-298.01257079522
 20
-2926.030642105573
 10
-298.3459043947875
 20
-2926.030642105573
 97
        0
 75
     0
 76
     1
 98
        0
  0
LWPOLYLINE
  5
38F
330
1F
100
AcDbEntity
  8
Ech.1_5
 62
     7
370
     9
100
AcDbPolyline
 90
        5
 70
     0
 43
0.0
 10
-298.3459043947875
 20
-2925.126753305554
 10
-298.01257079522
 20
-2925.126753305554
 10
-298.01257079522
 20
-2926.030642105573
 10
-298.3459043947875
 20
-2926.030642105573
 10
-298.3459043947875
 20
-2925.126753305554
  0
HATCH
  5
390
330
1F
100
AcDbEntity
  8
Ech.1_5
 62
   252
440
 33554687
370
     5
100
AcDbHatch
 10
0.0
 20
0.0
 30
0.0
210
0.0
220
0.0
230
1.0
  2
SOLID
 70
     1
 71
     1
 91
        1
 92
        3
 72
     0
 73
     1
 93
        4
 10
-298.01257079522
 20
-2925.126753305554
 10
-297.6792371956526
 20
-2925.126753305554
 10
-297.6792371956526
 20
-2926.030642105573
 10
-298.01257079522
 20
-2926.030642105573
 97
        0
 75
     0
 76
     1
 98
        0
  0
LWPOLYLINE
  5
391
330
1F
100
AcDbEntity
  8
Ech.1_5
 62
     7
370
     9
100
AcDbPolyline
 90
        5
 70
     0
 43
0.0
 10
-298.01257079522
 20
-2925.126753305554
 10
-297.6792371956526
 20
-2925.126753305554
 10
-297.6792371956526
 20
-2926.030642105573
 10
-298.01257079522
 20
-2926.030642105573
 10
-298.01257079522
 20
-2925.126753305554
  0
HATCH
  5
392
330
1F
100
AcDbEntity
  8
Ech.1_5
 62
   252
440
 33554687
370
     5
100
AcDbHatch
 10
0.0
 20
0.0
 30
0.0
210
0.0
220
0.0
230
1.0
  2
SOLID
 70
     1
 71
     1
 91
        1
 92
        3
 72
     0
 73
     1
 93
        4
 10
-297.6792371956526
 20
-2925.126753305554
 10
-297.3459035960852
 20
-2925.126753305554
 10
-297.3459035960852
 20
-2926.030642105573
 10
-297.6792371956526
 20
-2926.030642105573
 97
        0
 75
     0
 76
     1
 98
        0
  0
LWPOLYLINE
  5
393
330
1F
100
AcDbEntity
  8
Ech.1_5
 62
     7
370
     9
100
AcDbPolyline
 90
        5
 70
     0
 43
0.0
 10
-297.6792371956526
 20
-2925.126753305554
 10
-297.3459035960852
 20
-2925.126753305554
 10
-297.3459035960852
 20
-2926.030642105573
 10
-297.6792371956526
 20
-2926.030642105573
 10
-297.6792371956526
 20
-2925.126753305554
  0
HATCH
  5
394
330
1F
100
AcDbEntity
  8
Ech.1_5
 62
   252
440
 33554687
370
     5
100
AcDbHatch
 10
0.0
 20
0.0
 30
0.0
210
0.0
220
0.0
230
1.0
  2
SOLID
 70
     1
 71
     1
 91
        1
 92
        3
 72
     0
 73
     1
 93
        4
 10
-297.3459043947875
 20
-2925.126753305554
 10
-297.01257079522
 20
-2925.126753305554
 10
-297.01257079522
 20
-2926.030642105573
 10
-297.3459043947875
 20
-2926.030642105573
 97
        0
 75
     0
 76
     1
 98
        0
  0
LWPOLYLINE
  5
395
330
1F
100
AcDbEntity
  8
Ech.1_5
 62
     7
370
     9
100
AcDbPolyline
 90
        5
 70
     0
 43
0.0
 10
-297.3459043947875
 20
-2925.126753305554
 10
-297.01257079522
 20
-2925.126753305554
 10
-297.01257079522
 20
-2926.030642105573
 10
-297.3459043947875
 20
-2926.030642105573
 10
-297.3459043947875
 20
-2925.126753305554
  0
HATCH
  5
396
330
1F
100
AcDbEntity
  8
Ech.1_5
 62
   252
440
 33554687
370
     5
100
AcDbHatch
 10
0.0
 20
0.0
 30
0.0
210
0.0
220
0.0
230
1.0
  2
SOLID
 70
     1
 71
     1
 91
        1
 92
        3
 72
     0
 73
     1
 93
        4
 10
-297.0125711945711
 20
-2925.126753305554
 10
-296.6792375950037
 20
-2925.126753305554
 10
-296.6792375950037
 20
-2926.030642105573
 10
-297.0125711945711
 20
-2926.030642105573
 97
        0
 75
     0
 76
     1
 98
        0
  0
LWPOLYLINE
  5
397
330
1F
100
AcDbEntity
  8
Ech.1_5
 62
     7
370
     9
100
AcDbPolyline
 90
        5
 70
     0
 43
0.0
 10
-297.0125711945711
 20
-2925.126753305554
 10
-296.6792375950037
 20
-2925.126753305554
 10
-296.6792375950037
 20
-2926.030642105573
 10
-297.0125711945711
 20
-2926.030642105573
 10
-297.0125711945711
 20
-2925.126753305554
  0
HATCH
  5
398
330
1F
100
AcDbEntity
  8
Ech.1_5
 62
   252
440
 33554687
370
     5
100
AcDbHatch
 10
0.0
 20
0.0
 30
0.0
210
0.0
220
0.0
230
1.0
  2
SOLID
 70
     1
 71
     1
 91
        1
 92
        3
 72
     0
 73
     1
 93
        4
 10
-296.6792375950037
 20
-2925.126753305554
 10
-296.3459039954363
 20
-2925.126753305554
 10
-296.3459039954363
 20
-2926.030642105573
 10
-296.6792375950037
 20
-2926.030642105573
 97
        0
 75
     0
 76
     1
 98
        0
  0
LWPOLYLINE
  5
399
330
1F
100
AcDbEntity
  8
Ech.1_5
 62
     7
370
     9
100
AcDbPolyline
 90
        5
 70
     0
 43
0.0
 10
-296.6792375950037
 20
-2925.126753305554
 10
-296.3459039954363
 20
-2925.126753305554
 10
-296.3459039954363
 20
-2926.030642105573
 10
-296.6792375950037
 20
-2926.030642105573
 10
-296.6792375950037
 20
-2925.126753305554
  0
HATCH
  5
39A
330
1F
100
AcDbEntity
  8
Ech.1_5
 62
   252
440
 33554687
370
     5
100
AcDbHatch
 10
0.0
 20
0.0
 30
0.0
210
0.0
220
0.0
230
1.0
  2
SOLID
 70
     1
 71
     1
 91
        1
 92
        3
 72
     0
 73
     1
 93
        4
 10
-296.3459043947875
 20
-2925.126753305554
 10
-296.01257079522
 20
-2925.126753305554
 10
-296.01257079522
 20
-2926.030642105573
 10
-296.3459043947875
 20
-2926.030642105573
 97
        0
 75
     0
 76
     1
 98
        0
  0
LWPOLYLINE
  5
39B
330
1F
100
AcDbEntity
  8
Ech.1_5
 62
     7
370
     9
100
AcDbPolyline
 90
        5
 70
     0
 43
0.0
 10
-296.3459043947875
 20
-2925.126753305554
 10
-296.01257079522
 20
-2925.126753305554
 10
-296.01257079522
 20
-2926.030642105573
 10
-296.3459043947875
 20
-2926.030642105573
 10
-296.3459043947875
 20
-2925.126753305554
  0
HATCH
  5
39C
330
1F
100
AcDbEntity
  8
Ech.1_5
 62
   252
440
 33554687
370
     5
100
AcDbHatch
 10
0.0
 20
0.0
 30
0.0
210
0.0
220
0.0
230
1.0
  2
SOLID
 70
     1
 71
     1
 91
        1
 92
        3
 72
     0
 73
     1
 93
        4
 10
-296.01257079522
 20
-2925.126753305554
 10
-295.6792371956526
 20
-2925.126753305554
 10
-295.6792371956526
 20
-2926.030642105573
 10
-296.01257079522
 20
-2926.030642105573
 97
        0
 75
     0
 76
     1
 98
        0
  0
LWPOLYLINE
  5
39D
330
1F
100
AcDbEntity
  8
Ech.1_5
 62
     7
370
     9
100
AcDbPolyline
 90
        5
 70
     0
 43
0.0
 10
-296.01257079522
 20
-2925.126753305554
 10
-295.6792371956526
 20
-2925.126753305554
 10
-295.6792371956526
 20
-2926.030642105573
 10
-296.01257079522
 20
-2926.030642105573
 10
-296.01257079522
 20
-2925.126753305554
  0
HATCH
  5
39E
330
1F
100
AcDbEntity
  8
Ech.1_5
 62
   252
440
 33554687
370
     5
100
AcDbHatch
 10
0.0
 20
0.0
 30
0.0
210
0.0
220
0.0
230
1.0
  2
SOLID
 70
     1
 71
     1
 91
        1
 92
        3
 72
     0
 73
     1
 93
        4
 10
-295.6792379943549
 20
-2925.126753305554
 10
-295.3459043947875
 20
-2925.126753305554
 10
-295.3459043947875
 20
-2926.030642105573
 10
-295.6792379943549
 20
-2926.030642105573
 97
        0
 75
     0
 76
     1
 98
        0
  0
LWPOLYLINE
  5
39F
330
1F
100
AcDbEntity
  8
Ech.1_5
 62
     7
370
     9
100
AcDbPolyline
 90
        5
 70
     0
 43
0.0
 10
-295.6792379943549
 20
-2925.126753305554
 10
-295.3459043947875
 20
-2925.126753305554
 10
-295.3459043947875
 20
-2926.030642105573
 10
-295.6792379943549
 20
-2926.030642105573
 10
-295.6792379943549
 20
-2925.126753305554
  0
HATCH
  5
3A0
330
1F
100
AcDbEntity
  8
Ech.1_5
 62
   252
440
 33554687
370
     5
100
AcDbHatch
 10
0.0
 20
0.0
 30
0.0
210
0.0
220
0.0
230
1.0
  2
SOLID
 70
     1
 71
     1
 91
        1
 92
        3
 72
     0
 73
     1
 93
        4
 10
-295.3459043947875
 20
-2925.126753305554
 10
-295.01257079522
 20
-2925.126753305554
 10
-295.01257079522
 20
-2926.030642105573
 10
-295.3459043947875
 20
-2926.030642105573
 97
        0
 75
     0
 76
     1
 98
        0
  0
LWPOLYLINE
  5
3A1
330
1F
100
AcDbEntity
  8
Ech.1_5
 62
     7
370
     9
100
AcDbPolyline
 90
        5
 70
     0
 43
0.0
 10
-295.3459043947875
 20
-2925.126753305554
 10
-295.01257079522
 20
-2925.126753305554
 10
-295.01257079522
 20
-2926.030642105573
 10
-295.3459043947875
 20
-2926.030642105573
 10
-295.3459043947875
 20
-2925.126753305554
  0
HATCH
  5
3A2
330
1F
100
AcDbEntity
  8
Ech.1_5
 62
   252
440
 33554687
370
     5
100
AcDbHatch
 10
0.0
 20
0.0
 30
0.0
210
0.0
220
0.0
230
1.0
  2
SOLID
 70
     1
 71
     1
 91
        1
 92
        3
 72
     0
 73
     1
 93
        4
 10
-295.01257079522
 20
-2925.126753305554
 10
-294.6792371956526
 20
-2925.126753305554
 10
-294.6792371956526
 20
-2926.030642105573
 10
-295.01257079522
 20
-2926.030642105573
 97
        0
 75
     0
 76
     1
 98
        0
  0
LWPOLYLINE
  5
3A3
330
1F
100
AcDbEntity
  8
Ech.1_5
 62
     7
370
     9
100
AcDbPolyline
 90
        5
 70
     0
 43
0.0
 10
-295.01257079522
 20
-2925.126753305554
 10
-294.6792371956526
 20
-2925.126753305554
 10
-294.6792371956526
 20
-2926.030642105573
 10
-295.01257079522
 20
-2926.030642105573
 10
-295.01257079522
 20
-2925.126753305554
  0
HATCH
  5
3A4
330
1F
100
AcDbEntity
  8
Ech.1_5
 62
   252
440
 33554687
370
     5
100
AcDbHatch
 10
0.0
 20
0.0
 30
0.0
210
0.0
220
0.0
230
1.0
  2
SOLID
 70
     1
 71
     1
 91
        1
 92
        3
 72
     0
 73
     1
 93
        4
 10
-294.6792371956526
 20
-2925.126753305554
 10
-294.3459035960852
 20
-2925.126753305554
 10
-294.3459035960852
 20
-2926.030642105573
 10
-294.6792371956526
 20
-2926.030642105573
 97
        0
 75
     0
 76
     1
 98
        0
  0
LWPOLYLINE
  5
3A5
330
1F
100
AcDbEntity
  8
Ech.1_5
 62
     7
370
     9
100
AcDbPolyline
 90
        5
 70
     0
 43
0.0
 10
-294.6792371956526
 20
-2925.126753305554
 10
-294.3459035960852
 20
-2925.126753305554
 10
-294.3459035960852
 20
-2926.030642105573
 10
-294.6792371956526
 20
-2926.030642105573
 10
-294.6792371956526
 20
-2925.126753305554
  0
HATCH
  5
3A6
330
1F
100
AcDbEntity
  8
Ech.1_5
 62
   252
440
 33554687
370
     5
100
AcDbHatch
 10
0.0
 20
0.0
 30
0.0
210
0.0
220
0.0
230
1.0
  2
SOLID
 70
     1
 71
     1
 91
        1
 92
        3
 72
     1
 73
     1
 93
        4
 10
-292.4662707953856
 20
-2926.030642105573
 42
0.0
 10
-293.0125715939222
 20
-2926.030642105573
 42
0.0
 10
-293.0125715939222
 20
-2925.126753305554
 42
0.0
 10
-292.4662707953856
 20
-2925.126753305554
 42
0.3513591548519267
 97
        0
 75
     0
 76
     1
 98
        0
  0
LWPOLYLINE
  5
3A7
330
1F
100
AcDbEntity
  8
Ech.1_5
 62
     7
370
     9
100
AcDbPolyline
 90
        5
 70
     0
 43
0.0
 10
-292.4662707953856
 20
-2926.030642105573
 10
-293.0125715939222
 20
-2926.030642105573
 10
-293.0125715939222
 20
-2925.126753305554
 10
-292.4662707953856
 20
-2925.126753305554
 42
0.3513591548518972
 10
-292.4662707953856
 20
-2926.030642105573
  0
HATCH
  5
3A8
330
1F
100
AcDbEntity
  8
Ech.1_5
 62
   252
440
 33554687
370
     5
100
AcDbHatch
 10
0.0
 20
0.0
 30
0.0
210
0.0
220
0.0
230
1.0
  2
SOLID
 70
     1
 71
     1
 91
        1
 92
        3
 72
     1
 73
     1
 93
        3
 10
-291.4014599948332
 20
-2925.578697705575
 42
0.0
 10
-292.4662707953856
 20
-2926.030642105573
 42
-0.3513591548519267
 10
-292.4662707953856
 20
-2925.126753305554
 42
0.0
 97
        0
 75
     0
 76
     1
 98
        0
  0
LWPOLYLINE
  5
3A9
330
1F
100
AcDbEntity
  8
Ech.1_5
 62
     7
370
     9
100
AcDbPolyline
 90
        4
 70
     0
 43
0.0
 10
-291.4014599948332
 20
-2925.578697705575
 10
-292.4662707953856
 20
-2926.030642105573
 42
-0.3513591548518956
 10
-292.4662707953856
 20
-2925.126753305554
 10
-291.4014599948332
 20
-2925.578697705575
  0
HATCH
  5
3AA
330
1F
100
AcDbEntity
  8
Ech.1_5
 62
   252
440
 33554687
370
     5
100
AcDbHatch
 10
0.0
 20
0.0
 30
0.0
210
0.0
220
0.0
230
1.0
  2
SOLID
 70
     1
 71
     1
 91
        1
 92
        3
 72
     1
 73
     1
 93
        6
 10
-308.6792379943549
 20
-2925.126753305557
 42
0.0
 10
-309.3792375951216
 20
-2925.126753305554
 42
-0.4142135727484935
 10
-309.6014599948332
 20
-2924.904530905564
 42
0.0
 10
-309.6014599948332
 20
-2926.25286450559
 42
-0.4142135726681488
 10
-309.3792375951216
 20
-2926.030642105573
 42
0.0
 10
-308.6792379943549
 20
-2926.030642105573
 42
0.0
 97
        0
 75
     0
 76
     1
 98
        0
  0
LWPOLYLINE
  5
3AB
330
1F
100
AcDbEntity
  8
Ech.1_5
 62
     7
370
     9
100
AcDbPolyline
 90
        7
 70
     0
 43
0.0
 10
-308.6792379943549
 20
-2925.126753305557
 10
-309.3792375951216
 20
-2925.126753305554
 42
-0.4142135727497837
 10
-309.6014599948332
 20
-2924.904530905564
 10
-309.6014599948332
 20
-2926.25286450559
 42
-0.414213572666436
 10
-309.3792375951216
 20
-2926.030642105573
 10
-308.6792379943549
 20
-2926.030642105573
 10
-308.6792379943549
 20
-2925.126753305557
  0
HATCH
  5
3AC
330
1F
100
AcDbEntity
  8
Ech.1_5
 62
   252
440
 33554687
370
     5
100
AcDbHatch
 10
0.0
 20
0.0
 30
0.0
210
0.0
220
0.0
230
1.0
  2
SOLID
 70
     1
 71
     1
 91
        1
 92
        1
 93
        2
 72
     1
 10
-309.7236819951937
 20
-2924.57119769501
 11
-309.7236819951937
 21
-2926.586197716118
 72
     2
 10
-304.6984006388642
 20
-2925.578697705564
 40
5.125281356329573
 50
168.6632793503046
 51
191.3367206496955
 73
     0
 97
        0
 75
     0
 76
     1
 98
        0
  0
LWPOLYLINE
  5
3AD
330
1F
100
AcDbEntity
  8
Ech.1_5
 62
     7
370
     9
100
AcDbPolyline
 90
        3
 70
     0
 43
0.0
 10
-309.7236819951937
 20
-2924.57119769501
 10
-309.7236819951937
 20
-2926.586197716118
 42
-0.0992555820868614
 10
-309.7236819951937
 20
-2924.57119769501
  0
HATCH
  5
3AE
330
1F
100
AcDbEntity
  8
Ech.1_5
 62
   252
440
 33554687
370
     5
100
AcDbHatch
 10
0.0
 20
0.0
 30
0.0
210
0.0
220
0.0
230
1.0
  2
SOLID
 70
     1
 71
     1
 91
        1
 92
        3
 72
     0
 73
     1
 93
        6
 10
-309.6014599948332
 20
-2924.57119770558
 10
-309.6014599948332
 20
-2924.904530905564
 10
-309.6014599948332
 20
-2926.25286450559
 10
-309.6014599948325
 20
-2926.586197705571
 10
-309.7236819951937
 20
-2926.586197716118
 10
-309.7236819951937
 20
-2924.57119769501
 97
        0
 75
     0
 76
     1
 98
        0
  0
LWPOLYLINE
  5
3AF
330
1F
100
AcDbEntity
  8
Ech.1_5
 62
     7
370
     9
100
AcDbPolyline
 90
        7
 70
     0
 43
0.0
 10
-309.6014599948332
 20
-2924.57119770558
 10
-309.6014599948332
 20
-2924.904530905564
 10
-309.6014599948332
 20
-2926.25286450559
 10
-309.6014599948325
 20
-2926.586197705571
 10
-309.7236819951937
 20
-2926.586197716118
 10
-309.7236819951937
 20
-2924.57119769501
 10
-309.6014599948332
 20
-2924.57119770558
  0
HATCH
  5
3B0
330
1F
100
AcDbEntity
  8
Ech.1_5
 62
   252
440
 33554687
370
     5
100
AcDbHatch
 10
0.0
 20
0.0
 30
0.0
210
0.0
220
0.0
230
1.0
  2
SOLID
 70
     1
 71
     1
 91
        1
 92
        3
 72
     0
 73
     1
 93
        4
 10
-294.3459035960852
 20
-2925.126753305554
 10
-294.0125699965178
 20
-2925.126753305554
 10
-294.0125699965178
 20
-2926.030642105573
 10
-294.3459035960852
 20
-2926.030642105573
 97
        0
 75
     0
 76
     1
 98
        0
  0
LWPOLYLINE
  5
3B1
330
1F
100
AcDbEntity
  8
Ech.1_5
 62
     7
370
     9
100
AcDbPolyline
 90
        5
 70
     0
 43
0.0
 10
-294.3459035960852
 20
-2925.126753305554
 10
-294.0125699965178
 20
-2925.126753305554
 10
-294.0125699965178
 20
-2926.030642105573
 10
-294.3459035960852
 20
-2926.030642105573
 10
-294.3459035960852
 20
-2925.126753305554
  0
LINE
  5
3B2
330
1F
100
AcDbEntity
  8
Ech.1_5
 62
   190
370
     9
100
AcDbLine
 10
-293.6792379943549
 20
-2926.030642105573
 30
0.0
 11
-293.6792379943549
 21
-2925.126753305554
 31
0.0
  0
LINE
  5
3B3
330
1F
100
AcDbEntity
  8
Ech.1_5
 62
   190
370
     9
100
AcDbLine
 10
-293.3459043947875
 20
-2926.030642105573
 30
0.0
 11
-293.3459043947875
 21
-2925.126753305554
 31
0.0
  0
LINE
  5
3B4
330
1F
100
AcDbEntity
  8
Ech.1_5
 62
   190
370
     9
100
AcDbLine
 10
-293.0125715939222
 20
-2926.030642105573
 30
0.0
 11
-293.0125715939222
 21
-2925.126753305554
 31
0.0
  0
LINE
  5
3B5
330
1F
100
AcDbEntity
  8
Ech.1_5
 62
   190
370
     9
100
AcDbLine
 10
-294.01257079522
 20
-2926.030642105573
 30
0.0
 11
-294.01257079522
 21
-2925.126753305554
 31
0.0
  0
HATCH
  5
3B6
330
1F
100
AcDbEntity
  8
Ech.1_5
 62
   252
440
 33554687
370
     5
100
AcDbHatch
 10
0.0
 20
0.0
 30
0.0
210
0.0
220
0.0
230
1.0
  2
SOLID
 70
     1
 71
     1
 91
        1
 92
        3
 72
     0
 73
     1
 93
        4
 10
-294.0125715939222
 20
-2925.126753305554
 10
-293.6792379943549
 20
-2925.126753305554
 10
-293.6792379943549
 20
-2926.030642105573
 10
-294.0125715939222
 20
-2926.030642105573
 97
        0
 75
     0
 76
     1
 98
        0
  0
LWPOLYLINE
  5
3B7
330
1F
100
AcDbEntity
  8
Ech.1_5
 62
     7
370
     9
100
AcDbPolyline
 90
        5
 70
     0
 43
0.0
 10
-294.0125715939222
 20
-2925.126753305554
 10
-293.6792379943549
 20
-2925.126753305554
 10
-293.6792379943549
 20
-2926.030642105573
 10
-294.0125715939222
 20
-2926.030642105573
 10
-294.0125715939222
 20
-2925.126753305554
  0
HATCH
  5
3B8
330
1F
100
AcDbEntity
  8
Ech.1_5
 62
   252
440
 33554687
370
     5
100
AcDbHatch
 10
0.0
 20
0.0
 30
0.0
210
0.0
220
0.0
230
1.0
  2
SOLID
 70
     1
 71
     1
 91
        1
 92
        3
 72
     0
 73
     1
 93
        4
 10
-293.3459051934897
 20
-2925.126753305554
 10
-293.0125715939222
 20
-2925.126753305554
 10
-293.0125715939222
 20
-2926.030642105573
 10
-293.3459051934897
 20
-2926.030642105573
 97
        0
 75
     0
 76
     1
 98
        0
  0
LWPOLYLINE
  5
3B9
330
1F
100
AcDbEntity
  8
Ech.1_5
 62
     7
370
     9
100
AcDbPolyline
 90
        5
 70
     0
 43
0.0
 10
-293.3459051934897
 20
-2925.126753305554
 10
-293.0125715939222
 20
-2925.126753305554
 10
-293.0125715939222
 20
-2926.030642105573
 10
-293.3459051934897
 20
-2926.030642105573
 10
-293.3459051934897
 20
-2925.126753305554
  0
LWPOLYLINE
  5
3BA
330
1F
100
AcDbEntity
  8
Ech.1_5
 62
   190
370
    20
100
AcDbPolyline
 90
        6
 70
     0
 43
0.0
 10
-315.3792375951216
 20
-2717.999079050656
 10
-242.1564031085374
 20
-2717.998819881076
 10
-235.5622018461723
 20
-2710.807880518124
 10
-241.2061778532949
 20
-2725.190160522847
 10
-234.6116362206955
 20
-2717.998819881076
 10
-201.7564031084152
 20
-2717.999012664987
  0
LWPOLYLINE
  5
3BB
330
1F
100
AcDbEntity
  8
Ech.1_5
 62
   190
370
    20
100
AcDbPolyline
 90
        3
 70
     0
 43
0.0
 10
-244.1447302371638
 20
-2755.25100545537
 10
-322.9945338565242
 20
-2755.25100545537
 10
-330.9945338565242
 20
-2755.25100545537
  0
INSERT
  5
3BC
330
1F
100
AcDbEntity
  8
Ech.1_5
 62
   190
370
    20
100
AcDbBlockReference
  2
cw-line-extremity4
 10
-244.1447302371638
 20
-2755.25100545537
 30
0.0
 50
180.0
  0
LWPOLYLINE
  5
3BD
330
1F
100
AcDbEntity
  8
Ech.1_5
 62
   190
370
    20
100
AcDbPolyline
 90
        3
 70
     0
 43
0.0
 10
-305.5227591140614
 20
-2786.604669971657
 10
-322.9945338565242
 20
-2786.604669971657
 10
-330.9945338565242
 20
-2786.604669971657
  0
INSERT
  5
3BE
330
1F
100
AcDbEntity
  8
Ech.1_5
 62
   190
370
    20
100
AcDbBlockReference
  2
cw-line-extremity4
 10
-305.5227591140614
 20
-2786.604669971657
 30
0.0
 50
180.0
  0
LWPOLYLINE
  5
3BF
330
1F
100
AcDbEntity
  8
Ech.1_5
 62
   190
370
    20
100
AcDbPolyline
 90
        3
 70
     0
 43
0.0
 10
-286.9775469385375
 20
-2731.083883644997
 10
-322.9945338565242
 20
-2731.083883644997
 10
-330.9945338565242
 20
-2731.083883644997
  0
INSERT
  5
3C0
330
1F
100
AcDbEntity
  8
Ech.1_5
 62
   190
370
    20
100
AcDbBlockReference
  2
cw-line-extremity4
 10
-286.9775469385375
 20
-2731.083883644997
 30
0.0
 50
180.0
  0
LWPOLYLINE
  5
3C1
330
1F
100
AcDbEntity
  8
Ech.1_5
 62
   190
370
    20
100
AcDbPolyline
 90
        6
 70
     0
 43
0.0
 10
-315.3792375951216
 20
-3039.155166232908
 10
-242.1564031085374
 20
-3039.154907063329
 10
-235.5622018461723
 20
-3031.963967700376
 10
-241.2061778532949
 20
-3046.346247705099
 10
-234.6116362206955
 20
-3039.154907063329
 10
-201.7564031084152
 20
-3039.15509984724
  0
LWPOLYLINE
  5
3C2
330
1F
100
AcDbEntity
  8
Ech.1_5
 62
   190
370
    20
100
AcDbPolyline
 90
        3
 70
     0
 43
0.0
 10
-194.0037335723795
 20
-2893.763489468021
 10
-190.7791622011293
 20
-2935.989330262951
 10
-182.7791622011293
 20
-2935.989330262951
  0
INSERT
  5
3C3
330
1F
100
AcDbEntity
  8
Ech.1_5
 62
   190
370
    20
100
AcDbBlockReference
  2
cw-line-extremity4
 10
-194.0037335723795
 20
-2893.763489468021
 30
0.0
 50
274.3669099476151
  0
LWPOLYLINE
  5
3C4
330
1F
100
AcDbEntity
  8
Ech.1_5
 62
   190
370
    20
100
AcDbPolyline
 90
        3
 70
     0
 43
0.0
 10
-280.956403108488
 20
-2919.493420740599
 10
-322.9945338565242
 20
-2981.060342944802
 10
-330.9945338565242
 20
-2981.060342944802
  0
INSERT
  5
3C5
330
1F
100
AcDbEntity
  8
Ech.1_5
 62
   190
370
    20
100
AcDbBlockReference
  2
cw-line-extremity4
 10
-280.956403108488
 20
-2919.493420740599
 30
0.0
 50
235.6745886977214
  0
LWPOLYLINE
  5
3C6
330
1F
100
AcDbEntity
  8
Ech.1_5
 62
   202
420
  8519880
370
    50
100
AcDbPolyline
 90
        4
 70
     0
 43
0.0
 10
-293.9407073341132
 20
-2843.937432052635
 10
-285.9471664960842
 20
-2843.922098801638
 42
0.4006337679865642
 10
-280.956403108488
 20
-2839.955975437145
 10
-280.956403108488
 20
-2822.355994530515
  0
LWPOLYLINE
  5
3C7
330
1F
100
AcDbEntity
  8
Ech.1_5
 62
   202
420
  8519880
370
    50
100
AcDbPolyline
 90
        4
 70
     0
 43
0.0
 10
-279.7564031085905
 20
-2814.193980415705
 10
-279.7564031085905
 20
-2820.189633783725
 10
-282.0286482933884
 20
-2821.763526640091
 10
-282.0286482933884
 20
-2829.154898640447
  0
LWPOLYLINE
  5
3C8
330
1F
100
AcDbEntity
  8
Ech.1_5
 62
   202
420
  8519880
370
    50
100
AcDbPolyline
 90
        4
 70
     0
 43
0.0
 10
-279.7564031084698
 20
-2943.744704451095
 10
-279.7564031084698
 20
-2938.549051083052
 10
-282.0286482932676
 20
-2936.975158226709
 10
-282.0286482932676
 20
-2931.58378622633
  0
LWPOLYLINE
  5
3C9
330
1F
100
AcDbEntity
  8
Ech.1_5
 62
   202
420
  8519880
370
    50
100
AcDbPolyline
 90
        4
 70
     0
 43
0.0
 10
-293.9407073341132
 20
-2915.511964125109
 10
-285.9471664960842
 20
-2915.527297376106
 42
-0.4006337679865642
 10
-280.956403108488
 20
-2919.493420740599
 10
-280.956403108488
 20
-2937.093401647229
  0
LWPOLYLINE
  5
3CA
330
1F
100
AcDbEntity
  8
Ech.1_5
 62
   190
370
    20
100
AcDbPolyline
 90
        3
 70
     0
 43
0.0
 10
-296.7968835887648
 20
-2929.725426751415
 10
-322.9945338565242
 20
-2939.134835085661
 10
-330.9945338565242
 20
-2939.134835085661
  0
INSERT
  5
3CB
330
1F
100
AcDbEntity
  8
Ech.1_5
 62
   190
370
    20
100
AcDbBlockReference
  2
cw-line-extremity4
 10
-296.7968835887648
 20
-2929.725426751415
 30
0.0
 50
199.7567624927874
  0
DIMENSION
  5
3CD
102
{ACAD_REACTORS
330
3CE
102
}
330
1F
100
AcDbEntity
  8
Ech.1_5
 62
   190
370
    20
100
AcDbDimension
280
     0
  2
*D70
 10
-293.9407073341132
 20
-2841.904065262403
 30
0.0
 11
-298.4407073341132
 21
-2842.920748657519
 31
0.0
 70
   160
  1
5 mm
 71
     5
 42
2.033366790231866
 73
     0
 74
     0
 75
     0
 53
90.0
  3
Standard
100
AcDbAlignedDimension
 13
-296.3368974873109
 23
-2843.937432052635
 33
0.0
 14
-284.3368974873109
 24
-2841.904065262403
 34
0.0
 50
-90.0
100
AcDbRotatedDimension
1001
ACAD
1000
DSTYLE
1002
{
1070
   178
1070
   190
1070
   271
1070
     0
1070
   147
1040
0.0
1070
   140
1040
5.0
1070
   340
1005
3CC
1070
   144
1040
1.0
1070
    42
1040
0.0
1070
    44
1040
2.0
1070
    41
1040
2.0
1070
   342
1005
1AB
1070
   175
1070
     1
1070
   279
1070
     2
1070
   172
1070
     1
1002
}
  0
DIMENSION
  5
3DE
102
{ACAD_REACTORS
330
3DF
102
}
330
1F
100
AcDbEntity
  8
Ech.1_5
 62
   190
370
    20
100
AcDbDimension
280
     0
  2
*D71
 10
-293.9407073341132
 20
-2915.545330915342
 30
0.0
 11
-298.4407073341132
 21
-2916.562014310459
 31
0.0
 70
   160
  1
5 mm
 71
     5
 42
2.033366790233685
 73
     0
 74
     0
 75
     0
 53
90.0
  3
Standard
100
AcDbAlignedDimension
 13
-296.3368974873109
 23
-2917.578697705575
 33
0.0
 14
-284.3368974873109
 24
-2915.545330915342
 34
0.0
 50
-90.0
100
AcDbRotatedDimension
1001
ACAD
1000
DSTYLE
1002
{
1070
   178
1070
   190
1070
   271
1070
     0
1070
   147
1040
0.0
1070
   140
1040
5.0
1070
   340
1005
3CC
1070
   144
1040
1.0
1070
    42
1040
0.0
1070
    44
1040
2.0
1070
    41
1040
2.0
1070
   342
1005
1AB
1070
   175
1070
     1
1070
   279
1070
     2
1070
   172
1070
     1
1002
}
  0
MTEXT
  5
3EE
330
1F
100
AcDbEntity
  8
Ech.1_5
 62
     4
420
    65535
100
AcDbMText
 10
-236.5203853481555
 20
-3117.556443873847
 30
0.0
 40
5.0
 41
195.3371538540771
 46
0.0
 71
     2
 72
     1
  1
{\fArial|b0|i0;\W1.000000;\H5.000000;\c16711848;Vue en coupe verticale}
 73
     1
 44
1.07999975538982
  0
MTEXT
  5
3EF
330
1F
100
AcDbEntity
  8
Ech.1_5
 62
     4
420
    65535
100
AcDbMText
 10
-108.3923413398177
 20
-3117.489573276787
 30
0.0
 40
5.0
 41
50.91893416259842
 46
0.0
 71
     2
 72
     1
  1
{\fArial|b0|i0;\W1.000000;\H5.000000;\c16711848;Ech 1/5 }
 73
     1
 44
1.07999975538982
  0
MTEXT
  5
3F0
330
1F
100
AcDbEntity
  8
Ech.1_5
 62
     4
420
    65535
100
AcDbMText
 10
-367.9200058742648
 20
-3117.380870755795
 30
0.0
 40
5.0
 41
57.46208719814166
 46
0.0
 71
     2
 72
     1
  1
{\fArial|b0|i0;\W1.000000;\H5.000000;\c16711848;BMBVT40-01}
 73
     1
 44
1.07999975538982
  0
MTEXT
  5
3F1
330
1F
100
AcDbEntity
  8
Ech.1_5
 62
   200
420
 11010303
100
AcDbMText
 10
-277.4328742585185
 20
-3125.963517690529
 30
0.0
 40
2.25
 41
391.75
 46
0.0
 71
     2
 72
     1
  3
{\fArial|b0|i1;\W1.000000;\H2.250000;\c16711848; Il est rappelé à l'utilisateur qui consulte le site et utilise les informations qu'il contient, qu'il doit les utiliser sous sa seule responsabilité en vérifiant leur pertinence, leur cohérence et leur
  1
 non obsolescence.}
 73
     1
 44
1.07999975538982
  0
MTEXT
  5
3F2
330
1F
100
AcDbEntity
  8
Ech.1_5
 62
   200
420
 11010303
100
AcDbMText
 10
-277.4328742585185
 20
-3139.504328847932
 30
0.0
 40
2.75
 41
391.25
 46
0.0
 71
     2
 72
     1
  1
{\fArial|b0|i1;\W1.000000;\H2.750000;\c16711848;www.catalogue-bois-construction.fr}
 73
     1
 44
1.07999975538982
  0
MTEXT
  5
3F3
330
1F
100
AcDbEntity
  8
Ech.1_5
 62
     4
420
    65535
100
AcDbMText
 10
-277.4328742585185
 20
-2657.410088551038
 30
0.0
 40
6.0
 41
388.0
 46
0.0
 71
     2
 72
     1
  1
{\fArial|b0|i0;\W1.000000;\H6.000000;\c16711848;Traversée de paroi - Détail sur Conduit - Compatible niveau étanchéité Ee1}
 73
     1
 44
1.07999975538982
  0
MTEXT
  5
3F4
330
1F
100
AcDbEntity
  8
Ech.1_5
 62
     4
420
    65535
100
AcDbMText
 10
-333.7445338565242
 20
-2728.333883644997
 30
0.0
 40
5.5
 41
128.040702014303
 46
0.0
 71
     3
 72
     1
  1
{\fArial|b0|i0;\W1.000000;\H5.500000;\c16711848;Double-tasseautage bois support de bardage}
 73
     1
 44
1.07999975538982
  0
MTEXT
  5
3F5
330
1F
100
AcDbEntity
  8
Ech.1_5
 62
     4
420
    65535
100
AcDbMText
 10
-333.7445338565242
 20
-2752.50100545537
 30
0.0
 40
5.5
 41
73.49250351114313
 46
0.0
 71
     3
 72
     1
  1
{\fArial|b0|i0;\W1.000000;\H5.500000;\c16711848;Paroi support}
 73
     1
 44
1.07999975538982
  0
MTEXT
  5
3F6
330
1F
100
AcDbEntity
  8
Ech.1_5
 62
     4
420
    65535
100
AcDbMText
 10
-182.7791622011293
 20
-2928.289330394081
 30
0.0
 40
5.5
 41
94.2056508131541
 46
0.0
 71
     1
 72
     1
  1
{\fArial|b0|i0;\W1.000000;\H5.500000;\c16711848;Conduit}\P{\fArial|b0|i0;\W1.000000;\H5.500000;\c16711848;(pente selon paroi support)}
 73
     1
 44
1.07999975538982
  0
MTEXT
  5
3F7
330
1F
100
AcDbEntity
  8
Ech.1_5
 62
     4
420
    65535
100
AcDbMText
 10
-330.9945338565242
 20
-2968.410343207062
 30
0.0
 40
5.5
 41
122.9995030632126
 46
0.0
 71
     3
 72
     1
  1
{\fArial|b0|i0;\W1.000000;\H5.500000;\c16711848;Manchon ou manchette élastique en caoutchouc EPDM - diamètre fonction du fourreau}
 73
     1
 44
1.07999975538982
  0
MTEXT
  5
3F8
330
1F
100
AcDbEntity
  8
Ech.1_5
 62
     4
420
    65535
100
AcDbMText
 10
-330.9945338565242
 20
-2926.484835347921
 30
0.0
 40
5.5
 41
106.1882031679153
 46
0.0
 71
     3
 72
     1
  1
{\fArial|b0|i0;\W1.000000;\H5.500000;\c16711848;Tasseaux à prévoir de part et d'autre du percement pour fixation des lames de bardage}
 73
     1
 44
1.07999975538982
  0
MTEXT
  5
3F9
330
1F
100
AcDbEntity
  8
Ech.1_5
 62
     4
420
    65535
100
AcDbMText
 10
-333.7445338565242
 20
-2773.954670233918
 30
0.0
 40
5.5
 41
110.8085444356034
 46
0.0
 71
     3
 72
     1
  1
{\fArial|b0|i0;\W1.000000;\H5.500000;\c16711848;Bardage bois en lames à recouvrement à mi-bois en pose verticale - épaisseur 18 mm mini}
 73
     1
 44
1.07999975538982
  0
TEXT
  5
3FB
330
1F
100
AcDbEntity
  8
Ech.1_5
 62
   190
100
AcDbText
 10
-453.7040219776016
 20
-3122.353230495679
 30
0.0
 40
5.0
  1
20/11/2020
  7
arial-
100
AcDbText
  0
TEXT
  5
3FC
330
1F
100
AcDbEntity
  8
Ech.1_5
 62
   190
100
AcDbText
 10
-403.736981924532
 20
-2651.299486698099
 30
0.0
 40
6.6
  1
Epaisseur mini selon NF DTU 41.2 - hors exigences feu façade
  7
arial-
100
AcDbText
  0
TEXT
  5
3FE
330
1F
100
AcDbEntity
  8
Ech.1_5
 62
   190
100
AcDbText
 10
-400.0301398835164
 20
-2638.346099581842
 30
0.0
 40
6.6
  1
BARDAGES EN LAMES : lames à mi-bois - pose verticale
  7
arial-b
100
AcDbText
  0
TEXT
  5
400
330
1F
100
AcDbEntity
  8
Ech.1_5
 62
   154
420
    21156
100
AcDbText
 10
-138.9896312228895
 20
-2692.298510314946
 30
0.0
 40
6.0
  1
m
 50
8.975659904339862
 41
0.8000000000000002
  7
tahoma-b
100
AcDbText
  0
TEXT
  5
401
330
1F
100
AcDbEntity
  8
Ech.1_5
 62
   154
420
    21156
100
AcDbText
 10
-145.8411096404187
 20
-2694.545707057017
 30
0.0
 40
6.0
  1
C
 50
20.66888961046989
 41
0.8000000000000002
  7
tahoma-b
100
AcDbText
  0
TEXT
  5
402
330
1F
100
AcDbEntity
  8
Ech.1_5
 62
   154
420
    21156
100
AcDbText
 10
-142.2887205753152
 20
-2693.205574920683
 30
0.0
 40
6.0
  1
o
 50
15.37326472334289
 41
0.8000000000000003
  7
tahoma-b
100
AcDbText
  0
TEXT
  5
403
330
1F
100
AcDbEntity
  8
Ech.1_5
 62
   154
420
    21156
100
AcDbText
 10
-133.7576887372223
 20
-2691.472130241533
 30
0.0
 40
6.0
  1
p
 50
2.547444553701192
 41
0.8000000000000002
  7
tahoma-b
100
AcDbText
  0
TEXT
  5
404
330
1F
100
AcDbEntity
  8
Ech.1_5
 62
   154
420
    21156
100
AcDbText
 10
-130.2978988447951
 20
-2691.318202060453
 30
0.0
 40
6.0
  1
a
 50
357.5885357786796
 41
0.8000000000000002
  7
tahoma-b
100
AcDbText
  0
TEXT
  5
405
330
1F
100
AcDbEntity
  8
Ech.1_5
 62
   154
420
    21156
100
AcDbText
 10
-127.0044057532406
 20
-2691.456900472671
 30
0.0
 40
6.0
  1
t
 50
353.6091644147961
 41
0.8000000000000002
  7
tahoma-b
100
AcDbText
  0
TEXT
  5
406
330
1F
100
AcDbEntity
  8
Ech.1_5
 62
   154
420
    21156
100
AcDbText
 10
-124.8892001074371
 20
-2691.693816224453
 30
0.0
 40
6.0
  1
i
 50
350.9766571715793
 41
0.7999999999999999
  7
tahoma-b
100
AcDbText
  0
TEXT
  5
407
330
1F
100
AcDbEntity
  8
Ech.1_5
 62
   154
420
    21156
100
AcDbText
 10
-123.4464936166794
 20
-2691.922921040008
 30
0.0
 40
6.0
  1
b
 50
347.3646125172069
 41
0.8000000000000002
  7
tahoma-b
100
AcDbText
  0
TEXT
  5
408
330
1F
100
AcDbEntity
  8
Ech.1_5
 62
   154
420
    21156
100
AcDbText
 10
-120.0671538535291
 20
-2692.680484733608
 30
0.0
 40
6.0
  1
l
 50
343.7525678627366
 41
0.8000000000000002
  7
tahoma-b
100
AcDbText
  0
TEXT
  5
409
330
1F
100
AcDbEntity
  8
Ech.1_5
 62
   154
420
    21156
100
AcDbText
 10
-118.6647096936187
 20
-2693.089191735407
 30
0.0
 40
6.0
  1
e
 50
340.2629653357164
 41
0.8000000000000003
  7
tahoma-b
100
AcDbText
  0
TEXT
  5
40A
330
1F
100
AcDbEntity
  8
Ech.1_5
 62
   154
420
    21156
100
AcDbText
 10
-151.9066392237069
 20
-2744.546983286752
 30
0.0
 40
6.0
  1
s
 50
329.3124952401499
 41
0.8000000000000002
  7
tahoma-b
100
AcDbText
  0
TEXT
  5
40B
330
1F
100
AcDbEntity
  8
Ech.1_5
 62
   154
420
    21156
100
AcDbText
 10
-149.1076945441357
 20
-2746.208049531027
 30
0.0
 40
6.0
  1
u
 50
334.6276163794388
 41
0.8000000000000002
  7
tahoma-b
100
AcDbText
  0
TEXT
  5
40C
330
1F
100
AcDbEntity
  8
Ech.1_5
 62
   154
420
    21156
100
AcDbText
 10
-145.4511400973013
 20
-2747.942149907271
 30
0.0
 40
6.0
  1
r
 50
339.5478999136545
 41
0.8000000000000002
  7
tahoma-b
100
AcDbText
  0
TEXT
  5
40D
330
1F
100
AcDbEntity
  8
Ech.1_5
 62
   154
420
    21156
100
AcDbText
 10
-141.3822184735338
 20
-2749.366096243451
 30
0.0
 40
6.0
  1
p
 50
346.7359685598697
 41
0.8000000000000002
  7
tahoma-b
100
AcDbText
  0
TEXT
  5
40E
330
1F
100
AcDbEntity
  8
Ech.1_5
 62
   154
420
    21156
100
AcDbText
 10
-137.5244118910716
 20
-2750.275486308978
 30
0.0
 40
6.0
  1
a
 50
352.354810907114
 41
0.7999999999999999
  7
tahoma-b
100
AcDbText
  0
TEXT
  5
40F
330
1F
100
AcDbEntity
  8
Ech.1_5
 62
   154
420
    21156
100
AcDbText
 10
-133.8026944094625
 20
-2750.775057328937
 30
0.0
 40
6.0
  1
r
 50
357.0624896305035
 41
0.8000000000000002
  7
tahoma-b
100
AcDbText
  0
TEXT
  5
410
330
1F
100
AcDbEntity
  8
Ech.1_5
 62
   154
420
    21156
100
AcDbText
 10
-131.0937519335687
 20
-2750.91406453411
 30
0.0
 40
6.000000000000001
  1
o
 50
1.861284750917878
 41
0.8
  7
tahoma-b
100
AcDbText
  0
TEXT
  5
411
330
1F
100
AcDbEntity
  8
Ech.1_5
 62
   154
420
    21156
100
AcDbText
 10
-127.2156321521707
 20
-2750.788037355092
 30
0.0
 40
6.0
  1
i
 50
6.083009645690676
 41
0.8000000000000002
  7
tahoma-b
100
AcDbText
  0
TEXT
  5
412
330
1F
100
AcDbEntity
  8
Ech.1_5
 62
   154
420
    21156
100
AcDbText
 10
-123.7249164700264
 20
-2750.344130979556
 30
0.0
 40
5.999999999999999
  1
b
 50
12.69400806613897
 41
0.8000000000000003
  7
tahoma-b
100
AcDbText
  0
TEXT
  5
413
330
1F
100
AcDbEntity
  8
Ech.1_5
 62
   154
420
    21156
100
AcDbText
 10
-119.8582536288766
 20
-2749.473165772535
 30
0.0
 40
6.0
  1
o
 50
18.40396681049693
 41
0.8000000000000002
  7
tahoma-b
100
AcDbText
  0
TEXT
  5
414
330
1F
100
AcDbEntity
  8
Ech.1_5
 62
   154
420
    21156
100
AcDbText
 10
-116.1765410531367
 20
-2748.248139895928
 30
0.0
 40
5.999999999999999
  1
i
 50
22.62569170516809
 41
0.8
  7
tahoma-b
100
AcDbText
  0
TEXT
  5
415
330
1F
100
AcDbEntity
  8
Ech.1_5
 62
   154
420
    21156
100
AcDbText
 10
-114.4044840195533
 20
-2747.509571291673
 30
0.0
 40
5.999999999999999
  1
s
 50
26.39183478800249
 41
0.8000000000000003
  7
tahoma-b
100
AcDbText
  0
TEXT
  5
416
330
1F
100
AcDbEntity
  8
Ech.1_5
 62
   154
420
    21156
100
AcDbText
 10
-140.136203890455
 20
-2735.688020073468
 30
0.0
 40
9.999999999999998
  1
E
 50
345.2222144971133
 41
0.8
  7
tahoma-b
100
AcDbText
  0
TEXT
  5
417
330
1F
100
AcDbEntity
  8
Ech.1_5
 62
   154
420
    21156
100
AcDbText
 10
-133.8967428954904
 20
-2737.33396902895
 30
0.0
 40
10.0
  1
e
 50
359.2406769519385
 41
0.8
  7
tahoma-b
100
AcDbText
  0
TEXT
  5
418
330
1F
100
AcDbEntity
  8
Ech.1_5
 62
   154
420
    21156
100
AcDbText
 10
-127.6515194475844
 20
-2737.416739868109
 30
0.0
 40
10.0
  1
1
 50
13.4889499997951
 41
0.8
  7
tahoma-b
100
AcDbText
  0
VIEWPORT
  5
233
330
22D
100
AcDbEntity
 67
     1
  8
0
100
AcDbViewport
 10
98.8
 20
135.8
 30
0.0
 40
209.0608
 41
287.3528000000001
 68
     1
 69
     1
 12
128.5
 22
97.5
 13
0.0
 23
0.0
 14
10.0
 24
10.0
 15
10.0
 25
10.0
 16
0.0
 26
0.0
 36
1.0
 17
0.0
 27
0.0
 37
0.0
 42
50.0
 43
0.0
 44
0.0
 45
222.18
 50
0.0
 51
0.0
 72
   100
 90
   557152
  1

281
     0
 71
     1
 74
     0
110
0.0
120
0.0
130
0.0
111
1.0
121
0.0
131
0.0
112
0.0
122
1.0
132
0.0
 79
     0
146
0.0
170
     0
 61
     5
348
2F
292
     1
282
     1
141
0.0
142
0.0
 63
   256
361
234
  0
VIEWPORT
  5
235
330
22D
100
AcDbEntity
 67
     1
  8
0
 60
     1
100
AcDbViewport
 10
98.8
 20
135.8
 30
0.0
 40
197.6
 41
271.6
 68
     2
 69
     2
 12
-277.4328742585185
 22
-2900.046099581818
 13
0.0
 23
0.0
 14
10.0
 24
10.0
 15
10.0
 25
10.0
 16
0.0
 26
0.0
 36
1.0
 17
0.0
 27
0.0
 37
0.0
 42
50.0
 43
0.0
 44
0.0
 45
543.2
 50
0.0
 51
0.0
 72
   100
 90
   557152
  1

281
     0
 71
     1
 74
     0
110
0.0
120
0.0
130
0.0
111
1.0
121
0.0
131
0.0
112
0.0
122
1.0
132
0.0
 79
     0
146
0.0
170
     0
 61
     5
348
2F
292
     1
282
     1
141
0.0
142
0.0
 63
   256
  0
ENDSEC
  0
SECTION
  2
OBJECTS
  0
DICTIONARY
  5
C
330
0
100
AcDbDictionary
281
     1
  3
ACAD_DETAILVIEWSTYLE
350
420
  3
ACAD_GROUP
350
D
  3
ACAD_IMAGE_DICT
350
246
  3
ACAD_IMAGE_VARS
350
6F
  3
ACAD_LAYOUT
350
1A
  3
ACAD_MATERIAL
350
43
  3
ACAD_MLEADERSTYLE
350
6B
  3
ACAD_MLINESTYLE
350
17
  3
ACAD_PLOTSETTINGS
350
19
  3
ACAD_PLOTSTYLENAME
350
E
  3
ACAD_SCALELIST
350
47
  3
ACAD_SECTIONVIEWSTYLE
350
421
  3
ACAD_TABLESTYLE
350
69
  3
ACAD_VISUALSTYLE
350
2A
  3
ACDB_RECOMPOSE_DATA
350
41D
  3
AcDbVariableDictionary
350
419
  0
SUN
  5
6D
330
29
100
AcDbSun
 90
        1
290
     0
 63
     7
421
 16777215
 40
1.0
291
     1
 91
  2455826
 92
 54000000
292
     0
 70
     2
 71
   256
280
     1
  0
IMAGEDEF_REACTOR
  5
249
330
248
100
AcDbRasterImageDefReactor
 90
        2
330
248
  0
IMAGEDEF_REACTOR
  5
24C
330
24B
100
AcDbRasterImageDefReactor
 90
        2
330
24B
  0
IMAGEDEF_REACTOR
  5
24F
330
24E
100
AcDbRasterImageDefReactor
 90
        2
330
24E
  0
SUN
  5
234
330
233
100
AcDbSun
 90
        1
290
     0
 63
     7
421
 16777215
 40
1.0
291
     1
 91
  2455826
 92
 54000000
292
     0
 70
     2
 71
   256
280
     1
  0
DICTIONARY
  5
420
102
{ACAD_REACTORS
330
C
102
}
330
C
100
AcDbDictionary
281
     1
  0
DICTIONARY
  5
D
102
{ACAD_REACTORS
330
C
102
}
330
C
100
AcDbDictionary
281
     1
  3
DIM70
350
3CE
  3
DIM71
350
3DF
  0
DICTIONARY
  5
246
102
{ACAD_REACTORS
330
C
102
}
330
C
100
AcDbDictionary
281
     1
  3
C:\Users\MAIFFR~1\AppData\Local\Temp\EXE_LOGO_FBF_soutien_Q_L.jpg1
350
24A
  3
C:\Users\MAIFFR~1\AppData\Local\Temp\fcba.jpg0
350
247
  3
C:\Users\MAIFFR~1\AppData\Local\Temp\logo_codifab_baseline_soutien.jpg2
350
24D
  0
RASTERVARIABLES
  5
6F
102
{ACAD_REACTORS
330
C
102
}
330
C
100
AcDbRasterVariables
 90
        0
 70
     0
 71
     1
 72
     1
  0
DICTIONARY
  5
1A
102
{ACAD_REACTORS
330
C
102
}
330
C
100
AcDbDictionary
281
     1
  3
CompleteLayout
350
1E
  3
Model
350
22
  3
PrintFrame_41
350
22E
  0
DICTIONARY
  5
43
102
{ACAD_REACTORS
330
C
102
}
330
C
100
AcDbDictionary
281
     1
  3
ByBlock
350
45
  3
ByLayer
350
44
  3
Global
350
46
  0
DICTIONARY
  5
6B
102
{ACAD_REACTORS
330
C
102
}
330
C
100
AcDbDictionary
281
     1
  3
Standard
350
6C
  0
DICTIONARY
  5
17
102
{ACAD_REACTORS
330
C
102
}
330
C
100
AcDbDictionary
281
     1
  3
Standard
350
18
  0
DICTIONARY
  5
19
102
{ACAD_REACTORS
330
C
102
}
330
C
100
AcDbDictionary
281
     1
  3
PlotSettings_
350
231
  0
ACDBDICTIONARYWDFLT
  5
E
102
{ACAD_REACTORS
330
C
102
}
330
C
100
AcDbDictionary
281
     1
  3
Normal
350
F
100
AcDbDictionaryWithDefault
340
F
  0
DICTIONARY
  5
47
102
{ACAD_REACTORS
330
C
102
}
330
C
100
AcDbDictionary
281
     1
  3
A0
350
48
  3
A1
350
49
  3
A2
350
4A
  3
A3
350
4B
  3
A4
350
4C
  3
A5
350
4D
  3
A6
350
4E
  3
A7
350
4F
  3
A8
350
50
  3
A9
350
51
  3
B0
350
52
  3
B1
350
53
  3
B2
350
54
  3
B3
350
55
  3
B4
350
56
  3
B5
350
57
  3
B6
350
58
  3
B7
350
59
  3
B8
350
5A
  3
B9
350
5B
  3
C0
350
5C
  3
C1
350
5D
  3
C2
350
5E
  3
C3
350
5F
  3
C4
350
60
  3
C5
350
61
  3
C6
350
62
  3
C7
350
63
  3
C8
350
64
  3
C9
350
65
  3
D0
350
66
  3
D1
350
67
  3
D2
350
68
  0
DICTIONARY
  5
421
102
{ACAD_REACTORS
330
C
102
}
330
C
100
AcDbDictionary
281
     1
  0
DICTIONARY
  5
69
102
{ACAD_REACTORS
330
C
102
}
330
C
100
AcDbDictionary
281
     1
  3
Standard
350
6A
  0
DICTIONARY
  5
2A
102
{ACAD_REACTORS
330
C
102
}
330
C
100
AcDbDictionary
281
     1
  3
2dWireframe
350
2F
  3
Basic
350
32
  3
Brighten
350
36
  3
ColorChange
350
3A
  3
Conceptual
350
34
  3
Dim
350
35
  3
EdgeColorOff
350
3D
  3
Facepattern
350
39
  3
Flat
350
2B
  3
FlatWithEdges
350
2C
  3
Gouraud
350
2D
  3
GouraudWithEdges
350
2E
  3
Hidden
350
31
  3
JitterOff
350
3B
  3
Linepattern
350
38
  3
OverhangOff
350
3C
  3
Realistic
350
33
  3
Shaded
350
42
  3
Shaded with edges
350
41
  3
Shades of Gray
350
3E
  3
Sketchy
350
3F
  3
Thicken
350
37
  3
Wireframe
350
30
  3
X-Ray
350
40
  0
XRECORD
  5
41D
102
{ACAD_REACTORS
330
C
102
}
330
C
100
AcDbXrecord
280
     1
 90
        1
330
6A
  0
DICTIONARY
  5
419
102
{ACAD_REACTORS
330
C
102
}
330
C
100
AcDbDictionary
281
     1
  3
CANNOSCALE
350
41A
  3
CMLEADERSTYLE
350
41F
  3
CTABLESTYLE
350
41E
  3
WIPEOUTFRAME
350
422
  0
GROUP
  5
3CE
102
{ACAD_REACTORS
330
D
102
}
330
D
100
AcDbGroup
300

 70
     0
 71
     1
340
3CD
  0
GROUP
  5
3DF
102
{ACAD_REACTORS
330
D
102
}
330
D
100
AcDbGroup
300

 70
     0
 71
     1
340
3DE
  0
IMAGEDEF
  5
24A
102
{ACAD_REACTORS
330
246
330
24C
102
}
330
246
100
AcDbRasterImageDef
 90
        0
  1
EXE_LOGO_FBF_soutien_Q_L.jpg
 10
200.0
 20
133.0
 11
0.3527336860670194
 21
0.3527336860670194
280
     1
281
     3
  0
IMAGEDEF
  5
247
102
{ACAD_REACTORS
330
246
330
249
102
}
330
246
100
AcDbRasterImageDef
 90
        0
  1
fcba.jpg
 10
247.0
 20
171.0
 11
0.3527336860670194
 21
0.3527336860670194
280
     1
281
     3
  0
IMAGEDEF
  5
24D
102
{ACAD_REACTORS
330
246
330
24F
102
}
330
246
100
AcDbRasterImageDef
 90
        0
  1
logo_codifab_baseline_soutien.jpg
 10
1326.0
 20
580.0
 11
0.08466683600033867
 21
0.08466683600033867
280
     1
281
     3
  0
LAYOUT
  5
1E
102
{ACAD_REACTORS
330
1A
102
}
330
1A
100
AcDbPlotSettings
  1

  2
none_device
  4

  6

 40
0.0
 41
0.0
 42
0.0
 43
0.0
 44
0.0
 45
0.0
 46
0.0
 47
0.0
 48
0.0
 49
0.0
140
0.0
141
0.0
142
1.0
143
1.0
 70
   688
 72
     0
 73
     0
 74
     5
  7

 75
    16
 76
     0
 77
     2
 78
   300
147
1.0
148
0.0
149
0.0
100
AcDbLayout
  1
CompleteLayout
 70
     1
 71
     1
 10
0.0
 20
0.0
 11
12.0
 21
9.0
 12
0.0
 22
0.0
 32
0.0
 14
1.000000000000000E+20
 24
1.000000000000000E+20
 34
1.000000000000000E+20
 15
-1.000000000000000E+20
 25
-1.000000000000000E+20
 35
-1.000000000000000E+20
146
0.0
 13
0.0
 23
0.0
 33
0.0
 16
1.0
 26
0.0
 36
0.0
 17
0.0
 27
1.0
 37
0.0
 76
     0
330
1B
  0
LAYOUT
  5
22
102
{ACAD_REACTORS
330
1A
102
}
330
1A
100
AcDbPlotSettings
  1

  2
none_device
  4
Letter_(8.50_x_11.00_Inches)
  6

 40
6.35
 41
6.35
 42
6.35000508
 43
6.35000508
 44
215.9
 45
279.4
 46
0.0
 47
0.0
 48
0.0
 49
0.0
140
0.0
141
0.0
142
1.0
143
1.0
 70
  1712
 72
     0
 73
     0
 74
     0
  7

 75
     0
 76
     0
 77
     2
 78
   300
147
1.0
148
0.0
149
0.0
100
AcDbLayout
  1
Model
 70
     1
 71
     0
 10
0.0
 20
0.0
 11
12.0
 21
9.0
 12
0.0
 22
0.0
 32
0.0
 14
-474.4328742585185
 24
-3171.046099581818
 34
0.0
 15
-80.43287425851489
 25
-2629.046099581818
 35
0.0
146
0.0
 13
0.0
 23
0.0
 33
0.0
 16
1.0
 26
0.0
 36
0.0
 17
0.0
 27
1.0
 37
0.0
 76
     0
330
1F
331
29
  0
LAYOUT
  5
22E
102
{ACAD_REACTORS
330
1A
102
}
330
1A
100
AcDbPlotSettings
  1
PlotSettings_
  2
Custom Device
  4
Custom_210.000000x297.000000_12.700000_12.700000_6.200000_6.200000
  6

 40
6.2
 41
12.7
 42
6.2
 43
12.7
 44
210.0
 45
297.0
 46
0.0
 47
0.0
 48
0.0
 49
0.0
140
0.0
141
0.0
142
1.0
143
1.0
 70
   752
 72
     1
 73
     0
 74
     5
  7

 75
    16
 76
     0
 77
     2
 78
   300
147
1.0
148
0.0
149
0.0
100
AcDbLayout
  1
PrintFrame_41
 70
     0
 71
     2
 10
-20.0
 20
-7.5
 11
277.0
 21
202.5
 12
0.0
 22
0.0
 32
0.0
 14
0.0
 24
0.0
 34
0.0
 15
197.6
 25
271.6
 35
0.0
146
0.0
 13
0.0
 23
0.0
 33
0.0
 16
1.0
 26
0.0
 36
0.0
 17
0.0
 27
1.0
 37
0.0
 76
     0
330
22D
331
233
1001
PLOTTRANSPARENCY
1071
        1
1000
layout-user-created
1070
     1
1000
layout-line-weight-scale
1042
1.0
  0
MATERIAL
  5
45
102
{ACAD_REACTORS
330
43
102
}
330
43
100
AcDbMaterial
  1
ByBlock
 72
     1
 94
      127
  0
MATERIAL
  5
44
102
{ACAD_REACTORS
330
43
102
}
330
43
100
AcDbMaterial
  1
ByLayer
 72
     1
 94
      127
  0
MATERIAL
  5
46
102
{ACAD_REACTORS
330
43
102
}
330
43
100
AcDbMaterial
  1
Global
 72
     1
 94
      127
  0
MLEADERSTYLE
  5
6C
102
{ACAD_REACTORS
330
6B
102
}
330
6B
100
AcDbMLeaderStyle
179
     2
170
     2
171
     1
172
     0
 90
        2
 40
0.0
 41
0.0
173
     1
 91
-1056964608
340
14
 92
       -2
290
     1
 42
0.09
291
     1
 43
0.36
  3
Standard
341
0
 44
0.18
300

342
11
174
     1
178
     6
175
     1
176
     0
 93
-1056964608
 45
0.18
292
     0
297
     0
 46
0.18
343
0
 94
-1056964608
 47
1.0
 49
1.0
140
1.0
293
     1
141
0.0
294
     1
177
     0
142
1.0
295
     0
296
     0
143
0.125
271
     0
272
     9
273
     9
298
     0
  0
MLINESTYLE
  5
18
102
{ACAD_REACTORS
330
17
102
}
330
17
100
AcDbMlineStyle
  2
Standard
 70
     0
  3

 62
   256
 51
90.0
 52
90.0
 71
     2
 49
0.5
 62
   256
  6
BYLAYER
 49
-0.5
 62
   256
  6
BYLAYER
  0
PLOTSETTINGS
  5
231
102
{ACAD_REACTORS
330
19
102
}
330
19
100
AcDbPlotSettings
  1
PlotSettings_
  2
Custom Device
  4
Custom_210.000000x297.000000_12.700000_12.700000_6.200000_6.200000
  6

 40
6.2
 41
12.7
 42
6.2
 43
12.7
 44
210.0
 45
297.0
 46
0.0
 47
0.0
 48
0.0
 49
0.0
140
0.0
141
0.0
142
1.0
143
1.0
 70
   752
 72
     1
 73
     0
 74
     5
  7

 75
    16
 76
     0
 77
     2
 78
   300
147
1.0
148
0.0
149
0.0
1001
PLOTTRANSPARENCY
1071
        1
1000
layout-user-created
1070
     1
1000
layout-line-weight-scale
1042
1.0
  0
ACDBPLACEHOLDER
  5
F
102
{ACAD_REACTORS
330
E
102
}
330
E
  0
SCALE
  5
48
102
{ACAD_REACTORS
330
47
102
}
330
47
100
AcDbScale
 70
     0
300
1:1
140
1.0
141
1.0
290
     1
  0
SCALE
  5
49
102
{ACAD_REACTORS
330
47
102
}
330
47
100
AcDbScale
 70
     0
300
1:2
140
1.0
141
2.0
290
     0
  0
SCALE
  5
4A
102
{ACAD_REACTORS
330
47
102
}
330
47
100
AcDbScale
 70
     0
300
1:4
140
1.0
141
4.0
290
     0
  0
SCALE
  5
4B
102
{ACAD_REACTORS
330
47
102
}
330
47
100
AcDbScale
 70
     0
300
1:5
140
1.0
141
5.0
290
     0
  0
SCALE
  5
4C
102
{ACAD_REACTORS
330
47
102
}
330
47
100
AcDbScale
 70
     0
300
1:8
140
1.0
141
8.0
290
     0
  0
SCALE
  5
4D
102
{ACAD_REACTORS
330
47
102
}
330
47
100
AcDbScale
 70
     0
300
1:10
140
1.0
141
10.0
290
     0
  0
SCALE
  5
4E
102
{ACAD_REACTORS
330
47
102
}
330
47
100
AcDbScale
 70
     0
300
1:16
140
1.0
141
16.0
290
     0
  0
SCALE
  5
4F
102
{ACAD_REACTORS
330
47
102
}
330
47
100
AcDbScale
 70
     0
300
1:20
140
1.0
141
20.0
290
     0
  0
SCALE
  5
50
102
{ACAD_REACTORS
330
47
102
}
330
47
100
AcDbScale
 70
     0
300
1:30
140
1.0
141
30.0
290
     0
  0
SCALE
  5
51
102
{ACAD_REACTORS
330
47
102
}
330
47
100
AcDbScale
 70
     0
300
1:40
140
1.0
141
40.0
290
     0
  0
SCALE
  5
52
102
{ACAD_REACTORS
330
47
102
}
330
47
100
AcDbScale
 70
     0
300
1:50
140
1.0
141
50.0
290
     0
  0
SCALE
  5
53
102
{ACAD_REACTORS
330
47
102
}
330
47
100
AcDbScale
 70
     0
300
1:100
140
1.0
141
100.0
290
     0
  0
SCALE
  5
54
102
{ACAD_REACTORS
330
47
102
}
330
47
100
AcDbScale
 70
     0
300
2:1
140
2.0
141
1.0
290
     0
  0
SCALE
  5
55
102
{ACAD_REACTORS
330
47
102
}
330
47
100
AcDbScale
 70
     0
300
4:1
140
4.0
141
1.0
290
     0
  0
SCALE
  5
56
102
{ACAD_REACTORS
330
47
102
}
330
47
100
AcDbScale
 70
     0
300
8:1
140
8.0
141
1.0
290
     0
  0
SCALE
  5
57
102
{ACAD_REACTORS
330
47
102
}
330
47
100
AcDbScale
 70
     0
300
10:1
140
10.0
141
1.0
290
     0
  0
SCALE
  5
58
102
{ACAD_REACTORS
330
47
102
}
330
47
100
AcDbScale
 70
     0
300
100:1
140
100.0
141
1.0
290
     0
  0
SCALE
  5
59
102
{ACAD_REACTORS
330
47
102
}
330
47
100
AcDbScale
 70
     0
300
1/128" = 1'-0"
140
0.0078125
141
12.0
290
     0
  0
SCALE
  5
5A
102
{ACAD_REACTORS
330
47
102
}
330
47
100
AcDbScale
 70
     0
300
1/64" = 1'-0"
140
0.015625
141
12.0
290
     0
  0
SCALE
  5
5B
102
{ACAD_REACTORS
330
47
102
}
330
47
100
AcDbScale
 70
     0
300
1/32" = 1'-0"
140
0.03125
141
12.0
290
     0
  0
SCALE
  5
5C
102
{ACAD_REACTORS
330
47
102
}
330
47
100
AcDbScale
 70
     0
300
1/16" = 1'-0"
140
0.0625
141
12.0
290
     0
  0
SCALE
  5
5D
102
{ACAD_REACTORS
330
47
102
}
330
47
100
AcDbScale
 70
     0
300
3/32" = 1'-0"
140
0.09375
141
12.0
290
     0
  0
SCALE
  5
5E
102
{ACAD_REACTORS
330
47
102
}
330
47
100
AcDbScale
 70
     0
300
1/8" = 1'-0"
140
0.125
141
12.0
290
     0
  0
SCALE
  5
5F
102
{ACAD_REACTORS
330
47
102
}
330
47
100
AcDbScale
 70
     0
300
3/16" = 1'-0"
140
0.1875
141
12.0
290
     0
  0
SCALE
  5
60
102
{ACAD_REACTORS
330
47
102
}
330
47
100
AcDbScale
 70
     0
300
1/4" = 1'-0"
140
0.25
141
12.0
290
     0
  0
SCALE
  5
61
102
{ACAD_REACTORS
330
47
102
}
330
47
100
AcDbScale
 70
     0
300
3/8" = 1'-0"
140
0.375
141
12.0
290
     0
  0
SCALE
  5
62
102
{ACAD_REACTORS
330
47
102
}
330
47
100
AcDbScale
 70
     0
300
1/2" = 1'-0"
140
0.5
141
12.0
290
     0
  0
SCALE
  5
63
102
{ACAD_REACTORS
330
47
102
}
330
47
100
AcDbScale
 70
     0
300
3/4" = 1'-0"
140
0.75
141
12.0
290
     0
  0
SCALE
  5
64
102
{ACAD_REACTORS
330
47
102
}
330
47
100
AcDbScale
 70
     0
300
1" = 1'-0"
140
1.0
141
12.0
290
     0
  0
SCALE
  5
65
102
{ACAD_REACTORS
330
47
102
}
330
47
100
AcDbScale
 70
     0
300
1-1/2" = 1'-0"
140
1.5
141
12.0
290
     0
  0
SCALE
  5
66
102
{ACAD_REACTORS
330
47
102
}
330
47
100
AcDbScale
 70
     0
300
3" = 1'-0"
140
3.0
141
12.0
290
     0
  0
SCALE
  5
67
102
{ACAD_REACTORS
330
47
102
}
330
47
100
AcDbScale
 70
     0
300
6" = 1'-0"
140
6.0
141
12.0
290
     0
  0
SCALE
  5
68
102
{ACAD_REACTORS
330
47
102
}
330
47
100
AcDbScale
 70
     0
300
1'-0" = 1'-0"
140
12.0
141
12.0
290
     0
  0
TABLESTYLE
  5
6A
102
{ACAD_REACTORS
330
69
102
}
102
{ACAD_XDICTIONARY
360
41B
102
}
330
69
100
AcDbTableStyle
  3
Standard
 70
     0
 71
     0
 40
0.06
 41
0.06
280
     0
281
     0
  7
Standard
140
0.18
170
     2
 62
     0
 63
   257
283
     0
 90
        4
 91
        0
  1

274
    -2
284
     1
 64
     0
275
    -2
285
     1
 65
     0
276
    -2
286
     1
 66
     0
277
    -2
287
     1
 67
     0
278
    -2
288
     1
 68
     0
279
    -2
289
     1
 69
     0
  7
Standard
140
0.25
170
     5
 62
     0
 63
   257
283
     0
 90
        4
 91
        0
  1

274
    -2
284
     1
 64
     0
275
    -2
285
     1
 65
     0
276
    -2
286
     1
 66
     0
277
    -2
287
     1
 67
     0
278
    -2
288
     1
 68
     0
279
    -2
289
     1
 69
     0
  7
Standard
140
0.18
170
     5
 62
     0
 63
   257
283
     0
 90
        4
 91
        0
  1

274
    -2
284
     1
 64
     0
275
    -2
285
     1
 65
     0
276
    -2
286
     1
 66
     0
277
    -2
287
     1
 67
     0
278
    -2
288
     1
 68
     0
279
    -2
289
     1
 69
     0
  0
VISUALSTYLE
  5
2F
102
{ACAD_REACTORS
330
2A
102
}
330
2A
100
AcDbVisualStyle
  2
2dWireframe
 70
     4
177
     3
291
     0
 70
    58
 90
        0
176
     1
 90
        2
176
     1
 90
        0
176
     1
 90
        0
176
     1
 40
0.6
176
     1
 40
30.0
176
     1
 62
     7
420
 16777215
176
     1
 90
        1
176
     1
 90
        4
176
     1
 62
     7
176
     1
 62
   257
176
     1
 90
        1
176
     1
 90
        1
176
     1
 40
1.0
176
     1
 90
        0
176
     1
 62
   257
176
     1
 40
1.0
176
     1
 90
        1
176
     1
 90
        6
176
     1
 90
        2
176
     1
 62
     7
176
     1
 90
        5
176
     1
 90
        0
176
     1
 90
        0
176
     1
290
     0
176
     1
 90
        1
176
     1
 40
0.0
176
     1
 90
        0
176
     1
290
     1
176
     1
290
     1
176
     1
290
     0
176
     1
290
     0
176
     1
290
     0
176
     1
290
     0
176
     1
290
     0
176
     1
290
     0
176
     1
290
     0
176
     1
 90
       50
176
     1
 40
0.0
176
     1
 40
1.0
176
     1
 90
        0
176
     1
 62
    18
420
        0
176
     1
 90
       50
176
     1
 90
        3
176
     1
 62
     5
420
      255
176
     1
290
     0
176
     1
 90
       50
176
     1
 90
       50
176
     1
 90
       50
176
     1
290
     0
176
     1
 90
       50
176
     1
 62
   256
176
     0
 40
1.0
176
     0
 90
        2
176
     1
  1
strokes_ogs.tif
176
     1
290
     0
176
     1
 40
1.0
176
     1
 40
1.0
176
     1
  0
VISUALSTYLE
  5
32
102
{ACAD_REACTORS
330
2A
102
}
330
2A
100
AcDbVisualStyle
  2
Basic
 70
     7
177
     3
291
     1
 70
    58
 90
        1
176
     1
 90
        0
176
     1
 90
        1
176
     1
 90
        0
176
     1
 40
0.6
176
     1
 40
30.0
176
     1
 62
     7
420
 16777215
176
     1
 90
        0
176
     1
 90
        4
176
     1
 62
     7
176
     1
 62
   257
176
     1
 90
        1
176
     1
 90
        1
176
     1
 40
1.0
176
     1
 90
        8
176
     1
 62
     7
176
     1
 40
1.0
176
     1
 90
        1
176
     1
 90
        6
176
     1
 90
        2
176
     1
 62
     7
176
     1
 90
        5
176
     1
 90
        0
176
     1
 90
        0
176
     1
290
     0
176
     1
 90
        1
176
     1
 40
0.0
176
     1
 90
        0
176
     1
290
     0
176
     1
290
     1
176
     1
290
     1
176
     1
290
     0
176
     1
290
     0
176
     1
290
     0
176
     1
290
     0
176
     1
290
     0
176
     1
290
     0
176
     1
 90
       50
176
     1
 40
0.0
176
     1
 40
1.0
176
     1
 90
        0
176
     1
 62
    18
420
        0
176
     1
 90
       50
176
     1
 90
        3
176
     1
 62
     5
420
      255
176
     1
290
     0
176
     1
 90
       50
176
     1
 90
       50
176
     1
 90
       50
176
     1
290
     0
176
     1
 90
       50
176
     1
 62
   256
176
     0
 40
1.0
176
     0
 90
        2
176
     1
  1
strokes_ogs.tif
176
     1
290
     0
176
     1
 40
1.0
176
     1
 40
1.0
176
     1
  0
VISUALSTYLE
  5
36
102
{ACAD_REACTORS
330
2A
102
}
330
2A
100
AcDbVisualStyle
  2
Brighten
 70
    12
177
     3
291
     1
 70
    58
 90
        2
176
     1
 90
        2
176
     1
 90
        0
176
     1
 90
        0
176
     1
 40
0.6
176
     1
 40
30.0
176
     1
 62
     7
420
 16777215
176
     1
 90
        1
176
     1
 90
        4
176
     1
 62
     7
176
     1
 62
   257
176
     1
 90
        1
176
     1
 90
        1
176
     1
 40
1.0
176
     1
 90
        8
176
     1
 62
     7
176
     1
 40
1.0
176
     1
 90
        1
176
     1
 90
        6
176
     1
 90
        2
176
     1
 62
     7
176
     1
 90
        5
176
     1
 90
        0
176
     1
 90
        0
176
     1
290
     0
176
     1
 90
        1
176
     1
 40
50.0
176
     1
 90
        0
176
     1
290
     0
176
     1
290
     1
176
     1
290
     1
176
     1
290
     0
176
     1
290
     0
176
     1
290
     0
176
     1
290
     0
176
     1
290
     0
176
     1
290
     0
176
     1
 90
       50
176
     1
 40
0.0
176
     1
 40
1.0
176
     1
 90
        0
176
     1
 62
    18
420
        0
176
     1
 90
       50
176
     1
 90
        3
176
     1
 62
     5
420
      255
176
     1
290
     0
176
     1
 90
       50
176
     1
 90
       50
176
     1
 90
       50
176
     1
290
     0
176
     1
 90
       50
176
     1
 62
   256
176
     0
 40
1.0
176
     0
 90
        2
176
     1
  1
strokes_ogs.tif
176
     1
290
     0
176
     1
 40
1.0
176
     1
 40
1.0
176
     1
  0
VISUALSTYLE
  5
3A
102
{ACAD_REACTORS
330
2A
102
}
330
2A
100
AcDbVisualStyle
  2
ColorChange
 70
    16
177
     3
291
     1
 70
    58
 90
        2
176
     1
 90
        2
176
     1
 90
        3
176
     1
 90
        0
176
     1
 40
0.6
176
     1
 40
30.0
176
     1
 62
     8
420
  8421504
176
     1
 90
        1
176
     1
 90
        4
176
     1
 62
     7
176
     1
 62
   257
176
     1
 90
        1
176
     1
 90
        1
176
     1
 40
1.0
176
     1
 90
        8
176
     1
 62
     8
420
  8421504
176
     1
 40
1.0
176
     1
 90
        1
176
     1
 90
        6
176
     1
 90
        2
176
     1
 62
     7
176
     1
 90
        5
176
     1
 90
        0
176
     1
 90
        0
176
     1
290
     0
176
     1
 90
        1
176
     1
 40
0.0
176
     1
 90
        0
176
     1
290
     0
176
     1
290
     1
176
     1
290
     1
176
     1
290
     0
176
     1
290
     0
176
     1
290
     0
176
     1
290
     0
176
     1
290
     0
176
     1
290
     0
176
     1
 90
       50
176
     1
 40
0.0
176
     1
 40
1.0
176
     1
 90
        0
176
     1
 62
    18
420
        0
176
     1
 90
       50
176
     1
 90
        3
176
     1
 62
     5
420
      255
176
     1
290
     0
176
     1
 90
       50
176
     1
 90
       50
176
     1
 90
       50
176
     1
290
     0
176
     1
 90
       50
176
     1
 62
   256
176
     0
 40
1.0
176
     0
 90
        2
176
     1
  1
strokes_ogs.tif
176
     1
290
     0
176
     1
 40
1.0
176
     1
 40
1.0
176
     1
  0
VISUALSTYLE
  5
34
102
{ACAD_REACTORS
330
2A
102
}
330
2A
100
AcDbVisualStyle
  2
Conceptual
 70
     9
177
     3
291
     0
 70
    58
 90
        3
176
     1
 90
        2
176
     1
 90
        0
176
     1
 90
        0
176
     1
 40
0.6
176
     1
 40
30.0
176
     1
 62
     7
420
 16777215
176
     1
 90
        2
176
     1
 90
        2
176
     1
 62
     7
176
     1
 62
   257
176
     1
 90
        1
176
     1
 90
        1
176
     1
 40
179.0
176
     1
 90
        8
176
     1
 62
     7
176
     1
 40
1.0
176
     1
 90
        1
176
     1
 90
        6
176
     1
 90
        2
176
     1
 62
     7
176
     1
 90
        3
176
     1
 90
        0
176
     1
 90
        0
176
     1
290
     0
176
     1
 90
        1
176
     1
 40
0.0
176
     1
 90
        0
176
     1
290
     0
176
     1
290
     1
176
     1
290
     1
176
     1
290
     0
176
     1
290
     0
176
     1
290
     0
176
     1
290
     0
176
     1
290
     0
176
     1
290
     0
176
     1
 90
       50
176
     1
 40
0.0
176
     1
 40
1.0
176
     1
 90
        0
176
     1
 62
    18
420
        0
176
     1
 90
       50
176
     1
 90
        3
176
     1
 62
     5
420
      255
176
     1
290
     0
176
     1
 90
       50
176
     1
 90
       50
176
     1
 90
       50
176
     1
290
     0
176
     1
 90
       50
176
     1
 62
   256
176
     0
 40
1.0
176
     0
 90
        2
176
     1
  1
strokes_ogs.tif
176
     1
290
     0
176
     1
 40
1.0
176
     1
 40
1.0
176
     1
  0
VISUALSTYLE
  5
35
102
{ACAD_REACTORS
330
2A
102
}
330
2A
100
AcDbVisualStyle
  2
Dim
 70
    11
177
     3
291
     1
 70
    58
 90
        2
176
     1
 90
        2
176
     1
 90
        0
176
     1
 90
        0
176
     1
 40
0.6
176
     1
 40
30.0
176
     1
 62
     7
420
 16777215
176
     1
 90
        1
176
     1
 90
        4
176
     1
 62
     7
176
     1
 62
   257
176
     1
 90
        1
176
     1
 90
        1
176
     1
 40
1.0
176
     1
 90
        8
176
     1
 62
     7
176
     1
 40
1.0
176
     1
 90
        1
176
     1
 90
        6
176
     1
 90
        2
176
     1
 62
     7
176
     1
 90
        5
176
     1
 90
        0
176
     1
 90
        0
176
     1
290
     0
176
     1
 90
        1
176
     1
 40
-50.0
176
     1
 90
        0
176
     1
290
     0
176
     1
290
     1
176
     1
290
     1
176
     1
290
     0
176
     1
290
     0
176
     1
290
     0
176
     1
290
     0
176
     1
290
     0
176
     1
290
     0
176
     1
 90
       50
176
     1
 40
0.0
176
     1
 40
1.0
176
     1
 90
        0
176
     1
 62
    18
420
        0
176
     1
 90
       50
176
     1
 90
        3
176
     1
 62
     5
420
      255
176
     1
290
     0
176
     1
 90
       50
176
     1
 90
       50
176
     1
 90
       50
176
     1
290
     0
176
     1
 90
       50
176
     1
 62
   256
176
     0
 40
1.0
176
     0
 90
        2
176
     1
  1
strokes_ogs.tif
176
     1
290
     0
176
     1
 40
1.0
176
     1
 40
1.0
176
     1
  0
VISUALSTYLE
  5
3D
102
{ACAD_REACTORS
330
2A
102
}
330
2A
100
AcDbVisualStyle
  2
EdgeColorOff
 70
    22
177
     3
291
     1
 70
    58
 90
        2
176
     0
 90
        2
176
     0
 90
        0
176
     0
 90
        0
176
     0
 40
0.6
176
     0
 40
30.0
176
     0
 62
     7
420
 16777215
176
     0
 90
        1
176
     0
 90
        4
176
     0
 62
     7
176
     0
 62
   257
176
     0
 90
        1
176
     0
 90
        1
176
     0
 40
1.0
176
     0
 90
        8
176
     2
 62
     7
176
     0
 40
1.0
176
     0
 90
        1
176
     0
 90
        6
176
     0
 90
        2
176
     0
 62
     7
176
     0
 90
        5
176
     0
 90
        0
176
     0
 90
        0
176
     0
290
     0
176
     0
 90
        1
176
     0
 40
0.0
176
     0
 90
        0
176
     0
290
     0
176
     0
290
     1
176
     0
290
     1
176
     0
290
     0
176
     0
290
     0
176
     0
290
     0
176
     0
290
     0
176
     0
290
     0
176
     0
290
     0
176
     0
 90
       50
176
     0
 40
0.0
176
     0
 40
1.0
176
     0
 90
        0
176
     0
 62
    18
420
        0
176
     0
 90
       50
176
     0
 90
        3
176
     0
 62
     5
420
      255
176
     0
290
     0
176
     0
 90
       50
176
     0
 90
       50
176
     0
 90
       50
176
     0
290
     0
176
     0
 90
       50
176
     0
 62
   256
176
     0
 40
1.0
176
     0
 90
        2
176
     0
  1
strokes_ogs.tif
176
     0
290
     0
176
     0
 40
1.0
176
     0
 40
1.0
176
     0
  0
VISUALSTYLE
  5
39
102
{ACAD_REACTORS
330
2A
102
}
330
2A
100
AcDbVisualStyle
  2
Facepattern
 70
    15
177
     3
291
     1
 70
    58
 90
        2
176
     1
 90
        2
176
     1
 90
        0
176
     1
 90
        0
176
     1
 40
0.6
176
     1
 40
30.0
176
     1
 62
     7
420
 16777215
176
     1
 90
        1
176
     1
 90
        4
176
     1
 62
     7
176
     1
 62
   257
176
     1
 90
        1
176
     1
 90
        1
176
     1
 40
1.0
176
     1
 90
        8
176
     1
 62
     7
176
     1
 40
1.0
176
     1
 90
        1
176
     1
 90
        6
176
     1
 90
        2
176
     1
 62
     7
176
     1
 90
        5
176
     1
 90
        0
176
     1
 90
        0
176
     1
290
     0
176
     1
 90
        1
176
     1
 40
0.0
176
     1
 90
        0
176
     1
290
     0
176
     1
290
     1
176
     1
290
     1
176
     1
290
     0
176
     1
290
     0
176
     1
290
     0
176
     1
290
     0
176
     1
290
     0
176
     1
290
     0
176
     1
 90
       50
176
     1
 40
0.0
176
     1
 40
1.0
176
     1
 90
        0
176
     1
 62
    18
420
        0
176
     1
 90
       50
176
     1
 90
        3
176
     1
 62
     5
420
      255
176
     1
290
     0
176
     1
 90
       50
176
     1
 90
       50
176
     1
 90
       50
176
     1
290
     0
176
     1
 90
       50
176
     1
 62
   256
176
     0
 40
1.0
176
     0
 90
        2
176
     1
  1
strokes_ogs.tif
176
     1
290
     0
176
     1
 40
1.0
176
     1
 40
1.0
176
     1
  0
VISUALSTYLE
  5
2B
102
{ACAD_REACTORS
330
2A
102
}
330
2A
100
AcDbVisualStyle
  2
Flat
 70
     0
177
     3
291
     1
 70
    58
 90
        2
176
     1
 90
        1
176
     1
 90
        1
176
     1
 90
        2
176
     1
 40
0.6
176
     1
 40
30.0
176
     1
 62
     7
420
 16777215
176
     1
 90
        0
176
     1
 90
        0
176
     1
 62
     7
176
     1
 62
   257
176
     1
 90
        1
176
     1
 90
        1
176
     1
 40
1.0
176
     1
 90
        8
176
     1
 62
     7
176
     1
 40
1.0
176
     1
 90
        1
176
     1
 90
        6
176
     1
 90
        2
176
     1
 62
     7
176
     1
 90
        5
176
     1
 90
        0
176
     1
 90
        0
176
     1
290
     0
176
     1
 90
       13
176
     1
 40
0.0
176
     1
 90
        0
176
     1
290
     0
176
     1
290
     1
176
     1
290
     1
176
     1
290
     0
176
     1
290
     0
176
     1
290
     0
176
     1
290
     0
176
     1
290
     0
176
     1
290
     0
176
     1
 90
       50
176
     1
 40
0.0
176
     1
 40
1.0
176
     1
 90
        0
176
     1
 62
    18
420
        0
176
     1
 90
       50
176
     1
 90
        3
176
     1
 62
     5
420
      255
176
     1
290
     0
176
     1
 90
       50
176
     1
 90
       50
176
     1
 90
       50
176
     1
290
     0
176
     1
 90
       50
176
     1
 62
   256
176
     0
 40
1.0
176
     0
 90
        2
176
     1
  1
strokes_ogs.tif
176
     1
290
     0
176
     1
 40
1.0
176
     1
 40
1.0
176
     1
  0
VISUALSTYLE
  5
2C
102
{ACAD_REACTORS
330
2A
102
}
330
2A
100
AcDbVisualStyle
  2
FlatWithEdges
 70
     1
177
     3
291
     1
 70
    58
 90
        2
176
     1
 90
        1
176
     1
 90
        1
176
     1
 90
        2
176
     1
 40
0.6
176
     1
 40
30.0
176
     1
 62
     7
420
 16777215
176
     1
 90
        1
176
     1
 90
        0
176
     1
 62
     7
176
     1
 62
   257
176
     1
 90
        1
176
     1
 90
        1
176
     1
 40
1.0
176
     1
 90
        0
176
     1
 62
   257
176
     1
 40
1.0
176
     1
 90
        1
176
     1
 90
        6
176
     1
 90
        2
176
     1
 62
     7
176
     1
 90
        5
176
     1
 90
        0
176
     1
 90
        0
176
     1
290
     0
176
     1
 90
       13
176
     1
 40
0.0
176
     1
 90
        0
176
     1
290
     0
176
     1
290
     1
176
     1
290
     1
176
     1
290
     0
176
     1
290
     0
176
     1
290
     0
176
     1
290
     0
176
     1
290
     0
176
     1
290
     0
176
     1
 90
       50
176
     1
 40
0.0
176
     1
 40
1.0
176
     1
 90
        0
176
     1
 62
    18
420
        0
176
     1
 90
       50
176
     1
 90
        3
176
     1
 62
     5
420
      255
176
     1
290
     0
176
     1
 90
       50
176
     1
 90
       50
176
     1
 90
       50
176
     1
290
     0
176
     1
 90
       50
176
     1
 62
   256
176
     0
 40
1.0
176
     0
 90
        2
176
     1
  1
strokes_ogs.tif
176
     1
290
     0
176
     1
 40
1.0
176
     1
 40
1.0
176
     1
  0
VISUALSTYLE
  5
2D
102
{ACAD_REACTORS
330
2A
102
}
330
2A
100
AcDbVisualStyle
  2
Gouraud
 70
     2
177
     3
291
     1
 70
    58
 90
        2
176
     1
 90
        2
176
     1
 90
        1
176
     1
 90
        2
176
     1
 40
0.6
176
     1
 40
30.0
176
     1
 62
     7
420
 16777215
176
     1
 90
        0
176
     1
 90
        0
176
     1
 62
     7
176
     1
 62
   257
176
     1
 90
        1
176
     1
 90
        1
176
     1
 40
1.0
176
     1
 90
        0
176
     1
 62
     7
176
     1
 40
1.0
176
     1
 90
        1
176
     1
 90
        6
176
     1
 90
        2
176
     1
 62
     7
176
     1
 90
        5
176
     1
 90
        0
176
     1
 90
        0
176
     1
290
     0
176
     1
 90
       13
176
     1
 40
0.0
176
     1
 90
        0
176
     1
290
     0
176
     1
290
     1
176
     1
290
     1
176
     1
290
     0
176
     1
290
     0
176
     1
290
     0
176
     1
290
     0
176
     1
290
     0
176
     1
290
     0
176
     1
 90
       50
176
     1
 40
0.0
176
     1
 40
1.0
176
     1
 90
        0
176
     1
 62
    18
420
        0
176
     1
 90
       50
176
     1
 90
        3
176
     1
 62
     5
420
      255
176
     1
290
     0
176
     1
 90
       50
176
     1
 90
       50
176
     1
 90
       50
176
     1
290
     0
176
     1
 90
       50
176
     1
 62
   256
176
     0
 40
1.0
176
     0
 90
        2
176
     1
  1
strokes_ogs.tif
176
     1
290
     0
176
     1
 40
1.0
176
     1
 40
1.0
176
     1
  0
VISUALSTYLE
  5
2E
102
{ACAD_REACTORS
330
2A
102
}
330
2A
100
AcDbVisualStyle
  2
GouraudWithEdges
 70
     3
177
     3
291
     1
 70
    58
 90
        2
176
     1
 90
        2
176
     1
 90
        1
176
     1
 90
        2
176
     1
 40
0.6
176
     1
 40
30.0
176
     1
 62
     7
420
 16777215
176
     1
 90
        1
176
     1
 90
        0
176
     1
 62
     7
176
     1
 62
   257
176
     1
 90
        1
176
     1
 90
        1
176
     1
 40
1.0
176
     1
 90
        0
176
     1
 62
   257
176
     1
 40
1.0
176
     1
 90
        1
176
     1
 90
        6
176
     1
 90
        2
176
     1
 62
     7
176
     1
 90
        5
176
     1
 90
        0
176
     1
 90
        0
176
     1
290
     0
176
     1
 90
       13
176
     1
 40
0.0
176
     1
 90
        0
176
     1
290
     0
176
     1
290
     1
176
     1
290
     1
176
     1
290
     0
176
     1
290
     0
176
     1
290
     0
176
     1
290
     0
176
     1
290
     0
176
     1
290
     0
176
     1
 90
       50
176
     1
 40
0.0
176
     1
 40
1.0
176
     1
 90
        0
176
     1
 62
    18
420
        0
176
     1
 90
       50
176
     1
 90
        3
176
     1
 62
     5
420
      255
176
     1
290
     0
176
     1
 90
       50
176
     1
 90
       50
176
     1
 90
       50
176
     1
290
     0
176
     1
 90
       50
176
     1
 62
   256
176
     0
 40
1.0
176
     0
 90
        2
176
     1
  1
strokes_ogs.tif
176
     1
290
     0
176
     1
 40
1.0
176
     1
 40
1.0
176
     1
  0
VISUALSTYLE
  5
31
102
{ACAD_REACTORS
330
2A
102
}
330
2A
100
AcDbVisualStyle
  2
Hidden
 70
     6
177
     3
291
     0
 70
    58
 90
        1
176
     1
 90
        2
176
     1
 90
        2
176
     1
 90
        0
176
     1
 40
0.6
176
     1
 40
30.0
176
     1
 62
     7
420
 16777215
176
     1
 90
        2
176
     1
 90
        2
176
     1
 62
     7
176
     1
 62
   257
176
     1
 90
        2
176
     1
 90
        1
176
     1
 40
40.0
176
     1
 90
        0
176
     1
 62
   257
176
     1
 40
1.0
176
     1
 90
        1
176
     1
 90
        6
176
     1
 90
        2
176
     1
 62
     7
176
     1
 90
        3
176
     1
 90
        0
176
     1
 90
        0
176
     1
290
     0
176
     1
 90
        1
176
     1
 40
0.0
176
     1
 90
        0
176
     1
290
     0
176
     1
290
     1
176
     1
290
     1
176
     1
290
     0
176
     1
290
     0
176
     1
290
     0
176
     1
290
     0
176
     1
290
     0
176
     1
290
     0
176
     1
 90
       50
176
     1
 40
0.0
176
     1
 40
1.0
176
     1
 90
        0
176
     1
 62
    18
420
        0
176
     1
 90
       50
176
     1
 90
        3
176
     1
 62
     5
420
      255
176
     1
290
     0
176
     1
 90
       50
176
     1
 90
       50
176
     1
 90
       50
176
     1
290
     0
176
     1
 90
       50
176
     1
 62
   256
176
     0
 40
1.0
176
     0
 90
        2
176
     1
  1
strokes_ogs.tif
176
     1
290
     0
176
     1
 40
1.0
176
     1
 40
1.0
176
     1
  0
VISUALSTYLE
  5
3B
102
{ACAD_REACTORS
330
2A
102
}
330
2A
100
AcDbVisualStyle
  2
JitterOff
 70
    20
177
     3
291
     1
 70
    58
 90
        2
176
     0
 90
        2
176
     0
 90
        0
176
     0
 90
        0
176
     0
 40
0.6
176
     0
 40
30.0
176
     0
 62
     7
420
 16777215
176
     0
 90
        1
176
     0
 90
        4
176
     0
 62
     7
176
     0
 62
   257
176
     0
 90
        1
176
     0
 90
        1
176
     0
 40
1.0
176
     0
 90
       10
176
     2
 62
     7
176
     0
 40
1.0
176
     0
 90
        1
176
     0
 90
        6
176
     0
 90
        2
176
     0
 62
     7
176
     0
 90
        5
176
     0
 90
        0
176
     0
 90
        0
176
     0
290
     0
176
     0
 90
        1
176
     0
 40
0.0
176
     0
 90
        0
176
     0
290
     0
176
     0
290
     1
176
     0
290
     1
176
     0
290
     0
176
     0
290
     0
176
     0
290
     0
176
     0
290
     0
176
     0
290
     0
176
     0
290
     0
176
     0
 90
       50
176
     0
 40
0.0
176
     0
 40
1.0
176
     0
 90
        0
176
     0
 62
    18
420
        0
176
     0
 90
       50
176
     0
 90
        3
176
     0
 62
     5
420
      255
176
     0
290
     0
176
     0
 90
       50
176
     0
 90
       50
176
     0
 90
       50
176
     0
290
     0
176
     0
 90
       50
176
     0
 62
   256
176
     0
 40
1.0
176
     0
 90
        2
176
     0
  1
strokes_ogs.tif
176
     0
290
     0
176
     0
 40
1.0
176
     0
 40
1.0
176
     0
  0
VISUALSTYLE
  5
38
102
{ACAD_REACTORS
330
2A
102
}
330
2A
100
AcDbVisualStyle
  2
Linepattern
 70
    14
177
     3
291
     1
 70
    58
 90
        2
176
     1
 90
        2
176
     1
 90
        0
176
     1
 90
        0
176
     1
 40
0.6
176
     1
 40
30.0
176
     1
 62
     7
420
 16777215
176
     1
 90
        1
176
     1
 90
        4
176
     1
 62
     7
176
     1
 62
   257
176
     1
 90
        7
176
     1
 90
        7
176
     1
 40
1.0
176
     1
 90
        8
176
     1
 62
     7
176
     1
 40
1.0
176
     1
 90
        1
176
     1
 90
        6
176
     1
 90
        2
176
     1
 62
     7
176
     1
 90
        5
176
     1
 90
        0
176
     1
 90
        0
176
     1
290
     0
176
     1
 90
        1
176
     1
 40
0.0
176
     1
 90
        0
176
     1
290
     0
176
     1
290
     1
176
     1
290
     1
176
     1
290
     0
176
     1
290
     0
176
     1
290
     0
176
     1
290
     0
176
     1
290
     0
176
     1
290
     0
176
     1
 90
       50
176
     1
 40
0.0
176
     1
 40
1.0
176
     1
 90
        0
176
     1
 62
    18
420
        0
176
     1
 90
       50
176
     1
 90
        3
176
     1
 62
     5
420
      255
176
     1
290
     0
176
     1
 90
       50
176
     1
 90
       50
176
     1
 90
       50
176
     1
290
     0
176
     1
 90
       50
176
     1
 62
   256
176
     0
 40
1.0
176
     0
 90
        2
176
     1
  1
strokes_ogs.tif
176
     1
290
     0
176
     1
 40
1.0
176
     1
 40
1.0
176
     1
  0
VISUALSTYLE
  5
3C
102
{ACAD_REACTORS
330
2A
102
}
330
2A
100
AcDbVisualStyle
  2
OverhangOff
 70
    21
177
     3
291
     1
 70
    58
 90
        2
176
     0
 90
        2
176
     0
 90
        0
176
     0
 90
        0
176
     0
 40
0.6
176
     0
 40
30.0
176
     0
 62
     7
420
 16777215
176
     0
 90
        1
176
     0
 90
        4
176
     0
 62
     7
176
     0
 62
   257
176
     0
 90
        1
176
     0
 90
        1
176
     0
 40
1.0
176
     0
 90
        9
176
     2
 62
     7
176
     0
 40
1.0
176
     0
 90
        1
176
     0
 90
        6
176
     0
 90
        2
176
     0
 62
     7
176
     0
 90
        5
176
     0
 90
        0
176
     0
 90
        0
176
     0
290
     0
176
     0
 90
        1
176
     0
 40
0.0
176
     0
 90
        0
176
     0
290
     0
176
     0
290
     1
176
     0
290
     1
176
     0
290
     0
176
     0
290
     0
176
     0
290
     0
176
     0
290
     0
176
     0
290
     0
176
     0
290
     0
176
     0
 90
       50
176
     0
 40
0.0
176
     0
 40
1.0
176
     0
 90
        0
176
     0
 62
    18
420
        0
176
     0
 90
       50
176
     0
 90
        3
176
     0
 62
     5
420
      255
176
     0
290
     0
176
     0
 90
       50
176
     0
 90
       50
176
     0
 90
       50
176
     0
290
     0
176
     0
 90
       50
176
     0
 62
   256
176
     0
 40
1.0
176
     0
 90
        2
176
     0
  1
strokes_ogs.tif
176
     0
290
     0
176
     0
 40
1.0
176
     0
 40
1.0
176
     0
  0
VISUALSTYLE
  5
33
102
{ACAD_REACTORS
330
2A
102
}
330
2A
100
AcDbVisualStyle
  2
Realistic
 70
     8
177
     3
291
     0
 70
    58
 90
        2
176
     1
 90
        3
176
     1
 90
        0
176
     1
 90
        2
176
     1
 40
0.6
176
     1
 40
30.0
176
     1
 62
     7
420
 16777215
176
     1
 90
        0
176
     1
 90
        0
176
     1
 62
     7
176
     1
 62
   257
176
     1
 90
        1
176
     1
 90
        1
176
     1
 40
1.0
176
     1
 90
        8
176
     1
 62
   257
176
     1
 40
1.0
176
     1
 90
        1
176
     1
 90
        6
176
     1
 90
        2
176
     1
 62
     7
176
     1
 90
        3
176
     1
 90
        0
176
     1
 90
        0
176
     1
290
     0
176
     1
 90
       13
176
     1
 40
0.0
176
     1
 90
        0
176
     1
290
     0
176
     1
290
     1
176
     1
290
     1
176
     1
290
     0
176
     1
290
     0
176
     1
290
     0
176
     1
290
     0
176
     1
290
     0
176
     1
290
     0
176
     1
 90
       50
176
     1
 40
0.0
176
     1
 40
1.0
176
     1
 90
        0
176
     1
 62
    18
420
        0
176
     1
 90
       50
176
     1
 90
        3
176
     1
 62
     5
420
      255
176
     1
290
     0
176
     1
 90
       50
176
     1
 90
       50
176
     1
 90
       50
176
     1
290
     0
176
     1
 90
       50
176
     1
 62
   256
176
     0
 40
1.0
176
     0
 90
        2
176
     1
  1
strokes_ogs.tif
176
     1
290
     0
176
     1
 40
1.0
176
     1
 40
1.0
176
     1
  0
VISUALSTYLE
  5
42
102
{ACAD_REACTORS
330
2A
102
}
330
2A
100
AcDbVisualStyle
  2
Shaded
 70
    27
177
     3
291
     0
 70
    58
 90
        2
176
     1
 90
        2
176
     1
 90
        1
176
     1
 90
        2
176
     1
 40
0.6
176
     1
 40
30.0
176
     1
 62
     7
420
 16777215
176
     1
 90
        0
176
     1
 90
        4
176
     1
 62
     7
176
     1
 62
   257
176
     1
 90
        1
176
     1
 90
        1
176
     1
 40
1.0
176
     1
 90
        8
176
     1
 62
   257
176
     1
 40
1.0
176
     1
 90
        1
176
     1
 90
        6
176
     1
 90
        2
176
     1
 62
     8
420
  7895160
176
     1
 90
        3
176
     1
 90
        0
176
     1
 90
        0
176
     1
290
     0
176
     1
 90
        5
176
     1
 40
0.0
176
     1
 90
        0
176
     1
290
     0
176
     1
290
     1
176
     1
290
     1
176
     1
290
     0
176
     1
290
     0
176
     1
290
     0
176
     1
290
     0
176
     1
290
     0
176
     1
290
     0
176
     1
 90
       50
176
     1
 40
0.0
176
     1
 40
1.0
176
     1
 90
        0
176
     1
 62
    18
420
        0
176
     1
 90
       50
176
     1
 90
        3
176
     1
 62
     5
420
      255
176
     1
290
     0
176
     1
 90
       50
176
     1
 90
       50
176
     1
 90
       50
176
     1
290
     0
176
     1
 90
       50
176
     1
 62
   256
176
     0
 40
1.0
176
     0
 90
        2
176
     1
  1
strokes_ogs.tif
176
     1
290
     0
176
     1
 40
1.0
176
     1
 40
1.0
176
     1
  0
VISUALSTYLE
  5
41
102
{ACAD_REACTORS
330
2A
102
}
330
2A
100
AcDbVisualStyle
  2
Shaded with edges
 70
    26
177
     3
291
     0
 70
    58
 90
        2
176
     1
 90
        2
176
     1
 90
        1
176
     1
 90
        2
176
     1
 40
0.6
176
     1
 40
30.0
176
     1
 62
     7
420
 16777215
176
     1
 90
        1
176
     1
 90
       10
176
     1
 62
     7
176
     1
 62
   257
176
     1
 90
        2
176
     1
 90
        1
176
     1
 40
1.0
176
     1
 90
        8
176
     1
 62
   257
176
     1
 40
1.0
176
     1
 90
        1
176
     1
 90
        6
176
     1
 90
        2
176
     1
 62
     7
176
     1
 90
        3
176
     1
 90
        0
176
     1
 90
        0
176
     1
290
     0
176
     1
 90
        5
176
     1
 40
0.0
176
     1
 90
        0
176
     1
290
     0
176
     1
290
     1
176
     1
290
     1
176
     1
290
     0
176
     1
290
     0
176
     1
290
     0
176
     1
290
     0
176
     1
290
     0
176
     1
290
     0
176
     1
 90
       50
176
     1
 40
0.0
176
     1
 40
1.0
176
     1
 90
        0
176
     1
 62
    18
420
        0
176
     1
 90
       50
176
     1
 90
        3
176
     1
 62
     5
420
      255
176
     1
290
     0
176
     1
 90
       50
176
     1
 90
       50
176
     1
 90
       50
176
     1
290
     0
176
     1
 90
       50
176
     1
 62
   256
176
     0
 40
1.0
176
     0
 90
        2
176
     1
  1
strokes_ogs.tif
176
     1
290
     0
176
     1
 40
1.0
176
     1
 40
1.0
176
     1
  0
VISUALSTYLE
  5
3E
102
{ACAD_REACTORS
330
2A
102
}
330
2A
100
AcDbVisualStyle
  2
Shades of Gray
 70
    23
177
     3
291
     0
 70
    58
 90
        2
176
     1
 90
        2
176
     1
 90
        3
176
     1
 90
        0
176
     1
 40
0.6
176
     1
 40
30.0
176
     1
 62
     7
420
 16777215
176
     1
 90
        2
176
     1
 90
        2
176
     1
 62
     7
176
     1
 62
     7
176
     1
 90
        1
176
     1
 90
        1
176
     1
 40
40.0
176
     1
 90
        8
176
     1
 62
     7
176
     1
 40
1.0
176
     1
 90
        1
176
     1
 90
        6
176
     1
 90
        2
176
     1
 62
     7
176
     1
 90
        3
176
     1
 90
        0
176
     1
 90
        0
176
     1
290
     0
176
     1
 90
        1
176
     1
 40
0.0
176
     1
 90
        0
176
     1
290
     0
176
     1
290
     1
176
     1
290
     1
176
     1
290
     0
176
     1
290
     0
176
     1
290
     0
176
     1
290
     0
176
     1
290
     0
176
     1
290
     0
176
     1
 90
       50
176
     1
 40
0.0
176
     1
 40
1.0
176
     1
 90
        0
176
     1
 62
    18
420
        0
176
     1
 90
       50
176
     1
 90
        3
176
     1
 62
     5
420
      255
176
     1
290
     0
176
     1
 90
       50
176
     1
 90
       50
176
     1
 90
       50
176
     1
290
     0
176
     1
 90
       50
176
     1
 62
   256
176
     0
 40
1.0
176
     0
 90
        2
176
     1
  1
strokes_ogs.tif
176
     1
290
     0
176
     1
 40
1.0
176
     1
 40
1.0
176
     1
  0
VISUALSTYLE
  5
3F
102
{ACAD_REACTORS
330
2A
102
}
330
2A
100
AcDbVisualStyle
  2
Sketchy
 70
    24
177
     3
291
     0
 70
    58
 90
        1
176
     1
 90
        2
176
     1
 90
        2
176
     1
 90
        0
176
     1
 40
0.6
176
     1
 40
30.0
176
     1
 62
     7
420
 16777215
176
     1
 90
        2
176
     1
 90
        2
176
     1
 62
     7
176
     1
 62
     7
176
     1
 90
        1
176
     1
 90
        1
176
     1
 40
40.0
176
     1
 90
       11
176
     1
 62
     7
176
     1
 40
1.0
176
     1
 90
        1
176
     1
 90
        6
176
     1
 90
        2
176
     1
 62
     7
176
     1
 90
        6
176
     1
 90
        0
176
     1
 90
        0
176
     1
290
     0
176
     1
 90
        1
176
     1
 40
0.0
176
     1
 90
        0
176
     1
290
     0
176
     1
290
     1
176
     1
290
     1
176
     1
290
     0
176
     1
290
     0
176
     1
290
     0
176
     1
290
     0
176
     1
290
     0
176
     1
290
     0
176
     1
 90
       50
176
     1
 40
0.0
176
     1
 40
1.0
176
     1
 90
        0
176
     1
 62
    18
420
        0
176
     1
 90
       50
176
     1
 90
        3
176
     1
 62
     5
420
      255
176
     1
290
     0
176
     1
 90
       50
176
     1
 90
       50
176
     1
 90
       50
176
     1
290
     0
176
     1
 90
       50
176
     1
 62
   256
176
     0
 40
1.0
176
     0
 90
        2
176
     1
  1
strokes_ogs.tif
176
     1
290
     0
176
     1
 40
1.0
176
     1
 40
1.0
176
     1
  0
VISUALSTYLE
  5
37
102
{ACAD_REACTORS
330
2A
102
}
330
2A
100
AcDbVisualStyle
  2
Thicken
 70
    13
177
     3
291
     1
 70
    58
 90
        2
176
     1
 90
        2
176
     1
 90
        0
176
     1
 90
        0
176
     1
 40
0.6
176
     1
 40
30.0
176
     1
 62
     7
420
 16777215
176
     1
 90
        1
176
     1
 90
        4
176
     1
 62
     7
176
     1
 62
   257
176
     1
 90
        1
176
     1
 90
        1
176
     1
 40
1.0
176
     1
 90
       12
176
     1
 62
     7
176
     1
 40
1.0
176
     1
 90
        1
176
     1
 90
        6
176
     1
 90
        2
176
     1
 62
     7
176
     1
 90
        5
176
     1
 90
        0
176
     1
 90
        0
176
     1
290
     0
176
     1
 90
        1
176
     1
 40
0.0
176
     1
 90
        0
176
     1
290
     0
176
     1
290
     1
176
     1
290
     1
176
     1
290
     0
176
     1
290
     0
176
     1
290
     0
176
     1
290
     0
176
     1
290
     0
176
     1
290
     0
176
     1
 90
       50
176
     1
 40
0.0
176
     1
 40
1.0
176
     1
 90
        0
176
     1
 62
    18
420
        0
176
     1
 90
       50
176
     1
 90
        3
176
     1
 62
     5
420
      255
176
     1
290
     0
176
     1
 90
       50
176
     1
 90
       50
176
     1
 90
       50
176
     1
290
     0
176
     1
 90
       50
176
     1
 62
   256
176
     0
 40
1.0
176
     0
 90
        2
176
     1
  1
strokes_ogs.tif
176
     1
290
     0
176
     1
 40
1.0
176
     1
 40
1.0
176
     1
  0
VISUALSTYLE
  5
30
102
{ACAD_REACTORS
330
2A
102
}
330
2A
100
AcDbVisualStyle
  2
Wireframe
 70
     5
177
     3
291
     0
 70
    58
 90
        0
176
     1
 90
        2
176
     1
 90
        0
176
     1
 90
        0
176
     1
 40
0.6
176
     1
 40
30.0
176
     1
 62
     7
420
 16777215
176
     1
 90
        1
176
     1
 90
        4
176
     1
 62
     7
176
     1
 62
   257
176
     1
 90
        1
176
     1
 90
        1
176
     1
 40
1.0
176
     1
 90
        0
176
     1
 62
   257
176
     1
 40
1.0
176
     1
 90
        1
176
     1
 90
        6
176
     1
 90
        2
176
     1
 62
     7
176
     1
 90
        3
176
     1
 90
        0
176
     1
 90
        0
176
     1
290
     0
176
     1
 90
        1
176
     1
 40
0.0
176
     1
 90
        0
176
     1
290
     0
176
     1
290
     1
176
     1
290
     1
176
     1
290
     0
176
     1
290
     0
176
     1
290
     0
176
     1
290
     0
176
     1
290
     0
176
     1
290
     0
176
     1
 90
       50
176
     1
 40
0.0
176
     1
 40
1.0
176
     1
 90
        0
176
     1
 62
    18
420
        0
176
     1
 90
       50
176
     1
 90
        3
176
     1
 62
     5
420
      255
176
     1
290
     0
176
     1
 90
       50
176
     1
 90
       50
176
     1
 90
       50
176
     1
290
     0
176
     1
 90
       50
176
     1
 62
   256
176
     0
 40
1.0
176
     0
 90
        2
176
     1
  1
strokes_ogs.tif
176
     1
290
     0
176
     1
 40
1.0
176
     1
 40
1.0
176
     1
  0
VISUALSTYLE
  5
40
102
{ACAD_REACTORS
330
2A
102
}
330
2A
100
AcDbVisualStyle
  2
X-Ray
 70
    25
177
     3
291
     0
 70
    58
 90
        2
176
     1
 90
        2
176
     1
 90
        1
176
     1
 90
        1
176
     1
 40
0.5
176
     1
 40
30.0
176
     1
 62
     7
420
 16777215
176
     1
 90
        1
176
     1
 90
        0
176
     1
 62
     7
176
     1
 62
   257
176
     1
 90
        1
176
     1
 90
        1
176
     1
 40
1.0
176
     1
 90
        8
176
     1
 62
     7
176
     1
 40
1.0
176
     1
 90
        1
176
     1
 90
        6
176
     1
 90
        2
176
     1
 62
     7
176
     1
 90
        3
176
     1
 90
        0
176
     1
 90
        0
176
     1
290
     0
176
     1
 90
       13
176
     1
 40
0.0
176
     1
 90
        0
176
     1
290
     0
176
     1
290
     1
176
     1
290
     1
176
     1
290
     0
176
     1
290
     0
176
     1
290
     0
176
     1
290
     0
176
     1
290
     0
176
     1
290
     0
176
     1
 90
       50
176
     1
 40
0.0
176
     1
 40
1.0
176
     1
 90
        0
176
     1
 62
    18
420
        0
176
     1
 90
       50
176
     1
 90
        3
176
     1
 62
     5
420
      255
176
     1
290
     0
176
     1
 90
       50
176
     1
 90
       50
176
     1
 90
       50
176
     1
290
     0
176
     1
 90
       50
176
     1
 62
   256
176
     0
 40
1.0
176
     0
 90
        2
176
     1
  1
strokes_ogs.tif
176
     1
290
     0
176
     1
 40
1.0
176
     1
 40
1.0
176
     1
  0
DICTIONARYVAR
  5
41A
102
{ACAD_REACTORS
330
419
102
}
330
419
100
DictionaryVariables
280
     0
  1
1:1
  0
DICTIONARYVAR
  5
41F
102
{ACAD_REACTORS
330
419
102
}
330
419
100
DictionaryVariables
280
     0
  1
Standard
  0
DICTIONARYVAR
  5
41E
102
{ACAD_REACTORS
330
419
102
}
330
419
100
DictionaryVariables
280
     0
  1
Standard
  0
DICTIONARYVAR
  5
422
102
{ACAD_REACTORS
330
419
102
}
330
419
100
DictionaryVariables
280
     0
  1
0
  0
DICTIONARY
  5
41B
330
6A
100
AcDbDictionary
280
     1
281
     1
  3
ACAD_ROUNDTRIP_2008_TABLESTYLE_CELLSTYLEMAP
360
41C
  0
CELLSTYLEMAP
  5
41C
102
{ACAD_REACTORS
330
41B
102
}
330
41B
100
AcDbCellStyleMap
 90
        3
300
CELLSTYLE
  1
TABLEFORMAT_BEGIN
 90
        5
170
     1
 91
        0
 92
    32768
 62
   257
 93
        1
300
CONTENTFORMAT
  1
CONTENTFORMAT_BEGIN
 90
        0
 91
        0
 92
        4
 93
        0
300

 40
0.0
140
1.0
 94
        5
 62
     0
340
11
144
0.25
309
CONTENTFORMAT_END
171
     1
301
MARGIN
  1
CELLMARGIN_BEGIN
 40
0.06
 40
0.06
 40
0.06
 40
0.06
 40
0.06
 40
0.06
309
CELLMARGIN_END
 94
        6
 95
        1
302
GRIDFORMAT
  1
GRIDFORMAT_BEGIN
 90
        0
 91
        1
 62
     0
 92
       -2
340
14
 93
        0
 40
0.045
309
GRIDFORMAT_END
 95
        2
302
GRIDFORMAT
  1
GRIDFORMAT_BEGIN
 90
        0
 91
        1
 62
     0
 92
       -2
340
14
 93
        0
 40
0.045
309
GRIDFORMAT_END
 95
        4
302
GRIDFORMAT
  1
GRIDFORMAT_BEGIN
 90
        0
 91
        1
 62
     0
 92
       -2
340
14
 93
        0
 40
0.045
309
GRIDFORMAT_END
 95
        8
302
GRIDFORMAT
  1
GRIDFORMAT_BEGIN
 90
        0
 91
        1
 62
     0
 92
       -2
340
14
 93
        0
 40
0.045
309
GRIDFORMAT_END
 95
       16
302
GRIDFORMAT
  1
GRIDFORMAT_BEGIN
 90
        0
 91
        1
 62
     0
 92
       -2
340
14
 93
        0
 40
0.045
309
GRIDFORMAT_END
 95
       32
302
GRIDFORMAT
  1
GRIDFORMAT_BEGIN
 90
        0
 91
        1
 62
     0
 92
       -2
340
14
 93
        0
 40
0.045
309
GRIDFORMAT_END
309
TABLEFORMAT_END
  1
CELLSTYLE_BEGIN
 90
        1
 91
        1
300
_TITLE
309
CELLSTYLE_END
300
CELLSTYLE
  1
TABLEFORMAT_BEGIN
 90
        5
170
     1
 91
        0
 92
        0
 62
   257
 93
        1
300
CONTENTFORMAT
  1
CONTENTFORMAT_BEGIN
 90
        0
 91
        0
 92
        4
 93
        0
300

 40
0.0
140
1.0
 94
        5
 62
     0
340
11
144
0.18
309
CONTENTFORMAT_END
171
     1
301
MARGIN
  1
CELLMARGIN_BEGIN
 40
0.06
 40
0.06
 40
0.06
 40
0.06
 40
0.06
 40
0.06
309
CELLMARGIN_END
 94
        6
 95
        1
302
GRIDFORMAT
  1
GRIDFORMAT_BEGIN
 90
        0
 91
        1
 62
     0
 92
       -2
340
14
 93
        0
 40
0.045
309
GRIDFORMAT_END
 95
        2
302
GRIDFORMAT
  1
GRIDFORMAT_BEGIN
 90
        0
 91
        1
 62
     0
 92
       -2
340
14
 93
        0
 40
0.045
309
GRIDFORMAT_END
 95
        4
302
GRIDFORMAT
  1
GRIDFORMAT_BEGIN
 90
        0
 91
        1
 62
     0
 92
       -2
340
14
 93
        0
 40
0.045
309
GRIDFORMAT_END
 95
        8
302
GRIDFORMAT
  1
GRIDFORMAT_BEGIN
 90
        0
 91
        1
 62
     0
 92
       -2
340
14
 93
        0
 40
0.045
309
GRIDFORMAT_END
 95
       16
302
GRIDFORMAT
  1
GRIDFORMAT_BEGIN
 90
        0
 91
        1
 62
     0
 92
       -2
340
14
 93
        0
 40
0.045
309
GRIDFORMAT_END
 95
       32
302
GRIDFORMAT
  1
GRIDFORMAT_BEGIN
 90
        0
 91
        1
 62
     0
 92
       -2
340
14
 93
        0
 40
0.045
309
GRIDFORMAT_END
309
TABLEFORMAT_END
  1
CELLSTYLE_BEGIN
 90
        2
 91
        1
300
_HEADER
309
CELLSTYLE_END
300
CELLSTYLE
  1
TABLEFORMAT_BEGIN
 90
        5
170
     1
 91
        0
 92
        0
 62
   257
 93
        1
300
CONTENTFORMAT
  1
CONTENTFORMAT_BEGIN
 90
        0
 91
        0
 92
        4
 93
        0
300

 40
0.0
140
1.0
 94
        2
 62
     0
340
11
144
0.18
309
CONTENTFORMAT_END
171
     1
301
MARGIN
  1
CELLMARGIN_BEGIN
 40
0.06
 40
0.06
 40
0.06
 40
0.06
 40
0.06
 40
0.06
309
CELLMARGIN_END
 94
        6
 95
        1
302
GRIDFORMAT
  1
GRIDFORMAT_BEGIN
 90
        0
 91
        1
 62
     0
 92
       -2
340
14
 93
        0
 40
0.045
309
GRIDFORMAT_END
 95
        2
302
GRIDFORMAT
  1
GRIDFORMAT_BEGIN
 90
        0
 91
        1
 62
     0
 92
       -2
340
14
 93
        0
 40
0.045
309
GRIDFORMAT_END
 95
        4
302
GRIDFORMAT
  1
GRIDFORMAT_BEGIN
 90
        0
 91
        1
 62
     0
 92
       -2
340
14
 93
        0
 40
0.045
309
GRIDFORMAT_END
 95
        8
302
GRIDFORMAT
  1
GRIDFORMAT_BEGIN
 90
        0
 91
        1
 62
     0
 92
       -2
340
14
 93
        0
 40
0.045
309
GRIDFORMAT_END
 95
       16
302
GRIDFORMAT
  1
GRIDFORMAT_BEGIN
 90
        0
 91
        1
 62
     0
 92
       -2
340
14
 93
        0
 40
0.045
309
GRIDFORMAT_END
 95
       32
302
GRIDFORMAT
  1
GRIDFORMAT_BEGIN
 90
        0
 91
        1
 62
     0
 92
       -2
340
14
 93
        0
 40
0.045
309
GRIDFORMAT_END
309
TABLEFORMAT_END
  1
CELLSTYLE_BEGIN
 90
        3
 91
        2
300
_DATA
309
CELLSTYLE_END
  0
ENDSEC
  0
EOF
