  0
SECTION
  2
HEADER
  9
$ACADVER
  1
AC1027
  9
$ACADMAINTVER
 70
   105
  9
$DWGCODEPAGE
  3
ANSI_1252
  9
$REQUIREDVERSIONS
160
                 0
  9
$INSBASE
 10
0.0
 20
0.0
 30
0.0
  9
$EXTMIN
 10
-0.4328742585180407
 20
-997.9557227075165
 30
0.0
  9
$EXTMAX
 10
393.567125741482
 20
-455.9557227075165
 30
0.0
  9
$LIMMIN
 10
0.0
 20
0.0
  9
$LIMMAX
 10
12.0
 20
9.0
  9
$ORTHOMODE
 70
     0
  9
$REGENMODE
 70
     1
  9
$FILLMODE
 70
     1
  9
$QTEXTMODE
 70
     0
  9
$MIRRTEXT
 70
     1
  9
$LTSCALE
 40
2.0
  9
$ATTMODE
 70
     1
  9
$TEXTSIZE
 40
0.2
  9
$TRACEWID
 40
0.05
  9
$TEXTSTYLE
  7
Standard
  9
$CLAYER
  8
0
  9
$CELTYPE
  6
ByLayer
  9
$CECOLOR
 62
   256
  9
$CELTSCALE
 40
1.0
  9
$DISPSILH
 70
     0
  9
$DIMSCALE
 40
1.0
  9
$DIMASZ
 40
0.18
  9
$DIMEXO
 40
0.0625
  9
$DIMDLI
 40
0.38
  9
$DIMRND
 40
0.0
  9
$DIMDLE
 40
0.0
  9
$DIMEXE
 40
0.18
  9
$DIMTP
 40
0.0
  9
$DIMTM
 40
0.0
  9
$DIMTXT
 40
0.18
  9
$DIMCEN
 40
0.09
  9
$DIMTSZ
 40
0.0
  9
$DIMTOL
 70
     0
  9
$DIMLIM
 70
     0
  9
$DIMTIH
 70
     1
  9
$DIMTOH
 70
     1
  9
$DIMSE1
 70
     0
  9
$DIMSE2
 70
     0
  9
$DIMTAD
 70
     0
  9
$DIMZIN
 70
     0
  9
$DIMBLK
  1

  9
$DIMASO
 70
     1
  9
$DIMSHO
 70
     1
  9
$DIMPOST
  1

  9
$DIMAPOST
  1

  9
$DIMALT
 70
     0
  9
$DIMALTD
 70
     2
  9
$DIMALTF
 40
25.4
  9
$DIMLFAC
 40
1.0
  9
$DIMTOFL
 70
     1
  9
$DIMTVP
 40
0.0
  9
$DIMTIX
 70
     0
  9
$DIMSOXD
 70
     1
  9
$DIMSAH
 70
     0
  9
$DIMBLK1
  1

  9
$DIMBLK2
  1

  9
$DIMSTYLE
  2
Standard
  9
$DIMCLRD
 70
     0
  9
$DIMCLRE
 70
     0
  9
$DIMCLRT
 70
     0
  9
$DIMTFAC
 40
1.0
  9
$DIMGAP
 40
0.09
  9
$DIMJUST
 70
     0
  9
$DIMSD1
 70
     0
  9
$DIMSD2
 70
     0
  9
$DIMTOLJ
 70
     1
  9
$DIMTZIN
 70
     0
  9
$DIMALTZ
 70
     0
  9
$DIMALTTZ
 70
     0
  9
$DIMUPT
 70
     0
  9
$DIMDEC
 70
     4
  9
$DIMTDEC
 70
     4
  9
$DIMALTU
 70
     2
  9
$DIMALTTD
 70
     2
  9
$DIMTXSTY
  7
Standard
  9
$DIMAUNIT
 70
     0
  9
$DIMADEC
 70
     0
  9
$DIMALTRND
 40
0.0
  9
$DIMAZIN
 70
     0
  9
$DIMDSEP
 70
    46
  9
$DIMATFIT
 70
     3
  9
$DIMFRAC
 70
     0
  9
$DIMLDRBLK
  1

  9
$DIMLUNIT
 70
     2
  9
$DIMLWD
 70
    -2
  9
$DIMLWE
 70
    -2
  9
$DIMTMOVE
 70
     2
  9
$DIMFXL
 40
1.0
  9
$DIMFXLON
 70
     0
  9
$DIMJOGANG
 40
0.7853981633974483
  9
$DIMTFILL
 70
     0
  9
$DIMTFILLCLR
 70
     0
  9
$DIMARCSYM
 70
     0
  9
$DIMLTYPE
  6

  9
$DIMLTEX1
  6

  9
$DIMLTEX2
  6

  9
$DIMTXTDIRECTION
 70
     0
  9
$LUNITS
 70
     2
  9
$LUPREC
 70
     4
  9
$SKETCHINC
 40
0.1
  9
$FILLETRAD
 40
0.5
  9
$AUNITS
 70
     0
  9
$AUPREC
 70
     0
  9
$MENU
  1
.
  9
$ELEVATION
 40
0.0
  9
$PELEVATION
 40
0.0
  9
$THICKNESS
 40
0.0
  9
$LIMCHECK
 70
     0
  9
$CHAMFERA
 40
0.0
  9
$CHAMFERB
 40
0.0
  9
$CHAMFERC
 40
0.0
  9
$CHAMFERD
 40
0.0
  9
$SKPOLY
 70
     0
  9
$TDCREATE
 40
2459196.849814549
  9
$TDUCREATE
 40
2459196.808147882
  9
$TDUPDATE
 40
2459196.849816343
  9
$TDUUPDATE
 40
2459196.808149676
  9
$TDINDWG
 40
0.0000000116
  9
$TDUSRTIMER
 40
0.0000000116
  9
$USRTIMER
 70
     1
  9
$ANGBASE
 50
0.0
  9
$ANGDIR
 70
     0
  9
$PDMODE
 70
     0
  9
$PDSIZE
 40
0.0
  9
$PLINEWID
 40
0.0
  9
$SPLFRAME
 70
     0
  9
$SPLINETYPE
 70
     6
  9
$SPLINESEGS
 70
     8
  9
$HANDSEED
  5
356
  9
$SURFTAB1
 70
     6
  9
$SURFTAB2
 70
     6
  9
$SURFTYPE
 70
     6
  9
$SURFU
 70
     6
  9
$SURFV
 70
     6
  9
$UCSBASE
  2

  9
$UCSNAME
  2

  9
$UCSORG
 10
0.0
 20
0.0
 30
0.0
  9
$UCSXDIR
 10
1.0
 20
0.0
 30
0.0
  9
$UCSYDIR
 10
0.0
 20
1.0
 30
0.0
  9
$UCSORTHOREF
  2

  9
$UCSORTHOVIEW
 70
     0
  9
$UCSORGTOP
 10
0.0
 20
0.0
 30
0.0
  9
$UCSORGBOTTOM
 10
0.0
 20
0.0
 30
0.0
  9
$UCSORGLEFT
 10
0.0
 20
0.0
 30
0.0
  9
$UCSORGRIGHT
 10
0.0
 20
0.0
 30
0.0
  9
$UCSORGFRONT
 10
0.0
 20
0.0
 30
0.0
  9
$UCSORGBACK
 10
0.0
 20
0.0
 30
0.0
  9
$PUCSBASE
  2

  9
$PUCSNAME
  2

  9
$PUCSORG
 10
0.0
 20
0.0
 30
0.0
  9
$PUCSXDIR
 10
1.0
 20
0.0
 30
0.0
  9
$PUCSYDIR
 10
0.0
 20
1.0
 30
0.0
  9
$PUCSORTHOREF
  2

  9
$PUCSORTHOVIEW
 70
     0
  9
$PUCSORGTOP
 10
0.0
 20
0.0
 30
0.0
  9
$PUCSORGBOTTOM
 10
0.0
 20
0.0
 30
0.0
  9
$PUCSORGLEFT
 10
0.0
 20
0.0
 30
0.0
  9
$PUCSORGRIGHT
 10
0.0
 20
0.0
 30
0.0
  9
$PUCSORGFRONT
 10
0.0
 20
0.0
 30
0.0
  9
$PUCSORGBACK
 10
0.0
 20
0.0
 30
0.0
  9
$USERI1
 70
     0
  9
$USERI2
 70
     0
  9
$USERI3
 70
     0
  9
$USERI4
 70
     0
  9
$USERI5
 70
     0
  9
$USERR1
 40
0.0
  9
$USERR2
 40
0.0
  9
$USERR3
 40
0.0
  9
$USERR4
 40
0.0
  9
$USERR5
 40
0.0
  9
$WORLDVIEW
 70
     1
  9
$SHADEDGE
 70
     3
  9
$SHADEDIF
 70
    70
  9
$TILEMODE
 70
     1
  9
$MAXACTVP
 70
    64
  9
$PINSBASE
 10
0.0
 20
0.0
 30
0.0
  9
$PLIMCHECK
 70
     0
  9
$PEXTMIN
 10
0.0
 20
0.0
 30
0.0
  9
$PEXTMAX
 10
197.6
 20
271.5999999999982
 30
0.0
  9
$PLIMMIN
 10
-20.0
 20
-7.5
  9
$PLIMMAX
 10
277.0
 20
202.5
  9
$UNITMODE
 70
     0
  9
$VISRETAIN
 70
     1
  9
$PLINEGEN
 70
     0
  9
$PSLTSCALE
 70
     0
  9
$TREEDEPTH
 70
  3020
  9
$CMLSTYLE
  2
Standard
  9
$CMLJUST
 70
     0
  9
$CMLSCALE
 40
1.0
  9
$PROXYGRAPHICS
 70
     1
  9
$MEASUREMENT
 70
     1
  9
$CELWEIGHT
370
    -1
  9
$ENDCAPS
280
     0
  9
$JOINSTYLE
280
     0
  9
$LWDISPLAY
290
     0
  9
$INSUNITS
 70
     4
  9
$HYPERLINKBASE
  1

  9
$STYLESHEET
  1

  9
$XEDIT
290
     1
  9
$CEPSNTYPE
380
     0
  9
$PSTYLEMODE
290
     0
  9
$FINGERPRINTGUID
  2
{E69CF27A-50F9-4C32-B8F3-4BAA50266F72}
  9
$VERSIONGUID
  2
{FAEB1C32-E019-11D5-929B-00C0DF256EC4}
  9
$EXTNAMES
290
     1
  9
$PSVPSCALE
 40
0.0
  9
$OLESTARTUP
290
     0
  9
$SORTENTS
280
   127
  9
$INDEXCTL
280
     0
  9
$HIDETEXT
280
     1
  9
$XCLIPFRAME
280
     2
  9
$HALOGAP
280
     0
  9
$OBSCOLOR
 70
   257
  9
$OBSLTYPE
280
     0
  9
$INTERSECTIONDISPLAY
280
     0
  9
$INTERSECTIONCOLOR
 70
   257
  9
$DIMASSOC
280
     2
  9
$PROJECTNAME
  1

  9
$CAMERADISPLAY
290
     0
  9
$LENSLENGTH
 40
50.0
  9
$CAMERAHEIGHT
 40
0.0
  9
$STEPSPERSEC
 40
2.0
  9
$STEPSIZE
 40
6.0
  9
$3DDWFPREC
 40
2.0
  9
$PSOLWIDTH
 40
0.25
  9
$PSOLHEIGHT
 40
4.0
  9
$LOFTANG1
 40
1.570796326794897
  9
$LOFTANG2
 40
1.570796326794897
  9
$LOFTMAG1
 40
0.0
  9
$LOFTMAG2
 40
0.0
  9
$LOFTPARAM
 70
     7
  9
$LOFTNORMALS
280
     1
  9
$LATITUDE
 40
37.795
  9
$LONGITUDE
 40
-122.394
  9
$NORTHDIRECTION
 40
0.0
  9
$TIMEZONE
 70
 -8000
  9
$LIGHTGLYPHDISPLAY
280
     1
  9
$TILEMODELIGHTSYNCH
280
     1
  9
$CMATERIAL
347
44
  9
$SOLIDHIST
280
     0
  9
$SHOWHIST
280
     1
  9
$DWFFRAME
280
     2
  9
$DGNFRAME
280
     2
  9
$REALWORLDSCALE
290
     1
  9
$INTERFERECOLOR
 62
   256
  9
$CSHADOW
280
     0
  9
$SHADOWPLANELOCATION
 40
0.0
  0
ENDSEC
  0
SECTION
  2
CLASSES
  0
CLASS
  1
ACDBDICTIONARYWDFLT
  2
AcDbDictionaryWithDefault
  3
ObjectDBX Classes
 90
        0
 91
        3
280
     0
281
     0
  0
CLASS
  1
VISUALSTYLE
  2
AcDbVisualStyle
  3
ObjectDBX Classes
 90
     4095
 91
        3
280
     0
281
     0
  0
CLASS
  1
MATERIAL
  2
AcDbMaterial
  3
ObjectDBX Classes
 90
     1153
 91
        3
280
     0
281
     0
  0
CLASS
  1
SCALE
  2
AcDbScale
  3
ObjectDBX Classes
 90
     1153
 91
        3
280
     0
281
     0
  0
CLASS
  1
TABLESTYLE
  2
AcDbTableStyle
  3
ObjectDBX Classes
 90
     4095
 91
        3
280
     0
281
     0
  0
CLASS
  1
MLEADERSTYLE
  2
AcDbMLeaderStyle
  3
ACDB_MLEADERSTYLE_CLASS
 90
     4095
 91
        3
280
     0
281
     0
  0
CLASS
  1
SUN
  2
AcDbSun
  3
SCENEOE
 90
     1153
 91
        3
280
     0
281
     0
  0
CLASS
  1
RASTERVARIABLES
  2
AcDbRasterVariables
  3
ISM
 90
        0
 91
        3
280
     0
281
     0
  0
CLASS
  1
PLOTSETTINGS
  2
AcDbPlotSettings
  3
ObjectDBX Classes
 90
        0
 91
        3
280
     0
281
     0
  0
CLASS
  1
IMAGEDEF
  2
AcDbRasterImageDef
  3
ISM
 90
        0
 91
        3
280
     0
281
     0
  0
CLASS
  1
IMAGE
  2
AcDbRasterImage
  3
ISM
 90
      127
 91
        4
280
     0
281
     1
  0
CLASS
  1
IMAGEDEF_REACTOR
  2
AcDbRasterImageDefReactor
  3
ISM
 90
        1
 91
        3
280
     0
281
     0
  0
CLASS
  1
DICTIONARYVAR
  2
AcDbDictionaryVar
  3
ObjectDBX Classes
 90
        0
 91
        3
280
     0
281
     0
  0
CLASS
  1
CELLSTYLEMAP
  2
AcDbCellStyleMap
  3
ObjectDBX Classes
 90
     1152
 91
        3
280
     0
281
     0
  0
ENDSEC
  0
SECTION
  2
TABLES
  0
TABLE
  2
VPORT
  5
8
330
0
100
AcDbSymbolTable
 70
     1
  0
VPORT
  5
29
330
8
100
AcDbSymbolTableRecord
100
AcDbViewportTableRecord
  2
*Active
 70
     0
 10
0.0
 20
0.0
 11
1.0
 21
1.0
 12
10.42990654205607
 22
4.5
 13
0.0
 23
0.0
 14
0.5
 24
0.5
 15
0.5
 25
0.5
 16
0.0
 26
0.0
 36
1.0
 17
0.0
 27
0.0
 37
0.0
 40
9.0
 41
1.972972972850329
 42
50.0
 43
0.0
 44
0.0
 50
0.0
 51
0.0
 71
     0
 72
   100
 73
     1
 74
     3
 75
     0
 76
     0
 77
     0
 78
     0
281
     0
 65
     1
110
0.0
120
0.0
130
0.0
111
1.0
121
0.0
131
0.0
112
0.0
122
1.0
132
0.0
 79
     0
146
0.0
348
2F
 60
     3
 61
     5
292
     1
282
     1
141
0.0
142
0.0
 63
   250
361
6D
  0
ENDTAB
  0
TABLE
  2
LTYPE
  5
5
330
0
100
AcDbSymbolTable
 70
     2
  0
LTYPE
  5
14
330
5
100
AcDbSymbolTableRecord
100
AcDbLinetypeTableRecord
  2
ByBlock
 70
     0
  3

 72
    65
 73
     0
 40
0.0
  0
LTYPE
  5
15
330
5
100
AcDbSymbolTableRecord
100
AcDbLinetypeTableRecord
  2
ByLayer
 70
     0
  3

 72
    65
 73
     0
 40
0.0
  0
LTYPE
  5
16
330
5
100
AcDbSymbolTableRecord
100
AcDbLinetypeTableRecord
  2
Continuous
 70
     0
  3
Solid line
 72
    65
 73
     0
 40
0.0
  0
LTYPE
  5
182
330
5
100
AcDbSymbolTableRecord
100
AcDbLinetypeTableRecord
  2
CADWORK_3
 70
     0
  3

 72
    65
 73
     2
 40
4.0
 49
2.0
 74
     0
 49
-2.0
 74
     0
  0
ENDTAB
  0
TABLE
  2
LAYER
  5
2
330
0
100
AcDbSymbolTable
 70
    19
  0
LAYER
  5
10
330
2
100
AcDbSymbolTableRecord
100
AcDbLayerTableRecord
  2
0
 70
     0
 62
     7
  6
Continuous
370
    -3
390
F
347
46
348
0
  0
LAYER
  5
70
330
2
100
AcDbSymbolTableRecord
100
AcDbLayerTableRecord
  2
Standard
 70
     0
 62
     7
  6
Continuous
370
    -3
390
F
347
46
348
0
  0
LAYER
  5
71
330
2
100
AcDbSymbolTableRecord
100
AcDbLayerTableRecord
  2
Ech.1_1
 70
     0
 62
     7
  6
Continuous
370
    -3
390
F
347
46
348
0
  0
LAYER
  5
72
330
2
100
AcDbSymbolTableRecord
100
AcDbLayerTableRecord
  2
Ech.1_2
 70
     0
 62
     7
  6
Continuous
370
    -3
390
F
347
46
348
0
  0
LAYER
  5
73
330
2
100
AcDbSymbolTableRecord
100
AcDbLayerTableRecord
  2
Ech.1_5
 70
     0
 62
     7
  6
Continuous
370
    -3
390
F
347
46
348
0
  0
LAYER
  5
74
330
2
100
AcDbSymbolTableRecord
100
AcDbLayerTableRecord
  2
Ech.1_10
 70
     0
 62
     7
  6
Continuous
370
    -3
390
F
347
46
348
0
  0
LAYER
  5
75
330
2
100
AcDbSymbolTableRecord
100
AcDbLayerTableRecord
  2
Ech.1_20
 70
     0
 62
     7
  6
Continuous
370
    -3
390
F
347
46
348
0
  0
LAYER
  5
76
330
2
100
AcDbSymbolTableRecord
100
AcDbLayerTableRecord
  2
Ech.1_25
 70
     0
 62
     7
  6
Continuous
370
    -3
390
F
347
46
348
0
  0
LAYER
  5
77
330
2
100
AcDbSymbolTableRecord
100
AcDbLayerTableRecord
  2
Ech.1_33
 70
     0
 62
     7
  6
Continuous
370
    -3
390
F
347
46
348
0
  0
LAYER
  5
78
330
2
100
AcDbSymbolTableRecord
100
AcDbLayerTableRecord
  2
Ech.1_50
 70
     0
 62
     7
  6
Continuous
370
    -3
390
F
347
46
348
0
  0
LAYER
  5
79
330
2
100
AcDbSymbolTableRecord
100
AcDbLayerTableRecord
  2
Ech.1_75
 70
     0
 62
     7
  6
Continuous
370
    -3
390
F
347
46
348
0
  0
LAYER
  5
7A
330
2
100
AcDbSymbolTableRecord
100
AcDbLayerTableRecord
  2
Ech.1_100
 70
     0
 62
     7
  6
Continuous
370
    -3
390
F
347
46
348
0
  0
LAYER
  5
7B
330
2
100
AcDbSymbolTableRecord
100
AcDbLayerTableRecord
  2
Ech.1_200
 70
     0
 62
     7
  6
Continuous
370
    -3
390
F
347
46
348
0
  0
LAYER
  5
7C
330
2
100
AcDbSymbolTableRecord
100
AcDbLayerTableRecord
  2
Ech.1_500
 70
     0
 62
     7
  6
Continuous
370
    -3
390
F
347
46
348
0
  0
LAYER
  5
7D
330
2
100
AcDbSymbolTableRecord
100
AcDbLayerTableRecord
  2
Ech.1_1000
 70
     0
 62
     7
  6
Continuous
370
    -3
390
F
347
46
348
0
  0
LAYER
  5
7E
330
2
100
AcDbSymbolTableRecord
100
AcDbLayerTableRecord
  2
Cadres traceur
 70
     0
 62
     7
  6
Continuous
370
    -3
390
F
347
46
348
0
  0
LAYER
  5
7F
330
2
100
AcDbSymbolTableRecord
100
AcDbLayerTableRecord
  2
Cadres laser
 70
     0
 62
     7
  6
Continuous
370
    -3
390
F
347
46
348
0
  0
LAYER
  5
80
330
2
100
AcDbSymbolTableRecord
100
AcDbLayerTableRecord
  2
Légende d_aide
 70
     0
 62
     7
  6
Continuous
370
    -3
390
F
347
46
348
0
  0
LAYER
  5
32F
330
2
100
AcDbSymbolTableRecord
100
AcDbLayerTableRecord
  2
Defpoints
 70
     0
 62
     7
  6
Continuous
290
     0
370
    -3
390
F
347
46
348
0
  0
ENDTAB
  0
TABLE
  2
STYLE
  5
3
330
0
100
AcDbSymbolTable
 70
     9
  0
STYLE
  5
11
330
3
100
AcDbSymbolTableRecord
100
AcDbTextStyleTableRecord
  2
Standard
 70
     0
 40
0.0
 41
1.0
 50
0.0
 71
     0
 42
0.2
  3
txt
  4

  0
STYLE
  5
81
330
3
100
AcDbSymbolTableRecord
100
AcDbTextStyleTableRecord
  2
CwStyleShx
 70
     0
 40
1.0
 41
1.0
 50
0.0
 71
     0
 42
0.2
  3

  4

  0
STYLE
  5
82
330
3
100
AcDbSymbolTableRecord
100
AcDbTextStyleTableRecord
  2
CwStyleShx16
 70
     0
 40
1.0
 41
1.0
 50
0.0
 71
     0
 42
0.2
  3

  4

  0
STYLE
  5
83
330
3
100
AcDbSymbolTableRecord
100
AcDbTextStyleTableRecord
  2
MONOTXT
 70
     0
 40
0.0
 41
1.0
 50
0.0
 71
     0
 42
0.2
  3
MONOTXT
  4

  0
STYLE
  5
84
330
3
100
AcDbSymbolTableRecord
100
AcDbTextStyleTableRecord
  2
SYMAP
 70
     0
 40
1.0
 41
1.0
 50
0.0
 71
     0
 42
0.2
  3
SYMAP
  4

  0
STYLE
  5
85
330
3
100
AcDbSymbolTableRecord
100
AcDbTextStyleTableRecord
  2
CwStyleTtf
 70
     0
 40
1.0
 41
1.0
 50
0.0
 71
     0
 42
0.2
  3
arial.ttf
  4

  0
STYLE
  5
32C
330
3
100
AcDbSymbolTableRecord
100
AcDbTextStyleTableRecord
  2
arial-z
 70
     0
 40
0.0
 41
1.0
 50
0.0
 71
     0
 42
0.2
  3
arial.ttf
  4

1001
ACAD
1000
Arial
1071
        0
  0
STYLE
  5
347
330
3
100
AcDbSymbolTableRecord
100
AcDbTextStyleTableRecord
  2
arial-
 70
     0
 40
1.0
 41
1.0
 50
0.0
 71
     0
 42
0.2
  3

  4

1001
ACAD
1000
Arial
1071
        0
  0
STYLE
  5
34A
330
3
100
AcDbSymbolTableRecord
100
AcDbTextStyleTableRecord
  2
arial-b
 70
     0
 40
1.0
 41
1.0
 50
0.0
 71
     0
 42
0.2
  3
arialbd.ttf
  4

1001
ACAD
1000
Arial
1071
 33554432
  0
ENDTAB
  0
TABLE
  2
VIEW
  5
6
330
0
100
AcDbSymbolTable
 70
     0
  0
ENDTAB
  0
TABLE
  2
UCS
  5
7
330
0
100
AcDbSymbolTable
 70
     0
  0
ENDTAB
  0
TABLE
  2
APPID
  5
9
330
0
100
AcDbSymbolTable
 70
     3
  0
APPID
  5
12
330
9
100
AcDbSymbolTableRecord
100
AcDbRegAppTableRecord
  2
ACAD
 70
     0
  0
APPID
  5
6E
330
9
100
AcDbSymbolTableRecord
100
AcDbRegAppTableRecord
  2
Cadwork
 70
     0
  0
APPID
  5
232
330
9
100
AcDbSymbolTableRecord
100
AcDbRegAppTableRecord
  2
PLOTTRANSPARENCY
 70
     0
  0
ENDTAB
  0
TABLE
  2
DIMSTYLE
  5
A
330
0
100
AcDbSymbolTable
 70
     1
100
AcDbDimStyleTable
  0
DIMSTYLE
105
27
102
{ACAD_REACTORS
330
32D
102
}
330
A
100
AcDbSymbolTableRecord
100
AcDbDimStyleTableRecord
  2
Standard
 70
     0
178
     0
340
11
  0
ENDTAB
  0
TABLE
  2
BLOCK_RECORD
  5
1
330
0
100
AcDbSymbolTable
 70
    70
  0
BLOCK_RECORD
  5
1F
330
1
100
AcDbSymbolTableRecord
100
AcDbBlockTableRecord
  2
*Model_Space
340
22
 70
     0
280
     1
281
     0
  0
BLOCK_RECORD
  5
22D
330
1
100
AcDbSymbolTableRecord
100
AcDbBlockTableRecord
  2
*Paper_Space
340
22E
 70
     0
280
     1
281
     0
  0
BLOCK_RECORD
  5
86
330
1
100
AcDbSymbolTableRecord
100
AcDbBlockTableRecord
  2
CDWK_PTTYP1
340
0
 70
     0
280
     1
281
     1
  0
BLOCK_RECORD
  5
8D
330
1
100
AcDbSymbolTableRecord
100
AcDbBlockTableRecord
  2
CDWK_PTTYP2
340
0
 70
     0
280
     1
281
     1
  0
BLOCK_RECORD
  5
92
330
1
100
AcDbSymbolTableRecord
100
AcDbBlockTableRecord
  2
CDWK_PTTYP4
340
0
 70
     0
280
     1
281
     1
  0
BLOCK_RECORD
  5
96
330
1
100
AcDbSymbolTableRecord
100
AcDbBlockTableRecord
  2
CDWK_PTTYP5
340
0
 70
     0
280
     1
281
     1
  0
BLOCK_RECORD
  5
9F
330
1
100
AcDbSymbolTableRecord
100
AcDbBlockTableRecord
  2
CDWK_PTTYP6
340
0
 70
     0
280
     1
281
     1
  0
BLOCK_RECORD
  5
A7
330
1
100
AcDbSymbolTableRecord
100
AcDbBlockTableRecord
  2
CDWK_PTTYP7
340
0
 70
     0
280
     1
281
     1
  0
BLOCK_RECORD
  5
B0
330
1
100
AcDbSymbolTableRecord
100
AcDbBlockTableRecord
  2
CDWK_PTTYP8
340
0
 70
     0
280
     1
281
     1
  0
BLOCK_RECORD
  5
B4
330
1
100
AcDbSymbolTableRecord
100
AcDbBlockTableRecord
  2
CDWK_PTTYP9
340
0
 70
     0
280
     1
281
     1
  0
BLOCK_RECORD
  5
B9
330
1
100
AcDbSymbolTableRecord
100
AcDbBlockTableRecord
  2
CDWK_PTTYP10
340
0
 70
     0
280
     1
281
     1
  0
BLOCK_RECORD
  5
BD
330
1
100
AcDbSymbolTableRecord
100
AcDbBlockTableRecord
  2
CDWK_PTTYP11
340
0
 70
     0
280
     1
281
     1
  0
BLOCK_RECORD
  5
C2
330
1
100
AcDbSymbolTableRecord
100
AcDbBlockTableRecord
  2
CDWK_PTTYP12
340
0
 70
     0
280
     1
281
     1
  0
BLOCK_RECORD
  5
C7
330
1
100
AcDbSymbolTableRecord
100
AcDbBlockTableRecord
  2
CDWK_PTTYP13
340
0
 70
     0
280
     1
281
     1
  0
BLOCK_RECORD
  5
CD
330
1
100
AcDbSymbolTableRecord
100
AcDbBlockTableRecord
  2
CDWK_PTTYP16
340
0
 70
     0
280
     1
281
     1
  0
BLOCK_RECORD
  5
D4
330
1
100
AcDbSymbolTableRecord
100
AcDbBlockTableRecord
  2
CDWK_PTTYP17
340
0
 70
     0
280
     1
281
     1
  0
BLOCK_RECORD
  5
D9
330
1
100
AcDbSymbolTableRecord
100
AcDbBlockTableRecord
  2
CDWK_PTTYP18
340
0
 70
     0
280
     1
281
     1
  0
BLOCK_RECORD
  5
DE
330
1
100
AcDbSymbolTableRecord
100
AcDbBlockTableRecord
  2
CDWK_PTTYP19
340
0
 70
     0
280
     1
281
     1
  0
BLOCK_RECORD
  5
E4
330
1
100
AcDbSymbolTableRecord
100
AcDbBlockTableRecord
  2
CDWK_PTTYP20
340
0
 70
     0
280
     1
281
     1
  0
BLOCK_RECORD
  5
E9
330
1
100
AcDbSymbolTableRecord
100
AcDbBlockTableRecord
  2
CDWK_PTTYP21
340
0
 70
     0
280
     1
281
     1
  0
BLOCK_RECORD
  5
EE
330
1
100
AcDbSymbolTableRecord
100
AcDbBlockTableRecord
  2
CDWK_PTTYP25
340
0
 70
     0
280
     1
281
     1
  0
BLOCK_RECORD
  5
F5
330
1
100
AcDbSymbolTableRecord
100
AcDbBlockTableRecord
  2
CDWK_PTTYP26
340
0
 70
     0
280
     1
281
     1
  0
BLOCK_RECORD
  5
FC
330
1
100
AcDbSymbolTableRecord
100
AcDbBlockTableRecord
  2
CDWK_PTTYP27
340
0
 70
     0
280
     1
281
     1
  0
BLOCK_RECORD
  5
104
330
1
100
AcDbSymbolTableRecord
100
AcDbBlockTableRecord
  2
CDWK_PTTYP28
340
0
 70
     0
280
     1
281
     1
  0
BLOCK_RECORD
  5
10B
330
1
100
AcDbSymbolTableRecord
100
AcDbBlockTableRecord
  2
CDWK_PTTYP29
340
0
 70
     0
280
     1
281
     1
  0
BLOCK_RECORD
  5
111
330
1
100
AcDbSymbolTableRecord
100
AcDbBlockTableRecord
  2
CDWK_PTTYP30
340
0
 70
     0
280
     1
281
     1
  0
BLOCK_RECORD
  5
118
330
1
100
AcDbSymbolTableRecord
100
AcDbBlockTableRecord
  2
CDWK_PTTYP31
340
0
 70
     0
280
     1
281
     1
  0
BLOCK_RECORD
  5
120
330
1
100
AcDbSymbolTableRecord
100
AcDbBlockTableRecord
  2
CDWK_PTTYP32
340
0
 70
     0
280
     1
281
     1
  0
BLOCK_RECORD
  5
129
330
1
100
AcDbSymbolTableRecord
100
AcDbBlockTableRecord
  2
CDWK_PTTYP33
340
0
 70
     0
280
     1
281
     1
  0
BLOCK_RECORD
  5
12F
330
1
100
AcDbSymbolTableRecord
100
AcDbBlockTableRecord
  2
CDWK_PTTYP34
340
0
 70
     0
280
     1
281
     1
  0
BLOCK_RECORD
  5
135
330
1
100
AcDbSymbolTableRecord
100
AcDbBlockTableRecord
  2
CDWK_PTTYP35
340
0
 70
     0
280
     1
281
     1
  0
BLOCK_RECORD
  5
13B
330
1
100
AcDbSymbolTableRecord
100
AcDbBlockTableRecord
  2
CDWK_PTTYP36
340
0
 70
     0
280
     1
281
     1
  0
BLOCK_RECORD
  5
143
330
1
100
AcDbSymbolTableRecord
100
AcDbBlockTableRecord
  2
CDWK_PTTYP37
340
0
 70
     0
280
     1
281
     1
  0
BLOCK_RECORD
  5
148
330
1
100
AcDbSymbolTableRecord
100
AcDbBlockTableRecord
  2
CDWK_PTTYP38
340
0
 70
     0
280
     1
281
     1
  0
BLOCK_RECORD
  5
14E
330
1
100
AcDbSymbolTableRecord
100
AcDbBlockTableRecord
  2
CDWK_PTTYP41
340
0
 70
     0
280
     1
281
     1
  0
BLOCK_RECORD
  5
158
330
1
100
AcDbSymbolTableRecord
100
AcDbBlockTableRecord
  2
CDWK_PTTYP42
340
0
 70
     0
280
     1
281
     1
  0
BLOCK_RECORD
  5
161
330
1
100
AcDbSymbolTableRecord
100
AcDbBlockTableRecord
  2
CDWK_PTTYP43
340
0
 70
     0
280
     1
281
     1
  0
BLOCK_RECORD
  5
167
330
1
100
AcDbSymbolTableRecord
100
AcDbBlockTableRecord
  2
CDWK_PTTYP44
340
0
 70
     0
280
     1
281
     1
  0
BLOCK_RECORD
  5
170
330
1
100
AcDbSymbolTableRecord
100
AcDbBlockTableRecord
  2
CDWK_PTTYP45
340
0
 70
     0
280
     1
281
     1
  0
BLOCK_RECORD
  5
175
330
1
100
AcDbSymbolTableRecord
100
AcDbBlockTableRecord
  2
CDWK_PTTYP46
340
0
 70
     0
280
     1
281
     1
  0
BLOCK_RECORD
  5
17A
330
1
100
AcDbSymbolTableRecord
100
AcDbBlockTableRecord
  2
CDWK_PTTYP47
340
0
 70
     0
280
     1
281
     1
  0
BLOCK_RECORD
  5
183
330
1
100
AcDbSymbolTableRecord
100
AcDbBlockTableRecord
  2
CDWK_PTTYP48
340
0
 70
     0
280
     1
281
     1
  0
BLOCK_RECORD
  5
188
330
1
100
AcDbSymbolTableRecord
100
AcDbBlockTableRecord
  2
CDWK_PTTYP49
340
0
 70
     0
280
     1
281
     1
  0
BLOCK_RECORD
  5
18F
330
1
100
AcDbSymbolTableRecord
100
AcDbBlockTableRecord
  2
CDWK_PTTYP50
340
0
 70
     0
280
     1
281
     1
  0
BLOCK_RECORD
  5
199
330
1
100
AcDbSymbolTableRecord
100
AcDbBlockTableRecord
  2
CDWK_PTTYP51
340
0
 70
     0
280
     1
281
     1
  0
BLOCK_RECORD
  5
19E
330
1
100
AcDbSymbolTableRecord
100
AcDbBlockTableRecord
  2
CDWK_PTTYP52
340
0
 70
     0
280
     1
281
     1
  0
BLOCK_RECORD
  5
1A4
330
1
100
AcDbSymbolTableRecord
100
AcDbBlockTableRecord
  2
cw-dimension-symbol1
340
0
 70
     0
280
     1
281
     0
  0
BLOCK_RECORD
  5
1AB
330
1
100
AcDbSymbolTableRecord
100
AcDbBlockTableRecord
  2
cw-dimension-symbol2
340
0
102
{BLKREFS
331
337
331
336
102
}
 70
     0
280
     1
281
     0
  0
BLOCK_RECORD
  5
1B0
330
1
100
AcDbSymbolTableRecord
100
AcDbBlockTableRecord
  2
cw-dimension-symbol3
340
0
 70
     0
280
     1
281
     0
  0
BLOCK_RECORD
  5
1B5
330
1
100
AcDbSymbolTableRecord
100
AcDbBlockTableRecord
  2
cw-dimension-symbol5
340
0
 70
     0
280
     1
281
     0
  0
BLOCK_RECORD
  5
1BC
330
1
100
AcDbSymbolTableRecord
100
AcDbBlockTableRecord
  2
cw-dimension-symbol6
340
0
 70
     0
280
     1
281
     0
  0
BLOCK_RECORD
  5
1C2
330
1
100
AcDbSymbolTableRecord
100
AcDbBlockTableRecord
  2
cw-dimension-symbol11
340
0
 70
     0
280
     1
281
     0
  0
BLOCK_RECORD
  5
1C8
330
1
100
AcDbSymbolTableRecord
100
AcDbBlockTableRecord
  2
cw-dimension-symbol13
340
0
 70
     0
280
     1
281
     0
  0
BLOCK_RECORD
  5
1CE
330
1
100
AcDbSymbolTableRecord
100
AcDbBlockTableRecord
  2
cw-dimension-symbol15
340
0
 70
     0
280
     1
281
     0
  0
BLOCK_RECORD
  5
1D5
330
1
100
AcDbSymbolTableRecord
100
AcDbBlockTableRecord
  2
cw-dimension-symbol16
340
0
 70
     0
280
     1
281
     0
  0
BLOCK_RECORD
  5
1DC
330
1
100
AcDbSymbolTableRecord
100
AcDbBlockTableRecord
  2
cw-dimension-symbol17
340
0
 70
     0
280
     1
281
     0
  0
BLOCK_RECORD
  5
1E3
330
1
100
AcDbSymbolTableRecord
100
AcDbBlockTableRecord
  2
cw-dimension-symbol18
340
0
 70
     0
280
     1
281
     0
  0
BLOCK_RECORD
  5
1EA
330
1
100
AcDbSymbolTableRecord
100
AcDbBlockTableRecord
  2
cw-dimension-symbol19
340
0
 70
     0
280
     1
281
     0
  0
BLOCK_RECORD
  5
1ED
330
1
100
AcDbSymbolTableRecord
100
AcDbBlockTableRecord
  2
cw-dimension-symbol20
340
0
 70
     0
280
     1
281
     0
  0
BLOCK_RECORD
  5
1F4
330
1
100
AcDbSymbolTableRecord
100
AcDbBlockTableRecord
  2
cw-dimension-symbol21
340
0
 70
     0
280
     1
281
     0
  0
BLOCK_RECORD
  5
1FB
330
1
100
AcDbSymbolTableRecord
100
AcDbBlockTableRecord
  2
cw-line-extremity0
340
0
 70
     0
280
     1
281
     0
  0
BLOCK_RECORD
  5
1FF
330
1
100
AcDbSymbolTableRecord
100
AcDbBlockTableRecord
  2
cw-line-extremity2
340
0
 70
     0
280
     1
281
     0
  0
BLOCK_RECORD
  5
204
330
1
100
AcDbSymbolTableRecord
100
AcDbBlockTableRecord
  2
cw-line-extremity3
340
0
 70
     0
280
     1
281
     0
  0
BLOCK_RECORD
  5
209
330
1
100
AcDbSymbolTableRecord
100
AcDbBlockTableRecord
  2
cw-line-extremity301
340
0
 70
     0
280
     1
281
     0
  0
BLOCK_RECORD
  5
20B
330
1
100
AcDbSymbolTableRecord
100
AcDbBlockTableRecord
  2
cw-line-extremity4
340
0
102
{BLKREFS
331
265
331
267
331
269
331
26B
331
26D
331
271
102
}
 70
     0
280
     1
281
     0
  0
BLOCK_RECORD
  5
20D
330
1
100
AcDbSymbolTableRecord
100
AcDbBlockTableRecord
  2
cw-line-extremity5
340
0
 70
     0
280
     1
281
     0
  0
BLOCK_RECORD
  5
20F
330
1
100
AcDbSymbolTableRecord
100
AcDbBlockTableRecord
  2
cw-line-extremity6
340
0
 70
     0
280
     1
281
     0
  0
BLOCK_RECORD
  5
211
330
1
100
AcDbSymbolTableRecord
100
AcDbBlockTableRecord
  2
cw-line-extremity9
340
0
 70
     0
280
     1
281
     0
  0
BLOCK_RECORD
  5
213
330
1
100
AcDbSymbolTableRecord
100
AcDbBlockTableRecord
  2
cw-line-extremity10
340
0
 70
     0
280
     1
281
     0
  0
BLOCK_RECORD
  5
215
330
1
100
AcDbSymbolTableRecord
100
AcDbBlockTableRecord
  2
cw-line-extremity1
340
0
 70
     0
280
     1
281
     0
  0
BLOCK_RECORD
  5
1B
330
1
100
AcDbSymbolTableRecord
100
AcDbBlockTableRecord
  2
*Paper_Space69
340
1E
 70
     0
280
     1
281
     0
  0
BLOCK_RECORD
  5
330
330
1
100
AcDbSymbolTableRecord
100
AcDbBlockTableRecord
  2
*D70
340
0
 70
     0
280
     1
281
     0
  0
ENDTAB
  0
ENDSEC
  0
SECTION
  2
BLOCKS
  0
BLOCK
  5
20
330
1F
100
AcDbEntity
  8
0
100
AcDbBlockBegin
  2
*Model_Space
 70
     0
 10
0.0
 20
0.0
 30
0.0
  3
*Model_Space
  1

  0
ENDBLK
  5
21
330
1F
100
AcDbEntity
  8
0
100
AcDbBlockEnd
  0
BLOCK
  5
22F
330
22D
100
AcDbEntity
 67
     1
  8
0
100
AcDbBlockBegin
  2
*Paper_Space
 70
     0
 10
0.0
 20
0.0
 30
0.0
  3
*Paper_Space
  1

  0
ENDBLK
  5
230
330
22D
100
AcDbEntity
 67
     1
  8
0
100
AcDbBlockEnd
  0
BLOCK
  5
8B
330
86
100
AcDbEntity
  8
0
100
AcDbBlockBegin
  2
CDWK_PTTYP1
 70
     0
 10
0.0
 20
0.0
 30
0.0
  3
CDWK_PTTYP1
  1

  0
LINE
  5
87
330
86
100
AcDbEntity
  8
0
 62
     0
370
    -2
100
AcDbLine
 10
-0.5
 20
0.5
 30
0.0
 11
0.5
 21
0.5
 31
0.0
  0
LINE
  5
88
330
86
100
AcDbEntity
  8
0
 62
     0
370
    -2
100
AcDbLine
 10
0.5
 20
0.5
 30
0.0
 11
0.5
 21
-0.5
 31
0.0
  0
LINE
  5
89
330
86
100
AcDbEntity
  8
0
 62
     0
370
    -2
100
AcDbLine
 10
0.5
 20
-0.5
 30
0.0
 11
-0.5
 21
-0.5
 31
0.0
  0
LINE
  5
8A
330
86
100
AcDbEntity
  8
0
 62
     0
370
    -2
100
AcDbLine
 10
-0.5
 20
-0.5
 30
0.0
 11
-0.5
 21
0.5
 31
0.0
  0
ENDBLK
  5
8C
330
86
100
AcDbEntity
  8
0
100
AcDbBlockEnd
  0
BLOCK
  5
90
330
8D
100
AcDbEntity
  8
0
100
AcDbBlockBegin
  2
CDWK_PTTYP2
 70
     0
 10
0.0
 20
0.0
 30
0.0
  3
CDWK_PTTYP2
  1

  0
LINE
  5
8E
330
8D
100
AcDbEntity
  8
0
 62
     0
370
    -2
100
AcDbLine
 10
0.0
 20
0.5
 30
0.0
 11
0.0
 21
-0.5
 31
0.0
  0
LINE
  5
8F
330
8D
100
AcDbEntity
  8
0
 62
     0
370
    -2
100
AcDbLine
 10
0.5
 20
0.0
 30
0.0
 11
-0.5
 21
0.0
 31
0.0
  0
ENDBLK
  5
91
330
8D
100
AcDbEntity
  8
0
100
AcDbBlockEnd
  0
BLOCK
  5
94
330
92
100
AcDbEntity
  8
0
100
AcDbBlockBegin
  2
CDWK_PTTYP4
 70
     0
 10
0.0
 20
0.0
 30
0.0
  3
CDWK_PTTYP4
  1

  0
HATCH
  5
93
330
92
100
AcDbEntity
  8
0
 62
     0
370
    -2
100
AcDbHatch
 10
0.0
 20
0.0
 30
0.0
210
0.0
220
0.0
230
1.0
  2
SOLID
 70
     1
 71
     1
 91
        1
 92
        1
 93
        1
 72
     2
 10
0.0
 20
0.0
 40
0.5
 50
0.0
 51
360.0
 73
     1
 97
        0
 75
     0
 76
     1
 98
        0
  0
ENDBLK
  5
95
330
92
100
AcDbEntity
  8
0
100
AcDbBlockEnd
  0
BLOCK
  5
9D
330
96
100
AcDbEntity
  8
0
100
AcDbBlockBegin
  2
CDWK_PTTYP5
 70
     0
 10
0.0
 20
0.0
 30
0.0
  3
CDWK_PTTYP5
  1

  0
LINE
  5
97
330
96
100
AcDbEntity
  8
0
 62
     0
370
    -2
100
AcDbLine
 10
-0.5
 20
0.5
 30
0.0
 11
0.5
 21
0.5
 31
0.0
  0
LINE
  5
98
330
96
100
AcDbEntity
  8
0
 62
     0
370
    -2
100
AcDbLine
 10
0.5
 20
0.5
 30
0.0
 11
0.5
 21
-0.5
 31
0.0
  0
LINE
  5
99
330
96
100
AcDbEntity
  8
0
 62
     0
370
    -2
100
AcDbLine
 10
0.5
 20
-0.5
 30
0.0
 11
-0.5
 21
-0.5
 31
0.0
  0
LINE
  5
9A
330
96
100
AcDbEntity
  8
0
 62
     0
370
    -2
100
AcDbLine
 10
-0.5
 20
-0.5
 30
0.0
 11
-0.5
 21
0.5
 31
0.0
  0
HATCH
  5
9B
330
96
100
AcDbEntity
  8
0
 62
     0
370
    -2
100
AcDbHatch
 10
0.0
 20
0.0
 30
0.0
210
0.0
220
0.0
230
1.0
  2
SOLID
 70
     1
 71
     1
 91
        1
 92
        3
 72
     0
 73
     1
 93
        4
 10
-0.5
 20
0.0
 10
0.0
 20
0.0
 10
0.0
 20
-0.5
 10
-0.5
 20
-0.5
 97
        0
 75
     0
 76
     1
 98
        0
  0
HATCH
  5
9C
330
96
100
AcDbEntity
  8
0
 62
     0
370
    -2
100
AcDbHatch
 10
0.0
 20
0.0
 30
0.0
210
0.0
220
0.0
230
1.0
  2
SOLID
 70
     1
 71
     1
 91
        1
 92
        3
 72
     0
 73
     1
 93
        4
 10
0.0
 20
0.0
 10
0.5
 20
0.0
 10
0.5
 20
0.5
 10
0.0
 20
0.5
 97
        0
 75
     0
 76
     1
 98
        0
  0
ENDBLK
  5
9E
330
96
100
AcDbEntity
  8
0
100
AcDbBlockEnd
  0
BLOCK
  5
A5
330
9F
100
AcDbEntity
  8
0
100
AcDbBlockBegin
  2
CDWK_PTTYP6
 70
     0
 10
0.0
 20
0.0
 30
0.0
  3
CDWK_PTTYP6
  1

  0
LINE
  5
A0
330
9F
100
AcDbEntity
  8
0
 62
     0
370
    -2
100
AcDbLine
 10
-0.5
 20
0.5
 30
0.0
 11
0.5
 21
0.5
 31
0.0
  0
LINE
  5
A1
330
9F
100
AcDbEntity
  8
0
 62
     0
370
    -2
100
AcDbLine
 10
0.5
 20
0.5
 30
0.0
 11
0.5
 21
-0.5
 31
0.0
  0
LINE
  5
A2
330
9F
100
AcDbEntity
  8
0
 62
     0
370
    -2
100
AcDbLine
 10
0.5
 20
-0.5
 30
0.0
 11
-0.5
 21
-0.5
 31
0.0
  0
LINE
  5
A3
330
9F
100
AcDbEntity
  8
0
 62
     0
370
    -2
100
AcDbLine
 10
-0.5
 20
-0.5
 30
0.0
 11
-0.5
 21
0.5
 31
0.0
  0
HATCH
  5
A4
330
9F
100
AcDbEntity
  8
0
 62
     0
370
    -2
100
AcDbHatch
 10
0.0
 20
0.0
 30
0.0
210
0.0
220
0.0
230
1.0
  2
SOLID
 70
     1
 71
     1
 91
        1
 92
        3
 72
     0
 73
     1
 93
        3
 10
-0.5
 20
-0.5
 10
-0.5
 20
0.5
 10
0.5
 20
0.5
 97
        0
 75
     0
 76
     1
 98
        0
  0
ENDBLK
  5
A6
330
9F
100
AcDbEntity
  8
0
100
AcDbBlockEnd
  0
BLOCK
  5
AE
330
A7
100
AcDbEntity
  8
0
100
AcDbBlockBegin
  2
CDWK_PTTYP7
 70
     0
 10
0.0
 20
0.0
 30
0.0
  3
CDWK_PTTYP7
  1

  0
LINE
  5
A8
330
A7
100
AcDbEntity
  8
0
 62
     0
370
    -2
100
AcDbLine
 10
-0.5
 20
0.5
 30
0.0
 11
0.5
 21
0.5
 31
0.0
  0
LINE
  5
A9
330
A7
100
AcDbEntity
  8
0
 62
     0
370
    -2
100
AcDbLine
 10
0.5
 20
0.5
 30
0.0
 11
0.5
 21
-0.5
 31
0.0
  0
LINE
  5
AA
330
A7
100
AcDbEntity
  8
0
 62
     0
370
    -2
100
AcDbLine
 10
0.5
 20
-0.5
 30
0.0
 11
-0.5
 21
-0.5
 31
0.0
  0
LINE
  5
AB
330
A7
100
AcDbEntity
  8
0
 62
     0
370
    -2
100
AcDbLine
 10
-0.5
 20
-0.5
 30
0.0
 11
-0.5
 21
0.5
 31
0.0
  0
LINE
  5
AC
330
A7
100
AcDbEntity
  8
0
 62
     0
370
    -2
100
AcDbLine
 10
0.0
 20
0.5
 30
0.0
 11
0.0
 21
-0.5
 31
0.0
  0
LINE
  5
AD
330
A7
100
AcDbEntity
  8
0
 62
     0
370
    -2
100
AcDbLine
 10
0.5
 20
0.0
 30
0.0
 11
-0.5
 21
0.0
 31
0.0
  0
ENDBLK
  5
AF
330
A7
100
AcDbEntity
  8
0
100
AcDbBlockEnd
  0
BLOCK
  5
B2
330
B0
100
AcDbEntity
  8
0
100
AcDbBlockBegin
  2
CDWK_PTTYP8
 70
     0
 10
0.0
 20
0.0
 30
0.0
  3
CDWK_PTTYP8
  1

  0
HATCH
  5
B1
330
B0
100
AcDbEntity
  8
0
 62
     0
370
    -2
100
AcDbHatch
 10
0.0
 20
0.0
 30
0.0
210
0.0
220
0.0
230
1.0
  2
SOLID
 70
     1
 71
     1
 91
        1
 92
        3
 72
     0
 73
     1
 93
        4
 10
0.5
 20
0.5
 10
0.5
 20
-0.5
 10
-0.5
 20
-0.5
 10
-0.5
 20
0.5
 97
        0
 75
     0
 76
     1
 98
        0
  0
ENDBLK
  5
B3
330
B0
100
AcDbEntity
  8
0
100
AcDbBlockEnd
  0
BLOCK
  5
B7
330
B4
100
AcDbEntity
  8
0
100
AcDbBlockBegin
  2
CDWK_PTTYP9
 70
     0
 10
0.0
 20
0.0
 30
0.0
  3
CDWK_PTTYP9
  1

  0
CIRCLE
  5
B5
330
B4
100
AcDbEntity
  8
0
 62
     0
370
    -2
100
AcDbCircle
 10
0.0
 20
0.0
 30
0.0
 40
0.1666666666666667
  0
CIRCLE
  5
B6
330
B4
100
AcDbEntity
  8
0
 62
     0
370
    -2
100
AcDbCircle
 10
0.0
 20
0.0
 30
0.0
 40
0.5
  0
ENDBLK
  5
B8
330
B4
100
AcDbEntity
  8
0
100
AcDbBlockEnd
  0
BLOCK
  5
BB
330
B9
100
AcDbEntity
  8
0
100
AcDbBlockBegin
  2
CDWK_PTTYP10
 70
     0
 10
0.0
 20
0.0
 30
0.0
  3
CDWK_PTTYP10
  1

  0
CIRCLE
  5
BA
330
B9
100
AcDbEntity
  8
0
 62
     0
370
    -2
100
AcDbCircle
 10
0.0
 20
0.0
 30
0.0
 40
0.5
  0
ENDBLK
  5
BC
330
B9
100
AcDbEntity
  8
0
100
AcDbBlockEnd
  0
BLOCK
  5
C0
330
BD
100
AcDbEntity
  8
0
100
AcDbBlockBegin
  2
CDWK_PTTYP11
 70
     0
 10
0.0
 20
0.0
 30
0.0
  3
CDWK_PTTYP11
  1

  0
CIRCLE
  5
BE
330
BD
100
AcDbEntity
  8
0
 62
     0
370
    -2
100
AcDbCircle
 10
0.0
 20
0.0
 30
0.0
 40
0.25
  0
CIRCLE
  5
BF
330
BD
100
AcDbEntity
  8
0
 62
     0
370
    -2
100
AcDbCircle
 10
0.0
 20
0.0
 30
0.0
 40
0.5
  0
ENDBLK
  5
C1
330
BD
100
AcDbEntity
  8
0
100
AcDbBlockEnd
  0
BLOCK
  5
C5
330
C2
100
AcDbEntity
  8
0
100
AcDbBlockBegin
  2
CDWK_PTTYP12
 70
     0
 10
0.0
 20
0.0
 30
0.0
  3
CDWK_PTTYP12
  1

  0
CIRCLE
  5
C3
330
C2
100
AcDbEntity
  8
0
 62
     0
370
    -2
100
AcDbCircle
 10
0.25
 20
0.0
 30
0.0
 40
0.25
  0
CIRCLE
  5
C4
330
C2
100
AcDbEntity
  8
0
 62
     0
370
    -2
100
AcDbCircle
 10
0.0
 20
0.0
 30
0.0
 40
0.5
  0
ENDBLK
  5
C6
330
C2
100
AcDbEntity
  8
0
100
AcDbBlockEnd
  0
BLOCK
  5
CB
330
C7
100
AcDbEntity
  8
0
100
AcDbBlockBegin
  2
CDWK_PTTYP13
 70
     0
 10
0.0
 20
0.0
 30
0.0
  3
CDWK_PTTYP13
  1

  0
CIRCLE
  5
C8
330
C7
100
AcDbEntity
  8
0
 62
     0
370
    -2
100
AcDbCircle
 10
-0.25
 20
0.0
 30
0.0
 40
0.25
  0
CIRCLE
  5
C9
330
C7
100
AcDbEntity
  8
0
 62
     0
370
    -2
100
AcDbCircle
 10
0.25
 20
0.0
 30
0.0
 40
0.25
  0
CIRCLE
  5
CA
330
C7
100
AcDbEntity
  8
0
 62
     0
370
    -2
100
AcDbCircle
 10
0.0
 20
0.0
 30
0.0
 40
0.5
  0
ENDBLK
  5
CC
330
C7
100
AcDbEntity
  8
0
100
AcDbBlockEnd
  0
BLOCK
  5
D2
330
CD
100
AcDbEntity
  8
0
100
AcDbBlockBegin
  2
CDWK_PTTYP16
 70
     0
 10
0.0
 20
0.0
 30
0.0
  3
CDWK_PTTYP16
  1

  0
LINE
  5
CE
330
CD
100
AcDbEntity
  8
0
 62
     0
370
    -2
100
AcDbLine
 10
-0.5
 20
-0.289
 30
0.0
 11
0.5
 21
-0.289
 31
0.0
  0
LINE
  5
CF
330
CD
100
AcDbEntity
  8
0
 62
     0
370
    -2
100
AcDbLine
 10
0.5
 20
-0.289
 30
0.0
 11
0.0
 21
0.577
 31
0.0
  0
LINE
  5
D0
330
CD
100
AcDbEntity
  8
0
 62
     0
370
    -2
100
AcDbLine
 10
0.0
 20
0.577
 30
0.0
 11
-0.5
 21
-0.289
 31
0.0
  0
CIRCLE
  5
D1
330
CD
100
AcDbEntity
  8
0
 62
     0
370
    -2
100
AcDbCircle
 10
0.0
 20
0.0
 30
0.0
 40
0.289
  0
ENDBLK
  5
D3
330
CD
100
AcDbEntity
  8
0
100
AcDbBlockEnd
  0
BLOCK
  5
D7
330
D4
100
AcDbEntity
  8
0
100
AcDbBlockBegin
  2
CDWK_PTTYP17
 70
     0
 10
0.0
 20
0.0
 30
0.0
  3
CDWK_PTTYP17
  1

  0
CIRCLE
  5
D5
330
D4
100
AcDbEntity
  8
0
 62
     0
370
    -2
100
AcDbCircle
 10
0.0
 20
0.0
 30
0.0
 40
0.5
  0
HATCH
  5
D6
330
D4
100
AcDbEntity
  8
0
 62
     0
370
    -2
100
AcDbHatch
 10
0.0
 20
0.0
 30
0.0
210
0.0
220
0.0
230
1.0
  2
SOLID
 70
     1
 71
     1
 91
        1
 92
        1
 93
        1
 72
     2
 10
0.0
 20
0.0
 40
0.25
 50
0.0
 51
360.0
 73
     1
 97
        0
 75
     0
 76
     1
 98
        0
  0
ENDBLK
  5
D8
330
D4
100
AcDbEntity
  8
0
100
AcDbBlockEnd
  0
BLOCK
  5
DC
330
D9
100
AcDbEntity
  8
0
100
AcDbBlockBegin
  2
CDWK_PTTYP18
 70
     0
 10
0.0
 20
0.0
 30
0.0
  3
CDWK_PTTYP18
  1

  0
CIRCLE
  5
DA
330
D9
100
AcDbEntity
  8
0
 62
     0
370
    -2
100
AcDbCircle
 10
0.0
 20
0.0
 30
0.0
 40
0.5
  0
CIRCLE
  5
DB
330
D9
100
AcDbEntity
  8
0
 62
     0
370
    -2
100
AcDbCircle
 10
0.0
 20
0.0
 30
0.0
 40
0.208
  0
ENDBLK
  5
DD
330
D9
100
AcDbEntity
  8
0
100
AcDbBlockEnd
  0
BLOCK
  5
E2
330
DE
100
AcDbEntity
  8
0
100
AcDbBlockBegin
  2
CDWK_PTTYP19
 70
     0
 10
0.0
 20
0.0
 30
0.0
  3
CDWK_PTTYP19
  1

  0
CIRCLE
  5
DF
330
DE
100
AcDbEntity
  8
0
 62
     0
370
    -2
100
AcDbCircle
 10
0.0
 20
0.0
 30
0.0
 40
0.25
  0
CIRCLE
  5
E0
330
DE
100
AcDbEntity
  8
0
 62
     0
370
    -2
100
AcDbCircle
 10
0.0
 20
0.0
 30
0.0
 40
0.35
  0
LINE
  5
E1
330
DE
100
AcDbEntity
  8
0
 62
     0
370
    -2
100
AcDbLine
 10
-0.25
 20
0.0
 30
0.0
 11
0.25
 21
0.0
 31
0.0
  0
ENDBLK
  5
E3
330
DE
100
AcDbEntity
  8
0
100
AcDbBlockEnd
  0
BLOCK
  5
E7
330
E4
100
AcDbEntity
  8
0
100
AcDbBlockBegin
  2
CDWK_PTTYP20
 70
     0
 10
0.0
 20
0.0
 30
0.0
  3
CDWK_PTTYP20
  1

  0
CIRCLE
  5
E5
330
E4
100
AcDbEntity
  8
0
 62
     0
370
    -2
100
AcDbCircle
 10
0.0
 20
0.0
 30
0.0
 40
0.3333333333333333
  0
CIRCLE
  5
E6
330
E4
100
AcDbEntity
  8
0
 62
     0
370
    -2
100
AcDbCircle
 10
0.0
 20
0.0
 30
0.0
 40
0.5
  0
ENDBLK
  5
E8
330
E4
100
AcDbEntity
  8
0
100
AcDbBlockEnd
  0
BLOCK
  5
EC
330
E9
100
AcDbEntity
  8
0
100
AcDbBlockBegin
  2
CDWK_PTTYP21
 70
     0
 10
0.0
 20
0.0
 30
0.0
  3
CDWK_PTTYP21
  1

  0
CIRCLE
  5
EA
330
E9
100
AcDbEntity
  8
0
 62
     0
370
    -2
100
AcDbCircle
 10
0.0
 20
0.0
 30
0.0
 40
0.5
  0
LINE
  5
EB
330
E9
100
AcDbEntity
  8
0
 62
     0
370
    -2
100
AcDbLine
 10
-0.5
 20
0.0
 30
0.0
 11
0.5
 21
0.0
 31
0.0
  0
ENDBLK
  5
ED
330
E9
100
AcDbEntity
  8
0
100
AcDbBlockEnd
  0
BLOCK
  5
F3
330
EE
100
AcDbEntity
  8
0
100
AcDbBlockBegin
  2
CDWK_PTTYP25
 70
     0
 10
0.0
 20
0.0
 30
0.0
  3
CDWK_PTTYP25
  1

  0
LINE
  5
EF
330
EE
100
AcDbEntity
  8
0
 62
     0
370
    -2
100
AcDbLine
 10
0.0
 20
0.5
 30
0.0
 11
-0.4330127018922193
 21
-0.25
 31
0.0
  0
LINE
  5
F0
330
EE
100
AcDbEntity
  8
0
 62
     0
370
    -2
100
AcDbLine
 10
-0.4330127018922193
 20
-0.25
 30
0.0
 11
0.4330127018922193
 21
-0.25
 31
0.0
  0
LINE
  5
F1
330
EE
100
AcDbEntity
  8
0
 62
     0
370
    -2
100
AcDbLine
 10
0.4330127018922193
 20
-0.25
 30
0.0
 11
0.0
 21
0.5
 31
0.0
  0
CIRCLE
  5
F2
330
EE
100
AcDbEntity
  8
0
 62
     0
370
    -2
100
AcDbCircle
 10
0.0
 20
0.0
 30
0.0
 40
0.5
  0
ENDBLK
  5
F4
330
EE
100
AcDbEntity
  8
0
100
AcDbBlockEnd
  0
BLOCK
  5
FA
330
F5
100
AcDbEntity
  8
0
100
AcDbBlockBegin
  2
CDWK_PTTYP26
 70
     0
 10
0.0
 20
0.0
 30
0.0
  3
CDWK_PTTYP26
  1

  0
LINE
  5
F6
330
F5
100
AcDbEntity
  8
0
 62
     0
370
    -2
100
AcDbLine
 10
-0.5
 20
-0.289
 30
0.0
 11
0.5
 21
-0.289
 31
0.0
  0
LINE
  5
F7
330
F5
100
AcDbEntity
  8
0
 62
     0
370
    -2
100
AcDbLine
 10
0.5
 20
-0.289
 30
0.0
 11
0.0
 21
0.577
 31
0.0
  0
LINE
  5
F8
330
F5
100
AcDbEntity
  8
0
 62
     0
370
    -2
100
AcDbLine
 10
0.0
 20
0.577
 30
0.0
 11
-0.5
 21
-0.289
 31
0.0
  0
CIRCLE
  5
F9
330
F5
100
AcDbEntity
  8
0
 62
     0
370
    -2
100
AcDbCircle
 10
0.0
 20
0.0
 30
0.0
 40
0.125
  0
ENDBLK
  5
FB
330
F5
100
AcDbEntity
  8
0
100
AcDbBlockEnd
  0
BLOCK
  5
102
330
FC
100
AcDbEntity
  8
0
100
AcDbBlockBegin
  2
CDWK_PTTYP27
 70
     0
 10
0.0
 20
0.0
 30
0.0
  3
CDWK_PTTYP27
  1

  0
LINE
  5
FD
330
FC
100
AcDbEntity
  8
0
 62
     0
370
    -2
100
AcDbLine
 10
0.0
 20
0.5
 30
0.0
 11
-0.4330127018922193
 21
-0.25
 31
0.0
  0
LINE
  5
FE
330
FC
100
AcDbEntity
  8
0
 62
     0
370
    -2
100
AcDbLine
 10
-0.4330127018922193
 20
-0.25
 30
0.0
 11
0.4330127018922193
 21
-0.25
 31
0.0
  0
LINE
  5
FF
330
FC
100
AcDbEntity
  8
0
 62
     0
370
    -2
100
AcDbLine
 10
0.4330127018922193
 20
-0.25
 30
0.0
 11
0.0
 21
0.5
 31
0.0
  0
CIRCLE
  5
100
330
FC
100
AcDbEntity
  8
0
 62
     0
370
    -2
100
AcDbCircle
 10
0.0
 20
0.0
 30
0.0
 40
0.125
  0
CIRCLE
  5
101
330
FC
100
AcDbEntity
  8
0
 62
     0
370
    -2
100
AcDbCircle
 10
0.0
 20
0.0
 30
0.0
 40
0.5
  0
ENDBLK
  5
103
330
FC
100
AcDbEntity
  8
0
100
AcDbBlockEnd
  0
BLOCK
  5
109
330
104
100
AcDbEntity
  8
0
100
AcDbBlockBegin
  2
CDWK_PTTYP28
 70
     0
 10
0.0
 20
0.0
 30
0.0
  3
CDWK_PTTYP28
  1

  0
LINE
  5
105
330
104
100
AcDbEntity
  8
0
 62
     0
370
    -2
100
AcDbLine
 10
-0.5
 20
0.5
 30
0.0
 11
0.5
 21
0.5
 31
0.0
  0
LINE
  5
106
330
104
100
AcDbEntity
  8
0
 62
     0
370
    -2
100
AcDbLine
 10
0.5
 20
0.5
 30
0.0
 11
-0.5
 21
-0.5
 31
0.0
  0
LINE
  5
107
330
104
100
AcDbEntity
  8
0
 62
     0
370
    -2
100
AcDbLine
 10
0.5
 20
-0.5
 30
0.0
 11
-0.5
 21
-0.5
 31
0.0
  0
LINE
  5
108
330
104
100
AcDbEntity
  8
0
 62
     0
370
    -2
100
AcDbLine
 10
-0.5
 20
0.5
 30
0.0
 11
0.5
 21
-0.5
 31
0.0
  0
ENDBLK
  5
10A
330
104
100
AcDbEntity
  8
0
100
AcDbBlockEnd
  0
BLOCK
  5
10F
330
10B
100
AcDbEntity
  8
0
100
AcDbBlockBegin
  2
CDWK_PTTYP29
 70
     0
 10
0.0
 20
0.0
 30
0.0
  3
CDWK_PTTYP29
  1

  0
CIRCLE
  5
10C
330
10B
100
AcDbEntity
  8
0
 62
     0
370
    -2
100
AcDbCircle
 10
0.0
 20
0.0
 30
0.0
 40
0.2
  0
CIRCLE
  5
10D
330
10B
100
AcDbEntity
  8
0
 62
     0
370
    -2
100
AcDbCircle
 10
0.0
 20
0.0
 30
0.0
 40
0.35
  0
CIRCLE
  5
10E
330
10B
100
AcDbEntity
  8
0
 62
     0
370
    -2
100
AcDbCircle
 10
0.0
 20
0.0
 30
0.0
 40
0.5
  0
ENDBLK
  5
110
330
10B
100
AcDbEntity
  8
0
100
AcDbBlockEnd
  0
BLOCK
  5
116
330
111
100
AcDbEntity
  8
0
100
AcDbBlockBegin
  2
CDWK_PTTYP30
 70
     0
 10
0.0
 20
0.0
 30
0.0
  3
CDWK_PTTYP30
  1

  0
LINE
  5
112
330
111
100
AcDbEntity
  8
0
 62
     0
370
    -2
100
AcDbLine
 10
-0.5
 20
0.5
 30
0.0
 11
-0.1
 21
0.1
 31
0.0
  0
LINE
  5
113
330
111
100
AcDbEntity
  8
0
 62
     0
370
    -2
100
AcDbLine
 10
0.5
 20
0.5
 30
0.0
 11
0.1
 21
0.1
 31
0.0
  0
LINE
  5
114
330
111
100
AcDbEntity
  8
0
 62
     0
370
    -2
100
AcDbLine
 10
0.5
 20
-0.5
 30
0.0
 11
0.1
 21
-0.1
 31
0.0
  0
LINE
  5
115
330
111
100
AcDbEntity
  8
0
 62
     0
370
    -2
100
AcDbLine
 10
-0.5
 20
-0.5
 30
0.0
 11
-0.1
 21
-0.1
 31
0.0
  0
ENDBLK
  5
117
330
111
100
AcDbEntity
  8
0
100
AcDbBlockEnd
  0
BLOCK
  5
11E
330
118
100
AcDbEntity
  8
0
100
AcDbBlockBegin
  2
CDWK_PTTYP31
 70
     0
 10
0.0
 20
0.0
 30
0.0
  3
CDWK_PTTYP31
  1

  0
LINE
  5
119
330
118
100
AcDbEntity
  8
0
 62
     0
370
    -2
100
AcDbLine
 10
-0.5
 20
0.0
 30
0.0
 11
-0.1
 21
0.0
 31
0.0
  0
LINE
  5
11A
330
118
100
AcDbEntity
  8
0
 62
     0
370
    -2
100
AcDbLine
 10
0.1
 20
0.0
 30
0.0
 11
0.5
 21
0.0
 31
0.0
  0
LINE
  5
11B
330
118
100
AcDbEntity
  8
0
 62
     0
370
    -2
100
AcDbLine
 10
0.0
 20
0.5
 30
0.0
 11
0.0
 21
0.1
 31
0.0
  0
LINE
  5
11C
330
118
100
AcDbEntity
  8
0
 62
     0
370
    -2
100
AcDbLine
 10
0.0
 20
-0.1
 30
0.0
 11
0.0
 21
-0.5
 31
0.0
  0
CIRCLE
  5
11D
330
118
100
AcDbEntity
  8
0
 62
     0
370
    -2
100
AcDbCircle
 10
0.0
 20
0.0
 30
0.0
 40
0.1
  0
ENDBLK
  5
11F
330
118
100
AcDbEntity
  8
0
100
AcDbBlockEnd
  0
BLOCK
  5
127
330
120
100
AcDbEntity
  8
0
100
AcDbBlockBegin
  2
CDWK_PTTYP32
 70
     0
 10
0.0
 20
0.0
 30
0.0
  3
CDWK_PTTYP32
  1

  0
CIRCLE
  5
121
330
120
100
AcDbEntity
  8
0
 62
     0
370
    -2
100
AcDbCircle
 10
0.0
 20
0.0
 30
0.0
 40
0.2
  0
CIRCLE
  5
122
330
120
100
AcDbEntity
  8
0
 62
     0
370
    -2
100
AcDbCircle
 10
0.0
 20
0.0
 30
0.0
 40
0.5
  0
LINE
  5
123
330
120
100
AcDbEntity
  8
0
 62
     0
370
    -2
100
AcDbLine
 10
0.1414213562373095
 20
0.1414213562373095
 30
0.0
 11
0.3535533905932738
 21
0.3535533905932738
 31
0.0
  0
LINE
  5
124
330
120
100
AcDbEntity
  8
0
 62
     0
370
    -2
100
AcDbLine
 10
-0.1414213562373095
 20
0.1414213562373095
 30
0.0
 11
-0.3535533905932738
 21
0.3535533905932738
 31
0.0
  0
LINE
  5
125
330
120
100
AcDbEntity
  8
0
 62
     0
370
    -2
100
AcDbLine
 10
0.1414213562373095
 20
-0.1414213562373095
 30
0.0
 11
0.3535533905932738
 21
-0.3535533905932738
 31
0.0
  0
LINE
  5
126
330
120
100
AcDbEntity
  8
0
 62
     0
370
    -2
100
AcDbLine
 10
-0.1414213562373095
 20
-0.1414213562373095
 30
0.0
 11
-0.3535533905932738
 21
-0.3535533905932738
 31
0.0
  0
ENDBLK
  5
128
330
120
100
AcDbEntity
  8
0
100
AcDbBlockEnd
  0
BLOCK
  5
12D
330
129
100
AcDbEntity
  8
0
100
AcDbBlockBegin
  2
CDWK_PTTYP33
 70
     0
 10
0.0
 20
0.0
 30
0.0
  3
CDWK_PTTYP33
  1

  0
LINE
  5
12A
330
129
100
AcDbEntity
  8
0
 62
     0
370
    -2
100
AcDbLine
 10
0.0
 20
-0.5
 30
0.0
 11
0.0
 21
0.5
 31
0.0
  0
LINE
  5
12B
330
129
100
AcDbEntity
  8
0
 62
     0
370
    -2
100
AcDbLine
 10
0.5
 20
0.0
 30
0.0
 11
-0.5
 21
0.0
 31
0.0
  0
CIRCLE
  5
12C
330
129
100
AcDbEntity
  8
0
 62
     0
370
    -2
100
AcDbCircle
 10
0.0
 20
0.0
 30
0.0
 40
0.5
  0
ENDBLK
  5
12E
330
129
100
AcDbEntity
  8
0
100
AcDbBlockEnd
  0
BLOCK
  5
133
330
12F
100
AcDbEntity
  8
0
100
AcDbBlockBegin
  2
CDWK_PTTYP34
 70
     0
 10
0.0
 20
0.0
 30
0.0
  3
CDWK_PTTYP34
  1

  0
CIRCLE
  5
130
330
12F
100
AcDbEntity
  8
0
 62
     0
370
    -2
100
AcDbCircle
 10
0.0
 20
0.0
 30
0.0
 40
0.5
  0
LINE
  5
131
330
12F
100
AcDbEntity
  8
0
 62
     0
370
    -2
100
AcDbLine
 10
-0.4
 20
-0.3
 30
0.0
 11
0.3
 21
0.4
 31
0.0
  0
LINE
  5
132
330
12F
100
AcDbEntity
  8
0
 62
     0
370
    -2
100
AcDbLine
 10
-0.3
 20
-0.4
 30
0.0
 11
0.4
 21
0.3
 31
0.0
  0
ENDBLK
  5
134
330
12F
100
AcDbEntity
  8
0
100
AcDbBlockEnd
  0
BLOCK
  5
139
330
135
100
AcDbEntity
  8
0
100
AcDbBlockBegin
  2
CDWK_PTTYP35
 70
     0
 10
0.0
 20
0.0
 30
0.0
  3
CDWK_PTTYP35
  1

  0
LINE
  5
136
330
135
100
AcDbEntity
  8
0
 62
     0
370
    -2
100
AcDbLine
 10
0.0
 20
0.2
 30
0.0
 11
0.0
 21
0.5
 31
0.0
  0
LINE
  5
137
330
135
100
AcDbEntity
  8
0
 62
     0
370
    -2
100
AcDbLine
 10
0.0
 20
-0.2
 30
0.0
 11
0.0
 21
-0.5
 31
0.0
  0
CIRCLE
  5
138
330
135
100
AcDbEntity
  8
0
 62
     0
370
    -2
100
AcDbCircle
 10
0.0
 20
0.0
 30
0.0
 40
0.2
  0
ENDBLK
  5
13A
330
135
100
AcDbEntity
  8
0
100
AcDbBlockEnd
  0
BLOCK
  5
141
330
13B
100
AcDbEntity
  8
0
100
AcDbBlockBegin
  2
CDWK_PTTYP36
 70
     0
 10
0.0
 20
0.0
 30
0.0
  3
CDWK_PTTYP36
  1

  0
LINE
  5
13C
330
13B
100
AcDbEntity
  8
0
 62
     0
370
    -2
100
AcDbLine
 10
-0.5
 20
0.2
 30
0.0
 11
0.5
 21
0.2
 31
0.0
  0
LINE
  5
13D
330
13B
100
AcDbEntity
  8
0
 62
     0
370
    -2
100
AcDbLine
 10
0.5
 20
0.2
 30
0.0
 11
0.5
 21
-0.2
 31
0.0
  0
LINE
  5
13E
330
13B
100
AcDbEntity
  8
0
 62
     0
370
    -2
100
AcDbLine
 10
0.5
 20
-0.2
 30
0.0
 11
-0.5
 21
-0.2
 31
0.0
  0
LINE
  5
13F
330
13B
100
AcDbEntity
  8
0
 62
     0
370
    -2
100
AcDbLine
 10
-0.5
 20
-0.2
 30
0.0
 11
-0.5
 21
0.2
 31
0.0
  0
HATCH
  5
140
330
13B
100
AcDbEntity
  8
0
 62
     0
370
    -2
100
AcDbHatch
 10
0.0
 20
0.0
 30
0.0
210
0.0
220
0.0
230
1.0
  2
SOLID
 70
     1
 71
     1
 91
        1
 92
        3
 72
     0
 73
     1
 93
        3
 10
-0.5
 20
-0.2
 10
0.5
 20
-0.2
 10
0.5
 20
0.2
 97
        0
 75
     0
 76
     1
 98
        0
  0
ENDBLK
  5
142
330
13B
100
AcDbEntity
  8
0
100
AcDbBlockEnd
  0
BLOCK
  5
146
330
143
100
AcDbEntity
  8
0
100
AcDbBlockBegin
  2
CDWK_PTTYP37
 70
     0
 10
0.0
 20
0.0
 30
0.0
  3
CDWK_PTTYP37
  1

  0
HATCH
  5
144
330
143
100
AcDbEntity
  8
0
 62
     0
370
    -2
100
AcDbHatch
 10
0.0
 20
0.0
 30
0.0
210
0.0
220
0.0
230
1.0
  2
SOLID
 70
     1
 71
     1
 91
        1
 92
        3
 72
     0
 73
     1
 93
      202
 10
-0.3535533905932738
 20
-0.3535533905932738
 10
-0.3485533905932738
 20
-0.3535533905932737
 10
-0.3435533905932738
 20
-0.3584836591895546
 10
-0.3385533905932738
 20
-0.3632782236961988
 10
-0.3335533905932738
 20
-0.367942389128785
 10
-0.3285533905932738
 20
-0.372481054046687
 10
-0.3235533905932738
 20
-0.3768987523588579
 10
-0.3185533905932738
 20
-0.3811996897107819
 10
-0.3135533905932738
 20
-0.3853877752881235
 10
-0.3085533905932737
 20
-0.3894666497242888
 10
-0.3035533905932737
 20
-0.3934397096803965
 10
-0.2985533905932737
 20
-0.3973101295704999
 10
-0.2935533905932737
 20
-0.4010808808273714
 10
-0.2885533905932737
 20
-0.4047547490409382
 10
-0.2835533905932737
 20
-0.4083343492496384
 10
-0.2785533905932737
 20
-0.4118221396222626
 10
-0.2735533905932737
 20
-0.4152204337324827
 10
-0.2685533905932737
 20
-0.4185314115988474
 10
-0.2635533905932737
 20
-0.4217571296384408
 10
-0.2585533905932737
 20
-0.4248995296617653
 10
-0.2535533905932737
 20
-0.4279604470190231
 10
-0.2485533905932737
 20
-0.4309416179932669
 10
-0.2435533905932737
 20
-0.4338446865234004
 10
-0.2385533905932737
 20
-0.4366712103293738
 10
-0.2335533905932737
 20
-0.439422666502825
 10
-0.2285533905932737
 20
-0.4421004566186126
 10
-0.2235533905932737
 20
-0.4447059114159811
 10
-0.2185533905932737
 20
-0.4472402950923041
 10
-0.2135533905932737
 20
-0.4497048092473372
 10
-0.2085533905932737
 20
-0.4521005965115692
 10
-0.2035533905932737
 20
-0.4544287438884664
 10
-0.1985533905932736
 20
-0.456690285837111
 10
-0.1935533905932736
 20
-0.45888620711884
 10
-0.1885533905932736
 20
-0.4610174454289638
 10
-0.1835533905932736
 20
-0.4630848938324164
 10
-0.1785533905932736
 20
-0.4650894030202291
 10
-0.1735533905932736
 20
-0.4670317834019928
 10
-0.1685533905932736
 20
-0.46891280704794
 10
-0.1635533905932736
 20
-0.4707332094929264
 10
-0.1585533905932736
 20
-0.4724936914133818
 10
-0.1535533905932736
 20
-0.4741949201872336
 10
-0.1485533905932736
 20
-0.4758375313458466
 10
-0.1435533905932736
 20
-0.4774221299261716
 10
-0.1385533905932736
 20
-0.4789492917305286
 10
-0.1335533905932736
 20
-0.4804195645007682
 10
-0.1285533905932736
 20
-0.4818334690129366
 10
-0.1235533905932736
 20
-0.4831915000980183
 10
-0.1185533905932736
 20
-0.4844941275938295
 10
-0.1135533905932736
 20
-0.4857417972326848
 10
-0.1085533905932736
 20
-0.4869349314690531
 10
-0.1035533905932736
 20
-0.4880739302510473
 10
-0.0985533905932736
 20
-0.489159171739258
 10
-0.0935533905932736
 20
-0.4901910129761353
 10
-0.0885533905932736
 20
-0.4911697905088447
 10
-0.0835533905932735
 20
-0.4920958209682695
 10
-0.0785533905932735
 20
-0.4929694016065986
 10
-0.0735533905932735
 20
-0.4937908107957261
 10
-0.0685533905932735
 20
-0.494560308488493
 10
-0.0635533905932735
 20
-0.4952781366446192
 10
-0.0585533905932735
 20
-0.4959445196230107
 10
-0.0535533905932735
 20
-0.4965596645419678
 10
-0.0485533905932735
 20
-0.4971237616086806
 10
-0.0435533905932735
 20
-0.4976369844192622
 10
-0.0385533905932735
 20
-0.4980994902304456
 10
-0.0335533905932735
 20
-0.4985114202039533
 10
-0.0285533905932735
 20
-0.4988728996244386
 10
-0.0235533905932735
 20
-0.4991840380917923
 10
-0.0185533905932735
 20
-0.49944492968851
 10
-0.0135533905932735
 20
-0.4996556531227215
 10
-0.0085533905932735
 20
-0.4998162718473921
 10
-0.0035533905932735
 20
-0.4999268341561182
 10
0.0014466094067265
 20
-0.499987373255857
 10
0.0064466094067265
 20
-0.4999979073168451
 10
0.0114466094067265
 20
-0.4999584394998819
 10
0.0164466094067265
 20
-0.4998689579610739
 10
0.0214466094067265
 20
-0.4997294358340547
 10
0.0264466094067265
 20
-0.4995398311896213
 10
0.0314466094067265
 20
-0.4993000869726422
 10
0.0364466094067265
 20
-0.4990101309160174
 10
0.0414466094067265
 20
-0.4986698754313855
 10
0.0464466094067265
 20
-0.498279217476192
 10
0.0514466094067265
 20
-0.4978380383966446
 10
0.0564466094067265
 20
-0.497346203745994
 10
0.0614466094067265
 20
-0.4968035630774849
 10
0.0664466094067264
 20
-0.4962099497112257
 10
0.0714466094067265
 20
-0.4955651804741228
 10
0.0764466094067265
 20
-0.4948690554119167
 10
0.0814466094067265
 20
-0.4941213574722463
 10
0.0864466094067265
 20
-0.4933218521575424
 10
0.0914466094067265
 20
-0.4924702871464235
 10
0.0964466094067265
 20
-0.4915663918821278
 10
0.1014466094067265
 20
-0.4906098771263643
 10
0.1064466094067265
 20
-0.4896004344768079
 10
0.1114466094067265
 20
-0.4885377358462822
 10
0.1164466094067265
 20
-0.4874214329014929
 10
0.1214466094067265
 20
-0.4862511564589613
 10
0.1264466094067265
 20
-0.4850265158355881
 10
0.1314466094067265
 20
-0.4837470981510305
 10
0.1364466094067265
 20
-0.482412467578809
 10
0.1414466094067265
 20
-0.4810221645427664
 10
0.1464466094067265
 20
-0.4795757048551781
 10
0.1514466094067265
 20
-0.4780725787924608
 10
0.1564466094067265
 20
-0.4765122501040308
 10
0.1614466094067265
 20
-0.4748941549494363
 10
0.1664466094067265
 20
-0.4732177007584056
 10
0.1714466094067265
 20
-0.4714822650079264
 10
0.1764466094067265
 20
-0.4696871939098801
 10
0.1814466094067266
 20
-0.4678318010021017
 10
0.1864466094067266
 20
-0.4659153656350076
 10
0.1914466094067266
 20
-0.4639371313451162
 10
0.1964466094067266
 20
-0.4618963041058764
 10
0.2014466094067266
 20
-0.4597920504451997
 10
0.2064466094067266
 20
-0.4576234954179405
 10
0.2114466094067266
 20
-0.4553897204202862
 10
0.2164466094067266
 20
-0.4530897608315588
 10
0.2214466094067266
 20
-0.45072260346729
 10
0.2264466094067266
 20
-0.4482871838255748
 10
0.2314466094067266
 20
-0.4457823831065977
 10
0.2364466094067266
 20
-0.4432070249828292
 10
0.2414466094067266
 20
-0.4405598720946596
 10
0.2464466094067266
 20
-0.4378396222431172
 10
0.2514466094067266
 20
-0.4350449042477435
 10
0.2564466094067266
 20
-0.4321742734336012
 10
0.2614466094067266
 20
-0.4292262067066663
 10
0.2664466094067266
 20
-0.4261990971714118
 10
0.2714466094067266
 20
-0.4230912482380831
 10
0.2764466094067266
 20
-0.4199008671598476
 10
0.2814466094067266
 20
-0.4166260579314797
 10
0.2864466094067266
 20
-0.4132648134712868
 10
0.2914466094067266
 20
-0.4098150069963156
 10
0.2964466094067266
 20
-0.4062743824871597
 10
0.3014466094067266
 20
-0.4026405441224911
 10
0.3064466094067266
 20
-0.3989109445442534
 10
0.3114466094067266
 20
-0.3950828717916294
 10
0.3164466094067266
 20
-0.391153434714632
 10
0.3214466094067266
 20
-0.3871195466454601
 10
0.3264466094067267
 20
-0.3829779070663467
 10
0.3314466094067267
 20
-0.3787249809648844
 10
0.3364466094067267
 20
-0.3743569755097196
 10
0.3414466094067267
 20
-0.3698698136084067
 10
0.3464466094067267
 20
-0.3652591038217257
 10
0.3514466094067267
 20
-0.3605201060004601
 10
0.3564466094067267
 20
-0.3556476918757041
 10
0.3614466094067267
 20
-0.3506362996645505
 10
0.3664466094067267
 20
-0.34547988153926
 10
0.3714466094067267
 20
-0.3401718425359658
 10
0.3764466094067267
 20
-0.334704969129899
 10
0.3814466094067267
 20
-0.3290713452523318
 10
0.3864466094067267
 20
-0.3232622529342269
 10
0.3914466094067267
 20
-0.3172680539828188
 10
0.3964466094067267
 20
-0.3110780480586465
 10
0.4014466094067267
 20
-0.304680301118911
 10
0.4064466094067267
 20
-0.2980614362775617
 10
0.4114466094067267
 20
-0.291206376478565
 10
0.4164466094067267
 20
-0.2840980246459106
 10
0.4214466094067267
 20
-0.276716861635935
 10
0.4264466094067267
 20
-0.2690404345439063
 10
0.4314466094067267
 20
-0.2610426963649944
 10
0.4364466094067267
 20
-0.2526931404518915
 10
0.4414466094067268
 20
-0.2439556458403291
 10
0.4464466094067268
 20
-0.2347869056044327
 10
0.4514466094067268
 20
-0.2251342376211081
 10
0.4564466094067268
 20
-0.2149324518428296
 10
0.4614466094067268
 20
-0.2040992228331676
 10
0.4664466094067268
 20
-0.1925279893081412
 10
0.4714466094067268
 20
-0.1800765408735088
 10
0.4764466094067268
 20
-0.1665475742210051
 10
0.4814466094067268
 20
-0.1516529867323223
 10
0.4864466094067268
 20
-0.1349413290684758
 10
0.4914466094067268
 20
-0.1156274024472547
 10
0.4964466094067268
 20
-0.0920881648347501
 10
0.5
 20
0.0
 10
0.495
 20
0.0
 10
0.49
 20
0.0705336798983295
 10
0.485
 20
0.0994987437106621
 10
0.48
 20
0.1215524578114322
 10
0.475
 20
0.14
 10
0.47
 20
0.15612494995996
 10
0.465
 20
0.1705872210923199
 10
0.46
 20
0.1837797594948911
 10
0.455
 20
0.1959591794226544
 10
0.45
 20
0.2073041244162789
 10
0.445
 20
0.2179449471770338
 10
0.4399999999999999
 20
0.2279802623035601
 10
0.4349999999999999
 20
0.2374868417407584
 10
0.4299999999999999
 20
0.2465258607124211
 10
0.4249999999999999
 20
0.2551470164434615
 10
0.4199999999999999
 20
0.2633913438213186
 10
0.4149999999999999
 20
0.2712931993250108
 10
0.4099999999999999
 20
0.2788816953476869
 10
0.4049999999999999
 20
0.2861817604250838
 10
0.3999999999999999
 20
0.2932149382279151
 10
0.3949999999999999
 20
0.3000000000000002
 10
0.3899999999999999
 20
0.3065534211193868
 10
0.3849999999999999
 20
0.3128897569432404
 10
0.3799999999999999
 20
0.3190219428189855
 10
0.3749999999999999
 20
0.3249615361854385
 10
0.3699999999999999
 20
0.330718913883074
 10
0.3649999999999999
 20
0.3363034344160049
 10
0.3599999999999999
 20
0.3417235724968357
 10
0.3549999999999999
 20
0.3469870314579496
 10
0.3535533905932738
 20
0.3535533905932738
 97
        0
 75
     0
 76
     1
 98
        0
  0
CIRCLE
  5
145
330
143
100
AcDbEntity
  8
0
 62
     0
370
    -2
100
AcDbCircle
 10
0.0
 20
0.0
 30
0.0
 40
0.5
  0
ENDBLK
  5
147
330
143
100
AcDbEntity
  8
0
100
AcDbBlockEnd
  0
BLOCK
  5
14C
330
148
100
AcDbEntity
  8
0
100
AcDbBlockBegin
  2
CDWK_PTTYP38
 70
     0
 10
0.0
 20
0.0
 30
0.0
  3
CDWK_PTTYP38
  1

  0
HATCH
  5
149
330
148
100
AcDbEntity
  8
0
 62
     0
370
    -2
100
AcDbHatch
 10
0.0
 20
0.0
 30
0.0
210
0.0
220
0.0
230
1.0
  2
SOLID
 70
     1
 71
     1
 91
        1
 92
        3
 72
     0
 73
     1
 93
      102
 10
0.0
 20
0.0
 10
0.0
 20
0.5
 10
0.005
 20
0.5
 10
0.01
 20
0.4999749993749688
 10
0.015
 20
0.4998999899979995
 10
0.02
 20
0.4997749493522059
 10
0.025
 20
0.4995998398718718
 10
0.03
 20
0.4993746088859545
 10
0.035
 20
0.4990991885387112
 10
0.04
 20
0.4987734956871706
 10
0.045
 20
0.4983974317750845
 10
0.05
 20
0.4979708826829135
 10
0.055
 20
0.49749371855331
 10
0.06
 20
0.4969657935914704
 10
0.065
 20
0.4963869458396343
 10
0.07
 20
0.4957569969249047
 10
0.075
 20
0.4950757517794626
 10
0.08
 20
0.4943429983321297
 10
0.085
 20
0.4935585071701227
 10
0.09
 20
0.4927220311697053
 10
0.095
 20
0.4918333050943175
 10
0.1
 20
0.4908920451586071
 10
0.105
 20
0.4898979485566356
 10
0.11
 20
0.4888506929523574
 10
0.115
 20
0.4877499359302879
 10
0.12
 20
0.4865953144040744
 10
0.125
 20
0.4853864439804639
 10
0.13
 20
0.4841229182759271
 10
0.135
 20
0.4828043081829325
 10
0.14
 20
0.4814301610825811
 10
0.145
 20
0.48
 10
0.15
 20
0.478513322698543
 10
0.1550000000000001
 20
0.4769696007084728
 10
0.1600000000000001
 20
0.4753682782853731
 10
0.1650000000000001
 20
0.4737087712930804
 10
0.1700000000000001
 20
0.4719904660054056
 10
0.1750000000000001
 20
0.4702127178203498
 10
0.1800000000000001
 20
0.4683748498798799
 10
0.1850000000000001
 20
0.466476151587624
 10
0.1900000000000001
 20
0.4645158770160606
 10
0.1950000000000001
 20
0.4624932431938871
 10
0.2000000000000001
 20
0.460407428263272
 10
0.2050000000000001
 20
0.4582575694955839
 10
0.2100000000000001
 20
0.4560427611529427
 10
0.2150000000000001
 20
0.4537620521815371
 10
0.2200000000000001
 20
0.4514144437210665
 10
0.2250000000000001
 20
0.4489988864128729
 10
0.2300000000000001
 20
0.4465142774872937
 10
0.2350000000000001
 20
0.4439594576084622
 10
0.2400000000000001
 20
0.4413332074521472
 10
0.2450000000000001
 20
0.4386342439892261
 10
0.2500000000000001
 20
0.4358612164439502
 10
0.2550000000000001
 20
0.4330127018922192
 10
0.2600000000000001
 20
0.4300872004605577
 10
0.2650000000000001
 20
0.4270831300812524
 10
0.2700000000000001
 20
0.423998820753077
 10
0.2750000000000001
 20
0.4208325082500162
 10
0.2800000000000001
 20
0.4175823272122516
 10
0.2850000000000001
 20
0.4142463035441595
 10
0.2900000000000001
 20
0.4108223460329293
 10
0.2950000000000002
 20
0.4073082370883259
 10
0.3000000000000002
 20
0.403701622488689
 10
0.3050000000000002
 20
0.3999999999999999
 10
0.3100000000000002
 20
0.3962007067131506
 10
0.3150000000000002
 20
0.3923009049186605
 10
0.3200000000000002
 20
0.3882975663070783
 10
0.3250000000000002
 20
0.3841874542459708
 10
0.3300000000000002
 20
0.3799671038392664
 10
0.3350000000000002
 20
0.3756327994198588
 10
0.3400000000000002
 20
0.3711805490593491
 10
0.3450000000000002
 20
0.366606055596467
 10
0.3500000000000002
 20
0.3619046835839512
 10
0.3550000000000002
 20
0.3570714214271423
 10
0.3600000000000002
 20
0.3521008378291649
 10
0.3650000000000002
 20
0.3469870314579492
 10
0.3700000000000002
 20
0.3417235724968353
 10
0.3750000000000002
 20
0.3363034344160045
 10
0.3800000000000002
 20
0.3307189138830736
 10
0.3850000000000002
 20
0.3249615361854382
 10
0.3900000000000002
 20
0.3190219428189851
 10
0.3950000000000002
 20
0.31288975694324
 10
0.4000000000000002
 20
0.3065534211193863
 10
0.4050000000000002
 20
0.2999999999999997
 10
0.4100000000000003
 20
0.2932149382279147
 10
0.4150000000000003
 20
0.2861817604250834
 10
0.4200000000000003
 20
0.2788816953476864
 10
0.4250000000000003
 20
0.2712931993250103
 10
0.4300000000000003
 20
0.263391343821318
 10
0.4350000000000003
 20
0.255147016443461
 10
0.4400000000000003
 20
0.2465258607124206
 10
0.4450000000000003
 20
0.2374868417407578
 10
0.4500000000000003
 20
0.2279802623035594
 10
0.4550000000000003
 20
0.2179449471770331
 10
0.4600000000000003
 20
0.2073041244162782
 10
0.4650000000000003
 20
0.1959591794226536
 10
0.4700000000000003
 20
0.1837797594948903
 10
0.4750000000000003
 20
0.170587221092319
 10
0.4800000000000003
 20
0.156124949959959
 10
0.4850000000000003
 20
0.1399999999999989
 10
0.4900000000000003
 20
0.1215524578114309
 10
0.4950000000000003
 20
0.0994987437106604
 10
0.5
 20
0.0
 97
        0
 75
     0
 76
     1
 98
        0
  0
HATCH
  5
14A
330
148
100
AcDbEntity
  8
0
 62
     0
370
    -2
100
AcDbHatch
 10
0.0
 20
0.0
 30
0.0
210
0.0
220
0.0
230
1.0
  2
SOLID
 70
     1
 71
     1
 91
        1
 92
        3
 72
     0
 73
     1
 93
      102
 10
0.0
 20
0.0
 10
-0.5
 20
0.0
 10
-0.495
 20
0.0
 10
-0.49
 20
-0.0705336798983295
 10
-0.485
 20
-0.0994987437106621
 10
-0.48
 20
-0.1215524578114322
 10
-0.475
 20
-0.14
 10
-0.47
 20
-0.15612494995996
 10
-0.465
 20
-0.1705872210923199
 10
-0.46
 20
-0.1837797594948911
 10
-0.455
 20
-0.1959591794226544
 10
-0.45
 20
-0.2073041244162789
 10
-0.445
 20
-0.2179449471770338
 10
-0.4399999999999999
 20
-0.2279802623035601
 10
-0.4349999999999999
 20
-0.2374868417407584
 10
-0.4299999999999999
 20
-0.2465258607124211
 10
-0.4249999999999999
 20
-0.2551470164434615
 10
-0.4199999999999999
 20
-0.2633913438213186
 10
-0.4149999999999999
 20
-0.2712931993250108
 10
-0.4099999999999999
 20
-0.2788816953476869
 10
-0.4049999999999999
 20
-0.2861817604250838
 10
-0.3999999999999999
 20
-0.2932149382279151
 10
-0.3949999999999999
 20
-0.3000000000000002
 10
-0.3899999999999999
 20
-0.3065534211193868
 10
-0.3849999999999999
 20
-0.3128897569432404
 10
-0.3799999999999999
 20
-0.3190219428189855
 10
-0.3749999999999999
 20
-0.3249615361854385
 10
-0.3699999999999999
 20
-0.330718913883074
 10
-0.3649999999999999
 20
-0.3363034344160049
 10
-0.3599999999999999
 20
-0.3417235724968357
 10
-0.3549999999999999
 20
-0.3469870314579496
 10
-0.3499999999999999
 20
-0.3521008378291652
 10
-0.3449999999999999
 20
-0.3570714214271427
 10
-0.3399999999999999
 20
-0.3619046835839516
 10
-0.3349999999999999
 20
-0.3666060555964674
 10
-0.3299999999999998
 20
-0.3711805490593494
 10
-0.3249999999999998
 20
-0.3756327994198591
 10
-0.3199999999999998
 20
-0.3799671038392667
 10
-0.3149999999999998
 20
-0.3841874542459711
 10
-0.3099999999999998
 20
-0.3882975663070786
 10
-0.3049999999999998
 20
-0.3923009049186608
 10
-0.2999999999999998
 20
-0.3962007067131507
 10
-0.2949999999999998
 20
-0.4000000000000001
 10
-0.2899999999999998
 20
-0.4037016224886891
 10
-0.2849999999999998
 20
-0.4073082370883261
 10
-0.2799999999999998
 20
-0.4108223460329296
 10
-0.2749999999999998
 20
-0.4142463035441597
 10
-0.2699999999999998
 20
-0.4175823272122518
 10
-0.2649999999999998
 20
-0.4208325082500164
 10
-0.2599999999999998
 20
-0.4239988207530773
 10
-0.2549999999999998
 20
-0.4270831300812526
 10
-0.2499999999999998
 20
-0.4300872004605579
 10
-0.2449999999999998
 20
-0.4330127018922195
 10
-0.2399999999999998
 20
-0.4358612164439503
 10
-0.2349999999999998
 20
-0.4386342439892263
 10
-0.2299999999999998
 20
-0.4413332074521473
 10
-0.2249999999999998
 20
-0.4439594576084624
 10
-0.2199999999999998
 20
-0.4465142774872939
 10
-0.2149999999999997
 20
-0.4489988864128731
 10
-0.2099999999999997
 20
-0.4514144437210667
 10
-0.2049999999999997
 20
-0.4537620521815372
 10
-0.1999999999999997
 20
-0.4560427611529429
 10
-0.1949999999999997
 20
-0.4582575694955841
 10
-0.1899999999999997
 20
-0.4604074282632722
 10
-0.1849999999999997
 20
-0.4624932431938872
 10
-0.1799999999999997
 20
-0.4645158770160608
 10
-0.1749999999999997
 20
-0.4664761515876241
 10
-0.1699999999999997
 20
-0.46837484987988
 10
-0.1649999999999997
 20
-0.47021271782035
 10
-0.1599999999999997
 20
-0.4719904660054058
 10
-0.1549999999999997
 20
-0.4737087712930805
 10
-0.1499999999999997
 20
-0.4753682782853733
 10
-0.1449999999999997
 20
-0.4769696007084729
 10
-0.1399999999999997
 20
-0.4785133226985431
 10
-0.1349999999999997
 20
-0.4800000000000001
 10
-0.1299999999999997
 20
-0.4814301610825812
 10
-0.1249999999999997
 20
-0.4828043081829325
 10
-0.1199999999999997
 20
-0.4841229182759272
 10
-0.1149999999999997
 20
-0.485386443980464
 10
-0.1099999999999997
 20
-0.4865953144040744
 10
-0.1049999999999996
 20
-0.487749935930288
 10
-0.0999999999999996
 20
-0.4888506929523574
 10
-0.0949999999999996
 20
-0.4898979485566357
 10
-0.0899999999999996
 20
-0.4908920451586072
 10
-0.0849999999999996
 20
-0.4918333050943176
 10
-0.0799999999999996
 20
-0.4927220311697053
 10
-0.0749999999999996
 20
-0.4935585071701227
 10
-0.0699999999999996
 20
-0.4943429983321298
 10
-0.0649999999999996
 20
-0.4950757517794626
 10
-0.0599999999999996
 20
-0.4957569969249048
 10
-0.0549999999999996
 20
-0.4963869458396343
 10
-0.0499999999999996
 20
-0.4969657935914705
 10
-0.0449999999999996
 20
-0.49749371855331
 10
-0.0399999999999996
 20
-0.4979708826829135
 10
-0.0349999999999996
 20
-0.4983974317750846
 10
-0.0299999999999996
 20
-0.4987734956871706
 10
-0.0249999999999996
 20
-0.4990991885387112
 10
-0.0199999999999996
 20
-0.4993746088859545
 10
-0.0149999999999996
 20
-0.4995998398718719
 10
-0.0099999999999996
 20
-0.499774949352206
 10
-0.0049999999999996
 20
-0.4998999899979995
 10
0.0
 20
-0.5
 97
        0
 75
     0
 76
     1
 98
        0
  0
CIRCLE
  5
14B
330
148
100
AcDbEntity
  8
0
 62
     0
370
    -2
100
AcDbCircle
 10
0.0
 20
0.0
 30
0.0
 40
0.5
  0
ENDBLK
  5
14D
330
148
100
AcDbEntity
  8
0
100
AcDbBlockEnd
  0
BLOCK
  5
156
330
14E
100
AcDbEntity
  8
0
100
AcDbBlockBegin
  2
CDWK_PTTYP41
 70
     0
 10
0.0
 20
0.0
 30
0.0
  3
CDWK_PTTYP41
  1

  0
LINE
  5
14F
330
14E
100
AcDbEntity
  8
0
 62
     0
370
    -2
100
AcDbLine
 10
-0.5
 20
0.5
 30
0.0
 11
0.5
 21
0.5
 31
0.0
  0
LINE
  5
150
330
14E
100
AcDbEntity
  8
0
 62
     0
370
    -2
100
AcDbLine
 10
0.5
 20
0.5
 30
0.0
 11
0.5
 21
-0.5
 31
0.0
  0
LINE
  5
151
330
14E
100
AcDbEntity
  8
0
 62
     0
370
    -2
100
AcDbLine
 10
0.5
 20
-0.5
 30
0.0
 11
-0.5
 21
-0.5
 31
0.0
  0
LINE
  5
152
330
14E
100
AcDbEntity
  8
0
 62
     0
370
    -2
100
AcDbLine
 10
-0.5
 20
-0.5
 30
0.0
 11
-0.5
 21
0.5
 31
0.0
  0
LINE
  5
153
330
14E
100
AcDbEntity
  8
0
 62
     0
370
    -2
100
AcDbLine
 10
-0.375
 20
0.25
 30
0.0
 11
0.375
 21
0.25
 31
0.0
  0
LINE
  5
154
330
14E
100
AcDbEntity
  8
0
 62
     0
370
    -2
100
AcDbLine
 10
-0.375
 20
0.0
 30
0.0
 11
0.375
 21
0.0
 31
0.0
  0
LINE
  5
155
330
14E
100
AcDbEntity
  8
0
 62
     0
370
    -2
100
AcDbLine
 10
-0.375
 20
-0.25
 30
0.0
 11
0.375
 21
-0.25
 31
0.0
  0
ENDBLK
  5
157
330
14E
100
AcDbEntity
  8
0
100
AcDbBlockEnd
  0
BLOCK
  5
15F
330
158
100
AcDbEntity
  8
0
100
AcDbBlockBegin
  2
CDWK_PTTYP42
 70
     0
 10
0.0
 20
0.0
 30
0.0
  3
CDWK_PTTYP42
  1

  0
LINE
  5
159
330
158
100
AcDbEntity
  8
0
 62
     0
370
    -2
100
AcDbLine
 10
-0.5
 20
0.5
 30
0.0
 11
0.5
 21
0.5
 31
0.0
  0
LINE
  5
15A
330
158
100
AcDbEntity
  8
0
 62
     0
370
    -2
100
AcDbLine
 10
0.5
 20
0.5
 30
0.0
 11
0.5
 21
-0.5
 31
0.0
  0
LINE
  5
15B
330
158
100
AcDbEntity
  8
0
 62
     0
370
    -2
100
AcDbLine
 10
0.5
 20
-0.5
 30
0.0
 11
-0.5
 21
-0.5
 31
0.0
  0
LINE
  5
15C
330
158
100
AcDbEntity
  8
0
 62
     0
370
    -2
100
AcDbLine
 10
-0.5
 20
-0.5
 30
0.0
 11
-0.5
 21
0.5
 31
0.0
  0
LINE
  5
15D
330
158
100
AcDbEntity
  8
0
 62
     0
370
    -2
100
AcDbLine
 10
-0.375
 20
0.125
 30
0.0
 11
0.375
 21
0.125
 31
0.0
  0
LINE
  5
15E
330
158
100
AcDbEntity
  8
0
 62
     0
370
    -2
100
AcDbLine
 10
-0.375
 20
-0.125
 30
0.0
 11
0.375
 21
-0.125
 31
0.0
  0
ENDBLK
  5
160
330
158
100
AcDbEntity
  8
0
100
AcDbBlockEnd
  0
BLOCK
  5
165
330
161
100
AcDbEntity
  8
0
100
AcDbBlockBegin
  2
CDWK_PTTYP43
 70
     0
 10
0.0
 20
0.0
 30
0.0
  3
CDWK_PTTYP43
  1

  0
CIRCLE
  5
162
330
161
100
AcDbEntity
  8
0
 62
     0
370
    -2
100
AcDbCircle
 10
0.0
 20
0.0
 30
0.0
 40
0.5
  0
LINE
  5
163
330
161
100
AcDbEntity
  8
0
 62
     0
370
    -2
100
AcDbLine
 10
-0.375
 20
0.166
 30
0.0
 11
0.375
 21
0.166
 31
0.0
  0
LINE
  5
164
330
161
100
AcDbEntity
  8
0
 62
     0
370
    -2
100
AcDbLine
 10
-0.375
 20
-0.166
 30
0.0
 11
0.375
 21
-0.166
 31
0.0
  0
ENDBLK
  5
166
330
161
100
AcDbEntity
  8
0
100
AcDbBlockEnd
  0
BLOCK
  5
16E
330
167
100
AcDbEntity
  8
0
100
AcDbBlockBegin
  2
CDWK_PTTYP44
 70
     0
 10
0.0
 20
0.0
 30
0.0
  3
CDWK_PTTYP44
  1

  0
CIRCLE
  5
168
330
167
100
AcDbEntity
  8
0
 62
     0
370
    -2
100
AcDbCircle
 10
0.0
 20
0.0
 30
0.0
 40
0.5
  0
LINE
  5
169
330
167
100
AcDbEntity
  8
0
 62
     0
370
    -2
100
AcDbLine
 10
-0.375
 20
0.333
 30
0.0
 11
0.375
 21
0.333
 31
0.0
  0
LINE
  5
16A
330
167
100
AcDbEntity
  8
0
 62
     0
370
    -2
100
AcDbLine
 10
-0.375
 20
0.166
 30
0.0
 11
0.375
 21
0.166
 31
0.0
  0
LINE
  5
16B
330
167
100
AcDbEntity
  8
0
 62
     0
370
    -2
100
AcDbLine
 10
-0.375
 20
0.0
 30
0.0
 11
0.375
 21
0.0
 31
0.0
  0
LINE
  5
16C
330
167
100
AcDbEntity
  8
0
 62
     0
370
    -2
100
AcDbLine
 10
-0.375
 20
-0.166
 30
0.0
 11
0.375
 21
-0.166
 31
0.0
  0
LINE
  5
16D
330
167
100
AcDbEntity
  8
0
 62
     0
370
    -2
100
AcDbLine
 10
-0.375
 20
-0.333
 30
0.0
 11
0.375
 21
-0.333
 31
0.0
  0
ENDBLK
  5
16F
330
167
100
AcDbEntity
  8
0
100
AcDbBlockEnd
  0
BLOCK
  5
173
330
170
100
AcDbEntity
  8
0
100
AcDbBlockBegin
  2
CDWK_PTTYP45
 70
     0
 10
0.0
 20
0.0
 30
0.0
  3
CDWK_PTTYP45
  1

  0
ELLIPSE
  5
171
330
170
100
AcDbEntity
  8
0
 62
     0
370
    -2
100
AcDbEllipse
 10
0.0
 20
0.0
 30
0.0
 11
0.5
 21
0.0
 31
0.0
210
0.0
220
0.0
230
1.0
 40
0.82
 41
0.0
 42
6.283185307179586
  0
CIRCLE
  5
172
330
170
100
AcDbEntity
  8
0
 62
     0
370
    -2
100
AcDbCircle
 10
-0.235
 20
0.0
 30
0.0
 40
0.26
  0
ENDBLK
  5
174
330
170
100
AcDbEntity
  8
0
100
AcDbBlockEnd
  0
BLOCK
  5
178
330
175
100
AcDbEntity
  8
0
100
AcDbBlockBegin
  2
CDWK_PTTYP46
 70
     0
 10
0.0
 20
0.0
 30
0.0
  3
CDWK_PTTYP46
  1

  0
ELLIPSE
  5
176
330
175
100
AcDbEntity
  8
0
 62
     0
370
    -2
100
AcDbEllipse
 10
0.0
 20
0.0
 30
0.0
 11
0.5
 21
0.0
 31
0.0
210
0.0
220
0.0
230
1.0
 40
0.82
 41
0.0
 42
6.283185307179586
  0
CIRCLE
  5
177
330
175
100
AcDbEntity
  8
0
 62
     0
370
    -2
100
AcDbCircle
 10
0.0
 20
0.15
 30
0.0
 40
0.26
  0
ENDBLK
  5
179
330
175
100
AcDbEntity
  8
0
100
AcDbBlockEnd
  0
BLOCK
  5
180
330
17A
100
AcDbEntity
  8
0
100
AcDbBlockBegin
  2
CDWK_PTTYP47
 70
     0
 10
0.0
 20
0.0
 30
0.0
  3
CDWK_PTTYP47
  1

  0
LINE
  5
17B
330
17A
100
AcDbEntity
  8
0
 62
     0
370
    -2
100
AcDbLine
 10
-0.5
 20
0.166
 30
0.0
 11
0.5
 21
0.166
 31
0.0
  0
LINE
  5
17C
330
17A
100
AcDbEntity
  8
0
 62
     0
370
    -2
100
AcDbLine
 10
0.5
 20
0.166
 30
0.0
 11
0.5
 21
-0.166
 31
0.0
  0
LINE
  5
17D
330
17A
100
AcDbEntity
  8
0
 62
     0
370
    -2
100
AcDbLine
 10
0.5
 20
-0.166
 30
0.0
 11
-0.5
 21
-0.166
 31
0.0
  0
LINE
  5
17E
330
17A
100
AcDbEntity
  8
0
 62
     0
370
    -2
100
AcDbLine
 10
-0.5
 20
-0.166
 30
0.0
 11
-0.5
 21
0.166
 31
0.0
  0
CIRCLE
  5
17F
330
17A
100
AcDbEntity
  8
0
 62
     0
370
    -2
100
AcDbCircle
 10
0.0
 20
-0.313
 30
0.0
 40
0.4
  0
ENDBLK
  5
181
330
17A
100
AcDbEntity
  8
0
100
AcDbBlockEnd
  0
BLOCK
  5
186
330
183
100
AcDbEntity
  8
0
100
AcDbBlockBegin
  2
CDWK_PTTYP48
 70
     0
 10
0.0
 20
0.0
 30
0.0
  3
CDWK_PTTYP48
  1

  0
CIRCLE
  5
184
330
183
100
AcDbEntity
  8
0
  6
CADWORK_3
 62
     0
 48
0.1
370
    -2
100
AcDbCircle
 10
0.0
 20
0.0
 30
0.0
 40
0.5
  0
CIRCLE
  5
185
330
183
100
AcDbEntity
  8
0
 62
     0
370
    -2
100
AcDbCircle
 10
0.0
 20
0.0
 30
0.0
 40
0.25
  0
ENDBLK
  5
187
330
183
100
AcDbEntity
  8
0
100
AcDbBlockEnd
  0
BLOCK
  5
18D
330
188
100
AcDbEntity
  8
0
100
AcDbBlockBegin
  2
CDWK_PTTYP49
 70
     0
 10
0.0
 20
0.0
 30
0.0
  3
CDWK_PTTYP49
  1

  0
LINE
  5
189
330
188
100
AcDbEntity
  8
0
 62
     0
370
    -2
100
AcDbLine
 10
-0.5
 20
0.166
 30
0.0
 11
0.5
 21
0.166
 31
0.0
  0
LINE
  5
18A
330
188
100
AcDbEntity
  8
0
 62
     0
370
    -2
100
AcDbLine
 10
0.5
 20
0.166
 30
0.0
 11
0.5
 21
-0.166
 31
0.0
  0
LINE
  5
18B
330
188
100
AcDbEntity
  8
0
 62
     0
370
    -2
100
AcDbLine
 10
0.5
 20
-0.166
 30
0.0
 11
-0.5
 21
-0.166
 31
0.0
  0
LINE
  5
18C
330
188
100
AcDbEntity
  8
0
 62
     0
370
    -2
100
AcDbLine
 10
-0.5
 20
-0.166
 30
0.0
 11
-0.5
 21
0.166
 31
0.0
  0
ENDBLK
  5
18E
330
188
100
AcDbEntity
  8
0
100
AcDbBlockEnd
  0
BLOCK
  5
197
330
18F
100
AcDbEntity
  8
0
100
AcDbBlockBegin
  2
CDWK_PTTYP50
 70
     0
 10
0.0
 20
0.0
 30
0.0
  3
CDWK_PTTYP50
  1

  0
LINE
  5
190
330
18F
100
AcDbEntity
  8
0
 62
     0
370
    -2
100
AcDbLine
 10
-0.5
 20
0.166
 30
0.0
 11
0.5
 21
0.166
 31
0.0
  0
LINE
  5
191
330
18F
100
AcDbEntity
  8
0
 62
     0
370
    -2
100
AcDbLine
 10
0.5
 20
0.166
 30
0.0
 11
0.5
 21
-0.166
 31
0.0
  0
LINE
  5
192
330
18F
100
AcDbEntity
  8
0
 62
     0
370
    -2
100
AcDbLine
 10
0.5
 20
-0.166
 30
0.0
 11
-0.5
 21
-0.166
 31
0.0
  0
LINE
  5
193
330
18F
100
AcDbEntity
  8
0
 62
     0
370
    -2
100
AcDbLine
 10
-0.5
 20
-0.166
 30
0.0
 11
-0.5
 21
0.166
 31
0.0
  0
LINE
  5
194
330
18F
100
AcDbEntity
  8
0
 62
     0
370
    -2
100
AcDbLine
 10
-0.25
 20
-0.166
 30
0.0
 11
-0.25
 21
0.166
 31
0.0
  0
LINE
  5
195
330
18F
100
AcDbEntity
  8
0
 62
     0
370
    -2
100
AcDbLine
 10
0.0
 20
-0.166
 30
0.0
 11
0.0
 21
0.166
 31
0.0
  0
LINE
  5
196
330
18F
100
AcDbEntity
  8
0
 62
     0
370
    -2
100
AcDbLine
 10
0.25
 20
-0.166
 30
0.0
 11
0.25
 21
0.166
 31
0.0
  0
ENDBLK
  5
198
330
18F
100
AcDbEntity
  8
0
100
AcDbBlockEnd
  0
BLOCK
  5
19C
330
199
100
AcDbEntity
  8
0
100
AcDbBlockBegin
  2
CDWK_PTTYP51
 70
     0
 10
0.0
 20
0.0
 30
0.0
  3
CDWK_PTTYP51
  1

  0
SPLINE
  5
19A
330
199
100
AcDbEntity
  8
0
 62
     0
370
    -2
100
AcDbSpline
210
0.0
220
0.0
230
1.0
 70
  1064
 71
     3
 72
    12
 73
     8
 74
     6
 42
0.000000001
 43
0.0000000001
 44
0.0000000001
 40
0.0
 40
0.0
 40
0.0
 40
0.0
 40
0.1690118339052032
 40
0.5175774661755118
 40
0.8011704844252565
 40
0.9154070810132151
 40
0.975822310881188
 40
0.975822310881188
 40
0.975822310881188
 40
0.975822310881188
 10
-0.5
 20
-0.077
 30
0.0
 10
-0.443824324006723
 20
-0.0900581618560981
 30
0.0
 10
-0.2717933876546281
 20
-0.1300471387828842
 30
0.0
 10
-0.0276699186086479
 20
-0.0006977790990417
 30
0.0
 10
0.2303349729129116
 20
0.0817803270207037
 30
0.0
 10
0.3686157174766292
 20
0.0066250198607167
 30
0.0
 10
0.4216533294581816
 20
-0.0168719667726145
 30
0.0
 10
0.44
 20
-0.025
 30
0.0
 11
-0.5
 21
-0.077
 31
0.0
 11
-0.333
 21
-0.103
 31
0.0
 11
0.0
 21
0.0
 31
0.0
 11
0.28
 21
0.045
 31
0.0
 11
0.385
 21
0.0
 31
0.0
 11
0.44
 21
-0.025
 31
0.0
  0
HATCH
  5
19B
330
199
100
AcDbEntity
  8
0
 62
     0
370
    -2
100
AcDbHatch
 10
0.0
 20
0.0
 30
0.0
210
0.0
220
0.0
230
1.0
  2
SOLID
 70
     1
 71
     1
 91
        1
 92
        3
 72
     0
 73
     1
 93
        3
 10
0.365
 20
-0.05
 10
0.5
 20
-0.042
 10
0.395
 20
0.045
 97
        0
 75
     0
 76
     1
 98
        0
  0
ENDBLK
  5
19D
330
199
100
AcDbEntity
  8
0
100
AcDbBlockEnd
  0
BLOCK
  5
1A2
330
19E
100
AcDbEntity
  8
0
100
AcDbBlockBegin
  2
CDWK_PTTYP52
 70
     0
 10
0.0
 20
0.0
 30
0.0
  3
CDWK_PTTYP52
  1

  0
LINE
  5
19F
330
19E
100
AcDbEntity
  8
0
 62
     0
370
    -2
100
AcDbLine
 10
-0.5
 20
-0.289
 30
0.0
 11
0.5
 21
-0.289
 31
0.0
  0
LINE
  5
1A0
330
19E
100
AcDbEntity
  8
0
 62
     0
370
    -2
100
AcDbLine
 10
0.5
 20
-0.289
 30
0.0
 11
0.0
 21
0.577
 31
0.0
  0
LINE
  5
1A1
330
19E
100
AcDbEntity
  8
0
 62
     0
370
    -2
100
AcDbLine
 10
0.0
 20
0.577
 30
0.0
 11
-0.5
 21
-0.289
 31
0.0
  0
ENDBLK
  5
1A3
330
19E
100
AcDbEntity
  8
0
100
AcDbBlockEnd
  0
BLOCK
  5
1A9
330
1A4
100
AcDbEntity
  8
0
100
AcDbBlockBegin
  2
cw-dimension-symbol1
 70
     0
 10
0.0
 20
0.0
 30
0.0
  3
cw-dimension-symbol1
  1

  0
LINE
  5
1A5
330
1A4
100
AcDbEntity
  8
0
 62
     0
370
    -2
100
AcDbLine
 10
0.0
 20
0.0
 30
0.0
 11
-1.0
 21
0.25
 31
0.0
  0
LINE
  5
1A6
330
1A4
100
AcDbEntity
  8
0
 62
     0
370
    -2
100
AcDbLine
 10
0.0
 20
0.0
 30
0.0
 11
-1.0
 21
-0.25
 31
0.0
  0
LINE
  5
1A7
330
1A4
100
AcDbEntity
  8
0
 62
     0
370
    -2
100
AcDbLine
 10
-1.0
 20
0.25
 30
0.0
 11
-1.0
 21
-0.25
 31
0.0
  0
LINE
  5
1A8
330
1A4
100
AcDbEntity
  8
0
 62
     0
370
    -2
100
AcDbLine
 10
0.0
 20
0.0
 30
0.0
 11
-1.0
 21
0.0
 31
0.0
  0
ENDBLK
  5
1AA
330
1A4
100
AcDbEntity
  8
0
100
AcDbBlockEnd
  0
BLOCK
  5
1AE
330
1AB
100
AcDbEntity
  8
0
100
AcDbBlockBegin
  2
cw-dimension-symbol2
 70
     0
 10
0.0
 20
0.0
 30
0.0
  3
cw-dimension-symbol2
  1

  0
LINE
  5
1AC
330
1AB
100
AcDbEntity
  8
0
 62
     0
370
    -2
100
AcDbLine
 10
-1.0
 20
0.0
 30
0.0
 11
1.0
 21
0.0
 31
0.0
  0
LINE
  5
1AD
330
1AB
100
AcDbEntity
  8
0
 62
     0
370
    -2
100
AcDbLine
 10
-0.5
 20
-0.5
 30
0.0
 11
0.5
 21
0.5
 31
0.0
  0
ENDBLK
  5
1AF
330
1AB
100
AcDbEntity
  8
0
100
AcDbBlockEnd
  0
BLOCK
  5
1B3
330
1B0
100
AcDbEntity
  8
0
100
AcDbBlockBegin
  2
cw-dimension-symbol3
 70
     0
 10
0.0
 20
0.0
 30
0.0
  3
cw-dimension-symbol3
  1

  0
LINE
  5
1B1
330
1B0
100
AcDbEntity
  8
0
 62
     0
370
    -2
100
AcDbLine
 10
-1.0
 20
0.0
 30
0.0
 11
1.0
 21
0.0
 31
0.0
  0
CIRCLE
  5
1B2
330
1B0
100
AcDbEntity
  8
0
 62
     0
370
    -2
100
AcDbCircle
 10
0.0
 20
0.0
 30
0.0
 40
0.25
  0
ENDBLK
  5
1B4
330
1B0
100
AcDbEntity
  8
0
100
AcDbBlockEnd
  0
BLOCK
  5
1BA
330
1B5
100
AcDbEntity
  8
0
100
AcDbBlockBegin
  2
cw-dimension-symbol5
 70
     0
 10
0.0
 20
0.0
 30
0.0
  3
cw-dimension-symbol5
  1

  0
HATCH
  5
1B6
330
1B5
100
AcDbEntity
  8
0
 62
     0
370
    -2
100
AcDbHatch
 10
0.0
 20
0.0
 30
0.0
210
0.0
220
0.0
230
1.0
  2
SOLID
 70
     1
 71
     1
 91
        1
 92
        3
 72
     0
 73
     1
 93
        3
 10
0.0
 20
0.0
 10
-1.0
 20
0.25
 10
-1.0
 20
-0.25
 97
        0
 75
     0
 76
     1
 98
        0
  0
LINE
  5
1B7
330
1B5
100
AcDbEntity
  8
0
 62
     0
370
    -2
100
AcDbLine
 10
0.0
 20
0.0
 30
0.0
 11
-1.0
 21
0.25
 31
0.0
  0
LINE
  5
1B8
330
1B5
100
AcDbEntity
  8
0
 62
     0
370
    -2
100
AcDbLine
 10
-1.0
 20
0.25
 30
0.0
 11
-1.0
 21
-0.25
 31
0.0
  0
LINE
  5
1B9
330
1B5
100
AcDbEntity
  8
0
 62
     0
370
    -2
100
AcDbLine
 10
-1.0
 20
-0.25
 30
0.0
 11
0.0
 21
0.0
 31
0.0
  0
ENDBLK
  5
1BB
330
1B5
100
AcDbEntity
  8
0
100
AcDbBlockEnd
  0
BLOCK
  5
1C0
330
1BC
100
AcDbEntity
  8
0
100
AcDbBlockBegin
  2
cw-dimension-symbol6
 70
     0
 10
0.0
 20
0.0
 30
0.0
  3
cw-dimension-symbol6
  1

  0
LINE
  5
1BD
330
1BC
100
AcDbEntity
  8
0
 62
     0
370
    -2
100
AcDbLine
 10
0.0
 20
0.0
 30
0.0
 11
-1.0
 21
0.25
 31
0.0
  0
LINE
  5
1BE
330
1BC
100
AcDbEntity
  8
0
 62
     0
370
    -2
100
AcDbLine
 10
0.0
 20
0.0
 30
0.0
 11
-1.0
 21
-0.25
 31
0.0
  0
LINE
  5
1BF
330
1BC
100
AcDbEntity
  8
0
 62
     0
370
    -2
100
AcDbLine
 10
0.0
 20
0.0
 30
0.0
 11
-1.0
 21
0.0
 31
0.0
  0
ENDBLK
  5
1C1
330
1BC
100
AcDbEntity
  8
0
100
AcDbBlockEnd
  0
BLOCK
  5
1C6
330
1C2
100
AcDbEntity
  8
0
100
AcDbBlockBegin
  2
cw-dimension-symbol11
 70
     0
 10
0.0
 20
0.0
 30
0.0
  3
cw-dimension-symbol11
  1

  0
LINE
  5
1C3
330
1C2
100
AcDbEntity
  8
0
 62
     0
370
    -2
100
AcDbLine
 10
-1.0
 20
1.0
 30
0.0
 11
1.0
 21
1.0
 31
0.0
  0
LINE
  5
1C4
330
1C2
100
AcDbEntity
  8
0
 62
     0
370
    -2
100
AcDbLine
 10
0.0
 20
0.0
 30
0.0
 11
-1.0
 21
1.0
 31
0.0
  0
LINE
  5
1C5
330
1C2
100
AcDbEntity
  8
0
 62
     0
370
    -2
100
AcDbLine
 10
0.0
 20
0.0
 30
0.0
 11
1.0
 21
1.0
 31
0.0
  0
ENDBLK
  5
1C7
330
1C2
100
AcDbEntity
  8
0
100
AcDbBlockEnd
  0
BLOCK
  5
1CC
330
1C8
100
AcDbEntity
  8
0
100
AcDbBlockBegin
  2
cw-dimension-symbol13
 70
     0
 10
0.0
 20
0.0
 30
0.0
  3
cw-dimension-symbol13
  1

  0
LINE
  5
1C9
330
1C8
100
AcDbEntity
  8
0
 62
     0
370
    -2
100
AcDbLine
 10
-1.0
 20
-1.0
 30
0.0
 11
1.0
 21
-1.0
 31
0.0
  0
LINE
  5
1CA
330
1C8
100
AcDbEntity
  8
0
 62
     0
370
    -2
100
AcDbLine
 10
0.0
 20
0.0
 30
0.0
 11
-1.0
 21
-1.0
 31
0.0
  0
LINE
  5
1CB
330
1C8
100
AcDbEntity
  8
0
 62
     0
370
    -2
100
AcDbLine
 10
0.0
 20
0.0
 30
0.0
 11
1.0
 21
-1.0
 31
0.0
  0
ENDBLK
  5
1CD
330
1C8
100
AcDbEntity
  8
0
100
AcDbBlockEnd
  0
BLOCK
  5
1D3
330
1CE
100
AcDbEntity
  8
0
100
AcDbBlockBegin
  2
cw-dimension-symbol15
 70
     0
 10
0.0
 20
0.0
 30
0.0
  3
cw-dimension-symbol15
  1

  0
HATCH
  5
1CF
330
1CE
100
AcDbEntity
  8
0
 62
     0
370
    -2
100
AcDbHatch
 10
0.0
 20
0.0
 30
0.0
210
0.0
220
0.0
230
1.0
  2
SOLID
 70
     1
 71
     1
 91
        1
 92
        3
 72
     0
 73
     1
 93
        3
 10
0.0
 20
0.0
 10
-1.0
 20
1.0
 10
1.0
 20
1.0
 97
        0
 75
     0
 76
     1
 98
        0
  0
LINE
  5
1D0
330
1CE
100
AcDbEntity
  8
0
 62
     0
370
    -2
100
AcDbLine
 10
0.0
 20
0.0
 30
0.0
 11
-1.0
 21
1.0
 31
0.0
  0
LINE
  5
1D1
330
1CE
100
AcDbEntity
  8
0
 62
     0
370
    -2
100
AcDbLine
 10
-1.0
 20
1.0
 30
0.0
 11
1.0
 21
1.0
 31
0.0
  0
LINE
  5
1D2
330
1CE
100
AcDbEntity
  8
0
 62
     0
370
    -2
100
AcDbLine
 10
1.0
 20
1.0
 30
0.0
 11
0.0
 21
0.0
 31
0.0
  0
ENDBLK
  5
1D4
330
1CE
100
AcDbEntity
  8
0
100
AcDbBlockEnd
  0
BLOCK
  5
1DA
330
1D5
100
AcDbEntity
  8
0
100
AcDbBlockBegin
  2
cw-dimension-symbol16
 70
     0
 10
0.0
 20
0.0
 30
0.0
  3
cw-dimension-symbol16
  1

  0
HATCH
  5
1D6
330
1D5
100
AcDbEntity
  8
0
 62
     0
370
    -2
100
AcDbHatch
 10
0.0
 20
0.0
 30
0.0
210
0.0
220
0.0
230
1.0
  2
SOLID
 70
     1
 71
     1
 91
        1
 92
        3
 72
     0
 73
     1
 93
        3
 10
0.0
 20
0.0
 10
-1.0
 20
-1.0
 10
1.0
 20
-1.0
 97
        0
 75
     0
 76
     1
 98
        0
  0
LINE
  5
1D7
330
1D5
100
AcDbEntity
  8
0
 62
     0
370
    -2
100
AcDbLine
 10
0.0
 20
0.0
 30
0.0
 11
-1.0
 21
-1.0
 31
0.0
  0
LINE
  5
1D8
330
1D5
100
AcDbEntity
  8
0
 62
     0
370
    -2
100
AcDbLine
 10
-1.0
 20
-1.0
 30
0.0
 11
1.0
 21
-1.0
 31
0.0
  0
LINE
  5
1D9
330
1D5
100
AcDbEntity
  8
0
 62
     0
370
    -2
100
AcDbLine
 10
1.0
 20
-1.0
 30
0.0
 11
0.0
 21
0.0
 31
0.0
  0
ENDBLK
  5
1DB
330
1D5
100
AcDbEntity
  8
0
100
AcDbBlockEnd
  0
BLOCK
  5
1E1
330
1DC
100
AcDbEntity
  8
0
100
AcDbBlockBegin
  2
cw-dimension-symbol17
 70
     0
 10
0.0
 20
0.0
 30
0.0
  3
cw-dimension-symbol17
  1

  0
LINE
  5
1DD
330
1DC
100
AcDbEntity
  8
0
 62
     0
370
    -2
100
AcDbLine
 10
0.0
 20
0.0
 30
0.0
 11
1.0
 21
1.0
 31
0.0
  0
LINE
  5
1DE
330
1DC
100
AcDbEntity
  8
0
 62
     0
370
    -2
100
AcDbLine
 10
1.0
 20
1.0
 30
0.0
 11
-1.0
 21
1.0
 31
0.0
  0
LINE
  5
1DF
330
1DC
100
AcDbEntity
  8
0
 62
     0
370
    -2
100
AcDbLine
 10
-1.0
 20
1.0
 30
0.0
 11
0.0
 21
0.0
 31
0.0
  0
HATCH
  5
1E0
330
1DC
100
AcDbEntity
  8
0
 62
     0
370
    -2
100
AcDbHatch
 10
0.0
 20
0.0
 30
0.0
210
0.0
220
0.0
230
1.0
  2
SOLID
 70
     1
 71
     1
 91
        1
 92
        3
 72
     0
 73
     1
 93
        3
 10
0.0
 20
0.0
 10
-1.0
 20
1.0
 10
0.0
 20
1.0
 97
        0
 75
     0
 76
     1
 98
        0
  0
ENDBLK
  5
1E2
330
1DC
100
AcDbEntity
  8
0
100
AcDbBlockEnd
  0
BLOCK
  5
1E8
330
1E3
100
AcDbEntity
  8
0
100
AcDbBlockBegin
  2
cw-dimension-symbol18
 70
     0
 10
0.0
 20
0.0
 30
0.0
  3
cw-dimension-symbol18
  1

  0
LINE
  5
1E4
330
1E3
100
AcDbEntity
  8
0
 62
     0
370
    -2
100
AcDbLine
 10
0.0
 20
0.0
 30
0.0
 11
1.0
 21
-1.0
 31
0.0
  0
LINE
  5
1E5
330
1E3
100
AcDbEntity
  8
0
 62
     0
370
    -2
100
AcDbLine
 10
1.0
 20
-1.0
 30
0.0
 11
-1.0
 21
-1.0
 31
0.0
  0
LINE
  5
1E6
330
1E3
100
AcDbEntity
  8
0
 62
     0
370
    -2
100
AcDbLine
 10
-1.0
 20
-1.0
 30
0.0
 11
0.0
 21
0.0
 31
0.0
  0
HATCH
  5
1E7
330
1E3
100
AcDbEntity
  8
0
 62
     0
370
    -2
100
AcDbHatch
 10
0.0
 20
0.0
 30
0.0
210
0.0
220
0.0
230
1.0
  2
SOLID
 70
     1
 71
     1
 91
        1
 92
        3
 72
     0
 73
     1
 93
        3
 10
0.0
 20
0.0
 10
-1.0
 20
-1.0
 10
0.0
 20
-1.0
 97
        0
 75
     0
 76
     1
 98
        0
  0
ENDBLK
  5
1E9
330
1E3
100
AcDbEntity
  8
0
100
AcDbBlockEnd
  0
BLOCK
  5
1EB
330
1EA
100
AcDbEntity
  8
0
100
AcDbBlockBegin
  2
cw-dimension-symbol19
 70
     0
 10
0.0
 20
0.0
 30
0.0
  3
cw-dimension-symbol19
  1

  0
ENDBLK
  5
1EC
330
1EA
100
AcDbEntity
  8
0
100
AcDbBlockEnd
  0
BLOCK
  5
1F2
330
1ED
100
AcDbEntity
  8
0
100
AcDbBlockBegin
  2
cw-dimension-symbol20
 70
     0
 10
0.0
 20
0.0
 30
0.0
  3
cw-dimension-symbol20
  1

  0
LINE
  5
1EE
330
1ED
100
AcDbEntity
  8
0
 62
     0
370
    -2
100
AcDbLine
 10
0.0
 20
0.0
 30
0.0
 11
0.0
 21
2.0
 31
0.0
  0
LINE
  5
1EF
330
1ED
100
AcDbEntity
  8
0
 62
     0
370
    -2
100
AcDbLine
 10
0.0
 20
0.0
 30
0.0
 11
-1.0
 21
0.33
 31
0.0
  0
LINE
  5
1F0
330
1ED
100
AcDbEntity
  8
0
 62
     0
370
    -2
100
AcDbLine
 10
0.0
 20
0.0
 30
0.0
 11
1.0
 21
0.33
 31
0.0
  0
LINE
  5
1F1
330
1ED
100
AcDbEntity
  8
0
 62
     0
370
    -2
100
AcDbLine
 10
0.0
 20
2.0
 30
0.0
 11
4.15
 21
2.0
 31
0.0
  0
ENDBLK
  5
1F3
330
1ED
100
AcDbEntity
  8
0
100
AcDbBlockEnd
  0
BLOCK
  5
1F9
330
1F4
100
AcDbEntity
  8
0
100
AcDbBlockBegin
  2
cw-dimension-symbol21
 70
     0
 10
0.0
 20
0.0
 30
0.0
  3
cw-dimension-symbol21
  1

  0
LINE
  5
1F5
330
1F4
100
AcDbEntity
  8
0
 62
     0
370
    -2
100
AcDbLine
 10
0.0
 20
0.0
 30
0.0
 11
0.0
 21
-2.0
 31
0.0
  0
LINE
  5
1F6
330
1F4
100
AcDbEntity
  8
0
 62
     0
370
    -2
100
AcDbLine
 10
0.0
 20
0.0
 30
0.0
 11
-1.0
 21
-0.33
 31
0.0
  0
LINE
  5
1F7
330
1F4
100
AcDbEntity
  8
0
 62
     0
370
    -2
100
AcDbLine
 10
0.0
 20
0.0
 30
0.0
 11
1.0
 21
-0.33
 31
0.0
  0
LINE
  5
1F8
330
1F4
100
AcDbEntity
  8
0
 62
     0
370
    -2
100
AcDbLine
 10
0.0
 20
-2.0
 30
0.0
 11
4.15
 21
-2.0
 31
0.0
  0
ENDBLK
  5
1FA
330
1F4
100
AcDbEntity
  8
0
100
AcDbBlockEnd
  0
BLOCK
  5
22B
330
1FB
100
AcDbEntity
  8
0
100
AcDbBlockBegin
  2
cw-line-extremity0
 70
     0
 10
0.0
 20
0.0
 30
0.0
  3
cw-line-extremity0
  1

  0
LINE
  5
1FC
330
1FB
100
AcDbEntity
  8
0
 62
     0
370
    -2
100
AcDbLine
 10
0.0
 20
0.0
 30
0.0
 11
4.0
 21
1.0
 31
0.0
  0
LINE
  5
1FD
330
1FB
100
AcDbEntity
  8
0
 62
     0
370
    -2
100
AcDbLine
 10
0.0
 20
0.0
 30
0.0
 11
4.0
 21
-1.0
 31
0.0
  0
LINE
  5
1FE
330
1FB
100
AcDbEntity
  8
0
 62
     0
370
    -2
100
AcDbLine
 10
4.0
 20
1.0
 30
0.0
 11
4.0
 21
-1.0
 31
0.0
  0
ENDBLK
  5
22C
330
1FB
100
AcDbEntity
  8
0
100
AcDbBlockEnd
  0
BLOCK
  5
229
330
1FF
100
AcDbEntity
  8
0
100
AcDbBlockBegin
  2
cw-line-extremity2
 70
     0
 10
0.0
 20
0.0
 30
0.0
  3
cw-line-extremity2
  1

  0
HATCH
  5
200
330
1FF
100
AcDbEntity
  8
0
 62
     0
370
     0
100
AcDbHatch
 10
0.0
 20
0.0
 30
0.0
210
0.0
220
0.0
230
1.0
  2
SOLID
 70
     1
 71
     1
 91
        1
 92
        3
 72
     0
 73
     1
 93
        3
 10
0.0
 20
0.0
 10
4.0
 20
1.0
 10
4.0
 20
-1.0
 97
        0
 75
     0
 76
     1
 98
        0
  0
LINE
  5
201
330
1FF
100
AcDbEntity
  8
0
 62
     0
370
    -2
100
AcDbLine
 10
0.0
 20
0.0
 30
0.0
 11
4.0
 21
1.0
 31
0.0
  0
LINE
  5
202
330
1FF
100
AcDbEntity
  8
0
 62
     0
370
    -2
100
AcDbLine
 10
4.0
 20
1.0
 30
0.0
 11
4.0
 21
-1.0
 31
0.0
  0
LINE
  5
203
330
1FF
100
AcDbEntity
  8
0
 62
     0
370
    -2
100
AcDbLine
 10
4.0
 20
-1.0
 30
0.0
 11
0.0
 21
0.0
 31
0.0
  0
ENDBLK
  5
22A
330
1FF
100
AcDbEntity
  8
0
100
AcDbBlockEnd
  0
BLOCK
  5
227
330
204
100
AcDbEntity
  8
0
100
AcDbBlockBegin
  2
cw-line-extremity3
 70
     0
 10
0.0
 20
0.0
 30
0.0
  3
cw-line-extremity3
  1

  0
HATCH
  5
205
330
204
100
AcDbEntity
  8
0
 62
     0
370
     0
100
AcDbHatch
 10
0.0
 20
0.0
 30
0.0
210
0.0
220
0.0
230
1.0
  2
SOLID
 70
     1
 71
     1
 91
        1
 92
        3
 72
     0
 73
     1
 93
        3
 10
0.0
 20
0.0
 10
4.0
 20
1.0
 10
4.0
 20
-1.0
 97
        0
 75
     0
 76
     1
 98
        0
  0
LINE
  5
206
330
204
100
AcDbEntity
  8
0
 62
     0
370
    -2
100
AcDbLine
 10
0.0
 20
0.0
 30
0.0
 11
4.0
 21
1.0
 31
0.0
  0
LINE
  5
207
330
204
100
AcDbEntity
  8
0
 62
     0
370
    -2
100
AcDbLine
 10
4.0
 20
1.0
 30
0.0
 11
4.0
 21
-1.0
 31
0.0
  0
LINE
  5
208
330
204
100
AcDbEntity
  8
0
 62
     0
370
    -2
100
AcDbLine
 10
4.0
 20
-1.0
 30
0.0
 11
0.0
 21
0.0
 31
0.0
  0
ENDBLK
  5
228
330
204
100
AcDbEntity
  8
0
100
AcDbBlockEnd
  0
BLOCK
  5
225
330
209
100
AcDbEntity
  8
0
100
AcDbBlockBegin
  2
cw-line-extremity301
 70
     0
 10
0.0
 20
0.0
 30
0.0
  3
cw-line-extremity301
  1

  0
LINE
  5
20A
330
209
100
AcDbEntity
  8
0
 62
     0
370
    -2
100
AcDbLine
 10
0.0
 20
2.66666
 30
0.0
 11
0.0
 21
-2.66666
 31
0.0
  0
ENDBLK
  5
226
330
209
100
AcDbEntity
  8
0
100
AcDbBlockEnd
  0
BLOCK
  5
223
330
20B
100
AcDbEntity
  8
0
100
AcDbBlockBegin
  2
cw-line-extremity4
 70
     0
 10
0.0
 20
0.0
 30
0.0
  3
cw-line-extremity4
  1

  0
HATCH
  5
20C
330
20B
100
AcDbEntity
  8
0
 62
     0
370
     5
100
AcDbHatch
 10
0.0
 20
0.0
 30
0.0
210
0.0
220
0.0
230
1.0
  2
SOLID
 70
     1
 71
     1
 91
        1
 92
        1
 93
        1
 72
     2
 10
0.0
 20
0.0
 40
1.0
 50
0.0
 51
360.0
 73
     1
 97
        0
 75
     0
 76
     1
 98
        0
  0
ENDBLK
  5
224
330
20B
100
AcDbEntity
  8
0
100
AcDbBlockEnd
  0
BLOCK
  5
221
330
20D
100
AcDbEntity
  8
0
100
AcDbBlockBegin
  2
cw-line-extremity5
 70
     0
 10
0.0
 20
0.0
 30
0.0
  3
cw-line-extremity5
  1

  0
LINE
  5
20E
330
20D
100
AcDbEntity
  8
0
 62
     0
370
    -2
100
AcDbLine
 10
0.0
 20
0.0
 30
0.0
 11
-1.0
 21
0.0
 31
0.0
  0
ENDBLK
  5
222
330
20D
100
AcDbEntity
  8
0
100
AcDbBlockEnd
  0
BLOCK
  5
21F
330
20F
100
AcDbEntity
  8
0
100
AcDbBlockBegin
  2
cw-line-extremity6
 70
     0
 10
0.0
 20
0.0
 30
0.0
  3
cw-line-extremity6
  1

  0
LINE
  5
210
330
20F
100
AcDbEntity
  8
0
 62
     0
370
    18
100
AcDbLine
 10
0.0
 20
1.0
 30
0.0
 11
0.0
 21
-1.0
 31
0.0
  0
ENDBLK
  5
220
330
20F
100
AcDbEntity
  8
0
100
AcDbBlockEnd
  0
BLOCK
  5
21D
330
211
100
AcDbEntity
  8
0
100
AcDbBlockBegin
  2
cw-line-extremity9
 70
     0
 10
0.0
 20
0.0
 30
0.0
  3
cw-line-extremity9
  1

  0
LINE
  5
212
330
211
100
AcDbEntity
  8
0
 62
     0
370
    18
100
AcDbLine
 10
-1.0
 20
-1.0
 30
0.0
 11
1.0
 21
1.0
 31
0.0
  0
ENDBLK
  5
21E
330
211
100
AcDbEntity
  8
0
100
AcDbBlockEnd
  0
BLOCK
  5
21B
330
213
100
AcDbEntity
  8
0
100
AcDbBlockBegin
  2
cw-line-extremity10
 70
     0
 10
0.0
 20
0.0
 30
0.0
  3
cw-line-extremity10
  1

  0
CIRCLE
  5
214
330
213
100
AcDbEntity
  8
0
 62
     0
370
    -2
100
AcDbCircle
 10
0.0
 20
0.0
 30
0.0
 40
1.0
  0
ENDBLK
  5
21C
330
213
100
AcDbEntity
  8
0
100
AcDbBlockEnd
  0
BLOCK
  5
219
330
215
100
AcDbEntity
  8
0
100
AcDbBlockBegin
  2
cw-line-extremity1
 70
     0
 10
0.0
 20
0.0
 30
0.0
  3
cw-line-extremity1
  1

  0
LINE
  5
216
330
215
100
AcDbEntity
  8
0
 62
     0
370
    -2
100
AcDbLine
 10
0.0
 20
0.0
 30
0.0
 11
0.0
 21
1.0
 31
0.0
  0
LINE
  5
217
330
215
100
AcDbEntity
  8
0
 62
     0
370
    -2
100
AcDbLine
 10
0.0
 20
1.0
 30
0.0
 11
0.5
 21
1.5
 31
0.0
  0
LINE
  5
218
330
215
100
AcDbEntity
  8
0
 62
     0
370
    -2
100
AcDbLine
 10
0.5
 20
1.5
 30
0.0
 11
1.5
 21
1.5
 31
0.0
  0
ENDBLK
  5
21A
330
215
100
AcDbEntity
  8
0
100
AcDbBlockEnd
  0
BLOCK
  5
1C
330
1B
100
AcDbEntity
  8
0
100
AcDbBlockBegin
  2
*Paper_Space69
 70
     0
 10
0.0
 20
0.0
 30
0.0
  3
*Paper_Space69
  1

  0
ENDBLK
  5
1D
330
1B
100
AcDbEntity
  8
0
100
AcDbBlockEnd
  0
BLOCK
  5
331
330
330
100
AcDbEntity
  8
0
100
AcDbBlockBegin
  2
*D70
 70
     1
 10
0.0
 20
0.0
 30
0.0
  3
*D70
  1

  0
LINE
  5
333
330
330
100
AcDbEntity
  8
Ech.1_2
 62
     0
370
    -2
100
AcDbLine
 10
147.9376611744014
 20
-708.3906116016333
 30
0.0
 11
142.8267732444405
 21
-708.3906116016333
 31
0.0
  0
LINE
  5
334
330
330
100
AcDbEntity
  8
Ech.1_2
 62
     0
370
    -2
100
AcDbLine
 10
141.6763177658781
 20
-698.3906116016333
 30
0.0
 11
146.8267732444405
 21
-698.3906116016333
 31
0.0
  0
LINE
  5
335
330
330
100
AcDbEntity
  8
Ech.1_2
 62
     0
370
    -2
100
AcDbLine
 10
144.8267732444405
 20
-706.3906116016333
 30
0.0
 11
144.8267732444405
 21
-700.3906116016333
 31
0.0
  0
INSERT
  5
336
330
330
100
AcDbEntity
  8
Ech.1_2
 62
     0
370
    -2
100
AcDbBlockReference
  2
cw-dimension-symbol2
 10
144.8267732444405
 20
-708.3906116016333
 30
0.0
 41
2.0
 42
2.0
 43
2.0
 50
270.0
  0
INSERT
  5
337
330
330
100
AcDbEntity
  8
Ech.1_2
 62
     0
370
    -2
100
AcDbBlockReference
  2
cw-dimension-symbol2
 10
144.8267732444405
 20
-698.3906116016333
 30
0.0
 41
2.0
 42
2.0
 43
2.0
 50
90.0
  0
MTEXT
  5
338
330
330
100
AcDbEntity
  8
Ech.1_2
 62
   190
370
    20
100
AcDbMText
 10
140.3267732444405
 20
-703.3906116016333
 30
0.0
 40
5.0
 41
0.0
 46
0.0
 71
     5
 72
     1
  1
\A1;10 mini
  7
arial-z
 11
6.123233995736766E-17
 21
1.0
 31
0.0
 73
     1
 44
1.0
  0
POINT
  5
339
330
330
100
AcDbEntity
  8
Defpoints
 62
     0
100
AcDbPoint
 10
147.9376611744014
 20
-708.3906116016333
 30
0.0
  0
POINT
  5
33A
330
330
100
AcDbEntity
  8
Defpoints
 62
     0
100
AcDbPoint
 10
141.6763177658781
 20
-698.3906116016333
 30
0.0
  0
POINT
  5
33B
330
330
100
AcDbEntity
  8
Defpoints
 62
     0
100
AcDbPoint
 10
144.8267732444405
 20
-698.3906116016333
 30
0.0
  0
ENDBLK
  5
332
330
330
100
AcDbEntity
  8
0
100
AcDbBlockEnd
  0
ENDSEC
  0
SECTION
  2
ENTITIES
  0
LINE
  5
236
330
1F
100
AcDbEntity
  8
Ech.1_2
 62
     7
370
    20
100
AcDbLine
 10
194.7332862524785
 20
-782.5949235275111
 30
0.0
 11
194.7332862524785
 21
-773.1625290000302
 31
0.0
  0
HATCH
  5
237
330
1F
100
AcDbEntity
  8
Ech.1_2
 62
   254
420
 15326711
440
 33554687
370
     5
100
AcDbHatch
 10
0.0
 20
0.0
 30
0.0
210
0.0
220
0.0
230
1.0
  2
SOLID
 70
     1
 71
     1
 91
        1
 92
        3
 72
     0
 73
     1
 93
        4
 10
97.9114504169342
 20
-677.204740198802
 10
135.4991552483629
 20
-663.5239344657821
 10
144.7336991181587
 20
-688.8956352269815
 10
107.1459942867299
 20
-702.5764409600597
 97
        0
 75
     0
 76
     1
 98
        0
  0
LWPOLYLINE
  5
238
330
1F
100
AcDbEntity
  8
Ech.1_2
 62
   190
370
    20
100
AcDbPolyline
 90
        5
 70
     0
 43
0.0
 10
97.9114504169342
 20
-677.204740198802
 10
135.4991552483629
 20
-663.5239344657821
 10
144.7336991181587
 20
-688.8956352269815
 10
107.1459942867299
 20
-702.5764409600597
 10
97.9114504169342
 20
-677.204740198802
  0
LWPOLYLINE
  5
239
330
1F
100
AcDbEntity
  8
Ech.1_2
 62
   190
370
    20
100
AcDbPolyline
 90
        4
 70
     0
 43
0.0
 10
135.4991552483629
 20
-663.5239344657821
 10
107.1459942867299
 20
-702.5764409600597
 10
144.7336991181587
 20
-688.8956352269815
 10
97.9114504169342
 20
-677.204740198802
  0
LINE
  5
23A
330
1F
100
AcDbEntity
  8
Ech.1_2
370
    20
100
AcDbLine
 10
218.7336994986621
 20
-633.1523756569441
 30
0.0
 11
252.0336994986652
 21
-633.1523756569441
 31
0.0
  0
LINE
  5
23B
330
1F
100
AcDbEntity
  8
Ech.1_2
 62
     7
370
    20
100
AcDbLine
 10
194.7332862524785
 20
-713.6880902424491
 30
0.0
 11
194.7332862524785
 21
-749.6880902424491
 31
0.0
  0
HATCH
  5
23C
330
1F
100
AcDbEntity
  8
Ech.1_2
 62
   254
420
 15326711
440
 33554687
370
     5
100
AcDbHatch
 10
0.0
 20
0.0
 30
0.0
210
0.0
220
0.0
230
1.0
  2
SOLID
 70
     1
 71
     1
 91
        1
 92
        3
 72
     0
 73
     1
 93
       12
 10
160.2141638805119
 20
-575.485145151124
 10
153.6196222479088
 20
-582.6764857928938
 10
76.65453525832211
 20
-582.6764857928938
 10
76.65453525832211
 20
-636.9765711737637
 10
83.84587590009366
 20
-643.5711128063667
 10
69.46359589536999
 20
-637.9271367992442
 10
76.65453525832211
 20
-644.5213380616078
 10
76.65453525832211
 20
-684.8649623498313
 10
271.7337090158985
 20
-613.8619497768304
 10
271.7337090158985
 20
-582.6763472125022
 10
161.164389135753
 20
-582.6764857928938
 10
154.5701878733893
 20
-589.8674251558477
 97
        0
 75
     0
 76
     1
 98
        0
  0
LWPOLYLINE
  5
23D
330
1F
100
AcDbEntity
  8
Ech.1_2
 62
   190
370
    20
100
AcDbPolyline
 90
       13
 70
     0
 43
0.0
 10
160.2141638805119
 20
-575.485145151124
 10
153.6196222479088
 20
-582.6764857928938
 10
76.65453525832211
 20
-582.6764857928938
 10
76.65453525832211
 20
-636.9765711737637
 10
83.84587590009366
 20
-643.5711128063667
 10
69.46359589536999
 20
-637.9271367992442
 10
76.65453525832211
 20
-644.5213380616078
 10
76.65453525832211
 20
-684.8649623498313
 10
271.7337090158985
 20
-613.8619497768304
 10
271.7337090158985
 20
-582.6763472125022
 10
161.164389135753
 20
-582.6764857928938
 10
154.5701878733893
 20
-589.8674251558477
 10
160.2141638805119
 20
-575.485145151124
  0
HATCH
  5
23E
330
1F
100
AcDbEntity
  8
Ech.1_2
 62
   254
420
 15326711
440
 33554687
370
     5
100
AcDbHatch
 10
0.0
 20
0.0
 30
0.0
210
0.0
220
0.0
230
1.0
  2
SOLID
 70
     1
 71
     1
 91
        1
 92
        3
 72
     0
 73
     1
 93
        4
 10
216.3799579015126
 20
-662.7434797930509
 10
76.65474626939479
 20
-713.5978912365863
 10
76.65474626939479
 20
-724.2396351458447
 10
219.801674277473
 20
-672.1398542708812
 97
        0
 75
     0
 76
     1
 98
        0
  0
LWPOLYLINE
  5
23F
330
1F
100
AcDbEntity
  8
Ech.1_2
 62
   190
370
    20
100
AcDbPolyline
 90
        5
 70
     0
 43
0.0
 10
216.3799579015126
 20
-662.7434797930509
 10
76.65474626939479
 20
-713.5978912365863
 10
76.65474626939479
 20
-724.2396351458447
 10
219.801674277473
 20
-672.1398542708812
 10
216.3799579015126
 20
-662.7434797930509
  0
HATCH
  5
240
330
1F
100
AcDbEntity
  8
Ech.1_2
 62
   254
420
 15326711
440
 33554687
370
     5
100
AcDbHatch
 10
0.0
 20
0.0
 30
0.0
210
0.0
220
0.0
230
1.0
  2
SOLID
 70
     1
 71
     1
 91
        1
 92
        3
 72
     0
 73
     1
 93
        5
 10
221.7336995633017
 20
-648.5065777695927
 10
221.7338522615832
 20
-678.1523756569441
 10
271.7337090158985
 20
-678.1523756569441
 10
271.7337090158985
 20
-633.1523756569441
 10
221.7338522615832
 20
-633.1523756569441
 97
        0
 75
     0
 76
     1
 98
        0
  0
LWPOLYLINE
  5
241
330
1F
100
AcDbEntity
  8
Ech.1_2
 62
   190
370
    20
100
AcDbPolyline
 90
        6
 70
     0
 43
0.0
 10
221.7336995633017
 20
-648.5065777695927
 10
221.7338522615832
 20
-678.1523756569441
 10
271.7337090158985
 20
-678.1523756569441
 10
271.7337090158985
 20
-633.1523756569441
 10
221.7338522615832
 20
-633.1523756569441
 10
221.7336995633017
 20
-648.5065777695927
  0
LWPOLYLINE
  5
242
330
1F
100
AcDbEntity
  8
Ech.1_2
 62
   254
420
 15656413
370
    20
100
AcDbPolyline
 90
        4
 70
     0
 43
0.0
 10
194.7334756772584
 20
-870.7634701319548
 10
194.73343895076
 20
-708.3906116016333
 10
221.7334383696875
 20
-708.3906116016333
 10
221.7338522615832
 20
-870.7634701319548
  0
LINE
  5
243
330
1F
100
AcDbEntity
  8
Ech.1_2
 62
   190
370
    20
100
AcDbLine
 10
221.7338522615832
 20
-633.1523756569441
 30
0.0
 11
271.7337090158985
 21
-645.6526254653909
 31
0.0
  0
LINE
  5
244
330
1F
100
AcDbEntity
  8
Ech.1_2
 62
   190
370
    20
100
AcDbLine
 10
271.7337090158985
 20
-665.6521258485009
 30
0.0
 11
221.7338522615977
 21
-678.1523756569441
 31
0.0
  0
LWPOLYLINE
  5
245
330
1F
100
AcDbEntity
  8
Ech.1_2
370
    20
100
AcDbPolyline
 90
        4
 70
     0
 43
0.0
 10
76.65474626939479
 20
-724.2396351458447
 10
219.801674277473
 20
-672.1398542708812
 10
216.3799579015126
 20
-662.7434797930509
 10
76.65474626939479
 20
-713.5978912365863
  0
LWPOLYLINE
  5
246
330
1F
100
AcDbEntity
  8
Ech.1_2
370
    20
100
AcDbPolyline
 90
        3
 70
     0
 43
0.0
 10
271.7337090158985
 20
-633.1523756569441
 10
218.7336994986621
 20
-633.1523756569441
 10
271.7337090158985
 20
-613.861949776845
  0
HATCH
  5
247
330
1F
100
AcDbEntity
  8
Ech.1_2
 62
    35
420
  9529928
440
 33554687
370
    20
100
AcDbHatch
 10
0.0
 20
0.0
 30
0.0
210
0.0
220
0.0
230
1.0
  2
SOLID
 70
     1
 71
     1
 91
        1
 92
        3
 72
     0
 73
     1
 93
        5
 10
194.7334039823385
 20
-870.7634701319548
 10
221.73428312658
 20
-870.7634701319548
 10
221.7334383696875
 20
-708.3906116016333
 10
215.735397550758
 20
-708.3906116016333
 10
194.73343895076
 20
-708.3906116016333
 97
        0
 75
     0
 76
     1
 98
        0
  0
LWPOLYLINE
  5
248
330
1F
100
AcDbEntity
  8
Ech.1_2
 62
   190
370
    20
100
AcDbPolyline
 90
        6
 70
     0
 43
0.0
 10
194.7334039823385
 20
-870.7634701319548
 10
221.73428312658
 20
-870.7634701319548
 10
221.7334383696875
 20
-708.3906116016333
 10
215.735397550758
 20
-708.3906116016333
 10
194.73343895076
 20
-708.3906116016333
 10
194.7334039823385
 20
-870.7634701319548
  0
HATCH
  5
249
330
1F
100
AcDbEntity
  8
Ech.1_2
 62
   190
440
 33554687
370
    20
100
AcDbHatch
 10
0.0
 20
0.0
 30
0.0
210
0.0
220
0.0
230
1.0
  2
CwHatchPattern_20
 70
     0
 71
     1
 91
        1
 92
        3
 72
     0
 73
     1
 93
        4
 10
216.3799579015126
 20
-662.7434797930509
 10
76.65474626939479
 20
-713.5978912365863
 10
76.65474626939479
 20
-724.2396351458447
 10
219.801674277473
 20
-672.1398542708812
 97
        0
 75
     0
 76
     2
 52
0.0
 41
1.5
 77
     0
 78
     2
 53
45.00000000000297
 43
0.0
 44
0.0
 45
-4.242640687119504
 46
4.242640687119065
 79
     0
 53
135.0000000000089
 43
0.0
 44
0.0
 45
-4.242640687118626
 46
-4.242640687119945
 79
     0
 98
        0
1001
ACAD
1010
0.0
1020
0.0
1030
0.0
  0
LWPOLYLINE
  5
24A
330
1F
100
AcDbEntity
  8
Ech.1_2
 62
     7
370
    20
100
AcDbPolyline
 90
        5
 70
     0
 43
0.0
 10
216.3799579015126
 20
-662.7434797930509
 10
76.65474626939479
 20
-713.5978912365863
 10
76.65474626939479
 20
-724.2396351458447
 10
219.801674277473
 20
-672.1398542708812
 10
216.3799579015126
 20
-662.7434797930509
  0
LINE
  5
24B
330
1F
100
AcDbEntity
  8
Ech.1_2
 62
     7
370
    20
100
AcDbLine
 10
248.0659973782971
 20
-622.4762923261114
 30
0.0
 11
76.65453525832211
 21
-684.8649623498313
 31
0.0
  0
HATCH
  5
24C
330
1F
100
AcDbEntity
  8
Ech.1_2
 62
   254
420
 15326711
440
 33554687
370
     5
100
AcDbHatch
 10
0.0
 20
0.0
 30
0.0
210
0.0
220
0.0
230
1.0
  2
SOLID
 70
     1
 71
     1
 91
        1
 92
        3
 72
     0
 73
     1
 93
        4
 10
248.0659973782971
 20
-582.6764857928938
 10
248.0659973782971
 20
-633.1523756569441
 10
271.7337090158985
 20
-633.1523756569441
 10
271.7337090158985
 20
-582.6764857928938
 97
        0
 75
     0
 76
     1
 98
        0
  0
LWPOLYLINE
  5
24D
330
1F
100
AcDbEntity
  8
Ech.1_2
 62
   190
370
    20
100
AcDbPolyline
 90
        5
 70
     0
 43
0.0
 10
248.0659973782971
 20
-582.6764857928938
 10
248.0659973782971
 20
-633.1523756569441
 10
271.7337090158985
 20
-633.1523756569441
 10
271.7337090158985
 20
-582.6764857928938
 10
248.0659973782971
 20
-582.6764857928938
  0
LWPOLYLINE
  5
24E
330
1F
100
AcDbEntity
  8
Ech.1_2
 62
   190
370
    20
100
AcDbPolyline
 90
        3
 70
     0
 43
0.0
 10
248.0659973782971
 20
-633.1523756569441
 10
270.5659973782972
 20
-588.1523756569441
 10
271.7337090158985
 20
-590.4877989321467
  0
LWPOLYLINE
  5
24F
330
1F
100
AcDbEntity
  8
Ech.1_2
 62
   190
370
    20
100
AcDbPolyline
 90
        3
 70
     0
 43
0.0
 10
267.8280524462721
 20
-582.6764857928938
 10
270.5659973782972
 20
-588.1523756569441
 10
271.7337090158985
 20
-585.8169523817451
  0
LWPOLYLINE
  5
250
330
1F
100
AcDbEntity
  8
Ech.1_2
 62
   190
370
    20
100
AcDbPolyline
 90
      202
 70
     0
 43
0.0
 10
208.1965459848802
 20
-776.0978555183174
 10
208.0290399644544
 20
-773.2244643058932
 10
207.8658721238967
 20
-770.3533381960294
 10
207.7113806430751
 20
-767.4867422912872
 10
207.6387442187741
 20
-766.0558510103867
 10
207.5699037018577
 20
-764.6269416942268
 10
207.5054013648093
 20
-763.2002974806276
 10
207.4457794801125
 20
-761.7762015074092
 10
207.3915803202508
 20
-760.3549369123917
 10
207.3433461577077
 20
-758.9367868333949
 10
207.3016192649667
 20
-757.5220344082392
 10
207.2669419145112
 20
-756.1109627747445
 10
207.2398563788249
 20
-754.7038550707309
 10
207.2209049303912
 20
-753.3009944340188
 10
207.2106298416936
 20
-751.9026640024279
 10
207.2095733852157
 20
-750.5091469137784
 10
207.2182778334409
 20
-749.1207263058905
 10
207.2372854588527
 20
-747.737685316584
 10
207.2671370764932
 20
-746.3603052273852
 10
207.3080092580532
 20
-744.9884033953925
 10
207.3592369204512
 20
-743.620725190507
 10
207.4200364680988
 20
-742.2558650372616
 10
207.4896243054077
 20
-740.8924173601889
 10
207.5672168367896
 20
-739.5289765838219
 10
207.6520304666562
 20
-738.1641371326931
 10
207.7432815994192
 20
-736.7964934313356
 10
207.8401866394902
 20
-735.424639904282
 10
207.9419619912809
 20
-734.047170976065
 10
208.0478240592032
 20
-732.6626810712177
 10
208.1569892476683
 20
-731.269764614272
 10
208.2686739610884
 20
-729.8670160297618
 10
208.3820946038749
 20
-728.4530297422193
 10
208.4964675804395
 20
-727.0264001761773
 10
208.6110092951939
 20
-725.5857217561684
 10
208.668098555771
 20
-724.8596749835931
 10
208.7249361525499
 20
-724.1295889067258
 10
208.7814241360821
 20
-723.3952878286333
 10
208.8374645569191
 20
-722.656596052382
 10
208.8929594656123
 20
-721.9133378810387
 10
208.9478109127131
 20
-721.16533761767
 10
209.0019209487731
 20
-720.4124195653422
 10
209.0551916243437
 20
-719.6544080271221
 10
209.1075249899764
 20
-718.8911273060763
 10
209.1588230962225
 20
-718.1224017052714
 10
209.2089844548824
 20
-717.3480597598684
 10
209.2574804410798
 20
-716.5684408300511
 10
209.302953432312
 20
-715.7848756980832
 10
209.343950638393
 20
-714.9988089599939
 10
209.3790192691371
 20
-714.2116852118132
 10
209.4067065343584
 20
-713.4249490495705
 10
209.4255596438712
 20
-712.6400450692959
 10
209.4341258074894
 20
-711.8584178670185
 10
209.4309522350274
 20
-711.0815120387684
 10
209.4145861362993
 20
-710.310772180575
 10
209.4010018926524
 20
-709.9281659265087
 10
209.3835747211192
 20
-709.5476428884679
 10
209.3621230229267
 20
-709.1693836409561
 10
209.3364651993015
 20
-708.7935687584769
 10
209.3064196514704
 20
-708.4203788155344
 10
209.2718047806601
 20
-708.0499943866319
 10
209.2324389880974
 20
-707.682596046273
 10
209.1881406750093
 20
-707.318364368962
 10
209.1387282426223
 20
-706.9574799292022
 10
209.0840200921633
 20
-706.6001233014975
 10
209.0238346248589
 20
-706.2464750603511
 10
208.957990241936
 20
-705.8967157802674
 10
208.8863053446215
 20
-705.5510260357497
 10
208.808598334142
 20
-705.2095864013019
 10
208.7246876117243
 20
-704.8725774514274
 10
208.6343915785952
 20
-704.5401797606303
 10
208.5375286359814
 20
-704.2125739034142
 10
208.4339171851098
 20
-703.8899404542825
 10
208.323375627207
 20
-703.5724599877392
 10
208.2057223635
 20
-703.2603130782882
 10
208.0807757952154
 20
-702.9536803004326
 10
207.94835432358
 20
-702.6527422286765
 10
207.8082763498205
 20
-702.3576794375236
 10
207.6603602751638
 20
-702.0686725014779
 10
207.5044245008367
 20
-701.7859019950423
 10
207.3402874280658
 20
-701.5095484927213
 10
207.167767458078
 20
-701.2397925690182
 10
206.9866829921
 20
-700.9768147984366
 10
206.7968524313587
 20
-700.7207957554807
 10
206.5980941770807
 20
-700.4719160146539
 10
206.3902266304929
 20
-700.2303561504599
 10
206.1731399080753
 20
-699.9962435949138
 10
205.947016041205
 20
-699.7694894650448
 10
205.7121113256343
 20
-699.5499498464405
 10
205.4686820571302
 20
-699.3374808246786
 10
205.2169845314594
 20
-699.1319384853363
 10
204.9572750443889
 20
-698.9331789139909
 10
204.6898098916854
 20
-698.7410581962198
 10
204.4148453691158
 20
-698.5554324176004
 10
204.1326377724469
 20
-698.3761576637099
 10
203.8434433974456
 20
-698.2030900201262
 10
203.5475185398786
 20
-698.036085572426
 10
203.2451194955129
 20
-697.875000406187
 10
202.9365025601154
 20
-697.7196906069868
 10
202.6219240294527
 20
-697.570012260402
 10
202.3016401992917
 20
-697.4258214520106
 10
201.9759073653994
 20
-697.2869742673898
 10
201.6449818235425
 20
-697.1533267921169
 10
201.3091198694879
 20
-697.0247351117695
 10
200.9685777990023
 20
-696.9010553119244
 10
200.6236119078527
 20
-696.7821434781597
 10
200.2744784918059
 20
-696.6678556960521
 10
199.9214338466287
 20
-696.5580480511796
 10
199.5647342680879
 20
-696.4525766291189
 10
199.2046360519505
 20
-696.3512975154478
 10
198.8413954939832
 20
-696.2540667957436
 10
198.4752688899529
 20
-696.1607405555835
 10
198.1065125356263
 20
-696.071174880545
 10
197.7353827267704
 20
-695.9852258562054
 10
197.362135759152
 20
-695.902749568142
 10
196.6103155306951
 20
-695.7476395431538
 10
195.8531022163901
 20
-695.604693490199
 10
195.0925461823718
 20
-695.4727600938967
 10
194.3306977947749
 20
-695.3506880388654
 10
193.5696074197342
 20
-695.2373260097243
 10
192.8113254233843
 20
-695.1315226910923
 10
192.057880145813
 20
-695.0321403515284
 10
191.3103573337776
 20
-694.9386225773067
 10
190.5685658467094
 20
-694.8512004387621
 10
189.8322237220836
 20
-694.7701610180966
 10
189.1010489973755
 20
-694.6957913975117
 10
188.3747597100603
 20
-694.628378659209
 10
187.6530738976131
 20
-694.56820988539
 10
186.9357095975093
 20
-694.5155721582565
 10
186.2223848472241
 20
-694.4707525600102
 10
185.5128176842327
 20
-694.4340381728524
 10
184.8067261460104
 20
-694.4057160789849
 10
184.1038282700323
 20
-694.3860733606093
 10
183.4038420937738
 20
-694.3753970999276
 10
182.7064856547101
 20
-694.3739743791408
 10
182.0114769903163
 20
-694.382092280451
 10
181.3185341380678
 20
-694.4000378860599
 10
180.6273751354396
 20
-694.4280982781684
 10
179.9377180199073
 20
-694.4665605389789
 10
179.2492808289458
 20
-694.5157117506927
 10
178.5617816000305
 20
-694.5758389955117
 10
177.8749383706367
 20
-694.6472293556373
 10
177.1884691782394
 20
-694.7301699132711
 10
176.502104793132
 20
-694.8249217485684
 10
175.8157630689984
 20
-694.9313638934253
 10
175.1295041386885
 20
-695.0490848274469
 10
174.443391695971
 20
-695.1776657583854
 10
173.7574894346148
 20
-695.3166878939925
 10
173.0718610483889
 20
-695.4657324420207
 10
172.386570231062
 20
-695.6243806102216
 10
171.701680676403
 20
-695.7922136063474
 10
171.0172560781808
 20
-695.9688126381503
 10
170.3333601301642
 20
-696.1537589133824
 10
169.6500565261222
 20
-696.3466336397954
 10
168.9674089598234
 20
-696.5470180251419
 10
168.285481125037
 20
-696.7544932771737
 10
167.6043367155316
 20
-696.9686406036426
 10
166.9240394250762
 20
-697.1890412123009
 10
166.2446529474396
 20
-697.4152763109009
 10
165.5662409763907
 20
-697.6469271071942
 10
164.8888672056983
 20
-697.8835748089333
 10
164.2125953291313
 20
-698.1248006238699
 10
163.5374890404586
 20
-698.370185759756
 10
162.1910280018714
 20
-698.871758825386
 10
160.8499936400877
 20
-699.3849436678397
 10
159.5148913581546
 20
-699.9063989444126
 10
158.1858344438696
 20
-700.4336338304126
 10
156.8622274819637
 20
-700.9656947143072
 10
155.5434005520286
 20
-701.5017895900171
 10
154.2286837336562
 20
-702.0411264514634
 10
151.6089007499669
 20
-703.1263581072488
 10
148.9975191676302
 20
-704.2150536330315
 10
146.3891796233808
 20
-705.3008769801795
 10
143.7785227539532
 20
-706.3774921000604
 10
142.4706505212772
 20
-706.9103665595782
 10
141.1601891960821
 20
-707.4385629440422
 10
139.8464688579597
 20
-707.9612892473733
 10
138.5289983796216
 20
-708.4780741781628
 10
135.8875943081416
 20
-709.5040459950034
 10
134.5671843974111
 20
-710.0203729364094
 10
133.2493220530164
 20
-710.5436938975434
 10
131.9357718872046
 20
-711.0775838767088
 10
131.2811653125945
 20
-711.3496094350226
 10
130.6282985122228
 20
-711.6256178722078
 10
129.9773920626205
 20
-711.9060560630525
 10
129.3286651982675
 20
-712.1913677773156
 10
128.6822102796905
 20
-712.4817032434987
 10
128.0378903679619
 20
-712.7766821726242
 10
127.3955444195628
 20
-713.0758685062527
 10
126.7550113909746
 20
-713.3788261859454
 10
125.4787850820737
 20
-713.9944497956295
 10
124.2084708233742
 20
-714.6217435883921
 10
122.9436418819984
 20
-715.2598603580444
 10
121.68387631046
 20
-715.9079675679034
 10
120.4287521612725
 20
-716.5652326812851
 10
119.1778474869493
 20
-717.2308231615053
 10
117.9307403400042
 20
-717.9039064718803
 10
116.6870087729505
 20
-718.5836500757263
 10
115.4462308383021
 20
-719.2692214363595
 10
114.2079845885722
 20
-719.9597880170959
 10
112.9718480762746
 20
-720.6545172812516
 10
110.5042164740302
 20
-722.0531337130856
 10
108.0399604516774
 20
-723.4584104383903
  0
LWPOLYLINE
  5
251
330
1F
100
AcDbEntity
  8
Ech.1_2
 62
     5
370
    20
100
AcDbPolyline
 90
        4
 70
     0
 43
0.0
 10
271.7337090158985
 20
-633.1523756569441
 10
221.7338522615832
 20
-633.1523756569441
 10
221.7338522615832
 20
-678.1523756569441
 10
271.7337090158985
 20
-678.1523756569441
  0
LWPOLYLINE
  5
252
330
1F
100
AcDbEntity
  8
Ech.1_2
 62
     5
370
    20
100
AcDbPolyline
 90
        3
 70
     0
 43
0.0
 10
248.0659973782971
 20
-582.6764857928938
 10
248.0659973782971
 20
-633.1523756569441
 10
269.0888209045738
 20
-633.1523756569441
  0
LINE
  5
253
330
1F
100
AcDbEntity
  8
Ech.1_2
 62
     5
370
    20
100
AcDbLine
 10
248.0659973782971
 20
-633.1523756569441
 30
0.0
 11
271.7337090158985
 21
-633.1523756569441
 31
0.0
  0
LWPOLYLINE
  5
254
330
1F
100
AcDbEntity
  8
Ech.1_2
 62
     5
370
    40
100
AcDbPolyline
 90
        5
 70
     0
 43
0.0
 10
97.9114504169342
 20
-677.204740198802
 10
135.4991552483629
 20
-663.5239344657821
 10
144.7336991181587
 20
-688.8956352269815
 10
107.1459942867299
 20
-702.5764409600597
 10
97.9114504169342
 20
-677.204740198802
  0
LWPOLYLINE
  5
255
330
1F
100
AcDbEntity
  8
Ech.1_2
 62
   173
420
  6710988
370
    70
100
AcDbPolyline
 90
        6
 70
     0
 43
0.0
 10
221.733438951051
 20
-697.0895255369905
 10
221.7338228214307
 20
-672.4366808553496
 10
210.1521826873526
 20
-676.6518865513535
 10
221.7338228214307
 20
-672.4366808553496
 10
221.7336759039048
 20
-659.794938746174
 10
210.1521826873526
 20
-664.0101430035756
  0
LWPOLYLINE
  5
256
330
1F
100
AcDbEntity
  8
Ech.1_2
 62
   190
370
    20
100
AcDbPolyline
 90
        6
 70
     0
 43
0.0
 10
271.7338522615833
 20
-885.7634632553891
 10
271.7336274936083
 20
-726.7709896128326
 10
264.5426881306562
 20
-720.176788350469
 10
278.9249681353799
 20
-725.8207643575915
 10
271.7336274936083
 20
-719.2262227249885
 10
271.7338522615833
 20
-567.6764857928938
  0
LWPOLYLINE
  5
257
330
1F
100
AcDbEntity
  8
Ech.1_2
 62
   190
370
    20
100
AcDbPolyline
 90
        6
 70
     0
 43
0.0
 10
286.7338522615833
 20
-582.6763284123008
 10
161.164389135753
 20
-582.6764857928938
 10
154.5701878733893
 20
-589.8674251558477
 10
160.2141638805119
 20
-575.485145151124
 10
153.6196222479088
 20
-582.6764857928938
 10
61.65453525832217
 20
-582.6763751832514
  0
LWPOLYLINE
  5
258
330
1F
100
AcDbEntity
  8
Ech.1_2
 62
   190
370
    20
100
AcDbPolyline
 90
        6
 70
     0
 43
0.0
 10
76.65468987700163
 20
-739.2396351458447
 10
76.65453525832211
 20
-644.5213380616078
 10
69.46359589536999
 20
-637.9271367992442
 10
83.84587590009366
 20
-643.5711128063667
 10
76.65453525832211
 20
-636.9765711737637
 10
76.65474626939479
 20
-567.6764857928938
  0
HATCH
  5
259
330
1F
100
AcDbEntity
  8
Ech.1_2
 62
   254
420
 15326711
440
 33554687
370
     5
100
AcDbHatch
 10
0.0
 20
0.0
 30
0.0
210
0.0
220
0.0
230
1.0
  2
SOLID
 70
     1
 71
     1
 91
        1
 92
        3
 72
     0
 73
     1
 93
       12
 10
231.7786191492782
 20
-870.7631693771618
 10
271.7338522615833
 20
-870.7631693771618
 10
271.7338522615833
 20
-726.7709896128326
 10
264.5426881306562
 20
-720.176788350469
 10
278.9249681353799
 20
-725.8207643575915
 10
271.7336274936083
 20
-719.2262227249885
 10
271.7337090158985
 20
-678.1523756569441
 10
221.7338522615832
 20
-678.1523756569441
 10
221.7338522615832
 20
-870.7634701319548
 10
224.2338522614359
 20
-870.7631693771618
 10
230.8280535237977
 20
-863.5722300142079
 10
225.1840775166751
 20
-877.9545100189316
 97
        0
 75
     0
 76
     1
 98
        0
  0
LWPOLYLINE
  5
25A
330
1F
100
AcDbEntity
  8
Ech.1_2
 62
   190
370
    20
100
AcDbPolyline
 90
       13
 70
     0
 43
0.0
 10
231.7786191492782
 20
-870.7631693771618
 10
271.7338522615833
 20
-870.7631693771618
 10
271.7338522615833
 20
-726.7709896128326
 10
264.5426881306562
 20
-720.176788350469
 10
278.9249681353799
 20
-725.8207643575915
 10
271.7336274936083
 20
-719.2262227249885
 10
271.7337090158985
 20
-678.1523756569441
 10
221.7338522615832
 20
-678.1523756569441
 10
221.7338522615832
 20
-870.7634701319548
 10
224.2338522614359
 20
-870.7631693771618
 10
230.8280535237977
 20
-863.5722300142079
 10
225.1840775166751
 20
-877.9545100189316
 10
231.7786191492782
 20
-870.7631693771618
  0
LWPOLYLINE
  5
25B
330
1F
100
AcDbEntity
  8
Ech.1_2
 62
   190
370
    20
100
AcDbPolyline
 90
        4
 70
     0
 43
0.0
 10
124.8386341686796
 20
-710.6562905545143
 10
108.0399604516774
 20
-723.4584104383903
 10
127.3778694447123
 20
-716.1075798038
 10
124.8386341686796
 20
-710.6562905545143
  0
HATCH
  5
25C
330
1F
100
AcDbEntity
  8
Ech.1_2
 62
    17
420
  8405056
440
 33554687
370
    20
100
AcDbHatch
 10
0.0
 20
0.0
 30
0.0
210
0.0
220
0.0
230
1.0
  2
SOLID
 70
     1
 71
     1
 91
        1
 92
        3
 72
     0
 73
     1
 93
        4
 10
167.6763177658781
 20
-870.7636351602014
 10
167.6763177658781
 20
-708.3906116016333
 10
147.6763177658781
 20
-708.3906116016333
 10
147.6763177658781
 20
-870.7636351602014
 97
        0
 75
     0
 76
     1
 98
        0
  0
LWPOLYLINE
  5
25D
330
1F
100
AcDbEntity
  8
Ech.1_2
 62
     7
370
    20
100
AcDbPolyline
 90
        5
 70
     0
 43
0.0
 10
167.6763177658781
 20
-870.7636351602014
 10
167.6763177658781
 20
-708.3906116016333
 10
147.6763177658781
 20
-708.3906116016333
 10
147.6763177658781
 20
-870.7636351602014
 10
167.6763177658781
 20
-870.7636351602014
  0
HATCH
  5
25E
330
1F
100
AcDbEntity
  8
Ech.1_2
 62
    35
420
  9529928
440
 33554687
370
    20
100
AcDbHatch
 10
0.0
 20
0.0
 30
0.0
210
0.0
220
0.0
230
1.0
  2
SOLID
 70
     1
 71
     1
 91
        1
 92
        3
 72
     0
 73
     1
 93
        4
 10
167.7334039823385
 20
-708.3906111245014
 10
167.7334039823385
 20
-747.1732889669893
 10
194.7334039823385
 20
-747.1732889669893
 10
194.7334039823385
 20
-708.3906116016333
 97
        0
 75
     0
 76
     1
 98
        0
  0
LWPOLYLINE
  5
25F
330
1F
100
AcDbEntity
  8
Ech.1_2
 62
   190
370
    20
100
AcDbPolyline
 90
        5
 70
     0
 43
0.0
 10
167.7334039823385
 20
-708.3906111245014
 10
167.7334039823385
 20
-747.1732889669893
 10
194.7334039823385
 20
-747.1732889669893
 10
194.7334039823385
 20
-708.3906116016333
 10
167.7334039823385
 20
-708.3906111245014
  0
LWPOLYLINE
  5
260
330
1F
100
AcDbEntity
  8
Ech.1_2
 62
   190
370
    20
100
AcDbPolyline
 90
        4
 70
     0
 43
0.0
 10
194.7334039823385
 20
-708.3906116016333
 10
167.7334039823385
 20
-747.1732889669893
 10
194.7334039823385
 20
-747.1732889669893
 10
167.7334039823385
 20
-708.3907244356851
  0
LWPOLYLINE
  5
261
330
1F
100
AcDbEntity
  8
Ech.1_2
 62
     5
370
    40
100
AcDbPolyline
 90
        5
 70
     0
 43
0.0
 10
167.7334039823385
 20
-708.3907244356851
 10
167.7334039823385
 20
-747.1732889669893
 10
194.7334039823385
 20
-747.1732889669893
 10
194.7334039823385
 20
-708.3906116016333
 10
167.7334039823385
 20
-708.3907244356851
  0
LWPOLYLINE
  5
262
330
1F
100
AcDbEntity
  8
Ech.1_2
 62
     7
370
    20
100
AcDbPolyline
 90
        4
 70
     0
 43
0.0
 10
147.6763177658781
 20
-708.3906116016333
 10
147.6763177658781
 20
-870.7636351602014
 10
167.6763177658781
 20
-870.7636351602014
 10
167.6763177658781
 20
-708.3906116016333
  0
LWPOLYLINE
  5
263
330
1F
100
AcDbEntity
  8
Ech.1_2
 62
     7
370
    20
100
AcDbPolyline
 90
        4
 70
     0
 43
0.0
 10
167.6763177658781
 20
-870.7636351602014
 10
167.6763177658781
 20
-708.3906116016333
 10
147.6763177658781
 20
-708.3906116016333
 10
147.6763177658781
 20
-870.7636351602014
  0
LWPOLYLINE
  5
264
330
1F
100
AcDbEntity
  8
Ech.1_2
 62
   190
370
    20
100
AcDbPolyline
 90
        3
 70
     0
 43
0.0
 10
133.3421367234409
 20
-696.384053849386
 10
133.3421367234409
 20
-746.1104576280777
 10
128.1421367234402
 20
-746.1104576280777
  0
INSERT
  5
265
330
1F
100
AcDbEntity
  8
Ech.1_2
 62
   190
370
    20
100
AcDbBlockReference
  2
cw-line-extremity4
 10
133.3421367234409
 20
-696.384053849386
 30
0.0
 50
270.0
  0
LWPOLYLINE
  5
266
330
1F
100
AcDbEntity
  8
Ech.1_2
 62
   190
370
    20
100
AcDbPolyline
 90
        3
 70
     0
 43
0.0
 10
157.6763177658781
 20
-825.1050017059188
 10
136.1421367234402
 20
-825.1050017059188
 10
128.1421367234402
 20
-825.1050017059188
  0
INSERT
  5
267
330
1F
100
AcDbEntity
  8
Ech.1_2
 62
   190
370
    20
100
AcDbBlockReference
  2
cw-line-extremity4
 10
157.6763177658781
 20
-825.1050017059188
 30
0.0
 50
180.0
  0
LWPOLYLINE
  5
268
330
1F
100
AcDbEntity
  8
Ech.1_2
 62
   190
370
    20
100
AcDbPolyline
 90
        3
 70
     0
 43
0.0
 10
207.2333562310327
 20
-789.1473939832249
 10
136.1421367234402
 20
-789.1473939832249
 10
128.1421367234402
 20
-789.1473939832249
  0
INSERT
  5
269
330
1F
100
AcDbEntity
  8
Ech.1_2
 62
   190
370
    20
100
AcDbBlockReference
  2
cw-line-extremity4
 10
207.2333562310327
 20
-789.1473939832249
 30
0.0
 50
180.0
  0
LWPOLYLINE
  5
26A
330
1F
100
AcDbEntity
  8
Ech.1_2
 62
   190
370
    20
100
AcDbPolyline
 90
        3
 70
     0
 43
0.0
 10
244.7336262263202
 20
-854.8468845262032
 10
136.1421367234402
 20
-854.8468845262032
 10
128.1421367234402
 20
-854.8468845262032
  0
INSERT
  5
26B
330
1F
100
AcDbEntity
  8
Ech.1_2
 62
   190
370
    20
100
AcDbBlockReference
  2
cw-line-extremity4
 10
244.7336262263202
 20
-854.8468845262032
 30
0.0
 50
180.0
  0
LWPOLYLINE
  5
26C
330
1F
100
AcDbEntity
  8
Ech.1_2
 62
   190
370
    20
100
AcDbPolyline
 90
        3
 70
     0
 43
0.0
 10
181.0645396906243
 20
-735.4405358096228
 10
139.5986103794316
 20
-789.1473939832249
 10
128.1421367234402
 20
-789.1473939832249
  0
INSERT
  5
26D
330
1F
100
AcDbEntity
  8
Ech.1_2
 62
   190
370
    20
100
AcDbBlockReference
  2
cw-line-extremity4
 10
181.0645396906243
 20
-735.4405358096228
 30
0.0
 50
232.3290288046236
  0
LWPOLYLINE
  5
26E
330
1F
100
AcDbEntity
  8
Ech.1_2
 62
   190
370
    20
100
AcDbPolyline
 90
        6
 70
     0
 43
0.0
 10
132.6763177658781
 20
-870.7636351602014
 10
224.2335692571145
 20
-870.7634632553891
 10
230.8277705194764
 20
-863.5725238924351
 10
225.1837945123538
 20
-877.9548038971589
 10
231.7783361449569
 20
-870.7634632553891
 10
286.7338522615833
 20
-870.7634632553891
  0
LWPOLYLINE
  5
26F
330
1F
100
AcDbEntity
  8
Ech.1_2
 62
     8
370
    90
100
AcDbPolyline
 90
        3
 70
     0
 43
0.0
 10
194.73343895076
 20
-708.3906116016333
 10
221.7334383696875
 20
-708.3906116016333
 10
221.7334383696875
 20
-747.2801157562444
  0
LWPOLYLINE
  5
270
330
1F
100
AcDbEntity
  8
Ech.1_2
 62
   190
370
    20
100
AcDbPolyline
 90
        3
 70
     0
 43
0.0
 10
212.9924983129826
 20
-708.3906116016333
 10
292.5293431414871
 20
-708.3906116016333
 10
295.7293431414878
 20
-708.3906116016333
  0
INSERT
  5
271
330
1F
100
AcDbEntity
  8
Ech.1_2
 62
   190
370
    20
100
AcDbBlockReference
  2
cw-line-extremity4
 10
212.9924983129826
 20
-708.3906116016333
 30
0.0
  0
LWPOLYLINE
  5
272
330
1F
100
AcDbEntity
  8
Ech.1_2
 62
   190
370
    20
100
AcDbPolyline
 90
        5
 70
     0
 43
0.0
 10
-0.4328742585180407
 20
-942.9904938814943
 10
393.567125741482
 20
-942.9904938814943
 10
393.567125741482
 20
-997.9557227075165
 10
-0.4328742585180407
 20
-997.9557227075165
 10
-0.4328742585180407
 20
-942.9904938814943
  0
LWPOLYLINE
  5
273
330
1F
100
AcDbEntity
  8
Ech.1_2
 62
   190
370
    20
100
AcDbPolyline
 90
        5
 70
     0
 43
0.0
 10
393.567125741482
 20
-494.162507909823
 10
-0.4328742585180407
 20
-494.162507909823
 10
-0.4328742585180407
 20
-455.9557227075638
 10
393.567125741482
 20
-455.9557227075638
 10
393.567125741482
 20
-494.162507909823
  0
LWPOLYLINE
  5
274
330
1F
100
AcDbEntity
  8
Ech.1_2
 62
   190
370
    20
100
AcDbPolyline
 90
        5
 70
     0
 43
0.0
 10
393.567125741482
 20
-951.7904938814936
 10
-0.4328742585180407
 20
-951.7904938814936
 10
-0.4328742585180407
 20
-942.9904938814943
 10
393.567125741482
 20
-942.9904938814943
 10
393.567125741482
 20
-951.7904938814936
  0
LWPOLYLINE
  5
275
330
1F
100
AcDbEntity
  8
Ech.1_2
 62
   190
370
    20
100
AcDbPolyline
 90
        5
 70
     0
 43
0.0
 10
393.567125741482
 20
-974.5389519736273
 10
-0.4328742585180407
 20
-974.5389519736273
 10
-0.4328742585180407
 20
-965.0481406493345
 10
393.567125741482
 20
-965.0481406493345
 10
393.567125741482
 20
-974.5389519736273
  0
LINE
  5
276
330
1F
100
AcDbEntity
  8
Ech.1_2
 62
   190
370
    20
100
AcDbLine
 10
74.84895052666437
 20
-942.9904938814943
 30
0.0
 11
74.84895052666437
 21
-951.7904938814936
 31
0.0
  0
LINE
  5
277
330
1F
100
AcDbEntity
  8
Ech.1_2
 62
   190
370
    20
100
AcDbLine
 10
337.6481915788831
 20
-942.9904938814943
 30
0.0
 11
337.6481915788831
 21
-951.7904938814936
 31
0.0
  0
LINE
  5
278
330
1F
100
AcDbEntity
  8
Ech.1_2
 62
   190
370
    20
100
AcDbLine
 10
137.3110377248062
 20
-942.9904938814943
 30
0.0
 11
137.3110377248062
 21
-951.7904938814936
 31
0.0
  0
IMAGE
  5
27B
330
1F
100
AcDbEntity
  8
Ech.1_2
160
                 8
310
0800000000000000
100
AcDbRasterImage
 90
        0
 10
75.99282523783407
 20
-995.9415037150975
 30
0.0
 11
0.1133603238866397
 21
0.0
 31
0.0
 12
0.0
 22
0.1111111111111111
 32
0.0
 13
247.0
 23
171.0
340
27A
 70
     3
280
     0
281
    50
282
    50
283
     0
360
27C
 71
     1
 91
        2
 14
-0.5
 24
-0.5
 14
246.5
 24
170.5
290
     0
  0
IMAGE
  5
27E
330
1F
100
AcDbEntity
  8
Ech.1_2
160
                 8
310
0800000000000000
100
AcDbRasterImage
 90
        0
 10
180.4238937346258
 20
-996.963348636611
 30
0.0
 11
0.16
 21
0.0
 31
0.0
 12
0.0
 22
0.1578947368421053
 32
0.0
 13
200.0
 23
133.0
340
27D
 70
     3
280
     0
281
    50
282
    50
283
     0
360
27F
 71
     1
 91
        2
 14
-0.5
 24
-0.5
 14
199.5
 24
132.5
290
     0
  0
IMAGE
  5
281
330
1F
100
AcDbEntity
  8
Ech.1_2
160
                 8
310
0800000000000000
100
AcDbRasterImage
 90
        0
 10
277.773760286284
 20
-997.4453398025908
 30
0.0
 11
0.03770739064856712
 21
0.0
 31
0.0
 12
0.0
 22
0.03793103448275862
 32
0.0
 13
1326.0
 23
580.0
340
280
 70
     3
280
     0
281
    50
282
    50
283
     0
360
282
 71
     1
 91
        2
 14
-0.5
 24
-0.5
 14
1325.5
 24
579.5
290
     0
  0
LINE
  5
283
330
1F
100
AcDbEntity
  8
Ech.1_2
 62
   190
370
    20
100
AcDbLine
 10
393.567125741482
 20
-467.9557227075638
 30
0.0
 11
-0.4328742585180407
 21
-467.9557227075638
 31
0.0
  0
LWPOLYLINE
  5
284
330
1F
100
AcDbEntity
  8
Ech.1_2
 62
   190
370
    20
100
AcDbPolyline
 90
        5
 70
     0
 43
0.0
 10
393.567125741482
 20
-997.9557227075165
 10
393.567125741482
 20
-455.9557227075165
 10
-0.4328742585180407
 20
-455.9557227075165
 10
-0.4328742585180407
 20
-997.9557227075165
 10
393.567125741482
 20
-997.9557227075165
  0
LINE
  5
285
330
1F
100
AcDbEntity
  8
Ech.1_2
 62
   190
370
     9
100
AcDbLine
 10
147.1207617666009
 20
-725.2632002843238
 30
0.0
 11
146.8152067656978
 21
-725.2632002843238
 31
0.0
  0
LINE
  5
286
330
1F
100
AcDbEntity
  8
Ech.1_2
 62
   190
370
     9
100
AcDbLine
 10
146.8152067656978
 20
-725.2632002843238
 30
0.0
 11
146.8152067656978
 21
-730.3007002843005
 31
0.0
  0
LINE
  5
287
330
1F
100
AcDbEntity
  8
Ech.1_2
 62
   190
370
     9
100
AcDbLine
 10
147.1207617665991
 20
-730.3007002843005
 30
0.0
 11
146.8152067656978
 21
-730.3007002843005
 31
0.0
  0
HATCH
  5
288
330
1F
100
AcDbEntity
  8
Ech.1_2
 62
   252
440
 33554687
370
     5
100
AcDbHatch
 10
0.0
 20
0.0
 30
0.0
210
0.0
220
0.0
230
1.0
  2
SOLID
 70
     1
 71
     1
 91
        1
 92
        3
 72
     0
 73
     1
 93
        4
 10
186.926316767795
 20
-728.9118112843644
 10
187.7596507667134
 20
-728.9118112843644
 10
187.7596507667134
 20
-726.6520892843182
 10
186.926316767795
 20
-726.6520892843182
 97
        0
 75
     0
 76
     1
 98
        0
  0
LWPOLYLINE
  5
289
330
1F
100
AcDbEntity
  8
Ech.1_2
 62
     7
370
     9
100
AcDbPolyline
 90
        5
 70
     0
 43
0.0
 10
186.926316767795
 20
-728.9118112843644
 10
187.7596507667134
 20
-728.9118112843644
 10
187.7596507667134
 20
-726.6520892843182
 10
186.926316767795
 20
-726.6520892843182
 10
186.926316767795
 20
-728.9118112843644
  0
LINE
  5
28A
330
1F
100
AcDbEntity
  8
Ech.1_2
 62
   190
370
     9
100
AcDbLine
 10
189.9587347652181
 20
-726.6520892843182
 30
0.0
 11
147.6763177658781
 21
-726.6520892843182
 31
0.0
  0
LINE
  5
28B
330
1F
100
AcDbEntity
  8
Ech.1_2
 62
   190
370
     9
100
AcDbLine
 10
189.9587347652181
 20
-728.9118112843644
 30
0.0
 11
147.6763177658781
 21
-728.9118112843644
 31
0.0
  0
ARC
  5
28C
330
1F
100
AcDbEntity
  8
Ech.1_2
 62
   190
370
     9
100
AcDbCircle
 10
159.3784101565321
 20
-727.7819502843413
 30
0.0
 40
12.81320339083424
100
AcDbArc
 50
168.6632793503133
 51
191.3367206496867
  0
LINE
  5
28D
330
1F
100
AcDbEntity
  8
Ech.1_2
 62
   190
370
     9
100
AcDbLine
 10
147.1207617666009
 20
-725.2632002843238
 30
0.0
 11
147.1207617665991
 21
-726.0965332842752
 31
0.0
  0
ARC
  5
28E
330
1F
100
AcDbEntity
  8
Ech.1_2
 62
   190
370
     9
100
AcDbCircle
 10
147.6763177564979
 20
-726.0965332944194
 30
0.0
 40
0.5555559898988737
100
AcDbArc
 50
179.9999989538089
 51
270.0000009673976
  0
LINE
  5
28F
330
1F
100
AcDbEntity
  8
Ech.1_2
 62
   190
370
     9
100
AcDbLine
 10
147.1207617665991
 20
-726.0965332842752
 30
0.0
 11
147.1207617665991
 21
-729.4673672843419
 31
0.0
  0
ARC
  5
290
330
1F
100
AcDbEntity
  8
Ech.1_2
 62
   190
370
     9
100
AcDbCircle
 10
147.6763177563861
 20
-729.4673672741515
 30
0.0
 40
0.5555559897870862
100
AcDbArc
 50
89.99999902107403
 51
180.000001050963
  0
LINE
  5
291
330
1F
100
AcDbEntity
  8
Ech.1_2
 62
   190
370
     9
100
AcDbLine
 10
147.1207617665991
 20
-730.3007002843005
 30
0.0
 11
147.1207617665991
 21
-729.4673672843419
 31
0.0
  0
LINE
  5
292
330
1F
100
AcDbEntity
  8
Ech.1_2
 62
   190
370
     9
100
AcDbLine
 10
157.7596507667135
 20
-726.6520892843182
 30
0.0
 11
157.7596507667135
 21
-728.9118112843644
 31
0.0
  0
LINE
  5
293
330
1F
100
AcDbEntity
  8
Ech.1_2
 62
   190
370
     9
100
AcDbLine
 10
158.5929837672542
 20
-726.6520892843182
 30
0.0
 11
158.5929837672542
 21
-728.9118112843644
 31
0.0
  0
LINE
  5
294
330
1F
100
AcDbEntity
  8
Ech.1_2
 62
   190
370
     9
100
AcDbLine
 10
155.2596507667135
 20
-726.6520892843182
 30
0.0
 11
155.2596507667135
 21
-728.9118112843644
 31
0.0
  0
LINE
  5
295
330
1F
100
AcDbEntity
  8
Ech.1_2
 62
   190
370
     9
100
AcDbLine
 10
156.0929837672542
 20
-726.6520892843182
 30
0.0
 11
156.0929837672542
 21
-728.9118112843644
 31
0.0
  0
LINE
  5
296
330
1F
100
AcDbEntity
  8
Ech.1_2
 62
   190
370
     9
100
AcDbLine
 10
156.926316767795
 20
-726.6520892843182
 30
0.0
 11
156.926316767795
 21
-728.9118112843644
 31
0.0
  0
LINE
  5
297
330
1F
100
AcDbEntity
  8
Ech.1_2
 62
   190
370
     9
100
AcDbLine
 10
152.7596507667135
 20
-726.6520892843182
 30
0.0
 11
152.7596507667135
 21
-728.9118112843644
 31
0.0
  0
LINE
  5
298
330
1F
100
AcDbEntity
  8
Ech.1_2
 62
   190
370
     9
100
AcDbLine
 10
153.592983767256
 20
-726.6520892843182
 30
0.0
 11
153.592983767256
 21
-728.9118112843644
 31
0.0
  0
LINE
  5
299
330
1F
100
AcDbEntity
  8
Ech.1_2
 62
   190
370
     9
100
AcDbLine
 10
154.4263167677968
 20
-726.6520892843182
 30
0.0
 11
154.4263167677968
 21
-728.9118112843644
 31
0.0
  0
LINE
  5
29A
330
1F
100
AcDbEntity
  8
Ech.1_2
 62
   190
370
     9
100
AcDbLine
 10
151.926316767795
 20
-726.6520892843182
 30
0.0
 11
151.926316767795
 21
-728.9118112843644
 31
0.0
  0
LINE
  5
29B
330
1F
100
AcDbEntity
  8
Ech.1_2
 62
   190
370
     9
100
AcDbLine
 10
151.0929837672542
 20
-726.6520892843182
 30
0.0
 11
151.0929837672542
 21
-728.9118112843644
 31
0.0
  0
LINE
  5
29C
330
1F
100
AcDbEntity
  8
Ech.1_2
 62
   190
370
     9
100
AcDbLine
 10
150.2596507667135
 20
-726.6520892843182
 30
0.0
 11
150.2596507667135
 21
-728.9118112843644
 31
0.0
  0
LINE
  5
29D
330
1F
100
AcDbEntity
  8
Ech.1_2
 62
   190
370
     9
100
AcDbLine
 10
149.426316767795
 20
-726.6520892843182
 30
0.0
 11
149.426316767795
 21
-728.9118112843571
 31
0.0
  0
LINE
  5
29E
330
1F
100
AcDbEntity
  8
Ech.1_2
 62
   190
370
     9
100
AcDbLine
 10
184.426316767795
 20
-726.6520892843182
 30
0.0
 11
184.426316767795
 21
-728.9118112843644
 31
0.0
  0
LINE
  5
29F
330
1F
100
AcDbEntity
  8
Ech.1_2
 62
   190
370
     9
100
AcDbLine
 10
183.5929837672542
 20
-726.6520892843182
 30
0.0
 11
183.5929837672542
 21
-728.9118112843644
 31
0.0
  0
LINE
  5
2A0
330
1F
100
AcDbEntity
  8
Ech.1_2
 62
   190
370
     9
100
AcDbLine
 10
185.2596507667135
 20
-726.6520892843182
 30
0.0
 11
185.2596507667135
 21
-728.9118112843644
 31
0.0
  0
LINE
  5
2A1
330
1F
100
AcDbEntity
  8
Ech.1_2
 62
   190
370
     9
100
AcDbLine
 10
181.0929837672542
 20
-726.6520892843182
 30
0.0
 11
181.0929837672542
 21
-728.9118112843644
 31
0.0
  0
LINE
  5
2A2
330
1F
100
AcDbEntity
  8
Ech.1_2
 62
   190
370
     9
100
AcDbLine
 10
181.926316767795
 20
-726.6520892843182
 30
0.0
 11
181.926316767795
 21
-728.9118112843644
 31
0.0
  0
LINE
  5
2A3
330
1F
100
AcDbEntity
  8
Ech.1_2
 62
   190
370
     9
100
AcDbLine
 10
182.7596507667135
 20
-726.6520892843182
 30
0.0
 11
182.7596507667135
 21
-728.9118112843644
 31
0.0
  0
LINE
  5
2A4
330
1F
100
AcDbEntity
  8
Ech.1_2
 62
   190
370
     9
100
AcDbLine
 10
178.5929837672542
 20
-726.6520892843182
 30
0.0
 11
178.5929837672542
 21
-728.9118112843644
 31
0.0
  0
LINE
  5
2A5
330
1F
100
AcDbEntity
  8
Ech.1_2
 62
   190
370
     9
100
AcDbLine
 10
179.426316767795
 20
-726.6520892843182
 30
0.0
 11
179.426316767795
 21
-728.9118112843644
 31
0.0
  0
LINE
  5
2A6
330
1F
100
AcDbEntity
  8
Ech.1_2
 62
   190
370
     9
100
AcDbLine
 10
180.2596507667135
 20
-726.6520892843182
 30
0.0
 11
180.2596507667135
 21
-728.9118112843644
 31
0.0
  0
LINE
  5
2A7
330
1F
100
AcDbEntity
  8
Ech.1_2
 62
   190
370
     9
100
AcDbLine
 10
176.0929837672542
 20
-726.6520892843182
 30
0.0
 11
176.0929837672542
 21
-728.9118112843644
 31
0.0
  0
LINE
  5
2A8
330
1F
100
AcDbEntity
  8
Ech.1_2
 62
   190
370
     9
100
AcDbLine
 10
176.926316767795
 20
-726.6520892843182
 30
0.0
 11
176.926316767795
 21
-728.9118112843644
 31
0.0
  0
LINE
  5
2A9
330
1F
100
AcDbEntity
  8
Ech.1_2
 62
   190
370
     9
100
AcDbLine
 10
177.7596507667135
 20
-726.6520892843182
 30
0.0
 11
177.7596507667135
 21
-728.9118112843644
 31
0.0
  0
LINE
  5
2AA
330
1F
100
AcDbEntity
  8
Ech.1_2
 62
   190
370
     9
100
AcDbLine
 10
175.2596507667135
 20
-726.6520892843182
 30
0.0
 11
175.2596507667135
 21
-728.9118112843644
 31
0.0
  0
LINE
  5
2AB
330
1F
100
AcDbEntity
  8
Ech.1_2
 62
   190
370
     9
100
AcDbLine
 10
161.926316767795
 20
-726.6520892843182
 30
0.0
 11
161.926316767795
 21
-728.9118112843644
 31
0.0
  0
LINE
  5
2AC
330
1F
100
AcDbEntity
  8
Ech.1_2
 62
   190
370
     9
100
AcDbLine
 10
162.7596507667135
 20
-726.6520892843182
 30
0.0
 11
162.7596507667135
 21
-728.9118112843644
 31
0.0
  0
LINE
  5
2AD
330
1F
100
AcDbEntity
  8
Ech.1_2
 62
   190
370
     9
100
AcDbLine
 10
163.5929837672542
 20
-726.6520892843182
 30
0.0
 11
163.5929837672542
 21
-728.9118112843644
 31
0.0
  0
LINE
  5
2AE
330
1F
100
AcDbEntity
  8
Ech.1_2
 62
   190
370
     9
100
AcDbLine
 10
164.426316767795
 20
-726.6520892843182
 30
0.0
 11
164.426316767795
 21
-728.9118112843644
 31
0.0
  0
LINE
  5
2AF
330
1F
100
AcDbEntity
  8
Ech.1_2
 62
   190
370
     9
100
AcDbLine
 10
166.926316767795
 20
-726.6520892843182
 30
0.0
 11
166.926316767795
 21
-728.9118112843644
 31
0.0
  0
LINE
  5
2B0
330
1F
100
AcDbEntity
  8
Ech.1_2
 62
   190
370
     9
100
AcDbLine
 10
166.0929837672542
 20
-726.6520892843182
 30
0.0
 11
166.0929837672542
 21
-728.9118112843644
 31
0.0
  0
LINE
  5
2B1
330
1F
100
AcDbEntity
  8
Ech.1_2
 62
   190
370
     9
100
AcDbLine
 10
165.2596507667135
 20
-726.6520892843182
 30
0.0
 11
165.2596507667135
 21
-728.9118112843644
 31
0.0
  0
LINE
  5
2B2
330
1F
100
AcDbEntity
  8
Ech.1_2
 62
   190
370
     9
100
AcDbLine
 10
169.426316767795
 20
-726.6520892843182
 30
0.0
 11
169.426316767795
 21
-728.9118112843644
 31
0.0
  0
LINE
  5
2B3
330
1F
100
AcDbEntity
  8
Ech.1_2
 62
   190
370
     9
100
AcDbLine
 10
168.5929837672542
 20
-726.6520892843182
 30
0.0
 11
168.5929837672542
 21
-728.9118112843644
 31
0.0
  0
LINE
  5
2B4
330
1F
100
AcDbEntity
  8
Ech.1_2
 62
   190
370
     9
100
AcDbLine
 10
167.7596507667135
 20
-726.6520892843182
 30
0.0
 11
167.7596507667135
 21
-728.9118112843644
 31
0.0
  0
LINE
  5
2B5
330
1F
100
AcDbEntity
  8
Ech.1_2
 62
   190
370
     9
100
AcDbLine
 10
171.926316767795
 20
-726.6520892843182
 30
0.0
 11
171.926316767795
 21
-728.9118112843644
 31
0.0
  0
LINE
  5
2B6
330
1F
100
AcDbEntity
  8
Ech.1_2
 62
   190
370
     9
100
AcDbLine
 10
171.0929837672542
 20
-726.6520892843182
 30
0.0
 11
171.0929837672542
 21
-728.9118112843644
 31
0.0
  0
LINE
  5
2B7
330
1F
100
AcDbEntity
  8
Ech.1_2
 62
   190
370
     9
100
AcDbLine
 10
170.2596507667135
 20
-726.6520892843182
 30
0.0
 11
170.2596507667135
 21
-728.9118112843644
 31
0.0
  0
LINE
  5
2B8
330
1F
100
AcDbEntity
  8
Ech.1_2
 62
   190
370
     9
100
AcDbLine
 10
174.426316767795
 20
-726.6520892843182
 30
0.0
 11
174.426316767795
 21
-728.9118112843644
 31
0.0
  0
LINE
  5
2B9
330
1F
100
AcDbEntity
  8
Ech.1_2
 62
   190
370
     9
100
AcDbLine
 10
173.5929837672542
 20
-726.6520892843182
 30
0.0
 11
173.5929837672542
 21
-728.9118112843644
 31
0.0
  0
LINE
  5
2BA
330
1F
100
AcDbEntity
  8
Ech.1_2
 62
   190
370
     9
100
AcDbLine
 10
172.7596507667135
 20
-726.6520892843182
 30
0.0
 11
172.7596507667135
 21
-728.9118112843644
 31
0.0
  0
LINE
  5
2BB
330
1F
100
AcDbEntity
  8
Ech.1_2
 62
   190
370
     9
100
AcDbLine
 10
160.2596507667135
 20
-726.6520892843182
 30
0.0
 11
160.2596507667135
 21
-728.9118112843644
 31
0.0
  0
LINE
  5
2BC
330
1F
100
AcDbEntity
  8
Ech.1_2
 62
   190
370
     9
100
AcDbLine
 10
161.0929837672542
 20
-726.6520892843182
 30
0.0
 11
161.0929837672542
 21
-728.9118112843644
 31
0.0
  0
LINE
  5
2BD
330
1F
100
AcDbEntity
  8
Ech.1_2
 62
   190
370
     9
100
AcDbLine
 10
161.926316767795
 20
-726.6520892843182
 30
0.0
 11
161.926316767795
 21
-728.9118112843644
 31
0.0
  0
LINE
  5
2BE
330
1F
100
AcDbEntity
  8
Ech.1_2
 62
   190
370
     9
100
AcDbLine
 10
159.426316767795
 20
-726.6520892843182
 30
0.0
 11
159.426316767795
 21
-728.9118112843644
 31
0.0
  0
LINE
  5
2BF
330
1F
100
AcDbEntity
  8
Ech.1_2
 62
   190
370
     9
100
AcDbLine
 10
192.620761766599
 20
-727.7819502843122
 30
0.0
 11
189.9587347652181
 21
-726.6520892843182
 31
0.0
  0
ARC
  5
2C0
330
1F
100
AcDbEntity
  8
Ech.1_2
 62
   190
370
     9
100
AcDbCircle
 10
191.3680857558154
 20
-727.7819502843086
 30
0.0
 40
1.806337996665553
100
AcDbArc
 50
141.2812399141942
 51
218.7187600858058
  0
LINE
  5
2C1
330
1F
100
AcDbEntity
  8
Ech.1_2
 62
   190
370
     9
100
AcDbLine
 10
192.620761766599
 20
-727.7819502843122
 30
0.0
 11
189.9587347652181
 21
-728.9118112843644
 31
0.0
  0
HATCH
  5
2C2
330
1F
100
AcDbEntity
  8
Ech.1_2
 62
   252
440
 33554687
370
     5
100
AcDbHatch
 10
0.0
 20
0.0
 30
0.0
210
0.0
220
0.0
230
1.0
  2
SOLID
 70
     1
 71
     1
 91
        1
 92
        3
 72
     0
 73
     1
 93
        4
 10
149.426316767795
 20
-728.9118112843571
 10
150.2596507667135
 20
-728.9118112843644
 10
150.2596507667135
 20
-726.6520892843182
 10
149.426316767795
 20
-726.6520892843182
 97
        0
 75
     0
 76
     1
 98
        0
  0
LWPOLYLINE
  5
2C3
330
1F
100
AcDbEntity
  8
Ech.1_2
 62
     7
370
     9
100
AcDbPolyline
 90
        5
 70
     0
 43
0.0
 10
149.426316767795
 20
-728.9118112843571
 10
150.2596507667135
 20
-728.9118112843644
 10
150.2596507667135
 20
-726.6520892843182
 10
149.426316767795
 20
-726.6520892843182
 10
149.426316767795
 20
-728.9118112843571
  0
HATCH
  5
2C4
330
1F
100
AcDbEntity
  8
Ech.1_2
 62
   252
440
 33554687
370
     5
100
AcDbHatch
 10
0.0
 20
0.0
 30
0.0
210
0.0
220
0.0
230
1.0
  2
SOLID
 70
     1
 71
     1
 91
        1
 92
        3
 72
     0
 73
     1
 93
        4
 10
150.2596507667135
 20
-728.9118112843644
 10
151.092984765632
 20
-728.9118112843644
 10
151.092984765632
 20
-726.6520892843182
 10
150.2596507667135
 20
-726.6520892843182
 97
        0
 75
     0
 76
     1
 98
        0
  0
LWPOLYLINE
  5
2C5
330
1F
100
AcDbEntity
  8
Ech.1_2
 62
     7
370
     9
100
AcDbPolyline
 90
        5
 70
     0
 43
0.0
 10
150.2596507667135
 20
-728.9118112843644
 10
151.092984765632
 20
-728.9118112843644
 10
151.092984765632
 20
-726.6520892843182
 10
150.2596507667135
 20
-726.6520892843182
 10
150.2596507667135
 20
-728.9118112843644
  0
HATCH
  5
2C6
330
1F
100
AcDbEntity
  8
Ech.1_2
 62
   252
440
 33554687
370
     5
100
AcDbHatch
 10
0.0
 20
0.0
 30
0.0
210
0.0
220
0.0
230
1.0
  2
SOLID
 70
     1
 71
     1
 91
        1
 92
        3
 72
     0
 73
     1
 93
        4
 10
151.092984765632
 20
-728.9118112843644
 10
151.9263187645506
 20
-728.9118112843644
 10
151.9263187645506
 20
-726.6520892843182
 10
151.092984765632
 20
-726.6520892843182
 97
        0
 75
     0
 76
     1
 98
        0
  0
LWPOLYLINE
  5
2C7
330
1F
100
AcDbEntity
  8
Ech.1_2
 62
     7
370
     9
100
AcDbPolyline
 90
        5
 70
     0
 43
0.0
 10
151.092984765632
 20
-728.9118112843644
 10
151.9263187645506
 20
-728.9118112843644
 10
151.9263187645506
 20
-726.6520892843182
 10
151.092984765632
 20
-726.6520892843182
 10
151.092984765632
 20
-728.9118112843644
  0
HATCH
  5
2C8
330
1F
100
AcDbEntity
  8
Ech.1_2
 62
   252
440
 33554687
370
     5
100
AcDbHatch
 10
0.0
 20
0.0
 30
0.0
210
0.0
220
0.0
230
1.0
  2
SOLID
 70
     1
 71
     1
 91
        1
 92
        3
 72
     0
 73
     1
 93
        4
 10
151.9263187645506
 20
-728.9118112843644
 10
152.7596527634691
 20
-728.9118112843644
 10
152.7596527634691
 20
-726.6520892843182
 10
151.9263187645506
 20
-726.6520892843182
 97
        0
 75
     0
 76
     1
 98
        0
  0
LWPOLYLINE
  5
2C9
330
1F
100
AcDbEntity
  8
Ech.1_2
 62
     7
370
     9
100
AcDbPolyline
 90
        5
 70
     0
 43
0.0
 10
151.9263187645506
 20
-728.9118112843644
 10
152.7596527634691
 20
-728.9118112843644
 10
152.7596527634691
 20
-726.6520892843182
 10
151.9263187645506
 20
-726.6520892843182
 10
151.9263187645506
 20
-728.9118112843644
  0
HATCH
  5
2CA
330
1F
100
AcDbEntity
  8
Ech.1_2
 62
   252
440
 33554687
370
     5
100
AcDbHatch
 10
0.0
 20
0.0
 30
0.0
210
0.0
220
0.0
230
1.0
  2
SOLID
 70
     1
 71
     1
 91
        1
 92
        3
 72
     0
 73
     1
 93
        4
 10
152.7596507667135
 20
-728.9118112843644
 10
153.5929847656338
 20
-728.9118112843644
 10
153.5929847656338
 20
-726.6520892843182
 10
152.7596507667135
 20
-726.6520892843182
 97
        0
 75
     0
 76
     1
 98
        0
  0
LWPOLYLINE
  5
2CB
330
1F
100
AcDbEntity
  8
Ech.1_2
 62
     7
370
     9
100
AcDbPolyline
 90
        5
 70
     0
 43
0.0
 10
152.7596507667135
 20
-728.9118112843644
 10
153.5929847656338
 20
-728.9118112843644
 10
153.5929847656338
 20
-726.6520892843182
 10
152.7596507667135
 20
-726.6520892843182
 10
152.7596507667135
 20
-728.9118112843644
  0
HATCH
  5
2CC
330
1F
100
AcDbEntity
  8
Ech.1_2
 62
   252
440
 33554687
370
     5
100
AcDbHatch
 10
0.0
 20
0.0
 30
0.0
210
0.0
220
0.0
230
1.0
  2
SOLID
 70
     1
 71
     1
 91
        1
 92
        3
 72
     0
 73
     1
 93
        4
 10
153.592983767256
 20
-728.9118112843644
 10
154.4263177661746
 20
-728.9118112843644
 10
154.4263177661746
 20
-726.6520892843109
 10
153.592983767256
 20
-726.6520892843182
 97
        0
 75
     0
 76
     1
 98
        0
  0
LWPOLYLINE
  5
2CD
330
1F
100
AcDbEntity
  8
Ech.1_2
 62
     7
370
     9
100
AcDbPolyline
 90
        5
 70
     0
 43
0.0
 10
153.592983767256
 20
-728.9118112843644
 10
154.4263177661746
 20
-728.9118112843644
 10
154.4263177661746
 20
-726.6520892843109
 10
153.592983767256
 20
-726.6520892843182
 10
153.592983767256
 20
-728.9118112843644
  0
HATCH
  5
2CE
330
1F
100
AcDbEntity
  8
Ech.1_2
 62
   252
440
 33554687
370
     5
100
AcDbHatch
 10
0.0
 20
0.0
 30
0.0
210
0.0
220
0.0
230
1.0
  2
SOLID
 70
     1
 71
     1
 91
        1
 92
        3
 72
     0
 73
     1
 93
        4
 10
154.4263177661746
 20
-728.9118112843644
 10
155.2596517650913
 20
-728.9118112843644
 10
155.2596517650913
 20
-726.6520892843182
 10
154.4263177661746
 20
-726.6520892843109
 97
        0
 75
     0
 76
     1
 98
        0
  0
LWPOLYLINE
  5
2CF
330
1F
100
AcDbEntity
  8
Ech.1_2
 62
     7
370
     9
100
AcDbPolyline
 90
        5
 70
     0
 43
0.0
 10
154.4263177661746
 20
-728.9118112843644
 10
155.2596517650913
 20
-728.9118112843644
 10
155.2596517650913
 20
-726.6520892843182
 10
154.4263177661746
 20
-726.6520892843109
 10
154.4263177661746
 20
-728.9118112843644
  0
HATCH
  5
2D0
330
1F
100
AcDbEntity
  8
Ech.1_2
 62
   252
440
 33554687
370
     5
100
AcDbHatch
 10
0.0
 20
0.0
 30
0.0
210
0.0
220
0.0
230
1.0
  2
SOLID
 70
     1
 71
     1
 91
        1
 92
        3
 72
     0
 73
     1
 93
        4
 10
155.2596507667135
 20
-728.9118112843644
 10
156.092984765632
 20
-728.9118112843644
 10
156.092984765632
 20
-726.6520892843182
 10
155.2596507667135
 20
-726.6520892843182
 97
        0
 75
     0
 76
     1
 98
        0
  0
LWPOLYLINE
  5
2D1
330
1F
100
AcDbEntity
  8
Ech.1_2
 62
     7
370
     9
100
AcDbPolyline
 90
        5
 70
     0
 43
0.0
 10
155.2596507667135
 20
-728.9118112843644
 10
156.092984765632
 20
-728.9118112843644
 10
156.092984765632
 20
-726.6520892843182
 10
155.2596507667135
 20
-726.6520892843182
 10
155.2596507667135
 20
-728.9118112843644
  0
HATCH
  5
2D2
330
1F
100
AcDbEntity
  8
Ech.1_2
 62
   252
440
 33554687
370
     5
100
AcDbHatch
 10
0.0
 20
0.0
 30
0.0
210
0.0
220
0.0
230
1.0
  2
SOLID
 70
     1
 71
     1
 91
        1
 92
        3
 72
     0
 73
     1
 93
        4
 10
156.092984765632
 20
-728.9118112843644
 10
156.9263187645506
 20
-728.9118112843644
 10
156.9263187645506
 20
-726.6520892843182
 10
156.092984765632
 20
-726.6520892843182
 97
        0
 75
     0
 76
     1
 98
        0
  0
LWPOLYLINE
  5
2D3
330
1F
100
AcDbEntity
  8
Ech.1_2
 62
     7
370
     9
100
AcDbPolyline
 90
        5
 70
     0
 43
0.0
 10
156.092984765632
 20
-728.9118112843644
 10
156.9263187645506
 20
-728.9118112843644
 10
156.9263187645506
 20
-726.6520892843182
 10
156.092984765632
 20
-726.6520892843182
 10
156.092984765632
 20
-728.9118112843644
  0
HATCH
  5
2D4
330
1F
100
AcDbEntity
  8
Ech.1_2
 62
   252
440
 33554687
370
     5
100
AcDbHatch
 10
0.0
 20
0.0
 30
0.0
210
0.0
220
0.0
230
1.0
  2
SOLID
 70
     1
 71
     1
 91
        1
 92
        3
 72
     0
 73
     1
 93
        4
 10
156.926316767795
 20
-728.9118112843644
 10
157.7596507667135
 20
-728.9118112843644
 10
157.7596507667135
 20
-726.6520892843182
 10
156.926316767795
 20
-726.6520892843182
 97
        0
 75
     0
 76
     1
 98
        0
  0
LWPOLYLINE
  5
2D5
330
1F
100
AcDbEntity
  8
Ech.1_2
 62
     7
370
     9
100
AcDbPolyline
 90
        5
 70
     0
 43
0.0
 10
156.926316767795
 20
-728.9118112843644
 10
157.7596507667135
 20
-728.9118112843644
 10
157.7596507667135
 20
-726.6520892843182
 10
156.926316767795
 20
-726.6520892843182
 10
156.926316767795
 20
-728.9118112843644
  0
HATCH
  5
2D6
330
1F
100
AcDbEntity
  8
Ech.1_2
 62
   252
440
 33554687
370
     5
100
AcDbHatch
 10
0.0
 20
0.0
 30
0.0
210
0.0
220
0.0
230
1.0
  2
SOLID
 70
     1
 71
     1
 91
        1
 92
        3
 72
     0
 73
     1
 93
        4
 10
157.7596507667135
 20
-728.9118112843644
 10
158.592984765632
 20
-728.9118112843644
 10
158.592984765632
 20
-726.6520892843182
 10
157.7596507667135
 20
-726.6520892843182
 97
        0
 75
     0
 76
     1
 98
        0
  0
LWPOLYLINE
  5
2D7
330
1F
100
AcDbEntity
  8
Ech.1_2
 62
     7
370
     9
100
AcDbPolyline
 90
        5
 70
     0
 43
0.0
 10
157.7596507667135
 20
-728.9118112843644
 10
158.592984765632
 20
-728.9118112843644
 10
158.592984765632
 20
-726.6520892843182
 10
157.7596507667135
 20
-726.6520892843182
 10
157.7596507667135
 20
-728.9118112843644
  0
HATCH
  5
2D8
330
1F
100
AcDbEntity
  8
Ech.1_2
 62
   252
440
 33554687
370
     5
100
AcDbHatch
 10
0.0
 20
0.0
 30
0.0
210
0.0
220
0.0
230
1.0
  2
SOLID
 70
     1
 71
     1
 91
        1
 92
        3
 72
     0
 73
     1
 93
        4
 10
158.592984765632
 20
-728.9118112843644
 10
159.4263187645506
 20
-728.9118112843644
 10
159.4263187645524
 20
-726.6520892843182
 10
158.592984765632
 20
-726.6520892843182
 97
        0
 75
     0
 76
     1
 98
        0
  0
LWPOLYLINE
  5
2D9
330
1F
100
AcDbEntity
  8
Ech.1_2
 62
     7
370
     9
100
AcDbPolyline
 90
        5
 70
     0
 43
0.0
 10
158.592984765632
 20
-728.9118112843644
 10
159.4263187645506
 20
-728.9118112843644
 10
159.4263187645524
 20
-726.6520892843182
 10
158.592984765632
 20
-726.6520892843182
 10
158.592984765632
 20
-728.9118112843644
  0
HATCH
  5
2DA
330
1F
100
AcDbEntity
  8
Ech.1_2
 62
   252
440
 33554687
370
     5
100
AcDbHatch
 10
0.0
 20
0.0
 30
0.0
210
0.0
220
0.0
230
1.0
  2
SOLID
 70
     1
 71
     1
 91
        1
 92
        3
 72
     0
 73
     1
 93
        4
 10
159.4263187645506
 20
-728.9118112843644
 10
160.2596527634691
 20
-728.9118112843644
 10
160.2596527634691
 20
-726.6520892843182
 10
159.4263187645524
 20
-726.6520892843182
 97
        0
 75
     0
 76
     1
 98
        0
  0
LWPOLYLINE
  5
2DB
330
1F
100
AcDbEntity
  8
Ech.1_2
 62
     7
370
     9
100
AcDbPolyline
 90
        5
 70
     0
 43
0.0
 10
159.4263187645506
 20
-728.9118112843644
 10
160.2596527634691
 20
-728.9118112843644
 10
160.2596527634691
 20
-726.6520892843182
 10
159.4263187645524
 20
-726.6520892843182
 10
159.4263187645506
 20
-728.9118112843644
  0
HATCH
  5
2DC
330
1F
100
AcDbEntity
  8
Ech.1_2
 62
   252
440
 33554687
370
     5
100
AcDbHatch
 10
0.0
 20
0.0
 30
0.0
210
0.0
220
0.0
230
1.0
  2
SOLID
 70
     1
 71
     1
 91
        1
 92
        3
 72
     0
 73
     1
 93
        4
 10
160.2596527634691
 20
-728.9118112843644
 10
161.0929867623876
 20
-728.9118112843644
 10
161.0929867623876
 20
-726.6520892843182
 10
160.2596527634691
 20
-726.6520892843182
 97
        0
 75
     0
 76
     1
 98
        0
  0
LWPOLYLINE
  5
2DD
330
1F
100
AcDbEntity
  8
Ech.1_2
 62
     7
370
     9
100
AcDbPolyline
 90
        5
 70
     0
 43
0.0
 10
160.2596527634691
 20
-728.9118112843644
 10
161.0929867623876
 20
-728.9118112843644
 10
161.0929867623876
 20
-726.6520892843182
 10
160.2596527634691
 20
-726.6520892843182
 10
160.2596527634691
 20
-728.9118112843644
  0
HATCH
  5
2DE
330
1F
100
AcDbEntity
  8
Ech.1_2
 62
   252
440
 33554687
370
     5
100
AcDbHatch
 10
0.0
 20
0.0
 30
0.0
210
0.0
220
0.0
230
1.0
  2
SOLID
 70
     1
 71
     1
 91
        1
 92
        3
 72
     0
 73
     1
 93
        4
 10
161.092984765632
 20
-728.9118112843644
 10
161.9263187645506
 20
-728.9118112843644
 10
161.9263187645506
 20
-726.6520892843182
 10
161.092984765632
 20
-726.6520892843182
 97
        0
 75
     0
 76
     1
 98
        0
  0
LWPOLYLINE
  5
2DF
330
1F
100
AcDbEntity
  8
Ech.1_2
 62
     7
370
     9
100
AcDbPolyline
 90
        5
 70
     0
 43
0.0
 10
161.092984765632
 20
-728.9118112843644
 10
161.9263187645506
 20
-728.9118112843644
 10
161.9263187645506
 20
-726.6520892843182
 10
161.092984765632
 20
-726.6520892843182
 10
161.092984765632
 20
-728.9118112843644
  0
HATCH
  5
2E0
330
1F
100
AcDbEntity
  8
Ech.1_2
 62
   252
440
 33554687
370
     5
100
AcDbHatch
 10
0.0
 20
0.0
 30
0.0
210
0.0
220
0.0
230
1.0
  2
SOLID
 70
     1
 71
     1
 91
        1
 92
        3
 72
     0
 73
     1
 93
        4
 10
161.9263177661728
 20
-728.9118112843644
 10
162.7596517650913
 20
-728.9118112843644
 10
162.7596517650913
 20
-726.6520892843182
 10
161.9263177661728
 20
-726.6520892843182
 97
        0
 75
     0
 76
     1
 98
        0
  0
LWPOLYLINE
  5
2E1
330
1F
100
AcDbEntity
  8
Ech.1_2
 62
     7
370
     9
100
AcDbPolyline
 90
        5
 70
     0
 43
0.0
 10
161.9263177661728
 20
-728.9118112843644
 10
162.7596517650913
 20
-728.9118112843644
 10
162.7596517650913
 20
-726.6520892843182
 10
161.9263177661728
 20
-726.6520892843182
 10
161.9263177661728
 20
-728.9118112843644
  0
HATCH
  5
2E2
330
1F
100
AcDbEntity
  8
Ech.1_2
 62
   252
440
 33554687
370
     5
100
AcDbHatch
 10
0.0
 20
0.0
 30
0.0
210
0.0
220
0.0
230
1.0
  2
SOLID
 70
     1
 71
     1
 91
        1
 92
        3
 72
     0
 73
     1
 93
        4
 10
162.7596517650913
 20
-728.9118112843644
 10
163.5929857640098
 20
-728.9118112843644
 10
163.5929857640098
 20
-726.6520892843182
 10
162.7596517650913
 20
-726.6520892843182
 97
        0
 75
     0
 76
     1
 98
        0
  0
LWPOLYLINE
  5
2E3
330
1F
100
AcDbEntity
  8
Ech.1_2
 62
     7
370
     9
100
AcDbPolyline
 90
        5
 70
     0
 43
0.0
 10
162.7596517650913
 20
-728.9118112843644
 10
163.5929857640098
 20
-728.9118112843644
 10
163.5929857640098
 20
-726.6520892843182
 10
162.7596517650913
 20
-726.6520892843182
 10
162.7596517650913
 20
-728.9118112843644
  0
HATCH
  5
2E4
330
1F
100
AcDbEntity
  8
Ech.1_2
 62
   252
440
 33554687
370
     5
100
AcDbHatch
 10
0.0
 20
0.0
 30
0.0
210
0.0
220
0.0
230
1.0
  2
SOLID
 70
     1
 71
     1
 91
        1
 92
        3
 72
     0
 73
     1
 93
        4
 10
163.592984765632
 20
-728.9118112843644
 10
164.4263187645506
 20
-728.9118112843644
 10
164.4263187645506
 20
-726.6520892843182
 10
163.592984765632
 20
-726.6520892843182
 97
        0
 75
     0
 76
     1
 98
        0
  0
LWPOLYLINE
  5
2E5
330
1F
100
AcDbEntity
  8
Ech.1_2
 62
     7
370
     9
100
AcDbPolyline
 90
        5
 70
     0
 43
0.0
 10
163.592984765632
 20
-728.9118112843644
 10
164.4263187645506
 20
-728.9118112843644
 10
164.4263187645506
 20
-726.6520892843182
 10
163.592984765632
 20
-726.6520892843182
 10
163.592984765632
 20
-728.9118112843644
  0
HATCH
  5
2E6
330
1F
100
AcDbEntity
  8
Ech.1_2
 62
   252
440
 33554687
370
     5
100
AcDbHatch
 10
0.0
 20
0.0
 30
0.0
210
0.0
220
0.0
230
1.0
  2
SOLID
 70
     1
 71
     1
 91
        1
 92
        3
 72
     0
 73
     1
 93
        4
 10
164.4263187645506
 20
-728.9118112843644
 10
165.2596527634691
 20
-728.9118112843644
 10
165.2596527634691
 20
-726.6520892843182
 10
164.4263187645506
 20
-726.6520892843182
 97
        0
 75
     0
 76
     1
 98
        0
  0
LWPOLYLINE
  5
2E7
330
1F
100
AcDbEntity
  8
Ech.1_2
 62
     7
370
     9
100
AcDbPolyline
 90
        5
 70
     0
 43
0.0
 10
164.4263187645506
 20
-728.9118112843644
 10
165.2596527634691
 20
-728.9118112843644
 10
165.2596527634691
 20
-726.6520892843182
 10
164.4263187645506
 20
-726.6520892843182
 10
164.4263187645506
 20
-728.9118112843644
  0
HATCH
  5
2E8
330
1F
100
AcDbEntity
  8
Ech.1_2
 62
   252
440
 33554687
370
     5
100
AcDbHatch
 10
0.0
 20
0.0
 30
0.0
210
0.0
220
0.0
230
1.0
  2
SOLID
 70
     1
 71
     1
 91
        1
 92
        3
 72
     0
 73
     1
 93
        4
 10
165.2596507667135
 20
-728.9118112843644
 10
166.092984765632
 20
-728.9118112843644
 10
166.092984765632
 20
-726.6520892843182
 10
165.2596507667135
 20
-726.6520892843182
 97
        0
 75
     0
 76
     1
 98
        0
  0
LWPOLYLINE
  5
2E9
330
1F
100
AcDbEntity
  8
Ech.1_2
 62
     7
370
     9
100
AcDbPolyline
 90
        5
 70
     0
 43
0.0
 10
165.2596507667135
 20
-728.9118112843644
 10
166.092984765632
 20
-728.9118112843644
 10
166.092984765632
 20
-726.6520892843182
 10
165.2596507667135
 20
-726.6520892843182
 10
165.2596507667135
 20
-728.9118112843644
  0
HATCH
  5
2EA
330
1F
100
AcDbEntity
  8
Ech.1_2
 62
   252
440
 33554687
370
     5
100
AcDbHatch
 10
0.0
 20
0.0
 30
0.0
210
0.0
220
0.0
230
1.0
  2
SOLID
 70
     1
 71
     1
 91
        1
 92
        3
 72
     0
 73
     1
 93
        4
 10
166.092984765632
 20
-728.9118112843644
 10
166.9263187645506
 20
-728.9118112843644
 10
166.9263187645506
 20
-726.6520892843182
 10
166.092984765632
 20
-726.6520892843182
 97
        0
 75
     0
 76
     1
 98
        0
  0
LWPOLYLINE
  5
2EB
330
1F
100
AcDbEntity
  8
Ech.1_2
 62
     7
370
     9
100
AcDbPolyline
 90
        5
 70
     0
 43
0.0
 10
166.092984765632
 20
-728.9118112843644
 10
166.9263187645506
 20
-728.9118112843644
 10
166.9263187645506
 20
-726.6520892843182
 10
166.092984765632
 20
-726.6520892843182
 10
166.092984765632
 20
-728.9118112843644
  0
HATCH
  5
2EC
330
1F
100
AcDbEntity
  8
Ech.1_2
 62
   252
440
 33554687
370
     5
100
AcDbHatch
 10
0.0
 20
0.0
 30
0.0
210
0.0
220
0.0
230
1.0
  2
SOLID
 70
     1
 71
     1
 91
        1
 92
        3
 72
     0
 73
     1
 93
        4
 10
166.9263187645506
 20
-728.9118112843644
 10
167.7596527634691
 20
-728.9118112843644
 10
167.7596527634691
 20
-726.6520892843182
 10
166.9263187645506
 20
-726.6520892843182
 97
        0
 75
     0
 76
     1
 98
        0
  0
LWPOLYLINE
  5
2ED
330
1F
100
AcDbEntity
  8
Ech.1_2
 62
     7
370
     9
100
AcDbPolyline
 90
        5
 70
     0
 43
0.0
 10
166.9263187645506
 20
-728.9118112843644
 10
167.7596527634691
 20
-728.9118112843644
 10
167.7596527634691
 20
-726.6520892843182
 10
166.9263187645506
 20
-726.6520892843182
 10
166.9263187645506
 20
-728.9118112843644
  0
HATCH
  5
2EE
330
1F
100
AcDbEntity
  8
Ech.1_2
 62
   252
440
 33554687
370
     5
100
AcDbHatch
 10
0.0
 20
0.0
 30
0.0
210
0.0
220
0.0
230
1.0
  2
SOLID
 70
     1
 71
     1
 91
        1
 92
        3
 72
     0
 73
     1
 93
        4
 10
167.7596527634691
 20
-728.9118112843644
 10
168.5929867623894
 20
-728.9118112843644
 10
168.5929867623876
 20
-726.6520892843182
 10
167.7596527634691
 20
-726.6520892843182
 97
        0
 75
     0
 76
     1
 98
        0
  0
LWPOLYLINE
  5
2EF
330
1F
100
AcDbEntity
  8
Ech.1_2
 62
     7
370
     9
100
AcDbPolyline
 90
        5
 70
     0
 43
0.0
 10
167.7596527634691
 20
-728.9118112843644
 10
168.5929867623894
 20
-728.9118112843644
 10
168.5929867623876
 20
-726.6520892843182
 10
167.7596527634691
 20
-726.6520892843182
 10
167.7596527634691
 20
-728.9118112843644
  0
HATCH
  5
2F0
330
1F
100
AcDbEntity
  8
Ech.1_2
 62
   252
440
 33554687
370
     5
100
AcDbHatch
 10
0.0
 20
0.0
 30
0.0
210
0.0
220
0.0
230
1.0
  2
SOLID
 70
     1
 71
     1
 91
        1
 92
        3
 72
     0
 73
     1
 93
        4
 10
168.5929867623894
 20
-728.9118112843644
 10
169.4263207613062
 20
-728.9118112843644
 10
169.4263207613062
 20
-726.6520892843182
 10
168.5929867623876
 20
-726.6520892843182
 97
        0
 75
     0
 76
     1
 98
        0
  0
LWPOLYLINE
  5
2F1
330
1F
100
AcDbEntity
  8
Ech.1_2
 62
     7
370
     9
100
AcDbPolyline
 90
        5
 70
     0
 43
0.0
 10
168.5929867623894
 20
-728.9118112843644
 10
169.4263207613062
 20
-728.9118112843644
 10
169.4263207613062
 20
-726.6520892843182
 10
168.5929867623876
 20
-726.6520892843182
 10
168.5929867623894
 20
-728.9118112843644
  0
HATCH
  5
2F2
330
1F
100
AcDbEntity
  8
Ech.1_2
 62
   252
440
 33554687
370
     5
100
AcDbHatch
 10
0.0
 20
0.0
 30
0.0
210
0.0
220
0.0
230
1.0
  2
SOLID
 70
     1
 71
     1
 91
        1
 92
        3
 72
     0
 73
     1
 93
        4
 10
169.4263187645506
 20
-728.9118112843644
 10
170.2596527634691
 20
-728.9118112843644
 10
170.2596527634691
 20
-726.6520892843182
 10
169.4263187645506
 20
-726.6520892843182
 97
        0
 75
     0
 76
     1
 98
        0
  0
LWPOLYLINE
  5
2F3
330
1F
100
AcDbEntity
  8
Ech.1_2
 62
     7
370
     9
100
AcDbPolyline
 90
        5
 70
     0
 43
0.0
 10
169.4263187645506
 20
-728.9118112843644
 10
170.2596527634691
 20
-728.9118112843644
 10
170.2596527634691
 20
-726.6520892843182
 10
169.4263187645506
 20
-726.6520892843182
 10
169.4263187645506
 20
-728.9118112843644
  0
HATCH
  5
2F4
330
1F
100
AcDbEntity
  8
Ech.1_2
 62
   252
440
 33554687
370
     5
100
AcDbHatch
 10
0.0
 20
0.0
 30
0.0
210
0.0
220
0.0
230
1.0
  2
SOLID
 70
     1
 71
     1
 91
        1
 92
        3
 72
     0
 73
     1
 93
        4
 10
170.2596517650913
 20
-728.9118112843644
 10
171.0929857640098
 20
-728.9118112843644
 10
171.0929857640098
 20
-726.6520892843182
 10
170.2596517650913
 20
-726.6520892843182
 97
        0
 75
     0
 76
     1
 98
        0
  0
LWPOLYLINE
  5
2F5
330
1F
100
AcDbEntity
  8
Ech.1_2
 62
     7
370
     9
100
AcDbPolyline
 90
        5
 70
     0
 43
0.0
 10
170.2596517650913
 20
-728.9118112843644
 10
171.0929857640098
 20
-728.9118112843644
 10
171.0929857640098
 20
-726.6520892843182
 10
170.2596517650913
 20
-726.6520892843182
 10
170.2596517650913
 20
-728.9118112843644
  0
HATCH
  5
2F6
330
1F
100
AcDbEntity
  8
Ech.1_2
 62
   252
440
 33554687
370
     5
100
AcDbHatch
 10
0.0
 20
0.0
 30
0.0
210
0.0
220
0.0
230
1.0
  2
SOLID
 70
     1
 71
     1
 91
        1
 92
        3
 72
     0
 73
     1
 93
        4
 10
171.0929857640098
 20
-728.9118112843644
 10
171.9263197629284
 20
-728.9118112843644
 10
171.9263197629284
 20
-726.6520892843182
 10
171.0929857640098
 20
-726.6520892843182
 97
        0
 75
     0
 76
     1
 98
        0
  0
LWPOLYLINE
  5
2F7
330
1F
100
AcDbEntity
  8
Ech.1_2
 62
     7
370
     9
100
AcDbPolyline
 90
        5
 70
     0
 43
0.0
 10
171.0929857640098
 20
-728.9118112843644
 10
171.9263197629284
 20
-728.9118112843644
 10
171.9263197629284
 20
-726.6520892843182
 10
171.0929857640098
 20
-726.6520892843182
 10
171.0929857640098
 20
-728.9118112843644
  0
HATCH
  5
2F8
330
1F
100
AcDbEntity
  8
Ech.1_2
 62
   252
440
 33554687
370
     5
100
AcDbHatch
 10
0.0
 20
0.0
 30
0.0
210
0.0
220
0.0
230
1.0
  2
SOLID
 70
     1
 71
     1
 91
        1
 92
        3
 72
     0
 73
     1
 93
        4
 10
171.9263187645506
 20
-728.9118112843644
 10
172.7596527634691
 20
-728.9118112843644
 10
172.7596527634691
 20
-726.6520892843182
 10
171.9263187645506
 20
-726.6520892843182
 97
        0
 75
     0
 76
     1
 98
        0
  0
LWPOLYLINE
  5
2F9
330
1F
100
AcDbEntity
  8
Ech.1_2
 62
     7
370
     9
100
AcDbPolyline
 90
        5
 70
     0
 43
0.0
 10
171.9263187645506
 20
-728.9118112843644
 10
172.7596527634691
 20
-728.9118112843644
 10
172.7596527634691
 20
-726.6520892843182
 10
171.9263187645506
 20
-726.6520892843182
 10
171.9263187645506
 20
-728.9118112843644
  0
HATCH
  5
2FA
330
1F
100
AcDbEntity
  8
Ech.1_2
 62
   252
440
 33554687
370
     5
100
AcDbHatch
 10
0.0
 20
0.0
 30
0.0
210
0.0
220
0.0
230
1.0
  2
SOLID
 70
     1
 71
     1
 91
        1
 92
        3
 72
     0
 73
     1
 93
        4
 10
172.7596527634691
 20
-728.9118112843644
 10
173.5929867623876
 20
-728.9118112843644
 10
173.5929867623876
 20
-726.6520892843182
 10
172.7596527634691
 20
-726.6520892843182
 97
        0
 75
     0
 76
     1
 98
        0
  0
LWPOLYLINE
  5
2FB
330
1F
100
AcDbEntity
  8
Ech.1_2
 62
     7
370
     9
100
AcDbPolyline
 90
        5
 70
     0
 43
0.0
 10
172.7596527634691
 20
-728.9118112843644
 10
173.5929867623876
 20
-728.9118112843644
 10
173.5929867623876
 20
-726.6520892843182
 10
172.7596527634691
 20
-726.6520892843182
 10
172.7596527634691
 20
-728.9118112843644
  0
HATCH
  5
2FC
330
1F
100
AcDbEntity
  8
Ech.1_2
 62
   252
440
 33554687
370
     5
100
AcDbHatch
 10
0.0
 20
0.0
 30
0.0
210
0.0
220
0.0
230
1.0
  2
SOLID
 70
     1
 71
     1
 91
        1
 92
        3
 72
     0
 73
     1
 93
        4
 10
173.592984765632
 20
-728.9118112843644
 10
174.4263187645506
 20
-728.9118112843644
 10
174.4263187645506
 20
-726.6520892843182
 10
173.592984765632
 20
-726.6520892843182
 97
        0
 75
     0
 76
     1
 98
        0
  0
LWPOLYLINE
  5
2FD
330
1F
100
AcDbEntity
  8
Ech.1_2
 62
     7
370
     9
100
AcDbPolyline
 90
        5
 70
     0
 43
0.0
 10
173.592984765632
 20
-728.9118112843644
 10
174.4263187645506
 20
-728.9118112843644
 10
174.4263187645506
 20
-726.6520892843182
 10
173.592984765632
 20
-726.6520892843182
 10
173.592984765632
 20
-728.9118112843644
  0
HATCH
  5
2FE
330
1F
100
AcDbEntity
  8
Ech.1_2
 62
   252
440
 33554687
370
     5
100
AcDbHatch
 10
0.0
 20
0.0
 30
0.0
210
0.0
220
0.0
230
1.0
  2
SOLID
 70
     1
 71
     1
 91
        1
 92
        3
 72
     0
 73
     1
 93
        4
 10
174.426316767795
 20
-728.9118112843644
 10
175.2596507667135
 20
-728.9118112843644
 10
175.2596507667135
 20
-726.6520892843182
 10
174.426316767795
 20
-726.6520892843182
 97
        0
 75
     0
 76
     1
 98
        0
  0
LWPOLYLINE
  5
2FF
330
1F
100
AcDbEntity
  8
Ech.1_2
 62
     7
370
     9
100
AcDbPolyline
 90
        5
 70
     0
 43
0.0
 10
174.426316767795
 20
-728.9118112843644
 10
175.2596507667135
 20
-728.9118112843644
 10
175.2596507667135
 20
-726.6520892843182
 10
174.426316767795
 20
-726.6520892843182
 10
174.426316767795
 20
-728.9118112843644
  0
HATCH
  5
300
330
1F
100
AcDbEntity
  8
Ech.1_2
 62
   252
440
 33554687
370
     5
100
AcDbHatch
 10
0.0
 20
0.0
 30
0.0
210
0.0
220
0.0
230
1.0
  2
SOLID
 70
     1
 71
     1
 91
        1
 92
        3
 72
     0
 73
     1
 93
        4
 10
175.2596507667135
 20
-728.9118112843644
 10
176.092984765632
 20
-728.9118112843644
 10
176.092984765632
 20
-726.6520892843182
 10
175.2596507667135
 20
-726.6520892843182
 97
        0
 75
     0
 76
     1
 98
        0
  0
LWPOLYLINE
  5
301
330
1F
100
AcDbEntity
  8
Ech.1_2
 62
     7
370
     9
100
AcDbPolyline
 90
        5
 70
     0
 43
0.0
 10
175.2596507667135
 20
-728.9118112843644
 10
176.092984765632
 20
-728.9118112843644
 10
176.092984765632
 20
-726.6520892843182
 10
175.2596507667135
 20
-726.6520892843182
 10
175.2596507667135
 20
-728.9118112843644
  0
HATCH
  5
302
330
1F
100
AcDbEntity
  8
Ech.1_2
 62
   252
440
 33554687
370
     5
100
AcDbHatch
 10
0.0
 20
0.0
 30
0.0
210
0.0
220
0.0
230
1.0
  2
SOLID
 70
     1
 71
     1
 91
        1
 92
        3
 72
     0
 73
     1
 93
        4
 10
176.092984765632
 20
-728.9118112843644
 10
176.9263187645506
 20
-728.9118112843644
 10
176.9263187645506
 20
-726.6520892843182
 10
176.092984765632
 20
-726.6520892843182
 97
        0
 75
     0
 76
     1
 98
        0
  0
LWPOLYLINE
  5
303
330
1F
100
AcDbEntity
  8
Ech.1_2
 62
     7
370
     9
100
AcDbPolyline
 90
        5
 70
     0
 43
0.0
 10
176.092984765632
 20
-728.9118112843644
 10
176.9263187645506
 20
-728.9118112843644
 10
176.9263187645506
 20
-726.6520892843182
 10
176.092984765632
 20
-726.6520892843182
 10
176.092984765632
 20
-728.9118112843644
  0
HATCH
  5
304
330
1F
100
AcDbEntity
  8
Ech.1_2
 62
   252
440
 33554687
370
     5
100
AcDbHatch
 10
0.0
 20
0.0
 30
0.0
210
0.0
220
0.0
230
1.0
  2
SOLID
 70
     1
 71
     1
 91
        1
 92
        3
 72
     0
 73
     1
 93
        4
 10
176.9263187645506
 20
-728.9118112843644
 10
177.7596527634691
 20
-728.9118112843644
 10
177.7596527634691
 20
-726.6520892843182
 10
176.9263187645506
 20
-726.6520892843182
 97
        0
 75
     0
 76
     1
 98
        0
  0
LWPOLYLINE
  5
305
330
1F
100
AcDbEntity
  8
Ech.1_2
 62
     7
370
     9
100
AcDbPolyline
 90
        5
 70
     0
 43
0.0
 10
176.9263187645506
 20
-728.9118112843644
 10
177.7596527634691
 20
-728.9118112843644
 10
177.7596527634691
 20
-726.6520892843182
 10
176.9263187645506
 20
-726.6520892843182
 10
176.9263187645506
 20
-728.9118112843644
  0
HATCH
  5
306
330
1F
100
AcDbEntity
  8
Ech.1_2
 62
   252
440
 33554687
370
     5
100
AcDbHatch
 10
0.0
 20
0.0
 30
0.0
210
0.0
220
0.0
230
1.0
  2
SOLID
 70
     1
 71
     1
 91
        1
 92
        3
 72
     0
 73
     1
 93
        4
 10
177.7596507667135
 20
-728.9118112843644
 10
178.592984765632
 20
-728.9118112843644
 10
178.592984765632
 20
-726.6520892843182
 10
177.7596507667135
 20
-726.6520892843182
 97
        0
 75
     0
 76
     1
 98
        0
  0
LWPOLYLINE
  5
307
330
1F
100
AcDbEntity
  8
Ech.1_2
 62
     7
370
     9
100
AcDbPolyline
 90
        5
 70
     0
 43
0.0
 10
177.7596507667135
 20
-728.9118112843644
 10
178.592984765632
 20
-728.9118112843644
 10
178.592984765632
 20
-726.6520892843182
 10
177.7596507667135
 20
-726.6520892843182
 10
177.7596507667135
 20
-728.9118112843644
  0
HATCH
  5
308
330
1F
100
AcDbEntity
  8
Ech.1_2
 62
   252
440
 33554687
370
     5
100
AcDbHatch
 10
0.0
 20
0.0
 30
0.0
210
0.0
220
0.0
230
1.0
  2
SOLID
 70
     1
 71
     1
 91
        1
 92
        3
 72
     0
 73
     1
 93
        4
 10
178.5929837672542
 20
-728.9118112843644
 10
179.4263177661728
 20
-728.9118112843644
 10
179.4263177661728
 20
-726.6520892843182
 10
178.5929837672542
 20
-726.6520892843182
 97
        0
 75
     0
 76
     1
 98
        0
  0
LWPOLYLINE
  5
309
330
1F
100
AcDbEntity
  8
Ech.1_2
 62
     7
370
     9
100
AcDbPolyline
 90
        5
 70
     0
 43
0.0
 10
178.5929837672542
 20
-728.9118112843644
 10
179.4263177661728
 20
-728.9118112843644
 10
179.4263177661728
 20
-726.6520892843182
 10
178.5929837672542
 20
-726.6520892843182
 10
178.5929837672542
 20
-728.9118112843644
  0
HATCH
  5
30A
330
1F
100
AcDbEntity
  8
Ech.1_2
 62
   252
440
 33554687
370
     5
100
AcDbHatch
 10
0.0
 20
0.0
 30
0.0
210
0.0
220
0.0
230
1.0
  2
SOLID
 70
     1
 71
     1
 91
        1
 92
        3
 72
     0
 73
     1
 93
        4
 10
179.4263177661728
 20
-728.9118112843644
 10
180.2596517650913
 20
-728.9118112843644
 10
180.2596517650913
 20
-726.6520892843182
 10
179.4263177661728
 20
-726.6520892843182
 97
        0
 75
     0
 76
     1
 98
        0
  0
LWPOLYLINE
  5
30B
330
1F
100
AcDbEntity
  8
Ech.1_2
 62
     7
370
     9
100
AcDbPolyline
 90
        5
 70
     0
 43
0.0
 10
179.4263177661728
 20
-728.9118112843644
 10
180.2596517650913
 20
-728.9118112843644
 10
180.2596517650913
 20
-726.6520892843182
 10
179.4263177661728
 20
-726.6520892843182
 10
179.4263177661728
 20
-728.9118112843644
  0
HATCH
  5
30C
330
1F
100
AcDbEntity
  8
Ech.1_2
 62
   252
440
 33554687
370
     5
100
AcDbHatch
 10
0.0
 20
0.0
 30
0.0
210
0.0
220
0.0
230
1.0
  2
SOLID
 70
     1
 71
     1
 91
        1
 92
        3
 72
     0
 73
     1
 93
        4
 10
180.2596507667135
 20
-728.9118112843644
 10
181.092984765632
 20
-728.9118112843644
 10
181.092984765632
 20
-726.6520892843182
 10
180.2596507667135
 20
-726.6520892843182
 97
        0
 75
     0
 76
     1
 98
        0
  0
LWPOLYLINE
  5
30D
330
1F
100
AcDbEntity
  8
Ech.1_2
 62
     7
370
     9
100
AcDbPolyline
 90
        5
 70
     0
 43
0.0
 10
180.2596507667135
 20
-728.9118112843644
 10
181.092984765632
 20
-728.9118112843644
 10
181.092984765632
 20
-726.6520892843182
 10
180.2596507667135
 20
-726.6520892843182
 10
180.2596507667135
 20
-728.9118112843644
  0
HATCH
  5
30E
330
1F
100
AcDbEntity
  8
Ech.1_2
 62
   252
440
 33554687
370
     5
100
AcDbHatch
 10
0.0
 20
0.0
 30
0.0
210
0.0
220
0.0
230
1.0
  2
SOLID
 70
     1
 71
     1
 91
        1
 92
        3
 72
     0
 73
     1
 93
        4
 10
181.092984765632
 20
-728.9118112843644
 10
181.9263187645506
 20
-728.9118112843644
 10
181.9263187645506
 20
-726.6520892843182
 10
181.092984765632
 20
-726.6520892843182
 97
        0
 75
     0
 76
     1
 98
        0
  0
LWPOLYLINE
  5
30F
330
1F
100
AcDbEntity
  8
Ech.1_2
 62
     7
370
     9
100
AcDbPolyline
 90
        5
 70
     0
 43
0.0
 10
181.092984765632
 20
-728.9118112843644
 10
181.9263187645506
 20
-728.9118112843644
 10
181.9263187645506
 20
-726.6520892843182
 10
181.092984765632
 20
-726.6520892843182
 10
181.092984765632
 20
-728.9118112843644
  0
HATCH
  5
310
330
1F
100
AcDbEntity
  8
Ech.1_2
 62
   252
440
 33554687
370
     5
100
AcDbHatch
 10
0.0
 20
0.0
 30
0.0
210
0.0
220
0.0
230
1.0
  2
SOLID
 70
     1
 71
     1
 91
        1
 92
        3
 72
     0
 73
     1
 93
        4
 10
181.926316767795
 20
-728.9118112843644
 10
182.7596507667135
 20
-728.9118112843644
 10
182.7596507667135
 20
-726.6520892843182
 10
181.926316767795
 20
-726.6520892843182
 97
        0
 75
     0
 76
     1
 98
        0
  0
LWPOLYLINE
  5
311
330
1F
100
AcDbEntity
  8
Ech.1_2
 62
     7
370
     9
100
AcDbPolyline
 90
        5
 70
     0
 43
0.0
 10
181.926316767795
 20
-728.9118112843644
 10
182.7596507667135
 20
-728.9118112843644
 10
182.7596507667135
 20
-726.6520892843182
 10
181.926316767795
 20
-726.6520892843182
 10
181.926316767795
 20
-728.9118112843644
  0
HATCH
  5
312
330
1F
100
AcDbEntity
  8
Ech.1_2
 62
   252
440
 33554687
370
     5
100
AcDbHatch
 10
0.0
 20
0.0
 30
0.0
210
0.0
220
0.0
230
1.0
  2
SOLID
 70
     1
 71
     1
 91
        1
 92
        3
 72
     0
 73
     1
 93
        4
 10
182.7596507667135
 20
-728.9118112843644
 10
183.592984765632
 20
-728.9118112843644
 10
183.592984765632
 20
-726.6520892843182
 10
182.7596507667135
 20
-726.6520892843182
 97
        0
 75
     0
 76
     1
 98
        0
  0
LWPOLYLINE
  5
313
330
1F
100
AcDbEntity
  8
Ech.1_2
 62
     7
370
     9
100
AcDbPolyline
 90
        5
 70
     0
 43
0.0
 10
182.7596507667135
 20
-728.9118112843644
 10
183.592984765632
 20
-728.9118112843644
 10
183.592984765632
 20
-726.6520892843182
 10
182.7596507667135
 20
-726.6520892843182
 10
182.7596507667135
 20
-728.9118112843644
  0
HATCH
  5
314
330
1F
100
AcDbEntity
  8
Ech.1_2
 62
   252
440
 33554687
370
     5
100
AcDbHatch
 10
0.0
 20
0.0
 30
0.0
210
0.0
220
0.0
230
1.0
  2
SOLID
 70
     1
 71
     1
 91
        1
 92
        3
 72
     0
 73
     1
 93
        4
 10
183.592984765632
 20
-728.9118112843644
 10
184.4263187645506
 20
-728.9118112843644
 10
184.4263187645506
 20
-726.6520892843182
 10
183.592984765632
 20
-726.6520892843182
 97
        0
 75
     0
 76
     1
 98
        0
  0
LWPOLYLINE
  5
315
330
1F
100
AcDbEntity
  8
Ech.1_2
 62
     7
370
     9
100
AcDbPolyline
 90
        5
 70
     0
 43
0.0
 10
183.592984765632
 20
-728.9118112843644
 10
184.4263187645506
 20
-728.9118112843644
 10
184.4263187645506
 20
-726.6520892843182
 10
183.592984765632
 20
-726.6520892843182
 10
183.592984765632
 20
-728.9118112843644
  0
HATCH
  5
316
330
1F
100
AcDbEntity
  8
Ech.1_2
 62
   252
440
 33554687
370
     5
100
AcDbHatch
 10
0.0
 20
0.0
 30
0.0
210
0.0
220
0.0
230
1.0
  2
SOLID
 70
     1
 71
     1
 91
        1
 92
        3
 72
     0
 73
     1
 93
        4
 10
184.4263187645506
 20
-728.9118112843644
 10
185.2596527634691
 20
-728.9118112843644
 10
185.2596527634691
 20
-726.6520892843182
 10
184.4263187645506
 20
-726.6520892843182
 97
        0
 75
     0
 76
     1
 98
        0
  0
LWPOLYLINE
  5
317
330
1F
100
AcDbEntity
  8
Ech.1_2
 62
     7
370
     9
100
AcDbPolyline
 90
        5
 70
     0
 43
0.0
 10
184.4263187645506
 20
-728.9118112843644
 10
185.2596527634691
 20
-728.9118112843644
 10
185.2596527634691
 20
-726.6520892843182
 10
184.4263187645506
 20
-726.6520892843182
 10
184.4263187645506
 20
-728.9118112843644
  0
HATCH
  5
318
330
1F
100
AcDbEntity
  8
Ech.1_2
 62
   252
440
 33554687
370
     5
100
AcDbHatch
 10
0.0
 20
0.0
 30
0.0
210
0.0
220
0.0
230
1.0
  2
SOLID
 70
     1
 71
     1
 91
        1
 92
        3
 72
     1
 73
     1
 93
        4
 10
189.9587347652181
 20
-726.6520892843182
 42
0.0
 10
188.5929827688764
 20
-726.6520892843182
 42
0.0
 10
188.5929827688764
 20
-728.9118112843644
 42
0.0
 10
189.9587347652181
 20
-728.9118112843644
 42
-0.3513591548518968
 97
        0
 75
     0
 76
     1
 98
        0
  0
LWPOLYLINE
  5
319
330
1F
100
AcDbEntity
  8
Ech.1_2
 62
     7
370
     9
100
AcDbPolyline
 90
        5
 70
     0
 43
0.0
 10
189.9587347652181
 20
-726.6520892843182
 10
188.5929827688764
 20
-726.6520892843182
 10
188.5929827688764
 20
-728.9118112843644
 10
189.9587347652181
 20
-728.9118112843644
 42
-0.3513591548518972
 10
189.9587347652181
 20
-726.6520892843182
  0
HATCH
  5
31A
330
1F
100
AcDbEntity
  8
Ech.1_2
 62
   252
440
 33554687
370
     5
100
AcDbHatch
 10
0.0
 20
0.0
 30
0.0
210
0.0
220
0.0
230
1.0
  2
SOLID
 70
     1
 71
     1
 91
        1
 92
        3
 72
     1
 73
     1
 93
        3
 10
192.620761766599
 20
-727.7819502843122
 42
0.0
 10
189.9587347652181
 20
-726.6520892843182
 42
0.3513591548518968
 10
189.9587347652181
 20
-728.9118112843644
 42
0.0
 97
        0
 75
     0
 76
     1
 98
        0
  0
LWPOLYLINE
  5
31B
330
1F
100
AcDbEntity
  8
Ech.1_2
 62
     7
370
     9
100
AcDbPolyline
 90
        4
 70
     0
 43
0.0
 10
192.620761766599
 20
-727.7819502843122
 10
189.9587347652181
 20
-726.6520892843182
 42
0.3513591548518956
 10
189.9587347652181
 20
-728.9118112843644
 10
192.620761766599
 20
-727.7819502843122
  0
HATCH
  5
31C
330
1F
100
AcDbEntity
  8
Ech.1_2
 62
   252
440
 33554687
370
     5
100
AcDbHatch
 10
0.0
 20
0.0
 30
0.0
210
0.0
220
0.0
230
1.0
  2
SOLID
 70
     1
 71
     1
 91
        1
 92
        3
 72
     1
 73
     1
 93
        6
 10
149.426316767795
 20
-728.9118112843571
 42
0.0
 10
147.6763177658781
 20
-728.9118112843644
 42
0.4142135727498338
 10
147.1207617665991
 20
-729.4673672843419
 42
0.0
 10
147.1207617665991
 20
-726.0965332842752
 42
0.4142135726664357
 10
147.6763177658781
 20
-726.6520892843182
 42
0.0
 10
149.426316767795
 20
-726.6520892843182
 42
0.0
 97
        0
 75
     0
 76
     1
 98
        0
  0
LWPOLYLINE
  5
31D
330
1F
100
AcDbEntity
  8
Ech.1_2
 62
     7
370
     9
100
AcDbPolyline
 90
        7
 70
     0
 43
0.0
 10
149.426316767795
 20
-728.9118112843571
 10
147.6763177658781
 20
-728.9118112843644
 42
0.4142135727497837
 10
147.1207617665991
 20
-729.4673672843419
 10
147.1207617665991
 20
-726.0965332842752
 42
0.414213572666436
 10
147.6763177658781
 20
-726.6520892843182
 10
149.426316767795
 20
-726.6520892843182
 10
149.426316767795
 20
-728.9118112843571
  0
HATCH
  5
31E
330
1F
100
AcDbEntity
  8
Ech.1_2
 62
   252
440
 33554687
370
     5
100
AcDbHatch
 10
0.0
 20
0.0
 30
0.0
210
0.0
220
0.0
230
1.0
  2
SOLID
 70
     1
 71
     1
 91
        1
 92
        1
 93
        2
 72
     1
 10
146.8152067656978
 20
-730.3007003107268
 11
146.8152067656978
 21
-725.2632002579558
 72
     2
 10
159.3784101565222
 20
-727.7819502843413
 40
12.81320339082451
 50
168.6632793503046
 51
191.3367206496955
 73
     1
 97
        0
 75
     0
 76
     1
 98
        0
  0
LWPOLYLINE
  5
31F
330
1F
100
AcDbEntity
  8
Ech.1_2
 62
     7
370
     9
100
AcDbPolyline
 90
        3
 70
     0
 43
0.0
 10
146.8152067656978
 20
-730.3007003107268
 10
146.8152067656978
 20
-725.2632002579558
 42
0.0992555820868614
 10
146.8152067656978
 20
-730.3007003107268
  0
HATCH
  5
320
330
1F
100
AcDbEntity
  8
Ech.1_2
 62
   252
440
 33554687
370
     5
100
AcDbHatch
 10
0.0
 20
0.0
 30
0.0
210
0.0
220
0.0
230
1.0
  2
SOLID
 70
     1
 71
     1
 91
        1
 92
        3
 72
     0
 73
     1
 93
        6
 10
147.1207617665991
 20
-730.3007002843005
 10
147.1207617665991
 20
-729.4673672843419
 10
147.1207617665991
 20
-726.0965332842752
 10
147.1207617666009
 20
-725.2632002843238
 10
146.8152067656978
 20
-725.2632002579558
 10
146.8152067656978
 20
-730.3007003107268
 97
        0
 75
     0
 76
     1
 98
        0
  0
LWPOLYLINE
  5
321
330
1F
100
AcDbEntity
  8
Ech.1_2
 62
     7
370
     9
100
AcDbPolyline
 90
        7
 70
     0
 43
0.0
 10
147.1207617665991
 20
-730.3007002843005
 10
147.1207617665991
 20
-729.4673672843419
 10
147.1207617665991
 20
-726.0965332842752
 10
147.1207617666009
 20
-725.2632002843238
 10
146.8152067656978
 20
-725.2632002579558
 10
146.8152067656978
 20
-730.3007003107268
 10
147.1207617665991
 20
-730.3007002843005
  0
HATCH
  5
322
330
1F
100
AcDbEntity
  8
Ech.1_2
 62
   252
440
 33554687
370
     5
100
AcDbHatch
 10
0.0
 20
0.0
 30
0.0
210
0.0
220
0.0
230
1.0
  2
SOLID
 70
     1
 71
     1
 91
        1
 92
        3
 72
     0
 73
     1
 93
        4
 10
185.2596527634691
 20
-728.9118112843644
 10
186.0929867623876
 20
-728.9118112843644
 10
186.0929867623876
 20
-726.6520892843182
 10
185.2596527634691
 20
-726.6520892843182
 97
        0
 75
     0
 76
     1
 98
        0
  0
LWPOLYLINE
  5
323
330
1F
100
AcDbEntity
  8
Ech.1_2
 62
     7
370
     9
100
AcDbPolyline
 90
        5
 70
     0
 43
0.0
 10
185.2596527634691
 20
-728.9118112843644
 10
186.0929867623876
 20
-728.9118112843644
 10
186.0929867623876
 20
-726.6520892843182
 10
185.2596527634691
 20
-726.6520892843182
 10
185.2596527634691
 20
-728.9118112843644
  0
LINE
  5
324
330
1F
100
AcDbEntity
  8
Ech.1_2
 62
   190
370
     9
100
AcDbLine
 10
186.926316767795
 20
-726.6520892843182
 30
0.0
 11
186.926316767795
 21
-728.9118112843644
 31
0.0
  0
LINE
  5
325
330
1F
100
AcDbEntity
  8
Ech.1_2
 62
   190
370
     9
100
AcDbLine
 10
187.7596507667134
 20
-726.6520892843182
 30
0.0
 11
187.7596507667134
 21
-728.9118112843644
 31
0.0
  0
LINE
  5
326
330
1F
100
AcDbEntity
  8
Ech.1_2
 62
   190
370
     9
100
AcDbLine
 10
188.5929827688764
 20
-726.6520892843182
 30
0.0
 11
188.5929827688764
 21
-728.9118112843644
 31
0.0
  0
LINE
  5
327
330
1F
100
AcDbEntity
  8
Ech.1_2
 62
   190
370
     9
100
AcDbLine
 10
186.092984765632
 20
-726.6520892843182
 30
0.0
 11
186.092984765632
 21
-728.9118112843644
 31
0.0
  0
HATCH
  5
328
330
1F
100
AcDbEntity
  8
Ech.1_2
 62
   252
440
 33554687
370
     5
100
AcDbHatch
 10
0.0
 20
0.0
 30
0.0
210
0.0
220
0.0
230
1.0
  2
SOLID
 70
     1
 71
     1
 91
        1
 92
        3
 72
     0
 73
     1
 93
        4
 10
186.0929827688764
 20
-728.9118112843644
 10
186.926316767795
 20
-728.9118112843644
 10
186.926316767795
 20
-726.6520892843182
 10
186.0929827688764
 20
-726.6520892843182
 97
        0
 75
     0
 76
     1
 98
        0
  0
LWPOLYLINE
  5
329
330
1F
100
AcDbEntity
  8
Ech.1_2
 62
     7
370
     9
100
AcDbPolyline
 90
        5
 70
     0
 43
0.0
 10
186.0929827688764
 20
-728.9118112843644
 10
186.926316767795
 20
-728.9118112843644
 10
186.926316767795
 20
-726.6520892843182
 10
186.0929827688764
 20
-726.6520892843182
 10
186.0929827688764
 20
-728.9118112843644
  0
HATCH
  5
32A
330
1F
100
AcDbEntity
  8
Ech.1_2
 62
   252
440
 33554687
370
     5
100
AcDbHatch
 10
0.0
 20
0.0
 30
0.0
210
0.0
220
0.0
230
1.0
  2
SOLID
 70
     1
 71
     1
 91
        1
 92
        3
 72
     0
 73
     1
 93
        4
 10
187.7596487699578
 20
-728.9118112843644
 10
188.5929827688764
 20
-728.9118112843644
 10
188.5929827688764
 20
-726.6520892843182
 10
187.7596487699578
 20
-726.6520892843182
 97
        0
 75
     0
 76
     1
 98
        0
  0
LWPOLYLINE
  5
32B
330
1F
100
AcDbEntity
  8
Ech.1_2
 62
     7
370
     9
100
AcDbPolyline
 90
        5
 70
     0
 43
0.0
 10
187.7596487699578
 20
-728.9118112843644
 10
188.5929827688764
 20
-728.9118112843644
 10
188.5929827688764
 20
-726.6520892843182
 10
187.7596487699578
 20
-726.6520892843182
 10
187.7596487699578
 20
-728.9118112843644
  0
DIMENSION
  5
32D
102
{ACAD_REACTORS
330
32E
102
}
330
1F
100
AcDbEntity
  8
Ech.1_2
 62
   190
370
    20
100
AcDbDimension
280
     0
  2
*D70
 10
144.8267732444405
 20
-698.3906116016333
 30
0.0
 11
140.3267732444405
 21
-703.3906116016333
 31
0.0
 70
   160
  1
10 mini
 71
     5
 42
10.0
 73
     0
 74
     0
 75
     0
 53
90.0
  3
Standard
100
AcDbAlignedDimension
 13
147.9376611744014
 23
-708.3906116016333
 33
0.0
 14
141.6763177658781
 24
-698.3906116016333
 34
0.0
 50
-90.0
100
AcDbRotatedDimension
1001
ACAD
1000
DSTYLE
1002
{
1070
   178
1070
   190
1070
   271
1070
     0
1070
   147
1040
0.0
1070
   140
1040
5.0
1070
   340
1005
32C
1070
   144
1040
1.0
1070
    42
1040
0.0
1070
    44
1040
2.0
1070
    41
1040
2.0
1070
   342
1005
1AB
1070
   175
1070
     1
1070
   279
1070
     2
1070
   172
1070
     1
1002
}
  0
MTEXT
  5
33C
330
1F
100
AcDbEntity
  8
Ech.1_2
 62
     4
420
    65535
100
AcDbMText
 10
298.4793431414878
 20
-705.1512894213301
 30
0.0
 40
5.5
 41
86.23981998237656
 46
0.0
 71
     1
 72
     1
  1
{\fArial|b0|i0;\W1.000000;\H5.500000;\c16711848;Grille pare-insectes}
 73
     1
 44
1.07999975538982
  0
MTEXT
  5
33D
330
1F
100
AcDbEntity
  8
Ech.1_2
 62
     4
420
    65535
100
AcDbMText
 10
125.3921367234402
 20
-743.3604576280777
 30
0.0
 40
5.5
 41
85.90521157704453
 46
0.0
 71
     3
 72
     1
  1
{\fArial|b0|i0;\W1.000000;\H5.500000;\c16711848;Habillage en sous-face}
 73
     1
 44
1.07999975538982
  0
MTEXT
  5
33E
330
1F
100
AcDbEntity
  8
Ech.1_2
 62
     4
420
    65535
100
AcDbMText
 10
125.3921367234402
 20
-781.4473941143551
 30
0.0
 40
5.5
 41
96.03715872908282
 46
0.0
 71
     3
 72
     1
  1
{\fArial|b0|i0;\W1.000000;\H5.500000;\c16711848;Double-tasseautage bois support de bardage}
 73
     1
 44
1.07999975538982
  0
MTEXT
  5
33F
330
1F
100
AcDbEntity
  8
Ech.1_2
 62
     4
420
    65535
100
AcDbMText
 10
125.3921367234402
 20
-852.128441467401
 30
0.0
 40
5.5
 41
73.49250351114449
 46
0.0
 71
     3
 72
     1
  1
{\fArial|b0|i0;\W1.000000;\H5.500000;\c16711848;Paroi support}
 73
     1
 44
1.07999975538982
  0
MTEXT
  5
340
330
1F
100
AcDbEntity
  8
Ech.1_2
 62
     4
420
    65535
100
AcDbMText
 10
237.4796146518447
 20
-944.4660669995465
 30
0.0
 40
5.0
 41
195.3371538540769
 46
0.0
 71
     2
 72
     1
  1
{\fArial|b0|i0;\W1.000000;\H5.000000;\c16711848;Vue en coupe verticale}
 73
     1
 44
1.07999975538982
  0
MTEXT
  5
341
330
1F
100
AcDbEntity
  8
Ech.1_2
 62
     4
420
    65535
100
AcDbMText
 10
365.6076586601826
 20
-944.3991964024826
 30
0.0
 40
5.0
 41
50.91893416259887
 46
0.0
 71
     2
 72
     1
  1
{\fArial|b0|i0;\W1.000000;\H5.000000;\c16711848;Ech 1/2 }
 73
     1
 44
1.07999975538982
  0
MTEXT
  5
342
330
1F
100
AcDbEntity
  8
Ech.1_2
 62
     4
420
    65535
100
AcDbMText
 10
106.0799941257353
 20
-944.2904938814936
 30
0.0
 40
5.0
 41
57.46208719814186
 46
0.0
 71
     2
 72
     1
  1
{\fArial|b0|i0;\W1.000000;\H5.000000;\c16711848;BMBVT10-02}
 73
     1
 44
1.07999975538982
  0
MTEXT
  5
343
330
1F
100
AcDbEntity
  8
Ech.1_2
 62
   200
420
 11010303
100
AcDbMText
 10
196.567125741482
 20
-952.9981408162275
 30
0.0
 40
2.5
 41
391.5000000000001
 46
0.0
 71
     2
 72
     1
  3
{\fArial|b0|i1;\W1.000000;\H2.500000;\c16711848; Il est rappelé à l'utilisateur qui consulte le site et utilise les informations qu'il contient, qu'il doit les utiliser sous sa seule responsabilité en vérifiant leur pertinence, leur cohérence et leur
  1
 non obsolescence.}
 73
     1
 44
1.07999975538982
  0
MTEXT
  5
344
330
1F
100
AcDbEntity
  8
Ech.1_2
 62
   200
420
 11010303
100
AcDbMText
 10
196.567125741482
 20
-966.6639519736273
 30
0.0
 40
3.25
 41
390.7500000000001
 46
0.0
 71
     2
 72
     1
  1
{\fArial|b0|i1;\W1.000000;\H3.250000;\c16711848;www.catalogue-bois-construction.fr}
 73
     1
 44
1.07999975538982
  0
MTEXT
  5
345
330
1F
100
AcDbEntity
  8
Ech.1_2
 62
     4
420
    65535
100
AcDbMText
 10
196.567125741482
 20
-484.5697116767333
 30
0.0
 40
6.5
 41
387.5000000000001
 46
0.0
 71
     2
 72
     1
  1
{\fArial|b0|i0;\W1.000000;\H6.500000;\c16711848;Détail tête de mur sous débord de toit - Jonction avec habillage en sous-face de rampant}
 73
     1
 44
1.07999975538982
  0
MTEXT
  5
346
330
1F
100
AcDbEntity
  8
Ech.1_2
 62
     4
420
    65535
100
AcDbMText
 10
125.3921367234402
 20
-812.4550019681792
 30
0.0
 40
5.5
 41
116.5480504430698
 46
0.0
 71
     3
 72
     1
  1
{\fArial|b0|i0;\W1.000000;\H5.500000;\c16711848;Bardage bois en lames à recouvrement à mi-bois en pose verticale - épaisseur 18 mm mini}
 73
     1
 44
1.07999975538982
  0
TEXT
  5
348
330
1F
100
AcDbEntity
  8
Ech.1_2
 62
   190
100
AcDbText
 10
20.29597802239823
 20
-949.2628536213779
 30
0.0
 40
5.0
  1
20/11/2020
  7
arial-
100
AcDbText
  0
TEXT
  5
349
330
1F
100
AcDbEntity
  8
Ech.1_2
 62
   190
100
AcDbText
 10
70.26301807546773
 20
-478.2091098237943
 30
0.0
 40
6.6
  1
Epaisseur mini selon NF DTU 41.2 - hors exigences feu façade
  7
arial-
100
AcDbText
  0
TEXT
  5
34B
330
1F
100
AcDbEntity
  8
Ech.1_2
 62
   190
100
AcDbText
 10
73.96986621999852
 20
-465.2557227075376
 30
0.0
 40
6.6
  1
BARDAGES EN LAMES : lames à mi-bois - pose verticale
  7
arial-b
100
AcDbText
  0
VIEWPORT
  5
233
330
22D
100
AcDbEntity
 67
     1
  8
0
100
AcDbViewport
 10
98.80000000000001
 20
135.7999999999991
 30
0.0
 40
209.0608
 41
287.3527999999981
 68
     1
 69
     1
 12
128.5
 22
97.5
 13
0.0
 23
0.0
 14
10.0
 24
10.0
 15
10.0
 25
10.0
 16
0.0
 26
0.0
 36
1.0
 17
0.0
 27
0.0
 37
0.0
 42
50.0
 43
0.0
 44
0.0
 45
222.18
 50
0.0
 51
0.0
 72
   100
 90
   557152
  1

281
     0
 71
     1
 74
     0
110
0.0
120
0.0
130
0.0
111
1.0
121
0.0
131
0.0
112
0.0
122
1.0
132
0.0
 79
     0
146
0.0
170
     0
 61
     5
348
2F
292
     1
282
     1
141
0.0
142
0.0
 63
   256
361
234
  0
VIEWPORT
  5
235
330
22D
100
AcDbEntity
 67
     1
  8
0
 60
     1
100
AcDbViewport
 10
98.80000000000001
 20
135.7999999999991
 30
0.0
 40
197.6
 41
271.5999999999982
 68
     2
 69
     2
 12
196.567125741482
 22
-726.9557227075184
 13
0.0
 23
0.0
 14
10.0
 24
10.0
 15
10.0
 25
10.0
 16
0.0
 26
0.0
 36
1.0
 17
0.0
 27
0.0
 37
0.0
 42
50.0
 43
0.0
 44
0.0
 45
543.1999999999964
 50
0.0
 51
0.0
 72
   100
 90
   557152
  1

281
     0
 71
     1
 74
     0
110
0.0
120
0.0
130
0.0
111
1.0
121
0.0
131
0.0
112
0.0
122
1.0
132
0.0
 79
     0
146
0.0
170
     0
 61
     5
348
2F
292
     1
282
     1
141
0.0
142
0.0
 63
   256
  0
ENDSEC
  0
SECTION
  2
OBJECTS
  0
DICTIONARY
  5
C
330
0
100
AcDbDictionary
281
     1
  3
ACAD_DETAILVIEWSTYLE
350
353
  3
ACAD_GROUP
350
D
  3
ACAD_IMAGE_DICT
350
279
  3
ACAD_IMAGE_VARS
350
6F
  3
ACAD_LAYOUT
350
1A
  3
ACAD_MATERIAL
350
43
  3
ACAD_MLEADERSTYLE
350
6B
  3
ACAD_MLINESTYLE
350
17
  3
ACAD_PLOTSETTINGS
350
19
  3
ACAD_PLOTSTYLENAME
350
E
  3
ACAD_SCALELIST
350
47
  3
ACAD_SECTIONVIEWSTYLE
350
354
  3
ACAD_TABLESTYLE
350
69
  3
ACAD_VISUALSTYLE
350
2A
  3
ACDB_RECOMPOSE_DATA
350
350
  3
AcDbVariableDictionary
350
34C
  0
SUN
  5
6D
330
29
100
AcDbSun
 90
        1
290
     0
 63
     7
421
 16777215
 40
1.0
291
     1
 91
  2455826
 92
 54000000
292
     0
 70
     2
 71
   256
280
     1
  0
IMAGEDEF_REACTOR
  5
27C
330
27B
100
AcDbRasterImageDefReactor
 90
        2
330
27B
  0
IMAGEDEF_REACTOR
  5
27F
330
27E
100
AcDbRasterImageDefReactor
 90
        2
330
27E
  0
IMAGEDEF_REACTOR
  5
282
330
281
100
AcDbRasterImageDefReactor
 90
        2
330
281
  0
SUN
  5
234
330
233
100
AcDbSun
 90
        1
290
     0
 63
     7
421
 16777215
 40
1.0
291
     1
 91
  2455826
 92
 54000000
292
     0
 70
     2
 71
   256
280
     1
  0
DICTIONARY
  5
353
102
{ACAD_REACTORS
330
C
102
}
330
C
100
AcDbDictionary
281
     1
  0
DICTIONARY
  5
D
102
{ACAD_REACTORS
330
C
102
}
330
C
100
AcDbDictionary
281
     1
  3
DIM7
350
32E
  0
DICTIONARY
  5
279
102
{ACAD_REACTORS
330
C
102
}
330
C
100
AcDbDictionary
281
     1
  3
C:\Users\MAIFFR~1\AppData\Local\Temp\EXE_LOGO_FBF_soutien_Q_L.jpg1
350
27D
  3
C:\Users\MAIFFR~1\AppData\Local\Temp\fcba.jpg0
350
27A
  3
C:\Users\MAIFFR~1\AppData\Local\Temp\logo_codifab_baseline_soutien.jpg2
350
280
  0
RASTERVARIABLES
  5
6F
102
{ACAD_REACTORS
330
C
102
}
330
C
100
AcDbRasterVariables
 90
        0
 70
     0
 71
     1
 72
     1
  0
DICTIONARY
  5
1A
102
{ACAD_REACTORS
330
C
102
}
330
C
100
AcDbDictionary
281
     1
  3
CompleteLayout
350
1E
  3
Model
350
22
  3
PrintFrame_12
350
22E
  0
DICTIONARY
  5
43
102
{ACAD_REACTORS
330
C
102
}
330
C
100
AcDbDictionary
281
     1
  3
ByBlock
350
45
  3
ByLayer
350
44
  3
Global
350
46
  0
DICTIONARY
  5
6B
102
{ACAD_REACTORS
330
C
102
}
330
C
100
AcDbDictionary
281
     1
  3
Standard
350
6C
  0
DICTIONARY
  5
17
102
{ACAD_REACTORS
330
C
102
}
330
C
100
AcDbDictionary
281
     1
  3
Standard
350
18
  0
DICTIONARY
  5
19
102
{ACAD_REACTORS
330
C
102
}
330
C
100
AcDbDictionary
281
     1
  3
PlotSettings_
350
231
  0
ACDBDICTIONARYWDFLT
  5
E
102
{ACAD_REACTORS
330
C
102
}
330
C
100
AcDbDictionary
281
     1
  3
Normal
350
F
100
AcDbDictionaryWithDefault
340
F
  0
DICTIONARY
  5
47
102
{ACAD_REACTORS
330
C
102
}
330
C
100
AcDbDictionary
281
     1
  3
A0
350
48
  3
A1
350
49
  3
A2
350
4A
  3
A3
350
4B
  3
A4
350
4C
  3
A5
350
4D
  3
A6
350
4E
  3
A7
350
4F
  3
A8
350
50
  3
A9
350
51
  3
B0
350
52
  3
B1
350
53
  3
B2
350
54
  3
B3
350
55
  3
B4
350
56
  3
B5
350
57
  3
B6
350
58
  3
B7
350
59
  3
B8
350
5A
  3
B9
350
5B
  3
C0
350
5C
  3
C1
350
5D
  3
C2
350
5E
  3
C3
350
5F
  3
C4
350
60
  3
C5
350
61
  3
C6
350
62
  3
C7
350
63
  3
C8
350
64
  3
C9
350
65
  3
D0
350
66
  3
D1
350
67
  3
D2
350
68
  0
DICTIONARY
  5
354
102
{ACAD_REACTORS
330
C
102
}
330
C
100
AcDbDictionary
281
     1
  0
DICTIONARY
  5
69
102
{ACAD_REACTORS
330
C
102
}
330
C
100
AcDbDictionary
281
     1
  3
Standard
350
6A
  0
DICTIONARY
  5
2A
102
{ACAD_REACTORS
330
C
102
}
330
C
100
AcDbDictionary
281
     1
  3
2dWireframe
350
2F
  3
Basic
350
32
  3
Brighten
350
36
  3
ColorChange
350
3A
  3
Conceptual
350
34
  3
Dim
350
35
  3
EdgeColorOff
350
3D
  3
Facepattern
350
39
  3
Flat
350
2B
  3
FlatWithEdges
350
2C
  3
Gouraud
350
2D
  3
GouraudWithEdges
350
2E
  3
Hidden
350
31
  3
JitterOff
350
3B
  3
Linepattern
350
38
  3
OverhangOff
350
3C
  3
Realistic
350
33
  3
Shaded
350
42
  3
Shaded with edges
350
41
  3
Shades of Gray
350
3E
  3
Sketchy
350
3F
  3
Thicken
350
37
  3
Wireframe
350
30
  3
X-Ray
350
40
  0
XRECORD
  5
350
102
{ACAD_REACTORS
330
C
102
}
330
C
100
AcDbXrecord
280
     1
 90
        1
330
6A
  0
DICTIONARY
  5
34C
102
{ACAD_REACTORS
330
C
102
}
330
C
100
AcDbDictionary
281
     1
  3
CANNOSCALE
350
34D
  3
CMLEADERSTYLE
350
352
  3
CTABLESTYLE
350
351
  3
WIPEOUTFRAME
350
355
  0
GROUP
  5
32E
102
{ACAD_REACTORS
330
D
102
}
330
D
100
AcDbGroup
300

 70
     0
 71
     1
340
32D
  0
IMAGEDEF
  5
27D
102
{ACAD_REACTORS
330
279
330
27F
102
}
330
279
100
AcDbRasterImageDef
 90
        0
  1
EXE_LOGO_FBF_soutien_Q_L.jpg
 10
200.0
 20
133.0
 11
0.3527336860670194
 21
0.3527336860670194
280
     1
281
     3
  0
IMAGEDEF
  5
27A
102
{ACAD_REACTORS
330
279
330
27C
102
}
330
279
100
AcDbRasterImageDef
 90
        0
  1
fcba.jpg
 10
247.0
 20
171.0
 11
0.3527336860670194
 21
0.3527336860670194
280
     1
281
     3
  0
IMAGEDEF
  5
280
102
{ACAD_REACTORS
330
279
330
282
102
}
330
279
100
AcDbRasterImageDef
 90
        0
  1
logo_codifab_baseline_soutien.jpg
 10
1326.0
 20
580.0
 11
0.08466683600033867
 21
0.08466683600033867
280
     1
281
     3
  0
LAYOUT
  5
1E
102
{ACAD_REACTORS
330
1A
102
}
330
1A
100
AcDbPlotSettings
  1

  2
none_device
  4

  6

 40
0.0
 41
0.0
 42
0.0
 43
0.0
 44
0.0
 45
0.0
 46
0.0
 47
0.0
 48
0.0
 49
0.0
140
0.0
141
0.0
142
1.0
143
1.0
 70
   688
 72
     0
 73
     0
 74
     5
  7

 75
    16
 76
     0
 77
     2
 78
   300
147
1.0
148
0.0
149
0.0
100
AcDbLayout
  1
CompleteLayout
 70
     1
 71
     1
 10
0.0
 20
0.0
 11
12.0
 21
9.0
 12
0.0
 22
0.0
 32
0.0
 14
1.000000000000000E+20
 24
1.000000000000000E+20
 34
1.000000000000000E+20
 15
-1.000000000000000E+20
 25
-1.000000000000000E+20
 35
-1.000000000000000E+20
146
0.0
 13
0.0
 23
0.0
 33
0.0
 16
1.0
 26
0.0
 36
0.0
 17
0.0
 27
1.0
 37
0.0
 76
     0
330
1B
  0
LAYOUT
  5
22
102
{ACAD_REACTORS
330
1A
102
}
330
1A
100
AcDbPlotSettings
  1

  2
none_device
  4
Letter_(8.50_x_11.00_Inches)
  6

 40
6.35
 41
6.35
 42
6.35000508
 43
6.35000508
 44
215.9
 45
279.4
 46
0.0
 47
0.0
 48
0.0
 49
0.0
140
0.0
141
0.0
142
1.0
143
1.0
 70
  1712
 72
     0
 73
     0
 74
     0
  7

 75
     0
 76
     0
 77
     2
 78
   300
147
1.0
148
0.0
149
0.0
100
AcDbLayout
  1
Model
 70
     1
 71
     0
 10
0.0
 20
0.0
 11
12.0
 21
9.0
 12
0.0
 22
0.0
 32
0.0
 14
-0.4328742585180407
 24
-997.9557227075165
 34
0.0
 15
393.567125741482
 25
-455.9557227075165
 35
0.0
146
0.0
 13
0.0
 23
0.0
 33
0.0
 16
1.0
 26
0.0
 36
0.0
 17
0.0
 27
1.0
 37
0.0
 76
     0
330
1F
331
29
  0
LAYOUT
  5
22E
102
{ACAD_REACTORS
330
1A
102
}
330
1A
100
AcDbPlotSettings
  1
PlotSettings_
  2
Custom Device
  4
Custom_210.000000x297.000000_12.700000_12.700000_6.200000_6.200000
  6

 40
6.2
 41
12.7
 42
6.2
 43
12.7
 44
210.0
 45
296.9999999999982
 46
0.0
 47
0.0
 48
0.0
 49
0.0
140
0.0
141
0.0
142
1.0
143
1.0
 70
   752
 72
     1
 73
     0
 74
     5
  7

 75
    16
 76
     0
 77
     2
 78
   300
147
1.0
148
0.0
149
0.0
100
AcDbLayout
  1
PrintFrame_12
 70
     0
 71
     2
 10
-20.0
 20
-7.5
 11
277.0
 21
202.5
 12
0.0
 22
0.0
 32
0.0
 14
0.0
 24
0.0
 34
0.0
 15
197.6
 25
271.5999999999982
 35
0.0
146
0.0
 13
0.0
 23
0.0
 33
0.0
 16
1.0
 26
0.0
 36
0.0
 17
0.0
 27
1.0
 37
0.0
 76
     0
330
22D
331
233
1001
PLOTTRANSPARENCY
1071
        1
1000
layout-user-created
1070
     1
1000
layout-line-weight-scale
1042
1.0
  0
MATERIAL
  5
45
102
{ACAD_REACTORS
330
43
102
}
330
43
100
AcDbMaterial
  1
ByBlock
 72
     1
 94
      127
  0
MATERIAL
  5
44
102
{ACAD_REACTORS
330
43
102
}
330
43
100
AcDbMaterial
  1
ByLayer
 72
     1
 94
      127
  0
MATERIAL
  5
46
102
{ACAD_REACTORS
330
43
102
}
330
43
100
AcDbMaterial
  1
Global
 72
     1
 94
      127
  0
MLEADERSTYLE
  5
6C
102
{ACAD_REACTORS
330
6B
102
}
330
6B
100
AcDbMLeaderStyle
179
     2
170
     2
171
     1
172
     0
 90
        2
 40
0.0
 41
0.0
173
     1
 91
-1056964608
340
14
 92
       -2
290
     1
 42
0.09
291
     1
 43
0.36
  3
Standard
341
0
 44
0.18
300

342
11
174
     1
178
     6
175
     1
176
     0
 93
-1056964608
 45
0.18
292
     0
297
     0
 46
0.18
343
0
 94
-1056964608
 47
1.0
 49
1.0
140
1.0
293
     1
141
0.0
294
     1
177
     0
142
1.0
295
     0
296
     0
143
0.125
271
     0
272
     9
273
     9
298
     0
  0
MLINESTYLE
  5
18
102
{ACAD_REACTORS
330
17
102
}
330
17
100
AcDbMlineStyle
  2
Standard
 70
     0
  3

 62
   256
 51
90.0
 52
90.0
 71
     2
 49
0.5
 62
   256
  6
BYLAYER
 49
-0.5
 62
   256
  6
BYLAYER
  0
PLOTSETTINGS
  5
231
102
{ACAD_REACTORS
330
19
102
}
330
19
100
AcDbPlotSettings
  1
PlotSettings_
  2
Custom Device
  4
Custom_210.000000x297.000000_12.700000_12.700000_6.200000_6.200000
  6

 40
6.2
 41
12.7
 42
6.2
 43
12.7
 44
210.0
 45
296.9999999999982
 46
0.0
 47
0.0
 48
0.0
 49
0.0
140
0.0
141
0.0
142
1.0
143
1.0
 70
   752
 72
     1
 73
     0
 74
     5
  7

 75
    16
 76
     0
 77
     2
 78
   300
147
1.0
148
0.0
149
0.0
1001
PLOTTRANSPARENCY
1071
        1
1000
layout-user-created
1070
     1
1000
layout-line-weight-scale
1042
1.0
  0
ACDBPLACEHOLDER
  5
F
102
{ACAD_REACTORS
330
E
102
}
330
E
  0
SCALE
  5
48
102
{ACAD_REACTORS
330
47
102
}
330
47
100
AcDbScale
 70
     0
300
1:1
140
1.0
141
1.0
290
     1
  0
SCALE
  5
49
102
{ACAD_REACTORS
330
47
102
}
330
47
100
AcDbScale
 70
     0
300
1:2
140
1.0
141
2.0
290
     0
  0
SCALE
  5
4A
102
{ACAD_REACTORS
330
47
102
}
330
47
100
AcDbScale
 70
     0
300
1:4
140
1.0
141
4.0
290
     0
  0
SCALE
  5
4B
102
{ACAD_REACTORS
330
47
102
}
330
47
100
AcDbScale
 70
     0
300
1:5
140
1.0
141
5.0
290
     0
  0
SCALE
  5
4C
102
{ACAD_REACTORS
330
47
102
}
330
47
100
AcDbScale
 70
     0
300
1:8
140
1.0
141
8.0
290
     0
  0
SCALE
  5
4D
102
{ACAD_REACTORS
330
47
102
}
330
47
100
AcDbScale
 70
     0
300
1:10
140
1.0
141
10.0
290
     0
  0
SCALE
  5
4E
102
{ACAD_REACTORS
330
47
102
}
330
47
100
AcDbScale
 70
     0
300
1:16
140
1.0
141
16.0
290
     0
  0
SCALE
  5
4F
102
{ACAD_REACTORS
330
47
102
}
330
47
100
AcDbScale
 70
     0
300
1:20
140
1.0
141
20.0
290
     0
  0
SCALE
  5
50
102
{ACAD_REACTORS
330
47
102
}
330
47
100
AcDbScale
 70
     0
300
1:30
140
1.0
141
30.0
290
     0
  0
SCALE
  5
51
102
{ACAD_REACTORS
330
47
102
}
330
47
100
AcDbScale
 70
     0
300
1:40
140
1.0
141
40.0
290
     0
  0
SCALE
  5
52
102
{ACAD_REACTORS
330
47
102
}
330
47
100
AcDbScale
 70
     0
300
1:50
140
1.0
141
50.0
290
     0
  0
SCALE
  5
53
102
{ACAD_REACTORS
330
47
102
}
330
47
100
AcDbScale
 70
     0
300
1:100
140
1.0
141
100.0
290
     0
  0
SCALE
  5
54
102
{ACAD_REACTORS
330
47
102
}
330
47
100
AcDbScale
 70
     0
300
2:1
140
2.0
141
1.0
290
     0
  0
SCALE
  5
55
102
{ACAD_REACTORS
330
47
102
}
330
47
100
AcDbScale
 70
     0
300
4:1
140
4.0
141
1.0
290
     0
  0
SCALE
  5
56
102
{ACAD_REACTORS
330
47
102
}
330
47
100
AcDbScale
 70
     0
300
8:1
140
8.0
141
1.0
290
     0
  0
SCALE
  5
57
102
{ACAD_REACTORS
330
47
102
}
330
47
100
AcDbScale
 70
     0
300
10:1
140
10.0
141
1.0
290
     0
  0
SCALE
  5
58
102
{ACAD_REACTORS
330
47
102
}
330
47
100
AcDbScale
 70
     0
300
100:1
140
100.0
141
1.0
290
     0
  0
SCALE
  5
59
102
{ACAD_REACTORS
330
47
102
}
330
47
100
AcDbScale
 70
     0
300
1/128" = 1'-0"
140
0.0078125
141
12.0
290
     0
  0
SCALE
  5
5A
102
{ACAD_REACTORS
330
47
102
}
330
47
100
AcDbScale
 70
     0
300
1/64" = 1'-0"
140
0.015625
141
12.0
290
     0
  0
SCALE
  5
5B
102
{ACAD_REACTORS
330
47
102
}
330
47
100
AcDbScale
 70
     0
300
1/32" = 1'-0"
140
0.03125
141
12.0
290
     0
  0
SCALE
  5
5C
102
{ACAD_REACTORS
330
47
102
}
330
47
100
AcDbScale
 70
     0
300
1/16" = 1'-0"
140
0.0625
141
12.0
290
     0
  0
SCALE
  5
5D
102
{ACAD_REACTORS
330
47
102
}
330
47
100
AcDbScale
 70
     0
300
3/32" = 1'-0"
140
0.09375
141
12.0
290
     0
  0
SCALE
  5
5E
102
{ACAD_REACTORS
330
47
102
}
330
47
100
AcDbScale
 70
     0
300
1/8" = 1'-0"
140
0.125
141
12.0
290
     0
  0
SCALE
  5
5F
102
{ACAD_REACTORS
330
47
102
}
330
47
100
AcDbScale
 70
     0
300
3/16" = 1'-0"
140
0.1875
141
12.0
290
     0
  0
SCALE
  5
60
102
{ACAD_REACTORS
330
47
102
}
330
47
100
AcDbScale
 70
     0
300
1/4" = 1'-0"
140
0.25
141
12.0
290
     0
  0
SCALE
  5
61
102
{ACAD_REACTORS
330
47
102
}
330
47
100
AcDbScale
 70
     0
300
3/8" = 1'-0"
140
0.375
141
12.0
290
     0
  0
SCALE
  5
62
102
{ACAD_REACTORS
330
47
102
}
330
47
100
AcDbScale
 70
     0
300
1/2" = 1'-0"
140
0.5
141
12.0
290
     0
  0
SCALE
  5
63
102
{ACAD_REACTORS
330
47
102
}
330
47
100
AcDbScale
 70
     0
300
3/4" = 1'-0"
140
0.75
141
12.0
290
     0
  0
SCALE
  5
64
102
{ACAD_REACTORS
330
47
102
}
330
47
100
AcDbScale
 70
     0
300
1" = 1'-0"
140
1.0
141
12.0
290
     0
  0
SCALE
  5
65
102
{ACAD_REACTORS
330
47
102
}
330
47
100
AcDbScale
 70
     0
300
1-1/2" = 1'-0"
140
1.5
141
12.0
290
     0
  0
SCALE
  5
66
102
{ACAD_REACTORS
330
47
102
}
330
47
100
AcDbScale
 70
     0
300
3" = 1'-0"
140
3.0
141
12.0
290
     0
  0
SCALE
  5
67
102
{ACAD_REACTORS
330
47
102
}
330
47
100
AcDbScale
 70
     0
300
6" = 1'-0"
140
6.0
141
12.0
290
     0
  0
SCALE
  5
68
102
{ACAD_REACTORS
330
47
102
}
330
47
100
AcDbScale
 70
     0
300
1'-0" = 1'-0"
140
12.0
141
12.0
290
     0
  0
TABLESTYLE
  5
6A
102
{ACAD_REACTORS
330
69
102
}
102
{ACAD_XDICTIONARY
360
34E
102
}
330
69
100
AcDbTableStyle
  3
Standard
 70
     0
 71
     0
 40
0.06
 41
0.06
280
     0
281
     0
  7
Standard
140
0.18
170
     2
 62
     0
 63
   257
283
     0
 90
        4
 91
        0
  1

274
    -2
284
     1
 64
     0
275
    -2
285
     1
 65
     0
276
    -2
286
     1
 66
     0
277
    -2
287
     1
 67
     0
278
    -2
288
     1
 68
     0
279
    -2
289
     1
 69
     0
  7
Standard
140
0.25
170
     5
 62
     0
 63
   257
283
     0
 90
        4
 91
        0
  1

274
    -2
284
     1
 64
     0
275
    -2
285
     1
 65
     0
276
    -2
286
     1
 66
     0
277
    -2
287
     1
 67
     0
278
    -2
288
     1
 68
     0
279
    -2
289
     1
 69
     0
  7
Standard
140
0.18
170
     5
 62
     0
 63
   257
283
     0
 90
        4
 91
        0
  1

274
    -2
284
     1
 64
     0
275
    -2
285
     1
 65
     0
276
    -2
286
     1
 66
     0
277
    -2
287
     1
 67
     0
278
    -2
288
     1
 68
     0
279
    -2
289
     1
 69
     0
  0
VISUALSTYLE
  5
2F
102
{ACAD_REACTORS
330
2A
102
}
330
2A
100
AcDbVisualStyle
  2
2dWireframe
 70
     4
177
     3
291
     0
 70
    58
 90
        0
176
     1
 90
        2
176
     1
 90
        0
176
     1
 90
        0
176
     1
 40
0.6
176
     1
 40
30.0
176
     1
 62
     7
420
 16777215
176
     1
 90
        1
176
     1
 90
        4
176
     1
 62
     7
176
     1
 62
   257
176
     1
 90
        1
176
     1
 90
        1
176
     1
 40
1.0
176
     1
 90
        0
176
     1
 62
   257
176
     1
 40
1.0
176
     1
 90
        1
176
     1
 90
        6
176
     1
 90
        2
176
     1
 62
     7
176
     1
 90
        5
176
     1
 90
        0
176
     1
 90
        0
176
     1
290
     0
176
     1
 90
        1
176
     1
 40
0.0
176
     1
 90
        0
176
     1
290
     1
176
     1
290
     1
176
     1
290
     0
176
     1
290
     0
176
     1
290
     0
176
     1
290
     0
176
     1
290
     0
176
     1
290
     0
176
     1
290
     0
176
     1
 90
       50
176
     1
 40
0.0
176
     1
 40
1.0
176
     1
 90
        0
176
     1
 62
    18
420
        0
176
     1
 90
       50
176
     1
 90
        3
176
     1
 62
     5
420
      255
176
     1
290
     0
176
     1
 90
       50
176
     1
 90
       50
176
     1
 90
       50
176
     1
290
     0
176
     1
 90
       50
176
     1
 62
   256
176
     0
 40
1.0
176
     0
 90
        2
176
     1
  1
strokes_ogs.tif
176
     1
290
     0
176
     1
 40
1.0
176
     1
 40
1.0
176
     1
  0
VISUALSTYLE
  5
32
102
{ACAD_REACTORS
330
2A
102
}
330
2A
100
AcDbVisualStyle
  2
Basic
 70
     7
177
     3
291
     1
 70
    58
 90
        1
176
     1
 90
        0
176
     1
 90
        1
176
     1
 90
        0
176
     1
 40
0.6
176
     1
 40
30.0
176
     1
 62
     7
420
 16777215
176
     1
 90
        0
176
     1
 90
        4
176
     1
 62
     7
176
     1
 62
   257
176
     1
 90
        1
176
     1
 90
        1
176
     1
 40
1.0
176
     1
 90
        8
176
     1
 62
     7
176
     1
 40
1.0
176
     1
 90
        1
176
     1
 90
        6
176
     1
 90
        2
176
     1
 62
     7
176
     1
 90
        5
176
     1
 90
        0
176
     1
 90
        0
176
     1
290
     0
176
     1
 90
        1
176
     1
 40
0.0
176
     1
 90
        0
176
     1
290
     0
176
     1
290
     1
176
     1
290
     1
176
     1
290
     0
176
     1
290
     0
176
     1
290
     0
176
     1
290
     0
176
     1
290
     0
176
     1
290
     0
176
     1
 90
       50
176
     1
 40
0.0
176
     1
 40
1.0
176
     1
 90
        0
176
     1
 62
    18
420
        0
176
     1
 90
       50
176
     1
 90
        3
176
     1
 62
     5
420
      255
176
     1
290
     0
176
     1
 90
       50
176
     1
 90
       50
176
     1
 90
       50
176
     1
290
     0
176
     1
 90
       50
176
     1
 62
   256
176
     0
 40
1.0
176
     0
 90
        2
176
     1
  1
strokes_ogs.tif
176
     1
290
     0
176
     1
 40
1.0
176
     1
 40
1.0
176
     1
  0
VISUALSTYLE
  5
36
102
{ACAD_REACTORS
330
2A
102
}
330
2A
100
AcDbVisualStyle
  2
Brighten
 70
    12
177
     3
291
     1
 70
    58
 90
        2
176
     1
 90
        2
176
     1
 90
        0
176
     1
 90
        0
176
     1
 40
0.6
176
     1
 40
30.0
176
     1
 62
     7
420
 16777215
176
     1
 90
        1
176
     1
 90
        4
176
     1
 62
     7
176
     1
 62
   257
176
     1
 90
        1
176
     1
 90
        1
176
     1
 40
1.0
176
     1
 90
        8
176
     1
 62
     7
176
     1
 40
1.0
176
     1
 90
        1
176
     1
 90
        6
176
     1
 90
        2
176
     1
 62
     7
176
     1
 90
        5
176
     1
 90
        0
176
     1
 90
        0
176
     1
290
     0
176
     1
 90
        1
176
     1
 40
50.0
176
     1
 90
        0
176
     1
290
     0
176
     1
290
     1
176
     1
290
     1
176
     1
290
     0
176
     1
290
     0
176
     1
290
     0
176
     1
290
     0
176
     1
290
     0
176
     1
290
     0
176
     1
 90
       50
176
     1
 40
0.0
176
     1
 40
1.0
176
     1
 90
        0
176
     1
 62
    18
420
        0
176
     1
 90
       50
176
     1
 90
        3
176
     1
 62
     5
420
      255
176
     1
290
     0
176
     1
 90
       50
176
     1
 90
       50
176
     1
 90
       50
176
     1
290
     0
176
     1
 90
       50
176
     1
 62
   256
176
     0
 40
1.0
176
     0
 90
        2
176
     1
  1
strokes_ogs.tif
176
     1
290
     0
176
     1
 40
1.0
176
     1
 40
1.0
176
     1
  0
VISUALSTYLE
  5
3A
102
{ACAD_REACTORS
330
2A
102
}
330
2A
100
AcDbVisualStyle
  2
ColorChange
 70
    16
177
     3
291
     1
 70
    58
 90
        2
176
     1
 90
        2
176
     1
 90
        3
176
     1
 90
        0
176
     1
 40
0.6
176
     1
 40
30.0
176
     1
 62
     8
420
  8421504
176
     1
 90
        1
176
     1
 90
        4
176
     1
 62
     7
176
     1
 62
   257
176
     1
 90
        1
176
     1
 90
        1
176
     1
 40
1.0
176
     1
 90
        8
176
     1
 62
     8
420
  8421504
176
     1
 40
1.0
176
     1
 90
        1
176
     1
 90
        6
176
     1
 90
        2
176
     1
 62
     7
176
     1
 90
        5
176
     1
 90
        0
176
     1
 90
        0
176
     1
290
     0
176
     1
 90
        1
176
     1
 40
0.0
176
     1
 90
        0
176
     1
290
     0
176
     1
290
     1
176
     1
290
     1
176
     1
290
     0
176
     1
290
     0
176
     1
290
     0
176
     1
290
     0
176
     1
290
     0
176
     1
290
     0
176
     1
 90
       50
176
     1
 40
0.0
176
     1
 40
1.0
176
     1
 90
        0
176
     1
 62
    18
420
        0
176
     1
 90
       50
176
     1
 90
        3
176
     1
 62
     5
420
      255
176
     1
290
     0
176
     1
 90
       50
176
     1
 90
       50
176
     1
 90
       50
176
     1
290
     0
176
     1
 90
       50
176
     1
 62
   256
176
     0
 40
1.0
176
     0
 90
        2
176
     1
  1
strokes_ogs.tif
176
     1
290
     0
176
     1
 40
1.0
176
     1
 40
1.0
176
     1
  0
VISUALSTYLE
  5
34
102
{ACAD_REACTORS
330
2A
102
}
330
2A
100
AcDbVisualStyle
  2
Conceptual
 70
     9
177
     3
291
     0
 70
    58
 90
        3
176
     1
 90
        2
176
     1
 90
        0
176
     1
 90
        0
176
     1
 40
0.6
176
     1
 40
30.0
176
     1
 62
     7
420
 16777215
176
     1
 90
        2
176
     1
 90
        2
176
     1
 62
     7
176
     1
 62
   257
176
     1
 90
        1
176
     1
 90
        1
176
     1
 40
179.0
176
     1
 90
        8
176
     1
 62
     7
176
     1
 40
1.0
176
     1
 90
        1
176
     1
 90
        6
176
     1
 90
        2
176
     1
 62
     7
176
     1
 90
        3
176
     1
 90
        0
176
     1
 90
        0
176
     1
290
     0
176
     1
 90
        1
176
     1
 40
0.0
176
     1
 90
        0
176
     1
290
     0
176
     1
290
     1
176
     1
290
     1
176
     1
290
     0
176
     1
290
     0
176
     1
290
     0
176
     1
290
     0
176
     1
290
     0
176
     1
290
     0
176
     1
 90
       50
176
     1
 40
0.0
176
     1
 40
1.0
176
     1
 90
        0
176
     1
 62
    18
420
        0
176
     1
 90
       50
176
     1
 90
        3
176
     1
 62
     5
420
      255
176
     1
290
     0
176
     1
 90
       50
176
     1
 90
       50
176
     1
 90
       50
176
     1
290
     0
176
     1
 90
       50
176
     1
 62
   256
176
     0
 40
1.0
176
     0
 90
        2
176
     1
  1
strokes_ogs.tif
176
     1
290
     0
176
     1
 40
1.0
176
     1
 40
1.0
176
     1
  0
VISUALSTYLE
  5
35
102
{ACAD_REACTORS
330
2A
102
}
330
2A
100
AcDbVisualStyle
  2
Dim
 70
    11
177
     3
291
     1
 70
    58
 90
        2
176
     1
 90
        2
176
     1
 90
        0
176
     1
 90
        0
176
     1
 40
0.6
176
     1
 40
30.0
176
     1
 62
     7
420
 16777215
176
     1
 90
        1
176
     1
 90
        4
176
     1
 62
     7
176
     1
 62
   257
176
     1
 90
        1
176
     1
 90
        1
176
     1
 40
1.0
176
     1
 90
        8
176
     1
 62
     7
176
     1
 40
1.0
176
     1
 90
        1
176
     1
 90
        6
176
     1
 90
        2
176
     1
 62
     7
176
     1
 90
        5
176
     1
 90
        0
176
     1
 90
        0
176
     1
290
     0
176
     1
 90
        1
176
     1
 40
-50.0
176
     1
 90
        0
176
     1
290
     0
176
     1
290
     1
176
     1
290
     1
176
     1
290
     0
176
     1
290
     0
176
     1
290
     0
176
     1
290
     0
176
     1
290
     0
176
     1
290
     0
176
     1
 90
       50
176
     1
 40
0.0
176
     1
 40
1.0
176
     1
 90
        0
176
     1
 62
    18
420
        0
176
     1
 90
       50
176
     1
 90
        3
176
     1
 62
     5
420
      255
176
     1
290
     0
176
     1
 90
       50
176
     1
 90
       50
176
     1
 90
       50
176
     1
290
     0
176
     1
 90
       50
176
     1
 62
   256
176
     0
 40
1.0
176
     0
 90
        2
176
     1
  1
strokes_ogs.tif
176
     1
290
     0
176
     1
 40
1.0
176
     1
 40
1.0
176
     1
  0
VISUALSTYLE
  5
3D
102
{ACAD_REACTORS
330
2A
102
}
330
2A
100
AcDbVisualStyle
  2
EdgeColorOff
 70
    22
177
     3
291
     1
 70
    58
 90
        2
176
     0
 90
        2
176
     0
 90
        0
176
     0
 90
        0
176
     0
 40
0.6
176
     0
 40
30.0
176
     0
 62
     7
420
 16777215
176
     0
 90
        1
176
     0
 90
        4
176
     0
 62
     7
176
     0
 62
   257
176
     0
 90
        1
176
     0
 90
        1
176
     0
 40
1.0
176
     0
 90
        8
176
     2
 62
     7
176
     0
 40
1.0
176
     0
 90
        1
176
     0
 90
        6
176
     0
 90
        2
176
     0
 62
     7
176
     0
 90
        5
176
     0
 90
        0
176
     0
 90
        0
176
     0
290
     0
176
     0
 90
        1
176
     0
 40
0.0
176
     0
 90
        0
176
     0
290
     0
176
     0
290
     1
176
     0
290
     1
176
     0
290
     0
176
     0
290
     0
176
     0
290
     0
176
     0
290
     0
176
     0
290
     0
176
     0
290
     0
176
     0
 90
       50
176
     0
 40
0.0
176
     0
 40
1.0
176
     0
 90
        0
176
     0
 62
    18
420
        0
176
     0
 90
       50
176
     0
 90
        3
176
     0
 62
     5
420
      255
176
     0
290
     0
176
     0
 90
       50
176
     0
 90
       50
176
     0
 90
       50
176
     0
290
     0
176
     0
 90
       50
176
     0
 62
   256
176
     0
 40
1.0
176
     0
 90
        2
176
     0
  1
strokes_ogs.tif
176
     0
290
     0
176
     0
 40
1.0
176
     0
 40
1.0
176
     0
  0
VISUALSTYLE
  5
39
102
{ACAD_REACTORS
330
2A
102
}
330
2A
100
AcDbVisualStyle
  2
Facepattern
 70
    15
177
     3
291
     1
 70
    58
 90
        2
176
     1
 90
        2
176
     1
 90
        0
176
     1
 90
        0
176
     1
 40
0.6
176
     1
 40
30.0
176
     1
 62
     7
420
 16777215
176
     1
 90
        1
176
     1
 90
        4
176
     1
 62
     7
176
     1
 62
   257
176
     1
 90
        1
176
     1
 90
        1
176
     1
 40
1.0
176
     1
 90
        8
176
     1
 62
     7
176
     1
 40
1.0
176
     1
 90
        1
176
     1
 90
        6
176
     1
 90
        2
176
     1
 62
     7
176
     1
 90
        5
176
     1
 90
        0
176
     1
 90
        0
176
     1
290
     0
176
     1
 90
        1
176
     1
 40
0.0
176
     1
 90
        0
176
     1
290
     0
176
     1
290
     1
176
     1
290
     1
176
     1
290
     0
176
     1
290
     0
176
     1
290
     0
176
     1
290
     0
176
     1
290
     0
176
     1
290
     0
176
     1
 90
       50
176
     1
 40
0.0
176
     1
 40
1.0
176
     1
 90
        0
176
     1
 62
    18
420
        0
176
     1
 90
       50
176
     1
 90
        3
176
     1
 62
     5
420
      255
176
     1
290
     0
176
     1
 90
       50
176
     1
 90
       50
176
     1
 90
       50
176
     1
290
     0
176
     1
 90
       50
176
     1
 62
   256
176
     0
 40
1.0
176
     0
 90
        2
176
     1
  1
strokes_ogs.tif
176
     1
290
     0
176
     1
 40
1.0
176
     1
 40
1.0
176
     1
  0
VISUALSTYLE
  5
2B
102
{ACAD_REACTORS
330
2A
102
}
330
2A
100
AcDbVisualStyle
  2
Flat
 70
     0
177
     3
291
     1
 70
    58
 90
        2
176
     1
 90
        1
176
     1
 90
        1
176
     1
 90
        2
176
     1
 40
0.6
176
     1
 40
30.0
176
     1
 62
     7
420
 16777215
176
     1
 90
        0
176
     1
 90
        0
176
     1
 62
     7
176
     1
 62
   257
176
     1
 90
        1
176
     1
 90
        1
176
     1
 40
1.0
176
     1
 90
        8
176
     1
 62
     7
176
     1
 40
1.0
176
     1
 90
        1
176
     1
 90
        6
176
     1
 90
        2
176
     1
 62
     7
176
     1
 90
        5
176
     1
 90
        0
176
     1
 90
        0
176
     1
290
     0
176
     1
 90
       13
176
     1
 40
0.0
176
     1
 90
        0
176
     1
290
     0
176
     1
290
     1
176
     1
290
     1
176
     1
290
     0
176
     1
290
     0
176
     1
290
     0
176
     1
290
     0
176
     1
290
     0
176
     1
290
     0
176
     1
 90
       50
176
     1
 40
0.0
176
     1
 40
1.0
176
     1
 90
        0
176
     1
 62
    18
420
        0
176
     1
 90
       50
176
     1
 90
        3
176
     1
 62
     5
420
      255
176
     1
290
     0
176
     1
 90
       50
176
     1
 90
       50
176
     1
 90
       50
176
     1
290
     0
176
     1
 90
       50
176
     1
 62
   256
176
     0
 40
1.0
176
     0
 90
        2
176
     1
  1
strokes_ogs.tif
176
     1
290
     0
176
     1
 40
1.0
176
     1
 40
1.0
176
     1
  0
VISUALSTYLE
  5
2C
102
{ACAD_REACTORS
330
2A
102
}
330
2A
100
AcDbVisualStyle
  2
FlatWithEdges
 70
     1
177
     3
291
     1
 70
    58
 90
        2
176
     1
 90
        1
176
     1
 90
        1
176
     1
 90
        2
176
     1
 40
0.6
176
     1
 40
30.0
176
     1
 62
     7
420
 16777215
176
     1
 90
        1
176
     1
 90
        0
176
     1
 62
     7
176
     1
 62
   257
176
     1
 90
        1
176
     1
 90
        1
176
     1
 40
1.0
176
     1
 90
        0
176
     1
 62
   257
176
     1
 40
1.0
176
     1
 90
        1
176
     1
 90
        6
176
     1
 90
        2
176
     1
 62
     7
176
     1
 90
        5
176
     1
 90
        0
176
     1
 90
        0
176
     1
290
     0
176
     1
 90
       13
176
     1
 40
0.0
176
     1
 90
        0
176
     1
290
     0
176
     1
290
     1
176
     1
290
     1
176
     1
290
     0
176
     1
290
     0
176
     1
290
     0
176
     1
290
     0
176
     1
290
     0
176
     1
290
     0
176
     1
 90
       50
176
     1
 40
0.0
176
     1
 40
1.0
176
     1
 90
        0
176
     1
 62
    18
420
        0
176
     1
 90
       50
176
     1
 90
        3
176
     1
 62
     5
420
      255
176
     1
290
     0
176
     1
 90
       50
176
     1
 90
       50
176
     1
 90
       50
176
     1
290
     0
176
     1
 90
       50
176
     1
 62
   256
176
     0
 40
1.0
176
     0
 90
        2
176
     1
  1
strokes_ogs.tif
176
     1
290
     0
176
     1
 40
1.0
176
     1
 40
1.0
176
     1
  0
VISUALSTYLE
  5
2D
102
{ACAD_REACTORS
330
2A
102
}
330
2A
100
AcDbVisualStyle
  2
Gouraud
 70
     2
177
     3
291
     1
 70
    58
 90
        2
176
     1
 90
        2
176
     1
 90
        1
176
     1
 90
        2
176
     1
 40
0.6
176
     1
 40
30.0
176
     1
 62
     7
420
 16777215
176
     1
 90
        0
176
     1
 90
        0
176
     1
 62
     7
176
     1
 62
   257
176
     1
 90
        1
176
     1
 90
        1
176
     1
 40
1.0
176
     1
 90
        0
176
     1
 62
     7
176
     1
 40
1.0
176
     1
 90
        1
176
     1
 90
        6
176
     1
 90
        2
176
     1
 62
     7
176
     1
 90
        5
176
     1
 90
        0
176
     1
 90
        0
176
     1
290
     0
176
     1
 90
       13
176
     1
 40
0.0
176
     1
 90
        0
176
     1
290
     0
176
     1
290
     1
176
     1
290
     1
176
     1
290
     0
176
     1
290
     0
176
     1
290
     0
176
     1
290
     0
176
     1
290
     0
176
     1
290
     0
176
     1
 90
       50
176
     1
 40
0.0
176
     1
 40
1.0
176
     1
 90
        0
176
     1
 62
    18
420
        0
176
     1
 90
       50
176
     1
 90
        3
176
     1
 62
     5
420
      255
176
     1
290
     0
176
     1
 90
       50
176
     1
 90
       50
176
     1
 90
       50
176
     1
290
     0
176
     1
 90
       50
176
     1
 62
   256
176
     0
 40
1.0
176
     0
 90
        2
176
     1
  1
strokes_ogs.tif
176
     1
290
     0
176
     1
 40
1.0
176
     1
 40
1.0
176
     1
  0
VISUALSTYLE
  5
2E
102
{ACAD_REACTORS
330
2A
102
}
330
2A
100
AcDbVisualStyle
  2
GouraudWithEdges
 70
     3
177
     3
291
     1
 70
    58
 90
        2
176
     1
 90
        2
176
     1
 90
        1
176
     1
 90
        2
176
     1
 40
0.6
176
     1
 40
30.0
176
     1
 62
     7
420
 16777215
176
     1
 90
        1
176
     1
 90
        0
176
     1
 62
     7
176
     1
 62
   257
176
     1
 90
        1
176
     1
 90
        1
176
     1
 40
1.0
176
     1
 90
        0
176
     1
 62
   257
176
     1
 40
1.0
176
     1
 90
        1
176
     1
 90
        6
176
     1
 90
        2
176
     1
 62
     7
176
     1
 90
        5
176
     1
 90
        0
176
     1
 90
        0
176
     1
290
     0
176
     1
 90
       13
176
     1
 40
0.0
176
     1
 90
        0
176
     1
290
     0
176
     1
290
     1
176
     1
290
     1
176
     1
290
     0
176
     1
290
     0
176
     1
290
     0
176
     1
290
     0
176
     1
290
     0
176
     1
290
     0
176
     1
 90
       50
176
     1
 40
0.0
176
     1
 40
1.0
176
     1
 90
        0
176
     1
 62
    18
420
        0
176
     1
 90
       50
176
     1
 90
        3
176
     1
 62
     5
420
      255
176
     1
290
     0
176
     1
 90
       50
176
     1
 90
       50
176
     1
 90
       50
176
     1
290
     0
176
     1
 90
       50
176
     1
 62
   256
176
     0
 40
1.0
176
     0
 90
        2
176
     1
  1
strokes_ogs.tif
176
     1
290
     0
176
     1
 40
1.0
176
     1
 40
1.0
176
     1
  0
VISUALSTYLE
  5
31
102
{ACAD_REACTORS
330
2A
102
}
330
2A
100
AcDbVisualStyle
  2
Hidden
 70
     6
177
     3
291
     0
 70
    58
 90
        1
176
     1
 90
        2
176
     1
 90
        2
176
     1
 90
        0
176
     1
 40
0.6
176
     1
 40
30.0
176
     1
 62
     7
420
 16777215
176
     1
 90
        2
176
     1
 90
        2
176
     1
 62
     7
176
     1
 62
   257
176
     1
 90
        2
176
     1
 90
        1
176
     1
 40
40.0
176
     1
 90
        0
176
     1
 62
   257
176
     1
 40
1.0
176
     1
 90
        1
176
     1
 90
        6
176
     1
 90
        2
176
     1
 62
     7
176
     1
 90
        3
176
     1
 90
        0
176
     1
 90
        0
176
     1
290
     0
176
     1
 90
        1
176
     1
 40
0.0
176
     1
 90
        0
176
     1
290
     0
176
     1
290
     1
176
     1
290
     1
176
     1
290
     0
176
     1
290
     0
176
     1
290
     0
176
     1
290
     0
176
     1
290
     0
176
     1
290
     0
176
     1
 90
       50
176
     1
 40
0.0
176
     1
 40
1.0
176
     1
 90
        0
176
     1
 62
    18
420
        0
176
     1
 90
       50
176
     1
 90
        3
176
     1
 62
     5
420
      255
176
     1
290
     0
176
     1
 90
       50
176
     1
 90
       50
176
     1
 90
       50
176
     1
290
     0
176
     1
 90
       50
176
     1
 62
   256
176
     0
 40
1.0
176
     0
 90
        2
176
     1
  1
strokes_ogs.tif
176
     1
290
     0
176
     1
 40
1.0
176
     1
 40
1.0
176
     1
  0
VISUALSTYLE
  5
3B
102
{ACAD_REACTORS
330
2A
102
}
330
2A
100
AcDbVisualStyle
  2
JitterOff
 70
    20
177
     3
291
     1
 70
    58
 90
        2
176
     0
 90
        2
176
     0
 90
        0
176
     0
 90
        0
176
     0
 40
0.6
176
     0
 40
30.0
176
     0
 62
     7
420
 16777215
176
     0
 90
        1
176
     0
 90
        4
176
     0
 62
     7
176
     0
 62
   257
176
     0
 90
        1
176
     0
 90
        1
176
     0
 40
1.0
176
     0
 90
       10
176
     2
 62
     7
176
     0
 40
1.0
176
     0
 90
        1
176
     0
 90
        6
176
     0
 90
        2
176
     0
 62
     7
176
     0
 90
        5
176
     0
 90
        0
176
     0
 90
        0
176
     0
290
     0
176
     0
 90
        1
176
     0
 40
0.0
176
     0
 90
        0
176
     0
290
     0
176
     0
290
     1
176
     0
290
     1
176
     0
290
     0
176
     0
290
     0
176
     0
290
     0
176
     0
290
     0
176
     0
290
     0
176
     0
290
     0
176
     0
 90
       50
176
     0
 40
0.0
176
     0
 40
1.0
176
     0
 90
        0
176
     0
 62
    18
420
        0
176
     0
 90
       50
176
     0
 90
        3
176
     0
 62
     5
420
      255
176
     0
290
     0
176
     0
 90
       50
176
     0
 90
       50
176
     0
 90
       50
176
     0
290
     0
176
     0
 90
       50
176
     0
 62
   256
176
     0
 40
1.0
176
     0
 90
        2
176
     0
  1
strokes_ogs.tif
176
     0
290
     0
176
     0
 40
1.0
176
     0
 40
1.0
176
     0
  0
VISUALSTYLE
  5
38
102
{ACAD_REACTORS
330
2A
102
}
330
2A
100
AcDbVisualStyle
  2
Linepattern
 70
    14
177
     3
291
     1
 70
    58
 90
        2
176
     1
 90
        2
176
     1
 90
        0
176
     1
 90
        0
176
     1
 40
0.6
176
     1
 40
30.0
176
     1
 62
     7
420
 16777215
176
     1
 90
        1
176
     1
 90
        4
176
     1
 62
     7
176
     1
 62
   257
176
     1
 90
        7
176
     1
 90
        7
176
     1
 40
1.0
176
     1
 90
        8
176
     1
 62
     7
176
     1
 40
1.0
176
     1
 90
        1
176
     1
 90
        6
176
     1
 90
        2
176
     1
 62
     7
176
     1
 90
        5
176
     1
 90
        0
176
     1
 90
        0
176
     1
290
     0
176
     1
 90
        1
176
     1
 40
0.0
176
     1
 90
        0
176
     1
290
     0
176
     1
290
     1
176
     1
290
     1
176
     1
290
     0
176
     1
290
     0
176
     1
290
     0
176
     1
290
     0
176
     1
290
     0
176
     1
290
     0
176
     1
 90
       50
176
     1
 40
0.0
176
     1
 40
1.0
176
     1
 90
        0
176
     1
 62
    18
420
        0
176
     1
 90
       50
176
     1
 90
        3
176
     1
 62
     5
420
      255
176
     1
290
     0
176
     1
 90
       50
176
     1
 90
       50
176
     1
 90
       50
176
     1
290
     0
176
     1
 90
       50
176
     1
 62
   256
176
     0
 40
1.0
176
     0
 90
        2
176
     1
  1
strokes_ogs.tif
176
     1
290
     0
176
     1
 40
1.0
176
     1
 40
1.0
176
     1
  0
VISUALSTYLE
  5
3C
102
{ACAD_REACTORS
330
2A
102
}
330
2A
100
AcDbVisualStyle
  2
OverhangOff
 70
    21
177
     3
291
     1
 70
    58
 90
        2
176
     0
 90
        2
176
     0
 90
        0
176
     0
 90
        0
176
     0
 40
0.6
176
     0
 40
30.0
176
     0
 62
     7
420
 16777215
176
     0
 90
        1
176
     0
 90
        4
176
     0
 62
     7
176
     0
 62
   257
176
     0
 90
        1
176
     0
 90
        1
176
     0
 40
1.0
176
     0
 90
        9
176
     2
 62
     7
176
     0
 40
1.0
176
     0
 90
        1
176
     0
 90
        6
176
     0
 90
        2
176
     0
 62
     7
176
     0
 90
        5
176
     0
 90
        0
176
     0
 90
        0
176
     0
290
     0
176
     0
 90
        1
176
     0
 40
0.0
176
     0
 90
        0
176
     0
290
     0
176
     0
290
     1
176
     0
290
     1
176
     0
290
     0
176
     0
290
     0
176
     0
290
     0
176
     0
290
     0
176
     0
290
     0
176
     0
290
     0
176
     0
 90
       50
176
     0
 40
0.0
176
     0
 40
1.0
176
     0
 90
        0
176
     0
 62
    18
420
        0
176
     0
 90
       50
176
     0
 90
        3
176
     0
 62
     5
420
      255
176
     0
290
     0
176
     0
 90
       50
176
     0
 90
       50
176
     0
 90
       50
176
     0
290
     0
176
     0
 90
       50
176
     0
 62
   256
176
     0
 40
1.0
176
     0
 90
        2
176
     0
  1
strokes_ogs.tif
176
     0
290
     0
176
     0
 40
1.0
176
     0
 40
1.0
176
     0
  0
VISUALSTYLE
  5
33
102
{ACAD_REACTORS
330
2A
102
}
330
2A
100
AcDbVisualStyle
  2
Realistic
 70
     8
177
     3
291
     0
 70
    58
 90
        2
176
     1
 90
        3
176
     1
 90
        0
176
     1
 90
        2
176
     1
 40
0.6
176
     1
 40
30.0
176
     1
 62
     7
420
 16777215
176
     1
 90
        0
176
     1
 90
        0
176
     1
 62
     7
176
     1
 62
   257
176
     1
 90
        1
176
     1
 90
        1
176
     1
 40
1.0
176
     1
 90
        8
176
     1
 62
   257
176
     1
 40
1.0
176
     1
 90
        1
176
     1
 90
        6
176
     1
 90
        2
176
     1
 62
     7
176
     1
 90
        3
176
     1
 90
        0
176
     1
 90
        0
176
     1
290
     0
176
     1
 90
       13
176
     1
 40
0.0
176
     1
 90
        0
176
     1
290
     0
176
     1
290
     1
176
     1
290
     1
176
     1
290
     0
176
     1
290
     0
176
     1
290
     0
176
     1
290
     0
176
     1
290
     0
176
     1
290
     0
176
     1
 90
       50
176
     1
 40
0.0
176
     1
 40
1.0
176
     1
 90
        0
176
     1
 62
    18
420
        0
176
     1
 90
       50
176
     1
 90
        3
176
     1
 62
     5
420
      255
176
     1
290
     0
176
     1
 90
       50
176
     1
 90
       50
176
     1
 90
       50
176
     1
290
     0
176
     1
 90
       50
176
     1
 62
   256
176
     0
 40
1.0
176
     0
 90
        2
176
     1
  1
strokes_ogs.tif
176
     1
290
     0
176
     1
 40
1.0
176
     1
 40
1.0
176
     1
  0
VISUALSTYLE
  5
42
102
{ACAD_REACTORS
330
2A
102
}
330
2A
100
AcDbVisualStyle
  2
Shaded
 70
    27
177
     3
291
     0
 70
    58
 90
        2
176
     1
 90
        2
176
     1
 90
        1
176
     1
 90
        2
176
     1
 40
0.6
176
     1
 40
30.0
176
     1
 62
     7
420
 16777215
176
     1
 90
        0
176
     1
 90
        4
176
     1
 62
     7
176
     1
 62
   257
176
     1
 90
        1
176
     1
 90
        1
176
     1
 40
1.0
176
     1
 90
        8
176
     1
 62
   257
176
     1
 40
1.0
176
     1
 90
        1
176
     1
 90
        6
176
     1
 90
        2
176
     1
 62
     8
420
  7895160
176
     1
 90
        3
176
     1
 90
        0
176
     1
 90
        0
176
     1
290
     0
176
     1
 90
        5
176
     1
 40
0.0
176
     1
 90
        0
176
     1
290
     0
176
     1
290
     1
176
     1
290
     1
176
     1
290
     0
176
     1
290
     0
176
     1
290
     0
176
     1
290
     0
176
     1
290
     0
176
     1
290
     0
176
     1
 90
       50
176
     1
 40
0.0
176
     1
 40
1.0
176
     1
 90
        0
176
     1
 62
    18
420
        0
176
     1
 90
       50
176
     1
 90
        3
176
     1
 62
     5
420
      255
176
     1
290
     0
176
     1
 90
       50
176
     1
 90
       50
176
     1
 90
       50
176
     1
290
     0
176
     1
 90
       50
176
     1
 62
   256
176
     0
 40
1.0
176
     0
 90
        2
176
     1
  1
strokes_ogs.tif
176
     1
290
     0
176
     1
 40
1.0
176
     1
 40
1.0
176
     1
  0
VISUALSTYLE
  5
41
102
{ACAD_REACTORS
330
2A
102
}
330
2A
100
AcDbVisualStyle
  2
Shaded with edges
 70
    26
177
     3
291
     0
 70
    58
 90
        2
176
     1
 90
        2
176
     1
 90
        1
176
     1
 90
        2
176
     1
 40
0.6
176
     1
 40
30.0
176
     1
 62
     7
420
 16777215
176
     1
 90
        1
176
     1
 90
       10
176
     1
 62
     7
176
     1
 62
   257
176
     1
 90
        2
176
     1
 90
        1
176
     1
 40
1.0
176
     1
 90
        8
176
     1
 62
   257
176
     1
 40
1.0
176
     1
 90
        1
176
     1
 90
        6
176
     1
 90
        2
176
     1
 62
     7
176
     1
 90
        3
176
     1
 90
        0
176
     1
 90
        0
176
     1
290
     0
176
     1
 90
        5
176
     1
 40
0.0
176
     1
 90
        0
176
     1
290
     0
176
     1
290
     1
176
     1
290
     1
176
     1
290
     0
176
     1
290
     0
176
     1
290
     0
176
     1
290
     0
176
     1
290
     0
176
     1
290
     0
176
     1
 90
       50
176
     1
 40
0.0
176
     1
 40
1.0
176
     1
 90
        0
176
     1
 62
    18
420
        0
176
     1
 90
       50
176
     1
 90
        3
176
     1
 62
     5
420
      255
176
     1
290
     0
176
     1
 90
       50
176
     1
 90
       50
176
     1
 90
       50
176
     1
290
     0
176
     1
 90
       50
176
     1
 62
   256
176
     0
 40
1.0
176
     0
 90
        2
176
     1
  1
strokes_ogs.tif
176
     1
290
     0
176
     1
 40
1.0
176
     1
 40
1.0
176
     1
  0
VISUALSTYLE
  5
3E
102
{ACAD_REACTORS
330
2A
102
}
330
2A
100
AcDbVisualStyle
  2
Shades of Gray
 70
    23
177
     3
291
     0
 70
    58
 90
        2
176
     1
 90
        2
176
     1
 90
        3
176
     1
 90
        0
176
     1
 40
0.6
176
     1
 40
30.0
176
     1
 62
     7
420
 16777215
176
     1
 90
        2
176
     1
 90
        2
176
     1
 62
     7
176
     1
 62
     7
176
     1
 90
        1
176
     1
 90
        1
176
     1
 40
40.0
176
     1
 90
        8
176
     1
 62
     7
176
     1
 40
1.0
176
     1
 90
        1
176
     1
 90
        6
176
     1
 90
        2
176
     1
 62
     7
176
     1
 90
        3
176
     1
 90
        0
176
     1
 90
        0
176
     1
290
     0
176
     1
 90
        1
176
     1
 40
0.0
176
     1
 90
        0
176
     1
290
     0
176
     1
290
     1
176
     1
290
     1
176
     1
290
     0
176
     1
290
     0
176
     1
290
     0
176
     1
290
     0
176
     1
290
     0
176
     1
290
     0
176
     1
 90
       50
176
     1
 40
0.0
176
     1
 40
1.0
176
     1
 90
        0
176
     1
 62
    18
420
        0
176
     1
 90
       50
176
     1
 90
        3
176
     1
 62
     5
420
      255
176
     1
290
     0
176
     1
 90
       50
176
     1
 90
       50
176
     1
 90
       50
176
     1
290
     0
176
     1
 90
       50
176
     1
 62
   256
176
     0
 40
1.0
176
     0
 90
        2
176
     1
  1
strokes_ogs.tif
176
     1
290
     0
176
     1
 40
1.0
176
     1
 40
1.0
176
     1
  0
VISUALSTYLE
  5
3F
102
{ACAD_REACTORS
330
2A
102
}
330
2A
100
AcDbVisualStyle
  2
Sketchy
 70
    24
177
     3
291
     0
 70
    58
 90
        1
176
     1
 90
        2
176
     1
 90
        2
176
     1
 90
        0
176
     1
 40
0.6
176
     1
 40
30.0
176
     1
 62
     7
420
 16777215
176
     1
 90
        2
176
     1
 90
        2
176
     1
 62
     7
176
     1
 62
     7
176
     1
 90
        1
176
     1
 90
        1
176
     1
 40
40.0
176
     1
 90
       11
176
     1
 62
     7
176
     1
 40
1.0
176
     1
 90
        1
176
     1
 90
        6
176
     1
 90
        2
176
     1
 62
     7
176
     1
 90
        6
176
     1
 90
        0
176
     1
 90
        0
176
     1
290
     0
176
     1
 90
        1
176
     1
 40
0.0
176
     1
 90
        0
176
     1
290
     0
176
     1
290
     1
176
     1
290
     1
176
     1
290
     0
176
     1
290
     0
176
     1
290
     0
176
     1
290
     0
176
     1
290
     0
176
     1
290
     0
176
     1
 90
       50
176
     1
 40
0.0
176
     1
 40
1.0
176
     1
 90
        0
176
     1
 62
    18
420
        0
176
     1
 90
       50
176
     1
 90
        3
176
     1
 62
     5
420
      255
176
     1
290
     0
176
     1
 90
       50
176
     1
 90
       50
176
     1
 90
       50
176
     1
290
     0
176
     1
 90
       50
176
     1
 62
   256
176
     0
 40
1.0
176
     0
 90
        2
176
     1
  1
strokes_ogs.tif
176
     1
290
     0
176
     1
 40
1.0
176
     1
 40
1.0
176
     1
  0
VISUALSTYLE
  5
37
102
{ACAD_REACTORS
330
2A
102
}
330
2A
100
AcDbVisualStyle
  2
Thicken
 70
    13
177
     3
291
     1
 70
    58
 90
        2
176
     1
 90
        2
176
     1
 90
        0
176
     1
 90
        0
176
     1
 40
0.6
176
     1
 40
30.0
176
     1
 62
     7
420
 16777215
176
     1
 90
        1
176
     1
 90
        4
176
     1
 62
     7
176
     1
 62
   257
176
     1
 90
        1
176
     1
 90
        1
176
     1
 40
1.0
176
     1
 90
       12
176
     1
 62
     7
176
     1
 40
1.0
176
     1
 90
        1
176
     1
 90
        6
176
     1
 90
        2
176
     1
 62
     7
176
     1
 90
        5
176
     1
 90
        0
176
     1
 90
        0
176
     1
290
     0
176
     1
 90
        1
176
     1
 40
0.0
176
     1
 90
        0
176
     1
290
     0
176
     1
290
     1
176
     1
290
     1
176
     1
290
     0
176
     1
290
     0
176
     1
290
     0
176
     1
290
     0
176
     1
290
     0
176
     1
290
     0
176
     1
 90
       50
176
     1
 40
0.0
176
     1
 40
1.0
176
     1
 90
        0
176
     1
 62
    18
420
        0
176
     1
 90
       50
176
     1
 90
        3
176
     1
 62
     5
420
      255
176
     1
290
     0
176
     1
 90
       50
176
     1
 90
       50
176
     1
 90
       50
176
     1
290
     0
176
     1
 90
       50
176
     1
 62
   256
176
     0
 40
1.0
176
     0
 90
        2
176
     1
  1
strokes_ogs.tif
176
     1
290
     0
176
     1
 40
1.0
176
     1
 40
1.0
176
     1
  0
VISUALSTYLE
  5
30
102
{ACAD_REACTORS
330
2A
102
}
330
2A
100
AcDbVisualStyle
  2
Wireframe
 70
     5
177
     3
291
     0
 70
    58
 90
        0
176
     1
 90
        2
176
     1
 90
        0
176
     1
 90
        0
176
     1
 40
0.6
176
     1
 40
30.0
176
     1
 62
     7
420
 16777215
176
     1
 90
        1
176
     1
 90
        4
176
     1
 62
     7
176
     1
 62
   257
176
     1
 90
        1
176
     1
 90
        1
176
     1
 40
1.0
176
     1
 90
        0
176
     1
 62
   257
176
     1
 40
1.0
176
     1
 90
        1
176
     1
 90
        6
176
     1
 90
        2
176
     1
 62
     7
176
     1
 90
        3
176
     1
 90
        0
176
     1
 90
        0
176
     1
290
     0
176
     1
 90
        1
176
     1
 40
0.0
176
     1
 90
        0
176
     1
290
     0
176
     1
290
     1
176
     1
290
     1
176
     1
290
     0
176
     1
290
     0
176
     1
290
     0
176
     1
290
     0
176
     1
290
     0
176
     1
290
     0
176
     1
 90
       50
176
     1
 40
0.0
176
     1
 40
1.0
176
     1
 90
        0
176
     1
 62
    18
420
        0
176
     1
 90
       50
176
     1
 90
        3
176
     1
 62
     5
420
      255
176
     1
290
     0
176
     1
 90
       50
176
     1
 90
       50
176
     1
 90
       50
176
     1
290
     0
176
     1
 90
       50
176
     1
 62
   256
176
     0
 40
1.0
176
     0
 90
        2
176
     1
  1
strokes_ogs.tif
176
     1
290
     0
176
     1
 40
1.0
176
     1
 40
1.0
176
     1
  0
VISUALSTYLE
  5
40
102
{ACAD_REACTORS
330
2A
102
}
330
2A
100
AcDbVisualStyle
  2
X-Ray
 70
    25
177
     3
291
     0
 70
    58
 90
        2
176
     1
 90
        2
176
     1
 90
        1
176
     1
 90
        1
176
     1
 40
0.5
176
     1
 40
30.0
176
     1
 62
     7
420
 16777215
176
     1
 90
        1
176
     1
 90
        0
176
     1
 62
     7
176
     1
 62
   257
176
     1
 90
        1
176
     1
 90
        1
176
     1
 40
1.0
176
     1
 90
        8
176
     1
 62
     7
176
     1
 40
1.0
176
     1
 90
        1
176
     1
 90
        6
176
     1
 90
        2
176
     1
 62
     7
176
     1
 90
        3
176
     1
 90
        0
176
     1
 90
        0
176
     1
290
     0
176
     1
 90
       13
176
     1
 40
0.0
176
     1
 90
        0
176
     1
290
     0
176
     1
290
     1
176
     1
290
     1
176
     1
290
     0
176
     1
290
     0
176
     1
290
     0
176
     1
290
     0
176
     1
290
     0
176
     1
290
     0
176
     1
 90
       50
176
     1
 40
0.0
176
     1
 40
1.0
176
     1
 90
        0
176
     1
 62
    18
420
        0
176
     1
 90
       50
176
     1
 90
        3
176
     1
 62
     5
420
      255
176
     1
290
     0
176
     1
 90
       50
176
     1
 90
       50
176
     1
 90
       50
176
     1
290
     0
176
     1
 90
       50
176
     1
 62
   256
176
     0
 40
1.0
176
     0
 90
        2
176
     1
  1
strokes_ogs.tif
176
     1
290
     0
176
     1
 40
1.0
176
     1
 40
1.0
176
     1
  0
DICTIONARYVAR
  5
34D
102
{ACAD_REACTORS
330
34C
102
}
330
34C
100
DictionaryVariables
280
     0
  1
1:1
  0
DICTIONARYVAR
  5
352
102
{ACAD_REACTORS
330
34C
102
}
330
34C
100
DictionaryVariables
280
     0
  1
Standard
  0
DICTIONARYVAR
  5
351
102
{ACAD_REACTORS
330
34C
102
}
330
34C
100
DictionaryVariables
280
     0
  1
Standard
  0
DICTIONARYVAR
  5
355
102
{ACAD_REACTORS
330
34C
102
}
330
34C
100
DictionaryVariables
280
     0
  1
0
  0
DICTIONARY
  5
34E
330
6A
100
AcDbDictionary
280
     1
281
     1
  3
ACAD_ROUNDTRIP_2008_TABLESTYLE_CELLSTYLEMAP
360
34F
  0
CELLSTYLEMAP
  5
34F
102
{ACAD_REACTORS
330
34E
102
}
330
34E
100
AcDbCellStyleMap
 90
        3
300
CELLSTYLE
  1
TABLEFORMAT_BEGIN
 90
        5
170
     1
 91
        0
 92
    32768
 62
   257
 93
        1
300
CONTENTFORMAT
  1
CONTENTFORMAT_BEGIN
 90
        0
 91
        0
 92
        4
 93
        0
300

 40
0.0
140
1.0
 94
        5
 62
     0
340
11
144
0.25
309
CONTENTFORMAT_END
171
     1
301
MARGIN
  1
CELLMARGIN_BEGIN
 40
0.06
 40
0.06
 40
0.06
 40
0.06
 40
0.06
 40
0.06
309
CELLMARGIN_END
 94
        6
 95
        1
302
GRIDFORMAT
  1
GRIDFORMAT_BEGIN
 90
        0
 91
        1
 62
     0
 92
       -2
340
14
 93
        0
 40
0.045
309
GRIDFORMAT_END
 95
        2
302
GRIDFORMAT
  1
GRIDFORMAT_BEGIN
 90
        0
 91
        1
 62
     0
 92
       -2
340
14
 93
        0
 40
0.045
309
GRIDFORMAT_END
 95
        4
302
GRIDFORMAT
  1
GRIDFORMAT_BEGIN
 90
        0
 91
        1
 62
     0
 92
       -2
340
14
 93
        0
 40
0.045
309
GRIDFORMAT_END
 95
        8
302
GRIDFORMAT
  1
GRIDFORMAT_BEGIN
 90
        0
 91
        1
 62
     0
 92
       -2
340
14
 93
        0
 40
0.045
309
GRIDFORMAT_END
 95
       16
302
GRIDFORMAT
  1
GRIDFORMAT_BEGIN
 90
        0
 91
        1
 62
     0
 92
       -2
340
14
 93
        0
 40
0.045
309
GRIDFORMAT_END
 95
       32
302
GRIDFORMAT
  1
GRIDFORMAT_BEGIN
 90
        0
 91
        1
 62
     0
 92
       -2
340
14
 93
        0
 40
0.045
309
GRIDFORMAT_END
309
TABLEFORMAT_END
  1
CELLSTYLE_BEGIN
 90
        1
 91
        1
300
_TITLE
309
CELLSTYLE_END
300
CELLSTYLE
  1
TABLEFORMAT_BEGIN
 90
        5
170
     1
 91
        0
 92
        0
 62
   257
 93
        1
300
CONTENTFORMAT
  1
CONTENTFORMAT_BEGIN
 90
        0
 91
        0
 92
        4
 93
        0
300

 40
0.0
140
1.0
 94
        5
 62
     0
340
11
144
0.18
309
CONTENTFORMAT_END
171
     1
301
MARGIN
  1
CELLMARGIN_BEGIN
 40
0.06
 40
0.06
 40
0.06
 40
0.06
 40
0.06
 40
0.06
309
CELLMARGIN_END
 94
        6
 95
        1
302
GRIDFORMAT
  1
GRIDFORMAT_BEGIN
 90
        0
 91
        1
 62
     0
 92
       -2
340
14
 93
        0
 40
0.045
309
GRIDFORMAT_END
 95
        2
302
GRIDFORMAT
  1
GRIDFORMAT_BEGIN
 90
        0
 91
        1
 62
     0
 92
       -2
340
14
 93
        0
 40
0.045
309
GRIDFORMAT_END
 95
        4
302
GRIDFORMAT
  1
GRIDFORMAT_BEGIN
 90
        0
 91
        1
 62
     0
 92
       -2
340
14
 93
        0
 40
0.045
309
GRIDFORMAT_END
 95
        8
302
GRIDFORMAT
  1
GRIDFORMAT_BEGIN
 90
        0
 91
        1
 62
     0
 92
       -2
340
14
 93
        0
 40
0.045
309
GRIDFORMAT_END
 95
       16
302
GRIDFORMAT
  1
GRIDFORMAT_BEGIN
 90
        0
 91
        1
 62
     0
 92
       -2
340
14
 93
        0
 40
0.045
309
GRIDFORMAT_END
 95
       32
302
GRIDFORMAT
  1
GRIDFORMAT_BEGIN
 90
        0
 91
        1
 62
     0
 92
       -2
340
14
 93
        0
 40
0.045
309
GRIDFORMAT_END
309
TABLEFORMAT_END
  1
CELLSTYLE_BEGIN
 90
        2
 91
        1
300
_HEADER
309
CELLSTYLE_END
300
CELLSTYLE
  1
TABLEFORMAT_BEGIN
 90
        5
170
     1
 91
        0
 92
        0
 62
   257
 93
        1
300
CONTENTFORMAT
  1
CONTENTFORMAT_BEGIN
 90
        0
 91
        0
 92
        4
 93
        0
300

 40
0.0
140
1.0
 94
        2
 62
     0
340
11
144
0.18
309
CONTENTFORMAT_END
171
     1
301
MARGIN
  1
CELLMARGIN_BEGIN
 40
0.06
 40
0.06
 40
0.06
 40
0.06
 40
0.06
 40
0.06
309
CELLMARGIN_END
 94
        6
 95
        1
302
GRIDFORMAT
  1
GRIDFORMAT_BEGIN
 90
        0
 91
        1
 62
     0
 92
       -2
340
14
 93
        0
 40
0.045
309
GRIDFORMAT_END
 95
        2
302
GRIDFORMAT
  1
GRIDFORMAT_BEGIN
 90
        0
 91
        1
 62
     0
 92
       -2
340
14
 93
        0
 40
0.045
309
GRIDFORMAT_END
 95
        4
302
GRIDFORMAT
  1
GRIDFORMAT_BEGIN
 90
        0
 91
        1
 62
     0
 92
       -2
340
14
 93
        0
 40
0.045
309
GRIDFORMAT_END
 95
        8
302
GRIDFORMAT
  1
GRIDFORMAT_BEGIN
 90
        0
 91
        1
 62
     0
 92
       -2
340
14
 93
        0
 40
0.045
309
GRIDFORMAT_END
 95
       16
302
GRIDFORMAT
  1
GRIDFORMAT_BEGIN
 90
        0
 91
        1
 62
     0
 92
       -2
340
14
 93
        0
 40
0.045
309
GRIDFORMAT_END
 95
       32
302
GRIDFORMAT
  1
GRIDFORMAT_BEGIN
 90
        0
 91
        1
 62
     0
 92
       -2
340
14
 93
        0
 40
0.045
309
GRIDFORMAT_END
309
TABLEFORMAT_END
  1
CELLSTYLE_BEGIN
 90
        3
 91
        2
300
_DATA
309
CELLSTYLE_END
  0
ENDSEC
  0
EOF
