  0
SECTION
  2
HEADER
  9
$ACADVER
  1
AC1027
  9
$ACADMAINTVER
 70
   105
  9
$DWGCODEPAGE
  3
ANSI_1252
  9
$REQUIREDVERSIONS
160
                 0
  9
$INSBASE
 10
0.0
 20
0.0
 30
0.0
  9
$EXTMIN
 10
13360.75085774393
 20
-2065.411491229439
 30
0.0
  9
$EXTMAX
 10
14345.75085774394
 20
-710.4114912294353
 30
2500.0
  9
$LIMMIN
 10
0.0
 20
0.0
  9
$LIMMAX
 10
12.0
 20
9.0
  9
$ORTHOMODE
 70
     0
  9
$REGENMODE
 70
     1
  9
$FILLMODE
 70
     1
  9
$QTEXTMODE
 70
     0
  9
$MIRRTEXT
 70
     1
  9
$LTSCALE
 40
5.0
  9
$ATTMODE
 70
     1
  9
$TEXTSIZE
 40
0.2
  9
$TRACEWID
 40
0.05
  9
$TEXTSTYLE
  7
Standard
  9
$CLAYER
  8
0
  9
$CELTYPE
  6
ByLayer
  9
$CECOLOR
 62
   256
  9
$CELTSCALE
 40
1.0
  9
$DISPSILH
 70
     0
  9
$DIMSCALE
 40
1.0
  9
$DIMASZ
 40
0.18
  9
$DIMEXO
 40
0.0625
  9
$DIMDLI
 40
0.38
  9
$DIMRND
 40
0.0
  9
$DIMDLE
 40
0.0
  9
$DIMEXE
 40
0.18
  9
$DIMTP
 40
0.0
  9
$DIMTM
 40
0.0
  9
$DIMTXT
 40
0.18
  9
$DIMCEN
 40
0.09
  9
$DIMTSZ
 40
0.0
  9
$DIMTOL
 70
     0
  9
$DIMLIM
 70
     0
  9
$DIMTIH
 70
     1
  9
$DIMTOH
 70
     1
  9
$DIMSE1
 70
     0
  9
$DIMSE2
 70
     0
  9
$DIMTAD
 70
     0
  9
$DIMZIN
 70
     0
  9
$DIMBLK
  1

  9
$DIMASO
 70
     1
  9
$DIMSHO
 70
     1
  9
$DIMPOST
  1

  9
$DIMAPOST
  1

  9
$DIMALT
 70
     0
  9
$DIMALTD
 70
     2
  9
$DIMALTF
 40
25.4
  9
$DIMLFAC
 40
1.0
  9
$DIMTOFL
 70
     1
  9
$DIMTVP
 40
0.0
  9
$DIMTIX
 70
     0
  9
$DIMSOXD
 70
     1
  9
$DIMSAH
 70
     0
  9
$DIMBLK1
  1

  9
$DIMBLK2
  1

  9
$DIMSTYLE
  2
Standard
  9
$DIMCLRD
 70
     0
  9
$DIMCLRE
 70
     0
  9
$DIMCLRT
 70
     0
  9
$DIMTFAC
 40
1.0
  9
$DIMGAP
 40
0.09
  9
$DIMJUST
 70
     0
  9
$DIMSD1
 70
     0
  9
$DIMSD2
 70
     0
  9
$DIMTOLJ
 70
     1
  9
$DIMTZIN
 70
     0
  9
$DIMALTZ
 70
     0
  9
$DIMALTTZ
 70
     0
  9
$DIMUPT
 70
     0
  9
$DIMDEC
 70
     4
  9
$DIMTDEC
 70
     4
  9
$DIMALTU
 70
     2
  9
$DIMALTTD
 70
     2
  9
$DIMTXSTY
  7
Standard
  9
$DIMAUNIT
 70
     0
  9
$DIMADEC
 70
     0
  9
$DIMALTRND
 40
0.0
  9
$DIMAZIN
 70
     0
  9
$DIMDSEP
 70
    46
  9
$DIMATFIT
 70
     3
  9
$DIMFRAC
 70
     0
  9
$DIMLDRBLK
  1

  9
$DIMLUNIT
 70
     2
  9
$DIMLWD
 70
    -2
  9
$DIMLWE
 70
    -2
  9
$DIMTMOVE
 70
     2
  9
$DIMFXL
 40
1.0
  9
$DIMFXLON
 70
     0
  9
$DIMJOGANG
 40
0.7853981633974483
  9
$DIMTFILL
 70
     0
  9
$DIMTFILLCLR
 70
     0
  9
$DIMARCSYM
 70
     0
  9
$DIMLTYPE
  6

  9
$DIMLTEX1
  6

  9
$DIMLTEX2
  6

  9
$DIMTXTDIRECTION
 70
     0
  9
$LUNITS
 70
     2
  9
$LUPREC
 70
     4
  9
$SKETCHINC
 40
0.1
  9
$FILLETRAD
 40
0.5
  9
$AUNITS
 70
     0
  9
$AUPREC
 70
     0
  9
$MENU
  1
.
  9
$ELEVATION
 40
0.0
  9
$PELEVATION
 40
0.0
  9
$THICKNESS
 40
0.0
  9
$LIMCHECK
 70
     0
  9
$CHAMFERA
 40
0.0
  9
$CHAMFERB
 40
0.0
  9
$CHAMFERC
 40
0.0
  9
$CHAMFERD
 40
0.0
  9
$SKPOLY
 70
     0
  9
$TDCREATE
 40
2459195.439942026
  9
$TDUCREATE
 40
2459195.398275359
  9
$TDUPDATE
 40
2459195.439971991
  9
$TDUUPDATE
 40
2459195.398305324
  9
$TDINDWG
 40
0.0000000116
  9
$TDUSRTIMER
 40
0.0000000116
  9
$USRTIMER
 70
     1
  9
$ANGBASE
 50
0.0
  9
$ANGDIR
 70
     0
  9
$PDMODE
 70
     0
  9
$PDSIZE
 40
0.0
  9
$PLINEWID
 40
0.0
  9
$SPLFRAME
 70
     0
  9
$SPLINETYPE
 70
     6
  9
$SPLINESEGS
 70
     8
  9
$HANDSEED
  5
49C
  9
$SURFTAB1
 70
     6
  9
$SURFTAB2
 70
     6
  9
$SURFTYPE
 70
     6
  9
$SURFU
 70
     6
  9
$SURFV
 70
     6
  9
$UCSBASE
  2

  9
$UCSNAME
  2

  9
$UCSORG
 10
0.0
 20
0.0
 30
0.0
  9
$UCSXDIR
 10
1.0
 20
0.0
 30
0.0
  9
$UCSYDIR
 10
0.0
 20
1.0
 30
0.0
  9
$UCSORTHOREF
  2

  9
$UCSORTHOVIEW
 70
     0
  9
$UCSORGTOP
 10
0.0
 20
0.0
 30
0.0
  9
$UCSORGBOTTOM
 10
0.0
 20
0.0
 30
0.0
  9
$UCSORGLEFT
 10
0.0
 20
0.0
 30
0.0
  9
$UCSORGRIGHT
 10
0.0
 20
0.0
 30
0.0
  9
$UCSORGFRONT
 10
0.0
 20
0.0
 30
0.0
  9
$UCSORGBACK
 10
0.0
 20
0.0
 30
0.0
  9
$PUCSBASE
  2

  9
$PUCSNAME
  2

  9
$PUCSORG
 10
0.0
 20
0.0
 30
0.0
  9
$PUCSXDIR
 10
1.0
 20
0.0
 30
0.0
  9
$PUCSYDIR
 10
0.0
 20
1.0
 30
0.0
  9
$PUCSORTHOREF
  2

  9
$PUCSORTHOVIEW
 70
     0
  9
$PUCSORGTOP
 10
0.0
 20
0.0
 30
0.0
  9
$PUCSORGBOTTOM
 10
0.0
 20
0.0
 30
0.0
  9
$PUCSORGLEFT
 10
0.0
 20
0.0
 30
0.0
  9
$PUCSORGRIGHT
 10
0.0
 20
0.0
 30
0.0
  9
$PUCSORGFRONT
 10
0.0
 20
0.0
 30
0.0
  9
$PUCSORGBACK
 10
0.0
 20
0.0
 30
0.0
  9
$USERI1
 70
     0
  9
$USERI2
 70
     0
  9
$USERI3
 70
     0
  9
$USERI4
 70
     0
  9
$USERI5
 70
     0
  9
$USERR1
 40
0.0
  9
$USERR2
 40
0.0
  9
$USERR3
 40
0.0
  9
$USERR4
 40
0.0
  9
$USERR5
 40
0.0
  9
$WORLDVIEW
 70
     1
  9
$SHADEDGE
 70
     3
  9
$SHADEDIF
 70
    70
  9
$TILEMODE
 70
     1
  9
$MAXACTVP
 70
    64
  9
$PINSBASE
 10
0.0
 20
0.0
 30
0.0
  9
$PLIMCHECK
 70
     0
  9
$PEXTMIN
 10
0.0
 20
0.0
 30
0.0
  9
$PEXTMAX
 10
197.6
 20
271.6000000000008
 30
0.0
  9
$PLIMMIN
 10
-20.0
 20
-7.5
  9
$PLIMMAX
 10
277.0
 20
202.5
  9
$UNITMODE
 70
     0
  9
$VISRETAIN
 70
     1
  9
$PLINEGEN
 70
     0
  9
$PSLTSCALE
 70
     0
  9
$TREEDEPTH
 70
  3020
  9
$CMLSTYLE
  2
Standard
  9
$CMLJUST
 70
     0
  9
$CMLSCALE
 40
1.0
  9
$PROXYGRAPHICS
 70
     1
  9
$MEASUREMENT
 70
     1
  9
$CELWEIGHT
370
    -1
  9
$ENDCAPS
280
     0
  9
$JOINSTYLE
280
     0
  9
$LWDISPLAY
290
     0
  9
$INSUNITS
 70
     4
  9
$HYPERLINKBASE
  1

  9
$STYLESHEET
  1

  9
$XEDIT
290
     1
  9
$CEPSNTYPE
380
     0
  9
$PSTYLEMODE
290
     0
  9
$FINGERPRINTGUID
  2
{BCCB0E91-EB70-4DF9-A8C7-3E6811EF81AB}
  9
$VERSIONGUID
  2
{FAEB1C32-E019-11D5-929B-00C0DF256EC4}
  9
$EXTNAMES
290
     1
  9
$PSVPSCALE
 40
0.0
  9
$OLESTARTUP
290
     0
  9
$SORTENTS
280
   127
  9
$INDEXCTL
280
     0
  9
$HIDETEXT
280
     1
  9
$XCLIPFRAME
280
     2
  9
$HALOGAP
280
     0
  9
$OBSCOLOR
 70
   257
  9
$OBSLTYPE
280
     0
  9
$INTERSECTIONDISPLAY
280
     0
  9
$INTERSECTIONCOLOR
 70
   257
  9
$DIMASSOC
280
     2
  9
$PROJECTNAME
  1

  9
$CAMERADISPLAY
290
     0
  9
$LENSLENGTH
 40
50.0
  9
$CAMERAHEIGHT
 40
0.0
  9
$STEPSPERSEC
 40
2.0
  9
$STEPSIZE
 40
6.0
  9
$3DDWFPREC
 40
2.0
  9
$PSOLWIDTH
 40
0.25
  9
$PSOLHEIGHT
 40
4.0
  9
$LOFTANG1
 40
1.570796326794897
  9
$LOFTANG2
 40
1.570796326794897
  9
$LOFTMAG1
 40
0.0
  9
$LOFTMAG2
 40
0.0
  9
$LOFTPARAM
 70
     7
  9
$LOFTNORMALS
280
     1
  9
$LATITUDE
 40
37.795
  9
$LONGITUDE
 40
-122.394
  9
$NORTHDIRECTION
 40
0.0
  9
$TIMEZONE
 70
 -8000
  9
$LIGHTGLYPHDISPLAY
280
     1
  9
$TILEMODELIGHTSYNCH
280
     1
  9
$CMATERIAL
347
44
  9
$SOLIDHIST
280
     0
  9
$SHOWHIST
280
     1
  9
$DWFFRAME
280
     2
  9
$DGNFRAME
280
     2
  9
$REALWORLDSCALE
290
     1
  9
$INTERFERECOLOR
 62
   256
  9
$CSHADOW
280
     0
  9
$SHADOWPLANELOCATION
 40
0.0
  0
ENDSEC
  0
SECTION
  2
CLASSES
  0
CLASS
  1
ACDBDICTIONARYWDFLT
  2
AcDbDictionaryWithDefault
  3
ObjectDBX Classes
 90
        0
 91
        3
280
     0
281
     0
  0
CLASS
  1
VISUALSTYLE
  2
AcDbVisualStyle
  3
ObjectDBX Classes
 90
     4095
 91
        3
280
     0
281
     0
  0
CLASS
  1
MATERIAL
  2
AcDbMaterial
  3
ObjectDBX Classes
 90
     1153
 91
        3
280
     0
281
     0
  0
CLASS
  1
SCALE
  2
AcDbScale
  3
ObjectDBX Classes
 90
     1153
 91
        3
280
     0
281
     0
  0
CLASS
  1
TABLESTYLE
  2
AcDbTableStyle
  3
ObjectDBX Classes
 90
     4095
 91
        3
280
     0
281
     0
  0
CLASS
  1
MLEADERSTYLE
  2
AcDbMLeaderStyle
  3
ACDB_MLEADERSTYLE_CLASS
 90
     4095
 91
        3
280
     0
281
     0
  0
CLASS
  1
SUN
  2
AcDbSun
  3
SCENEOE
 90
     1153
 91
        3
280
     0
281
     0
  0
CLASS
  1
RASTERVARIABLES
  2
AcDbRasterVariables
  3
ISM
 90
        0
 91
        3
280
     0
281
     0
  0
CLASS
  1
PLOTSETTINGS
  2
AcDbPlotSettings
  3
ObjectDBX Classes
 90
        0
 91
        3
280
     0
281
     0
  0
CLASS
  1
IMAGEDEF
  2
AcDbRasterImageDef
  3
ISM
 90
        0
 91
        3
280
     0
281
     0
  0
CLASS
  1
IMAGE
  2
AcDbRasterImage
  3
ISM
 90
      127
 91
        4
280
     0
281
     1
  0
CLASS
  1
IMAGEDEF_REACTOR
  2
AcDbRasterImageDefReactor
  3
ISM
 90
        1
 91
        3
280
     0
281
     0
  0
CLASS
  1
DICTIONARYVAR
  2
AcDbDictionaryVar
  3
ObjectDBX Classes
 90
        0
 91
        3
280
     0
281
     0
  0
CLASS
  1
CELLSTYLEMAP
  2
AcDbCellStyleMap
  3
ObjectDBX Classes
 90
     1152
 91
        3
280
     0
281
     0
  0
ENDSEC
  0
SECTION
  2
TABLES
  0
TABLE
  2
VPORT
  5
8
330
0
100
AcDbSymbolTable
 70
     1
  0
VPORT
  5
29
330
8
100
AcDbSymbolTableRecord
100
AcDbViewportTableRecord
  2
*Active
 70
     0
 10
0.0
 20
0.0
 11
1.0
 21
1.0
 12
10.42990654205607
 22
4.5
 13
0.0
 23
0.0
 14
0.5
 24
0.5
 15
0.5
 25
0.5
 16
0.0
 26
0.0
 36
1.0
 17
0.0
 27
0.0
 37
0.0
 40
9.0
 41
1.972972972850329
 42
50.0
 43
0.0
 44
0.0
 50
0.0
 51
0.0
 71
     0
 72
   100
 73
     1
 74
     3
 75
     0
 76
     0
 77
     0
 78
     0
281
     0
 65
     1
110
0.0
120
0.0
130
0.0
111
1.0
121
0.0
131
0.0
112
0.0
122
1.0
132
0.0
 79
     0
146
0.0
348
2F
 60
     3
 61
     5
292
     1
282
     1
141
0.0
142
0.0
 63
   250
361
6D
  0
ENDTAB
  0
TABLE
  2
LTYPE
  5
5
330
0
100
AcDbSymbolTable
 70
     4
  0
LTYPE
  5
14
330
5
100
AcDbSymbolTableRecord
100
AcDbLinetypeTableRecord
  2
ByBlock
 70
     0
  3

 72
    65
 73
     0
 40
0.0
  0
LTYPE
  5
15
330
5
100
AcDbSymbolTableRecord
100
AcDbLinetypeTableRecord
  2
ByLayer
 70
     0
  3

 72
    65
 73
     0
 40
0.0
  0
LTYPE
  5
16
330
5
100
AcDbSymbolTableRecord
100
AcDbLinetypeTableRecord
  2
Continuous
 70
     0
  3
Solid line
 72
    65
 73
     0
 40
0.0
  0
LTYPE
  5
192
330
5
100
AcDbSymbolTableRecord
100
AcDbLinetypeTableRecord
  2
CADWORK_3
 70
     0
  3

 72
    65
 73
     2
 40
4.0
 49
2.0
 74
     0
 49
-2.0
 74
     0
  0
LTYPE
  5
252
330
5
100
AcDbSymbolTableRecord
100
AcDbLinetypeTableRecord
  2
CADWORK_6
 70
     0
  3

 72
    65
 73
     4
 40
14.0
 49
8.75
 74
     0
 49
-1.75
 74
     0
 49
1.75
 74
     0
 49
-1.75
 74
     0
  0
LTYPE
  5
3CC
330
5
100
AcDbSymbolTableRecord
100
AcDbLinetypeTableRecord
  2
CADWORK_12
 70
     0
  3

 72
    65
 73
     2
 40
3.75
 49
2.5
 74
     0
 49
-1.25
 74
     0
  0
ENDTAB
  0
TABLE
  2
LAYER
  5
2
330
0
100
AcDbSymbolTable
 70
    34
  0
LAYER
  5
10
330
2
100
AcDbSymbolTableRecord
100
AcDbLayerTableRecord
  2
0
 70
     0
 62
     7
  6
Continuous
370
    -3
390
F
347
46
348
0
  0
LAYER
  5
70
330
2
100
AcDbSymbolTableRecord
100
AcDbLayerTableRecord
  2
Standard
 70
     0
 62
     7
  6
Continuous
370
    -3
390
F
347
46
348
0
  0
LAYER
  5
71
330
2
100
AcDbSymbolTableRecord
100
AcDbLayerTableRecord
  2
Ech.1_1
 70
     0
 62
     7
  6
Continuous
370
    -3
390
F
347
46
348
0
  0
LAYER
  5
72
330
2
100
AcDbSymbolTableRecord
100
AcDbLayerTableRecord
  2
Ech.1_2
 70
     0
 62
     7
  6
Continuous
370
    -3
390
F
347
46
348
0
  0
LAYER
  5
73
330
2
100
AcDbSymbolTableRecord
100
AcDbLayerTableRecord
  2
Ech.1_5
 70
     0
 62
     7
  6
Continuous
370
    -3
390
F
347
46
348
0
  0
LAYER
  5
74
330
2
100
AcDbSymbolTableRecord
100
AcDbLayerTableRecord
  2
Ech.1_10
 70
     0
 62
     7
  6
Continuous
370
    -3
390
F
347
46
348
0
  0
LAYER
  5
75
330
2
100
AcDbSymbolTableRecord
100
AcDbLayerTableRecord
  2
Ech.1_20
 70
     0
 62
     7
  6
Continuous
370
    -3
390
F
347
46
348
0
  0
LAYER
  5
76
330
2
100
AcDbSymbolTableRecord
100
AcDbLayerTableRecord
  2
Ech.1_25
 70
     0
 62
     7
  6
Continuous
370
    -3
390
F
347
46
348
0
  0
LAYER
  5
77
330
2
100
AcDbSymbolTableRecord
100
AcDbLayerTableRecord
  2
Ech.1_33
 70
     0
 62
     7
  6
Continuous
370
    -3
390
F
347
46
348
0
  0
LAYER
  5
78
330
2
100
AcDbSymbolTableRecord
100
AcDbLayerTableRecord
  2
Ech.1_50
 70
     0
 62
     7
  6
Continuous
370
    -3
390
F
347
46
348
0
  0
LAYER
  5
79
330
2
100
AcDbSymbolTableRecord
100
AcDbLayerTableRecord
  2
Ech.1_75
 70
     0
 62
     7
  6
Continuous
370
    -3
390
F
347
46
348
0
  0
LAYER
  5
7A
330
2
100
AcDbSymbolTableRecord
100
AcDbLayerTableRecord
  2
Ech.1_100
 70
     0
 62
     7
  6
Continuous
370
    -3
390
F
347
46
348
0
  0
LAYER
  5
7B
330
2
100
AcDbSymbolTableRecord
100
AcDbLayerTableRecord
  2
Ech.1_200
 70
     0
 62
     7
  6
Continuous
370
    -3
390
F
347
46
348
0
  0
LAYER
  5
7C
330
2
100
AcDbSymbolTableRecord
100
AcDbLayerTableRecord
  2
Ech.1_500
 70
     0
 62
     7
  6
Continuous
370
    -3
390
F
347
46
348
0
  0
LAYER
  5
7D
330
2
100
AcDbSymbolTableRecord
100
AcDbLayerTableRecord
  2
Ech.1_1000
 70
     0
 62
     7
  6
Continuous
370
    -3
390
F
347
46
348
0
  0
LAYER
  5
7E
330
2
100
AcDbSymbolTableRecord
100
AcDbLayerTableRecord
  2
Cadres traceur
 70
     0
 62
     7
  6
Continuous
370
    -3
390
F
347
46
348
0
  0
LAYER
  5
7F
330
2
100
AcDbSymbolTableRecord
100
AcDbLayerTableRecord
  2
Cadres laser
 70
     0
 62
     7
  6
Continuous
370
    -3
390
F
347
46
348
0
  0
LAYER
  5
80
330
2
100
AcDbSymbolTableRecord
100
AcDbLayerTableRecord
  2
Légende d_aide
 70
     0
 62
     7
  6
Continuous
370
    -3
390
F
347
46
348
0
  0
LAYER
  5
81
330
2
100
AcDbSymbolTableRecord
100
AcDbLayerTableRecord
  2
hachures ok
 70
     0
 62
     7
  6
Continuous
370
    -3
390
F
347
46
348
0
  0
LAYER
  5
82
330
2
100
AcDbSymbolTableRecord
100
AcDbLayerTableRecord
  2
ossature bois
 70
     0
 62
     7
  6
Continuous
370
    -3
390
F
347
46
348
0
  0
LAYER
  5
83
330
2
100
AcDbSymbolTableRecord
100
AcDbLayerTableRecord
  2
VR
 70
     0
 62
     7
  6
Continuous
370
    -3
390
F
347
46
348
0
  0
LAYER
  5
84
330
2
100
AcDbSymbolTableRecord
100
AcDbLayerTableRecord
  2
Calque1
 70
     0
 62
     7
  6
Continuous
370
    -3
390
F
347
46
348
0
  0
LAYER
  5
85
330
2
100
AcDbSymbolTableRecord
100
AcDbLayerTableRecord
  2
0_
 70
     0
 62
     7
  6
Continuous
370
    -3
390
F
347
46
348
0
  0
LAYER
  5
86
330
2
100
AcDbSymbolTableRecord
100
AcDbLayerTableRecord
  2
menuiserie
 70
     0
 62
     7
  6
Continuous
370
    -3
390
F
347
46
348
0
  0
LAYER
  5
87
330
2
100
AcDbSymbolTableRecord
100
AcDbLayerTableRecord
  2
cotation
 70
     0
 62
   250
  6
Continuous
370
    -3
390
F
347
46
348
0
  0
LAYER
  5
88
330
2
100
AcDbSymbolTableRecord
100
AcDbLayerTableRecord
  2
Defpoints
 70
     0
 62
    10
  6
Continuous
290
     0
370
    -3
390
F
347
46
348
0
  0
LAYER
  5
89
330
2
100
AcDbSymbolTableRecord
100
AcDbLayerTableRecord
  2
HACHURE
 70
     0
 62
   254
  6
Continuous
370
    -3
390
F
347
46
348
0
  0
LAYER
  5
8A
330
2
100
AcDbSymbolTableRecord
100
AcDbLayerTableRecord
  2
mat1
 70
     0
 62
     7
  6
Continuous
370
    -3
390
F
347
46
348
0
  0
LAYER
  5
8B
330
2
100
AcDbSymbolTableRecord
100
AcDbLayerTableRecord
  2
mat2
 70
     0
 62
     7
  6
Continuous
370
    -3
390
F
347
46
348
0
  0
LAYER
  5
8C
330
2
100
AcDbSymbolTableRecord
100
AcDbLayerTableRecord
  2
hach
 70
     0
 62
     8
  6
Continuous
370
    -3
390
F
347
46
348
0
  0
LAYER
  5
8D
330
2
100
AcDbSymbolTableRecord
100
AcDbLayerTableRecord
  2
menuiseries
 70
     0
 62
     7
  6
Continuous
370
    -3
390
F
347
46
348
0
  0
LAYER
  5
8E
330
2
100
AcDbSymbolTableRecord
100
AcDbLayerTableRecord
  2
BétonMétal
 70
     0
 62
     7
  6
Continuous
370
    -3
390
F
347
46
348
0
  0
LAYER
  5
8F
330
2
100
AcDbSymbolTableRecord
100
AcDbLayerTableRecord
  2
bois
 70
     0
 62
     7
  6
Continuous
370
    -3
390
F
347
46
348
0
  0
LAYER
  5
90
330
2
100
AcDbSymbolTableRecord
100
AcDbLayerTableRecord
  2
mat3
 70
     0
 62
     7
  6
Continuous
370
    -3
390
F
347
46
348
0
  0
ENDTAB
  0
TABLE
  2
STYLE
  5
3
330
0
100
AcDbSymbolTable
 70
    10
  0
STYLE
  5
11
330
3
100
AcDbSymbolTableRecord
100
AcDbTextStyleTableRecord
  2
Standard
 70
     0
 40
0.0
 41
1.0
 50
0.0
 71
     0
 42
0.2
  3
txt
  4

  0
STYLE
  5
91
330
3
100
AcDbSymbolTableRecord
100
AcDbTextStyleTableRecord
  2
CwStyleShx
 70
     0
 40
1.0
 41
1.0
 50
0.0
 71
     0
 42
0.2
  3

  4

  0
STYLE
  5
92
330
3
100
AcDbSymbolTableRecord
100
AcDbTextStyleTableRecord
  2
CwStyleShx16
 70
     0
 40
1.0
 41
1.0
 50
0.0
 71
     0
 42
0.2
  3

  4

  0
STYLE
  5
93
330
3
100
AcDbSymbolTableRecord
100
AcDbTextStyleTableRecord
  2
MONOTXT
 70
     0
 40
0.0
 41
1.0
 50
0.0
 71
     0
 42
0.2
  3
MONOTXT
  4

  0
STYLE
  5
94
330
3
100
AcDbSymbolTableRecord
100
AcDbTextStyleTableRecord
  2
SYMAP
 70
     0
 40
1.0
 41
1.0
 50
0.0
 71
     0
 42
0.2
  3
SYMAP
  4

  0
STYLE
  5
95
330
3
100
AcDbSymbolTableRecord
100
AcDbTextStyleTableRecord
  2
CwStyleTtf
 70
     0
 40
1.0
 41
1.0
 50
0.0
 71
     0
 42
0.2
  3
arial.ttf
  4

  0
STYLE
  5
456
330
3
100
AcDbSymbolTableRecord
100
AcDbTextStyleTableRecord
  2
arial-z
 70
     0
 40
0.0
 41
1.0
 50
0.0
 71
     0
 42
0.2
  3
arial.ttf
  4

1001
ACAD
1000
Arial
1071
        0
  0
STYLE
  5
473
330
3
100
AcDbSymbolTableRecord
100
AcDbTextStyleTableRecord
  2
arial-
 70
     0
 40
1.0
 41
1.0
 50
0.0
 71
     0
 42
0.2
  3

  4

1001
ACAD
1000
Arial
1071
        0
  0
STYLE
  5
476
330
3
100
AcDbSymbolTableRecord
100
AcDbTextStyleTableRecord
  2
arial-b
 70
     0
 40
1.0
 41
1.0
 50
0.0
 71
     0
 42
0.2
  3
arialbd.ttf
  4

1001
ACAD
1000
Arial
1071
 33554432
  0
STYLE
  5
478
330
3
100
AcDbSymbolTableRecord
100
AcDbTextStyleTableRecord
  2
tahoma-b
 70
     0
 40
1.0
 41
1.0
 50
0.0
 71
     0
 42
0.2
  3
tahomabd.ttf
  4

1001
ACAD
1000
Tahoma
1071
 33554432
  0
ENDTAB
  0
TABLE
  2
VIEW
  5
6
330
0
100
AcDbSymbolTable
 70
     0
  0
ENDTAB
  0
TABLE
  2
UCS
  5
7
330
0
100
AcDbSymbolTable
 70
     0
  0
ENDTAB
  0
TABLE
  2
APPID
  5
9
330
0
100
AcDbSymbolTable
 70
     3
  0
APPID
  5
12
330
9
100
AcDbSymbolTableRecord
100
AcDbRegAppTableRecord
  2
ACAD
 70
     0
  0
APPID
  5
6E
330
9
100
AcDbSymbolTableRecord
100
AcDbRegAppTableRecord
  2
Cadwork
 70
     0
  0
APPID
  5
242
330
9
100
AcDbSymbolTableRecord
100
AcDbRegAppTableRecord
  2
PLOTTRANSPARENCY
 70
     0
  0
ENDTAB
  0
TABLE
  2
DIMSTYLE
  5
A
330
0
100
AcDbSymbolTable
 70
     1
100
AcDbDimStyleTable
  0
DIMSTYLE
105
27
102
{ACAD_REACTORS
330
457
102
}
330
A
100
AcDbSymbolTableRecord
100
AcDbDimStyleTableRecord
  2
Standard
 70
     0
178
     0
340
11
  0
ENDTAB
  0
TABLE
  2
BLOCK_RECORD
  5
1
330
0
100
AcDbSymbolTable
 70
    70
  0
BLOCK_RECORD
  5
1F
330
1
100
AcDbSymbolTableRecord
100
AcDbBlockTableRecord
  2
*Model_Space
340
22
 70
     0
280
     1
281
     0
  0
BLOCK_RECORD
  5
23D
330
1
100
AcDbSymbolTableRecord
100
AcDbBlockTableRecord
  2
*Paper_Space
340
23E
 70
     0
280
     1
281
     0
  0
BLOCK_RECORD
  5
96
330
1
100
AcDbSymbolTableRecord
100
AcDbBlockTableRecord
  2
CDWK_PTTYP1
340
0
 70
     0
280
     1
281
     1
  0
BLOCK_RECORD
  5
9D
330
1
100
AcDbSymbolTableRecord
100
AcDbBlockTableRecord
  2
CDWK_PTTYP2
340
0
 70
     0
280
     1
281
     1
  0
BLOCK_RECORD
  5
A2
330
1
100
AcDbSymbolTableRecord
100
AcDbBlockTableRecord
  2
CDWK_PTTYP4
340
0
 70
     0
280
     1
281
     1
  0
BLOCK_RECORD
  5
A6
330
1
100
AcDbSymbolTableRecord
100
AcDbBlockTableRecord
  2
CDWK_PTTYP5
340
0
 70
     0
280
     1
281
     1
  0
BLOCK_RECORD
  5
AF
330
1
100
AcDbSymbolTableRecord
100
AcDbBlockTableRecord
  2
CDWK_PTTYP6
340
0
 70
     0
280
     1
281
     1
  0
BLOCK_RECORD
  5
B7
330
1
100
AcDbSymbolTableRecord
100
AcDbBlockTableRecord
  2
CDWK_PTTYP7
340
0
 70
     0
280
     1
281
     1
  0
BLOCK_RECORD
  5
C0
330
1
100
AcDbSymbolTableRecord
100
AcDbBlockTableRecord
  2
CDWK_PTTYP8
340
0
 70
     0
280
     1
281
     1
  0
BLOCK_RECORD
  5
C4
330
1
100
AcDbSymbolTableRecord
100
AcDbBlockTableRecord
  2
CDWK_PTTYP9
340
0
 70
     0
280
     1
281
     1
  0
BLOCK_RECORD
  5
C9
330
1
100
AcDbSymbolTableRecord
100
AcDbBlockTableRecord
  2
CDWK_PTTYP10
340
0
 70
     0
280
     1
281
     1
  0
BLOCK_RECORD
  5
CD
330
1
100
AcDbSymbolTableRecord
100
AcDbBlockTableRecord
  2
CDWK_PTTYP11
340
0
 70
     0
280
     1
281
     1
  0
BLOCK_RECORD
  5
D2
330
1
100
AcDbSymbolTableRecord
100
AcDbBlockTableRecord
  2
CDWK_PTTYP12
340
0
 70
     0
280
     1
281
     1
  0
BLOCK_RECORD
  5
D7
330
1
100
AcDbSymbolTableRecord
100
AcDbBlockTableRecord
  2
CDWK_PTTYP13
340
0
 70
     0
280
     1
281
     1
  0
BLOCK_RECORD
  5
DD
330
1
100
AcDbSymbolTableRecord
100
AcDbBlockTableRecord
  2
CDWK_PTTYP16
340
0
 70
     0
280
     1
281
     1
  0
BLOCK_RECORD
  5
E4
330
1
100
AcDbSymbolTableRecord
100
AcDbBlockTableRecord
  2
CDWK_PTTYP17
340
0
 70
     0
280
     1
281
     1
  0
BLOCK_RECORD
  5
E9
330
1
100
AcDbSymbolTableRecord
100
AcDbBlockTableRecord
  2
CDWK_PTTYP18
340
0
 70
     0
280
     1
281
     1
  0
BLOCK_RECORD
  5
EE
330
1
100
AcDbSymbolTableRecord
100
AcDbBlockTableRecord
  2
CDWK_PTTYP19
340
0
 70
     0
280
     1
281
     1
  0
BLOCK_RECORD
  5
F4
330
1
100
AcDbSymbolTableRecord
100
AcDbBlockTableRecord
  2
CDWK_PTTYP20
340
0
 70
     0
280
     1
281
     1
  0
BLOCK_RECORD
  5
F9
330
1
100
AcDbSymbolTableRecord
100
AcDbBlockTableRecord
  2
CDWK_PTTYP21
340
0
 70
     0
280
     1
281
     1
  0
BLOCK_RECORD
  5
FE
330
1
100
AcDbSymbolTableRecord
100
AcDbBlockTableRecord
  2
CDWK_PTTYP25
340
0
 70
     0
280
     1
281
     1
  0
BLOCK_RECORD
  5
105
330
1
100
AcDbSymbolTableRecord
100
AcDbBlockTableRecord
  2
CDWK_PTTYP26
340
0
 70
     0
280
     1
281
     1
  0
BLOCK_RECORD
  5
10C
330
1
100
AcDbSymbolTableRecord
100
AcDbBlockTableRecord
  2
CDWK_PTTYP27
340
0
 70
     0
280
     1
281
     1
  0
BLOCK_RECORD
  5
114
330
1
100
AcDbSymbolTableRecord
100
AcDbBlockTableRecord
  2
CDWK_PTTYP28
340
0
 70
     0
280
     1
281
     1
  0
BLOCK_RECORD
  5
11B
330
1
100
AcDbSymbolTableRecord
100
AcDbBlockTableRecord
  2
CDWK_PTTYP29
340
0
 70
     0
280
     1
281
     1
  0
BLOCK_RECORD
  5
121
330
1
100
AcDbSymbolTableRecord
100
AcDbBlockTableRecord
  2
CDWK_PTTYP30
340
0
 70
     0
280
     1
281
     1
  0
BLOCK_RECORD
  5
128
330
1
100
AcDbSymbolTableRecord
100
AcDbBlockTableRecord
  2
CDWK_PTTYP31
340
0
 70
     0
280
     1
281
     1
  0
BLOCK_RECORD
  5
130
330
1
100
AcDbSymbolTableRecord
100
AcDbBlockTableRecord
  2
CDWK_PTTYP32
340
0
 70
     0
280
     1
281
     1
  0
BLOCK_RECORD
  5
139
330
1
100
AcDbSymbolTableRecord
100
AcDbBlockTableRecord
  2
CDWK_PTTYP33
340
0
 70
     0
280
     1
281
     1
  0
BLOCK_RECORD
  5
13F
330
1
100
AcDbSymbolTableRecord
100
AcDbBlockTableRecord
  2
CDWK_PTTYP34
340
0
 70
     0
280
     1
281
     1
  0
BLOCK_RECORD
  5
145
330
1
100
AcDbSymbolTableRecord
100
AcDbBlockTableRecord
  2
CDWK_PTTYP35
340
0
 70
     0
280
     1
281
     1
  0
BLOCK_RECORD
  5
14B
330
1
100
AcDbSymbolTableRecord
100
AcDbBlockTableRecord
  2
CDWK_PTTYP36
340
0
 70
     0
280
     1
281
     1
  0
BLOCK_RECORD
  5
153
330
1
100
AcDbSymbolTableRecord
100
AcDbBlockTableRecord
  2
CDWK_PTTYP37
340
0
 70
     0
280
     1
281
     1
  0
BLOCK_RECORD
  5
158
330
1
100
AcDbSymbolTableRecord
100
AcDbBlockTableRecord
  2
CDWK_PTTYP38
340
0
 70
     0
280
     1
281
     1
  0
BLOCK_RECORD
  5
15E
330
1
100
AcDbSymbolTableRecord
100
AcDbBlockTableRecord
  2
CDWK_PTTYP41
340
0
 70
     0
280
     1
281
     1
  0
BLOCK_RECORD
  5
168
330
1
100
AcDbSymbolTableRecord
100
AcDbBlockTableRecord
  2
CDWK_PTTYP42
340
0
 70
     0
280
     1
281
     1
  0
BLOCK_RECORD
  5
171
330
1
100
AcDbSymbolTableRecord
100
AcDbBlockTableRecord
  2
CDWK_PTTYP43
340
0
 70
     0
280
     1
281
     1
  0
BLOCK_RECORD
  5
177
330
1
100
AcDbSymbolTableRecord
100
AcDbBlockTableRecord
  2
CDWK_PTTYP44
340
0
 70
     0
280
     1
281
     1
  0
BLOCK_RECORD
  5
180
330
1
100
AcDbSymbolTableRecord
100
AcDbBlockTableRecord
  2
CDWK_PTTYP45
340
0
 70
     0
280
     1
281
     1
  0
BLOCK_RECORD
  5
185
330
1
100
AcDbSymbolTableRecord
100
AcDbBlockTableRecord
  2
CDWK_PTTYP46
340
0
 70
     0
280
     1
281
     1
  0
BLOCK_RECORD
  5
18A
330
1
100
AcDbSymbolTableRecord
100
AcDbBlockTableRecord
  2
CDWK_PTTYP47
340
0
 70
     0
280
     1
281
     1
  0
BLOCK_RECORD
  5
193
330
1
100
AcDbSymbolTableRecord
100
AcDbBlockTableRecord
  2
CDWK_PTTYP48
340
0
 70
     0
280
     1
281
     1
  0
BLOCK_RECORD
  5
198
330
1
100
AcDbSymbolTableRecord
100
AcDbBlockTableRecord
  2
CDWK_PTTYP49
340
0
 70
     0
280
     1
281
     1
  0
BLOCK_RECORD
  5
19F
330
1
100
AcDbSymbolTableRecord
100
AcDbBlockTableRecord
  2
CDWK_PTTYP50
340
0
 70
     0
280
     1
281
     1
  0
BLOCK_RECORD
  5
1A9
330
1
100
AcDbSymbolTableRecord
100
AcDbBlockTableRecord
  2
CDWK_PTTYP51
340
0
 70
     0
280
     1
281
     1
  0
BLOCK_RECORD
  5
1AE
330
1
100
AcDbSymbolTableRecord
100
AcDbBlockTableRecord
  2
CDWK_PTTYP52
340
0
 70
     0
280
     1
281
     1
  0
BLOCK_RECORD
  5
1B4
330
1
100
AcDbSymbolTableRecord
100
AcDbBlockTableRecord
  2
cw-dimension-symbol1
340
0
 70
     0
280
     1
281
     0
  0
BLOCK_RECORD
  5
1BB
330
1
100
AcDbSymbolTableRecord
100
AcDbBlockTableRecord
  2
cw-dimension-symbol2
340
0
102
{BLKREFS
331
462
331
461
102
}
 70
     0
280
     1
281
     0
  0
BLOCK_RECORD
  5
1C0
330
1
100
AcDbSymbolTableRecord
100
AcDbBlockTableRecord
  2
cw-dimension-symbol3
340
0
 70
     0
280
     1
281
     0
  0
BLOCK_RECORD
  5
1C5
330
1
100
AcDbSymbolTableRecord
100
AcDbBlockTableRecord
  2
cw-dimension-symbol5
340
0
 70
     0
280
     1
281
     0
  0
BLOCK_RECORD
  5
1CC
330
1
100
AcDbSymbolTableRecord
100
AcDbBlockTableRecord
  2
cw-dimension-symbol6
340
0
 70
     0
280
     1
281
     0
  0
BLOCK_RECORD
  5
1D2
330
1
100
AcDbSymbolTableRecord
100
AcDbBlockTableRecord
  2
cw-dimension-symbol11
340
0
 70
     0
280
     1
281
     0
  0
BLOCK_RECORD
  5
1D8
330
1
100
AcDbSymbolTableRecord
100
AcDbBlockTableRecord
  2
cw-dimension-symbol13
340
0
 70
     0
280
     1
281
     0
  0
BLOCK_RECORD
  5
1DE
330
1
100
AcDbSymbolTableRecord
100
AcDbBlockTableRecord
  2
cw-dimension-symbol15
340
0
 70
     0
280
     1
281
     0
  0
BLOCK_RECORD
  5
1E5
330
1
100
AcDbSymbolTableRecord
100
AcDbBlockTableRecord
  2
cw-dimension-symbol16
340
0
 70
     0
280
     1
281
     0
  0
BLOCK_RECORD
  5
1EC
330
1
100
AcDbSymbolTableRecord
100
AcDbBlockTableRecord
  2
cw-dimension-symbol17
340
0
 70
     0
280
     1
281
     0
  0
BLOCK_RECORD
  5
1F3
330
1
100
AcDbSymbolTableRecord
100
AcDbBlockTableRecord
  2
cw-dimension-symbol18
340
0
 70
     0
280
     1
281
     0
  0
BLOCK_RECORD
  5
1FA
330
1
100
AcDbSymbolTableRecord
100
AcDbBlockTableRecord
  2
cw-dimension-symbol19
340
0
 70
     0
280
     1
281
     0
  0
BLOCK_RECORD
  5
1FD
330
1
100
AcDbSymbolTableRecord
100
AcDbBlockTableRecord
  2
cw-dimension-symbol20
340
0
 70
     0
280
     1
281
     0
  0
BLOCK_RECORD
  5
204
330
1
100
AcDbSymbolTableRecord
100
AcDbBlockTableRecord
  2
cw-dimension-symbol21
340
0
 70
     0
280
     1
281
     0
  0
BLOCK_RECORD
  5
20B
330
1
100
AcDbSymbolTableRecord
100
AcDbBlockTableRecord
  2
cw-line-extremity0
340
0
 70
     0
280
     1
281
     0
  0
BLOCK_RECORD
  5
20F
330
1
100
AcDbSymbolTableRecord
100
AcDbBlockTableRecord
  2
cw-line-extremity2
340
0
 70
     0
280
     1
281
     0
  0
BLOCK_RECORD
  5
214
330
1
100
AcDbSymbolTableRecord
100
AcDbBlockTableRecord
  2
cw-line-extremity3
340
0
 70
     0
280
     1
281
     0
  0
BLOCK_RECORD
  5
219
330
1
100
AcDbSymbolTableRecord
100
AcDbBlockTableRecord
  2
cw-line-extremity301
340
0
 70
     0
280
     1
281
     0
  0
BLOCK_RECORD
  5
21B
330
1
100
AcDbSymbolTableRecord
100
AcDbBlockTableRecord
  2
cw-line-extremity4
340
0
102
{BLKREFS
331
251
331
447
331
449
331
44B
331
44D
331
455
102
}
 70
     0
280
     1
281
     0
  0
BLOCK_RECORD
  5
21D
330
1
100
AcDbSymbolTableRecord
100
AcDbBlockTableRecord
  2
cw-line-extremity5
340
0
 70
     0
280
     1
281
     0
  0
BLOCK_RECORD
  5
21F
330
1
100
AcDbSymbolTableRecord
100
AcDbBlockTableRecord
  2
cw-line-extremity6
340
0
 70
     0
280
     1
281
     0
  0
BLOCK_RECORD
  5
221
330
1
100
AcDbSymbolTableRecord
100
AcDbBlockTableRecord
  2
cw-line-extremity9
340
0
 70
     0
280
     1
281
     0
  0
BLOCK_RECORD
  5
223
330
1
100
AcDbSymbolTableRecord
100
AcDbBlockTableRecord
  2
cw-line-extremity10
340
0
 70
     0
280
     1
281
     0
  0
BLOCK_RECORD
  5
225
330
1
100
AcDbSymbolTableRecord
100
AcDbBlockTableRecord
  2
cw-line-extremity1
340
0
 70
     0
280
     1
281
     0
  0
BLOCK_RECORD
  5
1B
330
1
100
AcDbSymbolTableRecord
100
AcDbBlockTableRecord
  2
*Paper_Space69
340
1E
 70
     0
280
     1
281
     0
  0
BLOCK_RECORD
  5
459
330
1
100
AcDbSymbolTableRecord
100
AcDbBlockTableRecord
  2
*D70
340
0
 70
     0
280
     1
281
     0
  0
ENDTAB
  0
ENDSEC
  0
SECTION
  2
BLOCKS
  0
BLOCK
  5
20
330
1F
100
AcDbEntity
  8
0
100
AcDbBlockBegin
  2
*Model_Space
 70
     0
 10
0.0
 20
0.0
 30
0.0
  3
*Model_Space
  1

  0
ENDBLK
  5
21
330
1F
100
AcDbEntity
  8
0
100
AcDbBlockEnd
  0
BLOCK
  5
23F
330
23D
100
AcDbEntity
 67
     1
  8
0
100
AcDbBlockBegin
  2
*Paper_Space
 70
     0
 10
0.0
 20
0.0
 30
0.0
  3
*Paper_Space
  1

  0
ENDBLK
  5
240
330
23D
100
AcDbEntity
 67
     1
  8
0
100
AcDbBlockEnd
  0
BLOCK
  5
9B
330
96
100
AcDbEntity
  8
0
100
AcDbBlockBegin
  2
CDWK_PTTYP1
 70
     0
 10
0.0
 20
0.0
 30
0.0
  3
CDWK_PTTYP1
  1

  0
LINE
  5
97
330
96
100
AcDbEntity
  8
0
 62
     0
370
    -2
100
AcDbLine
 10
-0.5
 20
0.5
 30
0.0
 11
0.5
 21
0.5
 31
0.0
  0
LINE
  5
98
330
96
100
AcDbEntity
  8
0
 62
     0
370
    -2
100
AcDbLine
 10
0.5
 20
0.5
 30
0.0
 11
0.5
 21
-0.5
 31
0.0
  0
LINE
  5
99
330
96
100
AcDbEntity
  8
0
 62
     0
370
    -2
100
AcDbLine
 10
0.5
 20
-0.5
 30
0.0
 11
-0.5
 21
-0.5
 31
0.0
  0
LINE
  5
9A
330
96
100
AcDbEntity
  8
0
 62
     0
370
    -2
100
AcDbLine
 10
-0.5
 20
-0.5
 30
0.0
 11
-0.5
 21
0.5
 31
0.0
  0
ENDBLK
  5
9C
330
96
100
AcDbEntity
  8
0
100
AcDbBlockEnd
  0
BLOCK
  5
A0
330
9D
100
AcDbEntity
  8
0
100
AcDbBlockBegin
  2
CDWK_PTTYP2
 70
     0
 10
0.0
 20
0.0
 30
0.0
  3
CDWK_PTTYP2
  1

  0
LINE
  5
9E
330
9D
100
AcDbEntity
  8
0
 62
     0
370
    -2
100
AcDbLine
 10
0.0
 20
0.5
 30
0.0
 11
0.0
 21
-0.5
 31
0.0
  0
LINE
  5
9F
330
9D
100
AcDbEntity
  8
0
 62
     0
370
    -2
100
AcDbLine
 10
0.5
 20
0.0
 30
0.0
 11
-0.5
 21
0.0
 31
0.0
  0
ENDBLK
  5
A1
330
9D
100
AcDbEntity
  8
0
100
AcDbBlockEnd
  0
BLOCK
  5
A4
330
A2
100
AcDbEntity
  8
0
100
AcDbBlockBegin
  2
CDWK_PTTYP4
 70
     0
 10
0.0
 20
0.0
 30
0.0
  3
CDWK_PTTYP4
  1

  0
HATCH
  5
A3
330
A2
100
AcDbEntity
  8
0
 62
     0
370
    -2
100
AcDbHatch
 10
0.0
 20
0.0
 30
0.0
210
0.0
220
0.0
230
1.0
  2
SOLID
 70
     1
 71
     1
 91
        1
 92
        1
 93
        1
 72
     2
 10
0.0
 20
0.0
 40
0.5
 50
0.0
 51
360.0
 73
     1
 97
        0
 75
     0
 76
     1
 98
        0
  0
ENDBLK
  5
A5
330
A2
100
AcDbEntity
  8
0
100
AcDbBlockEnd
  0
BLOCK
  5
AD
330
A6
100
AcDbEntity
  8
0
100
AcDbBlockBegin
  2
CDWK_PTTYP5
 70
     0
 10
0.0
 20
0.0
 30
0.0
  3
CDWK_PTTYP5
  1

  0
LINE
  5
A7
330
A6
100
AcDbEntity
  8
0
 62
     0
370
    -2
100
AcDbLine
 10
-0.5
 20
0.5
 30
0.0
 11
0.5
 21
0.5
 31
0.0
  0
LINE
  5
A8
330
A6
100
AcDbEntity
  8
0
 62
     0
370
    -2
100
AcDbLine
 10
0.5
 20
0.5
 30
0.0
 11
0.5
 21
-0.5
 31
0.0
  0
LINE
  5
A9
330
A6
100
AcDbEntity
  8
0
 62
     0
370
    -2
100
AcDbLine
 10
0.5
 20
-0.5
 30
0.0
 11
-0.5
 21
-0.5
 31
0.0
  0
LINE
  5
AA
330
A6
100
AcDbEntity
  8
0
 62
     0
370
    -2
100
AcDbLine
 10
-0.5
 20
-0.5
 30
0.0
 11
-0.5
 21
0.5
 31
0.0
  0
HATCH
  5
AB
330
A6
100
AcDbEntity
  8
0
 62
     0
370
    -2
100
AcDbHatch
 10
0.0
 20
0.0
 30
0.0
210
0.0
220
0.0
230
1.0
  2
SOLID
 70
     1
 71
     1
 91
        1
 92
        3
 72
     0
 73
     1
 93
        4
 10
-0.5
 20
0.0
 10
0.0
 20
0.0
 10
0.0
 20
-0.5
 10
-0.5
 20
-0.5
 97
        0
 75
     0
 76
     1
 98
        0
  0
HATCH
  5
AC
330
A6
100
AcDbEntity
  8
0
 62
     0
370
    -2
100
AcDbHatch
 10
0.0
 20
0.0
 30
0.0
210
0.0
220
0.0
230
1.0
  2
SOLID
 70
     1
 71
     1
 91
        1
 92
        3
 72
     0
 73
     1
 93
        4
 10
0.0
 20
0.0
 10
0.5
 20
0.0
 10
0.5
 20
0.5
 10
0.0
 20
0.5
 97
        0
 75
     0
 76
     1
 98
        0
  0
ENDBLK
  5
AE
330
A6
100
AcDbEntity
  8
0
100
AcDbBlockEnd
  0
BLOCK
  5
B5
330
AF
100
AcDbEntity
  8
0
100
AcDbBlockBegin
  2
CDWK_PTTYP6
 70
     0
 10
0.0
 20
0.0
 30
0.0
  3
CDWK_PTTYP6
  1

  0
LINE
  5
B0
330
AF
100
AcDbEntity
  8
0
 62
     0
370
    -2
100
AcDbLine
 10
-0.5
 20
0.5
 30
0.0
 11
0.5
 21
0.5
 31
0.0
  0
LINE
  5
B1
330
AF
100
AcDbEntity
  8
0
 62
     0
370
    -2
100
AcDbLine
 10
0.5
 20
0.5
 30
0.0
 11
0.5
 21
-0.5
 31
0.0
  0
LINE
  5
B2
330
AF
100
AcDbEntity
  8
0
 62
     0
370
    -2
100
AcDbLine
 10
0.5
 20
-0.5
 30
0.0
 11
-0.5
 21
-0.5
 31
0.0
  0
LINE
  5
B3
330
AF
100
AcDbEntity
  8
0
 62
     0
370
    -2
100
AcDbLine
 10
-0.5
 20
-0.5
 30
0.0
 11
-0.5
 21
0.5
 31
0.0
  0
HATCH
  5
B4
330
AF
100
AcDbEntity
  8
0
 62
     0
370
    -2
100
AcDbHatch
 10
0.0
 20
0.0
 30
0.0
210
0.0
220
0.0
230
1.0
  2
SOLID
 70
     1
 71
     1
 91
        1
 92
        3
 72
     0
 73
     1
 93
        3
 10
-0.5
 20
-0.5
 10
-0.5
 20
0.5
 10
0.5
 20
0.5
 97
        0
 75
     0
 76
     1
 98
        0
  0
ENDBLK
  5
B6
330
AF
100
AcDbEntity
  8
0
100
AcDbBlockEnd
  0
BLOCK
  5
BE
330
B7
100
AcDbEntity
  8
0
100
AcDbBlockBegin
  2
CDWK_PTTYP7
 70
     0
 10
0.0
 20
0.0
 30
0.0
  3
CDWK_PTTYP7
  1

  0
LINE
  5
B8
330
B7
100
AcDbEntity
  8
0
 62
     0
370
    -2
100
AcDbLine
 10
-0.5
 20
0.5
 30
0.0
 11
0.5
 21
0.5
 31
0.0
  0
LINE
  5
B9
330
B7
100
AcDbEntity
  8
0
 62
     0
370
    -2
100
AcDbLine
 10
0.5
 20
0.5
 30
0.0
 11
0.5
 21
-0.5
 31
0.0
  0
LINE
  5
BA
330
B7
100
AcDbEntity
  8
0
 62
     0
370
    -2
100
AcDbLine
 10
0.5
 20
-0.5
 30
0.0
 11
-0.5
 21
-0.5
 31
0.0
  0
LINE
  5
BB
330
B7
100
AcDbEntity
  8
0
 62
     0
370
    -2
100
AcDbLine
 10
-0.5
 20
-0.5
 30
0.0
 11
-0.5
 21
0.5
 31
0.0
  0
LINE
  5
BC
330
B7
100
AcDbEntity
  8
0
 62
     0
370
    -2
100
AcDbLine
 10
0.0
 20
0.5
 30
0.0
 11
0.0
 21
-0.5
 31
0.0
  0
LINE
  5
BD
330
B7
100
AcDbEntity
  8
0
 62
     0
370
    -2
100
AcDbLine
 10
0.5
 20
0.0
 30
0.0
 11
-0.5
 21
0.0
 31
0.0
  0
ENDBLK
  5
BF
330
B7
100
AcDbEntity
  8
0
100
AcDbBlockEnd
  0
BLOCK
  5
C2
330
C0
100
AcDbEntity
  8
0
100
AcDbBlockBegin
  2
CDWK_PTTYP8
 70
     0
 10
0.0
 20
0.0
 30
0.0
  3
CDWK_PTTYP8
  1

  0
HATCH
  5
C1
330
C0
100
AcDbEntity
  8
0
 62
     0
370
    -2
100
AcDbHatch
 10
0.0
 20
0.0
 30
0.0
210
0.0
220
0.0
230
1.0
  2
SOLID
 70
     1
 71
     1
 91
        1
 92
        3
 72
     0
 73
     1
 93
        4
 10
0.5
 20
0.5
 10
0.5
 20
-0.5
 10
-0.5
 20
-0.5
 10
-0.5
 20
0.5
 97
        0
 75
     0
 76
     1
 98
        0
  0
ENDBLK
  5
C3
330
C0
100
AcDbEntity
  8
0
100
AcDbBlockEnd
  0
BLOCK
  5
C7
330
C4
100
AcDbEntity
  8
0
100
AcDbBlockBegin
  2
CDWK_PTTYP9
 70
     0
 10
0.0
 20
0.0
 30
0.0
  3
CDWK_PTTYP9
  1

  0
CIRCLE
  5
C5
330
C4
100
AcDbEntity
  8
0
 62
     0
370
    -2
100
AcDbCircle
 10
0.0
 20
0.0
 30
0.0
 40
0.1666666666666667
  0
CIRCLE
  5
C6
330
C4
100
AcDbEntity
  8
0
 62
     0
370
    -2
100
AcDbCircle
 10
0.0
 20
0.0
 30
0.0
 40
0.5
  0
ENDBLK
  5
C8
330
C4
100
AcDbEntity
  8
0
100
AcDbBlockEnd
  0
BLOCK
  5
CB
330
C9
100
AcDbEntity
  8
0
100
AcDbBlockBegin
  2
CDWK_PTTYP10
 70
     0
 10
0.0
 20
0.0
 30
0.0
  3
CDWK_PTTYP10
  1

  0
CIRCLE
  5
CA
330
C9
100
AcDbEntity
  8
0
 62
     0
370
    -2
100
AcDbCircle
 10
0.0
 20
0.0
 30
0.0
 40
0.5
  0
ENDBLK
  5
CC
330
C9
100
AcDbEntity
  8
0
100
AcDbBlockEnd
  0
BLOCK
  5
D0
330
CD
100
AcDbEntity
  8
0
100
AcDbBlockBegin
  2
CDWK_PTTYP11
 70
     0
 10
0.0
 20
0.0
 30
0.0
  3
CDWK_PTTYP11
  1

  0
CIRCLE
  5
CE
330
CD
100
AcDbEntity
  8
0
 62
     0
370
    -2
100
AcDbCircle
 10
0.0
 20
0.0
 30
0.0
 40
0.25
  0
CIRCLE
  5
CF
330
CD
100
AcDbEntity
  8
0
 62
     0
370
    -2
100
AcDbCircle
 10
0.0
 20
0.0
 30
0.0
 40
0.5
  0
ENDBLK
  5
D1
330
CD
100
AcDbEntity
  8
0
100
AcDbBlockEnd
  0
BLOCK
  5
D5
330
D2
100
AcDbEntity
  8
0
100
AcDbBlockBegin
  2
CDWK_PTTYP12
 70
     0
 10
0.0
 20
0.0
 30
0.0
  3
CDWK_PTTYP12
  1

  0
CIRCLE
  5
D3
330
D2
100
AcDbEntity
  8
0
 62
     0
370
    -2
100
AcDbCircle
 10
0.25
 20
0.0
 30
0.0
 40
0.25
  0
CIRCLE
  5
D4
330
D2
100
AcDbEntity
  8
0
 62
     0
370
    -2
100
AcDbCircle
 10
0.0
 20
0.0
 30
0.0
 40
0.5
  0
ENDBLK
  5
D6
330
D2
100
AcDbEntity
  8
0
100
AcDbBlockEnd
  0
BLOCK
  5
DB
330
D7
100
AcDbEntity
  8
0
100
AcDbBlockBegin
  2
CDWK_PTTYP13
 70
     0
 10
0.0
 20
0.0
 30
0.0
  3
CDWK_PTTYP13
  1

  0
CIRCLE
  5
D8
330
D7
100
AcDbEntity
  8
0
 62
     0
370
    -2
100
AcDbCircle
 10
-0.25
 20
0.0
 30
0.0
 40
0.25
  0
CIRCLE
  5
D9
330
D7
100
AcDbEntity
  8
0
 62
     0
370
    -2
100
AcDbCircle
 10
0.25
 20
0.0
 30
0.0
 40
0.25
  0
CIRCLE
  5
DA
330
D7
100
AcDbEntity
  8
0
 62
     0
370
    -2
100
AcDbCircle
 10
0.0
 20
0.0
 30
0.0
 40
0.5
  0
ENDBLK
  5
DC
330
D7
100
AcDbEntity
  8
0
100
AcDbBlockEnd
  0
BLOCK
  5
E2
330
DD
100
AcDbEntity
  8
0
100
AcDbBlockBegin
  2
CDWK_PTTYP16
 70
     0
 10
0.0
 20
0.0
 30
0.0
  3
CDWK_PTTYP16
  1

  0
LINE
  5
DE
330
DD
100
AcDbEntity
  8
0
 62
     0
370
    -2
100
AcDbLine
 10
-0.5
 20
-0.289
 30
0.0
 11
0.5
 21
-0.289
 31
0.0
  0
LINE
  5
DF
330
DD
100
AcDbEntity
  8
0
 62
     0
370
    -2
100
AcDbLine
 10
0.5
 20
-0.289
 30
0.0
 11
0.0
 21
0.577
 31
0.0
  0
LINE
  5
E0
330
DD
100
AcDbEntity
  8
0
 62
     0
370
    -2
100
AcDbLine
 10
0.0
 20
0.577
 30
0.0
 11
-0.5
 21
-0.289
 31
0.0
  0
CIRCLE
  5
E1
330
DD
100
AcDbEntity
  8
0
 62
     0
370
    -2
100
AcDbCircle
 10
0.0
 20
0.0
 30
0.0
 40
0.289
  0
ENDBLK
  5
E3
330
DD
100
AcDbEntity
  8
0
100
AcDbBlockEnd
  0
BLOCK
  5
E7
330
E4
100
AcDbEntity
  8
0
100
AcDbBlockBegin
  2
CDWK_PTTYP17
 70
     0
 10
0.0
 20
0.0
 30
0.0
  3
CDWK_PTTYP17
  1

  0
CIRCLE
  5
E5
330
E4
100
AcDbEntity
  8
0
 62
     0
370
    -2
100
AcDbCircle
 10
0.0
 20
0.0
 30
0.0
 40
0.5
  0
HATCH
  5
E6
330
E4
100
AcDbEntity
  8
0
 62
     0
370
    -2
100
AcDbHatch
 10
0.0
 20
0.0
 30
0.0
210
0.0
220
0.0
230
1.0
  2
SOLID
 70
     1
 71
     1
 91
        1
 92
        1
 93
        1
 72
     2
 10
0.0
 20
0.0
 40
0.25
 50
0.0
 51
360.0
 73
     1
 97
        0
 75
     0
 76
     1
 98
        0
  0
ENDBLK
  5
E8
330
E4
100
AcDbEntity
  8
0
100
AcDbBlockEnd
  0
BLOCK
  5
EC
330
E9
100
AcDbEntity
  8
0
100
AcDbBlockBegin
  2
CDWK_PTTYP18
 70
     0
 10
0.0
 20
0.0
 30
0.0
  3
CDWK_PTTYP18
  1

  0
CIRCLE
  5
EA
330
E9
100
AcDbEntity
  8
0
 62
     0
370
    -2
100
AcDbCircle
 10
0.0
 20
0.0
 30
0.0
 40
0.5
  0
CIRCLE
  5
EB
330
E9
100
AcDbEntity
  8
0
 62
     0
370
    -2
100
AcDbCircle
 10
0.0
 20
0.0
 30
0.0
 40
0.208
  0
ENDBLK
  5
ED
330
E9
100
AcDbEntity
  8
0
100
AcDbBlockEnd
  0
BLOCK
  5
F2
330
EE
100
AcDbEntity
  8
0
100
AcDbBlockBegin
  2
CDWK_PTTYP19
 70
     0
 10
0.0
 20
0.0
 30
0.0
  3
CDWK_PTTYP19
  1

  0
CIRCLE
  5
EF
330
EE
100
AcDbEntity
  8
0
 62
     0
370
    -2
100
AcDbCircle
 10
0.0
 20
0.0
 30
0.0
 40
0.25
  0
CIRCLE
  5
F0
330
EE
100
AcDbEntity
  8
0
 62
     0
370
    -2
100
AcDbCircle
 10
0.0
 20
0.0
 30
0.0
 40
0.35
  0
LINE
  5
F1
330
EE
100
AcDbEntity
  8
0
 62
     0
370
    -2
100
AcDbLine
 10
-0.25
 20
0.0
 30
0.0
 11
0.25
 21
0.0
 31
0.0
  0
ENDBLK
  5
F3
330
EE
100
AcDbEntity
  8
0
100
AcDbBlockEnd
  0
BLOCK
  5
F7
330
F4
100
AcDbEntity
  8
0
100
AcDbBlockBegin
  2
CDWK_PTTYP20
 70
     0
 10
0.0
 20
0.0
 30
0.0
  3
CDWK_PTTYP20
  1

  0
CIRCLE
  5
F5
330
F4
100
AcDbEntity
  8
0
 62
     0
370
    -2
100
AcDbCircle
 10
0.0
 20
0.0
 30
0.0
 40
0.3333333333333333
  0
CIRCLE
  5
F6
330
F4
100
AcDbEntity
  8
0
 62
     0
370
    -2
100
AcDbCircle
 10
0.0
 20
0.0
 30
0.0
 40
0.5
  0
ENDBLK
  5
F8
330
F4
100
AcDbEntity
  8
0
100
AcDbBlockEnd
  0
BLOCK
  5
FC
330
F9
100
AcDbEntity
  8
0
100
AcDbBlockBegin
  2
CDWK_PTTYP21
 70
     0
 10
0.0
 20
0.0
 30
0.0
  3
CDWK_PTTYP21
  1

  0
CIRCLE
  5
FA
330
F9
100
AcDbEntity
  8
0
 62
     0
370
    -2
100
AcDbCircle
 10
0.0
 20
0.0
 30
0.0
 40
0.5
  0
LINE
  5
FB
330
F9
100
AcDbEntity
  8
0
 62
     0
370
    -2
100
AcDbLine
 10
-0.5
 20
0.0
 30
0.0
 11
0.5
 21
0.0
 31
0.0
  0
ENDBLK
  5
FD
330
F9
100
AcDbEntity
  8
0
100
AcDbBlockEnd
  0
BLOCK
  5
103
330
FE
100
AcDbEntity
  8
0
100
AcDbBlockBegin
  2
CDWK_PTTYP25
 70
     0
 10
0.0
 20
0.0
 30
0.0
  3
CDWK_PTTYP25
  1

  0
LINE
  5
FF
330
FE
100
AcDbEntity
  8
0
 62
     0
370
    -2
100
AcDbLine
 10
0.0
 20
0.5
 30
0.0
 11
-0.4330127018922193
 21
-0.25
 31
0.0
  0
LINE
  5
100
330
FE
100
AcDbEntity
  8
0
 62
     0
370
    -2
100
AcDbLine
 10
-0.4330127018922193
 20
-0.25
 30
0.0
 11
0.4330127018922193
 21
-0.25
 31
0.0
  0
LINE
  5
101
330
FE
100
AcDbEntity
  8
0
 62
     0
370
    -2
100
AcDbLine
 10
0.4330127018922193
 20
-0.25
 30
0.0
 11
0.0
 21
0.5
 31
0.0
  0
CIRCLE
  5
102
330
FE
100
AcDbEntity
  8
0
 62
     0
370
    -2
100
AcDbCircle
 10
0.0
 20
0.0
 30
0.0
 40
0.5
  0
ENDBLK
  5
104
330
FE
100
AcDbEntity
  8
0
100
AcDbBlockEnd
  0
BLOCK
  5
10A
330
105
100
AcDbEntity
  8
0
100
AcDbBlockBegin
  2
CDWK_PTTYP26
 70
     0
 10
0.0
 20
0.0
 30
0.0
  3
CDWK_PTTYP26
  1

  0
LINE
  5
106
330
105
100
AcDbEntity
  8
0
 62
     0
370
    -2
100
AcDbLine
 10
-0.5
 20
-0.289
 30
0.0
 11
0.5
 21
-0.289
 31
0.0
  0
LINE
  5
107
330
105
100
AcDbEntity
  8
0
 62
     0
370
    -2
100
AcDbLine
 10
0.5
 20
-0.289
 30
0.0
 11
0.0
 21
0.577
 31
0.0
  0
LINE
  5
108
330
105
100
AcDbEntity
  8
0
 62
     0
370
    -2
100
AcDbLine
 10
0.0
 20
0.577
 30
0.0
 11
-0.5
 21
-0.289
 31
0.0
  0
CIRCLE
  5
109
330
105
100
AcDbEntity
  8
0
 62
     0
370
    -2
100
AcDbCircle
 10
0.0
 20
0.0
 30
0.0
 40
0.125
  0
ENDBLK
  5
10B
330
105
100
AcDbEntity
  8
0
100
AcDbBlockEnd
  0
BLOCK
  5
112
330
10C
100
AcDbEntity
  8
0
100
AcDbBlockBegin
  2
CDWK_PTTYP27
 70
     0
 10
0.0
 20
0.0
 30
0.0
  3
CDWK_PTTYP27
  1

  0
LINE
  5
10D
330
10C
100
AcDbEntity
  8
0
 62
     0
370
    -2
100
AcDbLine
 10
0.0
 20
0.5
 30
0.0
 11
-0.4330127018922193
 21
-0.25
 31
0.0
  0
LINE
  5
10E
330
10C
100
AcDbEntity
  8
0
 62
     0
370
    -2
100
AcDbLine
 10
-0.4330127018922193
 20
-0.25
 30
0.0
 11
0.4330127018922193
 21
-0.25
 31
0.0
  0
LINE
  5
10F
330
10C
100
AcDbEntity
  8
0
 62
     0
370
    -2
100
AcDbLine
 10
0.4330127018922193
 20
-0.25
 30
0.0
 11
0.0
 21
0.5
 31
0.0
  0
CIRCLE
  5
110
330
10C
100
AcDbEntity
  8
0
 62
     0
370
    -2
100
AcDbCircle
 10
0.0
 20
0.0
 30
0.0
 40
0.125
  0
CIRCLE
  5
111
330
10C
100
AcDbEntity
  8
0
 62
     0
370
    -2
100
AcDbCircle
 10
0.0
 20
0.0
 30
0.0
 40
0.5
  0
ENDBLK
  5
113
330
10C
100
AcDbEntity
  8
0
100
AcDbBlockEnd
  0
BLOCK
  5
119
330
114
100
AcDbEntity
  8
0
100
AcDbBlockBegin
  2
CDWK_PTTYP28
 70
     0
 10
0.0
 20
0.0
 30
0.0
  3
CDWK_PTTYP28
  1

  0
LINE
  5
115
330
114
100
AcDbEntity
  8
0
 62
     0
370
    -2
100
AcDbLine
 10
-0.5
 20
0.5
 30
0.0
 11
0.5
 21
0.5
 31
0.0
  0
LINE
  5
116
330
114
100
AcDbEntity
  8
0
 62
     0
370
    -2
100
AcDbLine
 10
0.5
 20
0.5
 30
0.0
 11
-0.5
 21
-0.5
 31
0.0
  0
LINE
  5
117
330
114
100
AcDbEntity
  8
0
 62
     0
370
    -2
100
AcDbLine
 10
0.5
 20
-0.5
 30
0.0
 11
-0.5
 21
-0.5
 31
0.0
  0
LINE
  5
118
330
114
100
AcDbEntity
  8
0
 62
     0
370
    -2
100
AcDbLine
 10
-0.5
 20
0.5
 30
0.0
 11
0.5
 21
-0.5
 31
0.0
  0
ENDBLK
  5
11A
330
114
100
AcDbEntity
  8
0
100
AcDbBlockEnd
  0
BLOCK
  5
11F
330
11B
100
AcDbEntity
  8
0
100
AcDbBlockBegin
  2
CDWK_PTTYP29
 70
     0
 10
0.0
 20
0.0
 30
0.0
  3
CDWK_PTTYP29
  1

  0
CIRCLE
  5
11C
330
11B
100
AcDbEntity
  8
0
 62
     0
370
    -2
100
AcDbCircle
 10
0.0
 20
0.0
 30
0.0
 40
0.2
  0
CIRCLE
  5
11D
330
11B
100
AcDbEntity
  8
0
 62
     0
370
    -2
100
AcDbCircle
 10
0.0
 20
0.0
 30
0.0
 40
0.35
  0
CIRCLE
  5
11E
330
11B
100
AcDbEntity
  8
0
 62
     0
370
    -2
100
AcDbCircle
 10
0.0
 20
0.0
 30
0.0
 40
0.5
  0
ENDBLK
  5
120
330
11B
100
AcDbEntity
  8
0
100
AcDbBlockEnd
  0
BLOCK
  5
126
330
121
100
AcDbEntity
  8
0
100
AcDbBlockBegin
  2
CDWK_PTTYP30
 70
     0
 10
0.0
 20
0.0
 30
0.0
  3
CDWK_PTTYP30
  1

  0
LINE
  5
122
330
121
100
AcDbEntity
  8
0
 62
     0
370
    -2
100
AcDbLine
 10
-0.5
 20
0.5
 30
0.0
 11
-0.1
 21
0.1
 31
0.0
  0
LINE
  5
123
330
121
100
AcDbEntity
  8
0
 62
     0
370
    -2
100
AcDbLine
 10
0.5
 20
0.5
 30
0.0
 11
0.1
 21
0.1
 31
0.0
  0
LINE
  5
124
330
121
100
AcDbEntity
  8
0
 62
     0
370
    -2
100
AcDbLine
 10
0.5
 20
-0.5
 30
0.0
 11
0.1
 21
-0.1
 31
0.0
  0
LINE
  5
125
330
121
100
AcDbEntity
  8
0
 62
     0
370
    -2
100
AcDbLine
 10
-0.5
 20
-0.5
 30
0.0
 11
-0.1
 21
-0.1
 31
0.0
  0
ENDBLK
  5
127
330
121
100
AcDbEntity
  8
0
100
AcDbBlockEnd
  0
BLOCK
  5
12E
330
128
100
AcDbEntity
  8
0
100
AcDbBlockBegin
  2
CDWK_PTTYP31
 70
     0
 10
0.0
 20
0.0
 30
0.0
  3
CDWK_PTTYP31
  1

  0
LINE
  5
129
330
128
100
AcDbEntity
  8
0
 62
     0
370
    -2
100
AcDbLine
 10
-0.5
 20
0.0
 30
0.0
 11
-0.1
 21
0.0
 31
0.0
  0
LINE
  5
12A
330
128
100
AcDbEntity
  8
0
 62
     0
370
    -2
100
AcDbLine
 10
0.1
 20
0.0
 30
0.0
 11
0.5
 21
0.0
 31
0.0
  0
LINE
  5
12B
330
128
100
AcDbEntity
  8
0
 62
     0
370
    -2
100
AcDbLine
 10
0.0
 20
0.5
 30
0.0
 11
0.0
 21
0.1
 31
0.0
  0
LINE
  5
12C
330
128
100
AcDbEntity
  8
0
 62
     0
370
    -2
100
AcDbLine
 10
0.0
 20
-0.1
 30
0.0
 11
0.0
 21
-0.5
 31
0.0
  0
CIRCLE
  5
12D
330
128
100
AcDbEntity
  8
0
 62
     0
370
    -2
100
AcDbCircle
 10
0.0
 20
0.0
 30
0.0
 40
0.1
  0
ENDBLK
  5
12F
330
128
100
AcDbEntity
  8
0
100
AcDbBlockEnd
  0
BLOCK
  5
137
330
130
100
AcDbEntity
  8
0
100
AcDbBlockBegin
  2
CDWK_PTTYP32
 70
     0
 10
0.0
 20
0.0
 30
0.0
  3
CDWK_PTTYP32
  1

  0
CIRCLE
  5
131
330
130
100
AcDbEntity
  8
0
 62
     0
370
    -2
100
AcDbCircle
 10
0.0
 20
0.0
 30
0.0
 40
0.2
  0
CIRCLE
  5
132
330
130
100
AcDbEntity
  8
0
 62
     0
370
    -2
100
AcDbCircle
 10
0.0
 20
0.0
 30
0.0
 40
0.5
  0
LINE
  5
133
330
130
100
AcDbEntity
  8
0
 62
     0
370
    -2
100
AcDbLine
 10
0.1414213562373095
 20
0.1414213562373095
 30
0.0
 11
0.3535533905932738
 21
0.3535533905932738
 31
0.0
  0
LINE
  5
134
330
130
100
AcDbEntity
  8
0
 62
     0
370
    -2
100
AcDbLine
 10
-0.1414213562373095
 20
0.1414213562373095
 30
0.0
 11
-0.3535533905932738
 21
0.3535533905932738
 31
0.0
  0
LINE
  5
135
330
130
100
AcDbEntity
  8
0
 62
     0
370
    -2
100
AcDbLine
 10
0.1414213562373095
 20
-0.1414213562373095
 30
0.0
 11
0.3535533905932738
 21
-0.3535533905932738
 31
0.0
  0
LINE
  5
136
330
130
100
AcDbEntity
  8
0
 62
     0
370
    -2
100
AcDbLine
 10
-0.1414213562373095
 20
-0.1414213562373095
 30
0.0
 11
-0.3535533905932738
 21
-0.3535533905932738
 31
0.0
  0
ENDBLK
  5
138
330
130
100
AcDbEntity
  8
0
100
AcDbBlockEnd
  0
BLOCK
  5
13D
330
139
100
AcDbEntity
  8
0
100
AcDbBlockBegin
  2
CDWK_PTTYP33
 70
     0
 10
0.0
 20
0.0
 30
0.0
  3
CDWK_PTTYP33
  1

  0
LINE
  5
13A
330
139
100
AcDbEntity
  8
0
 62
     0
370
    -2
100
AcDbLine
 10
0.0
 20
-0.5
 30
0.0
 11
0.0
 21
0.5
 31
0.0
  0
LINE
  5
13B
330
139
100
AcDbEntity
  8
0
 62
     0
370
    -2
100
AcDbLine
 10
0.5
 20
0.0
 30
0.0
 11
-0.5
 21
0.0
 31
0.0
  0
CIRCLE
  5
13C
330
139
100
AcDbEntity
  8
0
 62
     0
370
    -2
100
AcDbCircle
 10
0.0
 20
0.0
 30
0.0
 40
0.5
  0
ENDBLK
  5
13E
330
139
100
AcDbEntity
  8
0
100
AcDbBlockEnd
  0
BLOCK
  5
143
330
13F
100
AcDbEntity
  8
0
100
AcDbBlockBegin
  2
CDWK_PTTYP34
 70
     0
 10
0.0
 20
0.0
 30
0.0
  3
CDWK_PTTYP34
  1

  0
CIRCLE
  5
140
330
13F
100
AcDbEntity
  8
0
 62
     0
370
    -2
100
AcDbCircle
 10
0.0
 20
0.0
 30
0.0
 40
0.5
  0
LINE
  5
141
330
13F
100
AcDbEntity
  8
0
 62
     0
370
    -2
100
AcDbLine
 10
-0.4
 20
-0.3
 30
0.0
 11
0.3
 21
0.4
 31
0.0
  0
LINE
  5
142
330
13F
100
AcDbEntity
  8
0
 62
     0
370
    -2
100
AcDbLine
 10
-0.3
 20
-0.4
 30
0.0
 11
0.4
 21
0.3
 31
0.0
  0
ENDBLK
  5
144
330
13F
100
AcDbEntity
  8
0
100
AcDbBlockEnd
  0
BLOCK
  5
149
330
145
100
AcDbEntity
  8
0
100
AcDbBlockBegin
  2
CDWK_PTTYP35
 70
     0
 10
0.0
 20
0.0
 30
0.0
  3
CDWK_PTTYP35
  1

  0
LINE
  5
146
330
145
100
AcDbEntity
  8
0
 62
     0
370
    -2
100
AcDbLine
 10
0.0
 20
0.2
 30
0.0
 11
0.0
 21
0.5
 31
0.0
  0
LINE
  5
147
330
145
100
AcDbEntity
  8
0
 62
     0
370
    -2
100
AcDbLine
 10
0.0
 20
-0.2
 30
0.0
 11
0.0
 21
-0.5
 31
0.0
  0
CIRCLE
  5
148
330
145
100
AcDbEntity
  8
0
 62
     0
370
    -2
100
AcDbCircle
 10
0.0
 20
0.0
 30
0.0
 40
0.2
  0
ENDBLK
  5
14A
330
145
100
AcDbEntity
  8
0
100
AcDbBlockEnd
  0
BLOCK
  5
151
330
14B
100
AcDbEntity
  8
0
100
AcDbBlockBegin
  2
CDWK_PTTYP36
 70
     0
 10
0.0
 20
0.0
 30
0.0
  3
CDWK_PTTYP36
  1

  0
LINE
  5
14C
330
14B
100
AcDbEntity
  8
0
 62
     0
370
    -2
100
AcDbLine
 10
-0.5
 20
0.2
 30
0.0
 11
0.5
 21
0.2
 31
0.0
  0
LINE
  5
14D
330
14B
100
AcDbEntity
  8
0
 62
     0
370
    -2
100
AcDbLine
 10
0.5
 20
0.2
 30
0.0
 11
0.5
 21
-0.2
 31
0.0
  0
LINE
  5
14E
330
14B
100
AcDbEntity
  8
0
 62
     0
370
    -2
100
AcDbLine
 10
0.5
 20
-0.2
 30
0.0
 11
-0.5
 21
-0.2
 31
0.0
  0
LINE
  5
14F
330
14B
100
AcDbEntity
  8
0
 62
     0
370
    -2
100
AcDbLine
 10
-0.5
 20
-0.2
 30
0.0
 11
-0.5
 21
0.2
 31
0.0
  0
HATCH
  5
150
330
14B
100
AcDbEntity
  8
0
 62
     0
370
    -2
100
AcDbHatch
 10
0.0
 20
0.0
 30
0.0
210
0.0
220
0.0
230
1.0
  2
SOLID
 70
     1
 71
     1
 91
        1
 92
        3
 72
     0
 73
     1
 93
        3
 10
-0.5
 20
-0.2
 10
0.5
 20
-0.2
 10
0.5
 20
0.2
 97
        0
 75
     0
 76
     1
 98
        0
  0
ENDBLK
  5
152
330
14B
100
AcDbEntity
  8
0
100
AcDbBlockEnd
  0
BLOCK
  5
156
330
153
100
AcDbEntity
  8
0
100
AcDbBlockBegin
  2
CDWK_PTTYP37
 70
     0
 10
0.0
 20
0.0
 30
0.0
  3
CDWK_PTTYP37
  1

  0
HATCH
  5
154
330
153
100
AcDbEntity
  8
0
 62
     0
370
    -2
100
AcDbHatch
 10
0.0
 20
0.0
 30
0.0
210
0.0
220
0.0
230
1.0
  2
SOLID
 70
     1
 71
     1
 91
        1
 92
        3
 72
     0
 73
     1
 93
      202
 10
-0.3535533905932738
 20
-0.3535533905932738
 10
-0.3485533905932738
 20
-0.3535533905932737
 10
-0.3435533905932738
 20
-0.3584836591895546
 10
-0.3385533905932738
 20
-0.3632782236961988
 10
-0.3335533905932738
 20
-0.367942389128785
 10
-0.3285533905932738
 20
-0.372481054046687
 10
-0.3235533905932738
 20
-0.3768987523588579
 10
-0.3185533905932738
 20
-0.3811996897107819
 10
-0.3135533905932738
 20
-0.3853877752881235
 10
-0.3085533905932737
 20
-0.3894666497242888
 10
-0.3035533905932737
 20
-0.3934397096803965
 10
-0.2985533905932737
 20
-0.3973101295704999
 10
-0.2935533905932737
 20
-0.4010808808273714
 10
-0.2885533905932737
 20
-0.4047547490409382
 10
-0.2835533905932737
 20
-0.4083343492496384
 10
-0.2785533905932737
 20
-0.4118221396222626
 10
-0.2735533905932737
 20
-0.4152204337324827
 10
-0.2685533905932737
 20
-0.4185314115988474
 10
-0.2635533905932737
 20
-0.4217571296384408
 10
-0.2585533905932737
 20
-0.4248995296617653
 10
-0.2535533905932737
 20
-0.4279604470190231
 10
-0.2485533905932737
 20
-0.4309416179932669
 10
-0.2435533905932737
 20
-0.4338446865234004
 10
-0.2385533905932737
 20
-0.4366712103293738
 10
-0.2335533905932737
 20
-0.439422666502825
 10
-0.2285533905932737
 20
-0.4421004566186126
 10
-0.2235533905932737
 20
-0.4447059114159811
 10
-0.2185533905932737
 20
-0.4472402950923041
 10
-0.2135533905932737
 20
-0.4497048092473372
 10
-0.2085533905932737
 20
-0.4521005965115692
 10
-0.2035533905932737
 20
-0.4544287438884664
 10
-0.1985533905932736
 20
-0.456690285837111
 10
-0.1935533905932736
 20
-0.45888620711884
 10
-0.1885533905932736
 20
-0.4610174454289638
 10
-0.1835533905932736
 20
-0.4630848938324164
 10
-0.1785533905932736
 20
-0.4650894030202291
 10
-0.1735533905932736
 20
-0.4670317834019928
 10
-0.1685533905932736
 20
-0.46891280704794
 10
-0.1635533905932736
 20
-0.4707332094929264
 10
-0.1585533905932736
 20
-0.4724936914133818
 10
-0.1535533905932736
 20
-0.4741949201872336
 10
-0.1485533905932736
 20
-0.4758375313458466
 10
-0.1435533905932736
 20
-0.4774221299261716
 10
-0.1385533905932736
 20
-0.4789492917305286
 10
-0.1335533905932736
 20
-0.4804195645007682
 10
-0.1285533905932736
 20
-0.4818334690129366
 10
-0.1235533905932736
 20
-0.4831915000980183
 10
-0.1185533905932736
 20
-0.4844941275938295
 10
-0.1135533905932736
 20
-0.4857417972326848
 10
-0.1085533905932736
 20
-0.4869349314690531
 10
-0.1035533905932736
 20
-0.4880739302510473
 10
-0.0985533905932736
 20
-0.489159171739258
 10
-0.0935533905932736
 20
-0.4901910129761353
 10
-0.0885533905932736
 20
-0.4911697905088447
 10
-0.0835533905932735
 20
-0.4920958209682695
 10
-0.0785533905932735
 20
-0.4929694016065986
 10
-0.0735533905932735
 20
-0.4937908107957261
 10
-0.0685533905932735
 20
-0.494560308488493
 10
-0.0635533905932735
 20
-0.4952781366446192
 10
-0.0585533905932735
 20
-0.4959445196230107
 10
-0.0535533905932735
 20
-0.4965596645419678
 10
-0.0485533905932735
 20
-0.4971237616086806
 10
-0.0435533905932735
 20
-0.4976369844192622
 10
-0.0385533905932735
 20
-0.4980994902304456
 10
-0.0335533905932735
 20
-0.4985114202039533
 10
-0.0285533905932735
 20
-0.4988728996244386
 10
-0.0235533905932735
 20
-0.4991840380917923
 10
-0.0185533905932735
 20
-0.49944492968851
 10
-0.0135533905932735
 20
-0.4996556531227215
 10
-0.0085533905932735
 20
-0.4998162718473921
 10
-0.0035533905932735
 20
-0.4999268341561182
 10
0.0014466094067265
 20
-0.499987373255857
 10
0.0064466094067265
 20
-0.4999979073168451
 10
0.0114466094067265
 20
-0.4999584394998819
 10
0.0164466094067265
 20
-0.4998689579610739
 10
0.0214466094067265
 20
-0.4997294358340547
 10
0.0264466094067265
 20
-0.4995398311896213
 10
0.0314466094067265
 20
-0.4993000869726422
 10
0.0364466094067265
 20
-0.4990101309160174
 10
0.0414466094067265
 20
-0.4986698754313855
 10
0.0464466094067265
 20
-0.498279217476192
 10
0.0514466094067265
 20
-0.4978380383966446
 10
0.0564466094067265
 20
-0.497346203745994
 10
0.0614466094067265
 20
-0.4968035630774849
 10
0.0664466094067264
 20
-0.4962099497112257
 10
0.0714466094067265
 20
-0.4955651804741228
 10
0.0764466094067265
 20
-0.4948690554119167
 10
0.0814466094067265
 20
-0.4941213574722463
 10
0.0864466094067265
 20
-0.4933218521575424
 10
0.0914466094067265
 20
-0.4924702871464235
 10
0.0964466094067265
 20
-0.4915663918821278
 10
0.1014466094067265
 20
-0.4906098771263643
 10
0.1064466094067265
 20
-0.4896004344768079
 10
0.1114466094067265
 20
-0.4885377358462822
 10
0.1164466094067265
 20
-0.4874214329014929
 10
0.1214466094067265
 20
-0.4862511564589613
 10
0.1264466094067265
 20
-0.4850265158355881
 10
0.1314466094067265
 20
-0.4837470981510305
 10
0.1364466094067265
 20
-0.482412467578809
 10
0.1414466094067265
 20
-0.4810221645427664
 10
0.1464466094067265
 20
-0.4795757048551781
 10
0.1514466094067265
 20
-0.4780725787924608
 10
0.1564466094067265
 20
-0.4765122501040308
 10
0.1614466094067265
 20
-0.4748941549494363
 10
0.1664466094067265
 20
-0.4732177007584056
 10
0.1714466094067265
 20
-0.4714822650079264
 10
0.1764466094067265
 20
-0.4696871939098801
 10
0.1814466094067266
 20
-0.4678318010021017
 10
0.1864466094067266
 20
-0.4659153656350076
 10
0.1914466094067266
 20
-0.4639371313451162
 10
0.1964466094067266
 20
-0.4618963041058764
 10
0.2014466094067266
 20
-0.4597920504451997
 10
0.2064466094067266
 20
-0.4576234954179405
 10
0.2114466094067266
 20
-0.4553897204202862
 10
0.2164466094067266
 20
-0.4530897608315588
 10
0.2214466094067266
 20
-0.45072260346729
 10
0.2264466094067266
 20
-0.4482871838255748
 10
0.2314466094067266
 20
-0.4457823831065977
 10
0.2364466094067266
 20
-0.4432070249828292
 10
0.2414466094067266
 20
-0.4405598720946596
 10
0.2464466094067266
 20
-0.4378396222431172
 10
0.2514466094067266
 20
-0.4350449042477435
 10
0.2564466094067266
 20
-0.4321742734336012
 10
0.2614466094067266
 20
-0.4292262067066663
 10
0.2664466094067266
 20
-0.4261990971714118
 10
0.2714466094067266
 20
-0.4230912482380831
 10
0.2764466094067266
 20
-0.4199008671598476
 10
0.2814466094067266
 20
-0.4166260579314797
 10
0.2864466094067266
 20
-0.4132648134712868
 10
0.2914466094067266
 20
-0.4098150069963156
 10
0.2964466094067266
 20
-0.4062743824871597
 10
0.3014466094067266
 20
-0.4026405441224911
 10
0.3064466094067266
 20
-0.3989109445442534
 10
0.3114466094067266
 20
-0.3950828717916294
 10
0.3164466094067266
 20
-0.391153434714632
 10
0.3214466094067266
 20
-0.3871195466454601
 10
0.3264466094067267
 20
-0.3829779070663467
 10
0.3314466094067267
 20
-0.3787249809648844
 10
0.3364466094067267
 20
-0.3743569755097196
 10
0.3414466094067267
 20
-0.3698698136084067
 10
0.3464466094067267
 20
-0.3652591038217257
 10
0.3514466094067267
 20
-0.3605201060004601
 10
0.3564466094067267
 20
-0.3556476918757041
 10
0.3614466094067267
 20
-0.3506362996645505
 10
0.3664466094067267
 20
-0.34547988153926
 10
0.3714466094067267
 20
-0.3401718425359658
 10
0.3764466094067267
 20
-0.334704969129899
 10
0.3814466094067267
 20
-0.3290713452523318
 10
0.3864466094067267
 20
-0.3232622529342269
 10
0.3914466094067267
 20
-0.3172680539828188
 10
0.3964466094067267
 20
-0.3110780480586465
 10
0.4014466094067267
 20
-0.304680301118911
 10
0.4064466094067267
 20
-0.2980614362775617
 10
0.4114466094067267
 20
-0.291206376478565
 10
0.4164466094067267
 20
-0.2840980246459106
 10
0.4214466094067267
 20
-0.276716861635935
 10
0.4264466094067267
 20
-0.2690404345439063
 10
0.4314466094067267
 20
-0.2610426963649944
 10
0.4364466094067267
 20
-0.2526931404518915
 10
0.4414466094067268
 20
-0.2439556458403291
 10
0.4464466094067268
 20
-0.2347869056044327
 10
0.4514466094067268
 20
-0.2251342376211081
 10
0.4564466094067268
 20
-0.2149324518428296
 10
0.4614466094067268
 20
-0.2040992228331676
 10
0.4664466094067268
 20
-0.1925279893081412
 10
0.4714466094067268
 20
-0.1800765408735088
 10
0.4764466094067268
 20
-0.1665475742210051
 10
0.4814466094067268
 20
-0.1516529867323223
 10
0.4864466094067268
 20
-0.1349413290684758
 10
0.4914466094067268
 20
-0.1156274024472547
 10
0.4964466094067268
 20
-0.0920881648347501
 10
0.5
 20
0.0
 10
0.495
 20
0.0
 10
0.49
 20
0.0705336798983295
 10
0.485
 20
0.0994987437106621
 10
0.48
 20
0.1215524578114322
 10
0.475
 20
0.14
 10
0.47
 20
0.15612494995996
 10
0.465
 20
0.1705872210923199
 10
0.46
 20
0.1837797594948911
 10
0.455
 20
0.1959591794226544
 10
0.45
 20
0.2073041244162789
 10
0.445
 20
0.2179449471770338
 10
0.4399999999999999
 20
0.2279802623035601
 10
0.4349999999999999
 20
0.2374868417407584
 10
0.4299999999999999
 20
0.2465258607124211
 10
0.4249999999999999
 20
0.2551470164434615
 10
0.4199999999999999
 20
0.2633913438213186
 10
0.4149999999999999
 20
0.2712931993250108
 10
0.4099999999999999
 20
0.2788816953476869
 10
0.4049999999999999
 20
0.2861817604250838
 10
0.3999999999999999
 20
0.2932149382279151
 10
0.3949999999999999
 20
0.3000000000000002
 10
0.3899999999999999
 20
0.3065534211193868
 10
0.3849999999999999
 20
0.3128897569432404
 10
0.3799999999999999
 20
0.3190219428189855
 10
0.3749999999999999
 20
0.3249615361854385
 10
0.3699999999999999
 20
0.330718913883074
 10
0.3649999999999999
 20
0.3363034344160049
 10
0.3599999999999999
 20
0.3417235724968357
 10
0.3549999999999999
 20
0.3469870314579496
 10
0.3535533905932738
 20
0.3535533905932738
 97
        0
 75
     0
 76
     1
 98
        0
  0
CIRCLE
  5
155
330
153
100
AcDbEntity
  8
0
 62
     0
370
    -2
100
AcDbCircle
 10
0.0
 20
0.0
 30
0.0
 40
0.5
  0
ENDBLK
  5
157
330
153
100
AcDbEntity
  8
0
100
AcDbBlockEnd
  0
BLOCK
  5
15C
330
158
100
AcDbEntity
  8
0
100
AcDbBlockBegin
  2
CDWK_PTTYP38
 70
     0
 10
0.0
 20
0.0
 30
0.0
  3
CDWK_PTTYP38
  1

  0
HATCH
  5
159
330
158
100
AcDbEntity
  8
0
 62
     0
370
    -2
100
AcDbHatch
 10
0.0
 20
0.0
 30
0.0
210
0.0
220
0.0
230
1.0
  2
SOLID
 70
     1
 71
     1
 91
        1
 92
        3
 72
     0
 73
     1
 93
      102
 10
0.0
 20
0.0
 10
0.0
 20
0.5
 10
0.005
 20
0.5
 10
0.01
 20
0.4999749993749688
 10
0.015
 20
0.4998999899979995
 10
0.02
 20
0.4997749493522059
 10
0.025
 20
0.4995998398718718
 10
0.03
 20
0.4993746088859545
 10
0.035
 20
0.4990991885387112
 10
0.04
 20
0.4987734956871706
 10
0.045
 20
0.4983974317750845
 10
0.05
 20
0.4979708826829135
 10
0.055
 20
0.49749371855331
 10
0.06
 20
0.4969657935914704
 10
0.065
 20
0.4963869458396343
 10
0.07
 20
0.4957569969249047
 10
0.075
 20
0.4950757517794626
 10
0.08
 20
0.4943429983321297
 10
0.085
 20
0.4935585071701227
 10
0.09
 20
0.4927220311697053
 10
0.095
 20
0.4918333050943175
 10
0.1
 20
0.4908920451586071
 10
0.105
 20
0.4898979485566356
 10
0.11
 20
0.4888506929523574
 10
0.115
 20
0.4877499359302879
 10
0.12
 20
0.4865953144040744
 10
0.125
 20
0.4853864439804639
 10
0.13
 20
0.4841229182759271
 10
0.135
 20
0.4828043081829325
 10
0.14
 20
0.4814301610825811
 10
0.145
 20
0.48
 10
0.15
 20
0.478513322698543
 10
0.1550000000000001
 20
0.4769696007084728
 10
0.1600000000000001
 20
0.4753682782853731
 10
0.1650000000000001
 20
0.4737087712930804
 10
0.1700000000000001
 20
0.4719904660054056
 10
0.1750000000000001
 20
0.4702127178203498
 10
0.1800000000000001
 20
0.4683748498798799
 10
0.1850000000000001
 20
0.466476151587624
 10
0.1900000000000001
 20
0.4645158770160606
 10
0.1950000000000001
 20
0.4624932431938871
 10
0.2000000000000001
 20
0.460407428263272
 10
0.2050000000000001
 20
0.4582575694955839
 10
0.2100000000000001
 20
0.4560427611529427
 10
0.2150000000000001
 20
0.4537620521815371
 10
0.2200000000000001
 20
0.4514144437210665
 10
0.2250000000000001
 20
0.4489988864128729
 10
0.2300000000000001
 20
0.4465142774872937
 10
0.2350000000000001
 20
0.4439594576084622
 10
0.2400000000000001
 20
0.4413332074521472
 10
0.2450000000000001
 20
0.4386342439892261
 10
0.2500000000000001
 20
0.4358612164439502
 10
0.2550000000000001
 20
0.4330127018922192
 10
0.2600000000000001
 20
0.4300872004605577
 10
0.2650000000000001
 20
0.4270831300812524
 10
0.2700000000000001
 20
0.423998820753077
 10
0.2750000000000001
 20
0.4208325082500162
 10
0.2800000000000001
 20
0.4175823272122516
 10
0.2850000000000001
 20
0.4142463035441595
 10
0.2900000000000001
 20
0.4108223460329293
 10
0.2950000000000002
 20
0.4073082370883259
 10
0.3000000000000002
 20
0.403701622488689
 10
0.3050000000000002
 20
0.3999999999999999
 10
0.3100000000000002
 20
0.3962007067131506
 10
0.3150000000000002
 20
0.3923009049186605
 10
0.3200000000000002
 20
0.3882975663070783
 10
0.3250000000000002
 20
0.3841874542459708
 10
0.3300000000000002
 20
0.3799671038392664
 10
0.3350000000000002
 20
0.3756327994198588
 10
0.3400000000000002
 20
0.3711805490593491
 10
0.3450000000000002
 20
0.366606055596467
 10
0.3500000000000002
 20
0.3619046835839512
 10
0.3550000000000002
 20
0.3570714214271423
 10
0.3600000000000002
 20
0.3521008378291649
 10
0.3650000000000002
 20
0.3469870314579492
 10
0.3700000000000002
 20
0.3417235724968353
 10
0.3750000000000002
 20
0.3363034344160045
 10
0.3800000000000002
 20
0.3307189138830736
 10
0.3850000000000002
 20
0.3249615361854382
 10
0.3900000000000002
 20
0.3190219428189851
 10
0.3950000000000002
 20
0.31288975694324
 10
0.4000000000000002
 20
0.3065534211193863
 10
0.4050000000000002
 20
0.2999999999999997
 10
0.4100000000000003
 20
0.2932149382279147
 10
0.4150000000000003
 20
0.2861817604250834
 10
0.4200000000000003
 20
0.2788816953476864
 10
0.4250000000000003
 20
0.2712931993250103
 10
0.4300000000000003
 20
0.263391343821318
 10
0.4350000000000003
 20
0.255147016443461
 10
0.4400000000000003
 20
0.2465258607124206
 10
0.4450000000000003
 20
0.2374868417407578
 10
0.4500000000000003
 20
0.2279802623035594
 10
0.4550000000000003
 20
0.2179449471770331
 10
0.4600000000000003
 20
0.2073041244162782
 10
0.4650000000000003
 20
0.1959591794226536
 10
0.4700000000000003
 20
0.1837797594948903
 10
0.4750000000000003
 20
0.170587221092319
 10
0.4800000000000003
 20
0.156124949959959
 10
0.4850000000000003
 20
0.1399999999999989
 10
0.4900000000000003
 20
0.1215524578114309
 10
0.4950000000000003
 20
0.0994987437106604
 10
0.5
 20
0.0
 97
        0
 75
     0
 76
     1
 98
        0
  0
HATCH
  5
15A
330
158
100
AcDbEntity
  8
0
 62
     0
370
    -2
100
AcDbHatch
 10
0.0
 20
0.0
 30
0.0
210
0.0
220
0.0
230
1.0
  2
SOLID
 70
     1
 71
     1
 91
        1
 92
        3
 72
     0
 73
     1
 93
      102
 10
0.0
 20
0.0
 10
-0.5
 20
0.0
 10
-0.495
 20
0.0
 10
-0.49
 20
-0.0705336798983295
 10
-0.485
 20
-0.0994987437106621
 10
-0.48
 20
-0.1215524578114322
 10
-0.475
 20
-0.14
 10
-0.47
 20
-0.15612494995996
 10
-0.465
 20
-0.1705872210923199
 10
-0.46
 20
-0.1837797594948911
 10
-0.455
 20
-0.1959591794226544
 10
-0.45
 20
-0.2073041244162789
 10
-0.445
 20
-0.2179449471770338
 10
-0.4399999999999999
 20
-0.2279802623035601
 10
-0.4349999999999999
 20
-0.2374868417407584
 10
-0.4299999999999999
 20
-0.2465258607124211
 10
-0.4249999999999999
 20
-0.2551470164434615
 10
-0.4199999999999999
 20
-0.2633913438213186
 10
-0.4149999999999999
 20
-0.2712931993250108
 10
-0.4099999999999999
 20
-0.2788816953476869
 10
-0.4049999999999999
 20
-0.2861817604250838
 10
-0.3999999999999999
 20
-0.2932149382279151
 10
-0.3949999999999999
 20
-0.3000000000000002
 10
-0.3899999999999999
 20
-0.3065534211193868
 10
-0.3849999999999999
 20
-0.3128897569432404
 10
-0.3799999999999999
 20
-0.3190219428189855
 10
-0.3749999999999999
 20
-0.3249615361854385
 10
-0.3699999999999999
 20
-0.330718913883074
 10
-0.3649999999999999
 20
-0.3363034344160049
 10
-0.3599999999999999
 20
-0.3417235724968357
 10
-0.3549999999999999
 20
-0.3469870314579496
 10
-0.3499999999999999
 20
-0.3521008378291652
 10
-0.3449999999999999
 20
-0.3570714214271427
 10
-0.3399999999999999
 20
-0.3619046835839516
 10
-0.3349999999999999
 20
-0.3666060555964674
 10
-0.3299999999999998
 20
-0.3711805490593494
 10
-0.3249999999999998
 20
-0.3756327994198591
 10
-0.3199999999999998
 20
-0.3799671038392667
 10
-0.3149999999999998
 20
-0.3841874542459711
 10
-0.3099999999999998
 20
-0.3882975663070786
 10
-0.3049999999999998
 20
-0.3923009049186608
 10
-0.2999999999999998
 20
-0.3962007067131507
 10
-0.2949999999999998
 20
-0.4000000000000001
 10
-0.2899999999999998
 20
-0.4037016224886891
 10
-0.2849999999999998
 20
-0.4073082370883261
 10
-0.2799999999999998
 20
-0.4108223460329296
 10
-0.2749999999999998
 20
-0.4142463035441597
 10
-0.2699999999999998
 20
-0.4175823272122518
 10
-0.2649999999999998
 20
-0.4208325082500164
 10
-0.2599999999999998
 20
-0.4239988207530773
 10
-0.2549999999999998
 20
-0.4270831300812526
 10
-0.2499999999999998
 20
-0.4300872004605579
 10
-0.2449999999999998
 20
-0.4330127018922195
 10
-0.2399999999999998
 20
-0.4358612164439503
 10
-0.2349999999999998
 20
-0.4386342439892263
 10
-0.2299999999999998
 20
-0.4413332074521473
 10
-0.2249999999999998
 20
-0.4439594576084624
 10
-0.2199999999999998
 20
-0.4465142774872939
 10
-0.2149999999999997
 20
-0.4489988864128731
 10
-0.2099999999999997
 20
-0.4514144437210667
 10
-0.2049999999999997
 20
-0.4537620521815372
 10
-0.1999999999999997
 20
-0.4560427611529429
 10
-0.1949999999999997
 20
-0.4582575694955841
 10
-0.1899999999999997
 20
-0.4604074282632722
 10
-0.1849999999999997
 20
-0.4624932431938872
 10
-0.1799999999999997
 20
-0.4645158770160608
 10
-0.1749999999999997
 20
-0.4664761515876241
 10
-0.1699999999999997
 20
-0.46837484987988
 10
-0.1649999999999997
 20
-0.47021271782035
 10
-0.1599999999999997
 20
-0.4719904660054058
 10
-0.1549999999999997
 20
-0.4737087712930805
 10
-0.1499999999999997
 20
-0.4753682782853733
 10
-0.1449999999999997
 20
-0.4769696007084729
 10
-0.1399999999999997
 20
-0.4785133226985431
 10
-0.1349999999999997
 20
-0.4800000000000001
 10
-0.1299999999999997
 20
-0.4814301610825812
 10
-0.1249999999999997
 20
-0.4828043081829325
 10
-0.1199999999999997
 20
-0.4841229182759272
 10
-0.1149999999999997
 20
-0.485386443980464
 10
-0.1099999999999997
 20
-0.4865953144040744
 10
-0.1049999999999996
 20
-0.487749935930288
 10
-0.0999999999999996
 20
-0.4888506929523574
 10
-0.0949999999999996
 20
-0.4898979485566357
 10
-0.0899999999999996
 20
-0.4908920451586072
 10
-0.0849999999999996
 20
-0.4918333050943176
 10
-0.0799999999999996
 20
-0.4927220311697053
 10
-0.0749999999999996
 20
-0.4935585071701227
 10
-0.0699999999999996
 20
-0.4943429983321298
 10
-0.0649999999999996
 20
-0.4950757517794626
 10
-0.0599999999999996
 20
-0.4957569969249048
 10
-0.0549999999999996
 20
-0.4963869458396343
 10
-0.0499999999999996
 20
-0.4969657935914705
 10
-0.0449999999999996
 20
-0.49749371855331
 10
-0.0399999999999996
 20
-0.4979708826829135
 10
-0.0349999999999996
 20
-0.4983974317750846
 10
-0.0299999999999996
 20
-0.4987734956871706
 10
-0.0249999999999996
 20
-0.4990991885387112
 10
-0.0199999999999996
 20
-0.4993746088859545
 10
-0.0149999999999996
 20
-0.4995998398718719
 10
-0.0099999999999996
 20
-0.499774949352206
 10
-0.0049999999999996
 20
-0.4998999899979995
 10
0.0
 20
-0.5
 97
        0
 75
     0
 76
     1
 98
        0
  0
CIRCLE
  5
15B
330
158
100
AcDbEntity
  8
0
 62
     0
370
    -2
100
AcDbCircle
 10
0.0
 20
0.0
 30
0.0
 40
0.5
  0
ENDBLK
  5
15D
330
158
100
AcDbEntity
  8
0
100
AcDbBlockEnd
  0
BLOCK
  5
166
330
15E
100
AcDbEntity
  8
0
100
AcDbBlockBegin
  2
CDWK_PTTYP41
 70
     0
 10
0.0
 20
0.0
 30
0.0
  3
CDWK_PTTYP41
  1

  0
LINE
  5
15F
330
15E
100
AcDbEntity
  8
0
 62
     0
370
    -2
100
AcDbLine
 10
-0.5
 20
0.5
 30
0.0
 11
0.5
 21
0.5
 31
0.0
  0
LINE
  5
160
330
15E
100
AcDbEntity
  8
0
 62
     0
370
    -2
100
AcDbLine
 10
0.5
 20
0.5
 30
0.0
 11
0.5
 21
-0.5
 31
0.0
  0
LINE
  5
161
330
15E
100
AcDbEntity
  8
0
 62
     0
370
    -2
100
AcDbLine
 10
0.5
 20
-0.5
 30
0.0
 11
-0.5
 21
-0.5
 31
0.0
  0
LINE
  5
162
330
15E
100
AcDbEntity
  8
0
 62
     0
370
    -2
100
AcDbLine
 10
-0.5
 20
-0.5
 30
0.0
 11
-0.5
 21
0.5
 31
0.0
  0
LINE
  5
163
330
15E
100
AcDbEntity
  8
0
 62
     0
370
    -2
100
AcDbLine
 10
-0.375
 20
0.25
 30
0.0
 11
0.375
 21
0.25
 31
0.0
  0
LINE
  5
164
330
15E
100
AcDbEntity
  8
0
 62
     0
370
    -2
100
AcDbLine
 10
-0.375
 20
0.0
 30
0.0
 11
0.375
 21
0.0
 31
0.0
  0
LINE
  5
165
330
15E
100
AcDbEntity
  8
0
 62
     0
370
    -2
100
AcDbLine
 10
-0.375
 20
-0.25
 30
0.0
 11
0.375
 21
-0.25
 31
0.0
  0
ENDBLK
  5
167
330
15E
100
AcDbEntity
  8
0
100
AcDbBlockEnd
  0
BLOCK
  5
16F
330
168
100
AcDbEntity
  8
0
100
AcDbBlockBegin
  2
CDWK_PTTYP42
 70
     0
 10
0.0
 20
0.0
 30
0.0
  3
CDWK_PTTYP42
  1

  0
LINE
  5
169
330
168
100
AcDbEntity
  8
0
 62
     0
370
    -2
100
AcDbLine
 10
-0.5
 20
0.5
 30
0.0
 11
0.5
 21
0.5
 31
0.0
  0
LINE
  5
16A
330
168
100
AcDbEntity
  8
0
 62
     0
370
    -2
100
AcDbLine
 10
0.5
 20
0.5
 30
0.0
 11
0.5
 21
-0.5
 31
0.0
  0
LINE
  5
16B
330
168
100
AcDbEntity
  8
0
 62
     0
370
    -2
100
AcDbLine
 10
0.5
 20
-0.5
 30
0.0
 11
-0.5
 21
-0.5
 31
0.0
  0
LINE
  5
16C
330
168
100
AcDbEntity
  8
0
 62
     0
370
    -2
100
AcDbLine
 10
-0.5
 20
-0.5
 30
0.0
 11
-0.5
 21
0.5
 31
0.0
  0
LINE
  5
16D
330
168
100
AcDbEntity
  8
0
 62
     0
370
    -2
100
AcDbLine
 10
-0.375
 20
0.125
 30
0.0
 11
0.375
 21
0.125
 31
0.0
  0
LINE
  5
16E
330
168
100
AcDbEntity
  8
0
 62
     0
370
    -2
100
AcDbLine
 10
-0.375
 20
-0.125
 30
0.0
 11
0.375
 21
-0.125
 31
0.0
  0
ENDBLK
  5
170
330
168
100
AcDbEntity
  8
0
100
AcDbBlockEnd
  0
BLOCK
  5
175
330
171
100
AcDbEntity
  8
0
100
AcDbBlockBegin
  2
CDWK_PTTYP43
 70
     0
 10
0.0
 20
0.0
 30
0.0
  3
CDWK_PTTYP43
  1

  0
CIRCLE
  5
172
330
171
100
AcDbEntity
  8
0
 62
     0
370
    -2
100
AcDbCircle
 10
0.0
 20
0.0
 30
0.0
 40
0.5
  0
LINE
  5
173
330
171
100
AcDbEntity
  8
0
 62
     0
370
    -2
100
AcDbLine
 10
-0.375
 20
0.166
 30
0.0
 11
0.375
 21
0.166
 31
0.0
  0
LINE
  5
174
330
171
100
AcDbEntity
  8
0
 62
     0
370
    -2
100
AcDbLine
 10
-0.375
 20
-0.166
 30
0.0
 11
0.375
 21
-0.166
 31
0.0
  0
ENDBLK
  5
176
330
171
100
AcDbEntity
  8
0
100
AcDbBlockEnd
  0
BLOCK
  5
17E
330
177
100
AcDbEntity
  8
0
100
AcDbBlockBegin
  2
CDWK_PTTYP44
 70
     0
 10
0.0
 20
0.0
 30
0.0
  3
CDWK_PTTYP44
  1

  0
CIRCLE
  5
178
330
177
100
AcDbEntity
  8
0
 62
     0
370
    -2
100
AcDbCircle
 10
0.0
 20
0.0
 30
0.0
 40
0.5
  0
LINE
  5
179
330
177
100
AcDbEntity
  8
0
 62
     0
370
    -2
100
AcDbLine
 10
-0.375
 20
0.333
 30
0.0
 11
0.375
 21
0.333
 31
0.0
  0
LINE
  5
17A
330
177
100
AcDbEntity
  8
0
 62
     0
370
    -2
100
AcDbLine
 10
-0.375
 20
0.166
 30
0.0
 11
0.375
 21
0.166
 31
0.0
  0
LINE
  5
17B
330
177
100
AcDbEntity
  8
0
 62
     0
370
    -2
100
AcDbLine
 10
-0.375
 20
0.0
 30
0.0
 11
0.375
 21
0.0
 31
0.0
  0
LINE
  5
17C
330
177
100
AcDbEntity
  8
0
 62
     0
370
    -2
100
AcDbLine
 10
-0.375
 20
-0.166
 30
0.0
 11
0.375
 21
-0.166
 31
0.0
  0
LINE
  5
17D
330
177
100
AcDbEntity
  8
0
 62
     0
370
    -2
100
AcDbLine
 10
-0.375
 20
-0.333
 30
0.0
 11
0.375
 21
-0.333
 31
0.0
  0
ENDBLK
  5
17F
330
177
100
AcDbEntity
  8
0
100
AcDbBlockEnd
  0
BLOCK
  5
183
330
180
100
AcDbEntity
  8
0
100
AcDbBlockBegin
  2
CDWK_PTTYP45
 70
     0
 10
0.0
 20
0.0
 30
0.0
  3
CDWK_PTTYP45
  1

  0
ELLIPSE
  5
181
330
180
100
AcDbEntity
  8
0
 62
     0
370
    -2
100
AcDbEllipse
 10
0.0
 20
0.0
 30
0.0
 11
0.5
 21
0.0
 31
0.0
210
0.0
220
0.0
230
1.0
 40
0.82
 41
0.0
 42
6.283185307179586
  0
CIRCLE
  5
182
330
180
100
AcDbEntity
  8
0
 62
     0
370
    -2
100
AcDbCircle
 10
-0.235
 20
0.0
 30
0.0
 40
0.26
  0
ENDBLK
  5
184
330
180
100
AcDbEntity
  8
0
100
AcDbBlockEnd
  0
BLOCK
  5
188
330
185
100
AcDbEntity
  8
0
100
AcDbBlockBegin
  2
CDWK_PTTYP46
 70
     0
 10
0.0
 20
0.0
 30
0.0
  3
CDWK_PTTYP46
  1

  0
ELLIPSE
  5
186
330
185
100
AcDbEntity
  8
0
 62
     0
370
    -2
100
AcDbEllipse
 10
0.0
 20
0.0
 30
0.0
 11
0.5
 21
0.0
 31
0.0
210
0.0
220
0.0
230
1.0
 40
0.82
 41
0.0
 42
6.283185307179586
  0
CIRCLE
  5
187
330
185
100
AcDbEntity
  8
0
 62
     0
370
    -2
100
AcDbCircle
 10
0.0
 20
0.15
 30
0.0
 40
0.26
  0
ENDBLK
  5
189
330
185
100
AcDbEntity
  8
0
100
AcDbBlockEnd
  0
BLOCK
  5
190
330
18A
100
AcDbEntity
  8
0
100
AcDbBlockBegin
  2
CDWK_PTTYP47
 70
     0
 10
0.0
 20
0.0
 30
0.0
  3
CDWK_PTTYP47
  1

  0
LINE
  5
18B
330
18A
100
AcDbEntity
  8
0
 62
     0
370
    -2
100
AcDbLine
 10
-0.5
 20
0.166
 30
0.0
 11
0.5
 21
0.166
 31
0.0
  0
LINE
  5
18C
330
18A
100
AcDbEntity
  8
0
 62
     0
370
    -2
100
AcDbLine
 10
0.5
 20
0.166
 30
0.0
 11
0.5
 21
-0.166
 31
0.0
  0
LINE
  5
18D
330
18A
100
AcDbEntity
  8
0
 62
     0
370
    -2
100
AcDbLine
 10
0.5
 20
-0.166
 30
0.0
 11
-0.5
 21
-0.166
 31
0.0
  0
LINE
  5
18E
330
18A
100
AcDbEntity
  8
0
 62
     0
370
    -2
100
AcDbLine
 10
-0.5
 20
-0.166
 30
0.0
 11
-0.5
 21
0.166
 31
0.0
  0
CIRCLE
  5
18F
330
18A
100
AcDbEntity
  8
0
 62
     0
370
    -2
100
AcDbCircle
 10
0.0
 20
-0.313
 30
0.0
 40
0.4
  0
ENDBLK
  5
191
330
18A
100
AcDbEntity
  8
0
100
AcDbBlockEnd
  0
BLOCK
  5
196
330
193
100
AcDbEntity
  8
0
100
AcDbBlockBegin
  2
CDWK_PTTYP48
 70
     0
 10
0.0
 20
0.0
 30
0.0
  3
CDWK_PTTYP48
  1

  0
CIRCLE
  5
194
330
193
100
AcDbEntity
  8
0
  6
CADWORK_3
 62
     0
 48
0.1
370
    -2
100
AcDbCircle
 10
0.0
 20
0.0
 30
0.0
 40
0.5
  0
CIRCLE
  5
195
330
193
100
AcDbEntity
  8
0
 62
     0
370
    -2
100
AcDbCircle
 10
0.0
 20
0.0
 30
0.0
 40
0.25
  0
ENDBLK
  5
197
330
193
100
AcDbEntity
  8
0
100
AcDbBlockEnd
  0
BLOCK
  5
19D
330
198
100
AcDbEntity
  8
0
100
AcDbBlockBegin
  2
CDWK_PTTYP49
 70
     0
 10
0.0
 20
0.0
 30
0.0
  3
CDWK_PTTYP49
  1

  0
LINE
  5
199
330
198
100
AcDbEntity
  8
0
 62
     0
370
    -2
100
AcDbLine
 10
-0.5
 20
0.166
 30
0.0
 11
0.5
 21
0.166
 31
0.0
  0
LINE
  5
19A
330
198
100
AcDbEntity
  8
0
 62
     0
370
    -2
100
AcDbLine
 10
0.5
 20
0.166
 30
0.0
 11
0.5
 21
-0.166
 31
0.0
  0
LINE
  5
19B
330
198
100
AcDbEntity
  8
0
 62
     0
370
    -2
100
AcDbLine
 10
0.5
 20
-0.166
 30
0.0
 11
-0.5
 21
-0.166
 31
0.0
  0
LINE
  5
19C
330
198
100
AcDbEntity
  8
0
 62
     0
370
    -2
100
AcDbLine
 10
-0.5
 20
-0.166
 30
0.0
 11
-0.5
 21
0.166
 31
0.0
  0
ENDBLK
  5
19E
330
198
100
AcDbEntity
  8
0
100
AcDbBlockEnd
  0
BLOCK
  5
1A7
330
19F
100
AcDbEntity
  8
0
100
AcDbBlockBegin
  2
CDWK_PTTYP50
 70
     0
 10
0.0
 20
0.0
 30
0.0
  3
CDWK_PTTYP50
  1

  0
LINE
  5
1A0
330
19F
100
AcDbEntity
  8
0
 62
     0
370
    -2
100
AcDbLine
 10
-0.5
 20
0.166
 30
0.0
 11
0.5
 21
0.166
 31
0.0
  0
LINE
  5
1A1
330
19F
100
AcDbEntity
  8
0
 62
     0
370
    -2
100
AcDbLine
 10
0.5
 20
0.166
 30
0.0
 11
0.5
 21
-0.166
 31
0.0
  0
LINE
  5
1A2
330
19F
100
AcDbEntity
  8
0
 62
     0
370
    -2
100
AcDbLine
 10
0.5
 20
-0.166
 30
0.0
 11
-0.5
 21
-0.166
 31
0.0
  0
LINE
  5
1A3
330
19F
100
AcDbEntity
  8
0
 62
     0
370
    -2
100
AcDbLine
 10
-0.5
 20
-0.166
 30
0.0
 11
-0.5
 21
0.166
 31
0.0
  0
LINE
  5
1A4
330
19F
100
AcDbEntity
  8
0
 62
     0
370
    -2
100
AcDbLine
 10
-0.25
 20
-0.166
 30
0.0
 11
-0.25
 21
0.166
 31
0.0
  0
LINE
  5
1A5
330
19F
100
AcDbEntity
  8
0
 62
     0
370
    -2
100
AcDbLine
 10
0.0
 20
-0.166
 30
0.0
 11
0.0
 21
0.166
 31
0.0
  0
LINE
  5
1A6
330
19F
100
AcDbEntity
  8
0
 62
     0
370
    -2
100
AcDbLine
 10
0.25
 20
-0.166
 30
0.0
 11
0.25
 21
0.166
 31
0.0
  0
ENDBLK
  5
1A8
330
19F
100
AcDbEntity
  8
0
100
AcDbBlockEnd
  0
BLOCK
  5
1AC
330
1A9
100
AcDbEntity
  8
0
100
AcDbBlockBegin
  2
CDWK_PTTYP51
 70
     0
 10
0.0
 20
0.0
 30
0.0
  3
CDWK_PTTYP51
  1

  0
SPLINE
  5
1AA
330
1A9
100
AcDbEntity
  8
0
 62
     0
370
    -2
100
AcDbSpline
210
0.0
220
0.0
230
1.0
 70
  1064
 71
     3
 72
    12
 73
     8
 74
     6
 42
0.000000001
 43
0.0000000001
 44
0.0000000001
 40
0.0
 40
0.0
 40
0.0
 40
0.0
 40
0.1690118339052032
 40
0.5175774661755118
 40
0.8011704844252565
 40
0.9154070810132151
 40
0.975822310881188
 40
0.975822310881188
 40
0.975822310881188
 40
0.975822310881188
 10
-0.5
 20
-0.077
 30
0.0
 10
-0.443824324006723
 20
-0.0900581618560981
 30
0.0
 10
-0.2717933876546281
 20
-0.1300471387828842
 30
0.0
 10
-0.0276699186086479
 20
-0.0006977790990417
 30
0.0
 10
0.2303349729129116
 20
0.0817803270207037
 30
0.0
 10
0.3686157174766292
 20
0.0066250198607167
 30
0.0
 10
0.4216533294581816
 20
-0.0168719667726145
 30
0.0
 10
0.44
 20
-0.025
 30
0.0
 11
-0.5
 21
-0.077
 31
0.0
 11
-0.333
 21
-0.103
 31
0.0
 11
0.0
 21
0.0
 31
0.0
 11
0.28
 21
0.045
 31
0.0
 11
0.385
 21
0.0
 31
0.0
 11
0.44
 21
-0.025
 31
0.0
  0
HATCH
  5
1AB
330
1A9
100
AcDbEntity
  8
0
 62
     0
370
    -2
100
AcDbHatch
 10
0.0
 20
0.0
 30
0.0
210
0.0
220
0.0
230
1.0
  2
SOLID
 70
     1
 71
     1
 91
        1
 92
        3
 72
     0
 73
     1
 93
        3
 10
0.365
 20
-0.05
 10
0.5
 20
-0.042
 10
0.395
 20
0.045
 97
        0
 75
     0
 76
     1
 98
        0
  0
ENDBLK
  5
1AD
330
1A9
100
AcDbEntity
  8
0
100
AcDbBlockEnd
  0
BLOCK
  5
1B2
330
1AE
100
AcDbEntity
  8
0
100
AcDbBlockBegin
  2
CDWK_PTTYP52
 70
     0
 10
0.0
 20
0.0
 30
0.0
  3
CDWK_PTTYP52
  1

  0
LINE
  5
1AF
330
1AE
100
AcDbEntity
  8
0
 62
     0
370
    -2
100
AcDbLine
 10
-0.5
 20
-0.289
 30
0.0
 11
0.5
 21
-0.289
 31
0.0
  0
LINE
  5
1B0
330
1AE
100
AcDbEntity
  8
0
 62
     0
370
    -2
100
AcDbLine
 10
0.5
 20
-0.289
 30
0.0
 11
0.0
 21
0.577
 31
0.0
  0
LINE
  5
1B1
330
1AE
100
AcDbEntity
  8
0
 62
     0
370
    -2
100
AcDbLine
 10
0.0
 20
0.577
 30
0.0
 11
-0.5
 21
-0.289
 31
0.0
  0
ENDBLK
  5
1B3
330
1AE
100
AcDbEntity
  8
0
100
AcDbBlockEnd
  0
BLOCK
  5
1B9
330
1B4
100
AcDbEntity
  8
0
100
AcDbBlockBegin
  2
cw-dimension-symbol1
 70
     0
 10
0.0
 20
0.0
 30
0.0
  3
cw-dimension-symbol1
  1

  0
LINE
  5
1B5
330
1B4
100
AcDbEntity
  8
0
 62
     0
370
    -2
100
AcDbLine
 10
0.0
 20
0.0
 30
0.0
 11
-1.0
 21
0.25
 31
0.0
  0
LINE
  5
1B6
330
1B4
100
AcDbEntity
  8
0
 62
     0
370
    -2
100
AcDbLine
 10
0.0
 20
0.0
 30
0.0
 11
-1.0
 21
-0.25
 31
0.0
  0
LINE
  5
1B7
330
1B4
100
AcDbEntity
  8
0
 62
     0
370
    -2
100
AcDbLine
 10
-1.0
 20
0.25
 30
0.0
 11
-1.0
 21
-0.25
 31
0.0
  0
LINE
  5
1B8
330
1B4
100
AcDbEntity
  8
0
 62
     0
370
    -2
100
AcDbLine
 10
0.0
 20
0.0
 30
0.0
 11
-1.0
 21
0.0
 31
0.0
  0
ENDBLK
  5
1BA
330
1B4
100
AcDbEntity
  8
0
100
AcDbBlockEnd
  0
BLOCK
  5
1BE
330
1BB
100
AcDbEntity
  8
0
100
AcDbBlockBegin
  2
cw-dimension-symbol2
 70
     0
 10
0.0
 20
0.0
 30
0.0
  3
cw-dimension-symbol2
  1

  0
LINE
  5
1BC
330
1BB
100
AcDbEntity
  8
0
 62
     0
370
    -2
100
AcDbLine
 10
-1.0
 20
0.0
 30
0.0
 11
1.0
 21
0.0
 31
0.0
  0
LINE
  5
1BD
330
1BB
100
AcDbEntity
  8
0
 62
     0
370
    -2
100
AcDbLine
 10
-0.5
 20
-0.5
 30
0.0
 11
0.5
 21
0.5
 31
0.0
  0
ENDBLK
  5
1BF
330
1BB
100
AcDbEntity
  8
0
100
AcDbBlockEnd
  0
BLOCK
  5
1C3
330
1C0
100
AcDbEntity
  8
0
100
AcDbBlockBegin
  2
cw-dimension-symbol3
 70
     0
 10
0.0
 20
0.0
 30
0.0
  3
cw-dimension-symbol3
  1

  0
LINE
  5
1C1
330
1C0
100
AcDbEntity
  8
0
 62
     0
370
    -2
100
AcDbLine
 10
-1.0
 20
0.0
 30
0.0
 11
1.0
 21
0.0
 31
0.0
  0
CIRCLE
  5
1C2
330
1C0
100
AcDbEntity
  8
0
 62
     0
370
    -2
100
AcDbCircle
 10
0.0
 20
0.0
 30
0.0
 40
0.25
  0
ENDBLK
  5
1C4
330
1C0
100
AcDbEntity
  8
0
100
AcDbBlockEnd
  0
BLOCK
  5
1CA
330
1C5
100
AcDbEntity
  8
0
100
AcDbBlockBegin
  2
cw-dimension-symbol5
 70
     0
 10
0.0
 20
0.0
 30
0.0
  3
cw-dimension-symbol5
  1

  0
HATCH
  5
1C6
330
1C5
100
AcDbEntity
  8
0
 62
     0
370
    -2
100
AcDbHatch
 10
0.0
 20
0.0
 30
0.0
210
0.0
220
0.0
230
1.0
  2
SOLID
 70
     1
 71
     1
 91
        1
 92
        3
 72
     0
 73
     1
 93
        3
 10
0.0
 20
0.0
 10
-1.0
 20
0.25
 10
-1.0
 20
-0.25
 97
        0
 75
     0
 76
     1
 98
        0
  0
LINE
  5
1C7
330
1C5
100
AcDbEntity
  8
0
 62
     0
370
    -2
100
AcDbLine
 10
0.0
 20
0.0
 30
0.0
 11
-1.0
 21
0.25
 31
0.0
  0
LINE
  5
1C8
330
1C5
100
AcDbEntity
  8
0
 62
     0
370
    -2
100
AcDbLine
 10
-1.0
 20
0.25
 30
0.0
 11
-1.0
 21
-0.25
 31
0.0
  0
LINE
  5
1C9
330
1C5
100
AcDbEntity
  8
0
 62
     0
370
    -2
100
AcDbLine
 10
-1.0
 20
-0.25
 30
0.0
 11
0.0
 21
0.0
 31
0.0
  0
ENDBLK
  5
1CB
330
1C5
100
AcDbEntity
  8
0
100
AcDbBlockEnd
  0
BLOCK
  5
1D0
330
1CC
100
AcDbEntity
  8
0
100
AcDbBlockBegin
  2
cw-dimension-symbol6
 70
     0
 10
0.0
 20
0.0
 30
0.0
  3
cw-dimension-symbol6
  1

  0
LINE
  5
1CD
330
1CC
100
AcDbEntity
  8
0
 62
     0
370
    -2
100
AcDbLine
 10
0.0
 20
0.0
 30
0.0
 11
-1.0
 21
0.25
 31
0.0
  0
LINE
  5
1CE
330
1CC
100
AcDbEntity
  8
0
 62
     0
370
    -2
100
AcDbLine
 10
0.0
 20
0.0
 30
0.0
 11
-1.0
 21
-0.25
 31
0.0
  0
LINE
  5
1CF
330
1CC
100
AcDbEntity
  8
0
 62
     0
370
    -2
100
AcDbLine
 10
0.0
 20
0.0
 30
0.0
 11
-1.0
 21
0.0
 31
0.0
  0
ENDBLK
  5
1D1
330
1CC
100
AcDbEntity
  8
0
100
AcDbBlockEnd
  0
BLOCK
  5
1D6
330
1D2
100
AcDbEntity
  8
0
100
AcDbBlockBegin
  2
cw-dimension-symbol11
 70
     0
 10
0.0
 20
0.0
 30
0.0
  3
cw-dimension-symbol11
  1

  0
LINE
  5
1D3
330
1D2
100
AcDbEntity
  8
0
 62
     0
370
    -2
100
AcDbLine
 10
-1.0
 20
1.0
 30
0.0
 11
1.0
 21
1.0
 31
0.0
  0
LINE
  5
1D4
330
1D2
100
AcDbEntity
  8
0
 62
     0
370
    -2
100
AcDbLine
 10
0.0
 20
0.0
 30
0.0
 11
-1.0
 21
1.0
 31
0.0
  0
LINE
  5
1D5
330
1D2
100
AcDbEntity
  8
0
 62
     0
370
    -2
100
AcDbLine
 10
0.0
 20
0.0
 30
0.0
 11
1.0
 21
1.0
 31
0.0
  0
ENDBLK
  5
1D7
330
1D2
100
AcDbEntity
  8
0
100
AcDbBlockEnd
  0
BLOCK
  5
1DC
330
1D8
100
AcDbEntity
  8
0
100
AcDbBlockBegin
  2
cw-dimension-symbol13
 70
     0
 10
0.0
 20
0.0
 30
0.0
  3
cw-dimension-symbol13
  1

  0
LINE
  5
1D9
330
1D8
100
AcDbEntity
  8
0
 62
     0
370
    -2
100
AcDbLine
 10
-1.0
 20
-1.0
 30
0.0
 11
1.0
 21
-1.0
 31
0.0
  0
LINE
  5
1DA
330
1D8
100
AcDbEntity
  8
0
 62
     0
370
    -2
100
AcDbLine
 10
0.0
 20
0.0
 30
0.0
 11
-1.0
 21
-1.0
 31
0.0
  0
LINE
  5
1DB
330
1D8
100
AcDbEntity
  8
0
 62
     0
370
    -2
100
AcDbLine
 10
0.0
 20
0.0
 30
0.0
 11
1.0
 21
-1.0
 31
0.0
  0
ENDBLK
  5
1DD
330
1D8
100
AcDbEntity
  8
0
100
AcDbBlockEnd
  0
BLOCK
  5
1E3
330
1DE
100
AcDbEntity
  8
0
100
AcDbBlockBegin
  2
cw-dimension-symbol15
 70
     0
 10
0.0
 20
0.0
 30
0.0
  3
cw-dimension-symbol15
  1

  0
HATCH
  5
1DF
330
1DE
100
AcDbEntity
  8
0
 62
     0
370
    -2
100
AcDbHatch
 10
0.0
 20
0.0
 30
0.0
210
0.0
220
0.0
230
1.0
  2
SOLID
 70
     1
 71
     1
 91
        1
 92
        3
 72
     0
 73
     1
 93
        3
 10
0.0
 20
0.0
 10
-1.0
 20
1.0
 10
1.0
 20
1.0
 97
        0
 75
     0
 76
     1
 98
        0
  0
LINE
  5
1E0
330
1DE
100
AcDbEntity
  8
0
 62
     0
370
    -2
100
AcDbLine
 10
0.0
 20
0.0
 30
0.0
 11
-1.0
 21
1.0
 31
0.0
  0
LINE
  5
1E1
330
1DE
100
AcDbEntity
  8
0
 62
     0
370
    -2
100
AcDbLine
 10
-1.0
 20
1.0
 30
0.0
 11
1.0
 21
1.0
 31
0.0
  0
LINE
  5
1E2
330
1DE
100
AcDbEntity
  8
0
 62
     0
370
    -2
100
AcDbLine
 10
1.0
 20
1.0
 30
0.0
 11
0.0
 21
0.0
 31
0.0
  0
ENDBLK
  5
1E4
330
1DE
100
AcDbEntity
  8
0
100
AcDbBlockEnd
  0
BLOCK
  5
1EA
330
1E5
100
AcDbEntity
  8
0
100
AcDbBlockBegin
  2
cw-dimension-symbol16
 70
     0
 10
0.0
 20
0.0
 30
0.0
  3
cw-dimension-symbol16
  1

  0
HATCH
  5
1E6
330
1E5
100
AcDbEntity
  8
0
 62
     0
370
    -2
100
AcDbHatch
 10
0.0
 20
0.0
 30
0.0
210
0.0
220
0.0
230
1.0
  2
SOLID
 70
     1
 71
     1
 91
        1
 92
        3
 72
     0
 73
     1
 93
        3
 10
0.0
 20
0.0
 10
-1.0
 20
-1.0
 10
1.0
 20
-1.0
 97
        0
 75
     0
 76
     1
 98
        0
  0
LINE
  5
1E7
330
1E5
100
AcDbEntity
  8
0
 62
     0
370
    -2
100
AcDbLine
 10
0.0
 20
0.0
 30
0.0
 11
-1.0
 21
-1.0
 31
0.0
  0
LINE
  5
1E8
330
1E5
100
AcDbEntity
  8
0
 62
     0
370
    -2
100
AcDbLine
 10
-1.0
 20
-1.0
 30
0.0
 11
1.0
 21
-1.0
 31
0.0
  0
LINE
  5
1E9
330
1E5
100
AcDbEntity
  8
0
 62
     0
370
    -2
100
AcDbLine
 10
1.0
 20
-1.0
 30
0.0
 11
0.0
 21
0.0
 31
0.0
  0
ENDBLK
  5
1EB
330
1E5
100
AcDbEntity
  8
0
100
AcDbBlockEnd
  0
BLOCK
  5
1F1
330
1EC
100
AcDbEntity
  8
0
100
AcDbBlockBegin
  2
cw-dimension-symbol17
 70
     0
 10
0.0
 20
0.0
 30
0.0
  3
cw-dimension-symbol17
  1

  0
LINE
  5
1ED
330
1EC
100
AcDbEntity
  8
0
 62
     0
370
    -2
100
AcDbLine
 10
0.0
 20
0.0
 30
0.0
 11
1.0
 21
1.0
 31
0.0
  0
LINE
  5
1EE
330
1EC
100
AcDbEntity
  8
0
 62
     0
370
    -2
100
AcDbLine
 10
1.0
 20
1.0
 30
0.0
 11
-1.0
 21
1.0
 31
0.0
  0
LINE
  5
1EF
330
1EC
100
AcDbEntity
  8
0
 62
     0
370
    -2
100
AcDbLine
 10
-1.0
 20
1.0
 30
0.0
 11
0.0
 21
0.0
 31
0.0
  0
HATCH
  5
1F0
330
1EC
100
AcDbEntity
  8
0
 62
     0
370
    -2
100
AcDbHatch
 10
0.0
 20
0.0
 30
0.0
210
0.0
220
0.0
230
1.0
  2
SOLID
 70
     1
 71
     1
 91
        1
 92
        3
 72
     0
 73
     1
 93
        3
 10
0.0
 20
0.0
 10
-1.0
 20
1.0
 10
0.0
 20
1.0
 97
        0
 75
     0
 76
     1
 98
        0
  0
ENDBLK
  5
1F2
330
1EC
100
AcDbEntity
  8
0
100
AcDbBlockEnd
  0
BLOCK
  5
1F8
330
1F3
100
AcDbEntity
  8
0
100
AcDbBlockBegin
  2
cw-dimension-symbol18
 70
     0
 10
0.0
 20
0.0
 30
0.0
  3
cw-dimension-symbol18
  1

  0
LINE
  5
1F4
330
1F3
100
AcDbEntity
  8
0
 62
     0
370
    -2
100
AcDbLine
 10
0.0
 20
0.0
 30
0.0
 11
1.0
 21
-1.0
 31
0.0
  0
LINE
  5
1F5
330
1F3
100
AcDbEntity
  8
0
 62
     0
370
    -2
100
AcDbLine
 10
1.0
 20
-1.0
 30
0.0
 11
-1.0
 21
-1.0
 31
0.0
  0
LINE
  5
1F6
330
1F3
100
AcDbEntity
  8
0
 62
     0
370
    -2
100
AcDbLine
 10
-1.0
 20
-1.0
 30
0.0
 11
0.0
 21
0.0
 31
0.0
  0
HATCH
  5
1F7
330
1F3
100
AcDbEntity
  8
0
 62
     0
370
    -2
100
AcDbHatch
 10
0.0
 20
0.0
 30
0.0
210
0.0
220
0.0
230
1.0
  2
SOLID
 70
     1
 71
     1
 91
        1
 92
        3
 72
     0
 73
     1
 93
        3
 10
0.0
 20
0.0
 10
-1.0
 20
-1.0
 10
0.0
 20
-1.0
 97
        0
 75
     0
 76
     1
 98
        0
  0
ENDBLK
  5
1F9
330
1F3
100
AcDbEntity
  8
0
100
AcDbBlockEnd
  0
BLOCK
  5
1FB
330
1FA
100
AcDbEntity
  8
0
100
AcDbBlockBegin
  2
cw-dimension-symbol19
 70
     0
 10
0.0
 20
0.0
 30
0.0
  3
cw-dimension-symbol19
  1

  0
ENDBLK
  5
1FC
330
1FA
100
AcDbEntity
  8
0
100
AcDbBlockEnd
  0
BLOCK
  5
202
330
1FD
100
AcDbEntity
  8
0
100
AcDbBlockBegin
  2
cw-dimension-symbol20
 70
     0
 10
0.0
 20
0.0
 30
0.0
  3
cw-dimension-symbol20
  1

  0
LINE
  5
1FE
330
1FD
100
AcDbEntity
  8
0
 62
     0
370
    -2
100
AcDbLine
 10
0.0
 20
0.0
 30
0.0
 11
0.0
 21
2.0
 31
0.0
  0
LINE
  5
1FF
330
1FD
100
AcDbEntity
  8
0
 62
     0
370
    -2
100
AcDbLine
 10
0.0
 20
0.0
 30
0.0
 11
-1.0
 21
0.33
 31
0.0
  0
LINE
  5
200
330
1FD
100
AcDbEntity
  8
0
 62
     0
370
    -2
100
AcDbLine
 10
0.0
 20
0.0
 30
0.0
 11
1.0
 21
0.33
 31
0.0
  0
LINE
  5
201
330
1FD
100
AcDbEntity
  8
0
 62
     0
370
    -2
100
AcDbLine
 10
0.0
 20
2.0
 30
0.0
 11
4.15
 21
2.0
 31
0.0
  0
ENDBLK
  5
203
330
1FD
100
AcDbEntity
  8
0
100
AcDbBlockEnd
  0
BLOCK
  5
209
330
204
100
AcDbEntity
  8
0
100
AcDbBlockBegin
  2
cw-dimension-symbol21
 70
     0
 10
0.0
 20
0.0
 30
0.0
  3
cw-dimension-symbol21
  1

  0
LINE
  5
205
330
204
100
AcDbEntity
  8
0
 62
     0
370
    -2
100
AcDbLine
 10
0.0
 20
0.0
 30
0.0
 11
0.0
 21
-2.0
 31
0.0
  0
LINE
  5
206
330
204
100
AcDbEntity
  8
0
 62
     0
370
    -2
100
AcDbLine
 10
0.0
 20
0.0
 30
0.0
 11
-1.0
 21
-0.33
 31
0.0
  0
LINE
  5
207
330
204
100
AcDbEntity
  8
0
 62
     0
370
    -2
100
AcDbLine
 10
0.0
 20
0.0
 30
0.0
 11
1.0
 21
-0.33
 31
0.0
  0
LINE
  5
208
330
204
100
AcDbEntity
  8
0
 62
     0
370
    -2
100
AcDbLine
 10
0.0
 20
-2.0
 30
0.0
 11
4.15
 21
-2.0
 31
0.0
  0
ENDBLK
  5
20A
330
204
100
AcDbEntity
  8
0
100
AcDbBlockEnd
  0
BLOCK
  5
23B
330
20B
100
AcDbEntity
  8
0
100
AcDbBlockBegin
  2
cw-line-extremity0
 70
     0
 10
0.0
 20
0.0
 30
0.0
  3
cw-line-extremity0
  1

  0
LINE
  5
20C
330
20B
100
AcDbEntity
  8
0
 62
     0
370
    -2
100
AcDbLine
 10
0.0
 20
0.0
 30
0.0
 11
10.0
 21
2.5
 31
0.0
  0
LINE
  5
20D
330
20B
100
AcDbEntity
  8
0
 62
     0
370
    -2
100
AcDbLine
 10
0.0
 20
0.0
 30
0.0
 11
10.0
 21
-2.5
 31
0.0
  0
LINE
  5
20E
330
20B
100
AcDbEntity
  8
0
 62
     0
370
    -2
100
AcDbLine
 10
10.0
 20
2.5
 30
0.0
 11
10.0
 21
-2.5
 31
0.0
  0
ENDBLK
  5
23C
330
20B
100
AcDbEntity
  8
0
100
AcDbBlockEnd
  0
BLOCK
  5
239
330
20F
100
AcDbEntity
  8
0
100
AcDbBlockBegin
  2
cw-line-extremity2
 70
     0
 10
0.0
 20
0.0
 30
0.0
  3
cw-line-extremity2
  1

  0
HATCH
  5
210
330
20F
100
AcDbEntity
  8
0
 62
     0
370
     0
100
AcDbHatch
 10
0.0
 20
0.0
 30
0.0
210
0.0
220
0.0
230
1.0
  2
SOLID
 70
     1
 71
     1
 91
        1
 92
        3
 72
     0
 73
     1
 93
        3
 10
0.0
 20
0.0
 10
10.0
 20
2.5
 10
10.0
 20
-2.5
 97
        0
 75
     0
 76
     1
 98
        0
  0
LINE
  5
211
330
20F
100
AcDbEntity
  8
0
 62
     0
370
    -2
100
AcDbLine
 10
0.0
 20
0.0
 30
0.0
 11
10.0
 21
2.5
 31
0.0
  0
LINE
  5
212
330
20F
100
AcDbEntity
  8
0
 62
     0
370
    -2
100
AcDbLine
 10
10.0
 20
2.5
 30
0.0
 11
10.0
 21
-2.5
 31
0.0
  0
LINE
  5
213
330
20F
100
AcDbEntity
  8
0
 62
     0
370
    -2
100
AcDbLine
 10
10.0
 20
-2.5
 30
0.0
 11
0.0
 21
0.0
 31
0.0
  0
ENDBLK
  5
23A
330
20F
100
AcDbEntity
  8
0
100
AcDbBlockEnd
  0
BLOCK
  5
237
330
214
100
AcDbEntity
  8
0
100
AcDbBlockBegin
  2
cw-line-extremity3
 70
     0
 10
0.0
 20
0.0
 30
0.0
  3
cw-line-extremity3
  1

  0
HATCH
  5
215
330
214
100
AcDbEntity
  8
0
 62
     0
370
     0
100
AcDbHatch
 10
0.0
 20
0.0
 30
0.0
210
0.0
220
0.0
230
1.0
  2
SOLID
 70
     1
 71
     1
 91
        1
 92
        3
 72
     0
 73
     1
 93
        3
 10
0.0
 20
0.0
 10
10.0
 20
2.5
 10
10.0
 20
-2.5
 97
        0
 75
     0
 76
     1
 98
        0
  0
LINE
  5
216
330
214
100
AcDbEntity
  8
0
 62
     0
370
    -2
100
AcDbLine
 10
0.0
 20
0.0
 30
0.0
 11
10.0
 21
2.5
 31
0.0
  0
LINE
  5
217
330
214
100
AcDbEntity
  8
0
 62
     0
370
    -2
100
AcDbLine
 10
10.0
 20
2.5
 30
0.0
 11
10.0
 21
-2.5
 31
0.0
  0
LINE
  5
218
330
214
100
AcDbEntity
  8
0
 62
     0
370
    -2
100
AcDbLine
 10
10.0
 20
-2.5
 30
0.0
 11
0.0
 21
0.0
 31
0.0
  0
ENDBLK
  5
238
330
214
100
AcDbEntity
  8
0
100
AcDbBlockEnd
  0
BLOCK
  5
235
330
219
100
AcDbEntity
  8
0
100
AcDbBlockBegin
  2
cw-line-extremity301
 70
     0
 10
0.0
 20
0.0
 30
0.0
  3
cw-line-extremity301
  1

  0
LINE
  5
21A
330
219
100
AcDbEntity
  8
0
 62
     0
370
    -2
100
AcDbLine
 10
0.0
 20
6.66665
 30
0.0
 11
0.0
 21
-6.66665
 31
0.0
  0
ENDBLK
  5
236
330
219
100
AcDbEntity
  8
0
100
AcDbBlockEnd
  0
BLOCK
  5
233
330
21B
100
AcDbEntity
  8
0
100
AcDbBlockBegin
  2
cw-line-extremity4
 70
     0
 10
0.0
 20
0.0
 30
0.0
  3
cw-line-extremity4
  1

  0
HATCH
  5
21C
330
21B
100
AcDbEntity
  8
0
 62
     0
370
     5
100
AcDbHatch
 10
0.0
 20
0.0
 30
0.0
210
0.0
220
0.0
230
1.0
  2
SOLID
 70
     1
 71
     1
 91
        1
 92
        1
 93
        1
 72
     2
 10
0.0
 20
0.0
 40
2.5
 50
0.0
 51
360.0
 73
     1
 97
        0
 75
     0
 76
     1
 98
        0
  0
ENDBLK
  5
234
330
21B
100
AcDbEntity
  8
0
100
AcDbBlockEnd
  0
BLOCK
  5
231
330
21D
100
AcDbEntity
  8
0
100
AcDbBlockBegin
  2
cw-line-extremity5
 70
     0
 10
0.0
 20
0.0
 30
0.0
  3
cw-line-extremity5
  1

  0
LINE
  5
21E
330
21D
100
AcDbEntity
  8
0
 62
     0
370
    -2
100
AcDbLine
 10
0.0
 20
0.0
 30
0.0
 11
-2.5
 21
0.0
 31
0.0
  0
ENDBLK
  5
232
330
21D
100
AcDbEntity
  8
0
100
AcDbBlockEnd
  0
BLOCK
  5
22F
330
21F
100
AcDbEntity
  8
0
100
AcDbBlockBegin
  2
cw-line-extremity6
 70
     0
 10
0.0
 20
0.0
 30
0.0
  3
cw-line-extremity6
  1

  0
LINE
  5
220
330
21F
100
AcDbEntity
  8
0
 62
     0
370
    18
100
AcDbLine
 10
0.0
 20
2.5
 30
0.0
 11
0.0
 21
-2.5
 31
0.0
  0
ENDBLK
  5
230
330
21F
100
AcDbEntity
  8
0
100
AcDbBlockEnd
  0
BLOCK
  5
22D
330
221
100
AcDbEntity
  8
0
100
AcDbBlockBegin
  2
cw-line-extremity9
 70
     0
 10
0.0
 20
0.0
 30
0.0
  3
cw-line-extremity9
  1

  0
LINE
  5
222
330
221
100
AcDbEntity
  8
0
 62
     0
370
    18
100
AcDbLine
 10
-2.5
 20
-2.5
 30
0.0
 11
2.5
 21
2.5
 31
0.0
  0
ENDBLK
  5
22E
330
221
100
AcDbEntity
  8
0
100
AcDbBlockEnd
  0
BLOCK
  5
22B
330
223
100
AcDbEntity
  8
0
100
AcDbBlockBegin
  2
cw-line-extremity10
 70
     0
 10
0.0
 20
0.0
 30
0.0
  3
cw-line-extremity10
  1

  0
CIRCLE
  5
224
330
223
100
AcDbEntity
  8
0
 62
     0
370
    -2
100
AcDbCircle
 10
0.0
 20
0.0
 30
0.0
 40
2.5
  0
ENDBLK
  5
22C
330
223
100
AcDbEntity
  8
0
100
AcDbBlockEnd
  0
BLOCK
  5
229
330
225
100
AcDbEntity
  8
0
100
AcDbBlockBegin
  2
cw-line-extremity1
 70
     0
 10
0.0
 20
0.0
 30
0.0
  3
cw-line-extremity1
  1

  0
LINE
  5
226
330
225
100
AcDbEntity
  8
0
 62
     0
370
    -2
100
AcDbLine
 10
0.0
 20
0.0
 30
0.0
 11
0.0
 21
2.5
 31
0.0
  0
LINE
  5
227
330
225
100
AcDbEntity
  8
0
 62
     0
370
    -2
100
AcDbLine
 10
0.0
 20
2.5
 30
0.0
 11
1.25
 21
3.75
 31
0.0
  0
LINE
  5
228
330
225
100
AcDbEntity
  8
0
 62
     0
370
    -2
100
AcDbLine
 10
1.25
 20
3.75
 30
0.0
 11
3.75
 21
3.75
 31
0.0
  0
ENDBLK
  5
22A
330
225
100
AcDbEntity
  8
0
100
AcDbBlockEnd
  0
BLOCK
  5
1C
330
1B
100
AcDbEntity
  8
0
100
AcDbBlockBegin
  2
*Paper_Space69
 70
     0
 10
0.0
 20
0.0
 30
0.0
  3
*Paper_Space69
  1

  0
ENDBLK
  5
1D
330
1B
100
AcDbEntity
  8
0
100
AcDbBlockEnd
  0
BLOCK
  5
45A
330
459
100
AcDbEntity
  8
0
100
AcDbBlockBegin
  2
*D70
 70
     1
 10
0.0
 20
0.0
 30
0.0
  3
*D70
  1

  0
LINE
  5
45C
330
459
100
AcDbEntity
  8
Ech.1_5
 62
     0
370
    -2
100
AcDbLine
 10
13679.67662720216
 20
-1511.971112735708
 30
0.0
 11
13679.67662720216
 21
-1505.217186144138
 31
0.0
  0
LINE
  5
45D
330
459
100
AcDbEntity
  8
Ech.1_5
 62
     0
370
    -2
100
AcDbLine
 10
13688.10897153284
 20
-1511.971112735708
 30
0.0
 11
13688.10897153284
 21
-1505.217186144138
 31
0.0
  0
LINE
  5
45E
330
459
100
AcDbEntity
  8
Ech.1_5
 62
     0
370
    -2
100
AcDbLine
 10
13679.67662720216
 20
-1510.217186144138
 30
0.0
 11
13688.10897153284
 21
-1510.217186144138
 31
0.0
  0
LINE
  5
45F
330
459
100
AcDbEntity
  8
Ech.1_5
 62
     0
370
    -2
100
AcDbLine
 10
13674.67662720216
 20
-1510.217186144138
 30
0.0
 11
13669.67662720216
 21
-1510.217186144138
 31
0.0
  0
LINE
  5
460
330
459
100
AcDbEntity
  8
Ech.1_5
 62
     0
370
    -2
100
AcDbLine
 10
13693.10897153284
 20
-1510.217186144138
 30
0.0
 11
13698.10897153284
 21
-1510.217186144138
 31
0.0
  0
INSERT
  5
461
330
459
100
AcDbEntity
  8
Ech.1_5
 62
     0
370
    -2
100
AcDbBlockReference
  2
cw-dimension-symbol2
 10
13679.67662720216
 20
-1510.217186144138
 30
0.0
 41
5.0
 42
5.0
 43
5.0
  0
INSERT
  5
462
330
459
100
AcDbEntity
  8
Ech.1_5
 62
     0
370
    -2
100
AcDbBlockReference
  2
cw-dimension-symbol2
 10
13688.10897153284
 20
-1510.217186144138
 30
0.0
 41
5.0
 42
5.0
 43
5.0
 50
180.0
  0
MTEXT
  5
463
330
459
100
AcDbEntity
  8
Ech.1_5
 62
   190
370
    15
100
AcDbMText
 10
13683.8927993675
 20
-1498.967186144138
 30
0.0
 40
12.5
 41
0.0
 46
0.0
 71
     5
 72
     1
  1
\A1;8 mm maxi
  7
arial-z
 73
     1
 44
1.0
  0
POINT
  5
464
330
459
100
AcDbEntity
  8
Defpoints
 62
     0
100
AcDbPoint
 10
13679.67662720216
 20
-1511.971112735708
 30
0.0
  0
POINT
  5
465
330
459
100
AcDbEntity
  8
Defpoints
 62
     0
100
AcDbPoint
 10
13688.10897153284
 20
-1511.971112735708
 30
0.0
  0
POINT
  5
466
330
459
100
AcDbEntity
  8
Defpoints
 62
     0
100
AcDbPoint
 10
13688.10897153284
 20
-1510.217186144138
 30
0.0
  0
ENDBLK
  5
45B
330
459
100
AcDbEntity
  8
0
100
AcDbBlockEnd
  0
ENDSEC
  0
SECTION
  2
ENTITIES
  0
HATCH
  5
246
330
1F
100
AcDbEntity
  8
Ech.1_5
 62
   254
420
 15326711
440
 33554687
370
     5
100
AcDbHatch
 10
0.0
 20
0.0
 30
0.0
210
0.0
220
0.0
230
1.0
  2
SOLID
 70
     1
 71
     1
 91
        1
 92
        3
 72
     0
 73
     1
 93
        8
 10
13411.4880240673
 20
-1380.759633165617
 10
13375.53232405549
 20
-1366.649693147803
 10
13393.50967246287
 20
-1383.135196303716
 10
13393.50967246287
 20
-1454.971112798245
 10
13678.67621428089
 20
-1454.9711127357
 10
13678.67621428089
 20
-1224.135219340234
 10
13393.50967246287
 20
-1224.135219398755
 10
13393.50967246287
 20
-1364.273279084104
 97
        0
 75
     0
 76
     1
 98
        0
  0
LWPOLYLINE
  5
247
330
1F
100
AcDbEntity
  8
Ech.1_5
 62
   190
370
    15
100
AcDbPolyline
 90
        9
 70
     0
 43
0.0
 10
13411.4880240673
 20
-1380.759633165617
 10
13375.53232405549
 20
-1366.649693147803
 10
13393.50967246287
 20
-1383.135196303716
 10
13393.50967246287
 20
-1454.971112798245
 10
13678.67621428089
 20
-1454.9711127357
 10
13678.67621428089
 20
-1224.135219340234
 10
13393.50967246287
 20
-1224.135219398755
 10
13393.50967246287
 20
-1364.273279084104
 10
13411.4880240673
 20
-1380.759633165617
  0
HATCH
  5
248
330
1F
100
AcDbEntity
  8
Ech.1_5
 62
   254
420
 15326711
440
 33554687
370
     5
100
AcDbHatch
 10
0.0
 20
0.0
 30
0.0
210
0.0
220
0.0
230
1.0
  2
SOLID
 70
     1
 71
     1
 91
        1
 92
        3
 72
     0
 73
     1
 93
        8
 10
14273.9616029123
 20
-1376.484748417855
 10
14309.9173029241
 20
-1390.594688435669
 10
14291.93995451672
 20
-1374.109185279756
 10
14291.93995451672
 20
-1223.971135698543
 10
14006.7734126987
 20
-1223.971135761079
 10
14006.7734126987
 20
-1454.807029156553
 10
14291.93995451672
 20
-1454.807029098032
 10
14291.93995451672
 20
-1392.971102499368
 97
        0
 75
     0
 76
     1
 98
        0
  0
LWPOLYLINE
  5
249
330
1F
100
AcDbEntity
  8
Ech.1_5
 62
   190
370
    15
100
AcDbPolyline
 90
        9
 70
     0
 43
0.0
 10
14273.9616029123
 20
-1376.484748417855
 10
14309.9173029241
 20
-1390.594688435669
 10
14291.93995451672
 20
-1374.109185279756
 10
14291.93995451672
 20
-1223.971135698543
 10
14006.7734126987
 20
-1223.971135761079
 10
14006.7734126987
 20
-1454.807029156553
 10
14291.93995451672
 20
-1454.807029098032
 10
14291.93995451672
 20
-1392.971102499368
 10
14273.9616029123
 20
-1376.484748417855
  0
LINE
  5
24A
330
1F
100
AcDbEntity
  8
Ech.1_5
 62
   190
370
    15
100
AcDbLine
 10
13971.77341269904
 20
-1338.474337013395
 30
0.0
 11
13843.86491567015
 21
-1338.474337013395
 31
0.0
  0
LINE
  5
24B
330
1F
100
AcDbEntity
  8
Ech.1_5
 62
     7
370
    20
100
AcDbLine
 10
13843.86491567013
 20
-1280.850340278776
 30
0.0
 11
13971.77341269904
 21
-1280.850340278776
 31
0.0
  0
LINE
  5
24C
330
1F
100
AcDbEntity
  8
Ech.1_5
 62
     7
370
    20
100
AcDbLine
 10
13841.87759636662
 20
-1280.850340278776
 30
0.0
 11
13713.67662720183
 21
-1280.850340278776
 31
0.0
  0
HATCH
  5
24D
330
1F
100
AcDbEntity
  8
Ech.1_5
 62
   254
420
 15326711
440
 33554687
370
    20
100
AcDbHatch
 10
0.0
 20
0.0
 30
0.0
210
0.0
220
0.0
230
1.0
  2
SOLID
 70
     1
 71
     1
 91
        1
 92
        3
 72
     0
 73
     1
 93
        4
 10
14006.77299977743
 20
-1434.80460107293
 10
14006.77211620092
 20
-1370.633576114124
 10
13997.33945613969
 20
-1370.633576114124
 10
13997.34033971621
 20
-1434.80460107293
 97
        0
 75
     0
 76
     1
 98
        0
  0
LWPOLYLINE
  5
24E
330
1F
100
AcDbEntity
  8
Ech.1_5
 62
   190
370
    15
100
AcDbPolyline
 90
        5
 70
     0
 43
0.0
 10
14006.77299977743
 20
-1434.80460107293
 10
14006.77211620092
 20
-1370.633576114124
 10
13997.33945613969
 20
-1370.633576114124
 10
13997.34033971621
 20
-1434.80460107293
 10
14006.77299977743
 20
-1434.80460107293
  0
LWPOLYLINE
  5
24F
330
1F
100
AcDbEntity
  8
Ech.1_5
 62
   190
370
    15
100
AcDbPolyline
 90
        4
 70
     0
 43
0.0
 10
13997.33945613969
 20
-1370.633576114124
 10
14006.77299977743
 20
-1434.80460107293
 10
13997.34033971621
 20
-1434.80460107293
 10
14006.77211620092
 20
-1370.633576114124
  0
LWPOLYLINE
  5
250
330
1F
100
AcDbEntity
  8
Ech.1_5
 62
   190
370
    15
100
AcDbPolyline
 90
        3
 70
     0
 43
0.0
 10
13753.01517791222
 20
-1201.959766799366
 10
13691.7142829606
 20
-1162.90383981356
 10
13671.7142829606
 20
-1162.90383981356
  0
INSERT
  5
251
330
1F
100
AcDbEntity
  8
Ech.1_5
 62
   190
370
    15
100
AcDbBlockReference
  2
cw-line-extremity4
 10
13753.01517791222
 20
-1201.959766799366
 30
0.0
 50
147.4980388769401
  0
LWPOLYLINE
  5
253
330
1F
100
AcDbEntity
  8
Ech.1_5
  6
CADWORK_6
 62
     7
370
    18
100
AcDbPolyline
 90
        2
 70
     0
 43
0.0
 10
13841.87759636662
 20
-1188.371465539632
 10
13841.87759636662
 20
-1573.073119522909
  0
LWPOLYLINE
  5
254
330
1F
100
AcDbEntity
  8
Ech.1_5
  6
CADWORK_6
 62
     7
370
    18
100
AcDbPolyline
 90
        2
 70
     0
 43
0.0
 10
13843.86491567013
 20
-1188.371465539632
 10
13843.86491567013
 20
-1573.073119522909
  0
LINE
  5
255
330
1F
100
AcDbEntity
  8
Ech.1_5
 62
     7
370
    20
100
AcDbLine
 10
13920.27228524597
 20
-1235.22033921066
 30
0.0
 11
13843.86491567013
 21
-1235.22033921066
 31
0.0
  0
LINE
  5
256
330
1F
100
AcDbEntity
  8
Ech.1_5
 62
     7
370
    20
100
AcDbLine
 10
13920.27228524597
 20
-1231.22033921066
 30
0.0
 11
13843.86491567013
 21
-1231.220345697846
 31
0.0
  0
LINE
  5
257
330
1F
100
AcDbEntity
  8
Ech.1_5
 62
     7
370
    20
100
AcDbLine
 10
13920.27228524597
 20
-1215.22033921066
 30
0.0
 11
13843.86491567013
 21
-1215.220345697846
 31
0.0
  0
LINE
  5
258
330
1F
100
AcDbEntity
  8
Ech.1_5
 62
     7
370
    20
100
AcDbLine
 10
13920.27228524597
 20
-1211.22033921066
 30
0.0
 11
13843.86491567013
 21
-1211.220345697846
 31
0.0
  0
LINE
  5
259
330
1F
100
AcDbEntity
  8
Ech.1_5
 62
     7
370
    20
100
AcDbLine
 10
13910.77228524597
 20
-1215.22033921066
 30
0.0
 11
13910.77228524597
 21
-1231.22033921066
 31
0.0
  0
LINE
  5
25A
330
1F
100
AcDbEntity
  8
Ech.1_5
 62
     7
370
    20
100
AcDbLine
 10
13920.27228524597
 20
-1211.22033921066
 30
0.0
 11
13920.27228524597
 21
-1235.22033921066
 31
0.0
  0
LINE
  5
25B
330
1F
100
AcDbEntity
  8
Ech.1_5
 62
     7
370
    20
100
AcDbLine
 10
13922.27228524597
 20
-1217.22033921066
 30
0.0
 11
13921.07228524596
 21
-1217.22033921066
 31
0.0
  0
LINE
  5
25C
330
1F
100
AcDbEntity
  8
Ech.1_5
 62
     7
370
    20
100
AcDbLine
 10
13922.27228524597
 20
-1229.22033921066
 30
0.0
 11
13921.07228524596
 21
-1229.22033921066
 31
0.0
  0
LINE
  5
25D
330
1F
100
AcDbEntity
  8
Ech.1_5
 62
     7
370
    20
100
AcDbLine
 10
13922.27228524597
 20
-1235.22033921066
 30
0.0
 11
13925.27227659635
 21
-1211.220334885831
 31
0.0
  0
LINE
  5
25E
330
1F
100
AcDbEntity
  8
Ech.1_5
 62
     7
370
    20
100
AcDbLine
 10
13922.27228524597
 20
-1211.22033921066
 30
0.0
 11
13925.27227659635
 21
-1235.22033921066
 31
0.0
  0
LINE
  5
25F
330
1F
100
AcDbEntity
  8
Ech.1_5
 62
     7
370
    20
100
AcDbLine
 10
13925.27227659635
 20
-1235.22033921066
 30
0.0
 11
13925.27228524597
 21
-1211.22033921066
 31
0.0
  0
LINE
  5
260
330
1F
100
AcDbEntity
  8
Ech.1_5
 62
     7
370
    20
100
AcDbLine
 10
13925.27228524597
 20
-1211.22033921066
 30
0.0
 11
13922.27228524597
 21
-1211.22033921066
 31
0.0
  0
LINE
  5
261
330
1F
100
AcDbEntity
  8
Ech.1_5
 62
     7
370
    20
100
AcDbLine
 10
13922.27228524597
 20
-1211.22033921066
 30
0.0
 11
13922.27228524597
 21
-1235.22033921066
 31
0.0
  0
LINE
  5
262
330
1F
100
AcDbEntity
  8
Ech.1_5
 62
     7
370
    20
100
AcDbLine
 10
13922.27228524597
 20
-1235.22033921066
 30
0.0
 11
13925.27228524597
 21
-1235.22033921066
 31
0.0
  0
LINE
  5
263
330
1F
100
AcDbEntity
  8
Ech.1_5
 62
     7
370
    20
100
AcDbLine
 10
13979.63554422088
 20
-1199.523242900919
 30
0.0
 11
13945.68214003922
 21
-1201.302665413197
 31
0.0
  0
LWPOLYLINE
  5
264
330
1F
100
AcDbEntity
  8
Ech.1_5
  6
CADWORK_6
 62
     7
370
    20
100
AcDbPolyline
 90
        2
 70
   128
 43
0.0
 10
13992.40145220564
 20
-1199.085944189064
 10
13992.40145220564
 20
-1224.023348527742
  0
ARC
  5
265
330
1F
100
AcDbEntity
  8
Ech.1_5
 62
     7
370
    20
100
AcDbCircle
 10
13991.21217521426
 20
-1202.421340589978
 30
0.0
 40
6.590909090885543
100
AcDbArc
 50
282.5272833813336
 51
83.47271661869634
  0
LINE
  5
266
330
1F
100
AcDbEntity
  8
Ech.1_5
 62
     7
370
    20
100
AcDbLine
 10
13981.13136533994
 20
-1208.95788752487
 30
0.0
 11
13980.50333386502
 21
-1196.974333107777
 31
0.0
  0
LINE
  5
267
330
1F
100
AcDbEntity
  8
Ech.1_5
 62
     7
370
    20
100
AcDbLine
 10
13980.10656782707
 20
-1208.510908713753
 30
0.0
 11
13979.53087230839
 21
-1197.525983831452
 31
0.0
  0
LINE
  5
268
330
1F
100
AcDbEntity
  8
Ech.1_5
 62
     7
370
    20
100
AcDbLine
 10
14000.40145220564
 20
-1209.970866455304
 30
0.0
 11
14000.40145220564
 21
-1197.646256984983
 31
0.0
  0
LINE
  5
269
330
1F
100
AcDbEntity
  8
Ech.1_5
 62
     7
370
    20
100
AcDbLine
 10
13985.40472462619
 20
-1196.216775929628
 30
0.0
 11
13986.25133022466
 21
-1195.158518931552
 31
0.0
  0
LINE
  5
26A
330
1F
100
AcDbEntity
  8
Ech.1_5
 62
     7
370
    20
100
AcDbLine
 10
13980.97648065428
 20
-1196.448850362285
 30
0.0
 11
13991.96140553658
 21
-1195.873154843648
 31
0.0
  0
ARC
  5
26B
330
1F
100
AcDbEntity
  8
Ech.1_5
 62
     7
370
    20
100
AcDbCircle
 10
13981.0026486324
 20
-1196.948165129662
 30
0.0
 40
0.4999999999998714
100
AcDbArc
 50
93.00000000000611
 51
182.9999999992228
  0
LINE
  5
26C
330
1F
100
AcDbEntity
  8
Ech.1_5
 62
     7
370
    20
100
AcDbLine
 10
13979.53087230839
 20
-1197.525983831452
 30
0.0
 11
13980.52950184315
 21
-1197.473647875202
 31
0.0
  0
LINE
  5
26D
330
1F
100
AcDbEntity
  8
Ech.1_5
 62
     7
370
    20
100
AcDbLine
 10
13987.40145220564
 20
-1196.112131871356
 30
0.0
 11
13987.40145220564
 21
-1194.970866455304
 31
0.0
  0
LINE
  5
26E
330
1F
100
AcDbEntity
  8
Ech.1_5
 62
     7
370
    20
100
AcDbLine
 10
13998.16113978189
 20
-1194.970866455304
 30
0.0
 11
13986.64176462938
 21
-1194.970866455304
 31
0.0
  0
ARC
  5
26F
330
1F
100
AcDbEntity
  8
Ech.1_5
 62
     7
370
    20
100
AcDbCircle
 10
13986.64176462946
 20
-1195.470866455424
 30
0.0
 40
0.5000000001200067
100
AcDbArc
 50
90.0000000091714
 51
141.3401917429802
  0
ARC
  5
270
330
1F
100
AcDbEntity
  8
Ech.1_5
 62
     7
370
    20
100
AcDbCircle
 10
13999.90145220566
 20
-1197.646256985003
 30
0.0
 40
0.4999999999743729
100
AcDbArc
 50
0.0000000022928491
 51
38.65980825562009
  0
ARC
  5
271
330
1F
100
AcDbEntity
  8
Ech.1_5
 62
     7
370
    20
100
AcDbCircle
 10
13999.90145220566
 20
-1197.646256985003
 30
0.0
 40
0.4999999999743729
100
AcDbArc
 50
0.0000000022928491
 51
38.65980825562009
  0
ARC
  5
272
330
1F
100
AcDbEntity
  8
Ech.1_5
 62
     7
370
    20
100
AcDbCircle
 10
13998.16113978181
 20
-1195.470866455424
 30
0.0
 40
0.5000000001200067
100
AcDbArc
 50
38.65980825701986
 51
89.99999999082861
  0
LINE
  5
273
330
1F
100
AcDbEntity
  8
Ech.1_5
 62
     7
370
    20
100
AcDbLine
 10
13997.40145220564
 20
-1200.097879156077
 30
0.0
 11
13997.40145220564
 21
-1194.970866455304
 31
0.0
  0
LINE
  5
274
330
1F
100
AcDbEntity
  8
Ech.1_5
 62
     7
370
    20
100
AcDbLine
 10
14000.29188661036
 20
-1197.333909461231
 30
0.0
 11
13998.55157418662
 21
-1195.158518931552
 31
0.0
  0
LWPOLYLINE
  5
275
330
1F
100
AcDbEntity
  8
Ech.1_5
  6
CADWORK_6
 62
     7
370
    20
100
AcDbPolyline
 90
        2
 70
   128
 43
0.0
 10
13996.87180355457
 20
-1202.124732037089
 10
13942.86942728181
 20
-1204.954876653574
  0
LINE
  5
276
330
1F
100
AcDbEntity
  8
Ech.1_5
 62
     7
370
    20
100
AcDbLine
 10
13980.00189591458
 20
-1206.513649644228
 30
0.0
 11
13946.04849173292
 21
-1208.293072156448
 31
0.0
  0
ARC
  5
277
330
1F
100
AcDbEntity
  8
Ech.1_5
 62
     7
370
    20
100
AcDbCircle
 10
13951.50535634009
 20
-1204.502286789559
 30
0.0
 40
6.644352868324956
100
AcDbArc
 50
151.2129888457281
 51
214.7870111543113
  0
LINE
  5
278
330
1F
100
AcDbEntity
  8
Ech.1_5
 62
     7
370
    20
100
AcDbLine
 10
13946.04849173292
 20
-1208.293072156448
 30
0.0
 11
13945.68214003922
 21
-1201.302665413197
 31
0.0
  0
LINE
  5
279
330
1F
100
AcDbEntity
  8
Ech.1_5
 62
     7
370
    20
100
AcDbLine
 10
13981.65684808544
 20
-1209.431034314111
 30
0.0
 11
13992.64177296774
 21
-1208.855338795416
 31
0.0
  0
LINE
  5
27A
330
1F
100
AcDbEntity
  8
Ech.1_5
 62
     7
370
    20
100
AcDbLine
 10
13982.90145220564
 20
-1212.970866455304
 30
0.0
 11
14001.90145220564
 21
-1212.970866455304
 31
0.0
  0
LINE
  5
27B
330
1F
100
AcDbEntity
  8
Ech.1_5
 62
     7
370
    20
100
AcDbLine
 10
13983.40145220564
 20
-1209.970866455304
 30
0.0
 11
14001.40145220564
 21
-1209.970866455304
 31
0.0
  0
LINE
  5
27C
330
1F
100
AcDbEntity
  8
Ech.1_5
 62
     7
370
    20
100
AcDbLine
 10
13984.40145220564
 20
-1209.970866455304
 30
0.0
 11
13984.40145220564
 21
-1209.287195707162
 31
0.0
  0
ARC
  5
27D
330
1F
100
AcDbEntity
  8
Ech.1_5
 62
     7
370
    20
100
AcDbCircle
 10
13981.63068010732
 20
-1208.931719546732
 30
0.0
 40
0.5000000000018217
100
AcDbArc
 50
183.0000000018507
 51
272.9999999999938
  0
LINE
  5
27E
330
1F
100
AcDbEntity
  8
Ech.1_5
 62
     7
370
    20
100
AcDbLine
 10
13980.10656782707
 20
-1208.510908713753
 30
0.0
 11
13981.10519736182
 21
-1208.458572757503
 31
0.0
  0
ARC
  5
27F
330
1F
100
AcDbEntity
  8
Ech.1_5
 62
     7
370
    20
100
AcDbCircle
 10
13983.40145220563
 20
-1210.470866455294
 30
0.0
 40
0.4999999999904806
100
AcDbArc
 50
89.99999999895779
 51
179.9999999989057
  0
LINE
  5
280
330
1F
100
AcDbEntity
  8
Ech.1_5
 62
     7
370
    20
100
AcDbLine
 10
13984.40145220564
 20
-1212.970866455304
 30
0.0
 11
13984.40145220564
 21
-1209.970866455304
 31
0.0
  0
LINE
  5
281
330
1F
100
AcDbEntity
  8
Ech.1_5
 62
     7
370
    20
100
AcDbLine
 10
13982.90145220564
 20
-1210.470866455304
 30
0.0
 11
13982.90145220564
 21
-1212.970866455304
 31
0.0
  0
LINE
  5
282
330
1F
100
AcDbEntity
  8
Ech.1_5
 62
     7
370
    20
100
AcDbLine
 10
13995.40145220564
 20
-1217.970866455304
 30
0.0
 11
13995.40145220564
 21
-1212.970866455304
 31
0.0
  0
LINE
  5
283
330
1F
100
AcDbEntity
  8
Ech.1_5
 62
     7
370
    20
100
AcDbLine
 10
13989.40145220564
 20
-1217.970866455304
 30
0.0
 11
13989.40145220564
 21
-1212.970866455304
 31
0.0
  0
ARC
  5
284
330
1F
100
AcDbEntity
  8
Ech.1_5
 62
     7
370
    20
100
AcDbCircle
 10
13992.40145220564
 20
-1213.948336493187
 30
0.0
 40
5.018042177595047
100
AcDbArc
 50
233.2844501962994
 51
306.7155498037006
  0
LINE
  5
285
330
1F
100
AcDbEntity
  8
Ech.1_5
 62
     7
370
    20
100
AcDbLine
 10
13989.40145220564
 20
-1217.970866455304
 30
0.0
 11
13995.40145220564
 21
-1217.970866455304
 31
0.0
  0
LINE
  5
286
330
1F
100
AcDbEntity
  8
Ech.1_5
 62
     7
370
    20
100
AcDbLine
 10
13987.40145220564
 20
-1209.970866455304
 30
0.0
 11
13987.40145220564
 21
-1209.129972369308
 31
0.0
  0
LINE
  5
287
330
1F
100
AcDbEntity
  8
Ech.1_5
 62
     7
370
    20
100
AcDbLine
 10
13989.40145220564
 20
-1211.970866455304
 30
0.0
 11
13995.40145220564
 21
-1211.970866455304
 31
0.0
  0
LINE
  5
288
330
1F
100
AcDbEntity
  8
Ech.1_5
 62
     7
370
    20
100
AcDbLine
 10
13989.40145220564
 20
-1212.970866455304
 30
0.0
 11
13989.40145220564
 21
-1211.970866455304
 31
0.0
  0
LINE
  5
289
330
1F
100
AcDbEntity
  8
Ech.1_5
 62
     7
370
    20
100
AcDbLine
 10
13995.40145220564
 20
-1212.970866455304
 30
0.0
 11
13995.40145220564
 21
-1211.970866455304
 31
0.0
  0
LINE
  5
28A
330
1F
100
AcDbEntity
  8
Ech.1_5
 62
     7
370
    20
100
AcDbLine
 10
13988.40145220564
 20
-1210.270866455292
 30
0.0
 11
13996.40145220564
 21
-1210.270866455292
 31
0.0
  0
LINE
  5
28B
330
1F
100
AcDbEntity
  8
Ech.1_5
 62
     7
370
    20
100
AcDbLine
 10
13988.40145220564
 20
-1210.270866455292
 30
0.0
 11
13988.40145220564
 21
-1209.970866455304
 31
0.0
  0
ARC
  5
28C
330
1F
100
AcDbEntity
  8
Ech.1_5
 62
     7
370
    20
100
AcDbCircle
 10
14001.40145220563
 20
-1210.470866455307
 30
0.0
 40
0.5000000000029015
100
AcDbArc
 50
0.0000000003387164
 51
89.99999999958311
  0
LINE
  5
28D
330
1F
100
AcDbEntity
  8
Ech.1_5
 62
     7
370
    20
100
AcDbLine
 10
13996.40145220564
 20
-1210.270866455292
 30
0.0
 11
13996.40145220564
 21
-1209.970866455304
 31
0.0
  0
LINE
  5
28E
330
1F
100
AcDbEntity
  8
Ech.1_5
 62
     7
370
    20
100
AcDbLine
 10
13997.40145220564
 20
-1209.970866455304
 30
0.0
 11
13997.40145220564
 21
-1204.62014729176
 31
0.0
  0
LINE
  5
28F
330
1F
100
AcDbEntity
  8
Ech.1_5
 62
     7
370
    20
100
AcDbLine
 10
14000.40145220564
 20
-1212.970866455304
 30
0.0
 11
14000.40145220564
 21
-1209.970866455304
 31
0.0
  0
LINE
  5
290
330
1F
100
AcDbEntity
  8
Ech.1_5
 62
     7
370
    20
100
AcDbLine
 10
14001.90145220564
 20
-1210.470866455304
 30
0.0
 11
14001.90145220564
 21
-1212.970866455304
 31
0.0
  0
ARC
  5
291
330
1F
100
AcDbEntity
  8
Ech.1_5
 62
     7
370
    20
100
AcDbCircle
 10
13922.27227227162
 20
-1235.220341373098
 30
0.0
 40
2.999999999918902
100
AcDbArc
 50
269.9999999984367
 51
359.9999587024735
  0
LINE
  5
292
330
1F
100
AcDbEntity
  8
Ech.1_5
 62
     7
370
    20
100
AcDbLine
 10
13922.27227227154
 20
-1238.220341373017
 30
0.0
 11
13912.20387236483
 21
-1238.220341373017
 31
0.0
  0
ARC
  5
293
330
1F
100
AcDbEntity
  8
Ech.1_5
 62
     7
370
    20
100
AcDbCircle
 10
13912.20387236482
 20
-1240.220341373002
 30
0.0
 40
1.999999999984904
100
AcDbArc
 50
89.99999999963524
 51
180.0140832069751
  0
ARC
  5
294
330
1F
100
AcDbEntity
  8
Ech.1_5
 62
     7
370
    20
100
AcDbCircle
 10
13910.24227227149
 20
-1241.720341372971
 30
0.0
 40
1.499999999931839
100
AcDbArc
 50
91.46692633815704
 51
169.0887354464309
  0
LINE
  5
295
330
1F
100
AcDbEntity
  8
Ech.1_5
 62
     7
370
    20
100
AcDbLine
 10
13908.76938999623
 20
-1241.436408629132
 30
0.0
 11
13908.76938999623
 21
-1243.38047660458
 31
0.0
  0
ARC
  5
296
330
1F
100
AcDbEntity
  8
Ech.1_5
 62
     7
370
    20
100
AcDbCircle
 10
13909.76938999614
 20
-1243.380476604562
 30
0.0
 40
0.9999999999131387
100
AcDbArc
 50
179.9999999989969
 51
215.6434607488361
  0
ARC
  5
297
330
1F
100
AcDbEntity
  8
Ech.1_5
 62
     7
370
    20
100
AcDbCircle
 10
13918.70863863984
 20
-1236.970341373172
 30
0.0
 40
11.99999999984507
100
AcDbArc
 50
215.643460747057
 51
270.0000000002952
  0
LINE
  5
298
330
1F
100
AcDbEntity
  8
Ech.1_5
 62
     7
370
    20
100
AcDbLine
 10
13918.7086386399
 20
-1248.970341373017
 30
0.0
 11
13919.2086386399
 21
-1248.970341373017
 31
0.0
  0
LINE
  5
299
330
1F
100
AcDbEntity
  8
Ech.1_5
 62
     7
370
    20
100
AcDbLine
 10
13919.2086386399
 20
-1248.970341373017
 30
0.0
 11
13919.2086386399
 21
-1250.970341373017
 31
0.0
  0
LINE
  5
29A
330
1F
100
AcDbEntity
  8
Ech.1_5
 62
     7
370
    20
100
AcDbLine
 10
13919.2086386399
 20
-1250.970341373017
 30
0.0
 11
13920.2086386399
 21
-1251.970341373017
 31
0.0
  0
LINE
  5
29B
330
1F
100
AcDbEntity
  8
Ech.1_5
 62
     7
370
    20
100
AcDbLine
 10
13920.2086386399
 20
-1251.970341373017
 30
0.0
 11
13953.55512677983
 21
-1251.970071926728
 31
0.0
  0
LINE
  5
29C
330
1F
100
AcDbEntity
  8
Ech.1_5
 62
     7
370
    20
100
AcDbLine
 10
13953.55512677983
 20
-1251.970071926728
 30
0.0
 11
13955.72018475997
 21
-1248.220081503809
 31
0.0
  0
LINE
  5
29D
330
1F
100
AcDbEntity
  8
Ech.1_5
 62
     7
370
    20
100
AcDbLine
 10
13955.72018475997
 20
-1248.220081503809
 30
0.0
 11
13950.30404837026
 21
-1248.22008150375
 31
0.0
  0
LINE
  5
29E
330
1F
100
AcDbEntity
  8
Ech.1_5
 62
     7
370
    20
100
AcDbLine
 10
13950.30404837026
 20
-1248.22008150375
 30
0.0
 11
13950.30404837026
 21
-1245.320081477417
 31
0.0
  0
LINE
  5
29F
330
1F
100
AcDbEntity
  8
Ech.1_5
 62
     7
370
    20
100
AcDbLine
 10
13950.30404837026
 20
-1245.320081477417
 30
0.0
 11
13959.77007371369
 21
-1245.320081477417
 31
0.0
  0
ARC
  5
2A0
330
1F
100
AcDbEntity
  8
Ech.1_5
 62
     7
370
    20
100
AcDbCircle
 10
13959.77007371363
 20
-1244.320081477362
 30
0.0
 40
1.000000000055486
100
AcDbArc
 50
270.0000000032308
 51
359.9999991697281
  0
LINE
  5
2A1
330
1F
100
AcDbEntity
  8
Ech.1_5
 62
     7
370
    20
100
AcDbLine
 10
13960.77007371369
 20
-1244.320081491853
 30
0.0
 11
13960.77007374743
 21
-1241.980957331616
 31
0.0
  0
LINE
  5
2A2
330
1F
100
AcDbEntity
  8
Ech.1_5
 62
     7
370
    20
100
AcDbLine
 10
13960.77007374743
 20
-1241.980957331616
 30
0.0
 11
13954.77007342729
 21
-1237.780938943572
 31
0.0
  0
LINE
  5
2A3
330
1F
100
AcDbEntity
  8
Ech.1_5
 62
     7
370
    20
100
AcDbLine
 10
13954.77007342729
 20
-1237.780938943572
 30
0.0
 11
13954.77007342729
 21
-1233.580957275131
 31
0.0
  0
LINE
  5
2A4
330
1F
100
AcDbEntity
  8
Ech.1_5
 62
     7
370
    20
100
AcDbLine
 10
13954.77007342729
 20
-1233.580957275131
 30
0.0
 11
13962.77007408551
 21
-1232.170341313424
 31
0.0
  0
LINE
  5
2A5
330
1F
100
AcDbEntity
  8
Ech.1_5
 62
     7
370
    20
100
AcDbLine
 10
13962.77007408551
 20
-1232.170341313424
 30
0.0
 11
13962.77007483679
 21
-1230.170343535443
 31
0.0
  0
LINE
  5
2A6
330
1F
100
AcDbEntity
  8
Ech.1_5
 62
     7
370
    20
100
AcDbLine
 10
13962.77007483679
 20
-1230.170343535443
 30
0.0
 11
13960.57007374742
 21
-1230.170343535443
 31
0.0
  0
LINE
  5
2A7
330
1F
100
AcDbEntity
  8
Ech.1_5
 62
     7
370
    20
100
AcDbLine
 10
13960.57007374742
 20
-1230.170343535443
 30
0.0
 11
13960.57007374742
 21
-1228.170343535443
 31
0.0
  0
LINE
  5
2A8
330
1F
100
AcDbEntity
  8
Ech.1_5
 62
     7
370
    20
100
AcDbLine
 10
13960.57007374742
 20
-1228.170343535443
 30
0.0
 11
13951.27007374743
 21
-1228.170343535443
 31
0.0
  0
LINE
  5
2A9
330
1F
100
AcDbEntity
  8
Ech.1_5
 62
     7
370
    20
100
AcDbLine
 10
13951.27007374743
 20
-1228.170343535443
 30
0.0
 11
13951.27007374743
 21
-1215.970343535431
 31
0.0
  0
LINE
  5
2AA
330
1F
100
AcDbEntity
  8
Ech.1_5
 62
     7
370
    20
100
AcDbLine
 10
13951.27007374743
 20
-1215.970343535431
 30
0.0
 11
13960.57007374742
 21
-1215.970343535431
 31
0.0
  0
LINE
  5
2AB
330
1F
100
AcDbEntity
  8
Ech.1_5
 62
     7
370
    20
100
AcDbLine
 10
13960.57007374742
 20
-1215.970343535431
 30
0.0
 11
13960.57007374742
 21
-1213.970343535431
 31
0.0
  0
LINE
  5
2AC
330
1F
100
AcDbEntity
  8
Ech.1_5
 62
     7
370
    20
100
AcDbLine
 10
13960.57007374742
 20
-1213.970343535431
 30
0.0
 11
13962.77008071935
 21
-1213.970343535431
 31
0.0
  0
LINE
  5
2AD
330
1F
100
AcDbEntity
  8
Ech.1_5
 62
     7
370
    20
100
AcDbLine
 10
13962.77008071935
 20
-1213.970343535431
 30
0.0
 11
13962.77008104617
 21
-1212.970341373017
 31
0.0
  0
LINE
  5
2AE
330
1F
100
AcDbEntity
  8
Ech.1_5
 62
     7
370
    20
100
AcDbLine
 10
13962.77008104617
 20
-1212.970341373017
 30
0.0
 11
13957.27008104617
 21
-1212.970341373017
 31
0.0
  0
LINE
  5
2AF
330
1F
100
AcDbEntity
  8
Ech.1_5
 62
     7
370
    20
100
AcDbLine
 10
13957.27008104617
 20
-1212.970341373017
 30
0.0
 11
13957.27008104617
 21
-1209.970341373017
 31
0.0
  0
LINE
  5
2B0
330
1F
100
AcDbEntity
  8
Ech.1_5
 62
     7
370
    20
100
AcDbLine
 10
13957.27008104617
 20
-1209.970341373017
 30
0.0
 11
13978.77008104617
 21
-1209.970341373017
 31
0.0
  0
ARC
  5
2B1
330
1F
100
AcDbEntity
  8
Ech.1_5
 62
     7
370
    20
100
AcDbCircle
 10
13978.77008104619
 20
-1207.970341373042
 30
0.0
 40
1.999999999974343
100
AcDbArc
 50
269.9999999992705
 51
0.0000000007360567
  0
LINE
  5
2B2
330
1F
100
AcDbEntity
  8
Ech.1_5
 62
     7
370
    20
100
AcDbLine
 10
13980.77008104617
 20
-1207.970341373017
 30
0.0
 11
13980.77008104617
 21
-1199.470341465392
 31
0.0
  0
ARC
  5
2B3
330
1F
100
AcDbEntity
  8
Ech.1_5
 62
     7
370
    20
100
AcDbCircle
 10
13975.7700810461
 20
-1199.470341465458
 30
0.0
 40
5.000000000066294
100
AcDbArc
 50
0.0000000007582035
 51
90.0000045877827
  0
LINE
  5
2B4
330
1F
100
AcDbEntity
  8
Ech.1_5
 62
     7
370
    20
100
AcDbLine
 10
13975.77008064574
 20
-1194.470341465392
 30
0.0
 11
13920.20863313689
 21
-1194.470346876085
 31
0.0
  0
LINE
  5
2B5
330
1F
100
AcDbEntity
  8
Ech.1_5
 62
     7
370
    20
100
AcDbLine
 10
13920.20863313689
 20
-1194.470346876085
 30
0.0
 11
13919.20863863991
 21
-1195.470341373075
 31
0.0
  0
LINE
  5
2B6
330
1F
100
AcDbEntity
  8
Ech.1_5
 62
     7
370
    20
100
AcDbLine
 10
13919.20863863991
 20
-1195.470341373075
 30
0.0
 11
13919.2086386399
 21
-1197.470341373075
 31
0.0
  0
LINE
  5
2B7
330
1F
100
AcDbEntity
  8
Ech.1_5
 62
     7
370
    20
100
AcDbLine
 10
13919.2086386399
 20
-1197.470341373075
 30
0.0
 11
13918.7086386399
 21
-1197.470341373075
 31
0.0
  0
ARC
  5
2B8
330
1F
100
AcDbEntity
  8
Ech.1_5
 62
     7
370
    20
100
AcDbCircle
 10
13918.70863863984
 20
-1209.47034137292
 30
0.0
 40
11.99999999984507
100
AcDbArc
 50
89.99999999970471
 51
144.356539252943
  0
ARC
  5
2B9
330
1F
100
AcDbEntity
  8
Ech.1_5
 62
     7
370
    20
100
AcDbCircle
 10
13909.76938999614
 20
-1203.06020614153
 30
0.0
 40
0.9999999999131394
100
AcDbArc
 50
144.3565392511639
 51
179.9999999976681
  0
LINE
  5
2BA
330
1F
100
AcDbEntity
  8
Ech.1_5
 62
     7
370
    20
100
AcDbLine
 10
13908.76938999623
 20
-1203.06020614157
 30
0.0
 11
13908.76938999623
 21
-1205.004274117018
 31
0.0
  0
ARC
  5
2BB
330
1F
100
AcDbEntity
  8
Ech.1_5
 62
     7
370
    20
100
AcDbCircle
 10
13910.2422722715
 20
-1204.720341373096
 30
0.0
 40
1.499999999956791
100
AcDbArc
 50
190.9112645566161
 51
268.5330736615199
  0
ARC
  5
2BC
330
1F
100
AcDbEntity
  8
Ech.1_5
 62
     7
370
    20
100
AcDbCircle
 10
13912.20387236482
 20
-1206.22034137309
 30
0.0
 40
1.999999999984904
100
AcDbArc
 50
179.9859167930249
 51
270.0000000003648
  0
LINE
  5
2BD
330
1F
100
AcDbEntity
  8
Ech.1_5
 62
     7
370
    20
100
AcDbLine
 10
13912.20387236483
 20
-1208.220341373075
 30
0.0
 11
13922.27228957078
 21
-1208.220341373075
 31
0.0
  0
ARC
  5
2BE
330
1F
100
AcDbEntity
  8
Ech.1_5
 62
     7
370
    20
100
AcDbCircle
 10
13922.27228957075
 20
-1211.220341373106
 30
0.0
 40
3.000000000030689
100
AcDbArc
 50
359.9999587015095
 51
89.99999999944417
  0
LINE
  5
2BF
330
1F
100
AcDbEntity
  8
Ech.1_5
 62
     7
370
    20
100
AcDbLine
 10
13925.27228957077
 20
-1211.22034353549
 30
0.0
 11
13925.27227227154
 21
-1235.220343535431
 31
0.0
  0
LWPOLYLINE
  5
2C0
330
1F
100
AcDbEntity
  8
Ech.1_5
 62
     7
370
    20
100
AcDbPolyline
 90
        5
 70
   128
 43
0.0
 10
13977.58995382277
 20
-1210.570341373052
 42
0.7315741705714981
 10
13977.65351511837
 20
-1212.024638819639
 42
-0.1352144976972222
 10
13978.96036412205
 20
-1211.791149726792
 42
0.9259145705079939
 10
13978.96036412212
 20
-1210.570341373052
 10
13977.58995382277
 20
-1210.570341373052
  0
LWPOLYLINE
  5
2C1
330
1F
100
AcDbEntity
  8
Ech.1_5
 62
     7
370
    20
100
AcDbPolyline
 90
       65
 70
     0
 43
0.0
 10
13977.66048323366
 20
-1212.021323779729
 10
13977.62269138067
 20
-1212.031099276166
 10
13977.58517954483
 20
-1212.040526072509
 10
13977.54822580438
 20
-1212.049257883351
 10
13977.5121082375
 20
-1212.056948423167
 10
13977.47710492244
 20
-1212.063251406435
 10
13977.4434939374
 20
-1212.067820547745
 10
13977.41155336059
 20
-1212.070309561517
 10
13977.38156127022
 20
-1212.070372162285
 10
13977.35379574453
 20
-1212.067662064524
 10
13977.3285348617
 20
-1212.061832982828
 10
13977.30605669998
 20
-1212.052538631557
 10
13977.28663933757
 20
-1212.039432725302
 10
13977.27056085268
 20
-1212.022168978598
 10
13977.25798691784
 20
-1212.000536768363
 10
13977.24856586037
 20
-1211.974949855605
 10
13977.24179726578
 20
-1211.94600151795
 10
13977.23718070635
 20
-1211.914285048915
 10
13977.23421575435
 20
-1211.880393742016
 10
13977.23240198207
 20
-1211.844920890886
 10
13977.23123896178
 20
-1211.808459788983
 10
13977.23022626577
 20
-1211.771603729881
 10
13977.2288634663
 20
-1211.734946007098
 10
13977.22665013566
 20
-1211.699079914208
 10
13977.22308584614
 20
-1211.664598744726
 10
13977.21767017001
 20
-1211.632095792229
 10
13977.20990267955
 20
-1211.602164350232
 10
13977.19928294703
 20
-1211.575397712309
 10
13977.18531054474
 20
-1211.55238917192
 10
13977.16748504496
 20
-1211.533732022697
 10
13977.14530601996
 20
-1211.520019558098
 10
13977.11831507435
 20
-1211.511845199348
 10
13977.08789240331
 20
-1211.509807950424
 10
13977.05793217003
 20
-1211.514514441325
 10
13977.03171680858
 20
-1211.526277780024
 10
13977.00963368363
 20
-1211.544337480344
 10
13976.9914096766
 20
-1211.567688125549
 10
13976.97677166889
 20
-1211.595324298789
 10
13976.9654465419
 20
-1211.626240583384
 10
13976.95716117704
 20
-1211.659431562541
 10
13976.95164245572
 20
-1211.693891819406
 10
13976.9486165006
 20
-1211.72862134788
 10
13976.94776073607
 20
-1211.762967412142
 10
13976.94867522052
 20
-1211.796828977895
 10
13976.95095313203
 20
-1211.830154074429
 10
13976.9541876487
 20
-1211.862890731092
 10
13976.95797194866
 20
-1211.894986977291
 10
13976.96189920999
 20
-1211.926390842316
 10
13976.9655626108
 20
-1211.957050355515
 10
13976.96855532918
 20
-1211.986913546294
 10
13976.97047054326
 20
-1212.015928444001
 10
13976.97090143111
 20
-1212.044043077927
 10
13976.96944117085
 20
-1212.071205477419
 10
13976.96568294058
 20
-1212.097363671885
 10
13976.9592199184
 20
-1212.122465690612
 10
13976.94964528242
 20
-1212.14645956301
 10
13976.93667175926
 20
-1212.169320080327
 10
13976.9205304206
 20
-1212.191138069917
 10
13976.90159279079
 20
-1212.212035800694
 10
13976.88023039672
 20
-1212.232135541926
 10
13976.85681476527
 20
-1212.251559563229
 10
13976.83171742329
 20
-1212.270430133867
 10
13976.80530989768
 20
-1212.288869523341
 10
13976.77796371532
 20
-1212.307000001034
 10
13976.75005040307
 20
-1212.324943836444
  0
LWPOLYLINE
  5
2C2
330
1F
100
AcDbEntity
  8
Ech.1_5
 62
     7
370
    20
100
AcDbPolyline
 90
       40
 70
   128
 43
0.0
 10
13977.66048323366
 20
-1212.021323779729
 42
-0.2009984763280135
 10
13979.58992640339
 20
-1211.932894700338
 42
0.5514566180469235
 10
13979.72385919301
 20
-1211.829589254761
 42
-0.1294239027543642
 10
13979.90811633829
 20
-1210.71118128988
 42
0.5435451739339969
 10
13979.81683599435
 20
-1210.570341373052
 10
13977.58995382277
 20
-1210.570341373052
 10
13977.58995382277
 20
-1210.570341373052
 10
13977.08995382277
 20
-1211.070341373052
 10
13976.58995382277
 20
-1210.570341373052
 10
13963.47008104616
 20
-1210.570341373052
 42
0.4142135625591736
 10
13963.37008104617
 20
-1210.670341373028
 10
13963.37008104617
 20
-1213.87034137304
 42
-0.4142135625077238
 10
13963.27008104616
 20
-1213.970341373017
 10
13962.87008104617
 20
-1213.970341373017
 42
-0.4142135625591736
 10
13962.77008104617
 20
-1213.87034137304
 10
13962.77008104617
 20
-1211.070341373052
 42
0.4142135620961329
 10
13962.67008104616
 20
-1210.970341373017
 10
13960.22072487033
 20
-1210.970341373017
 42
0.7486371216561042
 10
13960.16667081626
 20
-1211.154473169896
 10
13962.1231500569
 20
-1212.411496537927
 42
-0.4142135625370315
 10
13962.15322779969
 20
-1212.549682388795
 10
13961.93701158347
 20
-1212.886209576172
 42
-0.41421356249238
 10
13961.79882573258
 20
-1212.916287318993
 10
13958.81602699211
 20
-1210.999861301752
 42
-0.2552665219355792
 10
13958.77008104617
 20
-1210.915729504908
 10
13958.77008104617
 20
-1210.070341373052
 42
-0.4142135621475828
 10
13958.87008104617
 20
-1209.970341373017
 10
13980.47008104616
 20
-1209.970341373017
 42
-0.4142135621475837
 10
13980.57008104616
 20
-1210.070341373052
 10
13980.57008104616
 20
-1210.536959832083
 42
-0.1601228239777275
 10
13980.5505822793
 20
-1210.596285639811
 42
0.2430064252136781
 10
13980.30078724382
 20
-1212.160780041027
 42
0.0690948882208114
 10
13980.31291028152
 20
-1212.18547107077
 42
-0.7595553993378779
 10
13979.90675687838
 20
-1212.663008916556
 42
0.2752542670735426
 10
13977.86901434019
 20
-1212.475815154801
 42
-0.2097000040918891
 10
13973.66542538534
 20
-1212.544004949697
 42
-0.9750995008004383
 10
13973.85883938662
 20
-1212.082929007898
 42
0.1552990599515043
 10
13976.71803952745
 20
-1212.338223609448
 42
0.0656563841107522
 10
13976.74260209204
 20
-1212.329251767384
 42
0.021520946908511
 10
13976.75005040307
 20
-1212.324943836444
  0
LINE
  5
2C3
330
1F
100
AcDbEntity
  8
Ech.1_5
 62
     7
370
    20
100
AcDbLine
 10
13959.77007371368
 20
-1245.320081477417
 30
0.0
 11
13958.87007371378
 21
-1245.320094087758
 31
0.0
  0
LINE
  5
2C4
330
1F
100
AcDbEntity
  8
Ech.1_5
 62
     7
370
    20
100
AcDbLine
 10
13958.87009051862
 20
-1246.520094095278
 30
0.0
 11
13956.76866100549
 21
-1246.520123523791
 31
0.0
  0
LINE
  5
2C5
330
1F
100
AcDbEntity
  8
Ech.1_5
 62
     7
370
    20
100
AcDbLine
 10
13955.91249642144
 20
-1245.320135527829
 30
0.0
 11
13955.41249642149
 21
-1245.320142529861
 31
0.0
  0
LINE
  5
2C6
330
1F
100
AcDbEntity
  8
Ech.1_5
 62
     7
370
    20
100
AcDbLine
 10
13958.87009051862
 20
-1246.520094095278
 30
0.0
 11
13958.87007370483
 21
-1245.320094087758
 31
0.0
  0
LINE
  5
2C7
330
1F
100
AcDbEntity
  8
Ech.1_5
 62
     7
370
    20
100
AcDbLine
 10
13958.87007371378
 20
-1245.320094087758
 30
0.0
 11
13955.91249642144
 21
-1245.320135527829
 31
0.0
  0
LINE
  5
2C8
330
1F
100
AcDbEntity
  8
Ech.1_5
 62
     7
370
    20
100
AcDbLine
 10
13952.74730551168
 20
-1246.520179839004
 30
0.0
 11
13952.71890588767
 21
-1246.520180236737
 31
0.0
  0
LINE
  5
2C9
330
1F
100
AcDbEntity
  8
Ech.1_5
 62
     7
370
    20
100
AcDbLine
 10
13951.97652271196
 20
-1246.520190633091
 30
0.0
 11
13951.07293322676
 21
-1246.520203286971
 31
0.0
  0
LINE
  5
2CA
330
1F
100
AcDbEntity
  8
Ech.1_5
 62
     7
370
    20
100
AcDbLine
 10
13953.84861271178
 20
-1246.520164416244
 30
0.0
 11
13952.74730551168
 21
-1246.520179839004
 31
0.0
  0
ARC
  5
2CB
330
1F
100
AcDbEntity
  8
Ech.1_5
 62
     7
370
    20
100
AcDbCircle
 10
13952.07293367521
 20
-1246.552239550818
 30
0.0
 40
0.9999999997083304
100
AcDbArc
 50
180.0008023670176
 51
210.0008488786795
  0
ARC
  5
2CC
330
1F
100
AcDbEntity
  8
Ech.1_5
 62
     7
370
    20
100
AcDbCircle
 10
13951.87292762514
 20
-1246.120191987668
 30
0.0
 40
0.8000000000777029
100
AcDbArc
 50
90.00765543536552
 51
180.0008023685708
  0
LINE
  5
2CD
330
1F
100
AcDbEntity
  8
Ech.1_5
 62
     7
370
    20
100
AcDbLine
 10
13951.0729336756
 20
-1246.552253554764
 30
0.0
 11
13951.07292762514
 21
-1246.120203190847
 31
0.0
  0
LINE
  5
2CE
330
1F
100
AcDbEntity
  8
Ech.1_5
 62
     7
370
    20
100
AcDbLine
 10
13951.87282073509
 20
-1245.320191994731
 30
0.0
 11
13952.07163093139
 21
-1245.320189210601
 31
0.0
  0
LINE
  5
2CF
330
1F
100
AcDbEntity
  8
Ech.1_5
 62
     7
370
    20
100
AcDbLine
 10
13952.07163093139
 20
-1245.320189210601
 30
0.0
 11
13952.21137865252
 21
-1245.320187257617
 31
0.0
  0
LINE
  5
2D0
330
1F
100
AcDbEntity
  8
Ech.1_5
 62
     7
370
    20
100
AcDbLine
 10
13952.71890588767
 20
-1246.520180236737
 30
0.0
 11
13951.97652271196
 21
-1246.520190633091
 31
0.0
  0
LINE
  5
2D1
330
1F
100
AcDbEntity
  8
Ech.1_5
 62
     7
370
    20
100
AcDbLine
 10
13956.76866100549
 20
-1246.520123523791
 30
0.0
 11
13953.84861271178
 21
-1246.520164416244
 31
0.0
  0
LINE
  5
2D2
330
1F
100
AcDbEntity
  8
Ech.1_5
 62
     7
370
    20
100
AcDbLine
 10
13952.21137865252
 20
-1245.320187257617
 30
0.0
 11
13955.41249642149
 21
-1245.320142529861
 31
0.0
  0
HATCH
  5
2D3
330
1F
100
AcDbEntity
  8
Ech.1_5
 62
     7
440
 33554687
370
    20
100
AcDbHatch
 10
0.0
 20
0.0
 30
0.0
210
0.0
220
0.0
230
1.0
  2
CwHatchPattern_222
 70
     0
 71
     1
 91
        1
 92
        3
 72
     0
 73
     1
 93
       19
 10
13951.07292762514
 20
-1246.120203190847
 10
13951.07293322676
 20
-1246.520203286971
 10
13958.87009051862
 20
-1246.520094095278
 10
13958.87007370483
 20
-1245.320094087758
 10
13955.91249642144
 20
-1245.320135527829
 10
13955.41249642149
 20
-1245.320142529861
 10
13952.21137865252
 20
-1245.320187257617
 10
13952.07163093139
 20
-1245.320189210601
 10
13951.87282073509
 20
-1245.320191994731
 10
13951.75897856357
 20
-1245.328348814117
 10
13951.6474557137
 20
-1245.352622826424
 10
13951.54052212393
 20
-1245.392519957924
 10
13951.44035432286
 20
-1245.447228141493
 10
13951.34899112805
 20
-1245.5156338456
 10
13951.26829214794
 20
-1245.596344739097
 10
13951.19989993129
 20
-1245.68771803072
 10
13951.14520653475
 20
-1245.787893906483
 10
13951.10532518888
 20
-1245.894833384562
 10
13951.08106763945
 20
-1246.006359816485
 97
        0
 75
     0
 76
     2
 52
0.0
 41
1.0
 77
     0
 78
     1
 53
135.0007934570401
 43
13951.07292762514
 44
-1246.120203190847
 45
-1.767742471986125
 46
-1.767791433607592
 79
     2
 49
50.0
 49
0.0
 98
        0
1001
ACAD
1010
13951.07292762514
1020
-1246.120203190847
1030
0.0
  0
ARC
  5
2D4
330
1F
100
AcDbEntity
  8
Ech.1_5
 62
     7
370
    20
100
AcDbCircle
 10
13957.06868613194
 20
-1248.314355175458
 30
0.0
 40
0.2999999999342748
100
AcDbArc
 50
180.000802364538
 51
270.0008023853386
  0
LINE
  5
2D5
330
1F
100
AcDbEntity
  8
Ech.1_5
 62
     7
370
    20
100
AcDbLine
 10
13958.57011984641
 20
-1248.614334149301
 30
0.0
 11
13957.06869033322
 21
-1248.614355175363
 31
0.0
  0
ARC
  5
2D6
330
1F
100
AcDbEntity
  8
Ech.1_5
 62
     7
370
    20
100
AcDbCircle
 10
13956.11987335793
 20
-1249.714368462995
 30
0.0
 40
0.3000000002607674
100
AcDbArc
 50
90.00080240270783
 51
150.0008023458069
  0
ARC
  5
2D7
330
1F
100
AcDbEntity
  8
Ech.1_5
 62
     7
370
    20
100
AcDbCircle
 10
13958.59623768263
 20
-1249.714333783641
 30
0.0
 40
0.2999999999834519
100
AcDbArc
 50
8.337022297963376
 51
90.00080237456905
  0
ARC
  5
2D8
330
1F
100
AcDbEntity
  8
Ech.1_5
 62
     7
370
    20
100
AcDbCircle
 10
13958.57011564524
 20
-1248.314334149371
 30
0.0
 40
0.2999999999591176
100
AcDbArc
 50
270.0008023651893
 51
0.0008023805617959
  0
ARC
  5
2D9
330
1F
100
AcDbEntity
  8
Ech.1_5
 62
     7
370
    20
100
AcDbCircle
 10
13954.90408339449
 20
-1247.820149530767
 30
0.0
 40
0.999999999843358
100
AcDbArc
 50
330.0008023704814
 51
0.0008023759544026
  0
ARC
  5
2DA
330
1F
100
AcDbEntity
  8
Ech.1_5
 62
     7
370
    20
100
AcDbCircle
 10
13955.11160340325
 20
-1250.460775476126
 30
0.0
 40
0.1999999999849784
100
AcDbArc
 50
270.0008023674474
 51
330.000802370607
  0
LINE
  5
2DB
330
1F
100
AcDbEntity
  8
Ech.1_5
 62
     7
370
    20
100
AcDbLine
 10
13956.11986915656
 20
-1249.414368462763
 30
0.0
 11
13958.59623348141
 21
-1249.414333783687
 31
0.0
  0
LINE
  5
2DC
330
1F
100
AcDbEntity
  8
Ech.1_5
 62
     7
370
    20
100
AcDbLine
 10
13955.28480988438
 20
-1250.560773050544
 30
0.0
 11
13955.86006363606
 21
-1249.564372101115
 31
0.0
  0
ARC
  5
2DD
330
1F
100
AcDbEntity
  8
Ech.1_5
 62
     7
370
    20
100
AcDbCircle
 10
13959.05492511437
 20
-1251.597325380176
 30
0.0
 40
0.7196784145548966
100
AcDbArc
 50
267.8457780800827
 51
353.631720590398
  0
ARC
  5
2DE
330
1F
100
AcDbEntity
  8
Ech.1_5
 62
     7
370
    20
100
AcDbCircle
 10
13958.85576950938
 20
-1251.907812734989
 30
0.0
 40
0.1999999999035298
100
AcDbArc
 50
19.76068817763225
 51
85.24537528455203
  0
ARC
  5
2DF
330
1F
100
AcDbEntity
  8
Ech.1_5
 62
     7
370
    20
100
AcDbCircle
 10
13956.26620996995
 20
-1252.023378665432
 30
0.0
 40
0.3000000000354294
100
AcDbArc
 50
85.24537526562455
 51
138.3754776136715
  0
ARC
  5
2E0
330
1F
100
AcDbEntity
  8
Ech.1_5
 62
     7
370
    20
100
AcDbCircle
 10
13959.14097910189
 20
-1251.716300518307
 30
0.0
 40
0.1573408465485805
100
AcDbArc
 50
231.9453104332464
 51
79.31145966326925
  0
ARC
  5
2E1
330
1F
100
AcDbEntity
  8
Ech.1_5
 62
     7
370
    20
100
AcDbCircle
 10
13955.87959006625
 20
-1251.744343651248
 30
0.0
 40
0.1808990778551945
100
AcDbArc
 50
85.9224974559993
 51
333.8377112495236
  0
LINE
  5
2E2
330
1F
100
AcDbEntity
  8
Ech.1_5
 62
     7
370
    20
100
AcDbLine
 10
13958.87234723868
 20
-1251.708500972032
 30
0.0
 11
13956.29107656401
 21
-1251.724411020827
 31
0.0
  0
LINE
  5
2E3
330
1F
100
AcDbEntity
  8
Ech.1_5
 62
     7
370
    20
100
AcDbLine
 10
13958.89306737416
 20
-1249.670835114506
 30
0.0
 11
13959.17016112135
 21
-1251.561689549315
 31
0.0
  0
ARC
  5
2E4
330
1F
100
AcDbEntity
  8
Ech.1_5
 62
     7
370
    20
100
AcDbCircle
 10
13954.21131064063
 20
-1251.220159309719
 30
0.0
 40
0.0999999999948631
100
AcDbArc
 50
150.0008023811019
 51
266.6720651166516
  0
ARC
  5
2E5
330
1F
100
AcDbEntity
  8
Ech.1_5
 62
     7
370
    20
100
AcDbCircle
 10
13954.2519077078
 20
-1250.522001340993
 30
0.0
 40
0.7993373085646425
100
AcDbArc
 50
266.6720651320089
 51
277.3764812299037
  0
ARC
  5
2E6
330
1F
100
AcDbEntity
  8
Ech.1_5
 62
     7
370
    20
100
AcDbCircle
 10
13953.02627175239
 20
-1247.521693342826
 30
0.0
 40
0.2999999999823538
100
AcDbArc
 50
246.3443791849467
 51
56.27897772143569
  0
LINE
  5
2E7
330
1F
100
AcDbEntity
  8
Ech.1_5
 62
     7
370
    20
100
AcDbLine
 10
13954.12470740005
 20
-1251.170160522524
 30
0.0
 11
13955.77011580005
 21
-1248.320137402814
 31
0.0
  0
ARC
  5
2E8
330
1F
100
AcDbEntity
  8
Ech.1_5
 62
     7
370
    20
100
AcDbCircle
 10
13955.02269330979
 20
-1247.529651056825
 30
0.0
 40
0.2999999999916693
100
AcDbArc
 50
239.487863253867
 51
49.42246179181705
  0
LINE
  5
2E9
330
1F
100
AcDbEntity
  8
Ech.1_5
 62
     7
370
    20
100
AcDbLine
 10
13951.20691567964
 20
-1247.052252381414
 30
0.0
 11
13952.90590022703
 21
-1247.79648543855
 31
0.0
  0
LINE
  5
2EA
330
1F
100
AcDbEntity
  8
Ech.1_5
 62
     7
370
    20
100
AcDbLine
 10
13959.77016273834
 20
-1251.677151200667
 30
0.0
 11
13959.77007371368
 21
-1245.320081477417
 31
0.0
  0
LINE
  5
2EB
330
1F
100
AcDbEntity
  8
Ech.1_5
 62
     7
370
    20
100
AcDbLine
 10
13956.76866100549
 20
-1246.520123523791
 30
0.0
 11
13956.76868613204
 21
-1248.314359376629
 31
0.0
  0
LINE
  5
2EC
330
1F
100
AcDbEntity
  8
Ech.1_5
 62
     7
370
    20
100
AcDbLine
 10
13958.87011564517
 20
-1248.314329948116
 30
0.0
 11
13958.87009051862
 21
-1246.520094095278
 31
0.0
  0
LINE
  5
2ED
330
1F
100
AcDbEntity
  8
Ech.1_5
 62
     7
370
    20
100
AcDbLine
 10
13955.90406518899
 20
-1246.520135631625
 30
0.0
 11
13955.90408339423
 21
-1247.820135526665
 31
0.0
  0
LINE
  5
2EE
330
1F
100
AcDbEntity
  8
Ech.1_5
 62
     7
370
    20
100
AcDbLine
 10
13952.06616771208
 20
-1246.520189377727
 30
0.0
 11
13953.19281664459
 21
-1247.272168196054
 31
0.0
  0
LINE
  5
2EF
330
1F
100
AcDbEntity
  8
Ech.1_5
 62
     7
370
    20
100
AcDbLine
 10
13954.3051630422
 20
-1246.520158022715
 30
0.0
 11
13955.21783626231
 21
-1247.301793144798
 31
0.0
  0
LINE
  5
2F0
330
1F
100
AcDbEntity
  8
Ech.1_5
 62
     7
370
    20
100
AcDbLine
 10
13952.71890588767
 20
-1246.520180236737
 30
0.0
 11
13954.87037704963
 21
-1247.788107546177
 31
0.0
  0
ARC
  5
2F1
330
1F
100
AcDbEntity
  8
Ech.1_5
 62
     7
370
    20
100
AcDbCircle
 10
13954.37156100403
 20
-1251.969356765998
 30
0.0
 40
0.3500000005627304
100
AcDbArc
 50
97.52289347726439
 51
135.2453752295512
  0
ARC
  5
2F2
330
1F
100
AcDbEntity
  8
Ech.1_5
 62
     7
370
    20
100
AcDbCircle
 10
13954.37156100353
 20
-1251.969356766006
 30
0.0
 40
0.349999999440657
100
AcDbArc
 50
225.2453752280209
 51
265.2453752957425
  0
ARC
  5
2F3
330
1F
100
AcDbEntity
  8
Ech.1_5
 62
     7
370
    20
100
AcDbCircle
 10
13954.37156100379
 20
-1251.969356765461
 30
0.0
 40
0.3500000000079111
100
AcDbArc
 50
135.245375263471
 51
225.2453752609443
  0
LINE
  5
2F4
330
1F
100
AcDbEntity
  8
Ech.1_5
 62
     7
370
    20
100
AcDbLine
 10
13959.02787282909
 20
-1252.316495175313
 30
0.0
 11
13954.34254997736
 21
-1252.318152350796
 31
0.0
  0
LINE
  5
2F5
330
1F
100
AcDbEntity
  8
Ech.1_5
 62
     7
370
    20
100
AcDbLine
 10
13954.32573818846
 20
-1251.622369345525
 30
0.0
 11
13955.16201729022
 21
-1251.388501256952
 31
0.0
  0
ARC
  5
2F6
330
1F
100
AcDbEntity
  8
Ech.1_5
 62
     7
370
    20
100
AcDbCircle
 10
13955.14185993782
 20
-1250.787948616118
 30
0.0
 40
0.1307222090981511
100
AcDbArc
 50
103.3815886333286
 51
4.559893834985763
  0
LINE
  5
2F7
330
1F
100
AcDbEntity
  8
Ech.1_5
 62
     7
370
    20
100
AcDbLine
 10
13954.3545334455
 20
-1251.314723291507
 30
0.0
 11
13955.32932553445
 21
-1251.14866584471
 31
0.0
  0
LINE
  5
2F8
330
1F
100
AcDbEntity
  8
Ech.1_5
 62
     7
370
    20
100
AcDbLine
 10
13955.89245303791
 20
-1251.563902468784
 30
0.0
 11
13956.56970670401
 21
-1251.468752631466
 31
0.0
  0
ARC
  5
2F9
330
1F
100
AcDbEntity
  8
Ech.1_5
 62
     7
370
    20
100
AcDbCircle
 10
13956.49013776498
 20
-1250.616290404643
 30
0.0
 40
0.8561676612781526
100
AcDbArc
 50
275.332545202531
 51
319.8968746939824
  0
ARC
  5
2FA
330
1F
100
AcDbEntity
  8
Ech.1_5
 62
     7
370
    20
100
AcDbCircle
 10
13957.06852002296
 20
-1251.103387413013
 30
0.0
 40
0.100000000039065
100
AcDbArc
 50
319.896874718546
 51
41.05077061683124
  0
ARC
  5
2FB
330
1F
100
AcDbEntity
  8
Ech.1_5
 62
     7
370
    20
100
AcDbCircle
 10
13956.49013776549
 20
-1250.616290404995
 30
0.0
 40
0.8561676605572986
100
AcDbArc
 50
0.658042412375217
 51
33.90586698328347
  0
ARC
  5
2FC
330
1F
100
AcDbEntity
  8
Ech.1_5
 62
     7
370
    20
100
AcDbCircle
 10
13957.11772302372
 20
-1250.194477324928
 30
0.0
 40
0.1000000000040711
100
AcDbArc
 50
33.90586696396348
 51
114.8727342031721
  0
ARC
  5
2FD
330
1F
100
AcDbEntity
  8
Ech.1_5
 62
     7
370
    20
100
AcDbCircle
 10
13956.49013776524
 20
-1250.616290405051
 30
0.0
 40
0.4561676608044196
100
AcDbArc
 50
275.3325451872621
 51
71.54778471487703
  0
ARC
  5
2FE
330
1F
100
AcDbEntity
  8
Ech.1_5
 62
     7
370
    20
100
AcDbCircle
 10
13958.19084357265
 20
-1261.329240362631
 30
0.0
 40
10.39192391313417
100
AcDbArc
 50
99.1823406971442
 51
106.9453620691956
  0
ARC
  5
2FF
330
1F
100
AcDbEntity
  8
Ech.1_5
 62
     7
370
    20
100
AcDbCircle
 10
13955.29509650009
 20
-1250.741676509228
 30
0.0
 40
0.4084261818121851
100
AcDbArc
 50
274.8074348522719
 51
313.0623565196286
  0
LINE
  5
300
330
1F
100
AcDbEntity
  8
Ech.1_5
 62
     7
370
    20
100
AcDbLine
 10
13955.27216838136
 20
-1250.777556046916
 30
0.0
 11
13956.05751487522
 21
-1249.87470757043
 31
0.0
  0
LINE
  5
301
330
1F
100
AcDbEntity
  8
Ech.1_5
 62
     7
370
    20
100
AcDbLine
 10
13955.57396740877
 20
-1251.040077183294
 30
0.0
 11
13956.29991271579
 21
-1250.20551738127
 31
0.0
  0
ARC
  5
302
330
1F
100
AcDbEntity
  8
Ech.1_5
 62
     7
370
    20
100
AcDbCircle
 10
13956.50547538033
 20
-1250.777972540924
 30
0.0
 40
1.008244127712538
100
AcDbArc
 50
78.0616028516404
 51
116.3784119122968
  0
ARC
  5
303
330
1F
100
AcDbEntity
  8
Ech.1_5
 62
     7
370
    20
100
AcDbCircle
 10
13956.50547538038
 20
-1250.777972540665
 30
0.0
 40
0.6082441274606027
100
AcDbArc
 50
77.7509783698982
 51
109.7526828601186
  0
ARC
  5
304
330
1F
100
AcDbEntity
  8
Ech.1_5
 62
     7
370
    20
100
AcDbCircle
 10
13957.29608079129
 20
-1250.905217562275
 30
0.0
 40
0.2017535302284019
100
AcDbArc
 50
99.5041464925241
 51
221.0507706252834
  0
ARC
  5
305
330
1F
100
AcDbEntity
  8
Ech.1_5
 62
     7
370
    20
100
AcDbCircle
 10
13957.24625555526
 20
-1250.607606005228
 30
0.0
 40
0.100000000047013
100
AcDbArc
 50
279.504146515134
 51
0.6580423938799423
  0
ARC
  5
306
330
1F
100
AcDbEntity
  8
Ech.1_5
 62
     7
370
    20
100
AcDbCircle
 10
13956.99154178662
 20
-1249.922304043006
 30
0.0
 40
0.1999999999769902
100
AcDbArc
 50
173.6979748848296
 51
294.8727342234232
  0
ARC
  5
307
330
1F
100
AcDbEntity
  8
Ech.1_5
 62
     7
370
    20
100
AcDbCircle
 10
13956.69335466376
 20
-1249.889373210292
 30
0.0
 40
0.0999999999911722
100
AcDbArc
 50
353.6979749036896
 51
78.06160286591697
  0
LWPOLYLINE
  5
308
330
1F
100
AcDbEntity
  8
Ech.1_5
 62
     7
370
    20
100
AcDbPolyline
 90
       99
 70
     0
 43
0.0
 10
13911.04813761433
 20
-1209.993541795833
 10
13914.4187536332
 20
-1211.220345697846
 10
13919.37228524597
 20
-1211.220345697846
 10
13919.67228524596
 20
-1210.920345697858
 10
13920.37228524597
 20
-1210.920345697858
 42
-0.9554879614867492
 10
13920.40864888233
 20
-1211.718689376037
 42
0.3877945822461792
 10
13920.27228524597
 20
-1211.868068255382
 10
13920.27228524597
 20
-1215.10322923692
 42
0.3441507312395596
 10
13920.38590490221
 20
-1215.248750611921
 10
13920.95866558972
 20
-1215.391940783782
 42
-0.3441507313480652
 10
13921.07228524596
 20
-1215.537462158842
 10
13921.07228524596
 20
-1230.903229236908
 42
-0.3441507316276125
 10
13920.95866558972
 20
-1231.04875061191
 10
13920.38590490221
 20
-1231.191940783829
 42
0.3441507316276119
 10
13920.27228524597
 20
-1231.33746215883
 10
13920.27228524597
 20
-1234.572623140368
 42
0.3877945825226289
 10
13920.40864888233
 20
-1234.722002019655
 42
-0.9554879614867493
 10
13920.37228524597
 20
-1235.520345697834
 10
13919.67228524596
 20
-1235.520345697834
 10
13919.37228524597
 20
-1235.220345697846
 10
13914.4187536332
 20
-1235.220345697846
 10
13911.07355114948
 20
-1236.437899829543
 42
-1.107380507274386
 10
13910.98302179776
 20
-1236.189172479862
 10
13912.28461142375
 20
-1235.860639192411
 42
0.9325150860841507
 10
13912.17160540772
 20
-1235.22214583309
 10
13909.75060310311
 20
-1235.54898965529
 42
-0.1853167530701857
 10
13909.09671717234
 20
-1235.394310504038
 42
0.1508181260868805
 10
13908.53309863243
 20
-1235.220345697846
 10
13908.24183692124
 20
-1235.220345697846
 10
13907.24183692124
 20
-1235.220345697846
 42
0.308431506304347
 10
13906.88622413751
 20
-1235.477569874798
 42
0.2679504434820988
 10
13909.1277840997
 20
-1240.744201366513
 42
0.521712673643352
 10
13909.37022629387
 20
-1240.70218972741
 42
-0.1556530095271769
 10
13910.47264983348
 20
-1239.871132199667
 10
13910.27228524597
 20
-1238.213731796262
 42
-0.3152987888081727
 10
13910.4038812173
 20
-1238.025793272143
 10
13913.07923362658
 20
-1237.052044628959
 42
-0.8714005317209125
 10
13913.12552895133
 20
-1237.139621030379
 10
13912.40702552825
 20
-1237.656381371853
 42
1.00812133389901
 10
13912.71621538483
 20
-1238.176612577357
 10
13915.02101469306
 20
-1236.699388582158
 42
-0.1434661784803366
 10
13915.29082037637
 20
-1236.620345697869
 10
13916.87205597286
 20
-1236.620345697869
 42
-0.7247228742535526
 10
13916.93121957094
 20
-1236.800966220457
 10
13916.0428922956
 20
-1237.452867699103
 42
0.9485551208233153
 10
13916.50856092525
 20
-1238.162503878717
 10
13918.45838024741
 20
-1236.718533562336
 42
-0.1607218598178275
 10
13918.75594873995
 20
-1236.620345697869
 10
13920.31378565621
 20
-1236.620345697869
 42
0.0874886636857393
 10
13920.38218968487
 20
-1236.608284222035
 10
13922.17358826747
 20
-1235.956268460272
 42
0.3152987885692388
 10
13922.27228524597
 20
-1235.815314567139
 10
13922.27228524597
 20
-1234.437462158807
 42
0.3441507315654888
 10
13922.15866558972
 20
-1234.291940783805
 10
13921.58590490221
 20
-1234.148750611945
 42
-0.3441507312859374
 10
13921.47228524597
 20
-1234.003229236885
 10
13921.47228524597
 20
-1232.237462158795
 42
-0.3441507311774352
 10
13921.58590490221
 20
-1232.091940783794
 10
13922.15866558972
 20
-1231.948750611933
 42
0.3441507312859374
 10
13922.27228524597
 20
-1231.803229236873
 10
13922.27228524597
 20
-1214.637462158818
 42
0.3441507315654888
 10
13922.15866558972
 20
-1214.491940783817
 10
13921.58590490221
 20
-1214.348750611898
 42
-0.3441507315654859
 10
13921.47228524597
 20
-1214.203229236897
 10
13921.47228524597
 20
-1212.437462158807
 42
-0.3441507315654888
 10
13921.58590490221
 20
-1212.291940783805
 10
13922.15866558972
 20
-1212.148750611945
 42
0.3441507312859374
 10
13922.27228524597
 20
-1212.003229236885
 10
13922.27228524597
 20
-1210.625376828611
 42
0.3152987889572929
 10
13922.17358826747
 20
-1210.484422935479
 10
13920.38218968487
 20
-1209.832407173715
 42
0.0874886636857609
 10
13920.31378565621
 20
-1209.820345697881
 10
13918.75594873995
 20
-1209.820345697881
 42
-0.1607218596320593
 10
13918.45838024741
 20
-1209.722157833356
 10
13916.50856092525
 20
-1208.278187516975
 42
0.9485551207313055
 10
13916.0428922956
 20
-1208.987823696647
 10
13916.93121957094
 20
-1209.639725175293
 42
-0.7247228742535524
 10
13916.87205597286
 20
-1209.820345697881
 10
13915.29082037637
 20
-1209.820345697881
 42
-0.1434661786706874
 10
13915.02101469306
 20
-1209.741302813534
 10
13912.71621538483
 20
-1208.264078818393
 42
1.00812133389901
 10
13912.40702552825
 20
-1208.784310023897
 10
13913.12552895133
 20
-1209.301070365371
 42
-0.8714005318989767
 10
13913.07923362658
 20
-1209.388646766733
 10
13910.4038812173
 20
-1208.414898123607
 42
-0.3152987888881703
 10
13910.27228524597
 20
-1208.226959599429
 10
13910.47264983348
 20
-1206.569518876626
 42
-0.1556560846627965
 10
13909.37024457566
 20
-1205.738482407076
 42
0.5217126736231045
 10
13909.12780238149
 20
-1205.696470767973
 42
0.267949278670619
 10
13906.88622413751
 20
-1210.963121520952
 42
0.3084315062208609
 10
13907.24183692124
 20
-1211.220345697846
 10
13908.24183692124
 20
-1211.220345697846
 10
13908.53309863243
 20
-1211.220345697846
 42
0.1508181261855313
 10
13909.09671717234
 20
-1211.046380891712
 42
-0.1853167531508067
 10
13909.75060310311
 20
-1210.891701740402
 10
13912.17160540772
 20
-1211.218545562602
 42
0.9325150861822257
 10
13912.28461142375
 20
-1210.580052203339
 10
13910.98302179776
 20
-1210.251518915829
 42
-1.107380507428009
 10
13911.07355114948
 20
-1210.002791566207
  0
LWPOLYLINE
  5
309
330
1F
100
AcDbEntity
  8
Ech.1_5
 62
     7
370
    20
100
AcDbPolyline
 90
       25
 70
     0
 43
0.0
 10
13981.77317575557
 20
-1270.470982035637
 10
13999.79477954046
 20
-1270.470903090565
 42
0.4082451537715075
 10
14000.77430689649
 20
-1269.471058938725
 10
14000.77423703876
 20
-1268.171098706036
 10
14005.77422306687
 20
-1268.171042818707
 42
0.4142148696360543
 10
14006.77420909481
 20
-1267.171024383701
 10
14006.7734126987
 20
-1223.971135761079
 42
-0.4142203235473378
 10
14007.77341269843
 20
-1222.971112677085
 10
14011.27337776825
 20
-1222.971112677085
 42
0.4142135623745453
 10
14012.77337776825
 20
-1221.471112677085
 10
14012.77337776825
 20
-1218.971079850118
 42
0.4142103574016441
 10
14006.77344342311
 20
-1212.971079850468
 10
13967.77035847983
 20
-1212.97065306014
 42
0.4142175213817827
 10
13966.77034496289
 20
-1213.970653060023
 10
13966.77034496288
 20
-1243.960138769311
 42
0.3639702343060057
 10
13967.59669678521
 20
-1244.944946522315
 10
13970.05155406358
 20
-1245.3778040943
 42
-0.315298788899333
 10
13970.86271363892
 20
-1246.188963669658
 10
13971.76339912329
 20
-1251.297004882319
 42
-0.4663076581732857
 10
13970.77859137028
 20
-1252.470653059965
 10
13949.76535410753
 20
-1252.470653060023
 42
0.4400105309022796
 10
13948.76915940943
 20
-1253.557808802769
 10
13950.08915466275
 20
-1268.645423587659
 42
0.3888799926106694
 10
13952.0815528201
 20
-1270.471112102168
 10
13981.77317575557
 20
-1270.470982035637
  0
LWPOLYLINE
  5
30A
330
1F
100
AcDbEntity
  8
Ech.1_5
 62
     7
370
    20
100
AcDbPolyline
 90
        4
 70
     0
 43
0.0
 10
13841.87759636662
 20
-1573.073119522909
 10
13843.86491567013
 20
-1573.073119522909
 10
13842.87125601838
 20
-1573.073119522909
 10
13842.87125601838
 20
-1568.970461093202
  0
LINE
  5
30B
330
1F
100
AcDbEntity
  8
Ech.1_5
 62
     7
370
    20
100
AcDbLine
 10
13774.97022679079
 20
-1215.22033921066
 30
0.0
 11
13774.97022679079
 21
-1231.22033921066
 31
0.0
  0
LINE
  5
30C
330
1F
100
AcDbEntity
  8
Ech.1_5
 62
     7
370
    20
100
AcDbLine
 10
13765.47022679079
 20
-1211.22033921066
 30
0.0
 11
13765.47022679079
 21
-1235.22033921066
 31
0.0
  0
LINE
  5
30D
330
1F
100
AcDbEntity
  8
Ech.1_5
 62
     7
370
    20
100
AcDbLine
 10
13763.47022679079
 20
-1217.22033921066
 30
0.0
 11
13764.67022679079
 21
-1217.22033921066
 31
0.0
  0
LINE
  5
30E
330
1F
100
AcDbEntity
  8
Ech.1_5
 62
     7
370
    20
100
AcDbLine
 10
13763.47022679079
 20
-1229.22033921066
 30
0.0
 11
13764.67022679079
 21
-1229.22033921066
 31
0.0
  0
LINE
  5
30F
330
1F
100
AcDbEntity
  8
Ech.1_5
 62
     7
370
    20
100
AcDbLine
 10
13763.47022679079
 20
-1235.22033921066
 30
0.0
 11
13760.47023544041
 21
-1211.220334885831
 31
0.0
  0
LINE
  5
310
330
1F
100
AcDbEntity
  8
Ech.1_5
 62
     7
370
    20
100
AcDbLine
 10
13763.47022679079
 20
-1211.22033921066
 30
0.0
 11
13760.47023544041
 21
-1235.22033921066
 31
0.0
  0
LINE
  5
311
330
1F
100
AcDbEntity
  8
Ech.1_5
 62
     7
370
    20
100
AcDbLine
 10
13760.47023544041
 20
-1235.22033921066
 30
0.0
 11
13760.47022679079
 21
-1211.22033921066
 31
0.0
  0
LINE
  5
312
330
1F
100
AcDbEntity
  8
Ech.1_5
 62
     7
370
    20
100
AcDbLine
 10
13760.47022679079
 20
-1211.22033921066
 30
0.0
 11
13763.47022679079
 21
-1211.22033921066
 31
0.0
  0
LINE
  5
313
330
1F
100
AcDbEntity
  8
Ech.1_5
 62
     7
370
    20
100
AcDbLine
 10
13763.47022679079
 20
-1211.22033921066
 30
0.0
 11
13763.47022679079
 21
-1235.22033921066
 31
0.0
  0
LINE
  5
314
330
1F
100
AcDbEntity
  8
Ech.1_5
 62
     7
370
    20
100
AcDbLine
 10
13763.47022679079
 20
-1235.22033921066
 30
0.0
 11
13760.47022679079
 21
-1235.22033921066
 31
0.0
  0
LINE
  5
315
330
1F
100
AcDbEntity
  8
Ech.1_5
 62
     7
370
    20
100
AcDbLine
 10
13706.10696781587
 20
-1199.523242900919
 30
0.0
 11
13740.06037199753
 21
-1201.302665413197
 31
0.0
  0
LWPOLYLINE
  5
316
330
1F
100
AcDbEntity
  8
Ech.1_5
  6
CADWORK_6
 62
     7
370
    20
100
AcDbPolyline
 90
        2
 70
   128
 43
0.0
 10
13693.34105983112
 20
-1199.085944189064
 10
13693.34105983112
 20
-1224.023348527742
  0
ARC
  5
317
330
1F
100
AcDbEntity
  8
Ech.1_5
 62
     7
370
    20
100
AcDbCircle
 10
13694.53033682249
 20
-1202.421340589978
 30
0.0
 40
6.590909090885543
100
AcDbArc
 50
96.52728338130366
 51
257.4727166186664
  0
LINE
  5
318
330
1F
100
AcDbEntity
  8
Ech.1_5
 62
     7
370
    20
100
AcDbLine
 10
13704.61114669681
 20
-1208.95788752487
 30
0.0
 11
13705.23917817173
 21
-1196.974333107777
 31
0.0
  0
LINE
  5
319
330
1F
100
AcDbEntity
  8
Ech.1_5
 62
     7
370
    20
100
AcDbLine
 10
13705.63594420969
 20
-1208.510908713753
 30
0.0
 11
13706.21163972836
 21
-1197.525983831452
 31
0.0
  0
LINE
  5
31A
330
1F
100
AcDbEntity
  8
Ech.1_5
 62
     7
370
    20
100
AcDbLine
 10
13685.34105983112
 20
-1209.970866455304
 30
0.0
 11
13685.34105983112
 21
-1197.646256984983
 31
0.0
  0
LINE
  5
31B
330
1F
100
AcDbEntity
  8
Ech.1_5
 62
     7
370
    20
100
AcDbLine
 10
13700.33778741057
 20
-1196.216775929628
 30
0.0
 11
13699.49118181209
 21
-1195.158518931552
 31
0.0
  0
LINE
  5
31C
330
1F
100
AcDbEntity
  8
Ech.1_5
 62
     7
370
    20
100
AcDbLine
 10
13704.76603138247
 20
-1196.448850362285
 30
0.0
 11
13693.78110650017
 21
-1195.873154843648
 31
0.0
  0
ARC
  5
31D
330
1F
100
AcDbEntity
  8
Ech.1_5
 62
     7
370
    20
100
AcDbCircle
 10
13704.73986340437
 20
-1196.94816512965
 30
0.0
 40
0.4999999999868175
100
AcDbArc
 50
356.9999999992849
 51
87.0000000015855
  0
LINE
  5
31E
330
1F
100
AcDbEntity
  8
Ech.1_5
 62
     7
370
    20
100
AcDbLine
 10
13706.21163972836
 20
-1197.525983831452
 30
0.0
 11
13705.21301019361
 21
-1197.473647875202
 31
0.0
  0
LINE
  5
31F
330
1F
100
AcDbEntity
  8
Ech.1_5
 62
     7
370
    20
100
AcDbLine
 10
13698.34105983112
 20
-1196.112131871356
 30
0.0
 11
13698.34105983112
 21
-1194.970866455304
 31
0.0
  0
LINE
  5
320
330
1F
100
AcDbEntity
  8
Ech.1_5
 62
     7
370
    20
100
AcDbLine
 10
13687.58137225486
 20
-1194.970866455304
 30
0.0
 11
13699.10074740738
 21
-1194.970866455304
 31
0.0
  0
ARC
  5
321
330
1F
100
AcDbEntity
  8
Ech.1_5
 62
     7
370
    20
100
AcDbCircle
 10
13699.1007474073
 20
-1195.470866455424
 30
0.0
 40
0.5000000001200067
100
AcDbArc
 50
38.65980825701986
 51
89.99999999082861
  0
ARC
  5
322
330
1F
100
AcDbEntity
  8
Ech.1_5
 62
     7
370
    20
100
AcDbCircle
 10
13685.84105983115
 20
-1197.646256985011
 30
0.0
 40
0.5000000000247667
100
AcDbArc
 50
141.3401917477736
 51
179.9999999967171
  0
ARC
  5
323
330
1F
100
AcDbEntity
  8
Ech.1_5
 62
     7
370
    20
100
AcDbCircle
 10
13685.84105983115
 20
-1197.646256985011
 30
0.0
 40
0.5000000000247667
100
AcDbArc
 50
141.3401917477736
 51
179.9999999967171
  0
ARC
  5
324
330
1F
100
AcDbEntity
  8
Ech.1_5
 62
     7
370
    20
100
AcDbCircle
 10
13687.58137225494
 20
-1195.470866455424
 30
0.0
 40
0.5000000001200067
100
AcDbArc
 50
90.0000000091714
 51
141.3401917429802
  0
LINE
  5
325
330
1F
100
AcDbEntity
  8
Ech.1_5
 62
     7
370
    20
100
AcDbLine
 10
13688.34105983112
 20
-1200.097879156077
 30
0.0
 11
13688.34105983112
 21
-1194.970866455304
 31
0.0
  0
LINE
  5
326
330
1F
100
AcDbEntity
  8
Ech.1_5
 62
     7
370
    20
100
AcDbLine
 10
13685.4506254264
 20
-1197.333909461231
 30
0.0
 11
13687.19093785014
 21
-1195.158518931552
 31
0.0
  0
LWPOLYLINE
  5
327
330
1F
100
AcDbEntity
  8
Ech.1_5
  6
CADWORK_6
 62
     7
370
    20
100
AcDbPolyline
 90
        2
 70
   128
 43
0.0
 10
13688.87070848218
 20
-1202.124732037089
 10
13742.87308475494
 20
-1204.954876653574
  0
LINE
  5
328
330
1F
100
AcDbEntity
  8
Ech.1_5
 62
     7
370
    20
100
AcDbLine
 10
13705.74061612218
 20
-1206.513649644228
 30
0.0
 11
13739.69402030383
 21
-1208.293072156448
 31
0.0
  0
ARC
  5
329
330
1F
100
AcDbEntity
  8
Ech.1_5
 62
     7
370
    20
100
AcDbCircle
 10
13734.23715569655
 20
-1204.502286789585
 30
0.0
 40
6.644352868435662
100
AcDbArc
 50
325.2129888460133
 51
28.78701115399774
  0
LINE
  5
32A
330
1F
100
AcDbEntity
  8
Ech.1_5
 62
     7
370
    20
100
AcDbLine
 10
13739.69402030383
 20
-1208.293072156448
 30
0.0
 11
13740.06037199753
 21
-1201.302665413197
 31
0.0
  0
LINE
  5
32B
330
1F
100
AcDbEntity
  8
Ech.1_5
 62
     7
370
    20
100
AcDbLine
 10
13704.08566395131
 20
-1209.431034314111
 30
0.0
 11
13693.10073906901
 21
-1208.855338795416
 31
0.0
  0
LINE
  5
32C
330
1F
100
AcDbEntity
  8
Ech.1_5
 62
     7
370
    20
100
AcDbLine
 10
13702.84105983112
 20
-1212.970866455304
 30
0.0
 11
13683.84105983112
 21
-1212.970866455304
 31
0.0
  0
LINE
  5
32D
330
1F
100
AcDbEntity
  8
Ech.1_5
 62
     7
370
    20
100
AcDbLine
 10
13702.34105983112
 20
-1209.970866455304
 30
0.0
 11
13684.34105983112
 21
-1209.970866455304
 31
0.0
  0
LINE
  5
32E
330
1F
100
AcDbEntity
  8
Ech.1_5
 62
     7
370
    20
100
AcDbLine
 10
13701.34105983112
 20
-1209.970866455304
 30
0.0
 11
13701.34105983112
 21
-1209.287195707162
 31
0.0
  0
ARC
  5
32F
330
1F
100
AcDbEntity
  8
Ech.1_5
 62
     7
370
    20
100
AcDbCircle
 10
13704.11183192943
 20
-1208.931719546732
 30
0.0
 40
0.5000000000018214
100
AcDbArc
 50
267.0000000000062
 51
356.9999999981492
  0
LINE
  5
330
330
1F
100
AcDbEntity
  8
Ech.1_5
 62
     7
370
    20
100
AcDbLine
 10
13705.63594420969
 20
-1208.510908713753
 30
0.0
 11
13704.63731467494
 21
-1208.458572757503
 31
0.0
  0
ARC
  5
331
330
1F
100
AcDbEntity
  8
Ech.1_5
 62
     7
370
    20
100
AcDbCircle
 10
13702.34105983112
 20
-1210.470866455307
 30
0.0
 40
0.5000000000029015
100
AcDbArc
 50
0.0000000003387164
 51
89.99999999958311
  0
LINE
  5
332
330
1F
100
AcDbEntity
  8
Ech.1_5
 62
     7
370
    20
100
AcDbLine
 10
13701.34105983112
 20
-1212.970866455304
 30
0.0
 11
13701.34105983112
 21
-1209.970866455304
 31
0.0
  0
LINE
  5
333
330
1F
100
AcDbEntity
  8
Ech.1_5
 62
     7
370
    20
100
AcDbLine
 10
13702.84105983112
 20
-1210.470866455304
 30
0.0
 11
13702.84105983112
 21
-1212.970866455304
 31
0.0
  0
LINE
  5
334
330
1F
100
AcDbEntity
  8
Ech.1_5
 62
     7
370
    20
100
AcDbLine
 10
13690.34105983112
 20
-1217.970866455304
 30
0.0
 11
13690.34105983112
 21
-1212.970866455304
 31
0.0
  0
LINE
  5
335
330
1F
100
AcDbEntity
  8
Ech.1_5
 62
     7
370
    20
100
AcDbLine
 10
13696.34105983112
 20
-1217.970866455304
 30
0.0
 11
13696.34105983112
 21
-1212.970866455304
 31
0.0
  0
ARC
  5
336
330
1F
100
AcDbEntity
  8
Ech.1_5
 62
     7
370
    20
100
AcDbCircle
 10
13693.34105983112
 20
-1213.948336493187
 30
0.0
 40
5.018042177595047
100
AcDbArc
 50
233.2844501962994
 51
306.7155498037006
  0
LINE
  5
337
330
1F
100
AcDbEntity
  8
Ech.1_5
 62
     7
370
    20
100
AcDbLine
 10
13696.34105983112
 20
-1217.970866455304
 30
0.0
 11
13690.34105983112
 21
-1217.970866455304
 31
0.0
  0
LINE
  5
338
330
1F
100
AcDbEntity
  8
Ech.1_5
 62
     7
370
    20
100
AcDbLine
 10
13698.34105983112
 20
-1209.970866455304
 30
0.0
 11
13698.34105983112
 21
-1209.129972369308
 31
0.0
  0
LINE
  5
339
330
1F
100
AcDbEntity
  8
Ech.1_5
 62
     7
370
    20
100
AcDbLine
 10
13696.34105983112
 20
-1211.970866455304
 30
0.0
 11
13690.34105983112
 21
-1211.970866455304
 31
0.0
  0
LINE
  5
33A
330
1F
100
AcDbEntity
  8
Ech.1_5
 62
     7
370
    20
100
AcDbLine
 10
13696.34105983112
 20
-1212.970866455304
 30
0.0
 11
13696.34105983112
 21
-1211.970866455304
 31
0.0
  0
LINE
  5
33B
330
1F
100
AcDbEntity
  8
Ech.1_5
 62
     7
370
    20
100
AcDbLine
 10
13690.34105983112
 20
-1212.970866455304
 30
0.0
 11
13690.34105983112
 21
-1211.970866455304
 31
0.0
  0
LINE
  5
33C
330
1F
100
AcDbEntity
  8
Ech.1_5
 62
     7
370
    20
100
AcDbLine
 10
13697.34105983112
 20
-1210.270866455292
 30
0.0
 11
13689.34105983112
 21
-1210.270866455292
 31
0.0
  0
LINE
  5
33D
330
1F
100
AcDbEntity
  8
Ech.1_5
 62
     7
370
    20
100
AcDbLine
 10
13697.34105983112
 20
-1210.270866455292
 30
0.0
 11
13697.34105983112
 21
-1209.970866455304
 31
0.0
  0
ARC
  5
33E
330
1F
100
AcDbEntity
  8
Ech.1_5
 62
     7
370
    20
100
AcDbCircle
 10
13684.34105983111
 20
-1210.470866455294
 30
0.0
 40
0.4999999999904806
100
AcDbArc
 50
89.99999999895779
 51
179.9999999989057
  0
LINE
  5
33F
330
1F
100
AcDbEntity
  8
Ech.1_5
 62
     7
370
    20
100
AcDbLine
 10
13689.34105983112
 20
-1210.270866455292
 30
0.0
 11
13689.34105983112
 21
-1209.970866455304
 31
0.0
  0
LINE
  5
340
330
1F
100
AcDbEntity
  8
Ech.1_5
 62
     7
370
    20
100
AcDbLine
 10
13688.34105983112
 20
-1209.970866455304
 30
0.0
 11
13688.34105983112
 21
-1204.62014729176
 31
0.0
  0
LINE
  5
341
330
1F
100
AcDbEntity
  8
Ech.1_5
 62
     7
370
    20
100
AcDbLine
 10
13685.34105983112
 20
-1212.970866455304
 30
0.0
 11
13685.34105983112
 21
-1209.970866455304
 31
0.0
  0
LINE
  5
342
330
1F
100
AcDbEntity
  8
Ech.1_5
 62
     7
370
    20
100
AcDbLine
 10
13683.84105983112
 20
-1210.470866455304
 30
0.0
 11
13683.84105983112
 21
-1212.970866455304
 31
0.0
  0
ARC
  5
343
330
1F
100
AcDbEntity
  8
Ech.1_5
 62
     7
370
    20
100
AcDbCircle
 10
13763.47023976513
 20
-1235.220341373098
 30
0.0
 40
2.9999999999189
100
AcDbArc
 50
180.0000412975265
 51
270.0000000015633
  0
LINE
  5
344
330
1F
100
AcDbEntity
  8
Ech.1_5
 62
     7
370
    20
100
AcDbLine
 10
13763.47023976521
 20
-1238.220341373017
 30
0.0
 11
13773.53863967192
 21
-1238.220341373017
 31
0.0
  0
ARC
  5
345
330
1F
100
AcDbEntity
  8
Ech.1_5
 62
     7
370
    20
100
AcDbCircle
 10
13773.53863967192
 20
-1240.220341373014
 30
0.0
 40
1.999999999997321
100
AcDbArc
 50
359.9859167933767
 51
90.00000000020843
  0
ARC
  5
346
330
1F
100
AcDbEntity
  8
Ech.1_5
 62
     7
370
    20
100
AcDbCircle
 10
13775.50023976526
 20
-1241.720341372987
 30
0.0
 40
1.49999999994844
100
AcDbArc
 50
10.91126455407793
 51
88.53307366130333
  0
LINE
  5
347
330
1F
100
AcDbEntity
  8
Ech.1_5
 62
     7
370
    20
100
AcDbLine
 10
13776.97312204053
 20
-1241.436408629132
 30
0.0
 11
13776.97312204053
 21
-1243.38047660458
 31
0.0
  0
ARC
  5
348
330
1F
100
AcDbEntity
  8
Ech.1_5
 62
     7
370
    20
100
AcDbCircle
 10
13775.97312204054
 20
-1243.380476604528
 30
0.0
 40
0.9999999999889513
100
AcDbArc
 50
324.3565392518626
 51
0.0000000029833094
  0
ARC
  5
349
330
1F
100
AcDbEntity
  8
Ech.1_5
 62
     7
370
    20
100
AcDbCircle
 10
13767.03387339691
 20
-1236.970341373172
 30
0.0
 40
11.99999999984507
100
AcDbArc
 50
269.9999999997047
 51
324.356539252943
  0
LINE
  5
34A
330
1F
100
AcDbEntity
  8
Ech.1_5
 62
     7
370
    20
100
AcDbLine
 10
13767.03387339685
 20
-1248.970341373017
 30
0.0
 11
13766.53387339685
 21
-1248.970341373017
 31
0.0
  0
LINE
  5
34B
330
1F
100
AcDbEntity
  8
Ech.1_5
 62
     7
370
    20
100
AcDbLine
 10
13766.53387339685
 20
-1248.970341373017
 30
0.0
 11
13766.53387339685
 21
-1250.970341373017
 31
0.0
  0
LINE
  5
34C
330
1F
100
AcDbEntity
  8
Ech.1_5
 62
     7
370
    20
100
AcDbLine
 10
13766.53387339685
 20
-1250.970341373017
 30
0.0
 11
13765.53387339685
 21
-1251.970341373017
 31
0.0
  0
LINE
  5
34D
330
1F
100
AcDbEntity
  8
Ech.1_5
 62
     7
370
    20
100
AcDbLine
 10
13765.53387339685
 20
-1251.970341373017
 30
0.0
 11
13732.18738525692
 21
-1251.970071926728
 31
0.0
  0
LINE
  5
34E
330
1F
100
AcDbEntity
  8
Ech.1_5
 62
     7
370
    20
100
AcDbLine
 10
13732.18738525692
 20
-1251.970071926728
 30
0.0
 11
13730.02232727678
 21
-1248.220081503809
 31
0.0
  0
LINE
  5
34F
330
1F
100
AcDbEntity
  8
Ech.1_5
 62
     7
370
    20
100
AcDbLine
 10
13730.02232727678
 20
-1248.220081503809
 30
0.0
 11
13735.4384636665
 21
-1248.22008150375
 31
0.0
  0
LINE
  5
350
330
1F
100
AcDbEntity
  8
Ech.1_5
 62
     7
370
    20
100
AcDbLine
 10
13735.4384636665
 20
-1248.22008150375
 30
0.0
 11
13735.4384636665
 21
-1245.320081477417
 31
0.0
  0
LINE
  5
351
330
1F
100
AcDbEntity
  8
Ech.1_5
 62
     7
370
    20
100
AcDbLine
 10
13735.4384636665
 20
-1245.320081477417
 30
0.0
 11
13725.97243832307
 21
-1245.320081477417
 31
0.0
  0
ARC
  5
352
330
1F
100
AcDbEntity
  8
Ech.1_5
 62
     7
370
    20
100
AcDbCircle
 10
13725.97243832311
 20
-1244.320081477374
 30
0.0
 40
1.000000000043065
100
AcDbArc
 50
180.0000008295554
 51
269.9999999974987
  0
LINE
  5
353
330
1F
100
AcDbEntity
  8
Ech.1_5
 62
     7
370
    20
100
AcDbLine
 10
13724.97243832307
 20
-1244.320081491853
 30
0.0
 11
13724.97243828932
 21
-1241.980957331616
 31
0.0
  0
LINE
  5
354
330
1F
100
AcDbEntity
  8
Ech.1_5
 62
     7
370
    20
100
AcDbLine
 10
13724.97243828932
 20
-1241.980957331616
 30
0.0
 11
13730.97243860947
 21
-1237.780938943572
 31
0.0
  0
LINE
  5
355
330
1F
100
AcDbEntity
  8
Ech.1_5
 62
     7
370
    20
100
AcDbLine
 10
13730.97243860947
 20
-1237.780938943572
 30
0.0
 11
13730.97243860947
 21
-1233.580957275131
 31
0.0
  0
LINE
  5
356
330
1F
100
AcDbEntity
  8
Ech.1_5
 62
     7
370
    20
100
AcDbLine
 10
13730.97243860947
 20
-1233.580957275131
 30
0.0
 11
13722.97243795125
 21
-1232.170341313424
 31
0.0
  0
LINE
  5
357
330
1F
100
AcDbEntity
  8
Ech.1_5
 62
     7
370
    20
100
AcDbLine
 10
13722.97243795125
 20
-1232.170341313424
 30
0.0
 11
13722.97243719996
 21
-1230.170343535443
 31
0.0
  0
LINE
  5
358
330
1F
100
AcDbEntity
  8
Ech.1_5
 62
     7
370
    20
100
AcDbLine
 10
13722.97243719996
 20
-1230.170343535443
 30
0.0
 11
13725.17243828933
 21
-1230.170343535443
 31
0.0
  0
LINE
  5
359
330
1F
100
AcDbEntity
  8
Ech.1_5
 62
     7
370
    20
100
AcDbLine
 10
13725.17243828933
 20
-1230.170343535443
 30
0.0
 11
13725.17243828933
 21
-1228.170343535443
 31
0.0
  0
LINE
  5
35A
330
1F
100
AcDbEntity
  8
Ech.1_5
 62
     7
370
    20
100
AcDbLine
 10
13725.17243828933
 20
-1228.170343535443
 30
0.0
 11
13734.47243828932
 21
-1228.170343535443
 31
0.0
  0
LINE
  5
35B
330
1F
100
AcDbEntity
  8
Ech.1_5
 62
     7
370
    20
100
AcDbLine
 10
13734.47243828932
 20
-1228.170343535443
 30
0.0
 11
13734.47243828932
 21
-1215.970343535431
 31
0.0
  0
LINE
  5
35C
330
1F
100
AcDbEntity
  8
Ech.1_5
 62
     7
370
    20
100
AcDbLine
 10
13734.47243828932
 20
-1215.970343535431
 30
0.0
 11
13725.17243828933
 21
-1215.970343535431
 31
0.0
  0
LINE
  5
35D
330
1F
100
AcDbEntity
  8
Ech.1_5
 62
     7
370
    20
100
AcDbLine
 10
13725.17243828933
 20
-1215.970343535431
 30
0.0
 11
13725.17243828933
 21
-1213.970343535431
 31
0.0
  0
LINE
  5
35E
330
1F
100
AcDbEntity
  8
Ech.1_5
 62
     7
370
    20
100
AcDbLine
 10
13725.17243828933
 20
-1213.970343535431
 30
0.0
 11
13722.9724313174
 21
-1213.970343535431
 31
0.0
  0
LINE
  5
35F
330
1F
100
AcDbEntity
  8
Ech.1_5
 62
     7
370
    20
100
AcDbLine
 10
13722.9724313174
 20
-1213.970343535431
 30
0.0
 11
13722.97243099059
 21
-1212.970341373017
 31
0.0
  0
LINE
  5
360
330
1F
100
AcDbEntity
  8
Ech.1_5
 62
     7
370
    20
100
AcDbLine
 10
13722.97243099059
 20
-1212.970341373017
 30
0.0
 11
13728.47243099059
 21
-1212.970341373017
 31
0.0
  0
LINE
  5
361
330
1F
100
AcDbEntity
  8
Ech.1_5
 62
     7
370
    20
100
AcDbLine
 10
13728.47243099059
 20
-1212.970341373017
 30
0.0
 11
13728.47243099059
 21
-1209.970341373017
 31
0.0
  0
LINE
  5
362
330
1F
100
AcDbEntity
  8
Ech.1_5
 62
     7
370
    20
100
AcDbLine
 10
13728.47243099059
 20
-1209.970341373017
 30
0.0
 11
13706.97243099059
 21
-1209.970341373017
 31
0.0
  0
ARC
  5
363
330
1F
100
AcDbEntity
  8
Ech.1_5
 62
     7
370
    20
100
AcDbCircle
 10
13706.97243099057
 20
-1207.97034137303
 30
0.0
 40
1.999999999986764
100
AcDbArc
 50
179.9999999996222
 51
270.0000000003648
  0
LINE
  5
364
330
1F
100
AcDbEntity
  8
Ech.1_5
 62
     7
370
    20
100
AcDbLine
 10
13704.97243099059
 20
-1207.970341373017
 30
0.0
 11
13704.97243099059
 21
-1199.470341465392
 31
0.0
  0
ARC
  5
365
330
1F
100
AcDbEntity
  8
Ech.1_5
 62
     7
370
    20
100
AcDbCircle
 10
13709.97243099065
 20
-1199.470341465458
 30
0.0
 40
5.000000000066294
100
AcDbArc
 50
89.9999954122173
 51
179.9999999992418
  0
LINE
  5
366
330
1F
100
AcDbEntity
  8
Ech.1_5
 62
     7
370
    20
100
AcDbLine
 10
13709.97243139101
 20
-1194.470341465392
 30
0.0
 11
13765.53387889986
 21
-1194.470346876085
 31
0.0
  0
LINE
  5
367
330
1F
100
AcDbEntity
  8
Ech.1_5
 62
     7
370
    20
100
AcDbLine
 10
13765.53387889986
 20
-1194.470346876085
 30
0.0
 11
13766.53387339685
 21
-1195.470341373075
 31
0.0
  0
LINE
  5
368
330
1F
100
AcDbEntity
  8
Ech.1_5
 62
     7
370
    20
100
AcDbLine
 10
13766.53387339685
 20
-1195.470341373075
 30
0.0
 11
13766.53387339685
 21
-1197.470341373075
 31
0.0
  0
LINE
  5
369
330
1F
100
AcDbEntity
  8
Ech.1_5
 62
     7
370
    20
100
AcDbLine
 10
13766.53387339685
 20
-1197.470341373075
 30
0.0
 11
13767.03387339685
 21
-1197.470341373075
 31
0.0
  0
ARC
  5
36A
330
1F
100
AcDbEntity
  8
Ech.1_5
 62
     7
370
    20
100
AcDbCircle
 10
13767.03387339691
 20
-1209.47034137292
 30
0.0
 40
11.99999999984507
100
AcDbArc
 50
35.64346074705699
 51
90.0000000002953
  0
ARC
  5
36B
330
1F
100
AcDbEntity
  8
Ech.1_5
 62
     7
370
    20
100
AcDbCircle
 10
13775.97312204054
 20
-1203.060206141564
 30
0.0
 40
0.9999999999889515
100
AcDbArc
 50
0.0000000003517439
 51
35.64346074813744
  0
LINE
  5
36C
330
1F
100
AcDbEntity
  8
Ech.1_5
 62
     7
370
    20
100
AcDbLine
 10
13776.97312204053
 20
-1203.06020614157
 30
0.0
 11
13776.97312204053
 21
-1205.004274117018
 31
0.0
  0
ARC
  5
36D
330
1F
100
AcDbEntity
  8
Ech.1_5
 62
     7
370
    20
100
AcDbCircle
 10
13775.50023976525
 20
-1204.720341373079
 30
0.0
 40
1.499999999973392
100
AcDbArc
 50
271.4669263390197
 51
349.0887354428751
  0
ARC
  5
36E
330
1F
100
AcDbEntity
  8
Ech.1_5
 62
     7
370
    20
100
AcDbCircle
 10
13773.53863967192
 20
-1206.220341373078
 30
0.0
 40
1.999999999997321
100
AcDbArc
 50
269.9999999997916
 51
0.0140832066232733
  0
LINE
  5
36F
330
1F
100
AcDbEntity
  8
Ech.1_5
 62
     7
370
    20
100
AcDbLine
 10
13773.53863967192
 20
-1208.220341373075
 30
0.0
 11
13763.47022246598
 21
-1208.220341373075
 31
0.0
  0
ARC
  5
370
330
1F
100
AcDbEntity
  8
Ech.1_5
 62
     7
370
    20
100
AcDbCircle
 10
13763.470222466
 20
-1211.220341373093
 30
0.0
 40
3.000000000018268
100
AcDbArc
 50
90.0000000003474
 51
180.0000412987293
  0
LINE
  5
371
330
1F
100
AcDbEntity
  8
Ech.1_5
 62
     7
370
    20
100
AcDbLine
 10
13760.47022246598
 20
-1211.22034353549
 30
0.0
 11
13760.47023976521
 21
-1235.220343535431
 31
0.0
  0
LWPOLYLINE
  5
372
330
1F
100
AcDbEntity
  8
Ech.1_5
 62
     7
370
    20
100
AcDbPolyline
 90
        5
 70
   128
 43
0.0
 10
13708.15255821399
 20
-1210.570341373052
 42
-0.7315741705666637
 10
13708.08899691839
 20
-1212.024638819639
 42
0.1352144976974668
 10
13706.7821479147
 20
-1211.791149726792
 42
-0.9259145704960741
 10
13706.78214791464
 20
-1210.570341373052
 10
13708.15255821399
 20
-1210.570341373052
  0
LWPOLYLINE
  5
373
330
1F
100
AcDbEntity
  8
Ech.1_5
 62
     7
370
    20
100
AcDbPolyline
 90
       65
 70
     0
 43
0.0
 10
13708.0820288031
 20
-1212.021323779729
 10
13708.11982065609
 20
-1212.031099276166
 10
13708.15733249192
 20
-1212.040526072509
 10
13708.19428623238
 20
-1212.049257883351
 10
13708.23040379925
 20
-1212.056948423167
 10
13708.26540711432
 20
-1212.063251406435
 10
13708.29901809936
 20
-1212.067820547745
 10
13708.33095867617
 20
-1212.070309561517
 10
13708.36095076653
 20
-1212.070372162285
 10
13708.38871629223
 20
-1212.067662064524
 10
13708.41397717505
 20
-1212.061832982828
 10
13708.43645533677
 20
-1212.052538631557
 10
13708.45587269919
 20
-1212.039432725302
 10
13708.47195118407
 20
-1212.022168978598
 10
13708.48452511892
 20
-1212.000536768363
 10
13708.49394617638
 20
-1211.974949855605
 10
13708.50071477097
 20
-1211.94600151795
 10
13708.5053313304
 20
-1211.914285048915
 10
13708.5082962824
 20
-1211.880393742016
 10
13708.51011005469
 20
-1211.844920890886
 10
13708.51127307497
 20
-1211.808459788983
 10
13708.51228577099
 20
-1211.771603729881
 10
13708.51364857046
 20
-1211.734946007098
 10
13708.51586190109
 20
-1211.699079914208
 10
13708.51942619061
 20
-1211.664598744726
 10
13708.52484186675
 20
-1211.632095792229
 10
13708.53260935721
 20
-1211.602164350232
 10
13708.54322908973
 20
-1211.575397712309
 10
13708.55720149202
 20
-1211.55238917192
 10
13708.5750269918
 20
-1211.533732022697
 10
13708.59720601679
 20
-1211.520019558098
 10
13708.62419696241
 20
-1211.511845199348
 10
13708.65461963344
 20
-1211.509807950424
 10
13708.68457986672
 20
-1211.514514441325
 10
13708.71079522817
 20
-1211.526277780024
 10
13708.73287835312
 20
-1211.544337480344
 10
13708.75110236015
 20
-1211.567688125549
 10
13708.76574036787
 20
-1211.595324298789
 10
13708.77706549486
 20
-1211.626240583384
 10
13708.78535085972
 20
-1211.659431562541
 10
13708.79086958103
 20
-1211.693891819406
 10
13708.79389553615
 20
-1211.72862134788
 10
13708.79475130068
 20
-1211.762967412142
 10
13708.79383681624
 20
-1211.796828977895
 10
13708.79155890473
 20
-1211.830154074429
 10
13708.78832438805
 20
-1211.862890731092
 10
13708.7845400881
 20
-1211.894986977291
 10
13708.78061282677
 20
-1211.926390842316
 10
13708.77694942595
 20
-1211.957050355515
 10
13708.77395670757
 20
-1211.986913546294
 10
13708.7720414935
 20
-1212.015928444001
 10
13708.77161060565
 20
-1212.044043077927
 10
13708.7730708659
 20
-1212.071205477419
 10
13708.77682909617
 20
-1212.097363671885
 10
13708.78329211835
 20
-1212.122465690612
 10
13708.79286675433
 20
-1212.14645956301
 10
13708.80584027749
 20
-1212.169320080327
 10
13708.82198161615
 20
-1212.191138069917
 10
13708.84091924596
 20
-1212.212035800694
 10
13708.86228164003
 20
-1212.232135541926
 10
13708.88569727149
 20
-1212.251559563229
 10
13708.91079461346
 20
-1212.270430133867
 10
13708.93720213907
 20
-1212.288869523341
 10
13708.96454832144
 20
-1212.307000001034
 10
13708.99246163368
 20
-1212.324943836444
  0
LWPOLYLINE
  5
374
330
1F
100
AcDbEntity
  8
Ech.1_5
 62
     7
370
    20
100
AcDbPolyline
 90
       40
 70
   128
 43
0.0
 10
13708.0820288031
 20
-1212.021323779729
 42
0.2009984763271123
 10
13706.15258563336
 20
-1211.932894700338
 42
-0.5514566180469235
 10
13706.01865284375
 20
-1211.829589254761
 42
0.1294239027669979
 10
13705.83439569846
 20
-1210.71118128988
 42
-0.5435451739575605
 10
13705.92567604241
 20
-1210.570341373052
 10
13708.15255821399
 20
-1210.570341373052
 10
13708.15255821399
 20
-1210.570341373052
 10
13708.65255821399
 20
-1211.070341373052
 10
13709.15255821399
 20
-1210.570341373052
 10
13722.27243099059
 20
-1210.570341373052
 42
-0.4142135625077244
 10
13722.37243099059
 20
-1210.670341373028
 10
13722.37243099059
 20
-1213.87034137304
 42
0.4142135625591724
 10
13722.47243099059
 20
-1213.970341373017
 10
13722.87243099059
 20
-1213.970341373017
 42
0.4142135625077244
 10
13722.97243099059
 20
-1213.87034137304
 10
13722.97243099059
 20
-1211.070341373052
 42
-0.4142135621475828
 10
13723.07243099059
 20
-1210.970341373017
 10
13725.52178716643
 20
-1210.970341373017
 42
-0.7486371216561042
 10
13725.57584122049
 20
-1211.154473169896
 10
13723.61936197986
 20
-1212.411496537927
 42
0.414213562436486
 10
13723.58928423706
 20
-1212.549682388795
 10
13723.80550045328
 20
-1212.886209576172
 42
0.4142135624824988
 10
13723.94368630418
 20
-1212.916287318993
 10
13726.92648504465
 20
-1210.999861301752
 42
0.2552665218023448
 10
13726.97243099059
 20
-1210.915729504908
 10
13726.97243099059
 20
-1210.070341373052
 42
0.4142135621688922
 10
13726.87243099059
 20
-1209.970341373017
 10
13705.2724309906
 20
-1209.970341373017
 42
0.4142135620961331
 10
13705.17243099059
 20
-1210.070341373052
 10
13705.17243099059
 20
-1210.536959832083
 42
0.1601228240826081
 10
13705.19192975746
 20
-1210.596285639811
 42
-0.2430064252093184
 10
13705.44172479294
 20
-1212.160780041027
 42
-0.0690948882208114
 10
13705.42960175523
 20
-1212.18547107077
 42
0.7595553993410077
 10
13705.83575515838
 20
-1212.663008916556
 42
-0.2752542670741817
 10
13707.87349769656
 20
-1212.475815154801
 42
0.2097000040918891
 10
13712.07708665141
 20
-1212.544004949697
 42
0.9750995008004383
 10
13711.88367265013
 20
-1212.082929007898
 42
-0.1552990599517083
 10
13709.02447250931
 20
-1212.338223609448
 42
-0.0656563841886501
 10
13708.99990994471
 20
-1212.329251767384
 42
-0.021520946908511
 10
13708.99246163368
 20
-1212.324943836444
  0
LINE
  5
375
330
1F
100
AcDbEntity
  8
Ech.1_5
 62
     7
370
    20
100
AcDbLine
 10
13725.97243832307
 20
-1245.320081477417
 30
0.0
 11
13726.87243832298
 21
-1245.320094087758
 31
0.0
  0
LINE
  5
376
330
1F
100
AcDbEntity
  8
Ech.1_5
 62
     7
370
    20
100
AcDbLine
 10
13726.87242151813
 20
-1246.520094095278
 30
0.0
 11
13728.97385103127
 21
-1246.520123523791
 31
0.0
  0
LINE
  5
377
330
1F
100
AcDbEntity
  8
Ech.1_5
 62
     7
370
    20
100
AcDbLine
 10
13729.83001561531
 20
-1245.320135527829
 30
0.0
 11
13730.33001561527
 21
-1245.320142529861
 31
0.0
  0
LINE
  5
378
330
1F
100
AcDbEntity
  8
Ech.1_5
 62
     7
370
    20
100
AcDbLine
 10
13726.87242151813
 20
-1246.520094095278
 30
0.0
 11
13726.87243833193
 21
-1245.320094087758
 31
0.0
  0
LINE
  5
379
330
1F
100
AcDbEntity
  8
Ech.1_5
 62
     7
370
    20
100
AcDbLine
 10
13726.87243832298
 20
-1245.320094087758
 30
0.0
 11
13729.83001561531
 21
-1245.320135527829
 31
0.0
  0
LINE
  5
37A
330
1F
100
AcDbEntity
  8
Ech.1_5
 62
     7
370
    20
100
AcDbLine
 10
13732.99520652507
 20
-1246.520179839004
 30
0.0
 11
13733.02360614909
 21
-1246.520180236737
 31
0.0
  0
LINE
  5
37B
330
1F
100
AcDbEntity
  8
Ech.1_5
 62
     7
370
    20
100
AcDbLine
 10
13733.76598932479
 20
-1246.520190633091
 30
0.0
 11
13734.66957881
 21
-1246.520203286971
 31
0.0
  0
LINE
  5
37C
330
1F
100
AcDbEntity
  8
Ech.1_5
 62
     7
370
    20
100
AcDbLine
 10
13731.89389932497
 20
-1246.520164416244
 30
0.0
 11
13732.99520652507
 21
-1246.520179839004
 31
0.0
  0
ARC
  5
37D
330
1F
100
AcDbEntity
  8
Ech.1_5
 62
     7
370
    20
100
AcDbCircle
 10
13733.66957836155
 20
-1246.552239550818
 30
0.0
 40
0.9999999997083308
100
AcDbArc
 50
329.9991511213205
 51
359.9991976329824
  0
ARC
  5
37E
330
1F
100
AcDbEntity
  8
Ech.1_5
 62
     7
370
    20
100
AcDbCircle
 10
13733.86958441162
 20
-1246.120191987656
 30
0.0
 40
0.8000000000652803
100
AcDbArc
 50
359.9991976305336
 51
89.99234456502518
  0
LINE
  5
37F
330
1F
100
AcDbEntity
  8
Ech.1_5
 62
     7
370
    20
100
AcDbLine
 10
13734.66957836116
 20
-1246.552253554764
 30
0.0
 11
13734.66958441161
 21
-1246.120203190847
 31
0.0
  0
LINE
  5
380
330
1F
100
AcDbEntity
  8
Ech.1_5
 62
     7
370
    20
100
AcDbLine
 10
13733.86969130166
 20
-1245.320191994731
 30
0.0
 11
13733.67088110536
 21
-1245.320189210601
 31
0.0
  0
LINE
  5
381
330
1F
100
AcDbEntity
  8
Ech.1_5
 62
     7
370
    20
100
AcDbLine
 10
13733.67088110536
 20
-1245.320189210601
 30
0.0
 11
13733.53113338424
 21
-1245.320187257617
 31
0.0
  0
LINE
  5
382
330
1F
100
AcDbEntity
  8
Ech.1_5
 62
     7
370
    20
100
AcDbLine
 10
13733.02360614909
 20
-1246.520180236737
 30
0.0
 11
13733.76598932479
 21
-1246.520190633091
 31
0.0
  0
LINE
  5
383
330
1F
100
AcDbEntity
  8
Ech.1_5
 62
     7
370
    20
100
AcDbLine
 10
13728.97385103127
 20
-1246.520123523791
 30
0.0
 11
13731.89389932497
 21
-1246.520164416244
 31
0.0
  0
LINE
  5
384
330
1F
100
AcDbEntity
  8
Ech.1_5
 62
     7
370
    20
100
AcDbLine
 10
13733.53113338424
 20
-1245.320187257617
 30
0.0
 11
13730.33001561527
 21
-1245.320142529861
 31
0.0
  0
HATCH
  5
385
330
1F
100
AcDbEntity
  8
Ech.1_5
 62
     7
440
 33554687
370
    20
100
AcDbHatch
 10
0.0
 20
0.0
 30
0.0
210
0.0
220
0.0
230
1.0
  2
CwHatchPattern_222
 70
     0
 71
     1
 91
        1
 92
        3
 72
     0
 73
     1
 93
       19
 10
13734.66958441161
 20
-1246.120203190847
 10
13734.6614443973
 20
-1246.006359816485
 10
13734.63718684787
 20
-1245.894833384562
 10
13734.597305502
 20
-1245.787893906483
 10
13734.54261210546
 20
-1245.68771803072
 10
13734.47421988881
 20
-1245.596344739097
 10
13734.3935209087
 20
-1245.5156338456
 10
13734.30215771389
 20
-1245.447228141493
 10
13734.20198991283
 20
-1245.392519957924
 10
13734.09505632306
 20
-1245.352622826424
 10
13733.98353347318
 20
-1245.328348814117
 10
13733.86969130166
 20
-1245.320191994731
 10
13733.67088110536
 20
-1245.320189210601
 10
13733.53113338424
 20
-1245.320187257617
 10
13730.33001561527
 20
-1245.320142529861
 10
13729.83001561531
 20
-1245.320135527829
 10
13726.87243833193
 20
-1245.320094087758
 10
13726.87242151813
 20
-1246.520094095278
 10
13734.66957881
 20
-1246.520203286971
 97
        0
 75
     0
 76
     2
 52
0.0
 41
1.0
 77
     0
 78
     1
 53
135.0007934570401
 43
13734.66958441161
 44
-1246.120203190847
 45
-1.767742471986125
 46
-1.767791433607592
 79
     2
 49
50.0
 49
0.0
 98
        0
1001
ACAD
1010
13734.66958441161
1020
-1246.120203190847
1030
0.0
  0
ARC
  5
386
330
1F
100
AcDbEntity
  8
Ech.1_5
 62
     7
370
    20
100
AcDbCircle
 10
13728.67382590482
 20
-1248.314355175471
 30
0.0
 40
0.2999999999218541
100
AcDbArc
 50
269.9991976122295
 51
359.9991976378504
  0
LINE
  5
387
330
1F
100
AcDbEntity
  8
Ech.1_5
 62
     7
370
    20
100
AcDbLine
 10
13727.17239219034
 20
-1248.614334149301
 30
0.0
 11
13728.67382170353
 21
-1248.614355175363
 31
0.0
  0
ARC
  5
388
330
1F
100
AcDbEntity
  8
Ech.1_5
 62
     7
370
    20
100
AcDbCircle
 10
13729.62263867884
 20
-1249.714368462971
 30
0.0
 40
0.3000000002372505
100
AcDbArc
 50
29.99919765167149
 51
89.99919760007133
  0
ARC
  5
389
330
1F
100
AcDbEntity
  8
Ech.1_5
 62
     7
370
    20
100
AcDbCircle
 10
13727.14627435412
 20
-1249.714333783641
 30
0.0
 40
0.2999999999834519
100
AcDbArc
 50
89.99919762543094
 51
171.6629777020366
  0
ARC
  5
38A
330
1F
100
AcDbEntity
  8
Ech.1_5
 62
     7
370
    20
100
AcDbCircle
 10
13727.17239639151
 20
-1248.314334149371
 30
0.0
 40
0.2999999999591174
100
AcDbArc
 50
179.9991976194382
 51
269.9991976362003
  0
ARC
  5
38B
330
1F
100
AcDbEntity
  8
Ech.1_5
 62
     7
370
    20
100
AcDbCircle
 10
13730.83842864237
 20
-1247.820149530726
 30
0.0
 40
0.9999999999501247
100
AcDbArc
 50
179.9991976264037
 51
209.9991976286946
  0
ARC
  5
38C
330
1F
100
AcDbEntity
  8
Ech.1_5
 62
     7
370
    20
100
AcDbCircle
 10
13730.6309086335
 20
-1250.460775476126
 30
0.0
 40
0.1999999999849784
100
AcDbArc
 50
209.999197629393
 51
269.9991976325526
  0
LINE
  5
38D
330
1F
100
AcDbEntity
  8
Ech.1_5
 62
     7
370
    20
100
AcDbLine
 10
13729.62264288019
 20
-1249.414368462763
 30
0.0
 11
13727.14627855534
 21
-1249.414333783687
 31
0.0
  0
LINE
  5
38E
330
1F
100
AcDbEntity
  8
Ech.1_5
 62
     7
370
    20
100
AcDbLine
 10
13730.45770215237
 20
-1250.560773050544
 30
0.0
 11
13729.8824484007
 21
-1249.564372101115
 31
0.0
  0
ARC
  5
38F
330
1F
100
AcDbEntity
  8
Ech.1_5
 62
     7
370
    20
100
AcDbCircle
 10
13726.68758692239
 20
-1251.597325380176
 30
0.0
 40
0.7196784145554078
100
AcDbArc
 50
186.36827940962
 51
272.1542219204956
  0
ARC
  5
390
330
1F
100
AcDbEntity
  8
Ech.1_5
 62
     7
370
    20
100
AcDbCircle
 10
13726.88674252737
 20
-1251.907812734989
 30
0.0
 40
0.1999999999035298
100
AcDbArc
 50
94.75462471544799
 51
160.2393118223678
  0
ARC
  5
391
330
1F
100
AcDbEntity
  8
Ech.1_5
 62
     7
370
    20
100
AcDbCircle
 10
13729.47630206681
 20
-1252.023378665406
 30
0.0
 40
0.3000000000096705
100
AcDbArc
 50
41.62452238398004
 51
94.75462473548181
  0
ARC
  5
392
330
1F
100
AcDbEntity
  8
Ech.1_5
 62
     7
370
    20
100
AcDbCircle
 10
13726.60153293486
 20
-1251.716300518308
 30
0.0
 40
0.1573408465480348
100
AcDbArc
 50
100.6885403334149
 51
308.0546895674794
  0
ARC
  5
393
330
1F
100
AcDbEntity
  8
Ech.1_5
 62
     7
370
    20
100
AcDbCircle
 10
13729.8629219705
 20
-1251.744343651245
 30
0.0
 40
0.1808990778530995
100
AcDbArc
 50
206.1622887516308
 51
94.07750254520124
  0
LINE
  5
394
330
1F
100
AcDbEntity
  8
Ech.1_5
 62
     7
370
    20
100
AcDbLine
 10
13726.87016479808
 20
-1251.708500972032
 30
0.0
 11
13729.45143547275
 21
-1251.724411020827
 31
0.0
  0
LINE
  5
395
330
1F
100
AcDbEntity
  8
Ech.1_5
 62
     7
370
    20
100
AcDbLine
 10
13726.84944466259
 20
-1249.670835114506
 30
0.0
 11
13726.5723509154
 21
-1251.561689549315
 31
0.0
  0
ARC
  5
396
330
1F
100
AcDbEntity
  8
Ech.1_5
 62
     7
370
    20
100
AcDbCircle
 10
13731.53120139612
 20
-1251.220159309719
 30
0.0
 40
0.0999999999953076
100
AcDbArc
 50
273.3279348875102
 51
29.99919761889808
  0
ARC
  5
397
330
1F
100
AcDbEntity
  8
Ech.1_5
 62
     7
370
    20
100
AcDbCircle
 10
13731.49060432895
 20
-1250.522001340945
 30
0.0
 40
0.7993373086130814
100
AcDbArc
 50
262.623518770154
 51
273.3279348679198
  0
ARC
  5
398
330
1F
100
AcDbEntity
  8
Ech.1_5
 62
     7
370
    20
100
AcDbCircle
 10
13732.71624028437
 20
-1247.521693342826
 30
0.0
 40
0.2999999999823538
100
AcDbArc
 50
123.7210222785643
 51
293.6556208150533
  0
LINE
  5
399
330
1F
100
AcDbEntity
  8
Ech.1_5
 62
     7
370
    20
100
AcDbLine
 10
13731.6178046367
 20
-1251.170160522524
 30
0.0
 11
13729.9723962367
 21
-1248.320137402814
 31
0.0
  0
ARC
  5
39A
330
1F
100
AcDbEntity
  8
Ech.1_5
 62
     7
370
    20
100
AcDbCircle
 10
13730.71981872697
 20
-1247.529651056825
 30
0.0
 40
0.2999999999916692
100
AcDbArc
 50
130.577538208183
 51
300.512136746133
  0
LINE
  5
39B
330
1F
100
AcDbEntity
  8
Ech.1_5
 62
     7
370
    20
100
AcDbLine
 10
13734.53559635711
 20
-1247.052252381414
 30
0.0
 11
13732.83661180972
 21
-1247.79648543855
 31
0.0
  0
LINE
  5
39C
330
1F
100
AcDbEntity
  8
Ech.1_5
 62
     7
370
    20
100
AcDbLine
 10
13725.97234929841
 20
-1251.677151200667
 30
0.0
 11
13725.97243832307
 21
-1245.320081477417
 31
0.0
  0
LINE
  5
39D
330
1F
100
AcDbEntity
  8
Ech.1_5
 62
     7
370
    20
100
AcDbLine
 10
13728.97385103127
 20
-1246.520123523791
 30
0.0
 11
13728.97382590471
 21
-1248.314359376629
 31
0.0
  0
LINE
  5
39E
330
1F
100
AcDbEntity
  8
Ech.1_5
 62
     7
370
    20
100
AcDbLine
 10
13726.87239639158
 20
-1248.314329948116
 30
0.0
 11
13726.87242151813
 21
-1246.520094095278
 31
0.0
  0
LINE
  5
39F
330
1F
100
AcDbEntity
  8
Ech.1_5
 62
     7
370
    20
100
AcDbLine
 10
13729.83844684777
 20
-1246.520135631625
 30
0.0
 11
13729.83842864252
 21
-1247.820135526665
 31
0.0
  0
LINE
  5
3A0
330
1F
100
AcDbEntity
  8
Ech.1_5
 62
     7
370
    20
100
AcDbLine
 10
13733.67634432467
 20
-1246.520189377727
 30
0.0
 11
13732.54969539217
 21
-1247.272168196054
 31
0.0
  0
LINE
  5
3A1
330
1F
100
AcDbEntity
  8
Ech.1_5
 62
     7
370
    20
100
AcDbLine
 10
13731.43734899455
 20
-1246.520158022715
 30
0.0
 11
13730.52467577444
 21
-1247.301793144798
 31
0.0
  0
LINE
  5
3A2
330
1F
100
AcDbEntity
  8
Ech.1_5
 62
     7
370
    20
100
AcDbLine
 10
13733.02360614909
 20
-1246.520180236737
 30
0.0
 11
13730.87213498712
 21
-1247.788107546177
 31
0.0
  0
ARC
  5
3A3
330
1F
100
AcDbEntity
  8
Ech.1_5
 62
     7
370
    20
100
AcDbCircle
 10
13731.37095103272
 20
-1251.969356765998
 30
0.0
 40
0.3500000005627304
100
AcDbArc
 50
44.75462477044882
 51
82.47710652273562
  0
ARC
  5
3A4
330
1F
100
AcDbEntity
  8
Ech.1_5
 62
     7
370
    20
100
AcDbCircle
 10
13731.37095103322
 20
-1251.969356766002
 30
0.0
 40
0.3499999994456572
100
AcDbArc
 50
274.7546247056857
 51
314.7546247717188
  0
ARC
  5
3A5
330
1F
100
AcDbEntity
  8
Ech.1_5
 62
     7
370
    20
100
AcDbCircle
 10
13731.37095103299
 20
-1251.969356765461
 30
0.0
 40
0.3499999999903457
100
AcDbArc
 50
314.7546247360953
 51
44.75462473946419
  0
LINE
  5
3A6
330
1F
100
AcDbEntity
  8
Ech.1_5
 62
     7
370
    20
100
AcDbLine
 10
13726.71463920767
 20
-1252.316495175313
 30
0.0
 11
13731.39996205939
 21
-1252.318152350796
 31
0.0
  0
LINE
  5
3A7
330
1F
100
AcDbEntity
  8
Ech.1_5
 62
     7
370
    20
100
AcDbLine
 10
13731.41677384829
 20
-1251.622369345525
 30
0.0
 11
13730.58049474653
 21
-1251.388501256952
 31
0.0
  0
ARC
  5
3A8
330
1F
100
AcDbEntity
  8
Ech.1_5
 62
     7
370
    20
100
AcDbCircle
 10
13730.60065209893
 20
-1250.787948616118
 30
0.0
 40
0.1307222090981511
100
AcDbArc
 50
175.4401061650142
 51
76.61841136667145
  0
LINE
  5
3A9
330
1F
100
AcDbEntity
  8
Ech.1_5
 62
     7
370
    20
100
AcDbLine
 10
13731.38797859126
 20
-1251.314723291507
 30
0.0
 11
13730.41318650231
 21
-1251.14866584471
 31
0.0
  0
LINE
  5
3AA
330
1F
100
AcDbEntity
  8
Ech.1_5
 62
     7
370
    20
100
AcDbLine
 10
13729.85005899884
 20
-1251.563902468784
 30
0.0
 11
13729.17280533274
 21
-1251.468752631466
 31
0.0
  0
ARC
  5
3AB
330
1F
100
AcDbEntity
  8
Ech.1_5
 62
     7
370
    20
100
AcDbCircle
 10
13729.25237427178
 20
-1250.61629040464
 30
0.0
 40
0.8561676612826805
100
AcDbArc
 50
220.1031253060354
 51
264.667454796763
  0
ARC
  5
3AC
330
1F
100
AcDbEntity
  8
Ech.1_5
 62
     7
370
    20
100
AcDbCircle
 10
13728.67399201377
 20
-1251.103387413013
 30
0.0
 40
0.1000000000160841
100
AcDbArc
 50
138.9492293716314
 51
220.1031252929666
  0
ARC
  5
3AD
330
1F
100
AcDbEntity
  8
Ech.1_5
 62
     7
370
    20
100
AcDbCircle
 10
13729.25237427118
 20
-1250.616290404957
 30
0.0
 40
0.8561676604702646
100
AcDbArc
 50
146.0941330158377
 51
179.3419575900986
  0
ARC
  5
3AE
330
1F
100
AcDbEntity
  8
Ech.1_5
 62
     7
370
    20
100
AcDbCircle
 10
13728.62478901303
 20
-1250.194477324928
 30
0.0
 40
0.1000000000040711
100
AcDbArc
 50
65.12726579682793
 51
146.0941330360365
  0
ARC
  5
3AF
330
1F
100
AcDbEntity
  8
Ech.1_5
 62
     7
370
    20
100
AcDbCircle
 10
13729.25237427152
 20
-1250.61629040505
 30
0.0
 40
0.45616766080587
100
AcDbArc
 50
108.4522152862608
 51
264.6674548125263
  0
ARC
  5
3B0
330
1F
100
AcDbEntity
  8
Ech.1_5
 62
     7
370
    20
100
AcDbCircle
 10
13727.55166846414
 20
-1261.329240362422
 30
0.0
 40
10.39192391292501
100
AcDbArc
 50
73.0546379306313
 51
80.81765930276087
  0
ARC
  5
3B1
330
1F
100
AcDbEntity
  8
Ech.1_5
 62
     7
370
    20
100
AcDbCircle
 10
13730.44741553664
 20
-1250.741676509272
 30
0.0
 40
0.4084261817671919
100
AcDbArc
 50
226.9376434781971
 51
265.1925651489895
  0
LINE
  5
3B2
330
1F
100
AcDbEntity
  8
Ech.1_5
 62
     7
370
    20
100
AcDbLine
 10
13730.4703436554
 20
-1250.777556046916
 30
0.0
 11
13729.68499716154
 21
-1249.87470757043
 31
0.0
  0
LINE
  5
3B3
330
1F
100
AcDbEntity
  8
Ech.1_5
 62
     7
370
    20
100
AcDbLine
 10
13730.16854462798
 20
-1251.040077183294
 30
0.0
 11
13729.44259932096
 21
-1250.20551738127
 31
0.0
  0
ARC
  5
3B4
330
1F
100
AcDbEntity
  8
Ech.1_5
 62
     7
370
    20
100
AcDbCircle
 10
13729.23703665642
 20
-1250.777972540924
 30
0.0
 40
1.008244127712539
100
AcDbArc
 50
63.62158808770319
 51
101.9383971483596
  0
ARC
  5
3B5
330
1F
100
AcDbEntity
  8
Ech.1_5
 62
     7
370
    20
100
AcDbCircle
 10
13729.23703665637
 20
-1250.777972540665
 30
0.0
 40
0.6082441274606029
100
AcDbArc
 50
70.24731713988146
 51
102.2490216301018
  0
ARC
  5
3B6
330
1F
100
AcDbEntity
  8
Ech.1_5
 62
     7
370
    20
100
AcDbCircle
 10
13728.44643124547
 20
-1250.90521756227
 30
0.0
 40
0.2017535302230407
100
AcDbArc
 50
318.9492293716585
 51
80.49585350827097
  0
ARC
  5
3B7
330
1F
100
AcDbEntity
  8
Ech.1_5
 62
     7
370
    20
100
AcDbCircle
 10
13728.4962564815
 20
-1250.607606005228
 30
0.0
 40
0.100000000047013
100
AcDbArc
 50
179.34195760612
 51
260.495853484866
  0
ARC
  5
3B8
330
1F
100
AcDbEntity
  8
Ech.1_5
 62
     7
370
    20
100
AcDbCircle
 10
13728.75097025014
 20
-1249.922304043005
 30
0.0
 40
0.199999999979997
100
AcDbArc
 50
245.1272657757956
 51
6.302025114667575
  0
ARC
  5
3B9
330
1F
100
AcDbEntity
  8
Ech.1_5
 62
     7
370
    20
100
AcDbCircle
 10
13729.04915737298
 20
-1249.88937321028
 30
0.0
 40
0.0999999999772098
100
AcDbArc
 50
101.9383971314866
 51
186.3020251043475
  0
LWPOLYLINE
  5
3BA
330
1F
100
AcDbEntity
  8
Ech.1_5
 62
     7
370
    20
100
AcDbPolyline
 90
       99
 70
     0
 43
0.0
 10
13774.69437442242
 20
-1209.993541795833
 10
13771.32375840355
 20
-1211.220345697846
 10
13766.37022679078
 20
-1211.220345697846
 10
13766.07022679079
 20
-1210.920345697858
 10
13765.37022679078
 20
-1210.920345697858
 42
0.9554879614867492
 10
13765.33386315442
 20
-1211.718689376037
 42
-0.3877945822102051
 10
13765.47022679079
 20
-1211.868068255382
 10
13765.47022679079
 20
-1215.10322923692
 42
-0.3441507312001547
 10
13765.35660713454
 20
-1215.248750611921
 10
13764.78384644703
 20
-1215.391940783782
 42
0.3441507312859373
 10
13764.67022679079
 20
-1215.537462158842
 10
13764.67022679079
 20
-1230.903229236908
 42
0.3441507315654886
 10
13764.78384644703
 20
-1231.04875061191
 10
13765.35660713454
 20
-1231.191940783829
 42
-0.3441507315882057
 10
13765.47022679079
 20
-1231.33746215883
 10
13765.47022679079
 20
-1234.572623140368
 42
-0.3877945824866538
 10
13765.33386315442
 20
-1234.722002019655
 42
0.9554879614867493
 10
13765.37022679078
 20
-1235.520345697834
 10
13766.07022679079
 20
-1235.520345697834
 10
13766.37022679078
 20
-1235.220345697846
 10
13771.32375840355
 20
-1235.220345697846
 10
13774.66896088727
 20
-1236.437899829543
 42
1.107380507258966
 10
13774.75949023899
 20
-1236.189172479862
 10
13773.45790061301
 20
-1235.860639192411
 42
-0.932515086097024
 10
13773.57090662903
 20
-1235.22214583309
 10
13775.99190893364
 20
-1235.54898965529
 42
0.1853167530701857
 10
13776.64579486441
 20
-1235.394310504038
 42
-0.1508181260868805
 10
13777.20941340432
 20
-1235.220345697846
 10
13777.50067511551
 20
-1235.220345697846
 10
13778.50067511551
 20
-1235.220345697846
 42
-0.308431506323778
 10
13778.85628789924
 20
-1235.477569874798
 42
-0.2679504434834072
 10
13776.61472793706
 20
-1240.744201366513
 42
-0.5217126736332013
 10
13776.37228574289
 20
-1240.70218972741
 42
0.1556530095335073
 10
13775.26986220327
 20
-1239.871132199667
 10
13775.47022679079
 20
-1238.213731796262
 42
0.3152987888284168
 10
13775.33863081945
 20
-1238.025793272143
 10
13772.66327841017
 20
-1237.052044628959
 42
0.8714005317209126
 10
13772.61698308543
 20
-1237.139621030379
 10
13773.3354865085
 20
-1237.656381371853
 42
-1.008121333919681
 10
13773.02629665192
 20
-1238.176612577357
 10
13770.72149734369
 20
-1236.699388582158
 42
0.1434661784803366
 10
13770.45169166038
 20
-1236.620345697869
 10
13768.87045606389
 20
-1236.620345697869
 42
0.7247228742535525
 10
13768.81129246581
 20
-1236.800966220457
 10
13769.69961974115
 20
-1237.452867699103
 42
-0.9485551208376493
 10
13769.2339511115
 20
-1238.162503878717
 10
13767.28413178935
 20
-1236.718533562336
 42
0.1607218598178275
 10
13766.9865632968
 20
-1236.620345697869
 10
13765.42872638055
 20
-1236.620345697869
 42
-0.0874886636857393
 10
13765.36032235189
 20
-1236.608284222035
 10
13763.56892376929
 20
-1235.956268460272
 42
-0.3152987886385134
 10
13763.47022679079
 20
-1235.815314567139
 10
13763.47022679079
 20
-1234.437462158807
 42
-0.3441507316276125
 10
13763.58384644703
 20
-1234.291940783805
 10
13764.15660713454
 20
-1234.148750611945
 42
0.3441507313480652
 10
13764.27022679079
 20
-1234.003229236885
 10
13764.27022679079
 20
-1232.237462158795
 42
0.3441507312395595
 10
13764.15660713454
 20
-1232.091940783794
 10
13763.58384644703
 20
-1231.948750611933
 42
-0.3441507313480652
 10
13763.47022679079
 20
-1231.803229236873
 10
13763.47022679079
 20
-1214.637462158818
 42
-0.3441507316276125
 10
13763.58384644703
 20
-1214.491940783817
 10
13764.15660713454
 20
-1214.348750611898
 42
0.3441507316276119
 10
13764.27022679079
 20
-1214.203229236897
 10
13764.27022679079
 20
-1212.437462158807
 42
0.3441507316276125
 10
13764.15660713454
 20
-1212.291940783805
 10
13763.58384644703
 20
-1212.148750611945
 42
-0.3441507313480652
 10
13763.47022679079
 20
-1212.003229236885
 10
13763.47022679079
 20
-1210.625376828611
 42
-0.3152987890265664
 10
13763.56892376929
 20
-1210.484422935479
 10
13765.36032235189
 20
-1209.832407173715
 42
-0.0874886636857609
 10
13765.42872638055
 20
-1209.820345697881
 10
13766.9865632968
 20
-1209.820345697881
 42
0.1607218596320593
 10
13767.28413178935
 20
-1209.722157833356
 10
13769.2339511115
 20
-1208.278187516975
 42
-0.9485551207456393
 10
13769.69961974115
 20
-1208.987823696647
 10
13768.81129246581
 20
-1209.639725175293
 42
0.7247228742535522
 10
13768.87045606389
 20
-1209.820345697881
 10
13770.45169166038
 20
-1209.820345697881
 42
0.1434661786706874
 10
13770.72149734369
 20
-1209.741302813534
 10
13773.02629665192
 20
-1208.264078818393
 42
-1.008121333919681
 10
13773.3354865085
 20
-1208.784310023897
 10
13772.61698308543
 20
-1209.301070365371
 42
0.8714005318989767
 10
13772.66327841017
 20
-1209.388646766733
 10
13775.33863081945
 20
-1208.414898123607
 42
0.3152987889084088
 10
13775.47022679079
 20
-1208.226959599429
 10
13775.26986220327
 20
-1206.569518876626
 42
0.1556560846589537
 10
13776.3722674611
 20
-1205.738482407076
 42
-0.5217126736433527
 10
13776.61470965526
 20
-1205.696470767973
 42
-0.267949278670619
 10
13778.85628789924
 20
-1210.963121520952
 42
-0.3084315062402984
 10
13778.50067511551
 20
-1211.220345697846
 10
13777.50067511551
 20
-1211.220345697846
 10
13777.20941340432
 20
-1211.220345697846
 42
-0.1508181261855313
 10
13776.64579486441
 20
-1211.046380891712
 42
0.1853167531508067
 10
13775.99190893364
 20
-1210.891701740402
 10
13773.57090662903
 20
-1211.218545562602
 42
-0.9325150861950984
 10
13773.45790061301
 20
-1210.580052203339
 10
13774.75949023899
 20
-1210.251518915829
 42
1.107380507412589
 10
13774.66896088727
 20
-1210.002791566207
  0
LWPOLYLINE
  5
3BB
330
1F
100
AcDbEntity
  8
Ech.1_5
 62
     7
370
    20
100
AcDbPolyline
 90
       25
 70
     0
 43
0.0
 10
13703.96933628118
 20
-1270.470982035637
 10
13685.94773249629
 20
-1270.470903090565
 42
-0.4082451537715075
 10
13684.96820514026
 20
-1269.471058938725
 10
13684.968274998
 20
-1268.171098706036
 10
13679.96828896989
 20
-1268.171042818707
 42
-0.4142148696381856
 10
13678.96830294194
 20
-1267.171024383701
 10
13678.96909933805
 20
-1223.971135761079
 42
0.414220323554614
 10
13677.96909933832
 20
-1222.971112677085
 10
13674.46913426851
 20
-1222.971112677085
 42
-0.4142135623793957
 10
13672.96913426851
 20
-1221.471112677085
 10
13672.96913426851
 20
-1218.971079850118
 42
-0.4142103574016441
 10
13678.96906861365
 20
-1212.971079850468
 10
13717.97215355692
 20
-1212.97065306014
 42
-0.4142175213869274
 10
13718.97216707386
 20
-1213.970653060023
 10
13718.97216707388
 20
-1243.960138769311
 42
-0.3639702343003452
 10
13718.14581525154
 20
-1244.944946522315
 10
13715.69095797317
 20
-1245.3778040943
 42
0.315298788899333
 10
13714.87979839783
 20
-1246.188963669658
 10
13713.97911291346
 20
-1251.297004882319
 42
0.4663076581732857
 10
13714.96392066647
 20
-1252.470653059965
 10
13735.97715792923
 20
-1252.470653060023
 42
-0.4400105308950032
 10
13736.97335262732
 20
-1253.557808802769
 10
13735.653357374
 20
-1268.645423587659
 42
-0.3888799926143069
 10
13733.66095921666
 20
-1270.471112102168
 10
13703.96933628118
 20
-1270.470982035637
  0
LINE
  5
3BC
330
1F
100
AcDbEntity
  8
Ech.1_5
 62
     7
370
    20
100
AcDbLine
 10
13765.47022679079
 20
-1235.22033921066
 30
0.0
 11
13841.87759636662
 21
-1235.22033921066
 31
0.0
  0
LINE
  5
3BD
330
1F
100
AcDbEntity
  8
Ech.1_5
 62
     7
370
    20
100
AcDbLine
 10
13765.47022679079
 20
-1231.22033921066
 30
0.0
 11
13841.87759636662
 21
-1231.220345697846
 31
0.0
  0
LINE
  5
3BE
330
1F
100
AcDbEntity
  8
Ech.1_5
 62
     7
370
    20
100
AcDbLine
 10
13765.47022679079
 20
-1215.22033921066
 30
0.0
 11
13841.87759636662
 21
-1215.220345697846
 31
0.0
  0
LINE
  5
3BF
330
1F
100
AcDbEntity
  8
Ech.1_5
 62
     7
370
    20
100
AcDbLine
 10
13765.47022679079
 20
-1211.22033921066
 30
0.0
 11
13841.87759636662
 21
-1211.220345697846
 31
0.0
  0
LINE
  5
3C0
330
1F
100
AcDbEntity
  8
Ech.1_5
 62
   190
370
    15
100
AcDbLine
 10
13713.96909933772
 20
-1338.474337013395
 30
0.0
 11
13841.87759636661
 21
-1338.474337013395
 31
0.0
  0
HATCH
  5
3C1
330
1F
100
AcDbEntity
  8
Ech.1_5
 62
   254
420
 15326711
440
 33554687
370
    20
100
AcDbHatch
 10
0.0
 20
0.0
 30
0.0
210
0.0
220
0.0
230
1.0
  2
SOLID
 70
     1
 71
     1
 91
        1
 92
        3
 72
     0
 73
     1
 93
        4
 10
14006.77299977743
 20
-1334.642006994443
 10
14006.77211620092
 20
-1270.470982035637
 10
13997.33945613969
 20
-1270.470982035637
 10
13997.34033971621
 20
-1334.642006994443
 97
        0
 75
     0
 76
     1
 98
        0
  0
LWPOLYLINE
  5
3C2
330
1F
100
AcDbEntity
  8
Ech.1_5
 62
   190
370
    15
100
AcDbPolyline
 90
        5
 70
     0
 43
0.0
 10
14006.77299977743
 20
-1334.642006994443
 10
14006.77211620092
 20
-1270.470982035637
 10
13997.33945613969
 20
-1270.470982035637
 10
13997.34033971621
 20
-1334.642006994443
 10
14006.77299977743
 20
-1334.642006994443
  0
LWPOLYLINE
  5
3C3
330
1F
100
AcDbEntity
  8
Ech.1_5
 62
   190
370
    15
100
AcDbPolyline
 90
        4
 70
     0
 43
0.0
 10
13997.33945613969
 20
-1270.470982035637
 10
14006.77299977743
 20
-1334.642006994443
 10
13997.34033971621
 20
-1334.642006994443
 10
14006.77211620092
 20
-1270.470982035637
  0
HATCH
  5
3C4
330
1F
100
AcDbEntity
  8
Ech.1_5
 62
   254
420
 15326711
440
 33554687
370
    20
100
AcDbHatch
 10
0.0
 20
0.0
 30
0.0
210
0.0
220
0.0
230
1.0
  2
SOLID
 70
     1
 71
     1
 91
        1
 92
        3
 72
     0
 73
     1
 93
        4
 10
13678.67662720216
 20
-1434.80460107293
 10
13688.10928726339
 20
-1434.80460107293
 10
13688.11017083991
 20
-1370.633576114124
 10
13678.67751077868
 20
-1370.633576114124
 97
        0
 75
     0
 76
     1
 98
        0
  0
LWPOLYLINE
  5
3C5
330
1F
100
AcDbEntity
  8
Ech.1_5
 62
   190
370
    15
100
AcDbPolyline
 90
        5
 70
     0
 43
0.0
 10
13678.67662720216
 20
-1434.80460107293
 10
13688.10928726339
 20
-1434.80460107293
 10
13688.11017083991
 20
-1370.633576114124
 10
13678.67751077868
 20
-1370.633576114124
 10
13678.67662720216
 20
-1434.80460107293
  0
LWPOLYLINE
  5
3C6
330
1F
100
AcDbEntity
  8
Ech.1_5
 62
   190
370
    15
100
AcDbPolyline
 90
        4
 70
     0
 43
0.0
 10
13688.11017083991
 20
-1370.633576114124
 10
13678.67662720216
 20
-1434.80460107293
 10
13688.10928726339
 20
-1434.80460107293
 10
13678.67751077868
 20
-1370.633576114124
  0
HATCH
  5
3C7
330
1F
100
AcDbEntity
  8
Ech.1_5
 62
   254
420
 15326711
440
 33554687
370
    20
100
AcDbHatch
 10
0.0
 20
0.0
 30
0.0
210
0.0
220
0.0
230
1.0
  2
SOLID
 70
     1
 71
     1
 91
        1
 92
        3
 72
     0
 73
     1
 93
        4
 10
13678.67621428089
 20
-1334.642006994443
 10
13688.10887434212
 20
-1334.642006994443
 10
13688.10975791864
 20
-1270.470982035637
 10
13678.67709785741
 20
-1270.470982035637
 97
        0
 75
     0
 76
     1
 98
        0
  0
LWPOLYLINE
  5
3C8
330
1F
100
AcDbEntity
  8
Ech.1_5
 62
   190
370
    15
100
AcDbPolyline
 90
        5
 70
     0
 43
0.0
 10
13678.67621428089
 20
-1334.642006994443
 10
13688.10887434212
 20
-1334.642006994443
 10
13688.10975791864
 20
-1270.470982035637
 10
13678.67709785741
 20
-1270.470982035637
 10
13678.67621428089
 20
-1334.642006994443
  0
LWPOLYLINE
  5
3C9
330
1F
100
AcDbEntity
  8
Ech.1_5
 62
   190
370
    15
100
AcDbPolyline
 90
        4
 70
     0
 43
0.0
 10
13688.10975791864
 20
-1270.470982035637
 10
13678.67621428089
 20
-1334.642006994443
 10
13688.10887434212
 20
-1334.642006994443
 10
13678.67709785741
 20
-1270.470982035637
  0
LWPOLYLINE
  5
3CA
330
1F
100
AcDbEntity
  8
Ech.1_5
 62
     5
370
    40
100
AcDbPolyline
 90
       11
 70
     0
 43
0.0
 10
13997.63322477336
 20
-1270.470982035637
 10
13997.6335293732
 20
-1528.971112735708
 10
13988.13255319772
 20
-1528.971112735708
 10
13988.13255319772
 20
-1528.971112735708
 10
13982.13255319772
 20
-1528.971112735708
 10
13982.13255319772
 20
-1528.971112735708
 10
13972.63157702223
 20
-1528.971112735708
 10
13972.63157702223
 20
-1280.470982035637
 10
13992.63322477336
 20
-1280.470982035637
 10
13992.63322477336
 20
-1270.470982035637
 10
13997.63322477336
 20
-1270.470982035637
  0
LINE
  5
3CB
330
1F
100
AcDbEntity
  8
Ech.1_5
 62
     5
370
    40
100
AcDbLine
 10
13989.8499135647
 20
-1511.971112735708
 30
0.0
 11
13997.6335293732
 21
-1511.971112735708
 31
0.0
  0
LWPOLYLINE
  5
3CD
330
1F
100
AcDbEntity
  8
Ech.1_5
  6
CADWORK_12
 62
   173
420
  6710988
 48
0.8999999761581421
370
    70
100
AcDbPolyline
 90
        2
 70
     0
 43
0.0
 10
13843.86491567013
 20
-1316.254782005228
 10
14005.06806061854
 20
-1316.250341804654
  0
LWPOLYLINE
  5
3CE
330
1F
100
AcDbEntity
  8
Ech.1_5
 62
   173
420
  6710988
370
    20
100
AcDbPolyline
 90
        6
 70
     0
 43
0.0
 10
13843.86491567013
 20
-1533.972696145553
 10
13852.76665206717
 20
-1533.972696145553
 10
14037.63157702223
 20
-1533.972696145553
 10
14037.63157702223
 20
-1513.972431481023
 10
14005.06937166805
 20
-1513.972696145553
 10
14005.06588483459
 20
-1316.252166765466
  0
LWPOLYLINE
  5
3CF
330
1F
100
AcDbEntity
  8
Ech.1_5
 62
   190
370
    15
100
AcDbPolyline
 90
       10
 70
     0
 43
0.0
 10
14006.7734126987
 20
-1223.971135761079
 10
14291.93996801178
 20
-1223.971135761079
 10
14291.93996801178
 20
-1374.109185279756
 10
14309.9183196162
 20
-1390.595539361299
 10
14273.9626196044
 20
-1376.485599343492
 10
14291.93996801179
 20
-1392.971102499405
 10
14291.93996801179
 20
-1454.9711127357
 10
14051.7734126987
 20
-1454.971112736166
 10
14006.7734126987
 20
-1454.9711127357
 10
14006.7734126987
 20
-1223.971135761079
  0
LWPOLYLINE
  5
3D0
330
1F
100
AcDbEntity
  8
Ech.1_5
 62
   190
370
    15
100
AcDbPolyline
 90
       10
 70
     0
 43
0.0
 10
13678.67621428089
 20
-1223.971135761079
 10
13678.67621428089
 20
-1454.9711127357
 10
13588.67621428089
 20
-1454.971112736166
 10
13393.50992688977
 20
-1454.9711127357
 10
13393.50967246289
 20
-1382.971112706393
 10
13375.5323240555
 20
-1366.48560955048
 10
13411.4880240673
 20
-1380.595549568287
 10
13393.50967246288
 20
-1364.109195486744
 10
13393.50966131352
 20
-1223.971135761079
 10
13678.67621428089
 20
-1223.971135761079
  0
LWPOLYLINE
  5
3D1
330
1F
100
AcDbEntity
  8
Ech.1_5
 62
   190
370
    15
100
AcDbPolyline
 90
        5
 70
     0
 43
0.0
 10
14006.77298864673
 20
-1434.80460107293
 10
14006.77210507021
 20
-1370.633576114124
 10
13997.33944500898
 20
-1370.633576114124
 10
13997.3403285855
 20
-1434.80460107293
 10
14006.77298864673
 20
-1434.80460107293
  0
LWPOLYLINE
  5
3D2
330
1F
100
AcDbEntity
  8
Ech.1_5
 62
   190
370
    15
100
AcDbPolyline
 90
        5
 70
     0
 43
0.0
 10
14006.77298864673
 20
-1334.642006994443
 10
14006.77210507021
 20
-1270.470982035637
 10
13997.33944500898
 20
-1270.470982035637
 10
13997.3403285855
 20
-1334.642006994443
 10
14006.77298864673
 20
-1334.642006994443
  0
LWPOLYLINE
  5
3D3
330
1F
100
AcDbEntity
  8
Ech.1_5
 62
   190
370
    15
100
AcDbPolyline
 90
        5
 70
     0
 43
0.0
 10
13678.67661607145
 20
-1434.80460107293
 10
13688.10927613268
 20
-1434.80460107293
 10
13688.1101597092
 20
-1370.633576114124
 10
13678.67749964797
 20
-1370.633576114124
 10
13678.67661607145
 20
-1434.80460107293
  0
LWPOLYLINE
  5
3D4
330
1F
100
AcDbEntity
  8
Ech.1_5
 62
   190
370
    15
100
AcDbPolyline
 90
        5
 70
     0
 43
0.0
 10
13678.67620315018
 20
-1334.642006994443
 10
13688.10886321141
 20
-1334.642006994443
 10
13688.10974678793
 20
-1270.470982035637
 10
13678.6770867267
 20
-1270.470982035637
 10
13678.67620315018
 20
-1334.642006994443
  0
LWPOLYLINE
  5
3D5
330
1F
100
AcDbEntity
  8
Ech.1_5
 62
   190
370
    15
100
AcDbPolyline
 90
       10
 70
     0
 43
0.0
 10
14006.77340156799
 20
-1223.971135761079
 10
14291.93995688107
 20
-1223.971135761079
 10
14291.93995688107
 20
-1374.109185279756
 10
14309.91830848549
 20
-1390.595539361299
 10
14273.96260847369
 20
-1376.485599343492
 10
14291.93995688108
 20
-1392.971102499405
 10
14291.93995688108
 20
-1454.9711127357
 10
14051.77340156799
 20
-1454.971112736166
 10
14006.77340156799
 20
-1454.9711127357
 10
14006.77340156799
 20
-1223.971135761079
  0
LWPOLYLINE
  5
3D6
330
1F
100
AcDbEntity
  8
Ech.1_5
 62
   190
370
    15
100
AcDbPolyline
 90
       10
 70
     0
 43
0.0
 10
13678.67620315018
 20
-1223.971135761079
 10
13678.67620315018
 20
-1454.9711127357
 10
13588.67620315018
 20
-1454.971112736166
 10
13393.50991575906
 20
-1454.9711127357
 10
13393.50966133218
 20
-1382.971112706393
 10
13375.53231292479
 20
-1366.48560955048
 10
13411.48801293659
 20
-1380.595549568287
 10
13393.50966133217
 20
-1364.109195486744
 10
13393.50965018281
 20
-1223.971135761079
 10
13678.67620315018
 20
-1223.971135761079
  0
LWPOLYLINE
  5
3D7
330
1F
100
AcDbEntity
  8
Ech.1_5
 62
   190
370
    15
100
AcDbPolyline
 90
        9
 70
     0
 43
0.0
 10
13411.4880240673
 20
-1380.759633165617
 10
13375.53232405549
 20
-1366.649693147803
 10
13393.50967246287
 20
-1383.135196303716
 10
13393.50967246287
 20
-1454.971112798245
 10
13678.67621428089
 20
-1454.9711127357
 10
13678.67621428089
 20
-1224.135219340234
 10
13393.50967246287
 20
-1224.135219398755
 10
13393.50967246287
 20
-1364.273279084104
 10
13411.4880240673
 20
-1380.759633165617
  0
LWPOLYLINE
  5
3D8
330
1F
100
AcDbEntity
  8
Ech.1_5
 62
   190
370
    15
100
AcDbPolyline
 90
        9
 70
     0
 43
0.0
 10
14273.9616029123
 20
-1376.484748417855
 10
14309.9173029241
 20
-1390.594688435669
 10
14291.93995451672
 20
-1374.109185279756
 10
14291.93995451672
 20
-1223.971135698543
 10
14006.7734126987
 20
-1223.971135761079
 10
14006.7734126987
 20
-1454.807029156553
 10
14291.93995451672
 20
-1454.807029098032
 10
14291.93995451672
 20
-1392.971102499368
 10
14273.9616029123
 20
-1376.484748417855
  0
LWPOLYLINE
  5
3D9
330
1F
100
AcDbEntity
  8
Ech.1_5
 62
     7
370
    20
100
AcDbPolyline
 90
       13
 70
     0
 43
0.0
 10
13997.63322477336
 20
-1270.470982035637
 10
13997.63322477336
 20
-1434.80460107293
 10
13997.63322477336
 20
-1489.972696146011
 10
13997.6335293732
 20
-1528.971112735708
 10
13988.13255319772
 20
-1528.971112735708
 10
13988.13255319772
 20
-1528.971112735708
 10
13982.13255319772
 20
-1528.971112735708
 10
13982.13255319772
 20
-1528.971112735708
 10
13972.63157702223
 20
-1528.971112735708
 10
13972.63157702223
 20
-1280.470982035637
 10
13992.63322477336
 20
-1280.470982035637
 10
13992.63322477336
 20
-1270.470982035637
 10
13997.63322477336
 20
-1270.470982035637
  0
LWPOLYLINE
  5
3DA
330
1F
100
AcDbEntity
  8
Ech.1_5
 62
   190
370
    15
100
AcDbPolyline
 90
        5
 70
     0
 43
0.0
 10
14006.77299977743
 20
-1434.80460107293
 10
14006.77211620092
 20
-1370.633576114124
 10
13997.33945613969
 20
-1370.633576114124
 10
13997.34033971621
 20
-1434.80460107293
 10
14006.77299977743
 20
-1434.80460107293
  0
LWPOLYLINE
  5
3DB
330
1F
100
AcDbEntity
  8
Ech.1_5
 62
   190
370
    15
100
AcDbPolyline
 90
        5
 70
     0
 43
0.0
 10
14006.77299977743
 20
-1334.642006994443
 10
14006.77211620092
 20
-1270.470982035637
 10
13997.33945613969
 20
-1270.470982035637
 10
13997.34033971621
 20
-1334.642006994443
 10
14006.77299977743
 20
-1334.642006994443
  0
LWPOLYLINE
  5
3DC
330
1F
100
AcDbEntity
  8
Ech.1_5
 62
   190
370
    15
100
AcDbPolyline
 90
        5
 70
     0
 43
0.0
 10
13678.67662720216
 20
-1434.80460107293
 10
13688.10928726339
 20
-1434.80460107293
 10
13688.11017083991
 20
-1370.633576114124
 10
13678.67751077868
 20
-1370.633576114124
 10
13678.67662720216
 20
-1434.80460107293
  0
LWPOLYLINE
  5
3DD
330
1F
100
AcDbEntity
  8
Ech.1_5
 62
   190
370
    15
100
AcDbPolyline
 90
        5
 70
     0
 43
0.0
 10
13678.67621428089
 20
-1334.642006994443
 10
13688.10887434212
 20
-1334.642006994443
 10
13688.10975791864
 20
-1270.470982035637
 10
13678.67709785741
 20
-1270.470982035637
 10
13678.67621428089
 20
-1334.642006994443
  0
LWPOLYLINE
  5
3DE
330
1F
100
AcDbEntity
  8
Ech.1_5
 62
     7
370
    20
100
AcDbPolyline
 90
       13
 70
     0
 43
0.0
 10
13688.10928726339
 20
-1270.470982035637
 10
13688.10928726339
 20
-1434.80460107293
 10
13688.10928726339
 20
-1489.972696146011
 10
13688.10898266355
 20
-1528.971112735708
 10
13697.60995883903
 20
-1528.971112735708
 10
13697.60995883903
 20
-1528.971112735708
 10
13703.60995883903
 20
-1528.971112735708
 10
13703.60995883903
 20
-1528.971112735708
 10
13713.11093501452
 20
-1528.971112735708
 10
13713.11093501452
 20
-1280.470982035637
 10
13693.10928726339
 20
-1280.470982035637
 10
13693.10928726339
 20
-1270.470982035637
 10
13688.10928726339
 20
-1270.470982035637
  0
LWPOLYLINE
  5
3DF
330
1F
100
AcDbEntity
  8
Ech.1_5
 62
   190
370
    15
100
AcDbPolyline
 90
       10
 70
     0
 43
0.0
 10
14006.7734126987
 20
-1223.971135761079
 10
14291.93996801178
 20
-1223.971135761079
 10
14291.93996801178
 20
-1374.109185279756
 10
14309.9183196162
 20
-1390.595539361299
 10
14273.9626196044
 20
-1376.485599343492
 10
14291.93996801179
 20
-1392.971102499405
 10
14291.93996801179
 20
-1454.9711127357
 10
14051.7734126987
 20
-1454.971112736166
 10
14006.7734126987
 20
-1454.9711127357
 10
14006.7734126987
 20
-1223.971135761079
  0
LWPOLYLINE
  5
3E0
330
1F
100
AcDbEntity
  8
Ech.1_5
 62
   190
370
    15
100
AcDbPolyline
 90
       10
 70
     0
 43
0.0
 10
13678.67621428089
 20
-1223.971135761079
 10
13678.67621428089
 20
-1454.9711127357
 10
13588.67621428089
 20
-1454.971112736166
 10
13393.50992688977
 20
-1454.9711127357
 10
13393.50967246289
 20
-1382.971112706393
 10
13375.5323240555
 20
-1366.48560955048
 10
13411.4880240673
 20
-1380.595549568287
 10
13393.50967246288
 20
-1364.109195486744
 10
13393.50966131352
 20
-1223.971135761079
 10
13678.67621428089
 20
-1223.971135761079
  0
LWPOLYLINE
  5
3E1
330
1F
100
AcDbEntity
  8
Ech.1_5
 62
     7
370
    20
100
AcDbPolyline
 90
       13
 70
     0
 43
0.0
 10
13997.63321364266
 20
-1270.470982035637
 10
13997.63321364266
 20
-1434.80460107293
 10
13997.63321364266
 20
-1489.972696146011
 10
13997.63351824249
 20
-1528.971112735708
 10
13988.13254206701
 20
-1528.971112735708
 10
13988.13254206701
 20
-1528.971112735708
 10
13982.13254206701
 20
-1528.971112735708
 10
13982.13254206701
 20
-1528.971112735708
 10
13972.63156589152
 20
-1528.971112735708
 10
13972.63156589152
 20
-1280.470982035637
 10
13992.63321364266
 20
-1280.470982035637
 10
13992.63321364266
 20
-1270.470982035637
 10
13997.63321364266
 20
-1270.470982035637
  0
LWPOLYLINE
  5
3E2
330
1F
100
AcDbEntity
  8
Ech.1_5
 62
   190
370
    15
100
AcDbPolyline
 90
        5
 70
     0
 43
0.0
 10
14006.77298864673
 20
-1434.80460107293
 10
14006.77210507021
 20
-1370.633576114124
 10
13997.33944500898
 20
-1370.633576114124
 10
13997.3403285855
 20
-1434.80460107293
 10
14006.77298864673
 20
-1434.80460107293
  0
LWPOLYLINE
  5
3E3
330
1F
100
AcDbEntity
  8
Ech.1_5
 62
   190
370
    15
100
AcDbPolyline
 90
        5
 70
     0
 43
0.0
 10
14006.77298864673
 20
-1334.642006994443
 10
14006.77210507021
 20
-1270.470982035637
 10
13997.33944500898
 20
-1270.470982035637
 10
13997.3403285855
 20
-1334.642006994443
 10
14006.77298864673
 20
-1334.642006994443
  0
LWPOLYLINE
  5
3E4
330
1F
100
AcDbEntity
  8
Ech.1_5
 62
   190
370
    15
100
AcDbPolyline
 90
        5
 70
     0
 43
0.0
 10
13678.67661607145
 20
-1434.80460107293
 10
13688.10927613268
 20
-1434.80460107293
 10
13688.1101597092
 20
-1370.633576114124
 10
13678.67749964797
 20
-1370.633576114124
 10
13678.67661607145
 20
-1434.80460107293
  0
LWPOLYLINE
  5
3E5
330
1F
100
AcDbEntity
  8
Ech.1_5
 62
   190
370
    15
100
AcDbPolyline
 90
        5
 70
     0
 43
0.0
 10
13678.67620315018
 20
-1334.642006994443
 10
13688.10886321141
 20
-1334.642006994443
 10
13688.10974678793
 20
-1270.470982035637
 10
13678.6770867267
 20
-1270.470982035637
 10
13678.67620315018
 20
-1334.642006994443
  0
LWPOLYLINE
  5
3E6
330
1F
100
AcDbEntity
  8
Ech.1_5
 62
     7
370
    20
100
AcDbPolyline
 90
       13
 70
     0
 43
0.0
 10
13688.10927613268
 20
-1270.470982035637
 10
13688.10927613268
 20
-1434.80460107293
 10
13688.10927613268
 20
-1489.972696146011
 10
13688.10897153284
 20
-1528.971112735708
 10
13697.60994770832
 20
-1528.971112735708
 10
13697.60994770832
 20
-1528.971112735708
 10
13703.60994770832
 20
-1528.971112735708
 10
13703.60994770832
 20
-1528.971112735708
 10
13713.11092388381
 20
-1528.971112735708
 10
13713.11092388381
 20
-1280.470982035637
 10
13693.10927613268
 20
-1280.470982035637
 10
13693.10927613268
 20
-1270.470982035637
 10
13688.10927613268
 20
-1270.470982035637
  0
LWPOLYLINE
  5
3E7
330
1F
100
AcDbEntity
  8
Ech.1_5
 62
   190
370
    15
100
AcDbPolyline
 90
       10
 70
     0
 43
0.0
 10
14006.77340156799
 20
-1223.971135761079
 10
14291.93995688107
 20
-1223.971135761079
 10
14291.93995688107
 20
-1374.109185279756
 10
14309.91830848549
 20
-1390.595539361299
 10
14273.96260847369
 20
-1376.485599343492
 10
14291.93995688108
 20
-1392.971102499405
 10
14291.93995688108
 20
-1454.9711127357
 10
14051.77340156799
 20
-1454.971112736166
 10
14006.77340156799
 20
-1454.9711127357
 10
14006.77340156799
 20
-1223.971135761079
  0
LWPOLYLINE
  5
3E8
330
1F
100
AcDbEntity
  8
Ech.1_5
 62
   190
370
    15
100
AcDbPolyline
 90
       10
 70
     0
 43
0.0
 10
13678.67620315018
 20
-1223.971135761079
 10
13678.67620315018
 20
-1454.9711127357
 10
13588.67620315018
 20
-1454.971112736166
 10
13393.50991575906
 20
-1454.9711127357
 10
13393.50966133218
 20
-1382.971112706393
 10
13375.53231292479
 20
-1366.48560955048
 10
13411.48801293659
 20
-1380.595549568287
 10
13393.50966133217
 20
-1364.109195486744
 10
13393.50965018281
 20
-1223.971135761079
 10
13678.67620315018
 20
-1223.971135761079
  0
LWPOLYLINE
  5
3E9
330
1F
100
AcDbEntity
  8
Ech.1_5
 62
   190
370
    15
100
AcDbPolyline
 90
        5
 70
     0
 43
0.0
 10
13360.75085774393
 20
-1927.998419164382
 10
14345.75085774393
 20
-1927.998419164382
 10
14345.75085774393
 20
-2065.411491229439
 10
13360.75085774393
 20
-2065.411491229439
 10
13360.75085774393
 20
-1927.998419164382
  0
LWPOLYLINE
  5
3EA
330
1F
100
AcDbEntity
  8
Ech.1_5
 62
   190
370
    15
100
AcDbPolyline
 90
        5
 70
     0
 43
0.0
 10
14345.75085774393
 20
-805.928454235207
 10
13360.75085774393
 20
-805.928454235207
 10
13360.75085774393
 20
-710.411491229559
 10
14345.75085774393
 20
-710.411491229559
 10
14345.75085774393
 20
-805.928454235207
  0
LWPOLYLINE
  5
3EB
330
1F
100
AcDbEntity
  8
Ech.1_5
 62
   190
370
    15
100
AcDbPolyline
 90
        5
 70
     0
 43
0.0
 10
14345.75085774393
 20
-1949.998419164382
 10
13360.75085774393
 20
-1949.998419164382
 10
13360.75085774393
 20
-1927.998419164382
 10
14345.75085774393
 20
-1927.998419164382
 10
14345.75085774393
 20
-1949.998419164382
  0
LWPOLYLINE
  5
3EC
330
1F
100
AcDbEntity
  8
Ech.1_5
 62
   190
370
    15
100
AcDbPolyline
 90
        5
 70
     0
 43
0.0
 10
14345.75085774393
 20
-2006.869564394721
 10
13360.75085774393
 20
-2006.869564394721
 10
13360.75085774393
 20
-1983.142536083986
 10
14345.75085774393
 20
-1983.142536083986
 10
14345.75085774393
 20
-2006.869564394721
  0
LINE
  5
3ED
330
1F
100
AcDbEntity
  8
Ech.1_5
 62
   190
370
    15
100
AcDbLine
 10
13548.95541970688
 20
-1927.998419164382
 30
0.0
 11
13548.95541970688
 21
-1949.998419164382
 31
0.0
  0
LINE
  5
3EE
330
1F
100
AcDbEntity
  8
Ech.1_5
 62
   190
370
    15
100
AcDbLine
 10
14205.95352233743
 20
-1927.998419164382
 30
0.0
 11
14205.95352233743
 21
-1949.998419164382
 31
0.0
  0
LINE
  5
3EF
330
1F
100
AcDbEntity
  8
Ech.1_5
 62
   190
370
    15
100
AcDbLine
 10
13705.11063770224
 20
-1927.998419164382
 30
0.0
 11
13705.11063770224
 21
-1949.998419164382
 31
0.0
  0
IMAGE
  5
3F2
330
1F
100
AcDbEntity
  8
Ech.1_5
160
                 8
310
0800000000000000
100
AcDbRasterImage
 90
        0
 10
13551.81510648481
 20
-2060.37594374839
 30
0.0
 11
0.2834008097165992
 21
0.0
 31
0.0
 12
0.0
 22
0.2807017543859649
 32
0.0
 13
247.0
 23
171.0
340
3F1
 70
     3
280
     0
281
    50
282
    50
283
     0
360
3F3
 71
     1
 91
        2
 14
-0.5
 24
-0.5
 14
246.5
 24
170.5
290
     0
  0
IMAGE
  5
3F5
330
1F
100
AcDbEntity
  8
Ech.1_5
160
                 8
310
0800000000000000
100
AcDbRasterImage
 90
        0
 10
13812.89277772679
 20
-2062.930556052175
 30
0.0
 11
0.4
 21
0.0
 31
0.0
 12
0.0
 22
0.3984962406015037
 32
0.0
 13
200.0
 23
133.0
340
3F4
 70
     3
280
     0
281
    50
282
    50
283
     0
360
3F6
 71
     1
 91
        2
 14
-0.5
 24
-0.5
 14
199.5
 24
132.5
290
     0
  0
IMAGE
  5
3F8
330
1F
100
AcDbEntity
  8
Ech.1_5
160
                 8
310
0800000000000000
100
AcDbRasterImage
 90
        0
 10
14056.26744410593
 20
-2064.135533967121
 30
0.0
 11
0.09502262443438914
 21
0.0
 31
0.0
 12
0.0
 22
0.09482758620689655
 32
0.0
 13
1326.0
 23
580.0
340
3F7
 70
     3
280
     0
281
    50
282
    50
283
     0
360
3F9
 71
     1
 91
        2
 14
-0.5
 24
-0.5
 14
1325.5
 24
579.5
290
     0
  0
LINE
  5
3FA
330
1F
100
AcDbEntity
  8
Ech.1_5
 62
   190
370
    15
100
AcDbLine
 10
14345.75085774394
 20
-740.4114912294499
 30
0.0
 11
13360.75085774394
 21
-740.4114912294499
 31
0.0
  0
LWPOLYLINE
  5
3FB
330
1F
100
AcDbEntity
  8
Ech.1_5
 62
   190
370
    15
100
AcDbPolyline
 90
        5
 70
     0
 43
0.0
 10
14345.75085774393
 20
-2065.411491229439
 10
14345.75085774393
 20
-710.4114912294353
 10
13360.75085774393
 20
-710.4114912294353
 10
13360.75085774393
 20
-2065.411491229439
 10
14345.75085774393
 20
-2065.411491229439
  0
LWPOLYLINE
  5
3FC
330
1F
100
AcDbEntity
  8
Ech.1_5
 62
     5
370
    40
100
AcDbPolyline
 90
       11
 70
     0
 43
0.0
 10
13688.10928726339
 20
-1270.470982035637
 10
13688.10898266355
 20
-1528.971112735708
 10
13697.60995883903
 20
-1528.971112735708
 10
13697.60995883903
 20
-1528.971112735708
 10
13703.60995883903
 20
-1528.971112735708
 10
13703.60995883903
 20
-1528.971112735708
 10
13713.11093501452
 20
-1528.971112735708
 10
13713.11093501452
 20
-1280.470982035637
 10
13693.10928726339
 20
-1280.470982035637
 10
13693.10928726339
 20
-1270.470982035637
 10
13688.10928726339
 20
-1270.470982035637
  0
LWPOLYLINE
  5
3FD
330
1F
100
AcDbEntity
  8
Ech.1_5
  6
CADWORK_12
 62
   173
420
  6710988
 48
0.8999999761581421
370
    70
100
AcDbPolyline
 90
        2
 70
     0
 43
0.0
 10
13841.87759636662
 20
-1316.254782005228
 10
13680.67445141821
 20
-1316.250341804654
  0
LWPOLYLINE
  5
3FE
330
1F
100
AcDbEntity
  8
Ech.1_5
 62
   173
420
  6710988
370
    20
100
AcDbPolyline
 90
        6
 70
     0
 43
0.0
 10
13841.87759636662
 20
-1533.972696145553
 10
13832.97585996958
 20
-1533.972696145553
 10
13648.11093501452
 20
-1533.972696145553
 10
13648.11093501452
 20
-1513.972431481023
 10
13680.6731403687
 20
-1513.972696145553
 10
13680.67662720216
 20
-1316.252166765466
  0
HATCH
  5
3FF
330
1F
100
AcDbEntity
  8
Ech.1_5
 62
   254
420
 15326711
440
 33554687
370
     5
100
AcDbHatch
 10
0.0
 20
0.0
 30
0.0
210
0.0
220
0.0
230
1.0
  2
SOLID
 70
     1
 71
     1
 91
        1
 92
        3
 72
     0
 73
     1
 93
       12
 10
13997.63321364266
 20
-1270.470982035637
 10
13997.63321364266
 20
-1434.80460107293
 10
13997.63321364266
 20
-1489.972696146011
 10
13997.63351824249
 20
-1528.971112735708
 10
13988.13254206701
 20
-1528.971112735708
 10
13988.13254206701
 20
-1528.971112735708
 10
13982.13254206701
 20
-1528.971112735708
 10
13982.13254206701
 20
-1528.971112735708
 10
13972.63156589152
 20
-1528.971112735708
 10
13972.63156589152
 20
-1280.470982035637
 10
13992.63321364266
 20
-1280.470982035637
 10
13992.63321364266
 20
-1270.470982035637
 97
        0
 75
     0
 76
     1
 98
        0
  0
LWPOLYLINE
  5
400
330
1F
100
AcDbEntity
  8
Ech.1_5
 62
   190
370
    15
100
AcDbPolyline
 90
       13
 70
     0
 43
0.0
 38
2500.0
 39
-2500.0
 10
13997.63321364266
 20
-1270.470982035637
 10
13997.63321364266
 20
-1434.80460107293
 10
13997.63321364266
 20
-1489.972696146011
 10
13997.63351824249
 20
-1528.971112735708
 10
13988.13254206701
 20
-1528.971112735708
 10
13988.13254206701
 20
-1528.971112735708
 10
13982.13254206701
 20
-1528.971112735708
 10
13982.13254206701
 20
-1528.971112735708
 10
13972.63156589152
 20
-1528.971112735708
 10
13972.63156589152
 20
-1280.470982035637
 10
13992.63321364266
 20
-1280.470982035637
 10
13992.63321364266
 20
-1270.470982035637
 10
13997.63321364266
 20
-1270.470982035637
  0
HATCH
  5
401
330
1F
100
AcDbEntity
  8
Ech.1_5
 62
   254
420
 15326711
440
 33554687
370
     5
100
AcDbHatch
 10
0.0
 20
0.0
 30
0.0
210
0.0
220
0.0
230
1.0
  2
SOLID
 70
     1
 71
     1
 91
        1
 92
        3
 72
     0
 73
     1
 93
       12
 10
13688.10928726339
 20
-1270.470982035637
 10
13688.10928726339
 20
-1434.80460107293
 10
13688.10928726339
 20
-1489.972696146011
 10
13688.10898266355
 20
-1528.971112735708
 10
13697.60995883903
 20
-1528.971112735708
 10
13697.60995883903
 20
-1528.971112735708
 10
13703.60995883903
 20
-1528.971112735708
 10
13703.60995883903
 20
-1528.971112735708
 10
13713.11093501452
 20
-1528.971112735708
 10
13713.11093501452
 20
-1280.470982035637
 10
13693.10928726339
 20
-1280.470982035637
 10
13693.10928726339
 20
-1270.470982035637
 97
        0
 75
     0
 76
     1
 98
        0
  0
LWPOLYLINE
  5
402
330
1F
100
AcDbEntity
  8
Ech.1_5
 62
   190
370
    15
100
AcDbPolyline
 90
       13
 70
     0
 43
0.0
 38
2500.0
 39
-2500.0
 10
13688.10928726339
 20
-1270.470982035637
 10
13688.10928726339
 20
-1434.80460107293
 10
13688.10928726339
 20
-1489.972696146011
 10
13688.10898266355
 20
-1528.971112735708
 10
13697.60995883903
 20
-1528.971112735708
 10
13697.60995883903
 20
-1528.971112735708
 10
13703.60995883903
 20
-1528.971112735708
 10
13703.60995883903
 20
-1528.971112735708
 10
13713.11093501452
 20
-1528.971112735708
 10
13713.11093501452
 20
-1280.470982035637
 10
13693.10928726339
 20
-1280.470982035637
 10
13693.10928726339
 20
-1270.470982035637
 10
13688.10928726339
 20
-1270.470982035637
  0
HATCH
  5
403
330
1F
100
AcDbEntity
  8
Ech.1_5
 62
   254
420
 15326711
440
 33554687
370
     5
100
AcDbHatch
 10
0.0
 20
0.0
 30
0.0
210
0.0
220
0.0
230
1.0
  2
SOLID
 70
     1
 71
     1
 91
        1
 92
        3
 72
     0
 73
     1
 93
        4
 10
13706.32193269415
 20
-1270.470982035637
 10
13692.94441222105
 20
-1270.470982035637
 10
13692.94441222105
 20
-1279.903642096862
 10
13706.32193269415
 20
-1279.903642096862
 97
        0
 75
     0
 76
     1
 98
        0
  0
HATCH
  5
404
330
1F
100
AcDbEntity
  8
Ech.1_5
 62
   190
440
 33554687
370
    15
100
AcDbHatch
 10
0.0
 20
0.0
 30
0.0
210
0.0
220
0.0
230
1.0
  2
CwHatchPattern_11
 70
     0
 71
     1
 91
        1
 92
        3
 72
     0
 73
     1
 93
        4
 10
13706.32193269415
 20
-1270.470982035637
 10
13692.94441222105
 20
-1270.470982035637
 10
13692.94441222105
 20
-1279.903642096862
 10
13706.32193269415
 20
-1279.903642096862
 97
        0
 75
     0
 76
     2
 52
0.0
 41
1.0
 77
     0
 78
     1
 53
45.00000000000297
 43
0.0
 44
0.0
 45
-3.535533905932921
 46
3.535533905932555
 79
     0
 98
        0
1001
ACAD
1010
0.0
1020
0.0
1030
0.0
  0
LWPOLYLINE
  5
405
330
1F
100
AcDbEntity
  8
Ech.1_5
 62
   190
370
     5
100
AcDbPolyline
 90
        5
 70
     0
 43
0.0
 10
13706.32193269415
 20
-1270.470982035637
 10
13692.94441222105
 20
-1270.470982035637
 10
13692.94441222105
 20
-1279.903642096862
 10
13706.32193269415
 20
-1279.903642096862
 10
13706.32193269415
 20
-1270.470982035637
  0
HATCH
  5
406
330
1F
100
AcDbEntity
  8
Ech.1_5
 62
   254
420
 15326711
440
 33554687
370
     5
100
AcDbHatch
 10
0.0
 20
0.0
 30
0.0
210
0.0
220
0.0
230
1.0
  2
SOLID
 70
     1
 71
     1
 91
        1
 92
        3
 72
     0
 73
     1
 93
        4
 10
13706.32193269415
 20
-1279.903642096862
 10
13713.11092388381
 20
-1279.903642096862
 10
13713.11092388381
 20
-1270.470982035637
 10
13706.32193269415
 20
-1270.470982035637
 97
        0
 75
     0
 76
     1
 98
        0
  0
HATCH
  5
407
330
1F
100
AcDbEntity
  8
Ech.1_5
 62
   190
440
 33554687
370
    15
100
AcDbHatch
 10
0.0
 20
0.0
 30
0.0
210
0.0
220
0.0
230
1.0
  2
CwHatchPattern_11
 70
     0
 71
     1
 91
        1
 92
        3
 72
     0
 73
     1
 93
        4
 10
13706.32193269415
 20
-1279.903642096862
 10
13713.11092388381
 20
-1279.903642096862
 10
13713.11092388381
 20
-1270.470982035637
 10
13706.32193269415
 20
-1270.470982035637
 97
        0
 75
     0
 76
     2
 52
0.0
 41
1.0
 77
     0
 78
     1
 53
45.00000000000297
 43
0.0
 44
0.0
 45
-3.535533905932921
 46
3.535533905932555
 79
     0
 98
        0
1001
ACAD
1010
0.0
1020
0.0
1030
0.0
  0
LWPOLYLINE
  5
408
330
1F
100
AcDbEntity
  8
Ech.1_5
 62
   190
370
     5
100
AcDbPolyline
 90
        5
 70
     0
 43
0.0
 10
13706.32193269415
 20
-1279.903642096862
 10
13713.11092388381
 20
-1279.903642096862
 10
13713.11092388381
 20
-1270.470982035637
 10
13706.32193269415
 20
-1270.470982035637
 10
13706.32193269415
 20
-1279.903642096862
  0
LWPOLYLINE
  5
409
330
1F
100
AcDbEntity
  8
Ech.1_5
 62
   190
370
     5
100
AcDbPolyline
 90
        5
 70
     0
 43
0.0
 10
13706.32193269415
 20
-1270.470982035637
 10
13692.94441222105
 20
-1270.470982035637
 10
13692.94441222105
 20
-1279.903642096862
 10
13706.32193269415
 20
-1279.903642096862
 10
13706.32193269415
 20
-1270.470982035637
  0
LWPOLYLINE
  5
40A
330
1F
100
AcDbEntity
  8
Ech.1_5
 62
   190
370
     5
100
AcDbPolyline
 90
        5
 70
     0
 43
0.0
 10
13706.32193269415
 20
-1279.903642096862
 10
13713.11092388381
 20
-1279.903642096862
 10
13713.11092388381
 20
-1270.470982035637
 10
13706.32193269415
 20
-1270.470982035637
 10
13706.32193269415
 20
-1279.903642096862
  0
LWPOLYLINE
  5
40B
330
1F
100
AcDbEntity
  8
Ech.1_5
 62
   190
370
     5
100
AcDbPolyline
 90
        5
 70
     0
 43
0.0
 10
13706.32193269415
 20
-1270.470982035637
 10
13692.94441222105
 20
-1270.470982035637
 10
13692.94441222105
 20
-1279.903642096862
 10
13706.32193269415
 20
-1279.903642096862
 10
13706.32193269415
 20
-1270.470982035637
  0
LWPOLYLINE
  5
40C
330
1F
100
AcDbEntity
  8
Ech.1_5
 62
   190
370
    15
100
AcDbPolyline
 90
        5
 70
     0
 43
0.0
 10
13706.32193269415
 20
-1279.903642096862
 10
13713.11092388381
 20
-1279.903642096862
 10
13713.11092388381
 20
-1270.470982035637
 10
13706.32193269415
 20
-1270.470982035637
 10
13706.32193269415
 20
-1279.903642096862
  0
LWPOLYLINE
  5
40D
330
1F
100
AcDbEntity
  8
Ech.1_5
 62
   190
370
    15
100
AcDbPolyline
 90
        5
 70
     0
 43
0.0
 10
13692.94441222104
 20
-1279.903642096862
 10
13706.32193269415
 20
-1279.903642096862
 10
13706.32193269415
 20
-1270.470982035637
 10
13692.94441222104
 20
-1270.470982035637
 10
13692.94441222104
 20
-1279.903642096862
  0
HATCH
  5
40E
330
1F
100
AcDbEntity
  8
Ech.1_5
 62
   254
420
 15326711
440
 33554687
370
     5
100
AcDbHatch
 10
0.0
 20
0.0
 30
0.0
210
0.0
220
0.0
230
1.0
  2
SOLID
 70
     1
 71
     1
 91
        1
 92
        3
 72
     0
 73
     1
 93
        4
 10
13979.42056821189
 20
-1279.903642096862
 10
13992.79808868499
 20
-1279.903642096862
 10
13992.79808868499
 20
-1270.470982035637
 10
13979.42056821189
 20
-1270.470982035637
 97
        0
 75
     0
 76
     1
 98
        0
  0
HATCH
  5
40F
330
1F
100
AcDbEntity
  8
Ech.1_5
 62
   190
440
 33554687
370
    15
100
AcDbHatch
 10
0.0
 20
0.0
 30
0.0
210
0.0
220
0.0
230
1.0
  2
CwHatchPattern_11
 70
     0
 71
     1
 91
        1
 92
        3
 72
     0
 73
     1
 93
        4
 10
13979.42056821189
 20
-1279.903642096862
 10
13992.79808868499
 20
-1279.903642096862
 10
13992.79808868499
 20
-1270.470982035637
 10
13979.42056821189
 20
-1270.470982035637
 97
        0
 75
     0
 76
     2
 52
0.0
 41
1.0
 77
     0
 78
     1
 53
45.00000000000297
 43
0.0
 44
0.0
 45
-3.535533905932921
 46
3.535533905932555
 79
     0
 98
        0
1001
ACAD
1010
0.0
1020
0.0
1030
0.0
  0
LWPOLYLINE
  5
410
330
1F
100
AcDbEntity
  8
Ech.1_5
 62
   190
370
     5
100
AcDbPolyline
 90
        5
 70
     0
 43
0.0
 10
13979.42056821189
 20
-1279.903642096862
 10
13992.79808868499
 20
-1279.903642096862
 10
13992.79808868499
 20
-1270.470982035637
 10
13979.42056821189
 20
-1270.470982035637
 10
13979.42056821189
 20
-1279.903642096862
  0
HATCH
  5
411
330
1F
100
AcDbEntity
  8
Ech.1_5
 62
   254
420
 15326711
440
 33554687
370
     5
100
AcDbHatch
 10
0.0
 20
0.0
 30
0.0
210
0.0
220
0.0
230
1.0
  2
SOLID
 70
     1
 71
     1
 91
        1
 92
        3
 72
     0
 73
     1
 93
        4
 10
13979.42056821189
 20
-1270.470982035637
 10
13972.63157702223
 20
-1270.470982035637
 10
13972.63157702223
 20
-1279.903642096862
 10
13979.42056821189
 20
-1279.903642096862
 97
        0
 75
     0
 76
     1
 98
        0
  0
HATCH
  5
412
330
1F
100
AcDbEntity
  8
Ech.1_5
 62
   190
440
 33554687
370
    15
100
AcDbHatch
 10
0.0
 20
0.0
 30
0.0
210
0.0
220
0.0
230
1.0
  2
CwHatchPattern_11
 70
     0
 71
     1
 91
        1
 92
        3
 72
     0
 73
     1
 93
        4
 10
13979.42056821189
 20
-1270.470982035637
 10
13972.63157702223
 20
-1270.470982035637
 10
13972.63157702223
 20
-1279.903642096862
 10
13979.42056821189
 20
-1279.903642096862
 97
        0
 75
     0
 76
     2
 52
0.0
 41
1.0
 77
     0
 78
     1
 53
45.00000000000297
 43
0.0
 44
0.0
 45
-3.535533905932921
 46
3.535533905932555
 79
     0
 98
        0
1001
ACAD
1010
0.0
1020
0.0
1030
0.0
  0
LWPOLYLINE
  5
413
330
1F
100
AcDbEntity
  8
Ech.1_5
 62
   190
370
     5
100
AcDbPolyline
 90
        5
 70
     0
 43
0.0
 10
13979.42056821189
 20
-1270.470982035637
 10
13972.63157702223
 20
-1270.470982035637
 10
13972.63157702223
 20
-1279.903642096862
 10
13979.42056821189
 20
-1279.903642096862
 10
13979.42056821189
 20
-1270.470982035637
  0
LWPOLYLINE
  5
414
330
1F
100
AcDbEntity
  8
Ech.1_5
 62
   190
370
     5
100
AcDbPolyline
 90
        5
 70
     0
 43
0.0
 10
13979.42056821189
 20
-1279.903642096862
 10
13992.79808868499
 20
-1279.903642096862
 10
13992.79808868499
 20
-1270.470982035637
 10
13979.42056821189
 20
-1270.470982035637
 10
13979.42056821189
 20
-1279.903642096862
  0
LWPOLYLINE
  5
415
330
1F
100
AcDbEntity
  8
Ech.1_5
 62
   190
370
     5
100
AcDbPolyline
 90
        5
 70
     0
 43
0.0
 10
13979.42056821189
 20
-1270.470982035637
 10
13972.63157702223
 20
-1270.470982035637
 10
13972.63157702223
 20
-1279.903642096862
 10
13979.42056821189
 20
-1279.903642096862
 10
13979.42056821189
 20
-1270.470982035637
  0
LWPOLYLINE
  5
416
330
1F
100
AcDbEntity
  8
Ech.1_5
 62
   190
370
     5
100
AcDbPolyline
 90
        5
 70
     0
 43
0.0
 10
13979.42056821189
 20
-1279.903642096862
 10
13992.79808868499
 20
-1279.903642096862
 10
13992.79808868499
 20
-1270.470982035637
 10
13979.42056821189
 20
-1270.470982035637
 10
13979.42056821189
 20
-1279.903642096862
  0
LWPOLYLINE
  5
417
330
1F
100
AcDbEntity
  8
Ech.1_5
 62
   190
370
    15
100
AcDbPolyline
 90
        5
 70
     0
 43
0.0
 10
13979.42056821189
 20
-1270.470982035637
 10
13972.63157702223
 20
-1270.470982035637
 10
13972.63157702223
 20
-1279.903642096862
 10
13979.42056821189
 20
-1279.903642096862
 10
13979.42056821189
 20
-1270.470982035637
  0
LWPOLYLINE
  5
418
330
1F
100
AcDbEntity
  8
Ech.1_5
 62
   190
370
    15
100
AcDbPolyline
 90
        5
 70
     0
 43
0.0
 10
13992.798088685
 20
-1270.470982035637
 10
13979.42056821189
 20
-1270.470982035637
 10
13979.42056821189
 20
-1279.903642096862
 10
13992.798088685
 20
-1279.903642096862
 10
13992.798088685
 20
-1270.470982035637
  0
HATCH
  5
419
330
1F
100
AcDbEntity
  8
Ech.1_5
 62
   254
420
 15326711
440
 33554687
370
     5
100
AcDbHatch
 10
0.0
 20
0.0
 30
0.0
210
0.0
220
0.0
230
1.0
  2
SOLID
 70
     1
 71
     1
 91
        1
 92
        3
 72
     0
 73
     1
 93
        4
 10
13688.10887434212
 20
-1448.182121546044
 10
13688.10887434212
 20
-1434.804601072945
 10
13678.67621428089
 20
-1434.804601072945
 10
13678.67621428089
 20
-1448.182121546044
 97
        0
 75
     0
 76
     1
 98
        0
  0
HATCH
  5
41A
330
1F
100
AcDbEntity
  8
Ech.1_5
 62
   190
440
 33554687
370
    15
100
AcDbHatch
 10
0.0
 20
0.0
 30
0.0
210
0.0
220
0.0
230
1.0
  2
CwHatchPattern_11
 70
     0
 71
     1
 91
        1
 92
        3
 72
     0
 73
     1
 93
        4
 10
13688.10887434212
 20
-1448.182121546044
 10
13688.10887434212
 20
-1434.804601072945
 10
13678.67621428089
 20
-1434.804601072945
 10
13678.67621428089
 20
-1448.182121546044
 97
        0
 75
     0
 76
     2
 52
0.0
 41
1.0
 77
     0
 78
     1
 53
45.00000000000297
 43
0.0
 44
0.0
 45
-3.535533905932921
 46
3.535533905932555
 79
     0
 98
        0
1001
ACAD
1010
0.0
1020
0.0
1030
0.0
  0
LWPOLYLINE
  5
41B
330
1F
100
AcDbEntity
  8
Ech.1_5
 62
   190
370
     5
100
AcDbPolyline
 90
        5
 70
     0
 43
0.0
 10
13688.10887434212
 20
-1448.182121546044
 10
13688.10887434212
 20
-1434.804601072945
 10
13678.67621428089
 20
-1434.804601072945
 10
13678.67621428089
 20
-1448.182121546044
 10
13688.10887434212
 20
-1448.182121546044
  0
HATCH
  5
41C
330
1F
100
AcDbEntity
  8
Ech.1_5
 62
   254
420
 15326711
440
 33554687
370
     5
100
AcDbHatch
 10
0.0
 20
0.0
 30
0.0
210
0.0
220
0.0
230
1.0
  2
SOLID
 70
     1
 71
     1
 91
        1
 92
        3
 72
     0
 73
     1
 93
        4
 10
13678.67621428089
 20
-1448.182121546044
 10
13678.67621428089
 20
-1454.9711127357
 10
13688.10887434212
 20
-1454.9711127357
 10
13688.10887434212
 20
-1448.182121546044
 97
        0
 75
     0
 76
     1
 98
        0
  0
HATCH
  5
41D
330
1F
100
AcDbEntity
  8
Ech.1_5
 62
   190
440
 33554687
370
    15
100
AcDbHatch
 10
0.0
 20
0.0
 30
0.0
210
0.0
220
0.0
230
1.0
  2
CwHatchPattern_11
 70
     0
 71
     1
 91
        1
 92
        3
 72
     0
 73
     1
 93
        4
 10
13678.67621428089
 20
-1448.182121546044
 10
13678.67621428089
 20
-1454.9711127357
 10
13688.10887434212
 20
-1454.9711127357
 10
13688.10887434212
 20
-1448.182121546044
 97
        0
 75
     0
 76
     2
 52
0.0
 41
1.0
 77
     0
 78
     1
 53
45.00000000000297
 43
0.0
 44
0.0
 45
-3.535533905932921
 46
3.535533905932555
 79
     0
 98
        0
1001
ACAD
1010
0.0
1020
0.0
1030
0.0
  0
LWPOLYLINE
  5
41E
330
1F
100
AcDbEntity
  8
Ech.1_5
 62
   190
370
     5
100
AcDbPolyline
 90
        5
 70
     0
 43
0.0
 10
13678.67621428089
 20
-1448.182121546044
 10
13678.67621428089
 20
-1454.9711127357
 10
13688.10887434212
 20
-1454.9711127357
 10
13688.10887434212
 20
-1448.182121546044
 10
13678.67621428089
 20
-1448.182121546044
  0
LWPOLYLINE
  5
41F
330
1F
100
AcDbEntity
  8
Ech.1_5
 62
   190
370
     5
100
AcDbPolyline
 90
        5
 70
     0
 43
0.0
 10
13688.10887434212
 20
-1448.182121546044
 10
13688.10887434212
 20
-1434.804601072945
 10
13678.67621428089
 20
-1434.804601072945
 10
13678.67621428089
 20
-1448.182121546044
 10
13688.10887434212
 20
-1448.182121546044
  0
LWPOLYLINE
  5
420
330
1F
100
AcDbEntity
  8
Ech.1_5
 62
   190
370
     5
100
AcDbPolyline
 90
        5
 70
     0
 43
0.0
 10
13678.67621428089
 20
-1448.182121546044
 10
13678.67621428089
 20
-1454.9711127357
 10
13688.10887434212
 20
-1454.9711127357
 10
13688.10887434212
 20
-1448.182121546044
 10
13678.67621428089
 20
-1448.182121546044
  0
LWPOLYLINE
  5
421
330
1F
100
AcDbEntity
  8
Ech.1_5
 62
   190
370
     5
100
AcDbPolyline
 90
        5
 70
     0
 43
0.0
 10
13688.10887434212
 20
-1448.182121546044
 10
13688.10887434212
 20
-1434.804601072945
 10
13678.67621428089
 20
-1434.804601072945
 10
13678.67621428089
 20
-1448.182121546044
 10
13688.10887434212
 20
-1448.182121546044
  0
LWPOLYLINE
  5
422
330
1F
100
AcDbEntity
  8
Ech.1_5
 62
   190
370
    15
100
AcDbPolyline
 90
        5
 70
     0
 43
0.0
 10
13678.67621428089
 20
-1448.182121546044
 10
13678.67621428089
 20
-1454.9711127357
 10
13688.10887434212
 20
-1454.9711127357
 10
13688.10887434212
 20
-1448.182121546044
 10
13678.67621428089
 20
-1448.182121546044
  0
LWPOLYLINE
  5
423
330
1F
100
AcDbEntity
  8
Ech.1_5
 62
   190
370
    15
100
AcDbPolyline
 90
        5
 70
     0
 43
0.0
 10
13678.67621428089
 20
-1434.80460107293
 10
13678.67621428089
 20
-1448.182121546044
 10
13688.10887434212
 20
-1448.182121546044
 10
13688.10887434212
 20
-1434.80460107293
 10
13678.67621428089
 20
-1434.80460107293
  0
HATCH
  5
424
330
1F
100
AcDbEntity
  8
Ech.1_5
 62
   254
420
 15326711
440
 33554687
370
     5
100
AcDbHatch
 10
0.0
 20
0.0
 30
0.0
210
0.0
220
0.0
230
1.0
  2
SOLID
 70
     1
 71
     1
 91
        1
 92
        3
 72
     0
 73
     1
 93
        4
 10
14006.77299977743
 20
-1448.182121546044
 10
14006.77299977743
 20
-1434.804601072945
 10
13997.34033971621
 20
-1434.804601072945
 10
13997.34033971621
 20
-1448.182121546044
 97
        0
 75
     0
 76
     1
 98
        0
  0
HATCH
  5
425
330
1F
100
AcDbEntity
  8
Ech.1_5
 62
   190
440
 33554687
370
    15
100
AcDbHatch
 10
0.0
 20
0.0
 30
0.0
210
0.0
220
0.0
230
1.0
  2
CwHatchPattern_11
 70
     0
 71
     1
 91
        1
 92
        3
 72
     0
 73
     1
 93
        4
 10
14006.77299977743
 20
-1448.182121546044
 10
14006.77299977743
 20
-1434.804601072945
 10
13997.34033971621
 20
-1434.804601072945
 10
13997.34033971621
 20
-1448.182121546044
 97
        0
 75
     0
 76
     2
 52
0.0
 41
1.0
 77
     0
 78
     1
 53
45.00000000000297
 43
0.0
 44
0.0
 45
-3.535533905932921
 46
3.535533905932555
 79
     0
 98
        0
1001
ACAD
1010
0.0
1020
0.0
1030
0.0
  0
LWPOLYLINE
  5
426
330
1F
100
AcDbEntity
  8
Ech.1_5
 62
   190
370
     5
100
AcDbPolyline
 90
        5
 70
     0
 43
0.0
 10
14006.77299977743
 20
-1448.182121546044
 10
14006.77299977743
 20
-1434.804601072945
 10
13997.34033971621
 20
-1434.804601072945
 10
13997.34033971621
 20
-1448.182121546044
 10
14006.77299977743
 20
-1448.182121546044
  0
HATCH
  5
427
330
1F
100
AcDbEntity
  8
Ech.1_5
 62
   254
420
 15326711
440
 33554687
370
     5
100
AcDbHatch
 10
0.0
 20
0.0
 30
0.0
210
0.0
220
0.0
230
1.0
  2
SOLID
 70
     1
 71
     1
 91
        1
 92
        3
 72
     0
 73
     1
 93
        4
 10
13997.34033971621
 20
-1448.182121546044
 10
13997.34033971621
 20
-1454.9711127357
 10
14006.77299977743
 20
-1454.9711127357
 10
14006.77299977743
 20
-1448.182121546044
 97
        0
 75
     0
 76
     1
 98
        0
  0
HATCH
  5
428
330
1F
100
AcDbEntity
  8
Ech.1_5
 62
   190
440
 33554687
370
    15
100
AcDbHatch
 10
0.0
 20
0.0
 30
0.0
210
0.0
220
0.0
230
1.0
  2
CwHatchPattern_11
 70
     0
 71
     1
 91
        1
 92
        3
 72
     0
 73
     1
 93
        4
 10
13997.34033971621
 20
-1448.182121546044
 10
13997.34033971621
 20
-1454.9711127357
 10
14006.77299977743
 20
-1454.9711127357
 10
14006.77299977743
 20
-1448.182121546044
 97
        0
 75
     0
 76
     2
 52
0.0
 41
1.0
 77
     0
 78
     1
 53
45.00000000000297
 43
0.0
 44
0.0
 45
-3.535533905932921
 46
3.535533905932555
 79
     0
 98
        0
1001
ACAD
1010
0.0
1020
0.0
1030
0.0
  0
LWPOLYLINE
  5
429
330
1F
100
AcDbEntity
  8
Ech.1_5
 62
   190
370
     5
100
AcDbPolyline
 90
        5
 70
     0
 43
0.0
 10
13997.34033971621
 20
-1448.182121546044
 10
13997.34033971621
 20
-1454.9711127357
 10
14006.77299977743
 20
-1454.9711127357
 10
14006.77299977743
 20
-1448.182121546044
 10
13997.34033971621
 20
-1448.182121546044
  0
LWPOLYLINE
  5
42A
330
1F
100
AcDbEntity
  8
Ech.1_5
 62
   190
370
     5
100
AcDbPolyline
 90
        5
 70
     0
 43
0.0
 10
14006.77299977743
 20
-1448.182121546044
 10
14006.77299977743
 20
-1434.804601072945
 10
13997.34033971621
 20
-1434.804601072945
 10
13997.34033971621
 20
-1448.182121546044
 10
14006.77299977743
 20
-1448.182121546044
  0
LWPOLYLINE
  5
42B
330
1F
100
AcDbEntity
  8
Ech.1_5
 62
   190
370
     5
100
AcDbPolyline
 90
        5
 70
     0
 43
0.0
 10
13997.34033971621
 20
-1448.182121546044
 10
13997.34033971621
 20
-1454.9711127357
 10
14006.77299977743
 20
-1454.9711127357
 10
14006.77299977743
 20
-1448.182121546044
 10
13997.34033971621
 20
-1448.182121546044
  0
LWPOLYLINE
  5
42C
330
1F
100
AcDbEntity
  8
Ech.1_5
 62
   190
370
     5
100
AcDbPolyline
 90
        5
 70
     0
 43
0.0
 10
14006.77299977743
 20
-1448.182121546044
 10
14006.77299977743
 20
-1434.804601072945
 10
13997.34033971621
 20
-1434.804601072945
 10
13997.34033971621
 20
-1448.182121546044
 10
14006.77299977743
 20
-1448.182121546044
  0
LWPOLYLINE
  5
42D
330
1F
100
AcDbEntity
  8
Ech.1_5
 62
   190
370
    15
100
AcDbPolyline
 90
        5
 70
     0
 43
0.0
 10
13997.34033971621
 20
-1448.182121546044
 10
13997.34033971621
 20
-1454.9711127357
 10
14006.77299977743
 20
-1454.9711127357
 10
14006.77299977743
 20
-1448.182121546044
 10
13997.34033971621
 20
-1448.182121546044
  0
LWPOLYLINE
  5
42E
330
1F
100
AcDbEntity
  8
Ech.1_5
 62
   190
370
    15
100
AcDbPolyline
 90
        5
 70
     0
 43
0.0
 10
13997.34033971621
 20
-1434.80460107293
 10
13997.34033971621
 20
-1448.182121546044
 10
14006.77299977743
 20
-1448.182121546044
 10
14006.77299977743
 20
-1434.80460107293
 10
13997.34033971621
 20
-1434.80460107293
  0
LWPOLYLINE
  5
42F
330
1F
100
AcDbEntity
  8
Ech.1_5
 62
   154
420
    21156
370
    20
100
AcDbPolyline
 90
      194
 70
     0
 43
0.0
 10
14218.66770855999
 20
-890.1202049362619
 10
14219.59445961385
 20
-892.7954014078589
 10
14220.50233470384
 20
-895.4741458772567
 10
14220.94329502367
 20
-896.8159573604437
 10
14221.37245786608
 20
-898.159986342256
 10
14221.78746373559
 20
-899.5066763224193
 10
14222.18595313672
 20
-900.856470800658
 10
14222.56556657397
 20
-902.2098132766976
 10
14222.92394455187
 20
-903.567147250263
 10
14223.25872757493
 20
-904.9289162210796
 10
14223.56755614766
 20
-906.2955636888721
 10
14223.84807077459
 20
-907.6675331533656
 10
14224.09791196023
 20
-909.0452681142857
 10
14224.3147202091
 20
-910.4292120713573
 10
14224.49613602571
 20
-911.8198085243052
 10
14224.63979991457
 20
-913.2175009728549
 10
14224.69673754376
 20
-913.9191467891441
 10
14224.74335238021
 20
-914.6227329167309
 10
14224.77934948698
 20
-915.3283147930806
 10
14224.80443392714
 20
-916.035947855659
 10
14224.81831076375
 20
-916.7456875419313
 10
14224.82068505988
 20
-917.4575892893638
 10
14224.81133044188
 20
-918.1716937886454
 10
14224.79088522456
 20
-918.8878557509545
 10
14224.721654785
 20
-920.3252593279535
 10
14224.62291484541
 20
-921.7676021757912
 10
14224.50459801364
 20
-923.2126839756656
 10
14224.24896410496
 20
-926.1022631563171
 10
14224.13151224375
 20
-927.5423598994905
 10
14224.03421392176
 20
-928.9763943194937
 10
14223.96700174684
 20
-930.4021660975244
 10
14223.94778190448
 20
-931.1112658961745
 10
14223.93980832684
 20
-931.8174749147807
 10
14223.94432258988
 20
-932.5205181134934
 10
14223.9625662696
 20
-933.2201204524614
 10
14223.99578094198
 20
-933.9160068918352
 10
14224.04520818298
 20
-934.6079023917642
 10
14224.11208956861
 20
-935.2955319123984
 10
14224.19766667483
 20
-935.9786204138873
 10
14224.30318107763
 20
-936.656892856381
 10
14224.42987435299
 20
-937.330074200029
 10
14224.57898807689
 20
-937.9978894049813
 10
14224.75176382532
 20
-938.6600634313875
 10
14224.94944317425
 20
-939.3163212393974
 10
14225.17326769966
 20
-939.9663877891609
 10
14225.42447897754
 20
-940.6099880408275
 10
14225.70431164069
 20
-941.2468462625142
 10
14226.01329852439
 20
-941.8766167735058
 10
14226.35067817541
 20
-942.4988248901087
 10
14226.71554959541
 20
-943.1129820200367
 10
14227.10701178607
 20
-943.7185995710036
 10
14227.52416374906
 20
-944.3151889507232
 10
14227.96610448604
 20
-944.9022615669093
 10
14228.4319329987
 20
-945.479328827276
 10
14228.9207482887
 20
-946.045902139537
 10
14229.43164935772
 20
-946.6014929114065
 10
14229.96373520743
 20
-947.1456125505978
 10
14230.51610483949
 20
-947.6777724648251
 10
14231.08785725559
 20
-948.1974840618025
 10
14231.6780914574
 20
-948.7042587492433
 10
14232.28590644658
 20
-949.197607934862
 10
14232.91040122481
 20
-949.677043026372
 10
14233.55067479376
 20
-950.1420754314876
 10
14234.20582615511
 20
-950.5922165579221
 10
14234.87495431052
 20
-951.0269778133899
 10
14235.55715826167
 20
-951.4458706056047
 10
14236.25153701023
 20
-951.8484063422803
 10
14236.95718955787
 20
-952.2340964311306
 10
14237.67321490627
 20
-952.6024522798697
 10
14238.39871205709
 20
-952.952985296211
 10
14239.13278001201
 20
-953.2852068878685
 10
14239.8745177727
 20
-953.5986284625566
 10
14240.62302434084
 20
-953.8927614279886
 10
14241.37739871809
 20
-954.1671171918787
 10
14242.13673990612
 20
-954.4212071619404
 10
14242.90014690662
 20
-954.6545427458879
 10
14243.66671872125
 20
-954.866635351435
 10
14244.43555435168
 20
-955.0569963862957
 10
14245.20575279959
 20
-955.2251372581836
 10
14245.97641306664
 20
-955.3705693748127
 10
14246.74663415452
 20
-955.4928041438968
 10
14247.51551506489
 20
-955.5913529731499
 10
14248.28215479942
 20
-955.6657272702859
 10
14249.04565235979
 20
-955.7154384430186
 10
14249.80510674766
 20
-955.7399978990619
 10
14250.55961696472
 20
-955.7389170461292
 10
14251.30828201263
 20
-955.7117072919353
 10
14252.05020089307
 20
-955.6578800441933
 10
14252.7844726077
 20
-955.5769467106177
 10
14253.5101961582
 20
-955.4684186989219
 10
14254.22647054625
 20
-955.3318074168199
 10
14254.9323947735
 20
-955.1666242720253
 10
14255.62706784164
 20
-954.9723806722525
 10
14256.30958875235
 20
-954.7485880252152
 10
14256.97905650728
 20
-954.4947577386271
 10
14257.63457010812
 20
-954.2104012202024
 10
14258.27525622213
 20
-953.8950846151052
 10
14258.90064856932
 20
-953.5491794374724
 10
14259.51059072425
 20
-953.17367026038
 10
14260.10493403275
 20
-952.7695570325768
 10
14260.68352984063
 20
-952.3378397028115
 10
14261.24622949372
 20
-951.8795182198332
 10
14261.79288433782
 20
-951.3955925323904
 10
14262.32334571877
 20
-950.8870625892322
 10
14262.83746498237
 20
-950.3549283391069
 10
14263.33509347444
 20
-949.8001897307637
 10
14263.81608254081
 20
-949.223846712951
 10
14264.28028352729
 20
-948.6268992344179
 10
14264.72754777969
 20
-948.010347243913
 10
14265.15772664384
 20
-947.3751906901851
 10
14265.57067146556
 20
-946.7224295219831
 10
14265.96623359066
 20
-946.0530636880559
 10
14266.34426436496
 20
-945.3680931371518
 10
14266.70461513428
 20
-944.6685178180198
 10
14267.04713724443
 20
-943.9553376794087
 10
14267.37168204123
 20
-943.2295526700673
 10
14267.67810087051
 20
-942.4921627387446
 10
14267.96624507808
 20
-941.7441678341887
 10
14268.23596600975
 20
-940.9865679051492
 10
14268.48711501136
 20
-940.2203629003743
 10
14268.7195434287
 20
-939.4465527686131
 10
14268.93310260761
 20
-938.666137458614
 10
14269.12764389389
 20
-937.8801169191262
 10
14269.30301863338
 20
-937.0894910988982
 10
14269.45907817188
 20
-936.295259946679
 10
14269.59567385521
 20
-935.4984234112171
 10
14269.71265702919
 20
-934.6999814412615
 10
14269.80987903965
 20
-933.9009339855609
 10
14269.88719123238
 20
-933.1022809928639
 10
14269.94444495323
 20
-932.3050224119198
 10
14269.981491548
 20
-931.5101581914766
 10
14269.99818236251
 20
-930.718688280284
 10
14269.99436874258
 20
-929.9316126270899
 10
14269.96990203403
 20
-929.1499311806435
 10
14269.92463358267
 20
-928.3746438896937
 10
14269.85841473433
 20
-927.6067507029891
 10
14269.77109683481
 20
-926.8472515692782
 10
14269.66253122995
 20
-926.0971464373105
 10
14269.53256926556
 20
-925.3574352558342
 10
14269.38106228744
 20
-924.6291179735979
 10
14269.20786164143
 20
-923.9131945393508
 10
14269.01281867334
 20
-923.2106649018417
 10
14268.79578472899
 20
-922.5225290098191
 10
14268.5566111542
 20
-921.8497868120322
 10
14268.29514929478
 20
-921.193438257229
 10
14268.01125049655
 20
-920.5544832941591
 10
14267.70476610534
 20
-919.9339218715711
 10
14267.37557242235
 20
-919.3327068745193
 10
14267.02398529243
 20
-918.7509622472461
 10
14266.65069629854
 20
-918.1881033247741
 10
14266.25640911946
 20
-917.6435226304923
 10
14265.84182743397
 20
-917.1166126877905
 10
14265.40765492083
 20
-916.6067660200575
 10
14264.95459525882
 20
-916.1133751506828
 10
14264.48335212672
 20
-915.6358326030563
 10
14263.99462920329
 20
-915.1735309005663
 10
14263.48913016732
 20
-914.7258625666026
 10
14262.96755869757
 20
-914.2922201245548
 10
14262.43061847284
 20
-913.8719960978119
 10
14261.87901317187
 20
-913.4645830097633
 10
14261.31344647345
 20
-913.0693733837979
 10
14260.73462205636
 20
-912.6857597433058
 10
14260.14324359937
 20
-912.3131346116758
 10
14259.54001478124
 20
-911.9508905122972
 10
14258.92563928077
 20
-911.5984199685595
 10
14258.30082077671
 20
-911.2551155038519
 10
14257.66626294785
 20
-910.9203696415638
 10
14257.02266947296
 20
-910.5935749050846
 10
14256.37074403081
 20
-910.2741238178035
 10
14255.04471195984
 20
-909.6548226843925
 10
14253.69379616512
 20
-909.0576064284455
 10
14252.32362607687
 20
-908.4776152370779
 10
14250.93983112526
 20
-907.9099892974031
 10
14248.15388435274
 20
-906.7923939215913
 10
14246.76299139222
 20
-906.2327048596833
 10
14245.38099128912
 20
-905.6659417979266
 10
14244.01351347364
 20
-905.087244923436
 10
14242.66567121759
 20
-904.4921977663505
 10
14241.33843742811
 20
-903.8799401332504
 10
14240.03079373964
 20
-903.2513221911651
 10
14238.74170909424
 20
-902.6072050089882
 10
14237.47015243396
 20
-901.9484496556142
 10
14236.21509270085
 20
-901.2759171999365
 10
14234.97549883697
 20
-900.5904687108498
 10
14233.75033978436
 20
-899.8929652572473
 10
14232.53858448507
 20
-899.1842679080232
 10
14231.33920188117
 20
-898.4652377320722
 10
14230.15116091469
 20
-897.736735798287
 10
14228.9734305277
 20
-896.9996231755625
 10
14227.80497966223
 20
-896.2547609327921
 10
14225.49179226413
 20
-894.7452318626905
 10
14223.20335025677
 20
-893.2150371391336
 10
14220.93140517659
 20
-891.6710653132735
 10
14218.66770855999
 20
-890.1202049362619
  0
LWPOLYLINE
  5
430
330
1F
100
AcDbEntity
  8
Ech.1_5
 62
   154
420
    21156
370
    20
100
AcDbPolyline
 90
       95
 70
     0
 43
0.0
 10
14262.55661648318
 20
-919.3320678418822
 10
14262.50967632713
 20
-920.6690539498621
 10
14262.4622394261
 20
-922.0295297334586
 10
14262.43817946341
 20
-922.7259167772432
 10
14262.41380903511
 20
-923.4369848682882
 10
14262.38906604808
 20
-924.1656702160458
 10
14262.36388840919
 20
-924.9149090299679
 10
14262.33821402532
 20
-925.6876375195064
 10
14262.31198080335
 20
-926.486791894114
 10
14262.28512665015
 20
-927.315308363242
 10
14262.25758947261
 20
-928.1761231363431
 10
14262.2293071776
 20
-929.072172422869
 10
14262.200217672
 20
-930.0063924322722
 10
14262.18535081113
 20
-930.488734023506
 10
14262.17025886269
 20
-930.981719374004
 10
14262.13963356393
 20
-931.999230847483
 10
14262.11008150517
 20
-933.0492213406498
 10
14262.08389531156
 20
-934.1181061839397
 10
14262.06336833668
 20
-935.1922955969103
 10
14262.05079393414
 20
-936.2581997991186
 10
14262.04846545753
 20
-937.302229010122
 10
14262.05186011445
 20
-937.8117936875335
 10
14262.05867626045
 20
-938.3107934494777
 10
14262.06920056473
 20
-938.7975295733996
 10
14262.0837196965
 20
-939.2703033367433
 10
14262.10252032494
 20
-939.7274160169536
 10
14262.12588911927
 20
-940.1671688914756
 10
14262.15411274867
 20
-940.5878632377536
 10
14262.18747788236
 20
-940.9878003332323
 10
14262.22627118953
 20
-941.3652814553564
 10
14262.27077933937
 20
-941.7186078815706
 10
14262.32128900109
 20
-942.0460808893195
 10
14262.37808684389
 20
-942.3460017560477
 10
14262.44145953697
 20
-942.6166717592
 10
14262.51169374953
 20
-942.856392176221
 10
14262.58907615077
 20
-943.0634642845554
 10
14262.67389340988
 20
-943.2361893616477
 10
14262.76643219606
 20
-943.3728686849428
 10
14262.86697917853
 20
-943.4718035318853
 10
14262.92034532748
 20
-943.5065859259256
 10
14262.97582102646
 20
-943.5312951799199
 10
14263.03344210911
 20
-943.5457189535477
 10
14263.09324440907
 20
-943.5496449064906
 10
14263.15526203026
 20
-943.542866261281
 10
14263.21946862546
 20
-943.5253706507707
 10
14263.28576303753
 20
-943.4973862959466
 10
14263.35403946689
 20
-943.4591563479016
 10
14263.4961151791
 20
-943.3529322765218
 10
14263.64484936536
 20
-943.2086436453748
 10
14263.79939562892
 20
-943.0282356632034
 10
14263.95890757308
 20
-942.8136535387525
 10
14264.12253880109
 20
-942.5668424807652
 10
14264.28944291622
 20
-942.2897476979853
 10
14264.45877352175
 20
-941.9843143991562
 10
14264.62968422095
 20
-941.652487793022
 10
14264.80132861708
 20
-941.2962130883265
 10
14264.97286031341
 20
-940.9174354938126
 10
14265.14343291322
 20
-940.5181002182247
 10
14265.31220001978
 20
-940.1001524703063
 10
14265.47831523635
 20
-939.6655374588012
 10
14265.64093216621
 20
-939.2162003924528
 10
14265.79920441262
 20
-938.7540864800051
 10
14265.95228557886
 20
-938.2811409302014
 10
14266.23948908389
 20
-937.310535753502
 10
14266.49577150747
 20
-936.3199465323037
 10
14266.61020132188
 20
-935.8220209268765
 10
14266.71436167574
 20
-935.3249349365561
 10
14266.80740617232
 20
-934.8306337700856
 10
14266.88848841488
 20
-934.3410626362088
 10
14266.95676357168
 20
-933.858163910364
 10
14267.01172259504
 20
-933.383272049036
 10
14267.05360759444
 20
-932.9163615793631
 10
14267.08276262312
 20
-932.4572224647227
 10
14267.09953173434
 20
-932.005644668492
 10
14267.10425898139
 20
-931.5614181540491
 10
14267.0972884175
 20
-931.1243328847708
 10
14267.07896409595
 20
-930.6941788240351
 10
14267.04963007
 20
-930.2707459352193
 10
14267.00963039291
 20
-929.8538241817014
 10
14266.95930911795
 20
-929.4432035268582
 10
14266.89901029838
 20
-929.0386739340672
 10
14266.82907798745
 20
-928.6400253667066
 10
14266.74985623844
 20
-928.247047788153
 10
14266.66168910459
 20
-927.8595311617848
 10
14266.56492063919
 20
-927.4772654509788
 10
14266.34695592675
 20
-926.7276466295646
 10
14266.0987145272
 20
-925.99651103093
 10
14265.82294886665
 20
-925.2821783620956
 10
14265.5224113712
 20
-924.5829683300808
 10
14265.19985446695
 20
-923.8972006419062
 10
14264.85803058
 20
-923.2231950045916
 10
14264.49969213645
 20
-922.5592711251566
 10
14264.1275915624
 20
-921.9037487106218
 10
14263.35311372719
 20
-920.6111871043321
 10
14262.55661648318
 20
-919.3320678418822
  0
LWPOLYLINE
  5
431
330
1F
100
AcDbEntity
  8
Ech.1_5
 62
   154
420
    21156
370
    20
100
AcDbPolyline
 90
      171
 70
     0
 43
0.0
 10
14187.70930204459
 20
-905.1861461908702
 10
14188.54273421543
 20
-908.0833614477539
 10
14188.94229841339
 20
-909.5351455006681
 10
14189.32128034639
 20
-910.9907412629498
 10
14189.67281925945
 20
-912.4514193043874
 10
14189.99005439758
 20
-913.9184501947703
 10
14190.13366406511
 20
-914.6547450113753
 10
14190.26612500579
 20
-915.3931045038873
 10
14190.38657962525
 20
-916.1336874935301
 10
14190.4941703291
 20
-916.8766528015275
 10
14190.58803952299
 20
-917.6221592491029
 10
14190.66732961253
 20
-918.3703656574801
 10
14190.73118300336
 20
-919.1214308478824
 10
14190.77874210109
 20
-919.8755136415339
 10
14190.80914931136
 20
-920.6327728596577
 10
14190.82154703979
 20
-921.393367323478
 10
14190.81507769201
 20
-922.1574558542179
 10
14190.78888367364
 20
-922.9251972731015
 10
14190.74286553069
 20
-923.6965856835426
 10
14190.68113964458
 20
-924.4706992330089
 10
14190.53285915449
 20
-926.0221479008884
 10
14190.38863818067
 20
-927.5696340695707
 10
14190.33198668991
 20
-928.3387944950404
 10
14190.29307409129
 20
-929.1032482297041
 10
14190.27747505582
 20
-929.8617565848928
 10
14190.29076425452
 20
-930.6130808719375
 10
14190.33851635841
 20
-931.3559824021693
 10
14190.3770580845
 20
-931.7238875432712
 10
14190.42630603852
 20
-932.0892224869193
 10
14190.48695705434
 20
-932.4518323970295
 10
14190.55970796585
 20
-932.8115624375183
 10
14190.64525560693
 20
-933.1682577723024
 10
14190.74429681145
 20
-933.5217635652978
 10
14190.85752841328
 20
-933.8719249804209
 10
14190.98564724632
 20
-934.2185871815884
 10
14191.12935014442
 20
-934.5615953327163
 10
14191.28928530926
 20
-934.900788658537
 10
14191.46542213827
 20
-935.2359234851731
 10
14191.65723140607
 20
-935.5666952446985
 10
14191.86417236978
 20
-935.8927979626172
 10
14192.08570428654
 20
-936.2139256644333
 10
14192.32128641345
 20
-936.5297723756513
 10
14192.57037800764
 20
-936.8400321217755
 10
14192.83243832622
 20
-937.1443989283101
 10
14193.10692662632
 20
-937.442566820759
 10
14193.39330216506
 20
-937.7342298246269
 10
14193.69102419955
 20
-938.0190819654176
 10
14193.99955198692
 20
-938.2968172686357
 10
14194.31834478429
 20
-938.5671297597854
 10
14194.64686184878
 20
-938.8297134643707
 10
14194.98456243751
 20
-939.0842624078961
 10
14195.33090580759
 20
-939.3304706158657
 10
14195.68535121616
 20
-939.5680321137837
 10
14196.04735792032
 20
-939.7966409271546
 10
14196.4163851772
 20
-940.0159910814821
 10
14196.79189224392
 20
-940.2257766022709
 10
14197.1733383776
 20
-940.425691515025
 10
14197.56018283536
 20
-940.6154298452491
 10
14197.95188487432
 20
-940.7946856184471
 10
14198.34790375161
 20
-940.963152860123
 10
14198.74769872433
 20
-941.1205255957814
 10
14199.15072904961
 20
-941.2664978509266
 10
14199.55645398457
 20
-941.4007636510623
 10
14199.96433278634
 20
-941.5230170216931
 10
14200.37382471203
 20
-941.6329519883235
 10
14200.78438901876
 20
-941.7302625764574
 10
14201.19548496365
 20
-941.8146428115991
 10
14201.60657180382
 20
-941.8857867192528
 10
14202.0171087964
 20
-941.9433883249229
 10
14202.4265551985
 20
-941.9871416541135
 10
14202.83437026724
 20
-942.016740732329
 10
14203.24001325974
 20
-942.0318795850733
 10
14203.64294343313
 20
-942.032252237851
 10
14204.04262004452
 20
-942.0175527161662
 10
14204.43850235104
 20
-941.9874750455231
 10
14204.8300496098
 20
-941.9417132514258
 10
14205.21672107792
 20
-941.8799613593789
 10
14205.59797601253
 20
-941.8019133948865
 10
14205.97327367074
 20
-941.7072633834525
 10
14206.34207330968
 20
-941.5957053505817
 10
14206.70383418646
 20
-941.4669333217778
 10
14207.05801555821
 20
-941.3206413225457
 10
14207.40407774083
 20
-941.1565256410929
 10
14207.7416171087
 20
-940.9745733341354
 10
14208.07049866746
 20
-940.775345546066
 10
14208.39061890773
 20
-940.5594707073653
 10
14208.70187432011
 20
-940.327577248514
 10
14209.00416139523
 20
-940.0802935999933
 10
14209.29737662371
 20
-939.8182481922836
 10
14209.58141649616
 20
-939.5420694558654
 10
14209.8561775032
 20
-939.2523858212201
 10
14210.12155613544
 20
-938.9498257188278
 10
14210.37744888351
 20
-938.6350175791696
 10
14210.62375223802
 20
-938.3085898327256
 10
14210.86036268959
 20
-937.9711709099776
 10
14211.08717672883
 20
-937.6233892414054
 10
14211.30409084637
 20
-937.2658732574902
 10
14211.51100153282
 20
-936.8992513887125
 10
14211.70780527879
 20
-936.5241520655533
 10
14211.89439857491
 20
-936.1412037184931
 10
14212.0706779118
 20
-935.7510347780126
 10
14212.23653978006
 20
-935.3542736745928
 10
14212.39188067032
 20
-934.9515488387141
 10
14212.53659707319
 20
-934.5434887008574
 10
14212.6705854793
 20
-934.1307216915036
 10
14212.79374237925
 20
-933.7138762411331
 10
14212.90596426367
 20
-933.2935807802269
 10
14213.00714762317
 20
-932.8704637392656
 10
14213.09718894837
 20
-932.4451535487298
 10
14213.17598472989
 20
-932.0182786391002
 10
14213.24343145835
 20
-931.5904674408582
 10
14213.29942562436
 20
-931.1623483844837
 10
14213.34386371854
 20
-930.7345499004581
 10
14213.3766422315
 20
-930.3077004192613
 10
14213.39765765387
 20
-929.8824283713749
 10
14213.40680647626
 20
-929.4593621872791
 10
14213.40398518928
 20
-929.0391302974547
 10
14213.38909028357
 20
-928.6223611323826
 10
14213.36201824973
 20
-928.2096831225434
 10
14213.32266557838
 20
-927.8017246984182
 10
14213.27092876013
 20
-927.3991142904872
 10
14213.20670428561
 20
-927.0024803292313
 10
14213.12988864544
 20
-926.6124512451312
 10
14213.04037833022
 20
-926.2296554686677
 10
14212.93806983058
 20
-925.8547214303218
 10
14212.82285963714
 20
-925.4882775605737
 10
14212.6946442405
 20
-925.1309522899044
 10
14212.5533201313
 20
-924.7833740487949
 10
14212.39878380014
 20
-924.4461712677253
 10
14212.23093173764
 20
-924.119972377177
 10
14212.04967971766
 20
-923.8053705198876
 10
14211.85525354257
 20
-923.502391495502
 10
14211.64812916962
 20
-923.2106033276872
 10
14211.4287896914
 20
-922.9295609825849
 10
14211.19771820053
 20
-922.6588194263369
 10
14210.95539778961
 20
-922.3979336250858
 10
14210.70231155122
 20
-922.1464585449727
 10
14210.43894257799
 20
-921.9039491521401
 10
14210.16577396252
 20
-921.6699604127298
 10
14209.88328879741
 20
-921.4440472928837
 10
14209.59197017527
 20
-921.2257647587438
 10
14209.29230118869
 20
-921.014667776452
 10
14208.98476493029
 20
-920.8103113121505
 10
14208.34802296843
 20
-920.4200398020852
 10
14207.68560903052
 20
-920.0513899576838
 10
14207.00138785738
 20
-919.7008015080819
 10
14206.29922418987
 20
-919.3647141824151
 10
14205.5829827688
 20
-919.0395677098189
 10
14204.12372562933
 20
-918.407856240381
 10
14202.65453436567
 20
-917.7771849328534
 10
14201.92587528935
 20
-917.4533386626449
 10
14201.20632690448
 20
-917.1190716203207
 10
14200.49975395189
 20
-916.7708235350167
 10
14199.80984312641
 20
-916.4052015699915
 10
14199.13773294025
 20
-916.0212091944156
 10
14198.48265795291
 20
-915.6196403508708
 10
14197.84380696445
 20
-915.2013320140221
 10
14197.22036877491
 20
-914.7671211585347
 10
14196.61153218436
 20
-914.3178447590739
 10
14196.01648599286
 20
-913.8543397903045
 10
14195.43441900045
 20
-913.3774432268923
 10
14194.86452000721
 20
-912.8879920435024
 10
14194.30597781317
 20
-912.3868232147995
 10
14193.7579812184
 20
-911.8747737154492
 10
14193.21971902295
 20
-911.3526805201167
 10
14192.69038002689
 20
-910.8213806034669
 10
14192.16915303026
 20
-910.2817109401652
 10
14191.65522683313
 20
-909.7345085048767
 10
14190.64603203757
 20
-908.6208532170006
 10
14189.65630604066
 20
-907.4871105371597
 10
14187.70930204459
 20
-905.1861461908702
  0
LWPOLYLINE
  5
432
330
1F
100
AcDbEntity
  8
Ech.1_5
 62
   154
420
    21156
370
    20
100
AcDbPolyline
 90
       70
 70
     0
 43
0.0
 10
14209.65375459713
 20
-923.8195990027161
 10
14209.54583611199
 20
-924.4978675745289
 10
14209.43794933579
 20
-925.187466720574
 10
14209.3301259775
 20
-925.8997270150837
 10
14209.22239774605
 20
-926.6459790322901
 10
14209.16857921194
 20
-927.0353927413523
 10
14209.1147963504
 20
-927.4375533464258
 10
14209.06105312505
 20
-927.8538771692898
 10
14209.00735349951
 20
-928.2857805317233
 10
14208.95370143738
 20
-928.7346797555048
 10
14208.9001009023
 20
-929.2019911624138
 10
14208.84655585788
 20
-929.6891310742295
 10
14208.79319422578
 20
-930.196916072122
 10
14208.74119354655
 20
-930.7210844131788
 10
14208.69225963987
 20
-931.2548184052209
 10
14208.61043148573
 20
-932.3236348575049
 10
14208.58095690906
 20
-932.8450430753683
 10
14208.56138844651
 20
-933.3486684594602
 10
14208.55343593347
 20
-933.8276738885914
 10
14208.55880920534
 20
-934.2752222415728
 10
14208.56702733417
 20
-934.4850634141355
 10
14208.5792180975
 20
-934.6844763972151
 10
14208.59559522476
 20
-934.8726065506625
 10
14208.61637244536
 20
-935.0485992343295
 10
14208.64176348872
 20
-935.2115998080664
 10
14208.67198208429
 20
-935.3607536317257
 10
14208.70724196147
 20
-935.4952060651583
 10
14208.74775684969
 20
-935.6141024682155
 10
14208.79374047838
 20
-935.7165882007488
 10
14208.84540657696
 20
-935.8018086226094
 10
14208.90296887485
 20
-935.8689090936488
 10
14208.96664110148
 20
-935.917034973718
 10
14209.03663698627
 20
-935.9453316226687
 10
14209.1131516482
 20
-935.9529874128002
 10
14209.19600653502
 20
-935.9400543449832
 10
14209.28467734346
 20
-935.9073835195578
 10
14209.37862675436
 20
-935.855856119089
 10
14209.47731744859
 20
-935.7863533261412
 10
14209.58021210702
 20
-935.69975632328
 10
14209.68677341052
 20
-935.5969462930694
 10
14209.79646403993
 20
-935.4788044180741
 10
14209.90874667612
 20
-935.3462118808593
 10
14210.02308399997
 20
-935.2000498639894
 10
14210.13893869234
 20
-935.0411995500294
 10
14210.25577343407
 20
-934.870542121544
 10
14210.37305090604
 20
-934.6889587610976
 10
14210.60678476415
 20
-934.2965389745822
 10
14210.83584171357
 20
-933.8709896510013
 10
14211.0559232012
 20
-933.4193602508723
 10
14211.26273067394
 20
-932.9487002347134
 10
14211.45196557871
 20
-932.4660590630433
 10
14211.6193293624
 20
-931.9784861963793
 10
14211.76052347192
 20
-931.4930310952396
 10
14211.87126350404
 20
-931.0167249729251
 10
14211.94913697163
 20
-930.5541850787433
 10
14211.99545620202
 20
-930.1052252586943
 10
14212.0119742084
 20
-929.6690910642155
 10
14212.00044400394
 20
-929.2450280467436
 10
14211.96261860182
 20
-928.8322817577161
 10
14211.90025101521
 20
-928.4300977485697
 10
14211.8150942573
 20
-928.0377215707413
 10
14211.70890134127
 20
-927.6543987756686
 10
14211.58342528028
 20
-927.2793749147883
 10
14211.44041908752
 20
-926.911895539537
 10
14211.28163577616
 20
-926.5512062013524
 10
14211.10882835939
 20
-926.1965524516716
 10
14210.92374985037
 20
-925.8471798419309
 10
14210.52379160833
 20
-925.1612602480202
 10
14210.09578515544
 20
-924.4874118311164
 10
14209.65375459713
 20
-923.8195990027161
  0
CIRCLE
  5
433
330
1F
100
AcDbEntity
  8
Ech.1_5
 62
   154
420
    21156
370
    50
100
AcDbCircle
 10
14220.75340269027
 20
-920.7432264048493
 30
0.0
 40
74.99236516096244
  0
HATCH
  5
434
330
1F
100
AcDbEntity
  8
Ech.1_5
 62
    17
420
  8405056
440
 33554687
370
    20
100
AcDbHatch
 10
0.0
 20
0.0
 30
0.0
210
0.0
220
0.0
230
1.0
  2
SOLID
 70
     1
 71
     1
 91
        1
 92
        3
 72
     0
 73
     1
 93
        4
 10
13393.51017923329
 20
-1528.971112735708
 10
13679.67661607145
 20
-1528.971112735708
 10
13679.67661607145
 20
-1491.971112735708
 10
13393.5100368032
 20
-1491.971112735708
 97
        0
 75
     0
 76
     1
 98
        0
  0
LWPOLYLINE
  5
435
330
1F
100
AcDbEntity
  8
Ech.1_5
 62
     7
370
    20
100
AcDbPolyline
 90
        5
 70
     0
 43
0.0
 10
13393.51017923329
 20
-1528.971112735708
 10
13679.67661607145
 20
-1528.971112735708
 10
13679.67661607145
 20
-1491.971112735708
 10
13393.5100368032
 20
-1491.971112735708
 10
13393.51017923329
 20
-1528.971112735708
  0
LINE
  5
436
330
1F
100
AcDbEntity
  8
Ech.1_5
 62
     7
370
    18
100
AcDbLine
 10
13393.5100368032
 20
-1491.971112735708
 30
0.0
 11
13679.67661607145
 21
-1491.971112735708
 31
0.0
  0
LINE
  5
437
330
1F
100
AcDbEntity
  8
Ech.1_5
 62
     7
370
    18
100
AcDbLine
 10
13393.51017923329
 20
-1528.971112735708
 30
0.0
 11
13679.67661607145
 21
-1528.971112735708
 31
0.0
  0
LINE
  5
438
330
1F
100
AcDbEntity
  8
Ech.1_5
 62
   190
370
    15
100
AcDbLine
 10
13393.51010552781
 20
-1509.824156691531
 30
0.0
 11
13679.67661607145
 21
-1509.824156691531
 31
0.0
  0
HATCH
  5
439
330
1F
100
AcDbEntity
  8
Ech.1_5
 62
    17
420
  8405056
440
 33554687
370
    20
100
AcDbHatch
 10
0.0
 20
0.0
 30
0.0
210
0.0
220
0.0
230
1.0
  2
SOLID
 70
     1
 71
     1
 91
        1
 92
        3
 72
     0
 73
     1
 93
        4
 10
14291.93996801179
 20
-1528.971112735708
 10
14006.06587370388
 20
-1528.971112735708
 10
14006.06587370388
 20
-1491.971112735708
 10
14291.94011044188
 20
-1491.971112735708
 97
        0
 75
     0
 76
     1
 98
        0
  0
LWPOLYLINE
  5
43A
330
1F
100
AcDbEntity
  8
Ech.1_5
 62
     7
370
    20
100
AcDbPolyline
 90
        5
 70
     0
 43
0.0
 10
14291.93996801179
 20
-1528.971112735708
 10
14006.06587370388
 20
-1528.971112735708
 10
14006.06587370388
 20
-1491.971112735708
 10
14291.94011044188
 20
-1491.971112735708
 10
14291.93996801179
 20
-1528.971112735708
  0
LINE
  5
43B
330
1F
100
AcDbEntity
  8
Ech.1_5
 62
     7
370
    18
100
AcDbLine
 10
14291.94011044188
 20
-1491.971112735708
 30
0.0
 11
14006.06587370388
 21
-1491.971112735708
 31
0.0
  0
LINE
  5
43C
330
1F
100
AcDbEntity
  8
Ech.1_5
 62
     7
370
    18
100
AcDbLine
 10
14291.93996801179
 20
-1528.971112735708
 30
0.0
 11
14006.06587370388
 21
-1528.971112735708
 31
0.0
  0
LINE
  5
43D
330
1F
100
AcDbEntity
  8
Ech.1_5
 62
   190
370
    15
100
AcDbLine
 10
14291.94004171727
 20
-1509.824156691531
 30
0.0
 11
14006.06587370388
 21
-1509.824156691531
 31
0.0
  0
LWPOLYLINE
  5
43E
330
1F
100
AcDbEntity
  8
Ech.1_5
 62
   190
370
    15
100
AcDbPolyline
 90
        6
 70
     0
 43
0.0
 10
13393.51023995908
 20
-1545.267857833423
 10
13393.50967246289
 20
-1382.971112706393
 10
13375.5323240555
 20
-1366.48560955048
 10
13411.4880240673
 20
-1380.595549568287
 10
13393.50967246288
 20
-1364.109195486744
 10
13393.50965330853
 20
-1203.212639022342
  0
LWPOLYLINE
  5
43F
330
1F
100
AcDbEntity
  8
Ech.1_5
 62
   190
370
    15
100
AcDbPolyline
 90
        6
 70
     0
 43
0.0
 10
14291.93996801179
 20
-1545.267857833423
 10
14291.93996801179
 20
-1392.971112706393
 10
14273.9626196044
 20
-1376.48560955048
 10
14309.9183196162
 20
-1390.595549568287
 10
14291.93996801178
 20
-1374.109195486744
 10
14291.93996801178
 20
-1203.692542234159
  0
HATCH
  5
440
330
1F
100
AcDbEntity
  8
Ech.1_5
 62
    35
420
  9529928
440
 33554687
370
     5
100
AcDbHatch
 10
0.0
 20
0.0
 30
0.0
210
0.0
220
0.0
230
1.0
  2
SOLID
 70
     1
 71
     1
 91
        1
 92
        3
 72
     0
 73
     1
 93
        4
 10
14071.57033449702
 20
-1491.971112735708
 10
14071.57033449702
 20
-1454.971123866417
 10
14031.57033449702
 20
-1454.971123866417
 10
14031.57033449702
 20
-1491.971112735708
 97
        0
 75
     0
 76
     1
 98
        0
  0
LWPOLYLINE
  5
441
330
1F
100
AcDbEntity
  8
Ech.1_5
 62
   190
370
    15
100
AcDbPolyline
 90
        5
 70
     0
 43
0.0
 10
14071.57033449702
 20
-1491.971112735708
 10
14071.57033449702
 20
-1454.971123866417
 10
14031.57033449702
 20
-1454.971123866417
 10
14031.57033449702
 20
-1491.971112735708
 10
14071.57033449702
 20
-1491.971112735708
  0
LINE
  5
442
330
1F
100
AcDbEntity
  8
Ech.1_5
 62
   190
370
    15
100
AcDbLine
 10
14031.57033449702
 20
-1454.971123866417
 30
0.0
 11
14071.57033449702
 21
-1491.971112735708
 31
0.0
  0
LINE
  5
443
330
1F
100
AcDbEntity
  8
Ech.1_5
 62
   190
370
    15
100
AcDbLine
 10
14031.57033449702
 20
-1491.971112735708
 30
0.0
 11
14071.57033449702
 21
-1454.971123866417
 31
0.0
  0
LWPOLYLINE
  5
444
330
1F
100
AcDbEntity
  8
Ech.1_5
 62
   190
370
    15
100
AcDbPolyline
 90
        5
 70
     0
 43
0.0
 10
14071.57033449702
 20
-1454.971123866417
 10
14031.57033449702
 20
-1454.971123866417
 10
14031.57033449702
 20
-1491.971112735708
 10
14071.57033449702
 20
-1491.971112735708
 10
14071.57033449702
 20
-1454.971123866417
  0
LWPOLYLINE
  5
445
330
1F
100
AcDbEntity
  8
Ech.1_5
 62
     5
370
    40
100
AcDbPolyline
 90
        5
 70
     0
 43
0.0
 10
14071.57033449702
 20
-1454.971123866417
 10
14031.57033449702
 20
-1454.971123866417
 10
14031.57033449702
 20
-1491.971112735708
 10
14071.57033449702
 20
-1491.971112735708
 10
14071.57033449702
 20
-1454.971123866417
  0
LWPOLYLINE
  5
446
330
1F
100
AcDbEntity
  8
Ech.1_5
 62
   190
370
    15
100
AcDbPolyline
 90
        3
 70
     0
 43
0.0
 10
14051.57033449702
 20
-1503.441106297243
 10
14051.57033449702
 20
-1633.461472302537
 10
14087.66377224767
 20
-1633.461472302537
  0
INSERT
  5
447
330
1F
100
AcDbEntity
  8
Ech.1_5
 62
   190
370
    15
100
AcDbBlockReference
  2
cw-line-extremity4
 10
14051.57033449702
 20
-1503.441106297243
 30
0.0
 50
270.0
  0
LWPOLYLINE
  5
448
330
1F
100
AcDbEntity
  8
Ech.1_5
 62
   190
370
    15
100
AcDbPolyline
 90
        3
 70
     0
 43
0.0
 10
13697.60995883903
 20
-1458.353914445208
 10
13697.60995883903
 20
-1696.405783439594
 10
13613.67621428089
 20
-1696.405783439594
  0
INSERT
  5
449
330
1F
100
AcDbEntity
  8
Ech.1_5
 62
   190
370
    15
100
AcDbBlockReference
  2
cw-line-extremity4
 10
13697.60995883903
 20
-1458.353914445208
 30
0.0
 50
270.0
  0
LWPOLYLINE
  5
44A
330
1F
100
AcDbEntity
  8
Ech.1_5
 62
   190
370
    15
100
AcDbPolyline
 90
        3
 70
     0
 43
0.0
 10
14002.05666974682
 20
-1448.182121546044
 10
14002.05666974682
 20
-1711.149161448993
 10
14087.66377224767
 20
-1711.149161448993
  0
INSERT
  5
44B
330
1F
100
AcDbEntity
  8
Ech.1_5
 62
   190
370
    15
100
AcDbBlockReference
  2
cw-line-extremity4
 10
14002.05666974682
 20
-1448.182121546044
 30
0.0
 50
270.0
  0
LWPOLYLINE
  5
44C
330
1F
100
AcDbEntity
  8
Ech.1_5
 62
   190
370
    15
100
AcDbPolyline
 90
        3
 70
     0
 43
0.0
 10
14067.66377224767
 20
-1376.364223285214
 10
14067.66377224767
 20
-1564.413360641905
 10
14087.66377224767
 20
-1564.413360641905
  0
INSERT
  5
44D
330
1F
100
AcDbEntity
  8
Ech.1_5
 62
   190
370
    15
100
AcDbBlockReference
  2
cw-line-extremity4
 10
14067.66377224767
 20
-1376.364223285214
 30
0.0
 50
270.0
  0
HATCH
  5
44E
330
1F
100
AcDbEntity
  8
Ech.1_5
 62
    35
420
  9529928
440
 33554687
370
     5
100
AcDbHatch
 10
0.0
 20
0.0
 30
0.0
210
0.0
220
0.0
230
1.0
  2
SOLID
 70
     1
 71
     1
 91
        1
 92
        3
 72
     0
 73
     1
 93
        4
 10
13653.67620315018
 20
-1491.971112735708
 10
13653.67620315018
 20
-1454.971123866417
 10
13613.67620315018
 20
-1454.971123866417
 10
13613.67620315018
 20
-1491.971112735708
 97
        0
 75
     0
 76
     1
 98
        0
  0
LWPOLYLINE
  5
44F
330
1F
100
AcDbEntity
  8
Ech.1_5
 62
   190
370
    15
100
AcDbPolyline
 90
        5
 70
     0
 43
0.0
 10
13653.67620315018
 20
-1491.971112735708
 10
13653.67620315018
 20
-1454.971123866417
 10
13613.67620315018
 20
-1454.971123866417
 10
13613.67620315018
 20
-1491.971112735708
 10
13653.67620315018
 20
-1491.971112735708
  0
LINE
  5
450
330
1F
100
AcDbEntity
  8
Ech.1_5
 62
   190
370
    15
100
AcDbLine
 10
13613.67620315018
 20
-1454.971123866417
 30
0.0
 11
13653.67620315018
 21
-1491.971112735708
 31
0.0
  0
LINE
  5
451
330
1F
100
AcDbEntity
  8
Ech.1_5
 62
   190
370
    15
100
AcDbLine
 10
13613.67620315018
 20
-1491.971112735708
 30
0.0
 11
13653.67620315018
 21
-1454.971123866417
 31
0.0
  0
LWPOLYLINE
  5
452
330
1F
100
AcDbEntity
  8
Ech.1_5
 62
   190
370
    15
100
AcDbPolyline
 90
        5
 70
     0
 43
0.0
 10
13653.67620315018
 20
-1454.971123866417
 10
13613.67620315018
 20
-1454.971123866417
 10
13613.67620315018
 20
-1491.971112735708
 10
13653.67620315018
 20
-1491.971112735708
 10
13653.67620315018
 20
-1454.971123866417
  0
LWPOLYLINE
  5
453
330
1F
100
AcDbEntity
  8
Ech.1_5
 62
     5
370
    40
100
AcDbPolyline
 90
        5
 70
     0
 43
0.0
 10
13653.67620315018
 20
-1454.971123866417
 10
13613.67620315018
 20
-1454.971123866417
 10
13613.67620315018
 20
-1491.971112735708
 10
13653.67620315018
 20
-1491.971112735708
 10
13653.67620315018
 20
-1454.971123866417
  0
LWPOLYLINE
  5
454
330
1F
100
AcDbEntity
  8
Ech.1_5
 62
   190
370
    15
100
AcDbPolyline
 90
        3
 70
     0
 43
0.0
 10
13633.67621428089
 20
-1478.4711127357
 10
13633.67621428089
 20
-1607.424659420394
 10
13613.67621428089
 20
-1607.424659420394
  0
INSERT
  5
455
330
1F
100
AcDbEntity
  8
Ech.1_5
 62
   190
370
    15
100
AcDbBlockReference
  2
cw-line-extremity4
 10
13633.67621428089
 20
-1478.4711127357
 30
0.0
 50
270.0
  0
DIMENSION
  5
457
102
{ACAD_REACTORS
330
458
102
}
330
1F
100
AcDbEntity
  8
Ech.1_5
 62
   190
370
    15
100
AcDbDimension
280
     0
  2
*D70
 10
13688.10897153284
 20
-1510.217186144138
 30
0.0
 11
13683.8927993675
 21
-1498.967186144138
 31
0.0
 70
   161
  1
8 mm maxi
 71
     5
 42
8.432344330678461
 73
     0
 74
     0
 75
     0
  3
Standard
100
AcDbAlignedDimension
 13
13679.67662720216
 23
-1511.971112735708
 33
0.0
 14
13688.10897153284
 24
-1511.971112735708
 34
0.0
1001
ACAD
1000
DSTYLE
1002
{
1070
   178
1070
   190
1070
   271
1070
     0
1070
   147
1040
0.0
1070
   140
1040
12.5
1070
   340
1005
456
1070
   144
1040
1.0
1070
    42
1040
0.0
1070
    44
1040
5.0
1070
    41
1040
5.0
1070
   342
1005
1BB
1070
   175
1070
     1
1070
   279
1070
     2
1070
   172
1070
     1
1002
}
  0
MTEXT
  5
467
330
1F
100
AcDbEntity
  8
Ech.1_5
 62
     4
420
    65535
100
AcDbMText
 10
13664.8392829606
 20
-1156.329713800296
 30
0.0
 40
13.75
 41
155.4888037607452
 46
0.0
 71
     3
 72
     1
  1
{\fArial|b0|i0;\W1.000000;\H13.750000;\c16711848;Menuiserie}
 73
     1
 44
1.07999975538982
  0
MTEXT
  5
468
330
1F
100
AcDbEntity
  8
Ech.1_5
 62
     4
420
    65535
100
AcDbMText
 10
13955.53208001984
 20
-1931.68735195951
 30
0.0
 40
12.5
 41
488.3428846351926
 46
0.0
 71
     2
 72
     1
  1
{\fArial|b0|i0;\W1.000000;\H12.500000;\c16711848;Vue en coupe horizontale}
 73
     1
 44
1.07999975538982
  0
MTEXT
  5
469
330
1F
100
AcDbEntity
  8
Ech.1_5
 62
     4
420
    65535
100
AcDbMText
 10
14275.85219004068
 20
-1931.52017546686
 30
0.0
 40
12.5
 41
127.297335406498
 46
0.0
 71
     2
 72
     1
  1
{\fArial|b0|i0;\W1.000000;\H12.500000;\c16711848;Ech 1/5 }
 73
     1
 44
1.07999975538982
  0
MTEXT
  5
46A
330
1F
100
AcDbEntity
  8
Ech.1_5
 62
     4
420
    65535
100
AcDbMText
 10
13627.03302870456
 20
-1931.248419164382
 30
0.0
 40
12.5
 41
143.6552179953524
 46
0.0
 71
     2
 72
     1
  1
{\fArial|b0|i0;\W1.000000;\H12.500000;\c16711848;BLRHZ30-04}
 73
     1
 44
1.07999975538982
  0
MTEXT
  5
46B
330
1F
100
AcDbEntity
  8
Ech.1_5
 62
   200
420
 11010303
100
AcDbMText
 10
13853.25085774393
 20
-1952.705036501218
 30
0.0
 40
5.625
 41
979.375
 46
0.0
 71
     2
 72
     1
  3
{\fArial|b0|i1;\W1.000000;\H5.625000;\c16711848; Il est rappelé à l'utilisateur qui consulte le site et utilise les informations qu'il contient, qu'il doit les utiliser sous sa seule responsabilité en vérifiant leur pertinence, leur cohérence et leur
  1
 non obsolescence.}
 73
     1
 44
1.07999975538982
  0
MTEXT
  5
46C
330
1F
100
AcDbEntity
  8
Ech.1_5
 62
   200
420
 11010303
100
AcDbMText
 10
13853.25085774393
 20
-1986.557064394721
 30
0.0
 40
6.875
 41
978.125
 46
0.0
 71
     2
 72
     1
  1
{\fArial|b0|i1;\W1.000000;\H6.875000;\c16711848;www.catalogue-bois-construction.fr}
 73
     1
 44
1.07999975538982
  0
MTEXT
  5
46D
330
1F
100
AcDbEntity
  8
Ech.1_5
 62
     4
420
    65535
100
AcDbMText
 10
13853.25085774393
 20
-781.32146365249
 30
0.0
 40
15.0
 41
970.0
 46
0.0
 71
     2
 72
     1
  1
{\fArial|b0|i0;\W1.000000;\H15.000000;\c16711848;Détail sur menuiserie - Compatible niveau étanchéité Ee1}
 73
     1
 44
1.07999975538982
  0
MTEXT
  5
46E
330
1F
100
AcDbEntity
  8
Ech.1_5
 62
     4
420
    65535
100
AcDbMText
 10
14094.53877224767
 20
-1557.538360641905
 30
0.0
 40
13.75
 41
210.1338266824296
 46
0.0
 71
     1
 72
     1
  1
{\fArial|b0|i0;\W1.000000;\H13.750000;\c16711848;Paroi support}
 73
     1
 44
1.07999975538982
  0
MTEXT
  5
46F
330
1F
100
AcDbEntity
  8
Ech.1_5
 62
     4
420
    65535
100
AcDbMText
 10
14094.53877224767
 20
-1704.274161448993
 30
0.0
 40
13.75
 41
210.1338266824296
 46
0.0
 71
     1
 72
     1
  1
{\fArial|b0|i0;\W1.000000;\H13.750000;\c16711848;Calfeutrement exposé}
 73
     1
 44
1.07999975538982
  0
MTEXT
  5
470
330
1F
100
AcDbEntity
  8
Ech.1_5
 62
     4
420
    65535
100
AcDbMText
 10
14094.53877224767
 20
-1589.461473286014
 30
0.0
 40
13.75
 41
206.5307974280568
 46
0.0
 71
     1
 72
     1
  1
{\fArial|b0|i0;\W1.000000;\H13.750000;\c16711848;Bardage bois en lames à recouvrement en pose horizontale - épaisseur 18 mm mini}
 73
     1
 44
1.07999975538982
  0
MTEXT
  5
471
330
1F
100
AcDbEntity
  8
Ech.1_5
 62
     4
420
    65535
100
AcDbMText
 10
13606.80121428089
 20
-1689.530783439594
 30
0.0
 40
13.75
 41
235.1924762165254
 46
0.0
 71
     3
 72
     1
  1
{\fArial|b0|i0;\W1.000000;\H13.750000;\c16711848;Pièce d'encadrement}
 73
     1
 44
1.07999975538982
  0
MTEXT
  5
472
330
1F
100
AcDbEntity
  8
Ech.1_5
 62
     4
420
    65535
100
AcDbMText
 10
13606.80121428089
 20
-1588.202075898465
 30
0.0
 40
13.75
 41
197.6424685716647
 46
0.0
 71
     3
 72
     1
  1
{\fArial|b0|i0;\W1.000000;\H13.750000;\c16711848;Tasseaux bois support de bardage}
 73
     1
 44
1.07999975538982
  0
TEXT
  5
474
330
1F
100
AcDbEntity
  8
Ech.1_5
 62
   190
100
AcDbText
 10
13412.57298844622
 20
-1943.679318514093
 30
0.0
 40
12.5
  1
20/11/2020
  7
arial-
100
AcDbText
  0
TEXT
  5
475
330
1F
100
AcDbEntity
  8
Ech.1_5
 62
   190
100
AcDbText
 10
13537.49058857889
 20
-766.0449590201425
 30
0.0
 40
16.5
  1
Epaisseur mini selon NF DTU 41.2 - hors exigences feu façade
  7
arial-
100
AcDbText
  0
TEXT
  5
477
330
1F
100
AcDbEntity
  8
Ech.1_5
 62
   190
100
AcDbText
 10
13519.86043110819
 20
-733.6614912295009
 30
0.0
 40
16.5
  1
BARDAGES EN LAMES : lames à recouvrement - pose horizontale
  7
arial-b
100
AcDbText
  0
TEXT
  5
479
330
1F
100
AcDbEntity
  8
Ech.1_5
 62
   154
420
    21156
100
AcDbText
 10
14199.358965333
 20
-872.6144091363022
 30
0.0
 40
15.0
  1
m
 50
8.975659904365683
 41
0.7999999999999999
  7
tahoma-b
100
AcDbText
  0
TEXT
  5
47A
330
1F
100
AcDbEntity
  8
Ech.1_5
 62
   154
420
    21156
100
AcDbText
 10
14182.23026928918
 20
-878.2324009914811
 30
0.0
 40
15.0
  1
C
 50
20.66888961049876
 41
0.7999999999999999
  7
tahoma-b
100
AcDbText
  0
TEXT
  5
47B
330
1F
100
AcDbEntity
  8
Ech.1_5
 62
   154
420
    21156
100
AcDbText
 10
14191.11124195194
 20
-874.882070650645
 30
0.0
 40
15.0
  1
o
 50
15.37326472338503
 41
0.8
  7
tahoma-b
100
AcDbText
  0
TEXT
  5
47C
330
1F
100
AcDbEntity
  8
Ech.1_5
 62
   154
420
    21156
100
AcDbText
 10
14212.43882154717
 20
-870.5484589527697
 30
0.0
 40
15.0
  1
p
 50
2.547444553697439
 41
0.7999999999999999
  7
tahoma-b
100
AcDbText
  0
TEXT
  5
47D
330
1F
100
AcDbEntity
  8
Ech.1_5
 62
   154
420
    21156
100
AcDbText
 10
14221.08829627824
 20
-870.1636385000676
 30
0.0
 40
15.0
  1
a
 50
357.5885357786574
 41
0.7999999999999999
  7
tahoma-b
100
AcDbText
  0
TEXT
  5
47E
330
1F
100
AcDbEntity
  8
Ech.1_5
 62
   154
420
    21156
100
AcDbText
 10
14229.32202900713
 20
-870.5103845306149
 30
0.0
 40
15.0
  1
t
 50
353.6091644148265
 41
0.8
  7
tahoma-b
100
AcDbText
  0
TEXT
  5
47F
330
1F
100
AcDbEntity
  8
Ech.1_5
 62
   154
420
    21156
100
AcDbText
 10
14234.61004312163
 20
-871.1026739100708
 30
0.0
 40
15.0
  1
i
 50
350.9766571715751
 41
0.7999999999999999
  7
tahoma-b
100
AcDbText
  0
TEXT
  5
480
330
1F
100
AcDbEntity
  8
Ech.1_5
 62
   154
420
    21156
100
AcDbText
 10
14238.21680934853
 20
-871.6754359489496
 30
0.0
 40
15.0
  1
b
 50
347.3646125171658
 41
0.8
  7
tahoma-b
100
AcDbText
  0
TEXT
  5
481
330
1F
100
AcDbEntity
  8
Ech.1_5
 62
   154
420
    21156
100
AcDbText
 10
14246.6651587564
 20
-873.5693451829576
 30
0.0
 40
15.0
  1
l
 50
343.7525678628202
 41
0.8
  7
tahoma-b
100
AcDbText
  0
TEXT
  5
482
330
1F
100
AcDbEntity
  8
Ech.1_5
 62
   154
420
    21156
100
AcDbText
 10
14250.17126915618
 20
-874.5911126874563
 30
0.0
 40
15.0
  1
e
 50
340.2629653357549
 41
0.8
  7
tahoma-b
100
AcDbText
  0
TEXT
  5
483
330
1F
100
AcDbEntity
  8
Ech.1_5
 62
   154
420
    21156
100
AcDbText
 10
14167.06644533096
 20
-1003.235591565812
 30
0.0
 40
15.0
  1
s
 50
329.3124952401333
 41
0.8
  7
tahoma-b
100
AcDbText
  0
TEXT
  5
484
330
1F
100
AcDbEntity
  8
Ech.1_5
 62
   154
420
    21156
100
AcDbText
 10
14174.06380702989
 20
-1007.388257176499
 30
0.0
 40
15.0
  1
u
 50
334.6276163793959
 41
0.7999999999999999
  7
tahoma-b
100
AcDbText
  0
TEXT
  5
485
330
1F
100
AcDbEntity
  8
Ech.1_5
 62
   154
420
    21156
100
AcDbText
 10
14183.20519314697
 20
-1011.723508117117
 30
0.0
 40
15.0
  1
r
 50
339.5478999136904
 41
0.7999999999999999
  7
tahoma-b
100
AcDbText
  0
TEXT
  5
486
330
1F
100
AcDbEntity
  8
Ech.1_5
 62
   154
420
    21156
100
AcDbText
 10
14193.37749720639
 20
-1015.283373957558
 30
0.0
 40
15.0
  1
p
 50
346.7359685598264
 41
0.8
  7
tahoma-b
100
AcDbText
  0
TEXT
  5
487
330
1F
100
AcDbEntity
  8
Ech.1_5
 62
   154
420
    21156
100
AcDbText
 10
14203.02201366255
 20
-1017.556849121378
 30
0.0
 40
15.0
  1
a
 50
352.3548109070889
 41
0.7999999999999999
  7
tahoma-b
100
AcDbText
  0
TEXT
  5
488
330
1F
100
AcDbEntity
  8
Ech.1_5
 62
   154
420
    21156
100
AcDbText
 10
14212.32630736657
 20
-1018.805776671281
 30
0.0
 40
15.0
  1
r
 50
357.0624896305302
 41
0.8
  7
tahoma-b
100
AcDbText
  0
TEXT
  5
489
330
1F
100
AcDbEntity
  8
Ech.1_5
 62
   154
420
    21156
100
AcDbText
 10
14219.09866355631
 20
-1019.153294684213
 30
0.0
 40
15.0
  1
o
 50
1.861284750938269
 41
0.8000000000000002
  7
tahoma-b
100
AcDbText
  0
TEXT
  5
48A
330
1F
100
AcDbEntity
  8
Ech.1_5
 62
   154
420
    21156
100
AcDbText
 10
14228.7939630098
 20
-1018.838226736661
 30
0.0
 40
15.0
  1
i
 50
6.083009645692949
 41
0.7999999999999999
  7
tahoma-b
100
AcDbText
  0
TEXT
  5
48B
330
1F
100
AcDbEntity
  8
Ech.1_5
 62
   154
420
    21156
100
AcDbText
 10
14237.52075221516
 20
-1017.728460797822
 30
0.0
 40
15.0
  1
b
 50
12.69400806609704
 41
0.7999999999999999
  7
tahoma-b
100
AcDbText
  0
TEXT
  5
48C
330
1F
100
AcDbEntity
  8
Ech.1_5
 62
   154
420
    21156
100
AcDbText
 10
14247.18740931803
 20
-1015.551047780267
 30
0.0
 40
15.0
  1
o
 50
18.40396681045342
 41
0.8
  7
tahoma-b
100
AcDbText
  0
TEXT
  5
48D
330
1F
100
AcDbEntity
  8
Ech.1_5
 62
   154
420
    21156
100
AcDbText
 10
14256.39169075738
 20
-1012.488483088753
 30
0.0
 40
15.0
  1
i
 50
22.6256917052119
 41
0.8
  7
tahoma-b
100
AcDbText
  0
TEXT
  5
48E
330
1F
100
AcDbEntity
  8
Ech.1_5
 62
   154
420
    21156
100
AcDbText
 10
14260.82183334134
 20
-1010.642061578117
 30
0.0
 40
15.0
  1
s
 50
26.39183478797459
 41
0.8
  7
tahoma-b
100
AcDbText
  0
TEXT
  5
48F
330
1F
100
AcDbEntity
  8
Ech.1_5
 62
   154
420
    21156
100
AcDbText
 10
14196.49253366409
 20
-981.0881835326
 30
0.0
 40
25.0
  1
E
 50
345.2222144970916
 41
0.8
  7
tahoma-b
100
AcDbText
  0
TEXT
  5
490
330
1F
100
AcDbEntity
  8
Ech.1_5
 62
   154
420
    21156
100
AcDbText
 10
14212.0911861515
 20
-985.2030559213091
 30
0.0
 40
25.0
  1
e
 50
359.240676951923
 41
0.8
  7
tahoma-b
100
AcDbText
  0
TEXT
  5
491
330
1F
100
AcDbEntity
  8
Ech.1_5
 62
   154
420
    21156
100
AcDbText
 10
14227.70424477127
 20
-985.4099830192064
 30
0.0
 40
25.0
  1
1
 50
13.48894999980838
 41
0.8
  7
tahoma-b
100
AcDbText
  0
VIEWPORT
  5
243
330
23D
100
AcDbEntity
 67
     1
  8
0
100
AcDbViewport
 10
98.8
 20
135.8000000000004
 30
0.0
 40
209.0608
 41
287.3528000000008
 68
     1
 69
     1
 12
128.5
 22
97.5
 13
0.0
 23
0.0
 14
10.0
 24
10.0
 15
10.0
 25
10.0
 16
0.0
 26
0.0
 36
1.0
 17
0.0
 27
0.0
 37
0.0
 42
50.0
 43
0.0
 44
0.0
 45
222.18
 50
0.0
 51
0.0
 72
   100
 90
   557152
  1

281
     0
 71
     1
 74
     0
110
0.0
120
0.0
130
0.0
111
1.0
121
0.0
131
0.0
112
0.0
122
1.0
132
0.0
 79
     0
146
0.0
170
     0
 61
     5
348
2F
292
     1
282
     1
141
0.0
142
0.0
 63
   256
361
244
  0
VIEWPORT
  5
245
330
23D
100
AcDbEntity
 67
     1
  8
0
 60
     1
100
AcDbViewport
 10
98.8
 20
135.8000000000004
 30
0.0
 40
197.6
 41
271.6000000000008
 68
     2
 69
     2
 12
13853.25085774393
 22
-1387.911491229437
 13
0.0
 23
0.0
 14
10.0
 24
10.0
 15
10.0
 25
10.0
 16
0.0
 26
0.0
 36
1.0
 17
0.0
 27
0.0
 37
0.0
 42
50.0
 43
0.0
 44
0.0
 45
1358.000000000004
 50
0.0
 51
0.0
 72
   100
 90
   557152
  1

281
     0
 71
     1
 74
     0
110
0.0
120
0.0
130
0.0
111
1.0
121
0.0
131
0.0
112
0.0
122
1.0
132
0.0
 79
     0
146
0.0
170
     0
 61
     5
348
2F
292
     1
282
     1
141
0.0
142
0.0
 63
   256
  0
ENDSEC
  0
SECTION
  2
OBJECTS
  0
DICTIONARY
  5
C
330
0
100
AcDbDictionary
281
     1
  3
ACAD_DETAILVIEWSTYLE
350
499
  3
ACAD_GROUP
350
D
  3
ACAD_IMAGE_DICT
350
3F0
  3
ACAD_IMAGE_VARS
350
6F
  3
ACAD_LAYOUT
350
1A
  3
ACAD_MATERIAL
350
43
  3
ACAD_MLEADERSTYLE
350
6B
  3
ACAD_MLINESTYLE
350
17
  3
ACAD_PLOTSETTINGS
350
19
  3
ACAD_PLOTSTYLENAME
350
E
  3
ACAD_SCALELIST
350
47
  3
ACAD_SECTIONVIEWSTYLE
350
49A
  3
ACAD_TABLESTYLE
350
69
  3
ACAD_VISUALSTYLE
350
2A
  3
ACDB_RECOMPOSE_DATA
350
496
  3
AcDbVariableDictionary
350
492
  0
SUN
  5
6D
330
29
100
AcDbSun
 90
        1
290
     0
 63
     7
421
 16777215
 40
1.0
291
     1
 91
  2455826
 92
 54000000
292
     0
 70
     2
 71
   256
280
     1
  0
IMAGEDEF_REACTOR
  5
3F3
330
3F2
100
AcDbRasterImageDefReactor
 90
        2
330
3F2
  0
IMAGEDEF_REACTOR
  5
3F6
330
3F5
100
AcDbRasterImageDefReactor
 90
        2
330
3F5
  0
IMAGEDEF_REACTOR
  5
3F9
330
3F8
100
AcDbRasterImageDefReactor
 90
        2
330
3F8
  0
SUN
  5
244
330
243
100
AcDbSun
 90
        1
290
     0
 63
     7
421
 16777215
 40
1.0
291
     1
 91
  2455826
 92
 54000000
292
     0
 70
     2
 71
   256
280
     1
  0
DICTIONARY
  5
499
102
{ACAD_REACTORS
330
C
102
}
330
C
100
AcDbDictionary
281
     1
  0
DICTIONARY
  5
D
102
{ACAD_REACTORS
330
C
102
}
330
C
100
AcDbDictionary
281
     1
  3
DIM59
350
458
  0
DICTIONARY
  5
3F0
102
{ACAD_REACTORS
330
C
102
}
330
C
100
AcDbDictionary
281
     1
  3
C:\Users\MAIFFR~1\AppData\Local\Temp\EXE_LOGO_FBF_soutien_Q_L.jpg1
350
3F4
  3
C:\Users\MAIFFR~1\AppData\Local\Temp\fcba.jpg0
350
3F1
  3
C:\Users\MAIFFR~1\AppData\Local\Temp\logo_codifab_baseline_soutien.jpg2
350
3F7
  0
RASTERVARIABLES
  5
6F
102
{ACAD_REACTORS
330
C
102
}
330
C
100
AcDbRasterVariables
 90
        0
 70
     0
 71
     1
 72
     1
  0
DICTIONARY
  5
1A
102
{ACAD_REACTORS
330
C
102
}
330
C
100
AcDbDictionary
281
     1
  3
CompleteLayout
350
1E
  3
Model
350
22
  3
PrintFrame_34
350
23E
  0
DICTIONARY
  5
43
102
{ACAD_REACTORS
330
C
102
}
330
C
100
AcDbDictionary
281
     1
  3
ByBlock
350
45
  3
ByLayer
350
44
  3
Global
350
46
  0
DICTIONARY
  5
6B
102
{ACAD_REACTORS
330
C
102
}
330
C
100
AcDbDictionary
281
     1
  3
Standard
350
6C
  0
DICTIONARY
  5
17
102
{ACAD_REACTORS
330
C
102
}
330
C
100
AcDbDictionary
281
     1
  3
Standard
350
18
  0
DICTIONARY
  5
19
102
{ACAD_REACTORS
330
C
102
}
330
C
100
AcDbDictionary
281
     1
  3
PlotSettings_
350
241
  0
ACDBDICTIONARYWDFLT
  5
E
102
{ACAD_REACTORS
330
C
102
}
330
C
100
AcDbDictionary
281
     1
  3
Normal
350
F
100
AcDbDictionaryWithDefault
340
F
  0
DICTIONARY
  5
47
102
{ACAD_REACTORS
330
C
102
}
330
C
100
AcDbDictionary
281
     1
  3
A0
350
48
  3
A1
350
49
  3
A2
350
4A
  3
A3
350
4B
  3
A4
350
4C
  3
A5
350
4D
  3
A6
350
4E
  3
A7
350
4F
  3
A8
350
50
  3
A9
350
51
  3
B0
350
52
  3
B1
350
53
  3
B2
350
54
  3
B3
350
55
  3
B4
350
56
  3
B5
350
57
  3
B6
350
58
  3
B7
350
59
  3
B8
350
5A
  3
B9
350
5B
  3
C0
350
5C
  3
C1
350
5D
  3
C2
350
5E
  3
C3
350
5F
  3
C4
350
60
  3
C5
350
61
  3
C6
350
62
  3
C7
350
63
  3
C8
350
64
  3
C9
350
65
  3
D0
350
66
  3
D1
350
67
  3
D2
350
68
  0
DICTIONARY
  5
49A
102
{ACAD_REACTORS
330
C
102
}
330
C
100
AcDbDictionary
281
     1
  0
DICTIONARY
  5
69
102
{ACAD_REACTORS
330
C
102
}
330
C
100
AcDbDictionary
281
     1
  3
Standard
350
6A
  0
DICTIONARY
  5
2A
102
{ACAD_REACTORS
330
C
102
}
330
C
100
AcDbDictionary
281
     1
  3
2dWireframe
350
2F
  3
Basic
350
32
  3
Brighten
350
36
  3
ColorChange
350
3A
  3
Conceptual
350
34
  3
Dim
350
35
  3
EdgeColorOff
350
3D
  3
Facepattern
350
39
  3
Flat
350
2B
  3
FlatWithEdges
350
2C
  3
Gouraud
350
2D
  3
GouraudWithEdges
350
2E
  3
Hidden
350
31
  3
JitterOff
350
3B
  3
Linepattern
350
38
  3
OverhangOff
350
3C
  3
Realistic
350
33
  3
Shaded
350
42
  3
Shaded with edges
350
41
  3
Shades of Gray
350
3E
  3
Sketchy
350
3F
  3
Thicken
350
37
  3
Wireframe
350
30
  3
X-Ray
350
40
  0
XRECORD
  5
496
102
{ACAD_REACTORS
330
C
102
}
330
C
100
AcDbXrecord
280
     1
 90
        1
330
6A
  0
DICTIONARY
  5
492
102
{ACAD_REACTORS
330
C
102
}
330
C
100
AcDbDictionary
281
     1
  3
CANNOSCALE
350
493
  3
CMLEADERSTYLE
350
498
  3
CTABLESTYLE
350
497
  3
WIPEOUTFRAME
350
49B
  0
GROUP
  5
458
102
{ACAD_REACTORS
330
D
102
}
330
D
100
AcDbGroup
300

 70
     0
 71
     1
340
457
  0
IMAGEDEF
  5
3F4
102
{ACAD_REACTORS
330
3F0
330
3F6
102
}
330
3F0
100
AcDbRasterImageDef
 90
        0
  1
EXE_LOGO_FBF_soutien_Q_L.jpg
 10
200.0
 20
133.0
 11
0.3527336860670194
 21
0.3527336860670194
280
     1
281
     3
  0
IMAGEDEF
  5
3F1
102
{ACAD_REACTORS
330
3F0
330
3F3
102
}
330
3F0
100
AcDbRasterImageDef
 90
        0
  1
fcba.jpg
 10
247.0
 20
171.0
 11
0.3527336860670194
 21
0.3527336860670194
280
     1
281
     3
  0
IMAGEDEF
  5
3F7
102
{ACAD_REACTORS
330
3F0
330
3F9
102
}
330
3F0
100
AcDbRasterImageDef
 90
        0
  1
logo_codifab_baseline_soutien.jpg
 10
1326.0
 20
580.0
 11
0.08466683600033867
 21
0.08466683600033867
280
     1
281
     3
  0
LAYOUT
  5
1E
102
{ACAD_REACTORS
330
1A
102
}
330
1A
100
AcDbPlotSettings
  1

  2
none_device
  4

  6

 40
0.0
 41
0.0
 42
0.0
 43
0.0
 44
0.0
 45
0.0
 46
0.0
 47
0.0
 48
0.0
 49
0.0
140
0.0
141
0.0
142
1.0
143
1.0
 70
   688
 72
     0
 73
     0
 74
     5
  7

 75
    16
 76
     0
 77
     2
 78
   300
147
1.0
148
0.0
149
0.0
100
AcDbLayout
  1
CompleteLayout
 70
     1
 71
     1
 10
0.0
 20
0.0
 11
12.0
 21
9.0
 12
0.0
 22
0.0
 32
0.0
 14
1.000000000000000E+20
 24
1.000000000000000E+20
 34
1.000000000000000E+20
 15
-1.000000000000000E+20
 25
-1.000000000000000E+20
 35
-1.000000000000000E+20
146
0.0
 13
0.0
 23
0.0
 33
0.0
 16
1.0
 26
0.0
 36
0.0
 17
0.0
 27
1.0
 37
0.0
 76
     0
330
1B
  0
LAYOUT
  5
22
102
{ACAD_REACTORS
330
1A
102
}
330
1A
100
AcDbPlotSettings
  1

  2
none_device
  4
Letter_(8.50_x_11.00_Inches)
  6

 40
6.35
 41
6.35
 42
6.35000508
 43
6.35000508
 44
215.9
 45
279.4
 46
0.0
 47
0.0
 48
0.0
 49
0.0
140
0.0
141
0.0
142
1.0
143
1.0
 70
  1712
 72
     0
 73
     0
 74
     0
  7

 75
     0
 76
     0
 77
     2
 78
   300
147
1.0
148
0.0
149
0.0
100
AcDbLayout
  1
Model
 70
     1
 71
     0
 10
0.0
 20
0.0
 11
12.0
 21
9.0
 12
0.0
 22
0.0
 32
0.0
 14
13360.75085774393
 24
-2065.411491229439
 34
0.0
 15
14345.75085774394
 25
-710.4114912294353
 35
2500.0
146
0.0
 13
0.0
 23
0.0
 33
0.0
 16
1.0
 26
0.0
 36
0.0
 17
0.0
 27
1.0
 37
0.0
 76
     0
330
1F
331
29
  0
LAYOUT
  5
23E
102
{ACAD_REACTORS
330
1A
102
}
330
1A
100
AcDbPlotSettings
  1
PlotSettings_
  2
Custom Device
  4
Custom_210.000000x297.000000_12.700000_12.700000_6.200000_6.200000
  6

 40
6.2
 41
12.7
 42
6.2
 43
12.7
 44
210.0
 45
297.0000000000007
 46
0.0
 47
0.0
 48
0.0
 49
0.0
140
0.0
141
0.0
142
1.0
143
1.0
 70
   752
 72
     1
 73
     0
 74
     5
  7

 75
    16
 76
     0
 77
     2
 78
   300
147
1.0
148
0.0
149
0.0
100
AcDbLayout
  1
PrintFrame_34
 70
     0
 71
     2
 10
-20.0
 20
-7.5
 11
277.0
 21
202.5
 12
0.0
 22
0.0
 32
0.0
 14
0.0
 24
0.0
 34
0.0
 15
197.6
 25
271.6000000000008
 35
0.0
146
0.0
 13
0.0
 23
0.0
 33
0.0
 16
1.0
 26
0.0
 36
0.0
 17
0.0
 27
1.0
 37
0.0
 76
     0
330
23D
331
243
1001
PLOTTRANSPARENCY
1071
        1
1000
layout-user-created
1070
     1
1000
layout-line-weight-scale
1042
1.0
  0
MATERIAL
  5
45
102
{ACAD_REACTORS
330
43
102
}
330
43
100
AcDbMaterial
  1
ByBlock
 72
     1
 94
      127
  0
MATERIAL
  5
44
102
{ACAD_REACTORS
330
43
102
}
330
43
100
AcDbMaterial
  1
ByLayer
 72
     1
 94
      127
  0
MATERIAL
  5
46
102
{ACAD_REACTORS
330
43
102
}
330
43
100
AcDbMaterial
  1
Global
 72
     1
 94
      127
  0
MLEADERSTYLE
  5
6C
102
{ACAD_REACTORS
330
6B
102
}
330
6B
100
AcDbMLeaderStyle
179
     2
170
     2
171
     1
172
     0
 90
        2
 40
0.0
 41
0.0
173
     1
 91
-1056964608
340
14
 92
       -2
290
     1
 42
0.09
291
     1
 43
0.36
  3
Standard
341
0
 44
0.18
300

342
11
174
     1
178
     6
175
     1
176
     0
 93
-1056964608
 45
0.18
292
     0
297
     0
 46
0.18
343
0
 94
-1056964608
 47
1.0
 49
1.0
140
1.0
293
     1
141
0.0
294
     1
177
     0
142
1.0
295
     0
296
     0
143
0.125
271
     0
272
     9
273
     9
298
     0
  0
MLINESTYLE
  5
18
102
{ACAD_REACTORS
330
17
102
}
330
17
100
AcDbMlineStyle
  2
Standard
 70
     0
  3

 62
   256
 51
90.0
 52
90.0
 71
     2
 49
0.5
 62
   256
  6
BYLAYER
 49
-0.5
 62
   256
  6
BYLAYER
  0
PLOTSETTINGS
  5
241
102
{ACAD_REACTORS
330
19
102
}
330
19
100
AcDbPlotSettings
  1
PlotSettings_
  2
Custom Device
  4
Custom_210.000000x297.000000_12.700000_12.700000_6.200000_6.200000
  6

 40
6.2
 41
12.7
 42
6.2
 43
12.7
 44
210.0
 45
297.0000000000007
 46
0.0
 47
0.0
 48
0.0
 49
0.0
140
0.0
141
0.0
142
1.0
143
1.0
 70
   752
 72
     1
 73
     0
 74
     5
  7

 75
    16
 76
     0
 77
     2
 78
   300
147
1.0
148
0.0
149
0.0
1001
PLOTTRANSPARENCY
1071
        1
1000
layout-user-created
1070
     1
1000
layout-line-weight-scale
1042
1.0
  0
ACDBPLACEHOLDER
  5
F
102
{ACAD_REACTORS
330
E
102
}
330
E
  0
SCALE
  5
48
102
{ACAD_REACTORS
330
47
102
}
330
47
100
AcDbScale
 70
     0
300
1:1
140
1.0
141
1.0
290
     1
  0
SCALE
  5
49
102
{ACAD_REACTORS
330
47
102
}
330
47
100
AcDbScale
 70
     0
300
1:2
140
1.0
141
2.0
290
     0
  0
SCALE
  5
4A
102
{ACAD_REACTORS
330
47
102
}
330
47
100
AcDbScale
 70
     0
300
1:4
140
1.0
141
4.0
290
     0
  0
SCALE
  5
4B
102
{ACAD_REACTORS
330
47
102
}
330
47
100
AcDbScale
 70
     0
300
1:5
140
1.0
141
5.0
290
     0
  0
SCALE
  5
4C
102
{ACAD_REACTORS
330
47
102
}
330
47
100
AcDbScale
 70
     0
300
1:8
140
1.0
141
8.0
290
     0
  0
SCALE
  5
4D
102
{ACAD_REACTORS
330
47
102
}
330
47
100
AcDbScale
 70
     0
300
1:10
140
1.0
141
10.0
290
     0
  0
SCALE
  5
4E
102
{ACAD_REACTORS
330
47
102
}
330
47
100
AcDbScale
 70
     0
300
1:16
140
1.0
141
16.0
290
     0
  0
SCALE
  5
4F
102
{ACAD_REACTORS
330
47
102
}
330
47
100
AcDbScale
 70
     0
300
1:20
140
1.0
141
20.0
290
     0
  0
SCALE
  5
50
102
{ACAD_REACTORS
330
47
102
}
330
47
100
AcDbScale
 70
     0
300
1:30
140
1.0
141
30.0
290
     0
  0
SCALE
  5
51
102
{ACAD_REACTORS
330
47
102
}
330
47
100
AcDbScale
 70
     0
300
1:40
140
1.0
141
40.0
290
     0
  0
SCALE
  5
52
102
{ACAD_REACTORS
330
47
102
}
330
47
100
AcDbScale
 70
     0
300
1:50
140
1.0
141
50.0
290
     0
  0
SCALE
  5
53
102
{ACAD_REACTORS
330
47
102
}
330
47
100
AcDbScale
 70
     0
300
1:100
140
1.0
141
100.0
290
     0
  0
SCALE
  5
54
102
{ACAD_REACTORS
330
47
102
}
330
47
100
AcDbScale
 70
     0
300
2:1
140
2.0
141
1.0
290
     0
  0
SCALE
  5
55
102
{ACAD_REACTORS
330
47
102
}
330
47
100
AcDbScale
 70
     0
300
4:1
140
4.0
141
1.0
290
     0
  0
SCALE
  5
56
102
{ACAD_REACTORS
330
47
102
}
330
47
100
AcDbScale
 70
     0
300
8:1
140
8.0
141
1.0
290
     0
  0
SCALE
  5
57
102
{ACAD_REACTORS
330
47
102
}
330
47
100
AcDbScale
 70
     0
300
10:1
140
10.0
141
1.0
290
     0
  0
SCALE
  5
58
102
{ACAD_REACTORS
330
47
102
}
330
47
100
AcDbScale
 70
     0
300
100:1
140
100.0
141
1.0
290
     0
  0
SCALE
  5
59
102
{ACAD_REACTORS
330
47
102
}
330
47
100
AcDbScale
 70
     0
300
1/128" = 1'-0"
140
0.0078125
141
12.0
290
     0
  0
SCALE
  5
5A
102
{ACAD_REACTORS
330
47
102
}
330
47
100
AcDbScale
 70
     0
300
1/64" = 1'-0"
140
0.015625
141
12.0
290
     0
  0
SCALE
  5
5B
102
{ACAD_REACTORS
330
47
102
}
330
47
100
AcDbScale
 70
     0
300
1/32" = 1'-0"
140
0.03125
141
12.0
290
     0
  0
SCALE
  5
5C
102
{ACAD_REACTORS
330
47
102
}
330
47
100
AcDbScale
 70
     0
300
1/16" = 1'-0"
140
0.0625
141
12.0
290
     0
  0
SCALE
  5
5D
102
{ACAD_REACTORS
330
47
102
}
330
47
100
AcDbScale
 70
     0
300
3/32" = 1'-0"
140
0.09375
141
12.0
290
     0
  0
SCALE
  5
5E
102
{ACAD_REACTORS
330
47
102
}
330
47
100
AcDbScale
 70
     0
300
1/8" = 1'-0"
140
0.125
141
12.0
290
     0
  0
SCALE
  5
5F
102
{ACAD_REACTORS
330
47
102
}
330
47
100
AcDbScale
 70
     0
300
3/16" = 1'-0"
140
0.1875
141
12.0
290
     0
  0
SCALE
  5
60
102
{ACAD_REACTORS
330
47
102
}
330
47
100
AcDbScale
 70
     0
300
1/4" = 1'-0"
140
0.25
141
12.0
290
     0
  0
SCALE
  5
61
102
{ACAD_REACTORS
330
47
102
}
330
47
100
AcDbScale
 70
     0
300
3/8" = 1'-0"
140
0.375
141
12.0
290
     0
  0
SCALE
  5
62
102
{ACAD_REACTORS
330
47
102
}
330
47
100
AcDbScale
 70
     0
300
1/2" = 1'-0"
140
0.5
141
12.0
290
     0
  0
SCALE
  5
63
102
{ACAD_REACTORS
330
47
102
}
330
47
100
AcDbScale
 70
     0
300
3/4" = 1'-0"
140
0.75
141
12.0
290
     0
  0
SCALE
  5
64
102
{ACAD_REACTORS
330
47
102
}
330
47
100
AcDbScale
 70
     0
300
1" = 1'-0"
140
1.0
141
12.0
290
     0
  0
SCALE
  5
65
102
{ACAD_REACTORS
330
47
102
}
330
47
100
AcDbScale
 70
     0
300
1-1/2" = 1'-0"
140
1.5
141
12.0
290
     0
  0
SCALE
  5
66
102
{ACAD_REACTORS
330
47
102
}
330
47
100
AcDbScale
 70
     0
300
3" = 1'-0"
140
3.0
141
12.0
290
     0
  0
SCALE
  5
67
102
{ACAD_REACTORS
330
47
102
}
330
47
100
AcDbScale
 70
     0
300
6" = 1'-0"
140
6.0
141
12.0
290
     0
  0
SCALE
  5
68
102
{ACAD_REACTORS
330
47
102
}
330
47
100
AcDbScale
 70
     0
300
1'-0" = 1'-0"
140
12.0
141
12.0
290
     0
  0
TABLESTYLE
  5
6A
102
{ACAD_REACTORS
330
69
102
}
102
{ACAD_XDICTIONARY
360
494
102
}
330
69
100
AcDbTableStyle
  3
Standard
 70
     0
 71
     0
 40
0.06
 41
0.06
280
     0
281
     0
  7
Standard
140
0.18
170
     2
 62
     0
 63
   257
283
     0
 90
        4
 91
        0
  1

274
    -2
284
     1
 64
     0
275
    -2
285
     1
 65
     0
276
    -2
286
     1
 66
     0
277
    -2
287
     1
 67
     0
278
    -2
288
     1
 68
     0
279
    -2
289
     1
 69
     0
  7
Standard
140
0.25
170
     5
 62
     0
 63
   257
283
     0
 90
        4
 91
        0
  1

274
    -2
284
     1
 64
     0
275
    -2
285
     1
 65
     0
276
    -2
286
     1
 66
     0
277
    -2
287
     1
 67
     0
278
    -2
288
     1
 68
     0
279
    -2
289
     1
 69
     0
  7
Standard
140
0.18
170
     5
 62
     0
 63
   257
283
     0
 90
        4
 91
        0
  1

274
    -2
284
     1
 64
     0
275
    -2
285
     1
 65
     0
276
    -2
286
     1
 66
     0
277
    -2
287
     1
 67
     0
278
    -2
288
     1
 68
     0
279
    -2
289
     1
 69
     0
  0
VISUALSTYLE
  5
2F
102
{ACAD_REACTORS
330
2A
102
}
330
2A
100
AcDbVisualStyle
  2
2dWireframe
 70
     4
177
     3
291
     0
 70
    58
 90
        0
176
     1
 90
        2
176
     1
 90
        0
176
     1
 90
        0
176
     1
 40
0.6
176
     1
 40
30.0
176
     1
 62
     7
420
 16777215
176
     1
 90
        1
176
     1
 90
        4
176
     1
 62
     7
176
     1
 62
   257
176
     1
 90
        1
176
     1
 90
        1
176
     1
 40
1.0
176
     1
 90
        0
176
     1
 62
   257
176
     1
 40
1.0
176
     1
 90
        1
176
     1
 90
        6
176
     1
 90
        2
176
     1
 62
     7
176
     1
 90
        5
176
     1
 90
        0
176
     1
 90
        0
176
     1
290
     0
176
     1
 90
        1
176
     1
 40
0.0
176
     1
 90
        0
176
     1
290
     1
176
     1
290
     1
176
     1
290
     0
176
     1
290
     0
176
     1
290
     0
176
     1
290
     0
176
     1
290
     0
176
     1
290
     0
176
     1
290
     0
176
     1
 90
       50
176
     1
 40
0.0
176
     1
 40
1.0
176
     1
 90
        0
176
     1
 62
    18
420
        0
176
     1
 90
       50
176
     1
 90
        3
176
     1
 62
     5
420
      255
176
     1
290
     0
176
     1
 90
       50
176
     1
 90
       50
176
     1
 90
       50
176
     1
290
     0
176
     1
 90
       50
176
     1
 62
   256
176
     0
 40
1.0
176
     0
 90
        2
176
     1
  1
strokes_ogs.tif
176
     1
290
     0
176
     1
 40
1.0
176
     1
 40
1.0
176
     1
  0
VISUALSTYLE
  5
32
102
{ACAD_REACTORS
330
2A
102
}
330
2A
100
AcDbVisualStyle
  2
Basic
 70
     7
177
     3
291
     1
 70
    58
 90
        1
176
     1
 90
        0
176
     1
 90
        1
176
     1
 90
        0
176
     1
 40
0.6
176
     1
 40
30.0
176
     1
 62
     7
420
 16777215
176
     1
 90
        0
176
     1
 90
        4
176
     1
 62
     7
176
     1
 62
   257
176
     1
 90
        1
176
     1
 90
        1
176
     1
 40
1.0
176
     1
 90
        8
176
     1
 62
     7
176
     1
 40
1.0
176
     1
 90
        1
176
     1
 90
        6
176
     1
 90
        2
176
     1
 62
     7
176
     1
 90
        5
176
     1
 90
        0
176
     1
 90
        0
176
     1
290
     0
176
     1
 90
        1
176
     1
 40
0.0
176
     1
 90
        0
176
     1
290
     0
176
     1
290
     1
176
     1
290
     1
176
     1
290
     0
176
     1
290
     0
176
     1
290
     0
176
     1
290
     0
176
     1
290
     0
176
     1
290
     0
176
     1
 90
       50
176
     1
 40
0.0
176
     1
 40
1.0
176
     1
 90
        0
176
     1
 62
    18
420
        0
176
     1
 90
       50
176
     1
 90
        3
176
     1
 62
     5
420
      255
176
     1
290
     0
176
     1
 90
       50
176
     1
 90
       50
176
     1
 90
       50
176
     1
290
     0
176
     1
 90
       50
176
     1
 62
   256
176
     0
 40
1.0
176
     0
 90
        2
176
     1
  1
strokes_ogs.tif
176
     1
290
     0
176
     1
 40
1.0
176
     1
 40
1.0
176
     1
  0
VISUALSTYLE
  5
36
102
{ACAD_REACTORS
330
2A
102
}
330
2A
100
AcDbVisualStyle
  2
Brighten
 70
    12
177
     3
291
     1
 70
    58
 90
        2
176
     1
 90
        2
176
     1
 90
        0
176
     1
 90
        0
176
     1
 40
0.6
176
     1
 40
30.0
176
     1
 62
     7
420
 16777215
176
     1
 90
        1
176
     1
 90
        4
176
     1
 62
     7
176
     1
 62
   257
176
     1
 90
        1
176
     1
 90
        1
176
     1
 40
1.0
176
     1
 90
        8
176
     1
 62
     7
176
     1
 40
1.0
176
     1
 90
        1
176
     1
 90
        6
176
     1
 90
        2
176
     1
 62
     7
176
     1
 90
        5
176
     1
 90
        0
176
     1
 90
        0
176
     1
290
     0
176
     1
 90
        1
176
     1
 40
50.0
176
     1
 90
        0
176
     1
290
     0
176
     1
290
     1
176
     1
290
     1
176
     1
290
     0
176
     1
290
     0
176
     1
290
     0
176
     1
290
     0
176
     1
290
     0
176
     1
290
     0
176
     1
 90
       50
176
     1
 40
0.0
176
     1
 40
1.0
176
     1
 90
        0
176
     1
 62
    18
420
        0
176
     1
 90
       50
176
     1
 90
        3
176
     1
 62
     5
420
      255
176
     1
290
     0
176
     1
 90
       50
176
     1
 90
       50
176
     1
 90
       50
176
     1
290
     0
176
     1
 90
       50
176
     1
 62
   256
176
     0
 40
1.0
176
     0
 90
        2
176
     1
  1
strokes_ogs.tif
176
     1
290
     0
176
     1
 40
1.0
176
     1
 40
1.0
176
     1
  0
VISUALSTYLE
  5
3A
102
{ACAD_REACTORS
330
2A
102
}
330
2A
100
AcDbVisualStyle
  2
ColorChange
 70
    16
177
     3
291
     1
 70
    58
 90
        2
176
     1
 90
        2
176
     1
 90
        3
176
     1
 90
        0
176
     1
 40
0.6
176
     1
 40
30.0
176
     1
 62
     8
420
  8421504
176
     1
 90
        1
176
     1
 90
        4
176
     1
 62
     7
176
     1
 62
   257
176
     1
 90
        1
176
     1
 90
        1
176
     1
 40
1.0
176
     1
 90
        8
176
     1
 62
     8
420
  8421504
176
     1
 40
1.0
176
     1
 90
        1
176
     1
 90
        6
176
     1
 90
        2
176
     1
 62
     7
176
     1
 90
        5
176
     1
 90
        0
176
     1
 90
        0
176
     1
290
     0
176
     1
 90
        1
176
     1
 40
0.0
176
     1
 90
        0
176
     1
290
     0
176
     1
290
     1
176
     1
290
     1
176
     1
290
     0
176
     1
290
     0
176
     1
290
     0
176
     1
290
     0
176
     1
290
     0
176
     1
290
     0
176
     1
 90
       50
176
     1
 40
0.0
176
     1
 40
1.0
176
     1
 90
        0
176
     1
 62
    18
420
        0
176
     1
 90
       50
176
     1
 90
        3
176
     1
 62
     5
420
      255
176
     1
290
     0
176
     1
 90
       50
176
     1
 90
       50
176
     1
 90
       50
176
     1
290
     0
176
     1
 90
       50
176
     1
 62
   256
176
     0
 40
1.0
176
     0
 90
        2
176
     1
  1
strokes_ogs.tif
176
     1
290
     0
176
     1
 40
1.0
176
     1
 40
1.0
176
     1
  0
VISUALSTYLE
  5
34
102
{ACAD_REACTORS
330
2A
102
}
330
2A
100
AcDbVisualStyle
  2
Conceptual
 70
     9
177
     3
291
     0
 70
    58
 90
        3
176
     1
 90
        2
176
     1
 90
        0
176
     1
 90
        0
176
     1
 40
0.6
176
     1
 40
30.0
176
     1
 62
     7
420
 16777215
176
     1
 90
        2
176
     1
 90
        2
176
     1
 62
     7
176
     1
 62
   257
176
     1
 90
        1
176
     1
 90
        1
176
     1
 40
179.0
176
     1
 90
        8
176
     1
 62
     7
176
     1
 40
1.0
176
     1
 90
        1
176
     1
 90
        6
176
     1
 90
        2
176
     1
 62
     7
176
     1
 90
        3
176
     1
 90
        0
176
     1
 90
        0
176
     1
290
     0
176
     1
 90
        1
176
     1
 40
0.0
176
     1
 90
        0
176
     1
290
     0
176
     1
290
     1
176
     1
290
     1
176
     1
290
     0
176
     1
290
     0
176
     1
290
     0
176
     1
290
     0
176
     1
290
     0
176
     1
290
     0
176
     1
 90
       50
176
     1
 40
0.0
176
     1
 40
1.0
176
     1
 90
        0
176
     1
 62
    18
420
        0
176
     1
 90
       50
176
     1
 90
        3
176
     1
 62
     5
420
      255
176
     1
290
     0
176
     1
 90
       50
176
     1
 90
       50
176
     1
 90
       50
176
     1
290
     0
176
     1
 90
       50
176
     1
 62
   256
176
     0
 40
1.0
176
     0
 90
        2
176
     1
  1
strokes_ogs.tif
176
     1
290
     0
176
     1
 40
1.0
176
     1
 40
1.0
176
     1
  0
VISUALSTYLE
  5
35
102
{ACAD_REACTORS
330
2A
102
}
330
2A
100
AcDbVisualStyle
  2
Dim
 70
    11
177
     3
291
     1
 70
    58
 90
        2
176
     1
 90
        2
176
     1
 90
        0
176
     1
 90
        0
176
     1
 40
0.6
176
     1
 40
30.0
176
     1
 62
     7
420
 16777215
176
     1
 90
        1
176
     1
 90
        4
176
     1
 62
     7
176
     1
 62
   257
176
     1
 90
        1
176
     1
 90
        1
176
     1
 40
1.0
176
     1
 90
        8
176
     1
 62
     7
176
     1
 40
1.0
176
     1
 90
        1
176
     1
 90
        6
176
     1
 90
        2
176
     1
 62
     7
176
     1
 90
        5
176
     1
 90
        0
176
     1
 90
        0
176
     1
290
     0
176
     1
 90
        1
176
     1
 40
-50.0
176
     1
 90
        0
176
     1
290
     0
176
     1
290
     1
176
     1
290
     1
176
     1
290
     0
176
     1
290
     0
176
     1
290
     0
176
     1
290
     0
176
     1
290
     0
176
     1
290
     0
176
     1
 90
       50
176
     1
 40
0.0
176
     1
 40
1.0
176
     1
 90
        0
176
     1
 62
    18
420
        0
176
     1
 90
       50
176
     1
 90
        3
176
     1
 62
     5
420
      255
176
     1
290
     0
176
     1
 90
       50
176
     1
 90
       50
176
     1
 90
       50
176
     1
290
     0
176
     1
 90
       50
176
     1
 62
   256
176
     0
 40
1.0
176
     0
 90
        2
176
     1
  1
strokes_ogs.tif
176
     1
290
     0
176
     1
 40
1.0
176
     1
 40
1.0
176
     1
  0
VISUALSTYLE
  5
3D
102
{ACAD_REACTORS
330
2A
102
}
330
2A
100
AcDbVisualStyle
  2
EdgeColorOff
 70
    22
177
     3
291
     1
 70
    58
 90
        2
176
     0
 90
        2
176
     0
 90
        0
176
     0
 90
        0
176
     0
 40
0.6
176
     0
 40
30.0
176
     0
 62
     7
420
 16777215
176
     0
 90
        1
176
     0
 90
        4
176
     0
 62
     7
176
     0
 62
   257
176
     0
 90
        1
176
     0
 90
        1
176
     0
 40
1.0
176
     0
 90
        8
176
     2
 62
     7
176
     0
 40
1.0
176
     0
 90
        1
176
     0
 90
        6
176
     0
 90
        2
176
     0
 62
     7
176
     0
 90
        5
176
     0
 90
        0
176
     0
 90
        0
176
     0
290
     0
176
     0
 90
        1
176
     0
 40
0.0
176
     0
 90
        0
176
     0
290
     0
176
     0
290
     1
176
     0
290
     1
176
     0
290
     0
176
     0
290
     0
176
     0
290
     0
176
     0
290
     0
176
     0
290
     0
176
     0
290
     0
176
     0
 90
       50
176
     0
 40
0.0
176
     0
 40
1.0
176
     0
 90
        0
176
     0
 62
    18
420
        0
176
     0
 90
       50
176
     0
 90
        3
176
     0
 62
     5
420
      255
176
     0
290
     0
176
     0
 90
       50
176
     0
 90
       50
176
     0
 90
       50
176
     0
290
     0
176
     0
 90
       50
176
     0
 62
   256
176
     0
 40
1.0
176
     0
 90
        2
176
     0
  1
strokes_ogs.tif
176
     0
290
     0
176
     0
 40
1.0
176
     0
 40
1.0
176
     0
  0
VISUALSTYLE
  5
39
102
{ACAD_REACTORS
330
2A
102
}
330
2A
100
AcDbVisualStyle
  2
Facepattern
 70
    15
177
     3
291
     1
 70
    58
 90
        2
176
     1
 90
        2
176
     1
 90
        0
176
     1
 90
        0
176
     1
 40
0.6
176
     1
 40
30.0
176
     1
 62
     7
420
 16777215
176
     1
 90
        1
176
     1
 90
        4
176
     1
 62
     7
176
     1
 62
   257
176
     1
 90
        1
176
     1
 90
        1
176
     1
 40
1.0
176
     1
 90
        8
176
     1
 62
     7
176
     1
 40
1.0
176
     1
 90
        1
176
     1
 90
        6
176
     1
 90
        2
176
     1
 62
     7
176
     1
 90
        5
176
     1
 90
        0
176
     1
 90
        0
176
     1
290
     0
176
     1
 90
        1
176
     1
 40
0.0
176
     1
 90
        0
176
     1
290
     0
176
     1
290
     1
176
     1
290
     1
176
     1
290
     0
176
     1
290
     0
176
     1
290
     0
176
     1
290
     0
176
     1
290
     0
176
     1
290
     0
176
     1
 90
       50
176
     1
 40
0.0
176
     1
 40
1.0
176
     1
 90
        0
176
     1
 62
    18
420
        0
176
     1
 90
       50
176
     1
 90
        3
176
     1
 62
     5
420
      255
176
     1
290
     0
176
     1
 90
       50
176
     1
 90
       50
176
     1
 90
       50
176
     1
290
     0
176
     1
 90
       50
176
     1
 62
   256
176
     0
 40
1.0
176
     0
 90
        2
176
     1
  1
strokes_ogs.tif
176
     1
290
     0
176
     1
 40
1.0
176
     1
 40
1.0
176
     1
  0
VISUALSTYLE
  5
2B
102
{ACAD_REACTORS
330
2A
102
}
330
2A
100
AcDbVisualStyle
  2
Flat
 70
     0
177
     3
291
     1
 70
    58
 90
        2
176
     1
 90
        1
176
     1
 90
        1
176
     1
 90
        2
176
     1
 40
0.6
176
     1
 40
30.0
176
     1
 62
     7
420
 16777215
176
     1
 90
        0
176
     1
 90
        0
176
     1
 62
     7
176
     1
 62
   257
176
     1
 90
        1
176
     1
 90
        1
176
     1
 40
1.0
176
     1
 90
        8
176
     1
 62
     7
176
     1
 40
1.0
176
     1
 90
        1
176
     1
 90
        6
176
     1
 90
        2
176
     1
 62
     7
176
     1
 90
        5
176
     1
 90
        0
176
     1
 90
        0
176
     1
290
     0
176
     1
 90
       13
176
     1
 40
0.0
176
     1
 90
        0
176
     1
290
     0
176
     1
290
     1
176
     1
290
     1
176
     1
290
     0
176
     1
290
     0
176
     1
290
     0
176
     1
290
     0
176
     1
290
     0
176
     1
290
     0
176
     1
 90
       50
176
     1
 40
0.0
176
     1
 40
1.0
176
     1
 90
        0
176
     1
 62
    18
420
        0
176
     1
 90
       50
176
     1
 90
        3
176
     1
 62
     5
420
      255
176
     1
290
     0
176
     1
 90
       50
176
     1
 90
       50
176
     1
 90
       50
176
     1
290
     0
176
     1
 90
       50
176
     1
 62
   256
176
     0
 40
1.0
176
     0
 90
        2
176
     1
  1
strokes_ogs.tif
176
     1
290
     0
176
     1
 40
1.0
176
     1
 40
1.0
176
     1
  0
VISUALSTYLE
  5
2C
102
{ACAD_REACTORS
330
2A
102
}
330
2A
100
AcDbVisualStyle
  2
FlatWithEdges
 70
     1
177
     3
291
     1
 70
    58
 90
        2
176
     1
 90
        1
176
     1
 90
        1
176
     1
 90
        2
176
     1
 40
0.6
176
     1
 40
30.0
176
     1
 62
     7
420
 16777215
176
     1
 90
        1
176
     1
 90
        0
176
     1
 62
     7
176
     1
 62
   257
176
     1
 90
        1
176
     1
 90
        1
176
     1
 40
1.0
176
     1
 90
        0
176
     1
 62
   257
176
     1
 40
1.0
176
     1
 90
        1
176
     1
 90
        6
176
     1
 90
        2
176
     1
 62
     7
176
     1
 90
        5
176
     1
 90
        0
176
     1
 90
        0
176
     1
290
     0
176
     1
 90
       13
176
     1
 40
0.0
176
     1
 90
        0
176
     1
290
     0
176
     1
290
     1
176
     1
290
     1
176
     1
290
     0
176
     1
290
     0
176
     1
290
     0
176
     1
290
     0
176
     1
290
     0
176
     1
290
     0
176
     1
 90
       50
176
     1
 40
0.0
176
     1
 40
1.0
176
     1
 90
        0
176
     1
 62
    18
420
        0
176
     1
 90
       50
176
     1
 90
        3
176
     1
 62
     5
420
      255
176
     1
290
     0
176
     1
 90
       50
176
     1
 90
       50
176
     1
 90
       50
176
     1
290
     0
176
     1
 90
       50
176
     1
 62
   256
176
     0
 40
1.0
176
     0
 90
        2
176
     1
  1
strokes_ogs.tif
176
     1
290
     0
176
     1
 40
1.0
176
     1
 40
1.0
176
     1
  0
VISUALSTYLE
  5
2D
102
{ACAD_REACTORS
330
2A
102
}
330
2A
100
AcDbVisualStyle
  2
Gouraud
 70
     2
177
     3
291
     1
 70
    58
 90
        2
176
     1
 90
        2
176
     1
 90
        1
176
     1
 90
        2
176
     1
 40
0.6
176
     1
 40
30.0
176
     1
 62
     7
420
 16777215
176
     1
 90
        0
176
     1
 90
        0
176
     1
 62
     7
176
     1
 62
   257
176
     1
 90
        1
176
     1
 90
        1
176
     1
 40
1.0
176
     1
 90
        0
176
     1
 62
     7
176
     1
 40
1.0
176
     1
 90
        1
176
     1
 90
        6
176
     1
 90
        2
176
     1
 62
     7
176
     1
 90
        5
176
     1
 90
        0
176
     1
 90
        0
176
     1
290
     0
176
     1
 90
       13
176
     1
 40
0.0
176
     1
 90
        0
176
     1
290
     0
176
     1
290
     1
176
     1
290
     1
176
     1
290
     0
176
     1
290
     0
176
     1
290
     0
176
     1
290
     0
176
     1
290
     0
176
     1
290
     0
176
     1
 90
       50
176
     1
 40
0.0
176
     1
 40
1.0
176
     1
 90
        0
176
     1
 62
    18
420
        0
176
     1
 90
       50
176
     1
 90
        3
176
     1
 62
     5
420
      255
176
     1
290
     0
176
     1
 90
       50
176
     1
 90
       50
176
     1
 90
       50
176
     1
290
     0
176
     1
 90
       50
176
     1
 62
   256
176
     0
 40
1.0
176
     0
 90
        2
176
     1
  1
strokes_ogs.tif
176
     1
290
     0
176
     1
 40
1.0
176
     1
 40
1.0
176
     1
  0
VISUALSTYLE
  5
2E
102
{ACAD_REACTORS
330
2A
102
}
330
2A
100
AcDbVisualStyle
  2
GouraudWithEdges
 70
     3
177
     3
291
     1
 70
    58
 90
        2
176
     1
 90
        2
176
     1
 90
        1
176
     1
 90
        2
176
     1
 40
0.6
176
     1
 40
30.0
176
     1
 62
     7
420
 16777215
176
     1
 90
        1
176
     1
 90
        0
176
     1
 62
     7
176
     1
 62
   257
176
     1
 90
        1
176
     1
 90
        1
176
     1
 40
1.0
176
     1
 90
        0
176
     1
 62
   257
176
     1
 40
1.0
176
     1
 90
        1
176
     1
 90
        6
176
     1
 90
        2
176
     1
 62
     7
176
     1
 90
        5
176
     1
 90
        0
176
     1
 90
        0
176
     1
290
     0
176
     1
 90
       13
176
     1
 40
0.0
176
     1
 90
        0
176
     1
290
     0
176
     1
290
     1
176
     1
290
     1
176
     1
290
     0
176
     1
290
     0
176
     1
290
     0
176
     1
290
     0
176
     1
290
     0
176
     1
290
     0
176
     1
 90
       50
176
     1
 40
0.0
176
     1
 40
1.0
176
     1
 90
        0
176
     1
 62
    18
420
        0
176
     1
 90
       50
176
     1
 90
        3
176
     1
 62
     5
420
      255
176
     1
290
     0
176
     1
 90
       50
176
     1
 90
       50
176
     1
 90
       50
176
     1
290
     0
176
     1
 90
       50
176
     1
 62
   256
176
     0
 40
1.0
176
     0
 90
        2
176
     1
  1
strokes_ogs.tif
176
     1
290
     0
176
     1
 40
1.0
176
     1
 40
1.0
176
     1
  0
VISUALSTYLE
  5
31
102
{ACAD_REACTORS
330
2A
102
}
330
2A
100
AcDbVisualStyle
  2
Hidden
 70
     6
177
     3
291
     0
 70
    58
 90
        1
176
     1
 90
        2
176
     1
 90
        2
176
     1
 90
        0
176
     1
 40
0.6
176
     1
 40
30.0
176
     1
 62
     7
420
 16777215
176
     1
 90
        2
176
     1
 90
        2
176
     1
 62
     7
176
     1
 62
   257
176
     1
 90
        2
176
     1
 90
        1
176
     1
 40
40.0
176
     1
 90
        0
176
     1
 62
   257
176
     1
 40
1.0
176
     1
 90
        1
176
     1
 90
        6
176
     1
 90
        2
176
     1
 62
     7
176
     1
 90
        3
176
     1
 90
        0
176
     1
 90
        0
176
     1
290
     0
176
     1
 90
        1
176
     1
 40
0.0
176
     1
 90
        0
176
     1
290
     0
176
     1
290
     1
176
     1
290
     1
176
     1
290
     0
176
     1
290
     0
176
     1
290
     0
176
     1
290
     0
176
     1
290
     0
176
     1
290
     0
176
     1
 90
       50
176
     1
 40
0.0
176
     1
 40
1.0
176
     1
 90
        0
176
     1
 62
    18
420
        0
176
     1
 90
       50
176
     1
 90
        3
176
     1
 62
     5
420
      255
176
     1
290
     0
176
     1
 90
       50
176
     1
 90
       50
176
     1
 90
       50
176
     1
290
     0
176
     1
 90
       50
176
     1
 62
   256
176
     0
 40
1.0
176
     0
 90
        2
176
     1
  1
strokes_ogs.tif
176
     1
290
     0
176
     1
 40
1.0
176
     1
 40
1.0
176
     1
  0
VISUALSTYLE
  5
3B
102
{ACAD_REACTORS
330
2A
102
}
330
2A
100
AcDbVisualStyle
  2
JitterOff
 70
    20
177
     3
291
     1
 70
    58
 90
        2
176
     0
 90
        2
176
     0
 90
        0
176
     0
 90
        0
176
     0
 40
0.6
176
     0
 40
30.0
176
     0
 62
     7
420
 16777215
176
     0
 90
        1
176
     0
 90
        4
176
     0
 62
     7
176
     0
 62
   257
176
     0
 90
        1
176
     0
 90
        1
176
     0
 40
1.0
176
     0
 90
       10
176
     2
 62
     7
176
     0
 40
1.0
176
     0
 90
        1
176
     0
 90
        6
176
     0
 90
        2
176
     0
 62
     7
176
     0
 90
        5
176
     0
 90
        0
176
     0
 90
        0
176
     0
290
     0
176
     0
 90
        1
176
     0
 40
0.0
176
     0
 90
        0
176
     0
290
     0
176
     0
290
     1
176
     0
290
     1
176
     0
290
     0
176
     0
290
     0
176
     0
290
     0
176
     0
290
     0
176
     0
290
     0
176
     0
290
     0
176
     0
 90
       50
176
     0
 40
0.0
176
     0
 40
1.0
176
     0
 90
        0
176
     0
 62
    18
420
        0
176
     0
 90
       50
176
     0
 90
        3
176
     0
 62
     5
420
      255
176
     0
290
     0
176
     0
 90
       50
176
     0
 90
       50
176
     0
 90
       50
176
     0
290
     0
176
     0
 90
       50
176
     0
 62
   256
176
     0
 40
1.0
176
     0
 90
        2
176
     0
  1
strokes_ogs.tif
176
     0
290
     0
176
     0
 40
1.0
176
     0
 40
1.0
176
     0
  0
VISUALSTYLE
  5
38
102
{ACAD_REACTORS
330
2A
102
}
330
2A
100
AcDbVisualStyle
  2
Linepattern
 70
    14
177
     3
291
     1
 70
    58
 90
        2
176
     1
 90
        2
176
     1
 90
        0
176
     1
 90
        0
176
     1
 40
0.6
176
     1
 40
30.0
176
     1
 62
     7
420
 16777215
176
     1
 90
        1
176
     1
 90
        4
176
     1
 62
     7
176
     1
 62
   257
176
     1
 90
        7
176
     1
 90
        7
176
     1
 40
1.0
176
     1
 90
        8
176
     1
 62
     7
176
     1
 40
1.0
176
     1
 90
        1
176
     1
 90
        6
176
     1
 90
        2
176
     1
 62
     7
176
     1
 90
        5
176
     1
 90
        0
176
     1
 90
        0
176
     1
290
     0
176
     1
 90
        1
176
     1
 40
0.0
176
     1
 90
        0
176
     1
290
     0
176
     1
290
     1
176
     1
290
     1
176
     1
290
     0
176
     1
290
     0
176
     1
290
     0
176
     1
290
     0
176
     1
290
     0
176
     1
290
     0
176
     1
 90
       50
176
     1
 40
0.0
176
     1
 40
1.0
176
     1
 90
        0
176
     1
 62
    18
420
        0
176
     1
 90
       50
176
     1
 90
        3
176
     1
 62
     5
420
      255
176
     1
290
     0
176
     1
 90
       50
176
     1
 90
       50
176
     1
 90
       50
176
     1
290
     0
176
     1
 90
       50
176
     1
 62
   256
176
     0
 40
1.0
176
     0
 90
        2
176
     1
  1
strokes_ogs.tif
176
     1
290
     0
176
     1
 40
1.0
176
     1
 40
1.0
176
     1
  0
VISUALSTYLE
  5
3C
102
{ACAD_REACTORS
330
2A
102
}
330
2A
100
AcDbVisualStyle
  2
OverhangOff
 70
    21
177
     3
291
     1
 70
    58
 90
        2
176
     0
 90
        2
176
     0
 90
        0
176
     0
 90
        0
176
     0
 40
0.6
176
     0
 40
30.0
176
     0
 62
     7
420
 16777215
176
     0
 90
        1
176
     0
 90
        4
176
     0
 62
     7
176
     0
 62
   257
176
     0
 90
        1
176
     0
 90
        1
176
     0
 40
1.0
176
     0
 90
        9
176
     2
 62
     7
176
     0
 40
1.0
176
     0
 90
        1
176
     0
 90
        6
176
     0
 90
        2
176
     0
 62
     7
176
     0
 90
        5
176
     0
 90
        0
176
     0
 90
        0
176
     0
290
     0
176
     0
 90
        1
176
     0
 40
0.0
176
     0
 90
        0
176
     0
290
     0
176
     0
290
     1
176
     0
290
     1
176
     0
290
     0
176
     0
290
     0
176
     0
290
     0
176
     0
290
     0
176
     0
290
     0
176
     0
290
     0
176
     0
 90
       50
176
     0
 40
0.0
176
     0
 40
1.0
176
     0
 90
        0
176
     0
 62
    18
420
        0
176
     0
 90
       50
176
     0
 90
        3
176
     0
 62
     5
420
      255
176
     0
290
     0
176
     0
 90
       50
176
     0
 90
       50
176
     0
 90
       50
176
     0
290
     0
176
     0
 90
       50
176
     0
 62
   256
176
     0
 40
1.0
176
     0
 90
        2
176
     0
  1
strokes_ogs.tif
176
     0
290
     0
176
     0
 40
1.0
176
     0
 40
1.0
176
     0
  0
VISUALSTYLE
  5
33
102
{ACAD_REACTORS
330
2A
102
}
330
2A
100
AcDbVisualStyle
  2
Realistic
 70
     8
177
     3
291
     0
 70
    58
 90
        2
176
     1
 90
        3
176
     1
 90
        0
176
     1
 90
        2
176
     1
 40
0.6
176
     1
 40
30.0
176
     1
 62
     7
420
 16777215
176
     1
 90
        0
176
     1
 90
        0
176
     1
 62
     7
176
     1
 62
   257
176
     1
 90
        1
176
     1
 90
        1
176
     1
 40
1.0
176
     1
 90
        8
176
     1
 62
   257
176
     1
 40
1.0
176
     1
 90
        1
176
     1
 90
        6
176
     1
 90
        2
176
     1
 62
     7
176
     1
 90
        3
176
     1
 90
        0
176
     1
 90
        0
176
     1
290
     0
176
     1
 90
       13
176
     1
 40
0.0
176
     1
 90
        0
176
     1
290
     0
176
     1
290
     1
176
     1
290
     1
176
     1
290
     0
176
     1
290
     0
176
     1
290
     0
176
     1
290
     0
176
     1
290
     0
176
     1
290
     0
176
     1
 90
       50
176
     1
 40
0.0
176
     1
 40
1.0
176
     1
 90
        0
176
     1
 62
    18
420
        0
176
     1
 90
       50
176
     1
 90
        3
176
     1
 62
     5
420
      255
176
     1
290
     0
176
     1
 90
       50
176
     1
 90
       50
176
     1
 90
       50
176
     1
290
     0
176
     1
 90
       50
176
     1
 62
   256
176
     0
 40
1.0
176
     0
 90
        2
176
     1
  1
strokes_ogs.tif
176
     1
290
     0
176
     1
 40
1.0
176
     1
 40
1.0
176
     1
  0
VISUALSTYLE
  5
42
102
{ACAD_REACTORS
330
2A
102
}
330
2A
100
AcDbVisualStyle
  2
Shaded
 70
    27
177
     3
291
     0
 70
    58
 90
        2
176
     1
 90
        2
176
     1
 90
        1
176
     1
 90
        2
176
     1
 40
0.6
176
     1
 40
30.0
176
     1
 62
     7
420
 16777215
176
     1
 90
        0
176
     1
 90
        4
176
     1
 62
     7
176
     1
 62
   257
176
     1
 90
        1
176
     1
 90
        1
176
     1
 40
1.0
176
     1
 90
        8
176
     1
 62
   257
176
     1
 40
1.0
176
     1
 90
        1
176
     1
 90
        6
176
     1
 90
        2
176
     1
 62
     8
420
  7895160
176
     1
 90
        3
176
     1
 90
        0
176
     1
 90
        0
176
     1
290
     0
176
     1
 90
        5
176
     1
 40
0.0
176
     1
 90
        0
176
     1
290
     0
176
     1
290
     1
176
     1
290
     1
176
     1
290
     0
176
     1
290
     0
176
     1
290
     0
176
     1
290
     0
176
     1
290
     0
176
     1
290
     0
176
     1
 90
       50
176
     1
 40
0.0
176
     1
 40
1.0
176
     1
 90
        0
176
     1
 62
    18
420
        0
176
     1
 90
       50
176
     1
 90
        3
176
     1
 62
     5
420
      255
176
     1
290
     0
176
     1
 90
       50
176
     1
 90
       50
176
     1
 90
       50
176
     1
290
     0
176
     1
 90
       50
176
     1
 62
   256
176
     0
 40
1.0
176
     0
 90
        2
176
     1
  1
strokes_ogs.tif
176
     1
290
     0
176
     1
 40
1.0
176
     1
 40
1.0
176
     1
  0
VISUALSTYLE
  5
41
102
{ACAD_REACTORS
330
2A
102
}
330
2A
100
AcDbVisualStyle
  2
Shaded with edges
 70
    26
177
     3
291
     0
 70
    58
 90
        2
176
     1
 90
        2
176
     1
 90
        1
176
     1
 90
        2
176
     1
 40
0.6
176
     1
 40
30.0
176
     1
 62
     7
420
 16777215
176
     1
 90
        1
176
     1
 90
       10
176
     1
 62
     7
176
     1
 62
   257
176
     1
 90
        2
176
     1
 90
        1
176
     1
 40
1.0
176
     1
 90
        8
176
     1
 62
   257
176
     1
 40
1.0
176
     1
 90
        1
176
     1
 90
        6
176
     1
 90
        2
176
     1
 62
     7
176
     1
 90
        3
176
     1
 90
        0
176
     1
 90
        0
176
     1
290
     0
176
     1
 90
        5
176
     1
 40
0.0
176
     1
 90
        0
176
     1
290
     0
176
     1
290
     1
176
     1
290
     1
176
     1
290
     0
176
     1
290
     0
176
     1
290
     0
176
     1
290
     0
176
     1
290
     0
176
     1
290
     0
176
     1
 90
       50
176
     1
 40
0.0
176
     1
 40
1.0
176
     1
 90
        0
176
     1
 62
    18
420
        0
176
     1
 90
       50
176
     1
 90
        3
176
     1
 62
     5
420
      255
176
     1
290
     0
176
     1
 90
       50
176
     1
 90
       50
176
     1
 90
       50
176
     1
290
     0
176
     1
 90
       50
176
     1
 62
   256
176
     0
 40
1.0
176
     0
 90
        2
176
     1
  1
strokes_ogs.tif
176
     1
290
     0
176
     1
 40
1.0
176
     1
 40
1.0
176
     1
  0
VISUALSTYLE
  5
3E
102
{ACAD_REACTORS
330
2A
102
}
330
2A
100
AcDbVisualStyle
  2
Shades of Gray
 70
    23
177
     3
291
     0
 70
    58
 90
        2
176
     1
 90
        2
176
     1
 90
        3
176
     1
 90
        0
176
     1
 40
0.6
176
     1
 40
30.0
176
     1
 62
     7
420
 16777215
176
     1
 90
        2
176
     1
 90
        2
176
     1
 62
     7
176
     1
 62
     7
176
     1
 90
        1
176
     1
 90
        1
176
     1
 40
40.0
176
     1
 90
        8
176
     1
 62
     7
176
     1
 40
1.0
176
     1
 90
        1
176
     1
 90
        6
176
     1
 90
        2
176
     1
 62
     7
176
     1
 90
        3
176
     1
 90
        0
176
     1
 90
        0
176
     1
290
     0
176
     1
 90
        1
176
     1
 40
0.0
176
     1
 90
        0
176
     1
290
     0
176
     1
290
     1
176
     1
290
     1
176
     1
290
     0
176
     1
290
     0
176
     1
290
     0
176
     1
290
     0
176
     1
290
     0
176
     1
290
     0
176
     1
 90
       50
176
     1
 40
0.0
176
     1
 40
1.0
176
     1
 90
        0
176
     1
 62
    18
420
        0
176
     1
 90
       50
176
     1
 90
        3
176
     1
 62
     5
420
      255
176
     1
290
     0
176
     1
 90
       50
176
     1
 90
       50
176
     1
 90
       50
176
     1
290
     0
176
     1
 90
       50
176
     1
 62
   256
176
     0
 40
1.0
176
     0
 90
        2
176
     1
  1
strokes_ogs.tif
176
     1
290
     0
176
     1
 40
1.0
176
     1
 40
1.0
176
     1
  0
VISUALSTYLE
  5
3F
102
{ACAD_REACTORS
330
2A
102
}
330
2A
100
AcDbVisualStyle
  2
Sketchy
 70
    24
177
     3
291
     0
 70
    58
 90
        1
176
     1
 90
        2
176
     1
 90
        2
176
     1
 90
        0
176
     1
 40
0.6
176
     1
 40
30.0
176
     1
 62
     7
420
 16777215
176
     1
 90
        2
176
     1
 90
        2
176
     1
 62
     7
176
     1
 62
     7
176
     1
 90
        1
176
     1
 90
        1
176
     1
 40
40.0
176
     1
 90
       11
176
     1
 62
     7
176
     1
 40
1.0
176
     1
 90
        1
176
     1
 90
        6
176
     1
 90
        2
176
     1
 62
     7
176
     1
 90
        6
176
     1
 90
        0
176
     1
 90
        0
176
     1
290
     0
176
     1
 90
        1
176
     1
 40
0.0
176
     1
 90
        0
176
     1
290
     0
176
     1
290
     1
176
     1
290
     1
176
     1
290
     0
176
     1
290
     0
176
     1
290
     0
176
     1
290
     0
176
     1
290
     0
176
     1
290
     0
176
     1
 90
       50
176
     1
 40
0.0
176
     1
 40
1.0
176
     1
 90
        0
176
     1
 62
    18
420
        0
176
     1
 90
       50
176
     1
 90
        3
176
     1
 62
     5
420
      255
176
     1
290
     0
176
     1
 90
       50
176
     1
 90
       50
176
     1
 90
       50
176
     1
290
     0
176
     1
 90
       50
176
     1
 62
   256
176
     0
 40
1.0
176
     0
 90
        2
176
     1
  1
strokes_ogs.tif
176
     1
290
     0
176
     1
 40
1.0
176
     1
 40
1.0
176
     1
  0
VISUALSTYLE
  5
37
102
{ACAD_REACTORS
330
2A
102
}
330
2A
100
AcDbVisualStyle
  2
Thicken
 70
    13
177
     3
291
     1
 70
    58
 90
        2
176
     1
 90
        2
176
     1
 90
        0
176
     1
 90
        0
176
     1
 40
0.6
176
     1
 40
30.0
176
     1
 62
     7
420
 16777215
176
     1
 90
        1
176
     1
 90
        4
176
     1
 62
     7
176
     1
 62
   257
176
     1
 90
        1
176
     1
 90
        1
176
     1
 40
1.0
176
     1
 90
       12
176
     1
 62
     7
176
     1
 40
1.0
176
     1
 90
        1
176
     1
 90
        6
176
     1
 90
        2
176
     1
 62
     7
176
     1
 90
        5
176
     1
 90
        0
176
     1
 90
        0
176
     1
290
     0
176
     1
 90
        1
176
     1
 40
0.0
176
     1
 90
        0
176
     1
290
     0
176
     1
290
     1
176
     1
290
     1
176
     1
290
     0
176
     1
290
     0
176
     1
290
     0
176
     1
290
     0
176
     1
290
     0
176
     1
290
     0
176
     1
 90
       50
176
     1
 40
0.0
176
     1
 40
1.0
176
     1
 90
        0
176
     1
 62
    18
420
        0
176
     1
 90
       50
176
     1
 90
        3
176
     1
 62
     5
420
      255
176
     1
290
     0
176
     1
 90
       50
176
     1
 90
       50
176
     1
 90
       50
176
     1
290
     0
176
     1
 90
       50
176
     1
 62
   256
176
     0
 40
1.0
176
     0
 90
        2
176
     1
  1
strokes_ogs.tif
176
     1
290
     0
176
     1
 40
1.0
176
     1
 40
1.0
176
     1
  0
VISUALSTYLE
  5
30
102
{ACAD_REACTORS
330
2A
102
}
330
2A
100
AcDbVisualStyle
  2
Wireframe
 70
     5
177
     3
291
     0
 70
    58
 90
        0
176
     1
 90
        2
176
     1
 90
        0
176
     1
 90
        0
176
     1
 40
0.6
176
     1
 40
30.0
176
     1
 62
     7
420
 16777215
176
     1
 90
        1
176
     1
 90
        4
176
     1
 62
     7
176
     1
 62
   257
176
     1
 90
        1
176
     1
 90
        1
176
     1
 40
1.0
176
     1
 90
        0
176
     1
 62
   257
176
     1
 40
1.0
176
     1
 90
        1
176
     1
 90
        6
176
     1
 90
        2
176
     1
 62
     7
176
     1
 90
        3
176
     1
 90
        0
176
     1
 90
        0
176
     1
290
     0
176
     1
 90
        1
176
     1
 40
0.0
176
     1
 90
        0
176
     1
290
     0
176
     1
290
     1
176
     1
290
     1
176
     1
290
     0
176
     1
290
     0
176
     1
290
     0
176
     1
290
     0
176
     1
290
     0
176
     1
290
     0
176
     1
 90
       50
176
     1
 40
0.0
176
     1
 40
1.0
176
     1
 90
        0
176
     1
 62
    18
420
        0
176
     1
 90
       50
176
     1
 90
        3
176
     1
 62
     5
420
      255
176
     1
290
     0
176
     1
 90
       50
176
     1
 90
       50
176
     1
 90
       50
176
     1
290
     0
176
     1
 90
       50
176
     1
 62
   256
176
     0
 40
1.0
176
     0
 90
        2
176
     1
  1
strokes_ogs.tif
176
     1
290
     0
176
     1
 40
1.0
176
     1
 40
1.0
176
     1
  0
VISUALSTYLE
  5
40
102
{ACAD_REACTORS
330
2A
102
}
330
2A
100
AcDbVisualStyle
  2
X-Ray
 70
    25
177
     3
291
     0
 70
    58
 90
        2
176
     1
 90
        2
176
     1
 90
        1
176
     1
 90
        1
176
     1
 40
0.5
176
     1
 40
30.0
176
     1
 62
     7
420
 16777215
176
     1
 90
        1
176
     1
 90
        0
176
     1
 62
     7
176
     1
 62
   257
176
     1
 90
        1
176
     1
 90
        1
176
     1
 40
1.0
176
     1
 90
        8
176
     1
 62
     7
176
     1
 40
1.0
176
     1
 90
        1
176
     1
 90
        6
176
     1
 90
        2
176
     1
 62
     7
176
     1
 90
        3
176
     1
 90
        0
176
     1
 90
        0
176
     1
290
     0
176
     1
 90
       13
176
     1
 40
0.0
176
     1
 90
        0
176
     1
290
     0
176
     1
290
     1
176
     1
290
     1
176
     1
290
     0
176
     1
290
     0
176
     1
290
     0
176
     1
290
     0
176
     1
290
     0
176
     1
290
     0
176
     1
 90
       50
176
     1
 40
0.0
176
     1
 40
1.0
176
     1
 90
        0
176
     1
 62
    18
420
        0
176
     1
 90
       50
176
     1
 90
        3
176
     1
 62
     5
420
      255
176
     1
290
     0
176
     1
 90
       50
176
     1
 90
       50
176
     1
 90
       50
176
     1
290
     0
176
     1
 90
       50
176
     1
 62
   256
176
     0
 40
1.0
176
     0
 90
        2
176
     1
  1
strokes_ogs.tif
176
     1
290
     0
176
     1
 40
1.0
176
     1
 40
1.0
176
     1
  0
DICTIONARYVAR
  5
493
102
{ACAD_REACTORS
330
492
102
}
330
492
100
DictionaryVariables
280
     0
  1
1:1
  0
DICTIONARYVAR
  5
498
102
{ACAD_REACTORS
330
492
102
}
330
492
100
DictionaryVariables
280
     0
  1
Standard
  0
DICTIONARYVAR
  5
497
102
{ACAD_REACTORS
330
492
102
}
330
492
100
DictionaryVariables
280
     0
  1
Standard
  0
DICTIONARYVAR
  5
49B
102
{ACAD_REACTORS
330
492
102
}
330
492
100
DictionaryVariables
280
     0
  1
0
  0
DICTIONARY
  5
494
330
6A
100
AcDbDictionary
280
     1
281
     1
  3
ACAD_ROUNDTRIP_2008_TABLESTYLE_CELLSTYLEMAP
360
495
  0
CELLSTYLEMAP
  5
495
102
{ACAD_REACTORS
330
494
102
}
330
494
100
AcDbCellStyleMap
 90
        3
300
CELLSTYLE
  1
TABLEFORMAT_BEGIN
 90
        5
170
     1
 91
        0
 92
    32768
 62
   257
 93
        1
300
CONTENTFORMAT
  1
CONTENTFORMAT_BEGIN
 90
        0
 91
        0
 92
        4
 93
        0
300

 40
0.0
140
1.0
 94
        5
 62
     0
340
11
144
0.25
309
CONTENTFORMAT_END
171
     1
301
MARGIN
  1
CELLMARGIN_BEGIN
 40
0.06
 40
0.06
 40
0.06
 40
0.06
 40
0.06
 40
0.06
309
CELLMARGIN_END
 94
        6
 95
        1
302
GRIDFORMAT
  1
GRIDFORMAT_BEGIN
 90
        0
 91
        1
 62
     0
 92
       -2
340
14
 93
        0
 40
0.045
309
GRIDFORMAT_END
 95
        2
302
GRIDFORMAT
  1
GRIDFORMAT_BEGIN
 90
        0
 91
        1
 62
     0
 92
       -2
340
14
 93
        0
 40
0.045
309
GRIDFORMAT_END
 95
        4
302
GRIDFORMAT
  1
GRIDFORMAT_BEGIN
 90
        0
 91
        1
 62
     0
 92
       -2
340
14
 93
        0
 40
0.045
309
GRIDFORMAT_END
 95
        8
302
GRIDFORMAT
  1
GRIDFORMAT_BEGIN
 90
        0
 91
        1
 62
     0
 92
       -2
340
14
 93
        0
 40
0.045
309
GRIDFORMAT_END
 95
       16
302
GRIDFORMAT
  1
GRIDFORMAT_BEGIN
 90
        0
 91
        1
 62
     0
 92
       -2
340
14
 93
        0
 40
0.045
309
GRIDFORMAT_END
 95
       32
302
GRIDFORMAT
  1
GRIDFORMAT_BEGIN
 90
        0
 91
        1
 62
     0
 92
       -2
340
14
 93
        0
 40
0.045
309
GRIDFORMAT_END
309
TABLEFORMAT_END
  1
CELLSTYLE_BEGIN
 90
        1
 91
        1
300
_TITLE
309
CELLSTYLE_END
300
CELLSTYLE
  1
TABLEFORMAT_BEGIN
 90
        5
170
     1
 91
        0
 92
        0
 62
   257
 93
        1
300
CONTENTFORMAT
  1
CONTENTFORMAT_BEGIN
 90
        0
 91
        0
 92
        4
 93
        0
300

 40
0.0
140
1.0
 94
        5
 62
     0
340
11
144
0.18
309
CONTENTFORMAT_END
171
     1
301
MARGIN
  1
CELLMARGIN_BEGIN
 40
0.06
 40
0.06
 40
0.06
 40
0.06
 40
0.06
 40
0.06
309
CELLMARGIN_END
 94
        6
 95
        1
302
GRIDFORMAT
  1
GRIDFORMAT_BEGIN
 90
        0
 91
        1
 62
     0
 92
       -2
340
14
 93
        0
 40
0.045
309
GRIDFORMAT_END
 95
        2
302
GRIDFORMAT
  1
GRIDFORMAT_BEGIN
 90
        0
 91
        1
 62
     0
 92
       -2
340
14
 93
        0
 40
0.045
309
GRIDFORMAT_END
 95
        4
302
GRIDFORMAT
  1
GRIDFORMAT_BEGIN
 90
        0
 91
        1
 62
     0
 92
       -2
340
14
 93
        0
 40
0.045
309
GRIDFORMAT_END
 95
        8
302
GRIDFORMAT
  1
GRIDFORMAT_BEGIN
 90
        0
 91
        1
 62
     0
 92
       -2
340
14
 93
        0
 40
0.045
309
GRIDFORMAT_END
 95
       16
302
GRIDFORMAT
  1
GRIDFORMAT_BEGIN
 90
        0
 91
        1
 62
     0
 92
       -2
340
14
 93
        0
 40
0.045
309
GRIDFORMAT_END
 95
       32
302
GRIDFORMAT
  1
GRIDFORMAT_BEGIN
 90
        0
 91
        1
 62
     0
 92
       -2
340
14
 93
        0
 40
0.045
309
GRIDFORMAT_END
309
TABLEFORMAT_END
  1
CELLSTYLE_BEGIN
 90
        2
 91
        1
300
_HEADER
309
CELLSTYLE_END
300
CELLSTYLE
  1
TABLEFORMAT_BEGIN
 90
        5
170
     1
 91
        0
 92
        0
 62
   257
 93
        1
300
CONTENTFORMAT
  1
CONTENTFORMAT_BEGIN
 90
        0
 91
        0
 92
        4
 93
        0
300

 40
0.0
140
1.0
 94
        2
 62
     0
340
11
144
0.18
309
CONTENTFORMAT_END
171
     1
301
MARGIN
  1
CELLMARGIN_BEGIN
 40
0.06
 40
0.06
 40
0.06
 40
0.06
 40
0.06
 40
0.06
309
CELLMARGIN_END
 94
        6
 95
        1
302
GRIDFORMAT
  1
GRIDFORMAT_BEGIN
 90
        0
 91
        1
 62
     0
 92
       -2
340
14
 93
        0
 40
0.045
309
GRIDFORMAT_END
 95
        2
302
GRIDFORMAT
  1
GRIDFORMAT_BEGIN
 90
        0
 91
        1
 62
     0
 92
       -2
340
14
 93
        0
 40
0.045
309
GRIDFORMAT_END
 95
        4
302
GRIDFORMAT
  1
GRIDFORMAT_BEGIN
 90
        0
 91
        1
 62
     0
 92
       -2
340
14
 93
        0
 40
0.045
309
GRIDFORMAT_END
 95
        8
302
GRIDFORMAT
  1
GRIDFORMAT_BEGIN
 90
        0
 91
        1
 62
     0
 92
       -2
340
14
 93
        0
 40
0.045
309
GRIDFORMAT_END
 95
       16
302
GRIDFORMAT
  1
GRIDFORMAT_BEGIN
 90
        0
 91
        1
 62
     0
 92
       -2
340
14
 93
        0
 40
0.045
309
GRIDFORMAT_END
 95
       32
302
GRIDFORMAT
  1
GRIDFORMAT_BEGIN
 90
        0
 91
        1
 62
     0
 92
       -2
340
14
 93
        0
 40
0.045
309
GRIDFORMAT_END
309
TABLEFORMAT_END
  1
CELLSTYLE_BEGIN
 90
        3
 91
        2
300
_DATA
309
CELLSTYLE_END
  0
ENDSEC
  0
EOF
