  0
SECTION
  2
HEADER
  9
$ACADVER
  1
AC1027
  9
$ACADMAINTVER
 70
   105
  9
$DWGCODEPAGE
  3
ANSI_1252
  9
$REQUIREDVERSIONS
160
                 0
  9
$INSBASE
 10
0.0
 20
0.0
 30
0.0
  9
$EXTMIN
 10
10990.75085774395
 20
1394.601785601026
 30
0.0
  9
$EXTMAX
 10
11975.75085774395
 20
2749.601785601053
 30
0.0
  9
$LIMMIN
 10
0.0
 20
0.0
  9
$LIMMAX
 10
12.0
 20
9.0
  9
$ORTHOMODE
 70
     0
  9
$REGENMODE
 70
     1
  9
$FILLMODE
 70
     1
  9
$QTEXTMODE
 70
     0
  9
$MIRRTEXT
 70
     1
  9
$LTSCALE
 40
5.0
  9
$ATTMODE
 70
     1
  9
$TEXTSIZE
 40
0.2
  9
$TRACEWID
 40
0.05
  9
$TEXTSTYLE
  7
Standard
  9
$CLAYER
  8
0
  9
$CELTYPE
  6
ByLayer
  9
$CECOLOR
 62
   256
  9
$CELTSCALE
 40
1.0
  9
$DISPSILH
 70
     0
  9
$DIMSCALE
 40
1.0
  9
$DIMASZ
 40
0.18
  9
$DIMEXO
 40
0.0625
  9
$DIMDLI
 40
0.38
  9
$DIMRND
 40
0.0
  9
$DIMDLE
 40
0.0
  9
$DIMEXE
 40
0.18
  9
$DIMTP
 40
0.0
  9
$DIMTM
 40
0.0
  9
$DIMTXT
 40
0.18
  9
$DIMCEN
 40
0.09
  9
$DIMTSZ
 40
0.0
  9
$DIMTOL
 70
     0
  9
$DIMLIM
 70
     0
  9
$DIMTIH
 70
     1
  9
$DIMTOH
 70
     1
  9
$DIMSE1
 70
     0
  9
$DIMSE2
 70
     0
  9
$DIMTAD
 70
     0
  9
$DIMZIN
 70
     0
  9
$DIMBLK
  1

  9
$DIMASO
 70
     1
  9
$DIMSHO
 70
     1
  9
$DIMPOST
  1

  9
$DIMAPOST
  1

  9
$DIMALT
 70
     0
  9
$DIMALTD
 70
     2
  9
$DIMALTF
 40
25.4
  9
$DIMLFAC
 40
1.0
  9
$DIMTOFL
 70
     1
  9
$DIMTVP
 40
0.0
  9
$DIMTIX
 70
     0
  9
$DIMSOXD
 70
     1
  9
$DIMSAH
 70
     0
  9
$DIMBLK1
  1

  9
$DIMBLK2
  1

  9
$DIMSTYLE
  2
Standard
  9
$DIMCLRD
 70
     0
  9
$DIMCLRE
 70
     0
  9
$DIMCLRT
 70
     0
  9
$DIMTFAC
 40
1.0
  9
$DIMGAP
 40
0.09
  9
$DIMJUST
 70
     0
  9
$DIMSD1
 70
     0
  9
$DIMSD2
 70
     0
  9
$DIMTOLJ
 70
     1
  9
$DIMTZIN
 70
     0
  9
$DIMALTZ
 70
     0
  9
$DIMALTTZ
 70
     0
  9
$DIMUPT
 70
     0
  9
$DIMDEC
 70
     4
  9
$DIMTDEC
 70
     4
  9
$DIMALTU
 70
     2
  9
$DIMALTTD
 70
     2
  9
$DIMTXSTY
  7
Standard
  9
$DIMAUNIT
 70
     0
  9
$DIMADEC
 70
     0
  9
$DIMALTRND
 40
0.0
  9
$DIMAZIN
 70
     0
  9
$DIMDSEP
 70
    46
  9
$DIMATFIT
 70
     3
  9
$DIMFRAC
 70
     0
  9
$DIMLDRBLK
  1

  9
$DIMLUNIT
 70
     2
  9
$DIMLWD
 70
    -2
  9
$DIMLWE
 70
    -2
  9
$DIMTMOVE
 70
     2
  9
$DIMFXL
 40
1.0
  9
$DIMFXLON
 70
     0
  9
$DIMJOGANG
 40
0.7853981633974483
  9
$DIMTFILL
 70
     0
  9
$DIMTFILLCLR
 70
     0
  9
$DIMARCSYM
 70
     0
  9
$DIMLTYPE
  6

  9
$DIMLTEX1
  6

  9
$DIMLTEX2
  6

  9
$DIMTXTDIRECTION
 70
     0
  9
$LUNITS
 70
     2
  9
$LUPREC
 70
     4
  9
$SKETCHINC
 40
0.1
  9
$FILLETRAD
 40
0.5
  9
$AUNITS
 70
     0
  9
$AUPREC
 70
     0
  9
$MENU
  1
.
  9
$ELEVATION
 40
0.0
  9
$PELEVATION
 40
0.0
  9
$THICKNESS
 40
0.0
  9
$LIMCHECK
 70
     0
  9
$CHAMFERA
 40
0.0
  9
$CHAMFERB
 40
0.0
  9
$CHAMFERC
 40
0.0
  9
$CHAMFERD
 40
0.0
  9
$SKPOLY
 70
     0
  9
$TDCREATE
 40
2459195.439693171
  9
$TDUCREATE
 40
2459195.398026505
  9
$TDUPDATE
 40
2459195.439696354
  9
$TDUUPDATE
 40
2459195.398029687
  9
$TDINDWG
 40
0.0000000116
  9
$TDUSRTIMER
 40
0.0000000116
  9
$USRTIMER
 70
     1
  9
$ANGBASE
 50
0.0
  9
$ANGDIR
 70
     0
  9
$PDMODE
 70
     0
  9
$PDSIZE
 40
0.0
  9
$PLINEWID
 40
0.0
  9
$SPLFRAME
 70
     0
  9
$SPLINETYPE
 70
     6
  9
$SPLINESEGS
 70
     8
  9
$HANDSEED
  5
459
  9
$SURFTAB1
 70
     6
  9
$SURFTAB2
 70
     6
  9
$SURFTYPE
 70
     6
  9
$SURFU
 70
     6
  9
$SURFV
 70
     6
  9
$UCSBASE
  2

  9
$UCSNAME
  2

  9
$UCSORG
 10
0.0
 20
0.0
 30
0.0
  9
$UCSXDIR
 10
1.0
 20
0.0
 30
0.0
  9
$UCSYDIR
 10
0.0
 20
1.0
 30
0.0
  9
$UCSORTHOREF
  2

  9
$UCSORTHOVIEW
 70
     0
  9
$UCSORGTOP
 10
0.0
 20
0.0
 30
0.0
  9
$UCSORGBOTTOM
 10
0.0
 20
0.0
 30
0.0
  9
$UCSORGLEFT
 10
0.0
 20
0.0
 30
0.0
  9
$UCSORGRIGHT
 10
0.0
 20
0.0
 30
0.0
  9
$UCSORGFRONT
 10
0.0
 20
0.0
 30
0.0
  9
$UCSORGBACK
 10
0.0
 20
0.0
 30
0.0
  9
$PUCSBASE
  2

  9
$PUCSNAME
  2

  9
$PUCSORG
 10
0.0
 20
0.0
 30
0.0
  9
$PUCSXDIR
 10
1.0
 20
0.0
 30
0.0
  9
$PUCSYDIR
 10
0.0
 20
1.0
 30
0.0
  9
$PUCSORTHOREF
  2

  9
$PUCSORTHOVIEW
 70
     0
  9
$PUCSORGTOP
 10
0.0
 20
0.0
 30
0.0
  9
$PUCSORGBOTTOM
 10
0.0
 20
0.0
 30
0.0
  9
$PUCSORGLEFT
 10
0.0
 20
0.0
 30
0.0
  9
$PUCSORGRIGHT
 10
0.0
 20
0.0
 30
0.0
  9
$PUCSORGFRONT
 10
0.0
 20
0.0
 30
0.0
  9
$PUCSORGBACK
 10
0.0
 20
0.0
 30
0.0
  9
$USERI1
 70
     0
  9
$USERI2
 70
     0
  9
$USERI3
 70
     0
  9
$USERI4
 70
     0
  9
$USERI5
 70
     0
  9
$USERR1
 40
0.0
  9
$USERR2
 40
0.0
  9
$USERR3
 40
0.0
  9
$USERR4
 40
0.0
  9
$USERR5
 40
0.0
  9
$WORLDVIEW
 70
     1
  9
$SHADEDGE
 70
     3
  9
$SHADEDIF
 70
    70
  9
$TILEMODE
 70
     1
  9
$MAXACTVP
 70
    64
  9
$PINSBASE
 10
0.0
 20
0.0
 30
0.0
  9
$PLIMCHECK
 70
     0
  9
$PEXTMIN
 10
0.0
 20
0.0
 30
0.0
  9
$PEXTMAX
 10
197.6
 20
271.5999999999982
 30
0.0
  9
$PLIMMIN
 10
-20.0
 20
-7.5
  9
$PLIMMAX
 10
277.0
 20
202.5
  9
$UNITMODE
 70
     0
  9
$VISRETAIN
 70
     1
  9
$PLINEGEN
 70
     0
  9
$PSLTSCALE
 70
     0
  9
$TREEDEPTH
 70
  3020
  9
$CMLSTYLE
  2
Standard
  9
$CMLJUST
 70
     0
  9
$CMLSCALE
 40
1.0
  9
$PROXYGRAPHICS
 70
     1
  9
$MEASUREMENT
 70
     1
  9
$CELWEIGHT
370
    -1
  9
$ENDCAPS
280
     0
  9
$JOINSTYLE
280
     0
  9
$LWDISPLAY
290
     0
  9
$INSUNITS
 70
     4
  9
$HYPERLINKBASE
  1

  9
$STYLESHEET
  1

  9
$XEDIT
290
     1
  9
$CEPSNTYPE
380
     0
  9
$PSTYLEMODE
290
     0
  9
$FINGERPRINTGUID
  2
{896BA1B3-809A-440F-9733-93EA59D77CB5}
  9
$VERSIONGUID
  2
{FAEB1C32-E019-11D5-929B-00C0DF256EC4}
  9
$EXTNAMES
290
     1
  9
$PSVPSCALE
 40
0.0
  9
$OLESTARTUP
290
     0
  9
$SORTENTS
280
   127
  9
$INDEXCTL
280
     0
  9
$HIDETEXT
280
     1
  9
$XCLIPFRAME
280
     2
  9
$HALOGAP
280
     0
  9
$OBSCOLOR
 70
   257
  9
$OBSLTYPE
280
     0
  9
$INTERSECTIONDISPLAY
280
     0
  9
$INTERSECTIONCOLOR
 70
   257
  9
$DIMASSOC
280
     2
  9
$PROJECTNAME
  1

  9
$CAMERADISPLAY
290
     0
  9
$LENSLENGTH
 40
50.0
  9
$CAMERAHEIGHT
 40
0.0
  9
$STEPSPERSEC
 40
2.0
  9
$STEPSIZE
 40
6.0
  9
$3DDWFPREC
 40
2.0
  9
$PSOLWIDTH
 40
0.25
  9
$PSOLHEIGHT
 40
4.0
  9
$LOFTANG1
 40
1.570796326794897
  9
$LOFTANG2
 40
1.570796326794897
  9
$LOFTMAG1
 40
0.0
  9
$LOFTMAG2
 40
0.0
  9
$LOFTPARAM
 70
     7
  9
$LOFTNORMALS
280
     1
  9
$LATITUDE
 40
37.795
  9
$LONGITUDE
 40
-122.394
  9
$NORTHDIRECTION
 40
0.0
  9
$TIMEZONE
 70
 -8000
  9
$LIGHTGLYPHDISPLAY
280
     1
  9
$TILEMODELIGHTSYNCH
280
     1
  9
$CMATERIAL
347
44
  9
$SOLIDHIST
280
     0
  9
$SHOWHIST
280
     1
  9
$DWFFRAME
280
     2
  9
$DGNFRAME
280
     2
  9
$REALWORLDSCALE
290
     1
  9
$INTERFERECOLOR
 62
   256
  9
$CSHADOW
280
     0
  9
$SHADOWPLANELOCATION
 40
0.0
  0
ENDSEC
  0
SECTION
  2
CLASSES
  0
CLASS
  1
ACDBDICTIONARYWDFLT
  2
AcDbDictionaryWithDefault
  3
ObjectDBX Classes
 90
        0
 91
        3
280
     0
281
     0
  0
CLASS
  1
VISUALSTYLE
  2
AcDbVisualStyle
  3
ObjectDBX Classes
 90
     4095
 91
        3
280
     0
281
     0
  0
CLASS
  1
MATERIAL
  2
AcDbMaterial
  3
ObjectDBX Classes
 90
     1153
 91
        3
280
     0
281
     0
  0
CLASS
  1
SCALE
  2
AcDbScale
  3
ObjectDBX Classes
 90
     1153
 91
        3
280
     0
281
     0
  0
CLASS
  1
TABLESTYLE
  2
AcDbTableStyle
  3
ObjectDBX Classes
 90
     4095
 91
        3
280
     0
281
     0
  0
CLASS
  1
MLEADERSTYLE
  2
AcDbMLeaderStyle
  3
ACDB_MLEADERSTYLE_CLASS
 90
     4095
 91
        3
280
     0
281
     0
  0
CLASS
  1
SUN
  2
AcDbSun
  3
SCENEOE
 90
     1153
 91
        3
280
     0
281
     0
  0
CLASS
  1
RASTERVARIABLES
  2
AcDbRasterVariables
  3
ISM
 90
        0
 91
        3
280
     0
281
     0
  0
CLASS
  1
PLOTSETTINGS
  2
AcDbPlotSettings
  3
ObjectDBX Classes
 90
        0
 91
        3
280
     0
281
     0
  0
CLASS
  1
IMAGEDEF
  2
AcDbRasterImageDef
  3
ISM
 90
        0
 91
        3
280
     0
281
     0
  0
CLASS
  1
IMAGE
  2
AcDbRasterImage
  3
ISM
 90
      127
 91
        4
280
     0
281
     1
  0
CLASS
  1
IMAGEDEF_REACTOR
  2
AcDbRasterImageDefReactor
  3
ISM
 90
        1
 91
        3
280
     0
281
     0
  0
CLASS
  1
DICTIONARYVAR
  2
AcDbDictionaryVar
  3
ObjectDBX Classes
 90
        0
 91
        3
280
     0
281
     0
  0
CLASS
  1
CELLSTYLEMAP
  2
AcDbCellStyleMap
  3
ObjectDBX Classes
 90
     1152
 91
        3
280
     0
281
     0
  0
ENDSEC
  0
SECTION
  2
TABLES
  0
TABLE
  2
VPORT
  5
8
330
0
100
AcDbSymbolTable
 70
     1
  0
VPORT
  5
29
330
8
100
AcDbSymbolTableRecord
100
AcDbViewportTableRecord
  2
*Active
 70
     0
 10
0.0
 20
0.0
 11
1.0
 21
1.0
 12
10.42990654205607
 22
4.5
 13
0.0
 23
0.0
 14
0.5
 24
0.5
 15
0.5
 25
0.5
 16
0.0
 26
0.0
 36
1.0
 17
0.0
 27
0.0
 37
0.0
 40
9.0
 41
1.972972972850329
 42
50.0
 43
0.0
 44
0.0
 50
0.0
 51
0.0
 71
     0
 72
   100
 73
     1
 74
     3
 75
     0
 76
     0
 77
     0
 78
     0
281
     0
 65
     1
110
0.0
120
0.0
130
0.0
111
1.0
121
0.0
131
0.0
112
0.0
122
1.0
132
0.0
 79
     0
146
0.0
348
2F
 60
     3
 61
     5
292
     1
282
     1
141
0.0
142
0.0
 63
   250
361
6D
  0
ENDTAB
  0
TABLE
  2
LTYPE
  5
5
330
0
100
AcDbSymbolTable
 70
     2
  0
LTYPE
  5
14
330
5
100
AcDbSymbolTableRecord
100
AcDbLinetypeTableRecord
  2
ByBlock
 70
     0
  3

 72
    65
 73
     0
 40
0.0
  0
LTYPE
  5
15
330
5
100
AcDbSymbolTableRecord
100
AcDbLinetypeTableRecord
  2
ByLayer
 70
     0
  3

 72
    65
 73
     0
 40
0.0
  0
LTYPE
  5
16
330
5
100
AcDbSymbolTableRecord
100
AcDbLinetypeTableRecord
  2
Continuous
 70
     0
  3
Solid line
 72
    65
 73
     0
 40
0.0
  0
LTYPE
  5
192
330
5
100
AcDbSymbolTableRecord
100
AcDbLinetypeTableRecord
  2
CADWORK_3
 70
     0
  3

 72
    65
 73
     2
 40
4.0
 49
2.0
 74
     0
 49
-2.0
 74
     0
  0
ENDTAB
  0
TABLE
  2
LAYER
  5
2
330
0
100
AcDbSymbolTable
 70
    34
  0
LAYER
  5
10
330
2
100
AcDbSymbolTableRecord
100
AcDbLayerTableRecord
  2
0
 70
     0
 62
     7
  6
Continuous
370
    -3
390
F
347
46
348
0
  0
LAYER
  5
70
330
2
100
AcDbSymbolTableRecord
100
AcDbLayerTableRecord
  2
Standard
 70
     0
 62
     7
  6
Continuous
370
    -3
390
F
347
46
348
0
  0
LAYER
  5
71
330
2
100
AcDbSymbolTableRecord
100
AcDbLayerTableRecord
  2
Ech.1_1
 70
     0
 62
     7
  6
Continuous
370
    -3
390
F
347
46
348
0
  0
LAYER
  5
72
330
2
100
AcDbSymbolTableRecord
100
AcDbLayerTableRecord
  2
Ech.1_2
 70
     0
 62
     7
  6
Continuous
370
    -3
390
F
347
46
348
0
  0
LAYER
  5
73
330
2
100
AcDbSymbolTableRecord
100
AcDbLayerTableRecord
  2
Ech.1_5
 70
     0
 62
     7
  6
Continuous
370
    -3
390
F
347
46
348
0
  0
LAYER
  5
74
330
2
100
AcDbSymbolTableRecord
100
AcDbLayerTableRecord
  2
Ech.1_10
 70
     0
 62
     7
  6
Continuous
370
    -3
390
F
347
46
348
0
  0
LAYER
  5
75
330
2
100
AcDbSymbolTableRecord
100
AcDbLayerTableRecord
  2
Ech.1_20
 70
     0
 62
     7
  6
Continuous
370
    -3
390
F
347
46
348
0
  0
LAYER
  5
76
330
2
100
AcDbSymbolTableRecord
100
AcDbLayerTableRecord
  2
Ech.1_25
 70
     0
 62
     7
  6
Continuous
370
    -3
390
F
347
46
348
0
  0
LAYER
  5
77
330
2
100
AcDbSymbolTableRecord
100
AcDbLayerTableRecord
  2
Ech.1_33
 70
     0
 62
     7
  6
Continuous
370
    -3
390
F
347
46
348
0
  0
LAYER
  5
78
330
2
100
AcDbSymbolTableRecord
100
AcDbLayerTableRecord
  2
Ech.1_50
 70
     0
 62
     7
  6
Continuous
370
    -3
390
F
347
46
348
0
  0
LAYER
  5
79
330
2
100
AcDbSymbolTableRecord
100
AcDbLayerTableRecord
  2
Ech.1_75
 70
     0
 62
     7
  6
Continuous
370
    -3
390
F
347
46
348
0
  0
LAYER
  5
7A
330
2
100
AcDbSymbolTableRecord
100
AcDbLayerTableRecord
  2
Ech.1_100
 70
     0
 62
     7
  6
Continuous
370
    -3
390
F
347
46
348
0
  0
LAYER
  5
7B
330
2
100
AcDbSymbolTableRecord
100
AcDbLayerTableRecord
  2
Ech.1_200
 70
     0
 62
     7
  6
Continuous
370
    -3
390
F
347
46
348
0
  0
LAYER
  5
7C
330
2
100
AcDbSymbolTableRecord
100
AcDbLayerTableRecord
  2
Ech.1_500
 70
     0
 62
     7
  6
Continuous
370
    -3
390
F
347
46
348
0
  0
LAYER
  5
7D
330
2
100
AcDbSymbolTableRecord
100
AcDbLayerTableRecord
  2
Ech.1_1000
 70
     0
 62
     7
  6
Continuous
370
    -3
390
F
347
46
348
0
  0
LAYER
  5
7E
330
2
100
AcDbSymbolTableRecord
100
AcDbLayerTableRecord
  2
Cadres traceur
 70
     0
 62
     7
  6
Continuous
370
    -3
390
F
347
46
348
0
  0
LAYER
  5
7F
330
2
100
AcDbSymbolTableRecord
100
AcDbLayerTableRecord
  2
Cadres laser
 70
     0
 62
     7
  6
Continuous
370
    -3
390
F
347
46
348
0
  0
LAYER
  5
80
330
2
100
AcDbSymbolTableRecord
100
AcDbLayerTableRecord
  2
Légende d_aide
 70
     0
 62
     7
  6
Continuous
370
    -3
390
F
347
46
348
0
  0
LAYER
  5
81
330
2
100
AcDbSymbolTableRecord
100
AcDbLayerTableRecord
  2
hachures ok
 70
     0
 62
     7
  6
Continuous
370
    -3
390
F
347
46
348
0
  0
LAYER
  5
82
330
2
100
AcDbSymbolTableRecord
100
AcDbLayerTableRecord
  2
ossature bois
 70
     0
 62
     7
  6
Continuous
370
    -3
390
F
347
46
348
0
  0
LAYER
  5
83
330
2
100
AcDbSymbolTableRecord
100
AcDbLayerTableRecord
  2
VR
 70
     0
 62
     7
  6
Continuous
370
    -3
390
F
347
46
348
0
  0
LAYER
  5
84
330
2
100
AcDbSymbolTableRecord
100
AcDbLayerTableRecord
  2
Calque1
 70
     0
 62
     7
  6
Continuous
370
    -3
390
F
347
46
348
0
  0
LAYER
  5
85
330
2
100
AcDbSymbolTableRecord
100
AcDbLayerTableRecord
  2
0_
 70
     0
 62
     7
  6
Continuous
370
    -3
390
F
347
46
348
0
  0
LAYER
  5
86
330
2
100
AcDbSymbolTableRecord
100
AcDbLayerTableRecord
  2
menuiserie
 70
     0
 62
     7
  6
Continuous
370
    -3
390
F
347
46
348
0
  0
LAYER
  5
87
330
2
100
AcDbSymbolTableRecord
100
AcDbLayerTableRecord
  2
cotation
 70
     0
 62
   250
  6
Continuous
370
    -3
390
F
347
46
348
0
  0
LAYER
  5
88
330
2
100
AcDbSymbolTableRecord
100
AcDbLayerTableRecord
  2
Defpoints
 70
     0
 62
    10
  6
Continuous
290
     0
370
    -3
390
F
347
46
348
0
  0
LAYER
  5
89
330
2
100
AcDbSymbolTableRecord
100
AcDbLayerTableRecord
  2
HACHURE
 70
     0
 62
   254
  6
Continuous
370
    -3
390
F
347
46
348
0
  0
LAYER
  5
8A
330
2
100
AcDbSymbolTableRecord
100
AcDbLayerTableRecord
  2
mat1
 70
     0
 62
     7
  6
Continuous
370
    -3
390
F
347
46
348
0
  0
LAYER
  5
8B
330
2
100
AcDbSymbolTableRecord
100
AcDbLayerTableRecord
  2
mat2
 70
     0
 62
     7
  6
Continuous
370
    -3
390
F
347
46
348
0
  0
LAYER
  5
8C
330
2
100
AcDbSymbolTableRecord
100
AcDbLayerTableRecord
  2
hach
 70
     0
 62
     8
  6
Continuous
370
    -3
390
F
347
46
348
0
  0
LAYER
  5
8D
330
2
100
AcDbSymbolTableRecord
100
AcDbLayerTableRecord
  2
menuiseries
 70
     0
 62
     7
  6
Continuous
370
    -3
390
F
347
46
348
0
  0
LAYER
  5
8E
330
2
100
AcDbSymbolTableRecord
100
AcDbLayerTableRecord
  2
BétonMétal
 70
     0
 62
     7
  6
Continuous
370
    -3
390
F
347
46
348
0
  0
LAYER
  5
8F
330
2
100
AcDbSymbolTableRecord
100
AcDbLayerTableRecord
  2
bois
 70
     0
 62
     7
  6
Continuous
370
    -3
390
F
347
46
348
0
  0
LAYER
  5
90
330
2
100
AcDbSymbolTableRecord
100
AcDbLayerTableRecord
  2
mat3
 70
     0
 62
     7
  6
Continuous
370
    -3
390
F
347
46
348
0
  0
ENDTAB
  0
TABLE
  2
STYLE
  5
3
330
0
100
AcDbSymbolTable
 70
     9
  0
STYLE
  5
11
330
3
100
AcDbSymbolTableRecord
100
AcDbTextStyleTableRecord
  2
Standard
 70
     0
 40
0.0
 41
1.0
 50
0.0
 71
     0
 42
0.2
  3
txt
  4

  0
STYLE
  5
91
330
3
100
AcDbSymbolTableRecord
100
AcDbTextStyleTableRecord
  2
CwStyleShx
 70
     0
 40
1.0
 41
1.0
 50
0.0
 71
     0
 42
0.2
  3

  4

  0
STYLE
  5
92
330
3
100
AcDbSymbolTableRecord
100
AcDbTextStyleTableRecord
  2
CwStyleShx16
 70
     0
 40
1.0
 41
1.0
 50
0.0
 71
     0
 42
0.2
  3

  4

  0
STYLE
  5
93
330
3
100
AcDbSymbolTableRecord
100
AcDbTextStyleTableRecord
  2
MONOTXT
 70
     0
 40
0.0
 41
1.0
 50
0.0
 71
     0
 42
0.2
  3
MONOTXT
  4

  0
STYLE
  5
94
330
3
100
AcDbSymbolTableRecord
100
AcDbTextStyleTableRecord
  2
SYMAP
 70
     0
 40
1.0
 41
1.0
 50
0.0
 71
     0
 42
0.2
  3
SYMAP
  4

  0
STYLE
  5
95
330
3
100
AcDbSymbolTableRecord
100
AcDbTextStyleTableRecord
  2
CwStyleTtf
 70
     0
 40
1.0
 41
1.0
 50
0.0
 71
     0
 42
0.2
  3
arial.ttf
  4

  0
STYLE
  5
430
330
3
100
AcDbSymbolTableRecord
100
AcDbTextStyleTableRecord
  2
arial-z
 70
     0
 40
0.0
 41
1.0
 50
0.0
 71
     0
 42
0.2
  3
arial.ttf
  4

1001
ACAD
1000
Arial
1071
        0
  0
STYLE
  5
44A
330
3
100
AcDbSymbolTableRecord
100
AcDbTextStyleTableRecord
  2
arial-
 70
     0
 40
1.0
 41
1.0
 50
0.0
 71
     0
 42
0.2
  3

  4

1001
ACAD
1000
Arial
1071
        0
  0
STYLE
  5
44D
330
3
100
AcDbSymbolTableRecord
100
AcDbTextStyleTableRecord
  2
arial-b
 70
     0
 40
1.0
 41
1.0
 50
0.0
 71
     0
 42
0.2
  3
arialbd.ttf
  4

1001
ACAD
1000
Arial
1071
 33554432
  0
ENDTAB
  0
TABLE
  2
VIEW
  5
6
330
0
100
AcDbSymbolTable
 70
     0
  0
ENDTAB
  0
TABLE
  2
UCS
  5
7
330
0
100
AcDbSymbolTable
 70
     0
  0
ENDTAB
  0
TABLE
  2
APPID
  5
9
330
0
100
AcDbSymbolTable
 70
     3
  0
APPID
  5
12
330
9
100
AcDbSymbolTableRecord
100
AcDbRegAppTableRecord
  2
ACAD
 70
     0
  0
APPID
  5
6E
330
9
100
AcDbSymbolTableRecord
100
AcDbRegAppTableRecord
  2
Cadwork
 70
     0
  0
APPID
  5
242
330
9
100
AcDbSymbolTableRecord
100
AcDbRegAppTableRecord
  2
PLOTTRANSPARENCY
 70
     0
  0
ENDTAB
  0
TABLE
  2
DIMSTYLE
  5
A
330
0
100
AcDbSymbolTable
 70
     1
100
AcDbDimStyleTable
  0
DIMSTYLE
105
27
102
{ACAD_REACTORS
330
431
102
}
330
A
100
AcDbSymbolTableRecord
100
AcDbDimStyleTableRecord
  2
Standard
 70
     0
178
     0
340
11
  0
ENDTAB
  0
TABLE
  2
BLOCK_RECORD
  5
1
330
0
100
AcDbSymbolTable
 70
    70
  0
BLOCK_RECORD
  5
1F
330
1
100
AcDbSymbolTableRecord
100
AcDbBlockTableRecord
  2
*Model_Space
340
22
 70
     0
280
     1
281
     0
  0
BLOCK_RECORD
  5
23D
330
1
100
AcDbSymbolTableRecord
100
AcDbBlockTableRecord
  2
*Paper_Space
340
23E
 70
     0
280
     1
281
     0
  0
BLOCK_RECORD
  5
96
330
1
100
AcDbSymbolTableRecord
100
AcDbBlockTableRecord
  2
CDWK_PTTYP1
340
0
 70
     0
280
     1
281
     1
  0
BLOCK_RECORD
  5
9D
330
1
100
AcDbSymbolTableRecord
100
AcDbBlockTableRecord
  2
CDWK_PTTYP2
340
0
 70
     0
280
     1
281
     1
  0
BLOCK_RECORD
  5
A2
330
1
100
AcDbSymbolTableRecord
100
AcDbBlockTableRecord
  2
CDWK_PTTYP4
340
0
 70
     0
280
     1
281
     1
  0
BLOCK_RECORD
  5
A6
330
1
100
AcDbSymbolTableRecord
100
AcDbBlockTableRecord
  2
CDWK_PTTYP5
340
0
 70
     0
280
     1
281
     1
  0
BLOCK_RECORD
  5
AF
330
1
100
AcDbSymbolTableRecord
100
AcDbBlockTableRecord
  2
CDWK_PTTYP6
340
0
 70
     0
280
     1
281
     1
  0
BLOCK_RECORD
  5
B7
330
1
100
AcDbSymbolTableRecord
100
AcDbBlockTableRecord
  2
CDWK_PTTYP7
340
0
 70
     0
280
     1
281
     1
  0
BLOCK_RECORD
  5
C0
330
1
100
AcDbSymbolTableRecord
100
AcDbBlockTableRecord
  2
CDWK_PTTYP8
340
0
 70
     0
280
     1
281
     1
  0
BLOCK_RECORD
  5
C4
330
1
100
AcDbSymbolTableRecord
100
AcDbBlockTableRecord
  2
CDWK_PTTYP9
340
0
 70
     0
280
     1
281
     1
  0
BLOCK_RECORD
  5
C9
330
1
100
AcDbSymbolTableRecord
100
AcDbBlockTableRecord
  2
CDWK_PTTYP10
340
0
 70
     0
280
     1
281
     1
  0
BLOCK_RECORD
  5
CD
330
1
100
AcDbSymbolTableRecord
100
AcDbBlockTableRecord
  2
CDWK_PTTYP11
340
0
 70
     0
280
     1
281
     1
  0
BLOCK_RECORD
  5
D2
330
1
100
AcDbSymbolTableRecord
100
AcDbBlockTableRecord
  2
CDWK_PTTYP12
340
0
 70
     0
280
     1
281
     1
  0
BLOCK_RECORD
  5
D7
330
1
100
AcDbSymbolTableRecord
100
AcDbBlockTableRecord
  2
CDWK_PTTYP13
340
0
 70
     0
280
     1
281
     1
  0
BLOCK_RECORD
  5
DD
330
1
100
AcDbSymbolTableRecord
100
AcDbBlockTableRecord
  2
CDWK_PTTYP16
340
0
 70
     0
280
     1
281
     1
  0
BLOCK_RECORD
  5
E4
330
1
100
AcDbSymbolTableRecord
100
AcDbBlockTableRecord
  2
CDWK_PTTYP17
340
0
 70
     0
280
     1
281
     1
  0
BLOCK_RECORD
  5
E9
330
1
100
AcDbSymbolTableRecord
100
AcDbBlockTableRecord
  2
CDWK_PTTYP18
340
0
 70
     0
280
     1
281
     1
  0
BLOCK_RECORD
  5
EE
330
1
100
AcDbSymbolTableRecord
100
AcDbBlockTableRecord
  2
CDWK_PTTYP19
340
0
 70
     0
280
     1
281
     1
  0
BLOCK_RECORD
  5
F4
330
1
100
AcDbSymbolTableRecord
100
AcDbBlockTableRecord
  2
CDWK_PTTYP20
340
0
 70
     0
280
     1
281
     1
  0
BLOCK_RECORD
  5
F9
330
1
100
AcDbSymbolTableRecord
100
AcDbBlockTableRecord
  2
CDWK_PTTYP21
340
0
 70
     0
280
     1
281
     1
  0
BLOCK_RECORD
  5
FE
330
1
100
AcDbSymbolTableRecord
100
AcDbBlockTableRecord
  2
CDWK_PTTYP25
340
0
 70
     0
280
     1
281
     1
  0
BLOCK_RECORD
  5
105
330
1
100
AcDbSymbolTableRecord
100
AcDbBlockTableRecord
  2
CDWK_PTTYP26
340
0
 70
     0
280
     1
281
     1
  0
BLOCK_RECORD
  5
10C
330
1
100
AcDbSymbolTableRecord
100
AcDbBlockTableRecord
  2
CDWK_PTTYP27
340
0
 70
     0
280
     1
281
     1
  0
BLOCK_RECORD
  5
114
330
1
100
AcDbSymbolTableRecord
100
AcDbBlockTableRecord
  2
CDWK_PTTYP28
340
0
 70
     0
280
     1
281
     1
  0
BLOCK_RECORD
  5
11B
330
1
100
AcDbSymbolTableRecord
100
AcDbBlockTableRecord
  2
CDWK_PTTYP29
340
0
 70
     0
280
     1
281
     1
  0
BLOCK_RECORD
  5
121
330
1
100
AcDbSymbolTableRecord
100
AcDbBlockTableRecord
  2
CDWK_PTTYP30
340
0
 70
     0
280
     1
281
     1
  0
BLOCK_RECORD
  5
128
330
1
100
AcDbSymbolTableRecord
100
AcDbBlockTableRecord
  2
CDWK_PTTYP31
340
0
 70
     0
280
     1
281
     1
  0
BLOCK_RECORD
  5
130
330
1
100
AcDbSymbolTableRecord
100
AcDbBlockTableRecord
  2
CDWK_PTTYP32
340
0
 70
     0
280
     1
281
     1
  0
BLOCK_RECORD
  5
139
330
1
100
AcDbSymbolTableRecord
100
AcDbBlockTableRecord
  2
CDWK_PTTYP33
340
0
 70
     0
280
     1
281
     1
  0
BLOCK_RECORD
  5
13F
330
1
100
AcDbSymbolTableRecord
100
AcDbBlockTableRecord
  2
CDWK_PTTYP34
340
0
 70
     0
280
     1
281
     1
  0
BLOCK_RECORD
  5
145
330
1
100
AcDbSymbolTableRecord
100
AcDbBlockTableRecord
  2
CDWK_PTTYP35
340
0
 70
     0
280
     1
281
     1
  0
BLOCK_RECORD
  5
14B
330
1
100
AcDbSymbolTableRecord
100
AcDbBlockTableRecord
  2
CDWK_PTTYP36
340
0
 70
     0
280
     1
281
     1
  0
BLOCK_RECORD
  5
153
330
1
100
AcDbSymbolTableRecord
100
AcDbBlockTableRecord
  2
CDWK_PTTYP37
340
0
 70
     0
280
     1
281
     1
  0
BLOCK_RECORD
  5
158
330
1
100
AcDbSymbolTableRecord
100
AcDbBlockTableRecord
  2
CDWK_PTTYP38
340
0
 70
     0
280
     1
281
     1
  0
BLOCK_RECORD
  5
15E
330
1
100
AcDbSymbolTableRecord
100
AcDbBlockTableRecord
  2
CDWK_PTTYP41
340
0
 70
     0
280
     1
281
     1
  0
BLOCK_RECORD
  5
168
330
1
100
AcDbSymbolTableRecord
100
AcDbBlockTableRecord
  2
CDWK_PTTYP42
340
0
 70
     0
280
     1
281
     1
  0
BLOCK_RECORD
  5
171
330
1
100
AcDbSymbolTableRecord
100
AcDbBlockTableRecord
  2
CDWK_PTTYP43
340
0
 70
     0
280
     1
281
     1
  0
BLOCK_RECORD
  5
177
330
1
100
AcDbSymbolTableRecord
100
AcDbBlockTableRecord
  2
CDWK_PTTYP44
340
0
 70
     0
280
     1
281
     1
  0
BLOCK_RECORD
  5
180
330
1
100
AcDbSymbolTableRecord
100
AcDbBlockTableRecord
  2
CDWK_PTTYP45
340
0
 70
     0
280
     1
281
     1
  0
BLOCK_RECORD
  5
185
330
1
100
AcDbSymbolTableRecord
100
AcDbBlockTableRecord
  2
CDWK_PTTYP46
340
0
 70
     0
280
     1
281
     1
  0
BLOCK_RECORD
  5
18A
330
1
100
AcDbSymbolTableRecord
100
AcDbBlockTableRecord
  2
CDWK_PTTYP47
340
0
 70
     0
280
     1
281
     1
  0
BLOCK_RECORD
  5
193
330
1
100
AcDbSymbolTableRecord
100
AcDbBlockTableRecord
  2
CDWK_PTTYP48
340
0
 70
     0
280
     1
281
     1
  0
BLOCK_RECORD
  5
198
330
1
100
AcDbSymbolTableRecord
100
AcDbBlockTableRecord
  2
CDWK_PTTYP49
340
0
 70
     0
280
     1
281
     1
  0
BLOCK_RECORD
  5
19F
330
1
100
AcDbSymbolTableRecord
100
AcDbBlockTableRecord
  2
CDWK_PTTYP50
340
0
 70
     0
280
     1
281
     1
  0
BLOCK_RECORD
  5
1A9
330
1
100
AcDbSymbolTableRecord
100
AcDbBlockTableRecord
  2
CDWK_PTTYP51
340
0
 70
     0
280
     1
281
     1
  0
BLOCK_RECORD
  5
1AE
330
1
100
AcDbSymbolTableRecord
100
AcDbBlockTableRecord
  2
CDWK_PTTYP52
340
0
 70
     0
280
     1
281
     1
  0
BLOCK_RECORD
  5
1B4
330
1
100
AcDbSymbolTableRecord
100
AcDbBlockTableRecord
  2
cw-dimension-symbol1
340
0
 70
     0
280
     1
281
     0
  0
BLOCK_RECORD
  5
1BB
330
1
100
AcDbSymbolTableRecord
100
AcDbBlockTableRecord
  2
cw-dimension-symbol2
340
0
102
{BLKREFS
331
43A
331
439
102
}
 70
     0
280
     1
281
     0
  0
BLOCK_RECORD
  5
1C0
330
1
100
AcDbSymbolTableRecord
100
AcDbBlockTableRecord
  2
cw-dimension-symbol3
340
0
 70
     0
280
     1
281
     0
  0
BLOCK_RECORD
  5
1C5
330
1
100
AcDbSymbolTableRecord
100
AcDbBlockTableRecord
  2
cw-dimension-symbol5
340
0
 70
     0
280
     1
281
     0
  0
BLOCK_RECORD
  5
1CC
330
1
100
AcDbSymbolTableRecord
100
AcDbBlockTableRecord
  2
cw-dimension-symbol6
340
0
 70
     0
280
     1
281
     0
  0
BLOCK_RECORD
  5
1D2
330
1
100
AcDbSymbolTableRecord
100
AcDbBlockTableRecord
  2
cw-dimension-symbol11
340
0
 70
     0
280
     1
281
     0
  0
BLOCK_RECORD
  5
1D8
330
1
100
AcDbSymbolTableRecord
100
AcDbBlockTableRecord
  2
cw-dimension-symbol13
340
0
 70
     0
280
     1
281
     0
  0
BLOCK_RECORD
  5
1DE
330
1
100
AcDbSymbolTableRecord
100
AcDbBlockTableRecord
  2
cw-dimension-symbol15
340
0
 70
     0
280
     1
281
     0
  0
BLOCK_RECORD
  5
1E5
330
1
100
AcDbSymbolTableRecord
100
AcDbBlockTableRecord
  2
cw-dimension-symbol16
340
0
 70
     0
280
     1
281
     0
  0
BLOCK_RECORD
  5
1EC
330
1
100
AcDbSymbolTableRecord
100
AcDbBlockTableRecord
  2
cw-dimension-symbol17
340
0
 70
     0
280
     1
281
     0
  0
BLOCK_RECORD
  5
1F3
330
1
100
AcDbSymbolTableRecord
100
AcDbBlockTableRecord
  2
cw-dimension-symbol18
340
0
 70
     0
280
     1
281
     0
  0
BLOCK_RECORD
  5
1FA
330
1
100
AcDbSymbolTableRecord
100
AcDbBlockTableRecord
  2
cw-dimension-symbol19
340
0
 70
     0
280
     1
281
     0
  0
BLOCK_RECORD
  5
1FD
330
1
100
AcDbSymbolTableRecord
100
AcDbBlockTableRecord
  2
cw-dimension-symbol20
340
0
 70
     0
280
     1
281
     0
  0
BLOCK_RECORD
  5
204
330
1
100
AcDbSymbolTableRecord
100
AcDbBlockTableRecord
  2
cw-dimension-symbol21
340
0
 70
     0
280
     1
281
     0
  0
BLOCK_RECORD
  5
20B
330
1
100
AcDbSymbolTableRecord
100
AcDbBlockTableRecord
  2
cw-line-extremity0
340
0
 70
     0
280
     1
281
     0
  0
BLOCK_RECORD
  5
20F
330
1
100
AcDbSymbolTableRecord
100
AcDbBlockTableRecord
  2
cw-line-extremity2
340
0
 70
     0
280
     1
281
     0
  0
BLOCK_RECORD
  5
214
330
1
100
AcDbSymbolTableRecord
100
AcDbBlockTableRecord
  2
cw-line-extremity3
340
0
 70
     0
280
     1
281
     0
  0
BLOCK_RECORD
  5
219
330
1
100
AcDbSymbolTableRecord
100
AcDbBlockTableRecord
  2
cw-line-extremity301
340
0
 70
     0
280
     1
281
     0
  0
BLOCK_RECORD
  5
21B
330
1
100
AcDbSymbolTableRecord
100
AcDbBlockTableRecord
  2
cw-line-extremity4
340
0
102
{BLKREFS
331
26C
331
26E
331
289
331
28B
331
28D
102
}
 70
     0
280
     1
281
     0
  0
BLOCK_RECORD
  5
21D
330
1
100
AcDbSymbolTableRecord
100
AcDbBlockTableRecord
  2
cw-line-extremity5
340
0
 70
     0
280
     1
281
     0
  0
BLOCK_RECORD
  5
21F
330
1
100
AcDbSymbolTableRecord
100
AcDbBlockTableRecord
  2
cw-line-extremity6
340
0
 70
     0
280
     1
281
     0
  0
BLOCK_RECORD
  5
221
330
1
100
AcDbSymbolTableRecord
100
AcDbBlockTableRecord
  2
cw-line-extremity9
340
0
 70
     0
280
     1
281
     0
  0
BLOCK_RECORD
  5
223
330
1
100
AcDbSymbolTableRecord
100
AcDbBlockTableRecord
  2
cw-line-extremity10
340
0
 70
     0
280
     1
281
     0
  0
BLOCK_RECORD
  5
225
330
1
100
AcDbSymbolTableRecord
100
AcDbBlockTableRecord
  2
cw-line-extremity1
340
0
 70
     0
280
     1
281
     0
  0
BLOCK_RECORD
  5
1B
330
1
100
AcDbSymbolTableRecord
100
AcDbBlockTableRecord
  2
*Paper_Space69
340
1E
 70
     0
280
     1
281
     0
  0
BLOCK_RECORD
  5
433
330
1
100
AcDbSymbolTableRecord
100
AcDbBlockTableRecord
  2
*D70
340
0
 70
     0
280
     1
281
     0
  0
ENDTAB
  0
ENDSEC
  0
SECTION
  2
BLOCKS
  0
BLOCK
  5
20
330
1F
100
AcDbEntity
  8
0
100
AcDbBlockBegin
  2
*Model_Space
 70
     0
 10
0.0
 20
0.0
 30
0.0
  3
*Model_Space
  1

  0
ENDBLK
  5
21
330
1F
100
AcDbEntity
  8
0
100
AcDbBlockEnd
  0
BLOCK
  5
23F
330
23D
100
AcDbEntity
 67
     1
  8
0
100
AcDbBlockBegin
  2
*Paper_Space
 70
     0
 10
0.0
 20
0.0
 30
0.0
  3
*Paper_Space
  1

  0
ENDBLK
  5
240
330
23D
100
AcDbEntity
 67
     1
  8
0
100
AcDbBlockEnd
  0
BLOCK
  5
9B
330
96
100
AcDbEntity
  8
0
100
AcDbBlockBegin
  2
CDWK_PTTYP1
 70
     0
 10
0.0
 20
0.0
 30
0.0
  3
CDWK_PTTYP1
  1

  0
LINE
  5
97
330
96
100
AcDbEntity
  8
0
 62
     0
370
    -2
100
AcDbLine
 10
-0.5
 20
0.5
 30
0.0
 11
0.5
 21
0.5
 31
0.0
  0
LINE
  5
98
330
96
100
AcDbEntity
  8
0
 62
     0
370
    -2
100
AcDbLine
 10
0.5
 20
0.5
 30
0.0
 11
0.5
 21
-0.5
 31
0.0
  0
LINE
  5
99
330
96
100
AcDbEntity
  8
0
 62
     0
370
    -2
100
AcDbLine
 10
0.5
 20
-0.5
 30
0.0
 11
-0.5
 21
-0.5
 31
0.0
  0
LINE
  5
9A
330
96
100
AcDbEntity
  8
0
 62
     0
370
    -2
100
AcDbLine
 10
-0.5
 20
-0.5
 30
0.0
 11
-0.5
 21
0.5
 31
0.0
  0
ENDBLK
  5
9C
330
96
100
AcDbEntity
  8
0
100
AcDbBlockEnd
  0
BLOCK
  5
A0
330
9D
100
AcDbEntity
  8
0
100
AcDbBlockBegin
  2
CDWK_PTTYP2
 70
     0
 10
0.0
 20
0.0
 30
0.0
  3
CDWK_PTTYP2
  1

  0
LINE
  5
9E
330
9D
100
AcDbEntity
  8
0
 62
     0
370
    -2
100
AcDbLine
 10
0.0
 20
0.5
 30
0.0
 11
0.0
 21
-0.5
 31
0.0
  0
LINE
  5
9F
330
9D
100
AcDbEntity
  8
0
 62
     0
370
    -2
100
AcDbLine
 10
0.5
 20
0.0
 30
0.0
 11
-0.5
 21
0.0
 31
0.0
  0
ENDBLK
  5
A1
330
9D
100
AcDbEntity
  8
0
100
AcDbBlockEnd
  0
BLOCK
  5
A4
330
A2
100
AcDbEntity
  8
0
100
AcDbBlockBegin
  2
CDWK_PTTYP4
 70
     0
 10
0.0
 20
0.0
 30
0.0
  3
CDWK_PTTYP4
  1

  0
HATCH
  5
A3
330
A2
100
AcDbEntity
  8
0
 62
     0
370
    -2
100
AcDbHatch
 10
0.0
 20
0.0
 30
0.0
210
0.0
220
0.0
230
1.0
  2
SOLID
 70
     1
 71
     1
 91
        1
 92
        1
 93
        1
 72
     2
 10
0.0
 20
0.0
 40
0.5
 50
0.0
 51
360.0
 73
     1
 97
        0
 75
     0
 76
     1
 98
        0
  0
ENDBLK
  5
A5
330
A2
100
AcDbEntity
  8
0
100
AcDbBlockEnd
  0
BLOCK
  5
AD
330
A6
100
AcDbEntity
  8
0
100
AcDbBlockBegin
  2
CDWK_PTTYP5
 70
     0
 10
0.0
 20
0.0
 30
0.0
  3
CDWK_PTTYP5
  1

  0
LINE
  5
A7
330
A6
100
AcDbEntity
  8
0
 62
     0
370
    -2
100
AcDbLine
 10
-0.5
 20
0.5
 30
0.0
 11
0.5
 21
0.5
 31
0.0
  0
LINE
  5
A8
330
A6
100
AcDbEntity
  8
0
 62
     0
370
    -2
100
AcDbLine
 10
0.5
 20
0.5
 30
0.0
 11
0.5
 21
-0.5
 31
0.0
  0
LINE
  5
A9
330
A6
100
AcDbEntity
  8
0
 62
     0
370
    -2
100
AcDbLine
 10
0.5
 20
-0.5
 30
0.0
 11
-0.5
 21
-0.5
 31
0.0
  0
LINE
  5
AA
330
A6
100
AcDbEntity
  8
0
 62
     0
370
    -2
100
AcDbLine
 10
-0.5
 20
-0.5
 30
0.0
 11
-0.5
 21
0.5
 31
0.0
  0
HATCH
  5
AB
330
A6
100
AcDbEntity
  8
0
 62
     0
370
    -2
100
AcDbHatch
 10
0.0
 20
0.0
 30
0.0
210
0.0
220
0.0
230
1.0
  2
SOLID
 70
     1
 71
     1
 91
        1
 92
        3
 72
     0
 73
     1
 93
        4
 10
-0.5
 20
0.0
 10
0.0
 20
0.0
 10
0.0
 20
-0.5
 10
-0.5
 20
-0.5
 97
        0
 75
     0
 76
     1
 98
        0
  0
HATCH
  5
AC
330
A6
100
AcDbEntity
  8
0
 62
     0
370
    -2
100
AcDbHatch
 10
0.0
 20
0.0
 30
0.0
210
0.0
220
0.0
230
1.0
  2
SOLID
 70
     1
 71
     1
 91
        1
 92
        3
 72
     0
 73
     1
 93
        4
 10
0.0
 20
0.0
 10
0.5
 20
0.0
 10
0.5
 20
0.5
 10
0.0
 20
0.5
 97
        0
 75
     0
 76
     1
 98
        0
  0
ENDBLK
  5
AE
330
A6
100
AcDbEntity
  8
0
100
AcDbBlockEnd
  0
BLOCK
  5
B5
330
AF
100
AcDbEntity
  8
0
100
AcDbBlockBegin
  2
CDWK_PTTYP6
 70
     0
 10
0.0
 20
0.0
 30
0.0
  3
CDWK_PTTYP6
  1

  0
LINE
  5
B0
330
AF
100
AcDbEntity
  8
0
 62
     0
370
    -2
100
AcDbLine
 10
-0.5
 20
0.5
 30
0.0
 11
0.5
 21
0.5
 31
0.0
  0
LINE
  5
B1
330
AF
100
AcDbEntity
  8
0
 62
     0
370
    -2
100
AcDbLine
 10
0.5
 20
0.5
 30
0.0
 11
0.5
 21
-0.5
 31
0.0
  0
LINE
  5
B2
330
AF
100
AcDbEntity
  8
0
 62
     0
370
    -2
100
AcDbLine
 10
0.5
 20
-0.5
 30
0.0
 11
-0.5
 21
-0.5
 31
0.0
  0
LINE
  5
B3
330
AF
100
AcDbEntity
  8
0
 62
     0
370
    -2
100
AcDbLine
 10
-0.5
 20
-0.5
 30
0.0
 11
-0.5
 21
0.5
 31
0.0
  0
HATCH
  5
B4
330
AF
100
AcDbEntity
  8
0
 62
     0
370
    -2
100
AcDbHatch
 10
0.0
 20
0.0
 30
0.0
210
0.0
220
0.0
230
1.0
  2
SOLID
 70
     1
 71
     1
 91
        1
 92
        3
 72
     0
 73
     1
 93
        3
 10
-0.5
 20
-0.5
 10
-0.5
 20
0.5
 10
0.5
 20
0.5
 97
        0
 75
     0
 76
     1
 98
        0
  0
ENDBLK
  5
B6
330
AF
100
AcDbEntity
  8
0
100
AcDbBlockEnd
  0
BLOCK
  5
BE
330
B7
100
AcDbEntity
  8
0
100
AcDbBlockBegin
  2
CDWK_PTTYP7
 70
     0
 10
0.0
 20
0.0
 30
0.0
  3
CDWK_PTTYP7
  1

  0
LINE
  5
B8
330
B7
100
AcDbEntity
  8
0
 62
     0
370
    -2
100
AcDbLine
 10
-0.5
 20
0.5
 30
0.0
 11
0.5
 21
0.5
 31
0.0
  0
LINE
  5
B9
330
B7
100
AcDbEntity
  8
0
 62
     0
370
    -2
100
AcDbLine
 10
0.5
 20
0.5
 30
0.0
 11
0.5
 21
-0.5
 31
0.0
  0
LINE
  5
BA
330
B7
100
AcDbEntity
  8
0
 62
     0
370
    -2
100
AcDbLine
 10
0.5
 20
-0.5
 30
0.0
 11
-0.5
 21
-0.5
 31
0.0
  0
LINE
  5
BB
330
B7
100
AcDbEntity
  8
0
 62
     0
370
    -2
100
AcDbLine
 10
-0.5
 20
-0.5
 30
0.0
 11
-0.5
 21
0.5
 31
0.0
  0
LINE
  5
BC
330
B7
100
AcDbEntity
  8
0
 62
     0
370
    -2
100
AcDbLine
 10
0.0
 20
0.5
 30
0.0
 11
0.0
 21
-0.5
 31
0.0
  0
LINE
  5
BD
330
B7
100
AcDbEntity
  8
0
 62
     0
370
    -2
100
AcDbLine
 10
0.5
 20
0.0
 30
0.0
 11
-0.5
 21
0.0
 31
0.0
  0
ENDBLK
  5
BF
330
B7
100
AcDbEntity
  8
0
100
AcDbBlockEnd
  0
BLOCK
  5
C2
330
C0
100
AcDbEntity
  8
0
100
AcDbBlockBegin
  2
CDWK_PTTYP8
 70
     0
 10
0.0
 20
0.0
 30
0.0
  3
CDWK_PTTYP8
  1

  0
HATCH
  5
C1
330
C0
100
AcDbEntity
  8
0
 62
     0
370
    -2
100
AcDbHatch
 10
0.0
 20
0.0
 30
0.0
210
0.0
220
0.0
230
1.0
  2
SOLID
 70
     1
 71
     1
 91
        1
 92
        3
 72
     0
 73
     1
 93
        4
 10
0.5
 20
0.5
 10
0.5
 20
-0.5
 10
-0.5
 20
-0.5
 10
-0.5
 20
0.5
 97
        0
 75
     0
 76
     1
 98
        0
  0
ENDBLK
  5
C3
330
C0
100
AcDbEntity
  8
0
100
AcDbBlockEnd
  0
BLOCK
  5
C7
330
C4
100
AcDbEntity
  8
0
100
AcDbBlockBegin
  2
CDWK_PTTYP9
 70
     0
 10
0.0
 20
0.0
 30
0.0
  3
CDWK_PTTYP9
  1

  0
CIRCLE
  5
C5
330
C4
100
AcDbEntity
  8
0
 62
     0
370
    -2
100
AcDbCircle
 10
0.0
 20
0.0
 30
0.0
 40
0.1666666666666667
  0
CIRCLE
  5
C6
330
C4
100
AcDbEntity
  8
0
 62
     0
370
    -2
100
AcDbCircle
 10
0.0
 20
0.0
 30
0.0
 40
0.5
  0
ENDBLK
  5
C8
330
C4
100
AcDbEntity
  8
0
100
AcDbBlockEnd
  0
BLOCK
  5
CB
330
C9
100
AcDbEntity
  8
0
100
AcDbBlockBegin
  2
CDWK_PTTYP10
 70
     0
 10
0.0
 20
0.0
 30
0.0
  3
CDWK_PTTYP10
  1

  0
CIRCLE
  5
CA
330
C9
100
AcDbEntity
  8
0
 62
     0
370
    -2
100
AcDbCircle
 10
0.0
 20
0.0
 30
0.0
 40
0.5
  0
ENDBLK
  5
CC
330
C9
100
AcDbEntity
  8
0
100
AcDbBlockEnd
  0
BLOCK
  5
D0
330
CD
100
AcDbEntity
  8
0
100
AcDbBlockBegin
  2
CDWK_PTTYP11
 70
     0
 10
0.0
 20
0.0
 30
0.0
  3
CDWK_PTTYP11
  1

  0
CIRCLE
  5
CE
330
CD
100
AcDbEntity
  8
0
 62
     0
370
    -2
100
AcDbCircle
 10
0.0
 20
0.0
 30
0.0
 40
0.25
  0
CIRCLE
  5
CF
330
CD
100
AcDbEntity
  8
0
 62
     0
370
    -2
100
AcDbCircle
 10
0.0
 20
0.0
 30
0.0
 40
0.5
  0
ENDBLK
  5
D1
330
CD
100
AcDbEntity
  8
0
100
AcDbBlockEnd
  0
BLOCK
  5
D5
330
D2
100
AcDbEntity
  8
0
100
AcDbBlockBegin
  2
CDWK_PTTYP12
 70
     0
 10
0.0
 20
0.0
 30
0.0
  3
CDWK_PTTYP12
  1

  0
CIRCLE
  5
D3
330
D2
100
AcDbEntity
  8
0
 62
     0
370
    -2
100
AcDbCircle
 10
0.25
 20
0.0
 30
0.0
 40
0.25
  0
CIRCLE
  5
D4
330
D2
100
AcDbEntity
  8
0
 62
     0
370
    -2
100
AcDbCircle
 10
0.0
 20
0.0
 30
0.0
 40
0.5
  0
ENDBLK
  5
D6
330
D2
100
AcDbEntity
  8
0
100
AcDbBlockEnd
  0
BLOCK
  5
DB
330
D7
100
AcDbEntity
  8
0
100
AcDbBlockBegin
  2
CDWK_PTTYP13
 70
     0
 10
0.0
 20
0.0
 30
0.0
  3
CDWK_PTTYP13
  1

  0
CIRCLE
  5
D8
330
D7
100
AcDbEntity
  8
0
 62
     0
370
    -2
100
AcDbCircle
 10
-0.25
 20
0.0
 30
0.0
 40
0.25
  0
CIRCLE
  5
D9
330
D7
100
AcDbEntity
  8
0
 62
     0
370
    -2
100
AcDbCircle
 10
0.25
 20
0.0
 30
0.0
 40
0.25
  0
CIRCLE
  5
DA
330
D7
100
AcDbEntity
  8
0
 62
     0
370
    -2
100
AcDbCircle
 10
0.0
 20
0.0
 30
0.0
 40
0.5
  0
ENDBLK
  5
DC
330
D7
100
AcDbEntity
  8
0
100
AcDbBlockEnd
  0
BLOCK
  5
E2
330
DD
100
AcDbEntity
  8
0
100
AcDbBlockBegin
  2
CDWK_PTTYP16
 70
     0
 10
0.0
 20
0.0
 30
0.0
  3
CDWK_PTTYP16
  1

  0
LINE
  5
DE
330
DD
100
AcDbEntity
  8
0
 62
     0
370
    -2
100
AcDbLine
 10
-0.5
 20
-0.289
 30
0.0
 11
0.5
 21
-0.289
 31
0.0
  0
LINE
  5
DF
330
DD
100
AcDbEntity
  8
0
 62
     0
370
    -2
100
AcDbLine
 10
0.5
 20
-0.289
 30
0.0
 11
0.0
 21
0.577
 31
0.0
  0
LINE
  5
E0
330
DD
100
AcDbEntity
  8
0
 62
     0
370
    -2
100
AcDbLine
 10
0.0
 20
0.577
 30
0.0
 11
-0.5
 21
-0.289
 31
0.0
  0
CIRCLE
  5
E1
330
DD
100
AcDbEntity
  8
0
 62
     0
370
    -2
100
AcDbCircle
 10
0.0
 20
0.0
 30
0.0
 40
0.289
  0
ENDBLK
  5
E3
330
DD
100
AcDbEntity
  8
0
100
AcDbBlockEnd
  0
BLOCK
  5
E7
330
E4
100
AcDbEntity
  8
0
100
AcDbBlockBegin
  2
CDWK_PTTYP17
 70
     0
 10
0.0
 20
0.0
 30
0.0
  3
CDWK_PTTYP17
  1

  0
CIRCLE
  5
E5
330
E4
100
AcDbEntity
  8
0
 62
     0
370
    -2
100
AcDbCircle
 10
0.0
 20
0.0
 30
0.0
 40
0.5
  0
HATCH
  5
E6
330
E4
100
AcDbEntity
  8
0
 62
     0
370
    -2
100
AcDbHatch
 10
0.0
 20
0.0
 30
0.0
210
0.0
220
0.0
230
1.0
  2
SOLID
 70
     1
 71
     1
 91
        1
 92
        1
 93
        1
 72
     2
 10
0.0
 20
0.0
 40
0.25
 50
0.0
 51
360.0
 73
     1
 97
        0
 75
     0
 76
     1
 98
        0
  0
ENDBLK
  5
E8
330
E4
100
AcDbEntity
  8
0
100
AcDbBlockEnd
  0
BLOCK
  5
EC
330
E9
100
AcDbEntity
  8
0
100
AcDbBlockBegin
  2
CDWK_PTTYP18
 70
     0
 10
0.0
 20
0.0
 30
0.0
  3
CDWK_PTTYP18
  1

  0
CIRCLE
  5
EA
330
E9
100
AcDbEntity
  8
0
 62
     0
370
    -2
100
AcDbCircle
 10
0.0
 20
0.0
 30
0.0
 40
0.5
  0
CIRCLE
  5
EB
330
E9
100
AcDbEntity
  8
0
 62
     0
370
    -2
100
AcDbCircle
 10
0.0
 20
0.0
 30
0.0
 40
0.208
  0
ENDBLK
  5
ED
330
E9
100
AcDbEntity
  8
0
100
AcDbBlockEnd
  0
BLOCK
  5
F2
330
EE
100
AcDbEntity
  8
0
100
AcDbBlockBegin
  2
CDWK_PTTYP19
 70
     0
 10
0.0
 20
0.0
 30
0.0
  3
CDWK_PTTYP19
  1

  0
CIRCLE
  5
EF
330
EE
100
AcDbEntity
  8
0
 62
     0
370
    -2
100
AcDbCircle
 10
0.0
 20
0.0
 30
0.0
 40
0.25
  0
CIRCLE
  5
F0
330
EE
100
AcDbEntity
  8
0
 62
     0
370
    -2
100
AcDbCircle
 10
0.0
 20
0.0
 30
0.0
 40
0.35
  0
LINE
  5
F1
330
EE
100
AcDbEntity
  8
0
 62
     0
370
    -2
100
AcDbLine
 10
-0.25
 20
0.0
 30
0.0
 11
0.25
 21
0.0
 31
0.0
  0
ENDBLK
  5
F3
330
EE
100
AcDbEntity
  8
0
100
AcDbBlockEnd
  0
BLOCK
  5
F7
330
F4
100
AcDbEntity
  8
0
100
AcDbBlockBegin
  2
CDWK_PTTYP20
 70
     0
 10
0.0
 20
0.0
 30
0.0
  3
CDWK_PTTYP20
  1

  0
CIRCLE
  5
F5
330
F4
100
AcDbEntity
  8
0
 62
     0
370
    -2
100
AcDbCircle
 10
0.0
 20
0.0
 30
0.0
 40
0.3333333333333333
  0
CIRCLE
  5
F6
330
F4
100
AcDbEntity
  8
0
 62
     0
370
    -2
100
AcDbCircle
 10
0.0
 20
0.0
 30
0.0
 40
0.5
  0
ENDBLK
  5
F8
330
F4
100
AcDbEntity
  8
0
100
AcDbBlockEnd
  0
BLOCK
  5
FC
330
F9
100
AcDbEntity
  8
0
100
AcDbBlockBegin
  2
CDWK_PTTYP21
 70
     0
 10
0.0
 20
0.0
 30
0.0
  3
CDWK_PTTYP21
  1

  0
CIRCLE
  5
FA
330
F9
100
AcDbEntity
  8
0
 62
     0
370
    -2
100
AcDbCircle
 10
0.0
 20
0.0
 30
0.0
 40
0.5
  0
LINE
  5
FB
330
F9
100
AcDbEntity
  8
0
 62
     0
370
    -2
100
AcDbLine
 10
-0.5
 20
0.0
 30
0.0
 11
0.5
 21
0.0
 31
0.0
  0
ENDBLK
  5
FD
330
F9
100
AcDbEntity
  8
0
100
AcDbBlockEnd
  0
BLOCK
  5
103
330
FE
100
AcDbEntity
  8
0
100
AcDbBlockBegin
  2
CDWK_PTTYP25
 70
     0
 10
0.0
 20
0.0
 30
0.0
  3
CDWK_PTTYP25
  1

  0
LINE
  5
FF
330
FE
100
AcDbEntity
  8
0
 62
     0
370
    -2
100
AcDbLine
 10
0.0
 20
0.5
 30
0.0
 11
-0.4330127018922193
 21
-0.25
 31
0.0
  0
LINE
  5
100
330
FE
100
AcDbEntity
  8
0
 62
     0
370
    -2
100
AcDbLine
 10
-0.4330127018922193
 20
-0.25
 30
0.0
 11
0.4330127018922193
 21
-0.25
 31
0.0
  0
LINE
  5
101
330
FE
100
AcDbEntity
  8
0
 62
     0
370
    -2
100
AcDbLine
 10
0.4330127018922193
 20
-0.25
 30
0.0
 11
0.0
 21
0.5
 31
0.0
  0
CIRCLE
  5
102
330
FE
100
AcDbEntity
  8
0
 62
     0
370
    -2
100
AcDbCircle
 10
0.0
 20
0.0
 30
0.0
 40
0.5
  0
ENDBLK
  5
104
330
FE
100
AcDbEntity
  8
0
100
AcDbBlockEnd
  0
BLOCK
  5
10A
330
105
100
AcDbEntity
  8
0
100
AcDbBlockBegin
  2
CDWK_PTTYP26
 70
     0
 10
0.0
 20
0.0
 30
0.0
  3
CDWK_PTTYP26
  1

  0
LINE
  5
106
330
105
100
AcDbEntity
  8
0
 62
     0
370
    -2
100
AcDbLine
 10
-0.5
 20
-0.289
 30
0.0
 11
0.5
 21
-0.289
 31
0.0
  0
LINE
  5
107
330
105
100
AcDbEntity
  8
0
 62
     0
370
    -2
100
AcDbLine
 10
0.5
 20
-0.289
 30
0.0
 11
0.0
 21
0.577
 31
0.0
  0
LINE
  5
108
330
105
100
AcDbEntity
  8
0
 62
     0
370
    -2
100
AcDbLine
 10
0.0
 20
0.577
 30
0.0
 11
-0.5
 21
-0.289
 31
0.0
  0
CIRCLE
  5
109
330
105
100
AcDbEntity
  8
0
 62
     0
370
    -2
100
AcDbCircle
 10
0.0
 20
0.0
 30
0.0
 40
0.125
  0
ENDBLK
  5
10B
330
105
100
AcDbEntity
  8
0
100
AcDbBlockEnd
  0
BLOCK
  5
112
330
10C
100
AcDbEntity
  8
0
100
AcDbBlockBegin
  2
CDWK_PTTYP27
 70
     0
 10
0.0
 20
0.0
 30
0.0
  3
CDWK_PTTYP27
  1

  0
LINE
  5
10D
330
10C
100
AcDbEntity
  8
0
 62
     0
370
    -2
100
AcDbLine
 10
0.0
 20
0.5
 30
0.0
 11
-0.4330127018922193
 21
-0.25
 31
0.0
  0
LINE
  5
10E
330
10C
100
AcDbEntity
  8
0
 62
     0
370
    -2
100
AcDbLine
 10
-0.4330127018922193
 20
-0.25
 30
0.0
 11
0.4330127018922193
 21
-0.25
 31
0.0
  0
LINE
  5
10F
330
10C
100
AcDbEntity
  8
0
 62
     0
370
    -2
100
AcDbLine
 10
0.4330127018922193
 20
-0.25
 30
0.0
 11
0.0
 21
0.5
 31
0.0
  0
CIRCLE
  5
110
330
10C
100
AcDbEntity
  8
0
 62
     0
370
    -2
100
AcDbCircle
 10
0.0
 20
0.0
 30
0.0
 40
0.125
  0
CIRCLE
  5
111
330
10C
100
AcDbEntity
  8
0
 62
     0
370
    -2
100
AcDbCircle
 10
0.0
 20
0.0
 30
0.0
 40
0.5
  0
ENDBLK
  5
113
330
10C
100
AcDbEntity
  8
0
100
AcDbBlockEnd
  0
BLOCK
  5
119
330
114
100
AcDbEntity
  8
0
100
AcDbBlockBegin
  2
CDWK_PTTYP28
 70
     0
 10
0.0
 20
0.0
 30
0.0
  3
CDWK_PTTYP28
  1

  0
LINE
  5
115
330
114
100
AcDbEntity
  8
0
 62
     0
370
    -2
100
AcDbLine
 10
-0.5
 20
0.5
 30
0.0
 11
0.5
 21
0.5
 31
0.0
  0
LINE
  5
116
330
114
100
AcDbEntity
  8
0
 62
     0
370
    -2
100
AcDbLine
 10
0.5
 20
0.5
 30
0.0
 11
-0.5
 21
-0.5
 31
0.0
  0
LINE
  5
117
330
114
100
AcDbEntity
  8
0
 62
     0
370
    -2
100
AcDbLine
 10
0.5
 20
-0.5
 30
0.0
 11
-0.5
 21
-0.5
 31
0.0
  0
LINE
  5
118
330
114
100
AcDbEntity
  8
0
 62
     0
370
    -2
100
AcDbLine
 10
-0.5
 20
0.5
 30
0.0
 11
0.5
 21
-0.5
 31
0.0
  0
ENDBLK
  5
11A
330
114
100
AcDbEntity
  8
0
100
AcDbBlockEnd
  0
BLOCK
  5
11F
330
11B
100
AcDbEntity
  8
0
100
AcDbBlockBegin
  2
CDWK_PTTYP29
 70
     0
 10
0.0
 20
0.0
 30
0.0
  3
CDWK_PTTYP29
  1

  0
CIRCLE
  5
11C
330
11B
100
AcDbEntity
  8
0
 62
     0
370
    -2
100
AcDbCircle
 10
0.0
 20
0.0
 30
0.0
 40
0.2
  0
CIRCLE
  5
11D
330
11B
100
AcDbEntity
  8
0
 62
     0
370
    -2
100
AcDbCircle
 10
0.0
 20
0.0
 30
0.0
 40
0.35
  0
CIRCLE
  5
11E
330
11B
100
AcDbEntity
  8
0
 62
     0
370
    -2
100
AcDbCircle
 10
0.0
 20
0.0
 30
0.0
 40
0.5
  0
ENDBLK
  5
120
330
11B
100
AcDbEntity
  8
0
100
AcDbBlockEnd
  0
BLOCK
  5
126
330
121
100
AcDbEntity
  8
0
100
AcDbBlockBegin
  2
CDWK_PTTYP30
 70
     0
 10
0.0
 20
0.0
 30
0.0
  3
CDWK_PTTYP30
  1

  0
LINE
  5
122
330
121
100
AcDbEntity
  8
0
 62
     0
370
    -2
100
AcDbLine
 10
-0.5
 20
0.5
 30
0.0
 11
-0.1
 21
0.1
 31
0.0
  0
LINE
  5
123
330
121
100
AcDbEntity
  8
0
 62
     0
370
    -2
100
AcDbLine
 10
0.5
 20
0.5
 30
0.0
 11
0.1
 21
0.1
 31
0.0
  0
LINE
  5
124
330
121
100
AcDbEntity
  8
0
 62
     0
370
    -2
100
AcDbLine
 10
0.5
 20
-0.5
 30
0.0
 11
0.1
 21
-0.1
 31
0.0
  0
LINE
  5
125
330
121
100
AcDbEntity
  8
0
 62
     0
370
    -2
100
AcDbLine
 10
-0.5
 20
-0.5
 30
0.0
 11
-0.1
 21
-0.1
 31
0.0
  0
ENDBLK
  5
127
330
121
100
AcDbEntity
  8
0
100
AcDbBlockEnd
  0
BLOCK
  5
12E
330
128
100
AcDbEntity
  8
0
100
AcDbBlockBegin
  2
CDWK_PTTYP31
 70
     0
 10
0.0
 20
0.0
 30
0.0
  3
CDWK_PTTYP31
  1

  0
LINE
  5
129
330
128
100
AcDbEntity
  8
0
 62
     0
370
    -2
100
AcDbLine
 10
-0.5
 20
0.0
 30
0.0
 11
-0.1
 21
0.0
 31
0.0
  0
LINE
  5
12A
330
128
100
AcDbEntity
  8
0
 62
     0
370
    -2
100
AcDbLine
 10
0.1
 20
0.0
 30
0.0
 11
0.5
 21
0.0
 31
0.0
  0
LINE
  5
12B
330
128
100
AcDbEntity
  8
0
 62
     0
370
    -2
100
AcDbLine
 10
0.0
 20
0.5
 30
0.0
 11
0.0
 21
0.1
 31
0.0
  0
LINE
  5
12C
330
128
100
AcDbEntity
  8
0
 62
     0
370
    -2
100
AcDbLine
 10
0.0
 20
-0.1
 30
0.0
 11
0.0
 21
-0.5
 31
0.0
  0
CIRCLE
  5
12D
330
128
100
AcDbEntity
  8
0
 62
     0
370
    -2
100
AcDbCircle
 10
0.0
 20
0.0
 30
0.0
 40
0.1
  0
ENDBLK
  5
12F
330
128
100
AcDbEntity
  8
0
100
AcDbBlockEnd
  0
BLOCK
  5
137
330
130
100
AcDbEntity
  8
0
100
AcDbBlockBegin
  2
CDWK_PTTYP32
 70
     0
 10
0.0
 20
0.0
 30
0.0
  3
CDWK_PTTYP32
  1

  0
CIRCLE
  5
131
330
130
100
AcDbEntity
  8
0
 62
     0
370
    -2
100
AcDbCircle
 10
0.0
 20
0.0
 30
0.0
 40
0.2
  0
CIRCLE
  5
132
330
130
100
AcDbEntity
  8
0
 62
     0
370
    -2
100
AcDbCircle
 10
0.0
 20
0.0
 30
0.0
 40
0.5
  0
LINE
  5
133
330
130
100
AcDbEntity
  8
0
 62
     0
370
    -2
100
AcDbLine
 10
0.1414213562373095
 20
0.1414213562373095
 30
0.0
 11
0.3535533905932738
 21
0.3535533905932738
 31
0.0
  0
LINE
  5
134
330
130
100
AcDbEntity
  8
0
 62
     0
370
    -2
100
AcDbLine
 10
-0.1414213562373095
 20
0.1414213562373095
 30
0.0
 11
-0.3535533905932738
 21
0.3535533905932738
 31
0.0
  0
LINE
  5
135
330
130
100
AcDbEntity
  8
0
 62
     0
370
    -2
100
AcDbLine
 10
0.1414213562373095
 20
-0.1414213562373095
 30
0.0
 11
0.3535533905932738
 21
-0.3535533905932738
 31
0.0
  0
LINE
  5
136
330
130
100
AcDbEntity
  8
0
 62
     0
370
    -2
100
AcDbLine
 10
-0.1414213562373095
 20
-0.1414213562373095
 30
0.0
 11
-0.3535533905932738
 21
-0.3535533905932738
 31
0.0
  0
ENDBLK
  5
138
330
130
100
AcDbEntity
  8
0
100
AcDbBlockEnd
  0
BLOCK
  5
13D
330
139
100
AcDbEntity
  8
0
100
AcDbBlockBegin
  2
CDWK_PTTYP33
 70
     0
 10
0.0
 20
0.0
 30
0.0
  3
CDWK_PTTYP33
  1

  0
LINE
  5
13A
330
139
100
AcDbEntity
  8
0
 62
     0
370
    -2
100
AcDbLine
 10
0.0
 20
-0.5
 30
0.0
 11
0.0
 21
0.5
 31
0.0
  0
LINE
  5
13B
330
139
100
AcDbEntity
  8
0
 62
     0
370
    -2
100
AcDbLine
 10
0.5
 20
0.0
 30
0.0
 11
-0.5
 21
0.0
 31
0.0
  0
CIRCLE
  5
13C
330
139
100
AcDbEntity
  8
0
 62
     0
370
    -2
100
AcDbCircle
 10
0.0
 20
0.0
 30
0.0
 40
0.5
  0
ENDBLK
  5
13E
330
139
100
AcDbEntity
  8
0
100
AcDbBlockEnd
  0
BLOCK
  5
143
330
13F
100
AcDbEntity
  8
0
100
AcDbBlockBegin
  2
CDWK_PTTYP34
 70
     0
 10
0.0
 20
0.0
 30
0.0
  3
CDWK_PTTYP34
  1

  0
CIRCLE
  5
140
330
13F
100
AcDbEntity
  8
0
 62
     0
370
    -2
100
AcDbCircle
 10
0.0
 20
0.0
 30
0.0
 40
0.5
  0
LINE
  5
141
330
13F
100
AcDbEntity
  8
0
 62
     0
370
    -2
100
AcDbLine
 10
-0.4
 20
-0.3
 30
0.0
 11
0.3
 21
0.4
 31
0.0
  0
LINE
  5
142
330
13F
100
AcDbEntity
  8
0
 62
     0
370
    -2
100
AcDbLine
 10
-0.3
 20
-0.4
 30
0.0
 11
0.4
 21
0.3
 31
0.0
  0
ENDBLK
  5
144
330
13F
100
AcDbEntity
  8
0
100
AcDbBlockEnd
  0
BLOCK
  5
149
330
145
100
AcDbEntity
  8
0
100
AcDbBlockBegin
  2
CDWK_PTTYP35
 70
     0
 10
0.0
 20
0.0
 30
0.0
  3
CDWK_PTTYP35
  1

  0
LINE
  5
146
330
145
100
AcDbEntity
  8
0
 62
     0
370
    -2
100
AcDbLine
 10
0.0
 20
0.2
 30
0.0
 11
0.0
 21
0.5
 31
0.0
  0
LINE
  5
147
330
145
100
AcDbEntity
  8
0
 62
     0
370
    -2
100
AcDbLine
 10
0.0
 20
-0.2
 30
0.0
 11
0.0
 21
-0.5
 31
0.0
  0
CIRCLE
  5
148
330
145
100
AcDbEntity
  8
0
 62
     0
370
    -2
100
AcDbCircle
 10
0.0
 20
0.0
 30
0.0
 40
0.2
  0
ENDBLK
  5
14A
330
145
100
AcDbEntity
  8
0
100
AcDbBlockEnd
  0
BLOCK
  5
151
330
14B
100
AcDbEntity
  8
0
100
AcDbBlockBegin
  2
CDWK_PTTYP36
 70
     0
 10
0.0
 20
0.0
 30
0.0
  3
CDWK_PTTYP36
  1

  0
LINE
  5
14C
330
14B
100
AcDbEntity
  8
0
 62
     0
370
    -2
100
AcDbLine
 10
-0.5
 20
0.2
 30
0.0
 11
0.5
 21
0.2
 31
0.0
  0
LINE
  5
14D
330
14B
100
AcDbEntity
  8
0
 62
     0
370
    -2
100
AcDbLine
 10
0.5
 20
0.2
 30
0.0
 11
0.5
 21
-0.2
 31
0.0
  0
LINE
  5
14E
330
14B
100
AcDbEntity
  8
0
 62
     0
370
    -2
100
AcDbLine
 10
0.5
 20
-0.2
 30
0.0
 11
-0.5
 21
-0.2
 31
0.0
  0
LINE
  5
14F
330
14B
100
AcDbEntity
  8
0
 62
     0
370
    -2
100
AcDbLine
 10
-0.5
 20
-0.2
 30
0.0
 11
-0.5
 21
0.2
 31
0.0
  0
HATCH
  5
150
330
14B
100
AcDbEntity
  8
0
 62
     0
370
    -2
100
AcDbHatch
 10
0.0
 20
0.0
 30
0.0
210
0.0
220
0.0
230
1.0
  2
SOLID
 70
     1
 71
     1
 91
        1
 92
        3
 72
     0
 73
     1
 93
        3
 10
-0.5
 20
-0.2
 10
0.5
 20
-0.2
 10
0.5
 20
0.2
 97
        0
 75
     0
 76
     1
 98
        0
  0
ENDBLK
  5
152
330
14B
100
AcDbEntity
  8
0
100
AcDbBlockEnd
  0
BLOCK
  5
156
330
153
100
AcDbEntity
  8
0
100
AcDbBlockBegin
  2
CDWK_PTTYP37
 70
     0
 10
0.0
 20
0.0
 30
0.0
  3
CDWK_PTTYP37
  1

  0
HATCH
  5
154
330
153
100
AcDbEntity
  8
0
 62
     0
370
    -2
100
AcDbHatch
 10
0.0
 20
0.0
 30
0.0
210
0.0
220
0.0
230
1.0
  2
SOLID
 70
     1
 71
     1
 91
        1
 92
        3
 72
     0
 73
     1
 93
      202
 10
-0.3535533905932738
 20
-0.3535533905932738
 10
-0.3485533905932738
 20
-0.3535533905932737
 10
-0.3435533905932738
 20
-0.3584836591895546
 10
-0.3385533905932738
 20
-0.3632782236961988
 10
-0.3335533905932738
 20
-0.367942389128785
 10
-0.3285533905932738
 20
-0.372481054046687
 10
-0.3235533905932738
 20
-0.3768987523588579
 10
-0.3185533905932738
 20
-0.3811996897107819
 10
-0.3135533905932738
 20
-0.3853877752881235
 10
-0.3085533905932737
 20
-0.3894666497242888
 10
-0.3035533905932737
 20
-0.3934397096803965
 10
-0.2985533905932737
 20
-0.3973101295704999
 10
-0.2935533905932737
 20
-0.4010808808273714
 10
-0.2885533905932737
 20
-0.4047547490409382
 10
-0.2835533905932737
 20
-0.4083343492496384
 10
-0.2785533905932737
 20
-0.4118221396222626
 10
-0.2735533905932737
 20
-0.4152204337324827
 10
-0.2685533905932737
 20
-0.4185314115988474
 10
-0.2635533905932737
 20
-0.4217571296384408
 10
-0.2585533905932737
 20
-0.4248995296617653
 10
-0.2535533905932737
 20
-0.4279604470190231
 10
-0.2485533905932737
 20
-0.4309416179932669
 10
-0.2435533905932737
 20
-0.4338446865234004
 10
-0.2385533905932737
 20
-0.4366712103293738
 10
-0.2335533905932737
 20
-0.439422666502825
 10
-0.2285533905932737
 20
-0.4421004566186126
 10
-0.2235533905932737
 20
-0.4447059114159811
 10
-0.2185533905932737
 20
-0.4472402950923041
 10
-0.2135533905932737
 20
-0.4497048092473372
 10
-0.2085533905932737
 20
-0.4521005965115692
 10
-0.2035533905932737
 20
-0.4544287438884664
 10
-0.1985533905932736
 20
-0.456690285837111
 10
-0.1935533905932736
 20
-0.45888620711884
 10
-0.1885533905932736
 20
-0.4610174454289638
 10
-0.1835533905932736
 20
-0.4630848938324164
 10
-0.1785533905932736
 20
-0.4650894030202291
 10
-0.1735533905932736
 20
-0.4670317834019928
 10
-0.1685533905932736
 20
-0.46891280704794
 10
-0.1635533905932736
 20
-0.4707332094929264
 10
-0.1585533905932736
 20
-0.4724936914133818
 10
-0.1535533905932736
 20
-0.4741949201872336
 10
-0.1485533905932736
 20
-0.4758375313458466
 10
-0.1435533905932736
 20
-0.4774221299261716
 10
-0.1385533905932736
 20
-0.4789492917305286
 10
-0.1335533905932736
 20
-0.4804195645007682
 10
-0.1285533905932736
 20
-0.4818334690129366
 10
-0.1235533905932736
 20
-0.4831915000980183
 10
-0.1185533905932736
 20
-0.4844941275938295
 10
-0.1135533905932736
 20
-0.4857417972326848
 10
-0.1085533905932736
 20
-0.4869349314690531
 10
-0.1035533905932736
 20
-0.4880739302510473
 10
-0.0985533905932736
 20
-0.489159171739258
 10
-0.0935533905932736
 20
-0.4901910129761353
 10
-0.0885533905932736
 20
-0.4911697905088447
 10
-0.0835533905932735
 20
-0.4920958209682695
 10
-0.0785533905932735
 20
-0.4929694016065986
 10
-0.0735533905932735
 20
-0.4937908107957261
 10
-0.0685533905932735
 20
-0.494560308488493
 10
-0.0635533905932735
 20
-0.4952781366446192
 10
-0.0585533905932735
 20
-0.4959445196230107
 10
-0.0535533905932735
 20
-0.4965596645419678
 10
-0.0485533905932735
 20
-0.4971237616086806
 10
-0.0435533905932735
 20
-0.4976369844192622
 10
-0.0385533905932735
 20
-0.4980994902304456
 10
-0.0335533905932735
 20
-0.4985114202039533
 10
-0.0285533905932735
 20
-0.4988728996244386
 10
-0.0235533905932735
 20
-0.4991840380917923
 10
-0.0185533905932735
 20
-0.49944492968851
 10
-0.0135533905932735
 20
-0.4996556531227215
 10
-0.0085533905932735
 20
-0.4998162718473921
 10
-0.0035533905932735
 20
-0.4999268341561182
 10
0.0014466094067265
 20
-0.499987373255857
 10
0.0064466094067265
 20
-0.4999979073168451
 10
0.0114466094067265
 20
-0.4999584394998819
 10
0.0164466094067265
 20
-0.4998689579610739
 10
0.0214466094067265
 20
-0.4997294358340547
 10
0.0264466094067265
 20
-0.4995398311896213
 10
0.0314466094067265
 20
-0.4993000869726422
 10
0.0364466094067265
 20
-0.4990101309160174
 10
0.0414466094067265
 20
-0.4986698754313855
 10
0.0464466094067265
 20
-0.498279217476192
 10
0.0514466094067265
 20
-0.4978380383966446
 10
0.0564466094067265
 20
-0.497346203745994
 10
0.0614466094067265
 20
-0.4968035630774849
 10
0.0664466094067264
 20
-0.4962099497112257
 10
0.0714466094067265
 20
-0.4955651804741228
 10
0.0764466094067265
 20
-0.4948690554119167
 10
0.0814466094067265
 20
-0.4941213574722463
 10
0.0864466094067265
 20
-0.4933218521575424
 10
0.0914466094067265
 20
-0.4924702871464235
 10
0.0964466094067265
 20
-0.4915663918821278
 10
0.1014466094067265
 20
-0.4906098771263643
 10
0.1064466094067265
 20
-0.4896004344768079
 10
0.1114466094067265
 20
-0.4885377358462822
 10
0.1164466094067265
 20
-0.4874214329014929
 10
0.1214466094067265
 20
-0.4862511564589613
 10
0.1264466094067265
 20
-0.4850265158355881
 10
0.1314466094067265
 20
-0.4837470981510305
 10
0.1364466094067265
 20
-0.482412467578809
 10
0.1414466094067265
 20
-0.4810221645427664
 10
0.1464466094067265
 20
-0.4795757048551781
 10
0.1514466094067265
 20
-0.4780725787924608
 10
0.1564466094067265
 20
-0.4765122501040308
 10
0.1614466094067265
 20
-0.4748941549494363
 10
0.1664466094067265
 20
-0.4732177007584056
 10
0.1714466094067265
 20
-0.4714822650079264
 10
0.1764466094067265
 20
-0.4696871939098801
 10
0.1814466094067266
 20
-0.4678318010021017
 10
0.1864466094067266
 20
-0.4659153656350076
 10
0.1914466094067266
 20
-0.4639371313451162
 10
0.1964466094067266
 20
-0.4618963041058764
 10
0.2014466094067266
 20
-0.4597920504451997
 10
0.2064466094067266
 20
-0.4576234954179405
 10
0.2114466094067266
 20
-0.4553897204202862
 10
0.2164466094067266
 20
-0.4530897608315588
 10
0.2214466094067266
 20
-0.45072260346729
 10
0.2264466094067266
 20
-0.4482871838255748
 10
0.2314466094067266
 20
-0.4457823831065977
 10
0.2364466094067266
 20
-0.4432070249828292
 10
0.2414466094067266
 20
-0.4405598720946596
 10
0.2464466094067266
 20
-0.4378396222431172
 10
0.2514466094067266
 20
-0.4350449042477435
 10
0.2564466094067266
 20
-0.4321742734336012
 10
0.2614466094067266
 20
-0.4292262067066663
 10
0.2664466094067266
 20
-0.4261990971714118
 10
0.2714466094067266
 20
-0.4230912482380831
 10
0.2764466094067266
 20
-0.4199008671598476
 10
0.2814466094067266
 20
-0.4166260579314797
 10
0.2864466094067266
 20
-0.4132648134712868
 10
0.2914466094067266
 20
-0.4098150069963156
 10
0.2964466094067266
 20
-0.4062743824871597
 10
0.3014466094067266
 20
-0.4026405441224911
 10
0.3064466094067266
 20
-0.3989109445442534
 10
0.3114466094067266
 20
-0.3950828717916294
 10
0.3164466094067266
 20
-0.391153434714632
 10
0.3214466094067266
 20
-0.3871195466454601
 10
0.3264466094067267
 20
-0.3829779070663467
 10
0.3314466094067267
 20
-0.3787249809648844
 10
0.3364466094067267
 20
-0.3743569755097196
 10
0.3414466094067267
 20
-0.3698698136084067
 10
0.3464466094067267
 20
-0.3652591038217257
 10
0.3514466094067267
 20
-0.3605201060004601
 10
0.3564466094067267
 20
-0.3556476918757041
 10
0.3614466094067267
 20
-0.3506362996645505
 10
0.3664466094067267
 20
-0.34547988153926
 10
0.3714466094067267
 20
-0.3401718425359658
 10
0.3764466094067267
 20
-0.334704969129899
 10
0.3814466094067267
 20
-0.3290713452523318
 10
0.3864466094067267
 20
-0.3232622529342269
 10
0.3914466094067267
 20
-0.3172680539828188
 10
0.3964466094067267
 20
-0.3110780480586465
 10
0.4014466094067267
 20
-0.304680301118911
 10
0.4064466094067267
 20
-0.2980614362775617
 10
0.4114466094067267
 20
-0.291206376478565
 10
0.4164466094067267
 20
-0.2840980246459106
 10
0.4214466094067267
 20
-0.276716861635935
 10
0.4264466094067267
 20
-0.2690404345439063
 10
0.4314466094067267
 20
-0.2610426963649944
 10
0.4364466094067267
 20
-0.2526931404518915
 10
0.4414466094067268
 20
-0.2439556458403291
 10
0.4464466094067268
 20
-0.2347869056044327
 10
0.4514466094067268
 20
-0.2251342376211081
 10
0.4564466094067268
 20
-0.2149324518428296
 10
0.4614466094067268
 20
-0.2040992228331676
 10
0.4664466094067268
 20
-0.1925279893081412
 10
0.4714466094067268
 20
-0.1800765408735088
 10
0.4764466094067268
 20
-0.1665475742210051
 10
0.4814466094067268
 20
-0.1516529867323223
 10
0.4864466094067268
 20
-0.1349413290684758
 10
0.4914466094067268
 20
-0.1156274024472547
 10
0.4964466094067268
 20
-0.0920881648347501
 10
0.5
 20
0.0
 10
0.495
 20
0.0
 10
0.49
 20
0.0705336798983295
 10
0.485
 20
0.0994987437106621
 10
0.48
 20
0.1215524578114322
 10
0.475
 20
0.14
 10
0.47
 20
0.15612494995996
 10
0.465
 20
0.1705872210923199
 10
0.46
 20
0.1837797594948911
 10
0.455
 20
0.1959591794226544
 10
0.45
 20
0.2073041244162789
 10
0.445
 20
0.2179449471770338
 10
0.4399999999999999
 20
0.2279802623035601
 10
0.4349999999999999
 20
0.2374868417407584
 10
0.4299999999999999
 20
0.2465258607124211
 10
0.4249999999999999
 20
0.2551470164434615
 10
0.4199999999999999
 20
0.2633913438213186
 10
0.4149999999999999
 20
0.2712931993250108
 10
0.4099999999999999
 20
0.2788816953476869
 10
0.4049999999999999
 20
0.2861817604250838
 10
0.3999999999999999
 20
0.2932149382279151
 10
0.3949999999999999
 20
0.3000000000000002
 10
0.3899999999999999
 20
0.3065534211193868
 10
0.3849999999999999
 20
0.3128897569432404
 10
0.3799999999999999
 20
0.3190219428189855
 10
0.3749999999999999
 20
0.3249615361854385
 10
0.3699999999999999
 20
0.330718913883074
 10
0.3649999999999999
 20
0.3363034344160049
 10
0.3599999999999999
 20
0.3417235724968357
 10
0.3549999999999999
 20
0.3469870314579496
 10
0.3535533905932738
 20
0.3535533905932738
 97
        0
 75
     0
 76
     1
 98
        0
  0
CIRCLE
  5
155
330
153
100
AcDbEntity
  8
0
 62
     0
370
    -2
100
AcDbCircle
 10
0.0
 20
0.0
 30
0.0
 40
0.5
  0
ENDBLK
  5
157
330
153
100
AcDbEntity
  8
0
100
AcDbBlockEnd
  0
BLOCK
  5
15C
330
158
100
AcDbEntity
  8
0
100
AcDbBlockBegin
  2
CDWK_PTTYP38
 70
     0
 10
0.0
 20
0.0
 30
0.0
  3
CDWK_PTTYP38
  1

  0
HATCH
  5
159
330
158
100
AcDbEntity
  8
0
 62
     0
370
    -2
100
AcDbHatch
 10
0.0
 20
0.0
 30
0.0
210
0.0
220
0.0
230
1.0
  2
SOLID
 70
     1
 71
     1
 91
        1
 92
        3
 72
     0
 73
     1
 93
      102
 10
0.0
 20
0.0
 10
0.0
 20
0.5
 10
0.005
 20
0.5
 10
0.01
 20
0.4999749993749688
 10
0.015
 20
0.4998999899979995
 10
0.02
 20
0.4997749493522059
 10
0.025
 20
0.4995998398718718
 10
0.03
 20
0.4993746088859545
 10
0.035
 20
0.4990991885387112
 10
0.04
 20
0.4987734956871706
 10
0.045
 20
0.4983974317750845
 10
0.05
 20
0.4979708826829135
 10
0.055
 20
0.49749371855331
 10
0.06
 20
0.4969657935914704
 10
0.065
 20
0.4963869458396343
 10
0.07
 20
0.4957569969249047
 10
0.075
 20
0.4950757517794626
 10
0.08
 20
0.4943429983321297
 10
0.085
 20
0.4935585071701227
 10
0.09
 20
0.4927220311697053
 10
0.095
 20
0.4918333050943175
 10
0.1
 20
0.4908920451586071
 10
0.105
 20
0.4898979485566356
 10
0.11
 20
0.4888506929523574
 10
0.115
 20
0.4877499359302879
 10
0.12
 20
0.4865953144040744
 10
0.125
 20
0.4853864439804639
 10
0.13
 20
0.4841229182759271
 10
0.135
 20
0.4828043081829325
 10
0.14
 20
0.4814301610825811
 10
0.145
 20
0.48
 10
0.15
 20
0.478513322698543
 10
0.1550000000000001
 20
0.4769696007084728
 10
0.1600000000000001
 20
0.4753682782853731
 10
0.1650000000000001
 20
0.4737087712930804
 10
0.1700000000000001
 20
0.4719904660054056
 10
0.1750000000000001
 20
0.4702127178203498
 10
0.1800000000000001
 20
0.4683748498798799
 10
0.1850000000000001
 20
0.466476151587624
 10
0.1900000000000001
 20
0.4645158770160606
 10
0.1950000000000001
 20
0.4624932431938871
 10
0.2000000000000001
 20
0.460407428263272
 10
0.2050000000000001
 20
0.4582575694955839
 10
0.2100000000000001
 20
0.4560427611529427
 10
0.2150000000000001
 20
0.4537620521815371
 10
0.2200000000000001
 20
0.4514144437210665
 10
0.2250000000000001
 20
0.4489988864128729
 10
0.2300000000000001
 20
0.4465142774872937
 10
0.2350000000000001
 20
0.4439594576084622
 10
0.2400000000000001
 20
0.4413332074521472
 10
0.2450000000000001
 20
0.4386342439892261
 10
0.2500000000000001
 20
0.4358612164439502
 10
0.2550000000000001
 20
0.4330127018922192
 10
0.2600000000000001
 20
0.4300872004605577
 10
0.2650000000000001
 20
0.4270831300812524
 10
0.2700000000000001
 20
0.423998820753077
 10
0.2750000000000001
 20
0.4208325082500162
 10
0.2800000000000001
 20
0.4175823272122516
 10
0.2850000000000001
 20
0.4142463035441595
 10
0.2900000000000001
 20
0.4108223460329293
 10
0.2950000000000002
 20
0.4073082370883259
 10
0.3000000000000002
 20
0.403701622488689
 10
0.3050000000000002
 20
0.3999999999999999
 10
0.3100000000000002
 20
0.3962007067131506
 10
0.3150000000000002
 20
0.3923009049186605
 10
0.3200000000000002
 20
0.3882975663070783
 10
0.3250000000000002
 20
0.3841874542459708
 10
0.3300000000000002
 20
0.3799671038392664
 10
0.3350000000000002
 20
0.3756327994198588
 10
0.3400000000000002
 20
0.3711805490593491
 10
0.3450000000000002
 20
0.366606055596467
 10
0.3500000000000002
 20
0.3619046835839512
 10
0.3550000000000002
 20
0.3570714214271423
 10
0.3600000000000002
 20
0.3521008378291649
 10
0.3650000000000002
 20
0.3469870314579492
 10
0.3700000000000002
 20
0.3417235724968353
 10
0.3750000000000002
 20
0.3363034344160045
 10
0.3800000000000002
 20
0.3307189138830736
 10
0.3850000000000002
 20
0.3249615361854382
 10
0.3900000000000002
 20
0.3190219428189851
 10
0.3950000000000002
 20
0.31288975694324
 10
0.4000000000000002
 20
0.3065534211193863
 10
0.4050000000000002
 20
0.2999999999999997
 10
0.4100000000000003
 20
0.2932149382279147
 10
0.4150000000000003
 20
0.2861817604250834
 10
0.4200000000000003
 20
0.2788816953476864
 10
0.4250000000000003
 20
0.2712931993250103
 10
0.4300000000000003
 20
0.263391343821318
 10
0.4350000000000003
 20
0.255147016443461
 10
0.4400000000000003
 20
0.2465258607124206
 10
0.4450000000000003
 20
0.2374868417407578
 10
0.4500000000000003
 20
0.2279802623035594
 10
0.4550000000000003
 20
0.2179449471770331
 10
0.4600000000000003
 20
0.2073041244162782
 10
0.4650000000000003
 20
0.1959591794226536
 10
0.4700000000000003
 20
0.1837797594948903
 10
0.4750000000000003
 20
0.170587221092319
 10
0.4800000000000003
 20
0.156124949959959
 10
0.4850000000000003
 20
0.1399999999999989
 10
0.4900000000000003
 20
0.1215524578114309
 10
0.4950000000000003
 20
0.0994987437106604
 10
0.5
 20
0.0
 97
        0
 75
     0
 76
     1
 98
        0
  0
HATCH
  5
15A
330
158
100
AcDbEntity
  8
0
 62
     0
370
    -2
100
AcDbHatch
 10
0.0
 20
0.0
 30
0.0
210
0.0
220
0.0
230
1.0
  2
SOLID
 70
     1
 71
     1
 91
        1
 92
        3
 72
     0
 73
     1
 93
      102
 10
0.0
 20
0.0
 10
-0.5
 20
0.0
 10
-0.495
 20
0.0
 10
-0.49
 20
-0.0705336798983295
 10
-0.485
 20
-0.0994987437106621
 10
-0.48
 20
-0.1215524578114322
 10
-0.475
 20
-0.14
 10
-0.47
 20
-0.15612494995996
 10
-0.465
 20
-0.1705872210923199
 10
-0.46
 20
-0.1837797594948911
 10
-0.455
 20
-0.1959591794226544
 10
-0.45
 20
-0.2073041244162789
 10
-0.445
 20
-0.2179449471770338
 10
-0.4399999999999999
 20
-0.2279802623035601
 10
-0.4349999999999999
 20
-0.2374868417407584
 10
-0.4299999999999999
 20
-0.2465258607124211
 10
-0.4249999999999999
 20
-0.2551470164434615
 10
-0.4199999999999999
 20
-0.2633913438213186
 10
-0.4149999999999999
 20
-0.2712931993250108
 10
-0.4099999999999999
 20
-0.2788816953476869
 10
-0.4049999999999999
 20
-0.2861817604250838
 10
-0.3999999999999999
 20
-0.2932149382279151
 10
-0.3949999999999999
 20
-0.3000000000000002
 10
-0.3899999999999999
 20
-0.3065534211193868
 10
-0.3849999999999999
 20
-0.3128897569432404
 10
-0.3799999999999999
 20
-0.3190219428189855
 10
-0.3749999999999999
 20
-0.3249615361854385
 10
-0.3699999999999999
 20
-0.330718913883074
 10
-0.3649999999999999
 20
-0.3363034344160049
 10
-0.3599999999999999
 20
-0.3417235724968357
 10
-0.3549999999999999
 20
-0.3469870314579496
 10
-0.3499999999999999
 20
-0.3521008378291652
 10
-0.3449999999999999
 20
-0.3570714214271427
 10
-0.3399999999999999
 20
-0.3619046835839516
 10
-0.3349999999999999
 20
-0.3666060555964674
 10
-0.3299999999999998
 20
-0.3711805490593494
 10
-0.3249999999999998
 20
-0.3756327994198591
 10
-0.3199999999999998
 20
-0.3799671038392667
 10
-0.3149999999999998
 20
-0.3841874542459711
 10
-0.3099999999999998
 20
-0.3882975663070786
 10
-0.3049999999999998
 20
-0.3923009049186608
 10
-0.2999999999999998
 20
-0.3962007067131507
 10
-0.2949999999999998
 20
-0.4000000000000001
 10
-0.2899999999999998
 20
-0.4037016224886891
 10
-0.2849999999999998
 20
-0.4073082370883261
 10
-0.2799999999999998
 20
-0.4108223460329296
 10
-0.2749999999999998
 20
-0.4142463035441597
 10
-0.2699999999999998
 20
-0.4175823272122518
 10
-0.2649999999999998
 20
-0.4208325082500164
 10
-0.2599999999999998
 20
-0.4239988207530773
 10
-0.2549999999999998
 20
-0.4270831300812526
 10
-0.2499999999999998
 20
-0.4300872004605579
 10
-0.2449999999999998
 20
-0.4330127018922195
 10
-0.2399999999999998
 20
-0.4358612164439503
 10
-0.2349999999999998
 20
-0.4386342439892263
 10
-0.2299999999999998
 20
-0.4413332074521473
 10
-0.2249999999999998
 20
-0.4439594576084624
 10
-0.2199999999999998
 20
-0.4465142774872939
 10
-0.2149999999999997
 20
-0.4489988864128731
 10
-0.2099999999999997
 20
-0.4514144437210667
 10
-0.2049999999999997
 20
-0.4537620521815372
 10
-0.1999999999999997
 20
-0.4560427611529429
 10
-0.1949999999999997
 20
-0.4582575694955841
 10
-0.1899999999999997
 20
-0.4604074282632722
 10
-0.1849999999999997
 20
-0.4624932431938872
 10
-0.1799999999999997
 20
-0.4645158770160608
 10
-0.1749999999999997
 20
-0.4664761515876241
 10
-0.1699999999999997
 20
-0.46837484987988
 10
-0.1649999999999997
 20
-0.47021271782035
 10
-0.1599999999999997
 20
-0.4719904660054058
 10
-0.1549999999999997
 20
-0.4737087712930805
 10
-0.1499999999999997
 20
-0.4753682782853733
 10
-0.1449999999999997
 20
-0.4769696007084729
 10
-0.1399999999999997
 20
-0.4785133226985431
 10
-0.1349999999999997
 20
-0.4800000000000001
 10
-0.1299999999999997
 20
-0.4814301610825812
 10
-0.1249999999999997
 20
-0.4828043081829325
 10
-0.1199999999999997
 20
-0.4841229182759272
 10
-0.1149999999999997
 20
-0.485386443980464
 10
-0.1099999999999997
 20
-0.4865953144040744
 10
-0.1049999999999996
 20
-0.487749935930288
 10
-0.0999999999999996
 20
-0.4888506929523574
 10
-0.0949999999999996
 20
-0.4898979485566357
 10
-0.0899999999999996
 20
-0.4908920451586072
 10
-0.0849999999999996
 20
-0.4918333050943176
 10
-0.0799999999999996
 20
-0.4927220311697053
 10
-0.0749999999999996
 20
-0.4935585071701227
 10
-0.0699999999999996
 20
-0.4943429983321298
 10
-0.0649999999999996
 20
-0.4950757517794626
 10
-0.0599999999999996
 20
-0.4957569969249048
 10
-0.0549999999999996
 20
-0.4963869458396343
 10
-0.0499999999999996
 20
-0.4969657935914705
 10
-0.0449999999999996
 20
-0.49749371855331
 10
-0.0399999999999996
 20
-0.4979708826829135
 10
-0.0349999999999996
 20
-0.4983974317750846
 10
-0.0299999999999996
 20
-0.4987734956871706
 10
-0.0249999999999996
 20
-0.4990991885387112
 10
-0.0199999999999996
 20
-0.4993746088859545
 10
-0.0149999999999996
 20
-0.4995998398718719
 10
-0.0099999999999996
 20
-0.499774949352206
 10
-0.0049999999999996
 20
-0.4998999899979995
 10
0.0
 20
-0.5
 97
        0
 75
     0
 76
     1
 98
        0
  0
CIRCLE
  5
15B
330
158
100
AcDbEntity
  8
0
 62
     0
370
    -2
100
AcDbCircle
 10
0.0
 20
0.0
 30
0.0
 40
0.5
  0
ENDBLK
  5
15D
330
158
100
AcDbEntity
  8
0
100
AcDbBlockEnd
  0
BLOCK
  5
166
330
15E
100
AcDbEntity
  8
0
100
AcDbBlockBegin
  2
CDWK_PTTYP41
 70
     0
 10
0.0
 20
0.0
 30
0.0
  3
CDWK_PTTYP41
  1

  0
LINE
  5
15F
330
15E
100
AcDbEntity
  8
0
 62
     0
370
    -2
100
AcDbLine
 10
-0.5
 20
0.5
 30
0.0
 11
0.5
 21
0.5
 31
0.0
  0
LINE
  5
160
330
15E
100
AcDbEntity
  8
0
 62
     0
370
    -2
100
AcDbLine
 10
0.5
 20
0.5
 30
0.0
 11
0.5
 21
-0.5
 31
0.0
  0
LINE
  5
161
330
15E
100
AcDbEntity
  8
0
 62
     0
370
    -2
100
AcDbLine
 10
0.5
 20
-0.5
 30
0.0
 11
-0.5
 21
-0.5
 31
0.0
  0
LINE
  5
162
330
15E
100
AcDbEntity
  8
0
 62
     0
370
    -2
100
AcDbLine
 10
-0.5
 20
-0.5
 30
0.0
 11
-0.5
 21
0.5
 31
0.0
  0
LINE
  5
163
330
15E
100
AcDbEntity
  8
0
 62
     0
370
    -2
100
AcDbLine
 10
-0.375
 20
0.25
 30
0.0
 11
0.375
 21
0.25
 31
0.0
  0
LINE
  5
164
330
15E
100
AcDbEntity
  8
0
 62
     0
370
    -2
100
AcDbLine
 10
-0.375
 20
0.0
 30
0.0
 11
0.375
 21
0.0
 31
0.0
  0
LINE
  5
165
330
15E
100
AcDbEntity
  8
0
 62
     0
370
    -2
100
AcDbLine
 10
-0.375
 20
-0.25
 30
0.0
 11
0.375
 21
-0.25
 31
0.0
  0
ENDBLK
  5
167
330
15E
100
AcDbEntity
  8
0
100
AcDbBlockEnd
  0
BLOCK
  5
16F
330
168
100
AcDbEntity
  8
0
100
AcDbBlockBegin
  2
CDWK_PTTYP42
 70
     0
 10
0.0
 20
0.0
 30
0.0
  3
CDWK_PTTYP42
  1

  0
LINE
  5
169
330
168
100
AcDbEntity
  8
0
 62
     0
370
    -2
100
AcDbLine
 10
-0.5
 20
0.5
 30
0.0
 11
0.5
 21
0.5
 31
0.0
  0
LINE
  5
16A
330
168
100
AcDbEntity
  8
0
 62
     0
370
    -2
100
AcDbLine
 10
0.5
 20
0.5
 30
0.0
 11
0.5
 21
-0.5
 31
0.0
  0
LINE
  5
16B
330
168
100
AcDbEntity
  8
0
 62
     0
370
    -2
100
AcDbLine
 10
0.5
 20
-0.5
 30
0.0
 11
-0.5
 21
-0.5
 31
0.0
  0
LINE
  5
16C
330
168
100
AcDbEntity
  8
0
 62
     0
370
    -2
100
AcDbLine
 10
-0.5
 20
-0.5
 30
0.0
 11
-0.5
 21
0.5
 31
0.0
  0
LINE
  5
16D
330
168
100
AcDbEntity
  8
0
 62
     0
370
    -2
100
AcDbLine
 10
-0.375
 20
0.125
 30
0.0
 11
0.375
 21
0.125
 31
0.0
  0
LINE
  5
16E
330
168
100
AcDbEntity
  8
0
 62
     0
370
    -2
100
AcDbLine
 10
-0.375
 20
-0.125
 30
0.0
 11
0.375
 21
-0.125
 31
0.0
  0
ENDBLK
  5
170
330
168
100
AcDbEntity
  8
0
100
AcDbBlockEnd
  0
BLOCK
  5
175
330
171
100
AcDbEntity
  8
0
100
AcDbBlockBegin
  2
CDWK_PTTYP43
 70
     0
 10
0.0
 20
0.0
 30
0.0
  3
CDWK_PTTYP43
  1

  0
CIRCLE
  5
172
330
171
100
AcDbEntity
  8
0
 62
     0
370
    -2
100
AcDbCircle
 10
0.0
 20
0.0
 30
0.0
 40
0.5
  0
LINE
  5
173
330
171
100
AcDbEntity
  8
0
 62
     0
370
    -2
100
AcDbLine
 10
-0.375
 20
0.166
 30
0.0
 11
0.375
 21
0.166
 31
0.0
  0
LINE
  5
174
330
171
100
AcDbEntity
  8
0
 62
     0
370
    -2
100
AcDbLine
 10
-0.375
 20
-0.166
 30
0.0
 11
0.375
 21
-0.166
 31
0.0
  0
ENDBLK
  5
176
330
171
100
AcDbEntity
  8
0
100
AcDbBlockEnd
  0
BLOCK
  5
17E
330
177
100
AcDbEntity
  8
0
100
AcDbBlockBegin
  2
CDWK_PTTYP44
 70
     0
 10
0.0
 20
0.0
 30
0.0
  3
CDWK_PTTYP44
  1

  0
CIRCLE
  5
178
330
177
100
AcDbEntity
  8
0
 62
     0
370
    -2
100
AcDbCircle
 10
0.0
 20
0.0
 30
0.0
 40
0.5
  0
LINE
  5
179
330
177
100
AcDbEntity
  8
0
 62
     0
370
    -2
100
AcDbLine
 10
-0.375
 20
0.333
 30
0.0
 11
0.375
 21
0.333
 31
0.0
  0
LINE
  5
17A
330
177
100
AcDbEntity
  8
0
 62
     0
370
    -2
100
AcDbLine
 10
-0.375
 20
0.166
 30
0.0
 11
0.375
 21
0.166
 31
0.0
  0
LINE
  5
17B
330
177
100
AcDbEntity
  8
0
 62
     0
370
    -2
100
AcDbLine
 10
-0.375
 20
0.0
 30
0.0
 11
0.375
 21
0.0
 31
0.0
  0
LINE
  5
17C
330
177
100
AcDbEntity
  8
0
 62
     0
370
    -2
100
AcDbLine
 10
-0.375
 20
-0.166
 30
0.0
 11
0.375
 21
-0.166
 31
0.0
  0
LINE
  5
17D
330
177
100
AcDbEntity
  8
0
 62
     0
370
    -2
100
AcDbLine
 10
-0.375
 20
-0.333
 30
0.0
 11
0.375
 21
-0.333
 31
0.0
  0
ENDBLK
  5
17F
330
177
100
AcDbEntity
  8
0
100
AcDbBlockEnd
  0
BLOCK
  5
183
330
180
100
AcDbEntity
  8
0
100
AcDbBlockBegin
  2
CDWK_PTTYP45
 70
     0
 10
0.0
 20
0.0
 30
0.0
  3
CDWK_PTTYP45
  1

  0
ELLIPSE
  5
181
330
180
100
AcDbEntity
  8
0
 62
     0
370
    -2
100
AcDbEllipse
 10
0.0
 20
0.0
 30
0.0
 11
0.5
 21
0.0
 31
0.0
210
0.0
220
0.0
230
1.0
 40
0.82
 41
0.0
 42
6.283185307179586
  0
CIRCLE
  5
182
330
180
100
AcDbEntity
  8
0
 62
     0
370
    -2
100
AcDbCircle
 10
-0.235
 20
0.0
 30
0.0
 40
0.26
  0
ENDBLK
  5
184
330
180
100
AcDbEntity
  8
0
100
AcDbBlockEnd
  0
BLOCK
  5
188
330
185
100
AcDbEntity
  8
0
100
AcDbBlockBegin
  2
CDWK_PTTYP46
 70
     0
 10
0.0
 20
0.0
 30
0.0
  3
CDWK_PTTYP46
  1

  0
ELLIPSE
  5
186
330
185
100
AcDbEntity
  8
0
 62
     0
370
    -2
100
AcDbEllipse
 10
0.0
 20
0.0
 30
0.0
 11
0.5
 21
0.0
 31
0.0
210
0.0
220
0.0
230
1.0
 40
0.82
 41
0.0
 42
6.283185307179586
  0
CIRCLE
  5
187
330
185
100
AcDbEntity
  8
0
 62
     0
370
    -2
100
AcDbCircle
 10
0.0
 20
0.15
 30
0.0
 40
0.26
  0
ENDBLK
  5
189
330
185
100
AcDbEntity
  8
0
100
AcDbBlockEnd
  0
BLOCK
  5
190
330
18A
100
AcDbEntity
  8
0
100
AcDbBlockBegin
  2
CDWK_PTTYP47
 70
     0
 10
0.0
 20
0.0
 30
0.0
  3
CDWK_PTTYP47
  1

  0
LINE
  5
18B
330
18A
100
AcDbEntity
  8
0
 62
     0
370
    -2
100
AcDbLine
 10
-0.5
 20
0.166
 30
0.0
 11
0.5
 21
0.166
 31
0.0
  0
LINE
  5
18C
330
18A
100
AcDbEntity
  8
0
 62
     0
370
    -2
100
AcDbLine
 10
0.5
 20
0.166
 30
0.0
 11
0.5
 21
-0.166
 31
0.0
  0
LINE
  5
18D
330
18A
100
AcDbEntity
  8
0
 62
     0
370
    -2
100
AcDbLine
 10
0.5
 20
-0.166
 30
0.0
 11
-0.5
 21
-0.166
 31
0.0
  0
LINE
  5
18E
330
18A
100
AcDbEntity
  8
0
 62
     0
370
    -2
100
AcDbLine
 10
-0.5
 20
-0.166
 30
0.0
 11
-0.5
 21
0.166
 31
0.0
  0
CIRCLE
  5
18F
330
18A
100
AcDbEntity
  8
0
 62
     0
370
    -2
100
AcDbCircle
 10
0.0
 20
-0.313
 30
0.0
 40
0.4
  0
ENDBLK
  5
191
330
18A
100
AcDbEntity
  8
0
100
AcDbBlockEnd
  0
BLOCK
  5
196
330
193
100
AcDbEntity
  8
0
100
AcDbBlockBegin
  2
CDWK_PTTYP48
 70
     0
 10
0.0
 20
0.0
 30
0.0
  3
CDWK_PTTYP48
  1

  0
CIRCLE
  5
194
330
193
100
AcDbEntity
  8
0
  6
CADWORK_3
 62
     0
 48
0.1
370
    -2
100
AcDbCircle
 10
0.0
 20
0.0
 30
0.0
 40
0.5
  0
CIRCLE
  5
195
330
193
100
AcDbEntity
  8
0
 62
     0
370
    -2
100
AcDbCircle
 10
0.0
 20
0.0
 30
0.0
 40
0.25
  0
ENDBLK
  5
197
330
193
100
AcDbEntity
  8
0
100
AcDbBlockEnd
  0
BLOCK
  5
19D
330
198
100
AcDbEntity
  8
0
100
AcDbBlockBegin
  2
CDWK_PTTYP49
 70
     0
 10
0.0
 20
0.0
 30
0.0
  3
CDWK_PTTYP49
  1

  0
LINE
  5
199
330
198
100
AcDbEntity
  8
0
 62
     0
370
    -2
100
AcDbLine
 10
-0.5
 20
0.166
 30
0.0
 11
0.5
 21
0.166
 31
0.0
  0
LINE
  5
19A
330
198
100
AcDbEntity
  8
0
 62
     0
370
    -2
100
AcDbLine
 10
0.5
 20
0.166
 30
0.0
 11
0.5
 21
-0.166
 31
0.0
  0
LINE
  5
19B
330
198
100
AcDbEntity
  8
0
 62
     0
370
    -2
100
AcDbLine
 10
0.5
 20
-0.166
 30
0.0
 11
-0.5
 21
-0.166
 31
0.0
  0
LINE
  5
19C
330
198
100
AcDbEntity
  8
0
 62
     0
370
    -2
100
AcDbLine
 10
-0.5
 20
-0.166
 30
0.0
 11
-0.5
 21
0.166
 31
0.0
  0
ENDBLK
  5
19E
330
198
100
AcDbEntity
  8
0
100
AcDbBlockEnd
  0
BLOCK
  5
1A7
330
19F
100
AcDbEntity
  8
0
100
AcDbBlockBegin
  2
CDWK_PTTYP50
 70
     0
 10
0.0
 20
0.0
 30
0.0
  3
CDWK_PTTYP50
  1

  0
LINE
  5
1A0
330
19F
100
AcDbEntity
  8
0
 62
     0
370
    -2
100
AcDbLine
 10
-0.5
 20
0.166
 30
0.0
 11
0.5
 21
0.166
 31
0.0
  0
LINE
  5
1A1
330
19F
100
AcDbEntity
  8
0
 62
     0
370
    -2
100
AcDbLine
 10
0.5
 20
0.166
 30
0.0
 11
0.5
 21
-0.166
 31
0.0
  0
LINE
  5
1A2
330
19F
100
AcDbEntity
  8
0
 62
     0
370
    -2
100
AcDbLine
 10
0.5
 20
-0.166
 30
0.0
 11
-0.5
 21
-0.166
 31
0.0
  0
LINE
  5
1A3
330
19F
100
AcDbEntity
  8
0
 62
     0
370
    -2
100
AcDbLine
 10
-0.5
 20
-0.166
 30
0.0
 11
-0.5
 21
0.166
 31
0.0
  0
LINE
  5
1A4
330
19F
100
AcDbEntity
  8
0
 62
     0
370
    -2
100
AcDbLine
 10
-0.25
 20
-0.166
 30
0.0
 11
-0.25
 21
0.166
 31
0.0
  0
LINE
  5
1A5
330
19F
100
AcDbEntity
  8
0
 62
     0
370
    -2
100
AcDbLine
 10
0.0
 20
-0.166
 30
0.0
 11
0.0
 21
0.166
 31
0.0
  0
LINE
  5
1A6
330
19F
100
AcDbEntity
  8
0
 62
     0
370
    -2
100
AcDbLine
 10
0.25
 20
-0.166
 30
0.0
 11
0.25
 21
0.166
 31
0.0
  0
ENDBLK
  5
1A8
330
19F
100
AcDbEntity
  8
0
100
AcDbBlockEnd
  0
BLOCK
  5
1AC
330
1A9
100
AcDbEntity
  8
0
100
AcDbBlockBegin
  2
CDWK_PTTYP51
 70
     0
 10
0.0
 20
0.0
 30
0.0
  3
CDWK_PTTYP51
  1

  0
SPLINE
  5
1AA
330
1A9
100
AcDbEntity
  8
0
 62
     0
370
    -2
100
AcDbSpline
210
0.0
220
0.0
230
1.0
 70
  1064
 71
     3
 72
    12
 73
     8
 74
     6
 42
0.000000001
 43
0.0000000001
 44
0.0000000001
 40
0.0
 40
0.0
 40
0.0
 40
0.0
 40
0.1690118339052032
 40
0.5175774661755118
 40
0.8011704844252565
 40
0.9154070810132151
 40
0.975822310881188
 40
0.975822310881188
 40
0.975822310881188
 40
0.975822310881188
 10
-0.5
 20
-0.077
 30
0.0
 10
-0.443824324006723
 20
-0.0900581618560981
 30
0.0
 10
-0.2717933876546281
 20
-0.1300471387828842
 30
0.0
 10
-0.0276699186086479
 20
-0.0006977790990417
 30
0.0
 10
0.2303349729129116
 20
0.0817803270207037
 30
0.0
 10
0.3686157174766292
 20
0.0066250198607167
 30
0.0
 10
0.4216533294581816
 20
-0.0168719667726145
 30
0.0
 10
0.44
 20
-0.025
 30
0.0
 11
-0.5
 21
-0.077
 31
0.0
 11
-0.333
 21
-0.103
 31
0.0
 11
0.0
 21
0.0
 31
0.0
 11
0.28
 21
0.045
 31
0.0
 11
0.385
 21
0.0
 31
0.0
 11
0.44
 21
-0.025
 31
0.0
  0
HATCH
  5
1AB
330
1A9
100
AcDbEntity
  8
0
 62
     0
370
    -2
100
AcDbHatch
 10
0.0
 20
0.0
 30
0.0
210
0.0
220
0.0
230
1.0
  2
SOLID
 70
     1
 71
     1
 91
        1
 92
        3
 72
     0
 73
     1
 93
        3
 10
0.365
 20
-0.05
 10
0.5
 20
-0.042
 10
0.395
 20
0.045
 97
        0
 75
     0
 76
     1
 98
        0
  0
ENDBLK
  5
1AD
330
1A9
100
AcDbEntity
  8
0
100
AcDbBlockEnd
  0
BLOCK
  5
1B2
330
1AE
100
AcDbEntity
  8
0
100
AcDbBlockBegin
  2
CDWK_PTTYP52
 70
     0
 10
0.0
 20
0.0
 30
0.0
  3
CDWK_PTTYP52
  1

  0
LINE
  5
1AF
330
1AE
100
AcDbEntity
  8
0
 62
     0
370
    -2
100
AcDbLine
 10
-0.5
 20
-0.289
 30
0.0
 11
0.5
 21
-0.289
 31
0.0
  0
LINE
  5
1B0
330
1AE
100
AcDbEntity
  8
0
 62
     0
370
    -2
100
AcDbLine
 10
0.5
 20
-0.289
 30
0.0
 11
0.0
 21
0.577
 31
0.0
  0
LINE
  5
1B1
330
1AE
100
AcDbEntity
  8
0
 62
     0
370
    -2
100
AcDbLine
 10
0.0
 20
0.577
 30
0.0
 11
-0.5
 21
-0.289
 31
0.0
  0
ENDBLK
  5
1B3
330
1AE
100
AcDbEntity
  8
0
100
AcDbBlockEnd
  0
BLOCK
  5
1B9
330
1B4
100
AcDbEntity
  8
0
100
AcDbBlockBegin
  2
cw-dimension-symbol1
 70
     0
 10
0.0
 20
0.0
 30
0.0
  3
cw-dimension-symbol1
  1

  0
LINE
  5
1B5
330
1B4
100
AcDbEntity
  8
0
 62
     0
370
    -2
100
AcDbLine
 10
0.0
 20
0.0
 30
0.0
 11
-1.0
 21
0.25
 31
0.0
  0
LINE
  5
1B6
330
1B4
100
AcDbEntity
  8
0
 62
     0
370
    -2
100
AcDbLine
 10
0.0
 20
0.0
 30
0.0
 11
-1.0
 21
-0.25
 31
0.0
  0
LINE
  5
1B7
330
1B4
100
AcDbEntity
  8
0
 62
     0
370
    -2
100
AcDbLine
 10
-1.0
 20
0.25
 30
0.0
 11
-1.0
 21
-0.25
 31
0.0
  0
LINE
  5
1B8
330
1B4
100
AcDbEntity
  8
0
 62
     0
370
    -2
100
AcDbLine
 10
0.0
 20
0.0
 30
0.0
 11
-1.0
 21
0.0
 31
0.0
  0
ENDBLK
  5
1BA
330
1B4
100
AcDbEntity
  8
0
100
AcDbBlockEnd
  0
BLOCK
  5
1BE
330
1BB
100
AcDbEntity
  8
0
100
AcDbBlockBegin
  2
cw-dimension-symbol2
 70
     0
 10
0.0
 20
0.0
 30
0.0
  3
cw-dimension-symbol2
  1

  0
LINE
  5
1BC
330
1BB
100
AcDbEntity
  8
0
 62
     0
370
    -2
100
AcDbLine
 10
-1.0
 20
0.0
 30
0.0
 11
1.0
 21
0.0
 31
0.0
  0
LINE
  5
1BD
330
1BB
100
AcDbEntity
  8
0
 62
     0
370
    -2
100
AcDbLine
 10
-0.5
 20
-0.5
 30
0.0
 11
0.5
 21
0.5
 31
0.0
  0
ENDBLK
  5
1BF
330
1BB
100
AcDbEntity
  8
0
100
AcDbBlockEnd
  0
BLOCK
  5
1C3
330
1C0
100
AcDbEntity
  8
0
100
AcDbBlockBegin
  2
cw-dimension-symbol3
 70
     0
 10
0.0
 20
0.0
 30
0.0
  3
cw-dimension-symbol3
  1

  0
LINE
  5
1C1
330
1C0
100
AcDbEntity
  8
0
 62
     0
370
    -2
100
AcDbLine
 10
-1.0
 20
0.0
 30
0.0
 11
1.0
 21
0.0
 31
0.0
  0
CIRCLE
  5
1C2
330
1C0
100
AcDbEntity
  8
0
 62
     0
370
    -2
100
AcDbCircle
 10
0.0
 20
0.0
 30
0.0
 40
0.25
  0
ENDBLK
  5
1C4
330
1C0
100
AcDbEntity
  8
0
100
AcDbBlockEnd
  0
BLOCK
  5
1CA
330
1C5
100
AcDbEntity
  8
0
100
AcDbBlockBegin
  2
cw-dimension-symbol5
 70
     0
 10
0.0
 20
0.0
 30
0.0
  3
cw-dimension-symbol5
  1

  0
HATCH
  5
1C6
330
1C5
100
AcDbEntity
  8
0
 62
     0
370
    -2
100
AcDbHatch
 10
0.0
 20
0.0
 30
0.0
210
0.0
220
0.0
230
1.0
  2
SOLID
 70
     1
 71
     1
 91
        1
 92
        3
 72
     0
 73
     1
 93
        3
 10
0.0
 20
0.0
 10
-1.0
 20
0.25
 10
-1.0
 20
-0.25
 97
        0
 75
     0
 76
     1
 98
        0
  0
LINE
  5
1C7
330
1C5
100
AcDbEntity
  8
0
 62
     0
370
    -2
100
AcDbLine
 10
0.0
 20
0.0
 30
0.0
 11
-1.0
 21
0.25
 31
0.0
  0
LINE
  5
1C8
330
1C5
100
AcDbEntity
  8
0
 62
     0
370
    -2
100
AcDbLine
 10
-1.0
 20
0.25
 30
0.0
 11
-1.0
 21
-0.25
 31
0.0
  0
LINE
  5
1C9
330
1C5
100
AcDbEntity
  8
0
 62
     0
370
    -2
100
AcDbLine
 10
-1.0
 20
-0.25
 30
0.0
 11
0.0
 21
0.0
 31
0.0
  0
ENDBLK
  5
1CB
330
1C5
100
AcDbEntity
  8
0
100
AcDbBlockEnd
  0
BLOCK
  5
1D0
330
1CC
100
AcDbEntity
  8
0
100
AcDbBlockBegin
  2
cw-dimension-symbol6
 70
     0
 10
0.0
 20
0.0
 30
0.0
  3
cw-dimension-symbol6
  1

  0
LINE
  5
1CD
330
1CC
100
AcDbEntity
  8
0
 62
     0
370
    -2
100
AcDbLine
 10
0.0
 20
0.0
 30
0.0
 11
-1.0
 21
0.25
 31
0.0
  0
LINE
  5
1CE
330
1CC
100
AcDbEntity
  8
0
 62
     0
370
    -2
100
AcDbLine
 10
0.0
 20
0.0
 30
0.0
 11
-1.0
 21
-0.25
 31
0.0
  0
LINE
  5
1CF
330
1CC
100
AcDbEntity
  8
0
 62
     0
370
    -2
100
AcDbLine
 10
0.0
 20
0.0
 30
0.0
 11
-1.0
 21
0.0
 31
0.0
  0
ENDBLK
  5
1D1
330
1CC
100
AcDbEntity
  8
0
100
AcDbBlockEnd
  0
BLOCK
  5
1D6
330
1D2
100
AcDbEntity
  8
0
100
AcDbBlockBegin
  2
cw-dimension-symbol11
 70
     0
 10
0.0
 20
0.0
 30
0.0
  3
cw-dimension-symbol11
  1

  0
LINE
  5
1D3
330
1D2
100
AcDbEntity
  8
0
 62
     0
370
    -2
100
AcDbLine
 10
-1.0
 20
1.0
 30
0.0
 11
1.0
 21
1.0
 31
0.0
  0
LINE
  5
1D4
330
1D2
100
AcDbEntity
  8
0
 62
     0
370
    -2
100
AcDbLine
 10
0.0
 20
0.0
 30
0.0
 11
-1.0
 21
1.0
 31
0.0
  0
LINE
  5
1D5
330
1D2
100
AcDbEntity
  8
0
 62
     0
370
    -2
100
AcDbLine
 10
0.0
 20
0.0
 30
0.0
 11
1.0
 21
1.0
 31
0.0
  0
ENDBLK
  5
1D7
330
1D2
100
AcDbEntity
  8
0
100
AcDbBlockEnd
  0
BLOCK
  5
1DC
330
1D8
100
AcDbEntity
  8
0
100
AcDbBlockBegin
  2
cw-dimension-symbol13
 70
     0
 10
0.0
 20
0.0
 30
0.0
  3
cw-dimension-symbol13
  1

  0
LINE
  5
1D9
330
1D8
100
AcDbEntity
  8
0
 62
     0
370
    -2
100
AcDbLine
 10
-1.0
 20
-1.0
 30
0.0
 11
1.0
 21
-1.0
 31
0.0
  0
LINE
  5
1DA
330
1D8
100
AcDbEntity
  8
0
 62
     0
370
    -2
100
AcDbLine
 10
0.0
 20
0.0
 30
0.0
 11
-1.0
 21
-1.0
 31
0.0
  0
LINE
  5
1DB
330
1D8
100
AcDbEntity
  8
0
 62
     0
370
    -2
100
AcDbLine
 10
0.0
 20
0.0
 30
0.0
 11
1.0
 21
-1.0
 31
0.0
  0
ENDBLK
  5
1DD
330
1D8
100
AcDbEntity
  8
0
100
AcDbBlockEnd
  0
BLOCK
  5
1E3
330
1DE
100
AcDbEntity
  8
0
100
AcDbBlockBegin
  2
cw-dimension-symbol15
 70
     0
 10
0.0
 20
0.0
 30
0.0
  3
cw-dimension-symbol15
  1

  0
HATCH
  5
1DF
330
1DE
100
AcDbEntity
  8
0
 62
     0
370
    -2
100
AcDbHatch
 10
0.0
 20
0.0
 30
0.0
210
0.0
220
0.0
230
1.0
  2
SOLID
 70
     1
 71
     1
 91
        1
 92
        3
 72
     0
 73
     1
 93
        3
 10
0.0
 20
0.0
 10
-1.0
 20
1.0
 10
1.0
 20
1.0
 97
        0
 75
     0
 76
     1
 98
        0
  0
LINE
  5
1E0
330
1DE
100
AcDbEntity
  8
0
 62
     0
370
    -2
100
AcDbLine
 10
0.0
 20
0.0
 30
0.0
 11
-1.0
 21
1.0
 31
0.0
  0
LINE
  5
1E1
330
1DE
100
AcDbEntity
  8
0
 62
     0
370
    -2
100
AcDbLine
 10
-1.0
 20
1.0
 30
0.0
 11
1.0
 21
1.0
 31
0.0
  0
LINE
  5
1E2
330
1DE
100
AcDbEntity
  8
0
 62
     0
370
    -2
100
AcDbLine
 10
1.0
 20
1.0
 30
0.0
 11
0.0
 21
0.0
 31
0.0
  0
ENDBLK
  5
1E4
330
1DE
100
AcDbEntity
  8
0
100
AcDbBlockEnd
  0
BLOCK
  5
1EA
330
1E5
100
AcDbEntity
  8
0
100
AcDbBlockBegin
  2
cw-dimension-symbol16
 70
     0
 10
0.0
 20
0.0
 30
0.0
  3
cw-dimension-symbol16
  1

  0
HATCH
  5
1E6
330
1E5
100
AcDbEntity
  8
0
 62
     0
370
    -2
100
AcDbHatch
 10
0.0
 20
0.0
 30
0.0
210
0.0
220
0.0
230
1.0
  2
SOLID
 70
     1
 71
     1
 91
        1
 92
        3
 72
     0
 73
     1
 93
        3
 10
0.0
 20
0.0
 10
-1.0
 20
-1.0
 10
1.0
 20
-1.0
 97
        0
 75
     0
 76
     1
 98
        0
  0
LINE
  5
1E7
330
1E5
100
AcDbEntity
  8
0
 62
     0
370
    -2
100
AcDbLine
 10
0.0
 20
0.0
 30
0.0
 11
-1.0
 21
-1.0
 31
0.0
  0
LINE
  5
1E8
330
1E5
100
AcDbEntity
  8
0
 62
     0
370
    -2
100
AcDbLine
 10
-1.0
 20
-1.0
 30
0.0
 11
1.0
 21
-1.0
 31
0.0
  0
LINE
  5
1E9
330
1E5
100
AcDbEntity
  8
0
 62
     0
370
    -2
100
AcDbLine
 10
1.0
 20
-1.0
 30
0.0
 11
0.0
 21
0.0
 31
0.0
  0
ENDBLK
  5
1EB
330
1E5
100
AcDbEntity
  8
0
100
AcDbBlockEnd
  0
BLOCK
  5
1F1
330
1EC
100
AcDbEntity
  8
0
100
AcDbBlockBegin
  2
cw-dimension-symbol17
 70
     0
 10
0.0
 20
0.0
 30
0.0
  3
cw-dimension-symbol17
  1

  0
LINE
  5
1ED
330
1EC
100
AcDbEntity
  8
0
 62
     0
370
    -2
100
AcDbLine
 10
0.0
 20
0.0
 30
0.0
 11
1.0
 21
1.0
 31
0.0
  0
LINE
  5
1EE
330
1EC
100
AcDbEntity
  8
0
 62
     0
370
    -2
100
AcDbLine
 10
1.0
 20
1.0
 30
0.0
 11
-1.0
 21
1.0
 31
0.0
  0
LINE
  5
1EF
330
1EC
100
AcDbEntity
  8
0
 62
     0
370
    -2
100
AcDbLine
 10
-1.0
 20
1.0
 30
0.0
 11
0.0
 21
0.0
 31
0.0
  0
HATCH
  5
1F0
330
1EC
100
AcDbEntity
  8
0
 62
     0
370
    -2
100
AcDbHatch
 10
0.0
 20
0.0
 30
0.0
210
0.0
220
0.0
230
1.0
  2
SOLID
 70
     1
 71
     1
 91
        1
 92
        3
 72
     0
 73
     1
 93
        3
 10
0.0
 20
0.0
 10
-1.0
 20
1.0
 10
0.0
 20
1.0
 97
        0
 75
     0
 76
     1
 98
        0
  0
ENDBLK
  5
1F2
330
1EC
100
AcDbEntity
  8
0
100
AcDbBlockEnd
  0
BLOCK
  5
1F8
330
1F3
100
AcDbEntity
  8
0
100
AcDbBlockBegin
  2
cw-dimension-symbol18
 70
     0
 10
0.0
 20
0.0
 30
0.0
  3
cw-dimension-symbol18
  1

  0
LINE
  5
1F4
330
1F3
100
AcDbEntity
  8
0
 62
     0
370
    -2
100
AcDbLine
 10
0.0
 20
0.0
 30
0.0
 11
1.0
 21
-1.0
 31
0.0
  0
LINE
  5
1F5
330
1F3
100
AcDbEntity
  8
0
 62
     0
370
    -2
100
AcDbLine
 10
1.0
 20
-1.0
 30
0.0
 11
-1.0
 21
-1.0
 31
0.0
  0
LINE
  5
1F6
330
1F3
100
AcDbEntity
  8
0
 62
     0
370
    -2
100
AcDbLine
 10
-1.0
 20
-1.0
 30
0.0
 11
0.0
 21
0.0
 31
0.0
  0
HATCH
  5
1F7
330
1F3
100
AcDbEntity
  8
0
 62
     0
370
    -2
100
AcDbHatch
 10
0.0
 20
0.0
 30
0.0
210
0.0
220
0.0
230
1.0
  2
SOLID
 70
     1
 71
     1
 91
        1
 92
        3
 72
     0
 73
     1
 93
        3
 10
0.0
 20
0.0
 10
-1.0
 20
-1.0
 10
0.0
 20
-1.0
 97
        0
 75
     0
 76
     1
 98
        0
  0
ENDBLK
  5
1F9
330
1F3
100
AcDbEntity
  8
0
100
AcDbBlockEnd
  0
BLOCK
  5
1FB
330
1FA
100
AcDbEntity
  8
0
100
AcDbBlockBegin
  2
cw-dimension-symbol19
 70
     0
 10
0.0
 20
0.0
 30
0.0
  3
cw-dimension-symbol19
  1

  0
ENDBLK
  5
1FC
330
1FA
100
AcDbEntity
  8
0
100
AcDbBlockEnd
  0
BLOCK
  5
202
330
1FD
100
AcDbEntity
  8
0
100
AcDbBlockBegin
  2
cw-dimension-symbol20
 70
     0
 10
0.0
 20
0.0
 30
0.0
  3
cw-dimension-symbol20
  1

  0
LINE
  5
1FE
330
1FD
100
AcDbEntity
  8
0
 62
     0
370
    -2
100
AcDbLine
 10
0.0
 20
0.0
 30
0.0
 11
0.0
 21
2.0
 31
0.0
  0
LINE
  5
1FF
330
1FD
100
AcDbEntity
  8
0
 62
     0
370
    -2
100
AcDbLine
 10
0.0
 20
0.0
 30
0.0
 11
-1.0
 21
0.33
 31
0.0
  0
LINE
  5
200
330
1FD
100
AcDbEntity
  8
0
 62
     0
370
    -2
100
AcDbLine
 10
0.0
 20
0.0
 30
0.0
 11
1.0
 21
0.33
 31
0.0
  0
LINE
  5
201
330
1FD
100
AcDbEntity
  8
0
 62
     0
370
    -2
100
AcDbLine
 10
0.0
 20
2.0
 30
0.0
 11
4.15
 21
2.0
 31
0.0
  0
ENDBLK
  5
203
330
1FD
100
AcDbEntity
  8
0
100
AcDbBlockEnd
  0
BLOCK
  5
209
330
204
100
AcDbEntity
  8
0
100
AcDbBlockBegin
  2
cw-dimension-symbol21
 70
     0
 10
0.0
 20
0.0
 30
0.0
  3
cw-dimension-symbol21
  1

  0
LINE
  5
205
330
204
100
AcDbEntity
  8
0
 62
     0
370
    -2
100
AcDbLine
 10
0.0
 20
0.0
 30
0.0
 11
0.0
 21
-2.0
 31
0.0
  0
LINE
  5
206
330
204
100
AcDbEntity
  8
0
 62
     0
370
    -2
100
AcDbLine
 10
0.0
 20
0.0
 30
0.0
 11
-1.0
 21
-0.33
 31
0.0
  0
LINE
  5
207
330
204
100
AcDbEntity
  8
0
 62
     0
370
    -2
100
AcDbLine
 10
0.0
 20
0.0
 30
0.0
 11
1.0
 21
-0.33
 31
0.0
  0
LINE
  5
208
330
204
100
AcDbEntity
  8
0
 62
     0
370
    -2
100
AcDbLine
 10
0.0
 20
-2.0
 30
0.0
 11
4.15
 21
-2.0
 31
0.0
  0
ENDBLK
  5
20A
330
204
100
AcDbEntity
  8
0
100
AcDbBlockEnd
  0
BLOCK
  5
23B
330
20B
100
AcDbEntity
  8
0
100
AcDbBlockBegin
  2
cw-line-extremity0
 70
     0
 10
0.0
 20
0.0
 30
0.0
  3
cw-line-extremity0
  1

  0
LINE
  5
20C
330
20B
100
AcDbEntity
  8
0
 62
     0
370
    -2
100
AcDbLine
 10
0.0
 20
0.0
 30
0.0
 11
10.0
 21
2.5
 31
0.0
  0
LINE
  5
20D
330
20B
100
AcDbEntity
  8
0
 62
     0
370
    -2
100
AcDbLine
 10
0.0
 20
0.0
 30
0.0
 11
10.0
 21
-2.5
 31
0.0
  0
LINE
  5
20E
330
20B
100
AcDbEntity
  8
0
 62
     0
370
    -2
100
AcDbLine
 10
10.0
 20
2.5
 30
0.0
 11
10.0
 21
-2.5
 31
0.0
  0
ENDBLK
  5
23C
330
20B
100
AcDbEntity
  8
0
100
AcDbBlockEnd
  0
BLOCK
  5
239
330
20F
100
AcDbEntity
  8
0
100
AcDbBlockBegin
  2
cw-line-extremity2
 70
     0
 10
0.0
 20
0.0
 30
0.0
  3
cw-line-extremity2
  1

  0
HATCH
  5
210
330
20F
100
AcDbEntity
  8
0
 62
     0
370
     0
100
AcDbHatch
 10
0.0
 20
0.0
 30
0.0
210
0.0
220
0.0
230
1.0
  2
SOLID
 70
     1
 71
     1
 91
        1
 92
        3
 72
     0
 73
     1
 93
        3
 10
0.0
 20
0.0
 10
10.0
 20
2.5
 10
10.0
 20
-2.5
 97
        0
 75
     0
 76
     1
 98
        0
  0
LINE
  5
211
330
20F
100
AcDbEntity
  8
0
 62
     0
370
    -2
100
AcDbLine
 10
0.0
 20
0.0
 30
0.0
 11
10.0
 21
2.5
 31
0.0
  0
LINE
  5
212
330
20F
100
AcDbEntity
  8
0
 62
     0
370
    -2
100
AcDbLine
 10
10.0
 20
2.5
 30
0.0
 11
10.0
 21
-2.5
 31
0.0
  0
LINE
  5
213
330
20F
100
AcDbEntity
  8
0
 62
     0
370
    -2
100
AcDbLine
 10
10.0
 20
-2.5
 30
0.0
 11
0.0
 21
0.0
 31
0.0
  0
ENDBLK
  5
23A
330
20F
100
AcDbEntity
  8
0
100
AcDbBlockEnd
  0
BLOCK
  5
237
330
214
100
AcDbEntity
  8
0
100
AcDbBlockBegin
  2
cw-line-extremity3
 70
     0
 10
0.0
 20
0.0
 30
0.0
  3
cw-line-extremity3
  1

  0
HATCH
  5
215
330
214
100
AcDbEntity
  8
0
 62
     0
370
     0
100
AcDbHatch
 10
0.0
 20
0.0
 30
0.0
210
0.0
220
0.0
230
1.0
  2
SOLID
 70
     1
 71
     1
 91
        1
 92
        3
 72
     0
 73
     1
 93
        3
 10
0.0
 20
0.0
 10
10.0
 20
2.5
 10
10.0
 20
-2.5
 97
        0
 75
     0
 76
     1
 98
        0
  0
LINE
  5
216
330
214
100
AcDbEntity
  8
0
 62
     0
370
    -2
100
AcDbLine
 10
0.0
 20
0.0
 30
0.0
 11
10.0
 21
2.5
 31
0.0
  0
LINE
  5
217
330
214
100
AcDbEntity
  8
0
 62
     0
370
    -2
100
AcDbLine
 10
10.0
 20
2.5
 30
0.0
 11
10.0
 21
-2.5
 31
0.0
  0
LINE
  5
218
330
214
100
AcDbEntity
  8
0
 62
     0
370
    -2
100
AcDbLine
 10
10.0
 20
-2.5
 30
0.0
 11
0.0
 21
0.0
 31
0.0
  0
ENDBLK
  5
238
330
214
100
AcDbEntity
  8
0
100
AcDbBlockEnd
  0
BLOCK
  5
235
330
219
100
AcDbEntity
  8
0
100
AcDbBlockBegin
  2
cw-line-extremity301
 70
     0
 10
0.0
 20
0.0
 30
0.0
  3
cw-line-extremity301
  1

  0
LINE
  5
21A
330
219
100
AcDbEntity
  8
0
 62
     0
370
    -2
100
AcDbLine
 10
0.0
 20
6.66665
 30
0.0
 11
0.0
 21
-6.66665
 31
0.0
  0
ENDBLK
  5
236
330
219
100
AcDbEntity
  8
0
100
AcDbBlockEnd
  0
BLOCK
  5
233
330
21B
100
AcDbEntity
  8
0
100
AcDbBlockBegin
  2
cw-line-extremity4
 70
     0
 10
0.0
 20
0.0
 30
0.0
  3
cw-line-extremity4
  1

  0
HATCH
  5
21C
330
21B
100
AcDbEntity
  8
0
 62
     0
370
     5
100
AcDbHatch
 10
0.0
 20
0.0
 30
0.0
210
0.0
220
0.0
230
1.0
  2
SOLID
 70
     1
 71
     1
 91
        1
 92
        1
 93
        1
 72
     2
 10
0.0
 20
0.0
 40
2.5
 50
0.0
 51
360.0
 73
     1
 97
        0
 75
     0
 76
     1
 98
        0
  0
ENDBLK
  5
234
330
21B
100
AcDbEntity
  8
0
100
AcDbBlockEnd
  0
BLOCK
  5
231
330
21D
100
AcDbEntity
  8
0
100
AcDbBlockBegin
  2
cw-line-extremity5
 70
     0
 10
0.0
 20
0.0
 30
0.0
  3
cw-line-extremity5
  1

  0
LINE
  5
21E
330
21D
100
AcDbEntity
  8
0
 62
     0
370
    -2
100
AcDbLine
 10
0.0
 20
0.0
 30
0.0
 11
-2.5
 21
0.0
 31
0.0
  0
ENDBLK
  5
232
330
21D
100
AcDbEntity
  8
0
100
AcDbBlockEnd
  0
BLOCK
  5
22F
330
21F
100
AcDbEntity
  8
0
100
AcDbBlockBegin
  2
cw-line-extremity6
 70
     0
 10
0.0
 20
0.0
 30
0.0
  3
cw-line-extremity6
  1

  0
LINE
  5
220
330
21F
100
AcDbEntity
  8
0
 62
     0
370
    18
100
AcDbLine
 10
0.0
 20
2.5
 30
0.0
 11
0.0
 21
-2.5
 31
0.0
  0
ENDBLK
  5
230
330
21F
100
AcDbEntity
  8
0
100
AcDbBlockEnd
  0
BLOCK
  5
22D
330
221
100
AcDbEntity
  8
0
100
AcDbBlockBegin
  2
cw-line-extremity9
 70
     0
 10
0.0
 20
0.0
 30
0.0
  3
cw-line-extremity9
  1

  0
LINE
  5
222
330
221
100
AcDbEntity
  8
0
 62
     0
370
    18
100
AcDbLine
 10
-2.5
 20
-2.5
 30
0.0
 11
2.5
 21
2.5
 31
0.0
  0
ENDBLK
  5
22E
330
221
100
AcDbEntity
  8
0
100
AcDbBlockEnd
  0
BLOCK
  5
22B
330
223
100
AcDbEntity
  8
0
100
AcDbBlockBegin
  2
cw-line-extremity10
 70
     0
 10
0.0
 20
0.0
 30
0.0
  3
cw-line-extremity10
  1

  0
CIRCLE
  5
224
330
223
100
AcDbEntity
  8
0
 62
     0
370
    -2
100
AcDbCircle
 10
0.0
 20
0.0
 30
0.0
 40
2.5
  0
ENDBLK
  5
22C
330
223
100
AcDbEntity
  8
0
100
AcDbBlockEnd
  0
BLOCK
  5
229
330
225
100
AcDbEntity
  8
0
100
AcDbBlockBegin
  2
cw-line-extremity1
 70
     0
 10
0.0
 20
0.0
 30
0.0
  3
cw-line-extremity1
  1

  0
LINE
  5
226
330
225
100
AcDbEntity
  8
0
 62
     0
370
    -2
100
AcDbLine
 10
0.0
 20
0.0
 30
0.0
 11
0.0
 21
2.5
 31
0.0
  0
LINE
  5
227
330
225
100
AcDbEntity
  8
0
 62
     0
370
    -2
100
AcDbLine
 10
0.0
 20
2.5
 30
0.0
 11
1.25
 21
3.75
 31
0.0
  0
LINE
  5
228
330
225
100
AcDbEntity
  8
0
 62
     0
370
    -2
100
AcDbLine
 10
1.25
 20
3.75
 30
0.0
 11
3.75
 21
3.75
 31
0.0
  0
ENDBLK
  5
22A
330
225
100
AcDbEntity
  8
0
100
AcDbBlockEnd
  0
BLOCK
  5
1C
330
1B
100
AcDbEntity
  8
0
100
AcDbBlockBegin
  2
*Paper_Space69
 70
     0
 10
0.0
 20
0.0
 30
0.0
  3
*Paper_Space69
  1

  0
ENDBLK
  5
1D
330
1B
100
AcDbEntity
  8
0
100
AcDbBlockEnd
  0
BLOCK
  5
434
330
433
100
AcDbEntity
  8
0
100
AcDbBlockBegin
  2
*D70
 70
     1
 10
0.0
 20
0.0
 30
0.0
  3
*D70
  1

  0
LINE
  5
436
330
433
100
AcDbEntity
  8
Ech.1_2
 62
     0
370
    -2
100
AcDbLine
 10
11432.29753663716
 20
2131.418952315762
 30
0.0
 11
11406.27678800469
 21
2131.418952315762
 31
0.0
  0
LINE
  5
437
330
433
100
AcDbEntity
  8
Ech.1_2
 62
     0
370
    -2
100
AcDbLine
 10
11432.29753663716
 20
2156.552667684682
 30
0.0
 11
11406.27678800469
 21
2156.552667684682
 31
0.0
  0
LINE
  5
438
330
433
100
AcDbEntity
  8
Ech.1_2
 62
     0
370
    -2
100
AcDbLine
 10
11411.27678800469
 20
2136.418952315762
 30
0.0
 11
11411.27678800469
 21
2151.552667684682
 31
0.0
  0
INSERT
  5
439
330
433
100
AcDbEntity
  8
Ech.1_2
 62
     0
370
    -2
100
AcDbBlockReference
  2
cw-dimension-symbol2
 10
11411.27678800469
 20
2131.418952315762
 30
0.0
 41
5.0
 42
5.0
 43
5.0
 50
270.0
  0
INSERT
  5
43A
330
433
100
AcDbEntity
  8
Ech.1_2
 62
     0
370
    -2
100
AcDbBlockReference
  2
cw-dimension-symbol2
 10
11411.27678800469
 20
2156.552667684682
 30
0.0
 41
5.0
 42
5.0
 43
5.0
 50
90.0
  0
MTEXT
  5
43B
330
433
100
AcDbEntity
  8
Ech.1_2
 62
   190
370
    15
100
AcDbMText
 10
11400.02678800469
 20
2143.985810000213
 30
0.0
 40
12.5
 41
0.0
 46
0.0
 71
     5
 72
     1
  1
\A1;10 mini
  7
arial-z
 11
6.123233995736766E-17
 21
1.0
 31
0.0
 73
     1
 44
1.0
  0
POINT
  5
43C
330
433
100
AcDbEntity
  8
Defpoints
 62
     0
100
AcDbPoint
 10
11432.29753663716
 20
2131.418952315762
 30
0.0
  0
POINT
  5
43D
330
433
100
AcDbEntity
  8
Defpoints
 62
     0
100
AcDbPoint
 10
11432.29753663716
 20
2156.552667684682
 30
0.0
  0
POINT
  5
43E
330
433
100
AcDbEntity
  8
Defpoints
 62
     0
100
AcDbPoint
 10
11411.27678800469
 20
2156.552667684682
 30
0.0
  0
ENDBLK
  5
435
330
433
100
AcDbEntity
  8
0
100
AcDbBlockEnd
  0
ENDSEC
  0
SECTION
  2
ENTITIES
  0
HATCH
  5
246
330
1F
100
AcDbEntity
  8
Ech.1_2
 62
   254
420
 15326711
440
 33554687
370
     5
100
AcDbHatch
 10
0.0
 20
0.0
 30
0.0
210
0.0
220
0.0
230
1.0
  2
SOLID
 70
     1
 71
     1
 91
        1
 92
        3
 72
     0
 73
     1
 93
        4
 10
11234.87555693672
 20
2182.944682531797
 10
11328.84481901529
 20
2217.146696864356
 10
11351.93117868978
 20
2153.717444961349
 10
11257.96191661121
 20
2119.515430628653
 97
        0
 75
     0
 76
     1
 98
        0
  0
LWPOLYLINE
  5
247
330
1F
100
AcDbEntity
  8
Ech.1_2
 62
   190
370
    15
100
AcDbPolyline
 90
        5
 70
     0
 43
0.0
 10
11234.87555693672
 20
2182.944682531797
 10
11328.84481901529
 20
2217.146696864356
 10
11351.93117868978
 20
2153.717444961349
 10
11257.96191661121
 20
2119.515430628653
 10
11234.87555693672
 20
2182.944682531797
  0
LWPOLYLINE
  5
248
330
1F
100
AcDbEntity
  8
Ech.1_2
 62
   190
370
    15
100
AcDbPolyline
 90
        4
 70
     0
 43
0.0
 10
11328.84481901529
 20
2217.146696864356
 10
11257.96191661121
 20
2119.515430628653
 10
11351.93117868978
 20
2153.717444961349
 10
11234.87555693672
 20
2182.944682531797
  0
LINE
  5
249
330
1F
100
AcDbEntity
  8
Ech.1_2
370
    20
100
AcDbLine
 10
11536.93117964104
 20
2293.075593886451
 30
0.0
 11
11620.18117964105
 21
2293.075593886451
 31
0.0
  0
HATCH
  5
24A
330
1F
100
AcDbEntity
  8
Ech.1_2
 62
   254
420
 15326711
440
 33554687
370
     5
100
AcDbHatch
 10
0.0
 20
0.0
 30
0.0
210
0.0
220
0.0
230
1.0
  2
SOLID
 70
     1
 71
     1
 91
        1
 92
        3
 72
     0
 73
     1
 93
       12
 10
11390.63234059567
 20
2437.243670150992
 10
11374.14598651416
 20
2419.265318546577
 10
11181.73326904019
 20
2419.265318546577
 10
11181.73326904019
 20
2283.515105094402
 10
11199.71162064462
 20
2267.028751012886
 10
11163.75592063281
 20
2281.138691030692
 10
11181.73326904019
 20
2264.653187874783
 10
11181.73326904019
 20
2163.794127154215
 10
11669.43120343413
 20
2341.301658586735
 10
11669.43120343413
 20
2419.265664997556
 10
11393.00790373377
 20
2419.265318546577
 10
11376.52240057786
 20
2401.287970139192
 97
        0
 75
     0
 76
     1
 98
        0
  0
LWPOLYLINE
  5
24B
330
1F
100
AcDbEntity
  8
Ech.1_2
 62
   190
370
    15
100
AcDbPolyline
 90
       13
 70
     0
 43
0.0
 10
11390.63234059567
 20
2437.243670150992
 10
11374.14598651416
 20
2419.265318546577
 10
11181.73326904019
 20
2419.265318546577
 10
11181.73326904019
 20
2283.515105094402
 10
11199.71162064462
 20
2267.028751012886
 10
11163.75592063281
 20
2281.138691030692
 10
11181.73326904019
 20
2264.653187874783
 10
11181.73326904019
 20
2163.794127154215
 10
11669.43120343413
 20
2341.301658586735
 10
11669.43120343413
 20
2419.265664997556
 10
11393.00790373377
 20
2419.265318546577
 10
11376.52240057786
 20
2401.287970139192
 10
11390.63234059567
 20
2437.243670150992
  0
HATCH
  5
24C
330
1F
100
AcDbEntity
  8
Ech.1_2
 62
   254
420
 15326711
440
 33554687
370
     5
100
AcDbHatch
 10
0.0
 20
0.0
 30
0.0
210
0.0
220
0.0
230
1.0
  2
SOLID
 70
     1
 71
     1
 91
        1
 92
        3
 72
     0
 73
     1
 93
        4
 10
11531.04682564817
 20
2219.097833546175
 10
11181.73379656787
 20
2091.961804937328
 10
11181.73379656787
 20
2065.357445164191
 10
11539.60111658807
 20
2195.606897351599
 97
        0
 75
     0
 76
     1
 98
        0
  0
LWPOLYLINE
  5
24D
330
1F
100
AcDbEntity
  8
Ech.1_2
 62
   190
370
    15
100
AcDbPolyline
 90
        5
 70
     0
 43
0.0
 10
11531.04682564817
 20
2219.097833546175
 10
11181.73379656787
 20
2091.961804937328
 10
11181.73379656787
 20
2065.357445164191
 10
11539.60111658807
 20
2195.606897351599
 10
11531.04682564817
 20
2219.097833546175
  0
HATCH
  5
24E
330
1F
100
AcDbEntity
  8
Ech.1_2
 62
   254
420
 15326711
440
 33554687
370
     5
100
AcDbHatch
 10
0.0
 20
0.0
 30
0.0
210
0.0
220
0.0
230
1.0
  2
SOLID
 70
     1
 71
     1
 91
        1
 92
        3
 72
     0
 73
     1
 93
        5
 10
11544.43117980264
 20
2254.69008860483
 10
11544.43156154834
 20
2180.575593886442
 10
11669.43120343413
 20
2180.575593886442
 10
11669.43120343413
 20
2293.075593886451
 10
11544.43156154834
 20
2293.075593886451
 97
        0
 75
     0
 76
     1
 98
        0
  0
LWPOLYLINE
  5
24F
330
1F
100
AcDbEntity
  8
Ech.1_2
 62
   190
370
    15
100
AcDbPolyline
 90
        6
 70
     0
 43
0.0
 10
11544.43117980264
 20
2254.69008860483
 10
11544.43156154834
 20
2180.575593886442
 10
11669.43120343413
 20
2180.575593886442
 10
11669.43120343413
 20
2293.075593886451
 10
11544.43156154834
 20
2293.075593886451
 10
11544.43117980264
 20
2254.69008860483
  0
LWPOLYLINE
  5
250
330
1F
100
AcDbEntity
  8
Ech.1_2
 62
   254
420
 15656413
370
    20
100
AcDbPolyline
 90
        4
 70
     0
 43
0.0
 10
11451.93052681861
 20
1699.047666552997
 10
11451.93052681861
 20
2114.912031934755
 10
11544.43052681861
 20
2114.912031934755
 10
11544.43156154834
 20
1699.047857698915
  0
LINE
  5
251
330
1F
100
AcDbEntity
  8
Ech.1_2
 62
   190
370
    15
100
AcDbLine
 10
11544.43156154834
 20
2293.075593886451
 30
0.0
 11
11669.43120343413
 21
2261.824969365325
 31
0.0
  0
LINE
  5
252
330
1F
100
AcDbEntity
  8
Ech.1_2
 62
   190
370
    15
100
AcDbLine
 10
11669.43120343413
 20
2211.826218407559
 30
0.0
 11
11544.43156154838
 21
2180.575593886442
 31
0.0
  0
LWPOLYLINE
  5
253
330
1F
100
AcDbEntity
  8
Ech.1_2
370
    20
100
AcDbPolyline
 90
        4
 70
     0
 43
0.0
 10
11181.73379656787
 20
2065.357445164191
 10
11539.60111658807
 20
2195.606897351599
 10
11531.04682564817
 20
2219.097833546175
 10
11181.73379656787
 20
2091.961804937328
  0
LWPOLYLINE
  5
254
330
1F
100
AcDbEntity
  8
Ech.1_2
370
    20
100
AcDbPolyline
 90
        3
 70
     0
 43
0.0
 10
11669.43120343413
 20
2293.075593886451
 10
11536.93117964104
 20
2293.075593886451
 10
11669.43120343413
 20
2341.301658586699
  0
HATCH
  5
255
330
1F
100
AcDbEntity
  8
Ech.1_2
 62
    35
420
  9529928
440
 33554687
370
    20
100
AcDbHatch
 10
0.0
 20
0.0
 30
0.0
210
0.0
220
0.0
230
1.0
  2
SOLID
 70
     1
 71
     1
 91
        1
 92
        3
 72
     0
 73
     1
 93
        5
 10
11451.93034758131
 20
1699.047666552997
 10
11544.43263871084
 20
1699.047857698915
 10
11544.43052681861
 20
2114.912031934755
 10
11529.43542477128
 20
2114.912031934755
 10
11451.93052681861
 20
2114.912031934755
 97
        0
 75
     0
 76
     1
 98
        0
  0
LWPOLYLINE
  5
256
330
1F
100
AcDbEntity
  8
Ech.1_2
 62
   190
370
    15
100
AcDbPolyline
 90
        6
 70
     0
 43
0.0
 10
11451.93034758131
 20
1699.047666552997
 10
11544.43263871084
 20
1699.047857698915
 10
11544.43052681861
 20
2114.912031934755
 10
11529.43542477128
 20
2114.912031934755
 10
11451.93052681861
 20
2114.912031934755
 10
11451.93034758131
 20
1699.047666552997
  0
HATCH
  5
257
330
1F
100
AcDbEntity
  8
Ech.1_2
 62
   190
440
 33554687
370
    15
100
AcDbHatch
 10
0.0
 20
0.0
 30
0.0
210
0.0
220
0.0
230
1.0
  2
CwHatchPattern_20
 70
     0
 71
     1
 91
        1
 92
        3
 72
     0
 73
     1
 93
        4
 10
11531.04682564817
 20
2219.097833546175
 10
11181.73379656787
 20
2091.961804937328
 10
11181.73379656787
 20
2065.357445164191
 10
11539.60111658807
 20
2195.606897351599
 97
        0
 75
     0
 76
     2
 52
0.0
 41
1.5
 77
     0
 78
     2
 53
45.00000000000297
 43
0.0
 44
0.0
 45
-10.60660171779876
 46
10.60660171779766
 79
     0
 53
135.0000000000089
 43
0.0
 44
0.0
 45
-10.60660171779656
 46
-10.60660171779986
 79
     0
 98
        0
1001
ACAD
1010
0.0
1020
0.0
1030
0.0
  0
LWPOLYLINE
  5
258
330
1F
100
AcDbEntity
  8
Ech.1_2
 62
     7
370
    20
100
AcDbPolyline
 90
        5
 70
     0
 43
0.0
 10
11531.04682564817
 20
2219.097833546175
 10
11181.73379656787
 20
2091.961804937328
 10
11181.73379656787
 20
2065.357445164191
 10
11539.60111658807
 20
2195.606897351599
 10
11531.04682564817
 20
2219.097833546175
  0
LINE
  5
259
330
1F
100
AcDbEntity
  8
Ech.1_2
 62
     7
370
    20
100
AcDbLine
 10
11610.26192434013
 20
2319.765802213524
 30
0.0
 11
11181.73326904019
 21
2163.794127154215
 31
0.0
  0
HATCH
  5
25A
330
1F
100
AcDbEntity
  8
Ech.1_2
 62
   254
420
 15326711
440
 33554687
370
     5
100
AcDbHatch
 10
0.0
 20
0.0
 30
0.0
210
0.0
220
0.0
230
1.0
  2
SOLID
 70
     1
 71
     1
 91
        1
 92
        3
 72
     0
 73
     1
 93
        4
 10
11610.26192434013
 20
2419.265318546577
 10
11610.26192434013
 20
2293.075593886451
 10
11669.43120343413
 20
2293.075593886451
 10
11669.43120343413
 20
2419.265318546577
 97
        0
 75
     0
 76
     1
 98
        0
  0
LWPOLYLINE
  5
25B
330
1F
100
AcDbEntity
  8
Ech.1_2
 62
   190
370
    15
100
AcDbPolyline
 90
        5
 70
     0
 43
0.0
 10
11610.26192434013
 20
2419.265318546577
 10
11610.26192434013
 20
2293.075593886451
 10
11669.43120343413
 20
2293.075593886451
 10
11669.43120343413
 20
2419.265318546577
 10
11610.26192434013
 20
2419.265318546577
  0
LWPOLYLINE
  5
25C
330
1F
100
AcDbEntity
  8
Ech.1_2
 62
   190
370
    15
100
AcDbPolyline
 90
        3
 70
     0
 43
0.0
 10
11610.26192434013
 20
2293.075593886451
 10
11666.51192434013
 20
2405.575593886451
 10
11669.43120343413
 20
2399.737035698445
  0
LWPOLYLINE
  5
25D
330
1F
100
AcDbEntity
  8
Ech.1_2
 62
   190
370
    15
100
AcDbPolyline
 90
        3
 70
     0
 43
0.0
 10
11659.66706201007
 20
2419.265318546577
 10
11666.51192434013
 20
2405.575593886451
 10
11669.43120343413
 20
2411.41415207444
  0
LWPOLYLINE
  5
25E
330
1F
100
AcDbEntity
  8
Ech.1_2
 62
   190
370
    15
100
AcDbPolyline
 90
      266
 70
     0
 43
0.0
 10
11510.58829585659
 20
1935.711894233009
 10
11510.09496784348
 20
1943.682966959893
 10
11509.61860535026
 20
1951.650727864825
 10
11509.39208789857
 20
1955.632331439697
 10
11509.1761738968
 20
1959.611865125849
 10
11508.97298403495
 20
1963.588914945536
 10
11508.784639003
 20
1967.563066921014
 10
11508.61325949093
 20
1971.533907074538
 10
11508.46096618873
 20
1975.501021428365
 10
11508.32987978639
 20
1979.46399600475
 10
11508.22212097388
 20
1983.422416825949
 10
11508.13981044121
 20
1987.375869914219
 10
11508.08506887834
 20
1991.323941291814
 10
11508.06001697527
 20
1995.266216980991
 10
11508.06677542199
 20
1999.202283004005
 10
11508.10746490847
 20
2003.131725383113
 10
11508.1842061247
 20
2007.054130140569
 10
11508.29905669803
 20
2010.969108543303
 10
11508.45159625511
 20
2014.877263829265
 10
11508.63817003178
 20
2018.780493998733
 10
11508.85490555001
 20
2022.68078420525
 10
11509.0979303318
 20
2026.580119602359
 10
11509.36337189911
 20
2030.480485343602
 10
11509.64735777394
 20
2034.383866582524
 10
11509.94601547825
 20
2038.292248472665
 10
11510.25547253403
 20
2042.20761616757
 10
11510.57185646325
 20
2046.131954820781
 10
11510.8912947879
 20
2050.067249585841
 10
11511.20991502995
 20
2054.015485616293
 10
11511.5238447114
 20
2057.97864806568
 10
11511.8292113542
 20
2061.958722087545
 10
11512.12214248034
 20
2065.957692835429
 10
11512.39876561181
 20
2069.977545462878
 10
11512.65520827058
 20
2074.020265123433
 10
11512.88759797863
 20
2078.087836970637
 10
11512.99356282675
 20
2080.131562824714
 10
11513.09206222138
 20
2082.182246132712
 10
11513.18195781336
 20
2084.239681818544
 10
11513.25978791842
 20
2086.302055453199
 10
11513.32157536159
 20
2088.367195531963
 10
11513.36334296789
 20
2090.432930550124
 10
11513.38111356233
 20
2092.497089002964
 10
11513.37090996991
 20
2094.55749938577
 10
11513.32875501568
 20
2096.611990193829
 10
11513.25067152463
 20
2098.658389922425
 10
11513.19691371062
 20
2099.6778770367
 10
11513.13268232178
 20
2100.694527066843
 10
11513.05748021125
 20
2101.708068574762
 10
11512.97081023215
 20
2102.71823012237
 10
11512.87217523762
 20
2103.724740271575
 10
11512.76107808076
 20
2104.72732758429
 10
11512.63702161473
 20
2105.725720622425
 10
11512.49950869263
 20
2106.719647947891
 10
11512.3480421676
 20
2107.708838122597
 10
11512.18212489277
 20
2108.693019708456
 10
11512.00125972125
 20
2109.671921267377
 10
11511.80494950619
 20
2110.645271361273
 10
11511.5926971007
 20
2111.612798552051
 10
11511.36400535791
 20
2112.574231401624
 10
11511.11837713095
 20
2113.529298471903
 10
11510.85531527295
 20
2114.477728324799
 10
11510.57432263703
 20
2115.41924952222
 10
11510.27490207633
 20
2116.35359062608
 10
11509.95655644396
 20
2117.280480198287
 10
11509.61878859306
 20
2118.199646800755
 10
11509.26110137675
 20
2119.110818995391
 10
11508.88299764815
 20
2120.013725344107
 10
11508.48398026041
 20
2120.908094408815
 10
11508.06355206663
 20
2121.793654751424
 10
11507.62121591996
 20
2122.670134933846
 10
11507.15647467351
 20
2123.537263517991
 10
11506.66883118042
 20
2124.394769065769
 10
11506.15778829381
 20
2125.242380139092
 10
11505.62295547223
 20
2126.079818049222
 10
11505.06465470602
 20
2126.906755645374
 10
11504.48350007223
 20
2127.722845910812
 10
11503.88010653265
 20
2128.527741768627
 10
11503.25508904906
 20
2129.321096141909
 10
11502.60906258328
 20
2130.102561953748
 10
11501.94264209708
 20
2130.871792127234
 10
11501.25644255228
 20
2131.628439585455
 10
11500.55107891066
 20
2132.372157251506
 10
11499.82716613401
 20
2133.102598048472
 10
11499.08531918414
 20
2133.819414899446
 10
11498.32615302284
 20
2134.522260727516
 10
11497.5502826119
 20
2135.210788455774
 10
11496.75832291313
 20
2135.884651007308
 10
11495.9508888883
 20
2136.543501305208
 10
11495.12859549923
 20
2137.186992272566
 10
11494.2920577077
 20
2137.814776832471
 10
11493.44189047551
 20
2138.426507908013
 10
11492.57870876447
 20
2139.021838422281
 10
11491.70312753635
 20
2139.600421298366
 10
11490.81576175295
 20
2140.161909459359
 10
11489.91722637608
 20
2140.705955828347
 10
11489.00813636753
 20
2141.232213328423
 10
11488.08910668908
 20
2141.740334882676
 10
11487.16075230255
 20
2142.229973414195
 10
11486.22368816972
 20
2142.700781846072
 10
11485.27852925238
 20
2143.152413101395
 10
11484.32589051234
 20
2143.584520103254
 10
11483.36638691139
 20
2143.996755774741
 10
11482.40063341132
 20
2144.388773038945
 10
11481.42924497394
 20
2144.760224818956
 10
11480.45283656102
 20
2145.110764037863
 10
11479.47202313438
 20
2145.440043618757
 10
11478.4874196558
 20
2145.747716484727
 10
11477.49964108708
 20
2146.033435558865
 10
11476.50930239002
 20
2146.29685376426
 10
11475.5170185264
 20
2146.537624024
 10
11474.52340445804
 20
2146.755399261178
 10
11473.52907514671
 20
2146.949832398883
 10
11472.53464555422
 20
2147.120576360204
 10
11471.54073064237
 20
2147.267284068232
 10
11470.54794537294
 20
2147.389608446058
 10
11469.55690470773
 20
2147.487202416769
 10
11468.56822360854
 20
2147.559718903457
 10
11467.58251703717
 20
2147.606810829212
 10
11466.60029725337
 20
2147.628293565894
 10
11465.62148747535
 20
2147.624914200873
 10
11464.64580130088
 20
2147.59775138826
 10
11463.67295207359
 20
2147.547884184217
 10
11462.70265313707
 20
2147.476391644903
 10
11461.73461783493
 20
2147.384352826477
 10
11460.76855951079
 20
2147.2728467851
 10
11459.80419150823
 20
2147.142952576931
 10
11458.84122717088
 20
2146.995749258132
 10
11457.87937984234
 20
2146.83231588486
 10
11456.91836286622
 20
2146.653731513277
 10
11455.95788958611
 20
2146.461075199542
 10
11454.99767334564
 20
2146.255425999815
 10
11454.0374274884
 20
2146.037862970257
 10
11453.076865358
 20
2145.809465167026
 10
11451.15364565216
 20
2145.324481464188
 10
11449.22572097697
 20
2144.809107340581
 10
11447.29079808128
 20
2144.271975245485
 10
11445.34658371395
 20
2143.721717628177
 10
11443.39078462383
 20
2143.166966937938
 10
11441.42110755977
 20
2142.616355624048
 10
11439.43525927063
 20
2142.078516135785
 10
11437.43102962516
 20
2141.561917669185
 10
11435.40959068109
 20
2141.068386566873
 10
11433.37659742856
 20
2140.590944381668
 10
11429.29980300545
 20
2139.653987256542
 10
11427.26792933853
 20
2139.179302563606
 10
11425.24835637047
 20
2138.690367281743
 10
11423.24704785309
 20
2138.179596534447
 10
11422.25510643586
 20
2137.913652587352
 10
11421.26996753824
 20
2137.639405445208
 10
11420.2923766292
 20
2137.35590699845
 10
11419.32307917773
 20
2137.062209137517
 10
11418.3628206528
 20
2136.757363752844
 10
11417.4123465234
 20
2136.440422734869
 10
11416.47240225849
 20
2136.110437974025
 10
11415.54373332706
 20
2135.766461360753
 10
11414.6270851981
 20
2135.407544785486
 10
11413.72320334056
 20
2135.032740138662
 10
11412.83283322345
 20
2134.641099310717
 10
11411.95672031573
 20
2134.231674192089
 10
11411.09561008638
 20
2133.803516673212
 10
11410.25024800438
 20
2133.355678644524
 10
11409.42137953872
 20
2132.887211996461
 10
11408.60975015836
 20
2132.39716861946
 10
11407.81610533228
 20
2131.884600403956
 10
11407.04119052948
 20
2131.348559240389
 10
11406.28575121892
 20
2130.788097019192
 10
11405.55053286958
 20
2130.202265630802
 10
11404.83628095044
 20
2129.590116965656
 10
11404.14372865208
 20
2128.950724249446
 10
11403.47312732014
 20
2128.283997973358
 10
11402.82409973798
 20
2127.590940833712
 10
11402.19622641565
 20
2126.87262898202
 10
11401.58908786315
 20
2126.130138569793
 10
11401.00226459053
 20
2125.364545748543
 10
11400.4353371078
 20
2124.576926669779
 10
11399.88788592499
 20
2123.768357485015
 10
11399.35949155212
 20
2122.939914345762
 10
11398.84973449924
 20
2122.092673403529
 10
11398.35819527635
 20
2121.22771080983
 10
11397.88445439348
 20
2120.346102716174
 10
11397.42809236067
 20
2119.448925274072
 10
11396.98868968794
 20
2118.537254635038
 10
11396.56582688531
 20
2117.612166950582
 10
11396.15908446282
 20
2116.674738372215
 10
11395.76804293048
 20
2115.726045051448
 10
11395.39228279833
 20
2114.767163139792
 10
11395.03138457638
 20
2113.799168788759
 10
11394.68492877468
 20
2112.823138149861
 10
11394.35249590323
 20
2111.840147374608
 10
11394.03366647208
 20
2110.851272614511
 10
11393.72802099124
 20
2109.857590021083
 10
11393.43513997074
 20
2108.860175745834
 10
11393.15460392061
 20
2107.860105940274
 10
11392.88599335087
 20
2106.858456755917
 10
11392.62888877156
 20
2105.856304344273
 10
11392.38289046736
 20
2104.854582816928
 10
11392.14769863409
 20
2103.853508631543
 10
11391.92304494904
 20
2102.853072117135
 10
11391.70866110118
 20
2101.853263518173
 10
11391.30962967321
 20
2099.855491044468
 10
11390.94845786235
 20
2097.860113166186
 10
11390.62299918076
 20
2095.867051839086
 10
11390.33110714063
 20
2093.876229018927
 10
11390.07063525412
 20
2091.887566661467
 10
11389.8394370334
 20
2089.900986722465
 10
11389.63536599064
 20
2087.916411157679
 10
11389.456275638
 20
2085.933761922869
 10
11389.30001948767
 20
2083.952960973792
 10
11389.16445105181
 20
2081.973930266208
 10
11389.04742384259
 20
2079.996591755876
 10
11388.94679137217
 20
2078.020867398553
 10
11388.86040715274
 20
2076.046679149998
 10
11388.78612469645
 20
2074.07394896597
 10
11388.72179751549
 20
2072.102598802229
 10
11388.61442302819
 20
2068.163726358638
 10
11388.42469189289
 20
2060.299107768265
 10
11388.3079914396
 20
2056.372112913623
 10
11388.23666978414
 20
2054.409670941593
 10
11388.1538385257
 20
2052.447828547434
 10
11388.05735117645
 20
2050.486507686908
 10
11387.94506124855
 20
2048.52563031577
 10
11387.81482225418
 20
2046.565118389781
 10
11387.66448770551
 20
2044.604893864699
 10
11387.49193614933
 20
2042.644881153814
 10
11387.29613257607
 20
2040.685111321478
 10
11387.07752254002
 20
2038.725760772032
 10
11386.83665782894
 20
2036.767016338259
 10
11386.57409023055
 20
2034.809064852938
 10
11386.29037153262
 20
2032.852093148852
 10
11385.98605352289
 20
2030.89628805878
 10
11385.6616879891
 20
2028.941836415503
 10
11385.317826719
 20
2026.988925051803
 10
11384.95502150033
 20
2025.03774080046
 10
11384.57382412085
 20
2023.088470494256
 10
11384.1747863683
 20
2021.14130096597
 10
11383.75846003041
 20
2019.196419048385
 10
11383.32539689495
 20
2017.25401157428
 10
11382.87614874965
 20
2015.314265376437
 10
11382.41126738227
 20
2013.377367287636
 10
11381.93130458054
 20
2011.443504140659
 10
11381.43681213221
 20
2009.512862768287
 10
11380.92834182503
 20
2007.585630003299
 10
11380.40644544675
 20
2005.661992678479
 10
11379.87167478511
 20
2003.742137626604
 10
11379.32458162786
 20
2001.826251680458
 10
11378.76571776274
 20
1999.914521672821
 10
11378.195631914
 20
1998.007130687364
 10
11377.61476517073
 20
1996.104130083611
 10
11377.02342508964
 20
1994.205407803943
 10
11376.42191090898
 20
1992.310841610528
 10
11375.81052186696
 20
1990.420309265536
 10
11375.18955720179
 20
1988.533688531136
 10
11374.55931615172
 20
1986.650857169496
 10
11373.27220184972
 20
1982.896073613176
 10
11371.95157286674
 20
1979.154980693927
 10
11370.59982310856
 20
1975.426600509101
 10
11369.21934648098
 20
1971.70995515605
 10
11367.81253688977
 20
1968.004066732127
 10
11366.38178824072
 20
1964.307957334683
 10
11364.9294944396
 20
1960.62064906107
 10
11363.45804939222
 20
1956.941164008641
 10
11361.96984700435
 20
1953.268524274748
 10
11360.46728118177
 20
1949.601751956742
 10
11358.95274583027
 20
1945.939869151976
 10
11355.89734216364
 20
1938.626860471571
 10
11352.82278725074
 20
1931.32167501235
  0
LWPOLYLINE
  5
25F
330
1F
100
AcDbEntity
  8
Ech.1_2
 62
     5
370
    40
100
AcDbPolyline
 90
        4
 70
     0
 43
0.0
 10
11669.43120343413
 20
2293.075593886451
 10
11544.43156154834
 20
2293.075593886451
 10
11544.43156154834
 20
2180.575593886442
 10
11669.43120343413
 20
2180.575593886442
  0
LWPOLYLINE
  5
260
330
1F
100
AcDbEntity
  8
Ech.1_2
 62
     5
370
    40
100
AcDbPolyline
 90
        3
 70
     0
 43
0.0
 10
11610.26192434013
 20
2419.265318546577
 10
11610.26192434013
 20
2293.075593886451
 10
11662.81898315582
 20
2293.075593886451
  0
LINE
  5
261
330
1F
100
AcDbEntity
  8
Ech.1_2
 62
     5
370
    40
100
AcDbLine
 10
11610.26192434013
 20
2293.075593886451
 30
0.0
 11
11669.43120343413
 21
2293.075593886451
 31
0.0
  0
LWPOLYLINE
  5
262
330
1F
100
AcDbEntity
  8
Ech.1_2
 62
     5
370
    40
100
AcDbPolyline
 90
        5
 70
     0
 43
0.0
 10
11234.87555693672
 20
2182.944682531797
 10
11328.84481901529
 20
2217.146696864356
 10
11351.93117868978
 20
2153.717444961349
 10
11257.96191661121
 20
2119.515430628653
 10
11234.87555693672
 20
2182.944682531797
  0
LWPOLYLINE
  5
263
330
1F
100
AcDbEntity
  8
Ech.1_2
 62
   173
420
  6710988
370
    70
100
AcDbPolyline
 90
        6
 70
     0
 43
0.0
 10
11544.43052827201
 20
2122.330561850677
 10
11544.43148794796
 20
2194.864830890428
 10
11515.47738761277
 20
2184.326816650409
 10
11544.43148794796
 20
2194.864830890428
 10
11544.43112065415
 20
2226.469186163367
 10
11515.47738761277
 20
2215.931175519863
  0
LWPOLYLINE
  5
264
330
1F
100
AcDbEntity
  8
Ech.1_2
 62
   190
370
    15
100
AcDbPolyline
 90
        6
 70
     0
 43
0.0
 10
11669.43156154834
 20
1661.54787489033
 10
11669.43099962841
 20
2059.029058996712
 10
11651.45365122103
 20
2075.514562152621
 10
11687.40935123284
 20
2061.404622134814
 10
11669.43099962841
 20
2077.890976216331
 10
11669.43156154834
 20
2456.765318546577
  0
LWPOLYLINE
  5
265
330
1F
100
AcDbEntity
  8
Ech.1_2
 62
   190
370
    15
100
AcDbPolyline
 90
        6
 70
     0
 43
0.0
 10
11706.93156154834
 20
2419.265711998059
 10
11393.00790373377
 20
2419.265318546577
 10
11376.52240057786
 20
2401.287970139192
 10
11390.63234059567
 20
2437.243670150992
 10
11374.14598651416
 20
2419.265318546577
 10
11144.23326904019
 20
2419.265595070674
  0
LWPOLYLINE
  5
266
330
1F
100
AcDbEntity
  8
Ech.1_2
 62
   190
370
    15
100
AcDbPolyline
 90
        6
 70
     0
 43
0.0
 10
11181.73365558689
 20
2027.857445164191
 10
11181.73326904019
 20
2264.653187874783
 10
11163.75592063281
 20
2281.138691030692
 10
11199.71162064462
 20
2267.028751012886
 10
11181.73326904019
 20
2283.515105094402
 10
11181.73379656787
 20
2456.765318546577
  0
HATCH
  5
267
330
1F
100
AcDbEntity
  8
Ech.1_2
 62
   254
420
 15326711
440
 33554687
370
     5
100
AcDbHatch
 10
0.0
 20
0.0
 30
0.0
210
0.0
220
0.0
230
1.0
  2
SOLID
 70
     1
 71
     1
 91
        1
 92
        3
 72
     0
 73
     1
 93
       12
 10
11569.54347876758
 20
1699.048609585898
 10
11669.43156154834
 20
1699.048609585898
 10
11669.43156154834
 20
2059.029058996712
 10
11651.45365122103
 20
2075.514562152621
 10
11687.40935123284
 20
2061.404622134814
 10
11669.43099962841
 20
2077.890976216331
 10
11669.43120343413
 20
2180.575593886442
 10
11544.43156154834
 20
2180.575593886442
 10
11544.43156154834
 20
1699.047857698915
 10
11550.68156154798
 20
1699.048609585898
 10
11567.16706470388
 20
1717.025957993283
 10
11553.05712468607
 20
1681.070257981464
 97
        0
 75
     0
 76
     1
 98
        0
  0
LWPOLYLINE
  5
268
330
1F
100
AcDbEntity
  8
Ech.1_2
 62
   190
370
    15
100
AcDbPolyline
 90
       13
 70
     0
 43
0.0
 10
11569.54347876758
 20
1699.048609585898
 10
11669.43156154834
 20
1699.048609585898
 10
11669.43156154834
 20
2059.029058996712
 10
11651.45365122103
 20
2075.514562152621
 10
11687.40935123284
 20
2061.404622134814
 10
11669.43099962841
 20
2077.890976216331
 10
11669.43120343413
 20
2180.575593886442
 10
11544.43156154834
 20
2180.575593886442
 10
11544.43156154834
 20
1699.047857698915
 10
11550.68156154798
 20
1699.048609585898
 10
11567.16706470388
 20
1717.025957993283
 10
11553.05712468607
 20
1681.070257981464
 10
11569.54347876758
 20
1699.048609585898
  0
LWPOLYLINE
  5
269
330
1F
100
AcDbEntity
  8
Ech.1_2
 62
   190
370
    15
100
AcDbPolyline
 90
        5
 70
     0
 43
0.0
 10
11975.75085774395
 20
2749.601785601053
 10
10990.75085774395
 20
2749.601785601053
 10
10990.75085774395
 20
1394.601785601026
 10
11975.75085774395
 20
1394.601785601026
 10
11975.75085774395
 20
2749.601785601053
  0
LWPOLYLINE
  5
26A
330
1F
100
AcDbEntity
  8
Ech.1_2
 62
     8
370
    90
100
AcDbPolyline
 90
        3
 70
     0
 43
0.0
 10
11451.93052681861
 20
2114.912031934755
 10
11544.43052681861
 20
2114.912031934755
 10
11544.43052681861
 20
1999.897392889152
  0
LWPOLYLINE
  5
26B
330
1F
100
AcDbEntity
  8
Ech.1_2
 62
   190
370
    15
100
AcDbPolyline
 90
        3
 70
     0
 43
0.0
 10
11522.57817667684
 20
2114.912031934755
 10
11721.4202887481
 20
2114.912031934755
 10
11729.42028874811
 20
2114.912031934755
  0
INSERT
  5
26C
330
1F
100
AcDbEntity
  8
Ech.1_2
 62
   190
370
    15
100
AcDbBlockReference
  2
cw-line-extremity4
 10
11522.57817667684
 20
2114.912031934755
 30
0.0
  0
LWPOLYLINE
  5
26D
330
1F
100
AcDbEntity
  8
Ech.1_2
 62
   190
370
    15
100
AcDbPolyline
 90
        3
 70
     0
 43
0.0
 10
11323.45227270299
 20
2134.996398405328
 10
11323.45227270299
 20
2010.680388958608
 10
11310.45227270299
 20
2010.680388958608
  0
INSERT
  5
26E
330
1F
100
AcDbEntity
  8
Ech.1_2
 62
   190
370
    15
100
AcDbBlockReference
  2
cw-line-extremity4
 10
11323.45227270299
 20
2134.996398405328
 30
0.0
 50
270.0
  0
LWPOLYLINE
  5
26F
330
1F
100
AcDbEntity
  8
Ech.1_2
 62
   190
370
    15
100
AcDbPolyline
 90
        5
 70
     0
 43
0.0
 10
10990.75085774395
 20
1532.014857666072
 10
11975.75085774395
 20
1532.014857666072
 10
11975.75085774395
 20
1394.601785601026
 10
10990.75085774395
 20
1394.601785601026
 10
10990.75085774395
 20
1532.014857666072
  0
LWPOLYLINE
  5
270
330
1F
100
AcDbEntity
  8
Ech.1_2
 62
   190
370
    15
100
AcDbPolyline
 90
        5
 70
     0
 43
0.0
 10
11975.75085774395
 20
2654.08482259526
 10
10990.75085774395
 20
2654.08482259526
 10
10990.75085774395
 20
2749.601785600908
 10
11975.75085774395
 20
2749.601785600908
 10
11975.75085774395
 20
2654.08482259526
  0
LWPOLYLINE
  5
271
330
1F
100
AcDbEntity
  8
Ech.1_2
 62
   190
370
    15
100
AcDbPolyline
 90
        5
 70
     0
 43
0.0
 10
11975.75085774395
 20
1510.014857666083
 10
10990.75085774395
 20
1510.014857666083
 10
10990.75085774395
 20
1532.014857666072
 10
11975.75085774395
 20
1532.014857666072
 10
11975.75085774395
 20
1510.014857666083
  0
LWPOLYLINE
  5
272
330
1F
100
AcDbEntity
  8
Ech.1_2
 62
   190
370
    15
100
AcDbPolyline
 90
        5
 70
     0
 43
0.0
 10
11975.75085774395
 20
1453.14371243574
 10
10990.75085774395
 20
1453.14371243574
 10
10990.75085774395
 20
1476.870740746472
 10
11975.75085774395
 20
1476.870740746472
 10
11975.75085774395
 20
1453.14371243574
  0
LINE
  5
273
330
1F
100
AcDbEntity
  8
Ech.1_2
 62
   190
370
    15
100
AcDbLine
 10
11178.9554197069
 20
1532.014857666072
 30
0.0
 11
11178.9554197069
 21
1510.014857666083
 31
0.0
  0
LINE
  5
274
330
1F
100
AcDbEntity
  8
Ech.1_2
 62
   190
370
    15
100
AcDbLine
 10
11835.95352233745
 20
1532.014857666072
 30
0.0
 11
11835.95352233745
 21
1510.014857666083
 31
0.0
  0
LINE
  5
275
330
1F
100
AcDbEntity
  8
Ech.1_2
 62
   190
370
    15
100
AcDbLine
 10
11335.11063770226
 20
1532.014857666072
 30
0.0
 11
11335.11063770226
 21
1510.014857666083
 31
0.0
  0
IMAGE
  5
278
330
1F
100
AcDbEntity
  8
Ech.1_2
160
                 8
310
0800000000000000
100
AcDbRasterImage
 90
        0
 10
11181.81510648483
 20
1399.637333082064
 30
0.0
 11
0.2834008097165992
 21
0.0
 31
0.0
 12
0.0
 22
0.2807017543859649
 32
0.0
 13
247.0
 23
171.0
340
277
 70
     3
280
     0
281
    50
282
    50
283
     0
360
279
 71
     1
 91
        2
 14
-0.5
 24
-0.5
 14
246.5
 24
170.5
290
     0
  0
IMAGE
  5
27B
330
1F
100
AcDbEntity
  8
Ech.1_2
160
                 8
310
0800000000000000
100
AcDbRasterImage
 90
        0
 10
11442.89277772681
 20
1397.08272077829
 30
0.0
 11
0.4
 21
0.0
 31
0.0
 12
0.0
 22
0.3984962406015037
 32
0.0
 13
200.0
 23
133.0
340
27A
 70
     3
280
     0
281
    50
282
    50
283
     0
360
27C
 71
     1
 91
        2
 14
-0.5
 24
-0.5
 14
199.5
 24
132.5
290
     0
  0
IMAGE
  5
27E
330
1F
100
AcDbEntity
  8
Ech.1_2
160
                 8
310
0800000000000000
100
AcDbRasterImage
 90
        0
 10
11686.26744410595
 20
1395.87774286334
 30
0.0
 11
0.09502262443438914
 21
0.0
 31
0.0
 12
0.0
 22
0.09482758620689655
 32
0.0
 13
1326.0
 23
580.0
340
27D
 70
     3
280
     0
281
    50
282
    50
283
     0
360
27F
 71
     1
 91
        2
 14
-0.5
 24
-0.5
 14
1325.5
 24
579.5
290
     0
  0
LWPOLYLINE
  5
280
330
1F
100
AcDbEntity
  8
Ech.1_2
 62
   190
370
    15
100
AcDbPolyline
 90
        5
 70
     0
 43
0.0
 10
11975.75085774395
 20
1394.601785601026
 10
11975.75085774395
 20
2749.601785601035
 10
10990.75085774395
 20
2749.601785601035
 10
10990.75085774395
 20
1394.601785601026
 10
11975.75085774395
 20
1394.601785601026
  0
LINE
  5
281
330
1F
100
AcDbEntity
  8
Ech.1_2
 62
   190
370
    15
100
AcDbLine
 10
11975.75085774395
 20
2719.601785600908
 30
0.0
 11
10990.75085774395
 21
2719.601785600908
 31
0.0
  0
LWPOLYLINE
  5
282
330
1F
100
AcDbEntity
  8
Ech.1_2
 62
   190
370
    15
100
AcDbPolyline
 90
        4
 70
     0
 43
0.0
 10
11441.88015309658
 20
1699.04744512829
 10
11451.93052681934
 20
1774.425248050266
 10
11407.32527128861
 20
1780.372615454262
 10
11396.48191524533
 20
1699.04744512829
  0
HATCH
  5
283
330
1F
100
AcDbEntity
  8
Ech.1_2
 62
    17
420
  8405056
440
 33554687
370
    20
100
AcDbHatch
 10
0.0
 20
0.0
 30
0.0
210
0.0
220
0.0
230
1.0
  2
SOLID
 70
     1
 71
     1
 91
        1
 92
        3
 72
     0
 73
     1
 93
        4
 10
11407.32527128861
 20
1780.372615454262
 10
11396.48191524533
 20
1699.04744512829
 10
11441.88015309658
 20
1699.04744512829
 10
11451.93052681934
 20
1774.425248050266
 97
        0
 75
     0
 76
     1
 98
        0
  0
LWPOLYLINE
  5
284
330
1F
100
AcDbEntity
  8
Ech.1_2
 62
     7
370
    50
100
AcDbPolyline
 90
        5
 70
     0
 43
0.0
 10
11407.32527128861
 20
1780.372615454262
 10
11396.48191524533
 20
1699.04744512829
 10
11441.88015309658
 20
1699.04744512829
 10
11451.93052681934
 20
1774.425248050266
 10
11407.32527128861
 20
1780.372615454262
  0
LWPOLYLINE
  5
285
330
1F
100
AcDbEntity
  8
Ech.1_2
 62
   190
370
    15
100
AcDbPolyline
 90
        5
 70
     0
 43
0.0
 10
11402.36913178528
 20
1743.201569178655
 10
11451.93052681861
 20
2114.912031934755
 10
11407.32527128787
 20
2120.85939933876
 10
11357.76387625455
 20
1749.148936582651
 10
11402.36913178528
 20
1743.201569178655
  0
HATCH
  5
286
330
1F
100
AcDbEntity
  8
Ech.1_2
 62
    17
420
  8405056
440
 33554687
370
    20
100
AcDbHatch
 10
0.0
 20
0.0
 30
0.0
210
0.0
220
0.0
230
1.0
  2
SOLID
 70
     1
 71
     1
 91
        1
 92
        3
 72
     0
 73
     1
 93
        4
 10
11407.32527128787
 20
2120.85939933876
 10
11357.76387625455
 20
1749.148936582651
 10
11402.36913178528
 20
1743.201569178655
 10
11451.93052681861
 20
2114.912031934755
 97
        0
 75
     0
 76
     1
 98
        0
  0
LWPOLYLINE
  5
287
330
1F
100
AcDbEntity
  8
Ech.1_2
 62
     7
370
    50
100
AcDbPolyline
 90
        5
 70
     0
 43
0.0
 10
11407.32527128787
 20
2120.85939933876
 10
11357.76387625455
 20
1749.148936582651
 10
11402.36913178528
 20
1743.201569178655
 10
11451.93052681861
 20
2114.912031934755
 10
11407.32527128787
 20
2120.85939933876
  0
LWPOLYLINE
  5
288
330
1F
100
AcDbEntity
  8
Ech.1_2
 62
   190
370
    15
100
AcDbPolyline
 90
        3
 70
     0
 43
0.0
 10
11406.48781487137
 20
1943.900775902512
 10
11330.45227270299
 20
1943.900775902512
 10
11310.45227270299
 20
1943.900775902512
  0
INSERT
  5
289
330
1F
100
AcDbEntity
  8
Ech.1_2
 62
   190
370
    15
100
AcDbBlockReference
  2
cw-line-extremity4
 10
11406.48781487137
 20
1943.900775902512
 30
0.0
 50
180.0
  0
LWPOLYLINE
  5
28A
330
1F
100
AcDbEntity
  8
Ech.1_2
 62
   190
370
    15
100
AcDbPolyline
 90
        3
 70
     0
 43
0.0
 10
11508.18032147197
 20
1856.07919357677
 10
11330.45227270299
 20
1856.07919357677
 10
11310.45227270299
 20
1856.07919357677
  0
INSERT
  5
28B
330
1F
100
AcDbEntity
  8
Ech.1_2
 62
   190
370
    15
100
AcDbBlockReference
  2
cw-line-extremity4
 10
11508.18032147197
 20
1856.07919357677
 30
0.0
 50
180.0
  0
LWPOLYLINE
  5
28C
330
1F
100
AcDbEntity
  8
Ech.1_2
 62
   190
370
    15
100
AcDbPolyline
 90
        3
 70
     0
 43
0.0
 10
11601.93099646019
 20
1738.839321713294
 10
11330.45227270299
 20
1738.839321713294
 10
11310.45227270299
 20
1738.839321713294
  0
INSERT
  5
28D
330
1F
100
AcDbEntity
  8
Ech.1_2
 62
   190
370
    15
100
AcDbBlockReference
  2
cw-line-extremity4
 10
11601.93099646019
 20
1738.839321713294
 30
0.0
 50
180.0
  0
LWPOLYLINE
  5
28E
330
1F
100
AcDbEntity
  8
Ech.1_2
 62
   190
370
    15
100
AcDbPolyline
 90
        6
 70
     0
 43
0.0
 10
11320.26387625455
 20
1699.04744512829
 10
11550.68085403717
 20
1699.04787489033
 10
11567.16635719308
 20
1717.025223297715
 10
11553.05641717527
 20
1681.069523285896
 10
11569.54277125678
 20
1699.04787489033
 10
11706.93156154834
 20
1699.04787489033
  0
LINE
  5
28F
330
1F
100
AcDbEntity
  8
Ech.1_2
 62
   190
370
    15
100
AcDbLine
 10
11407.32527128787
 20
2120.85939933876
 30
0.0
 11
11402.36913178528
 21
1743.201569178655
 31
0.0
  0
LINE
  5
290
330
1F
100
AcDbEntity
  8
Ech.1_2
 62
   190
370
    15
100
AcDbLine
 10
11357.76387625455
 20
1749.148936582651
 30
0.0
 11
11451.93052681861
 21
2114.912031934755
 31
0.0
  0
LINE
  5
291
330
1F
100
AcDbEntity
  8
Ech.1_2
 62
   190
370
    15
100
AcDbLine
 10
11432.52431739516
 20
1699.04744512829
 30
0.0
 11
11451.93052681934
 21
1774.425248050256
 31
0.0
  0
LWPOLYLINE
  5
292
330
1F
100
AcDbEntity
  8
Ech.1_2
 62
   190
370
    15
100
AcDbPolyline
 90
        4
 70
     0
 43
0.0
 10
11364.36028191876
 20
1982.847852028071
 10
11352.82278725074
 20
1931.32167501235
 10
11377.99079994606
 20
1976.504692919816
 10
11364.36028191876
 20
1982.847852028071
  0
LINE
  5
293
330
1F
100
AcDbEntity
  8
Ech.1_2
 62
   190
370
     9
100
AcDbLine
 10
11366.37277775892
 20
1830.004415367866
 30
0.0
 11
11364.70834090906
 21
1817.521138993698
 31
0.0
  0
LINE
  5
294
330
1F
100
AcDbEntity
  8
Ech.1_2
 62
   190
370
     9
100
AcDbLine
 10
11365.46552751428
 20
1817.420180779654
 30
0.0
 11
11364.70834090906
 21
1817.521138993698
 31
0.0
  0
LINE
  5
295
330
1F
100
AcDbEntity
  8
Ech.1_2
 62
   190
370
     9
100
AcDbLine
 10
11512.43035613588
 20
1807.027120498014
 30
0.0
 11
11393.72859608548
 21
1822.85402219255
 31
0.0
  0
LINE
  5
296
330
1F
100
AcDbEntity
  8
Ech.1_2
 62
   190
370
     9
100
AcDbLine
 10
11511.68372324088
 20
1801.427371652417
 30
0.0
 11
11392.98196292076
 21
1817.254273456974
 31
0.0
  0
ARC
  5
297
330
1F
100
AcDbEntity
  8
Ech.1_2
 62
   190
370
     9
100
AcDbCircle
 10
11396.67305364143
 20
1819.611777939769
 30
0.0
 40
32.03300847716114
100
AcDbArc
 50
161.0686359818493
 51
183.7420772811921
  0
LINE
  5
298
330
1F
100
AcDbEntity
  8
Ech.1_2
 62
   190
370
     9
100
AcDbLine
 10
11367.12996436416
 20
1829.903457153823
 30
0.0
 11
11366.85462339077
 21
1827.838399853545
 31
0.0
  0
ARC
  5
299
330
1F
100
AcDbEntity
  8
Ech.1_2
 62
   190
370
     9
100
AcDbCircle
 10
11368.23132988139
 20
1827.654838962571
 30
0.0
 40
1.388889974769032
100
AcDbArc
 50
172.4053555863213
 51
262.4053575980773
  0
LINE
  5
29A
330
1F
100
AcDbEntity
  8
Ech.1_2
 62
   190
370
     9
100
AcDbLine
 10
11366.85462339077
 20
1827.838399853545
 30
0.0
 11
11365.74086848765
 21
1819.485238079951
 31
0.0
  0
ARC
  5
29B
330
1F
100
AcDbEntity
  8
Ech.1_2
 62
   190
370
     9
100
AcDbCircle
 10
11367.11757498469
 20
1819.301677239393
 30
0.0
 40
1.388889974467186
100
AcDbArc
 50
82.40535565267413
 51
172.4053576828932
  0
LINE
  5
29C
330
1F
100
AcDbEntity
  8
Ech.1_2
 62
   190
370
     9
100
AcDbLine
 10
11365.46552751428
 20
1817.420180779654
 30
0.0
 11
11365.74086848765
 21
1819.485238079951
 31
0.0
  0
LINE
  5
29D
330
1F
100
AcDbEntity
  8
Ech.1_2
 62
   190
370
     9
100
AcDbLine
 10
11393.03497154453
 20
1822.946505464797
 30
0.0
 11
11392.28833837979
 21
1817.346756729221
 31
0.0
  0
LINE
  5
29E
330
1F
100
AcDbEntity
  8
Ech.1_2
 62
   190
370
     9
100
AcDbLine
 10
11395.10002884627
 20
1822.67116449123
 30
0.0
 11
11394.35339568154
 21
1817.071415755645
 31
0.0
  0
LINE
  5
29F
330
1F
100
AcDbEntity
  8
Ech.1_2
 62
   190
370
     9
100
AcDbLine
 10
11386.83979716526
 20
1823.772528715353
 30
0.0
 11
11386.09316400053
 21
1818.172779979759
 31
0.0
  0
LINE
  5
2A0
330
1F
100
AcDbEntity
  8
Ech.1_2
 62
   190
370
     9
100
AcDbLine
 10
11388.904854467
 20
1823.497187741787
 30
0.0
 11
11388.15822130227
 21
1817.897439006201
 31
0.0
  0
LINE
  5
2A1
330
1F
100
AcDbEntity
  8
Ech.1_2
 62
   190
370
     9
100
AcDbLine
 10
11390.96991176874
 20
1823.221846768229
 30
0.0
 11
11390.22327860401
 21
1817.622098032653
 31
0.0
  0
LINE
  5
2A2
330
1F
100
AcDbEntity
  8
Ech.1_2
 62
   190
370
     9
100
AcDbLine
 10
11380.64462278599
 20
1824.59855196591
 30
0.0
 11
11379.89798962126
 21
1818.998803230315
 31
0.0
  0
LINE
  5
2A3
330
1F
100
AcDbEntity
  8
Ech.1_2
 62
   190
370
     9
100
AcDbLine
 10
11382.70968008773
 20
1824.323210992343
 30
0.0
 11
11381.963046923
 21
1818.723462256758
 31
0.0
  0
LINE
  5
2A4
330
1F
100
AcDbEntity
  8
Ech.1_2
 62
   190
370
     9
100
AcDbLine
 10
11384.77473738947
 20
1824.047870018785
 30
0.0
 11
11384.02810422474
 21
1818.448121283209
 31
0.0
  0
LINE
  5
2A5
330
1F
100
AcDbEntity
  8
Ech.1_2
 62
   190
370
     9
100
AcDbLine
 10
11378.5795630102
 20
1824.873893269341
 30
0.0
 11
11377.83292984547
 21
1819.274144533765
 31
0.0
  0
LINE
  5
2A6
330
1F
100
AcDbEntity
  8
Ech.1_2
 62
   190
370
     9
100
AcDbLine
 10
11376.51450570846
 20
1825.149234242899
 30
0.0
 11
11375.76787254373
 21
1819.549485507314
 31
0.0
  0
LINE
  5
2A7
330
1F
100
AcDbEntity
  8
Ech.1_2
 62
   190
370
     9
100
AcDbLine
 10
11374.44944840673
 20
1825.424575216448
 30
0.0
 11
11373.70281524199
 21
1819.824826480881
 31
0.0
  0
LINE
  5
2A8
330
1F
100
AcDbEntity
  8
Ech.1_2
 62
   190
370
     9
100
AcDbLine
 10
11372.38438863094
 20
1825.699916519898
 30
0.0
 11
11371.6377554662
 21
1820.100167784321
 31
0.0
  0
LINE
  5
2A9
330
1F
100
AcDbEntity
  8
Ech.1_2
 62
   190
370
     9
100
AcDbLine
 10
11459.11682994069
 20
1814.135591012118
 30
0.0
 11
11458.37019677596
 21
1808.535842276533
 31
0.0
  0
LINE
  5
2AA
330
1F
100
AcDbEntity
  8
Ech.1_2
 62
   190
370
     9
100
AcDbLine
 10
11457.05177263895
 20
1814.410931985685
 30
0.0
 11
11456.30513947422
 21
1808.811183250091
 31
0.0
  0
LINE
  5
2AB
330
1F
100
AcDbEntity
  8
Ech.1_2
 62
   190
370
     9
100
AcDbLine
 10
11461.18188971648
 20
1813.860249708687
 30
0.0
 11
11460.43525655175
 21
1808.260500973111
 31
0.0
  0
LINE
  5
2AC
330
1F
100
AcDbEntity
  8
Ech.1_2
 62
   190
370
     9
100
AcDbLine
 10
11450.85659825968
 20
1815.236955236223
 30
0.0
 11
11450.10996509495
 21
1809.637206500656
 31
0.0
  0
LINE
  5
2AD
330
1F
100
AcDbEntity
  8
Ech.1_2
 62
   190
370
     9
100
AcDbLine
 10
11452.92165556142
 20
1814.961614262675
 30
0.0
 11
11452.17502239669
 21
1809.361865527089
 31
0.0
  0
LINE
  5
2AE
330
1F
100
AcDbEntity
  8
Ech.1_2
 62
   190
370
     9
100
AcDbLine
 10
11454.98671533721
 20
1814.686272959243
 30
0.0
 11
11454.24008217248
 21
1809.086524223667
 31
0.0
  0
LINE
  5
2AF
330
1F
100
AcDbEntity
  8
Ech.1_2
 62
   190
370
     9
100
AcDbLine
 10
11444.66142388042
 20
1816.062978486789
 30
0.0
 11
11443.91479071568
 21
1810.463229751213
 31
0.0
  0
LINE
  5
2B0
330
1F
100
AcDbEntity
  8
Ech.1_2
 62
   190
370
     9
100
AcDbLine
 10
11446.72648118216
 20
1815.787637513231
 30
0.0
 11
11445.97984801742
 21
1810.187888777655
 31
0.0
  0
LINE
  5
2B1
330
1F
100
AcDbEntity
  8
Ech.1_2
 62
   190
370
     9
100
AcDbLine
 10
11448.79154095794
 20
1815.512296209808
 30
0.0
 11
11448.04490779321
 21
1809.912547474223
 31
0.0
  0
LINE
  5
2B2
330
1F
100
AcDbEntity
  8
Ech.1_2
 62
   190
370
     9
100
AcDbLine
 10
11438.46624950115
 20
1816.889001737345
 30
0.0
 11
11437.71961633642
 21
1811.289253001769
 31
0.0
  0
LINE
  5
2B3
330
1F
100
AcDbEntity
  8
Ech.1_2
 62
   190
370
     9
100
AcDbLine
 10
11440.53130680289
 20
1816.613660763787
 30
0.0
 11
11439.78467363816
 21
1811.013912028211
 31
0.0
  0
LINE
  5
2B4
330
1F
100
AcDbEntity
  8
Ech.1_2
 62
   190
370
     9
100
AcDbLine
 10
11442.59636657867
 20
1816.338319460365
 30
0.0
 11
11441.84973341395
 21
1810.738570724761
 31
0.0
  0
LINE
  5
2B5
330
1F
100
AcDbEntity
  8
Ech.1_2
 62
   190
370
     9
100
AcDbLine
 10
11436.40119219941
 20
1817.164342710921
 30
0.0
 11
11435.65455903467
 21
1811.564593975318
 31
0.0
  0
LINE
  5
2B6
330
1F
100
AcDbEntity
  8
Ech.1_2
 62
   190
370
     9
100
AcDbLine
 10
11403.36026052728
 20
1821.569800267116
 30
0.0
 11
11402.61362736254
 21
1815.97005153154
 31
0.0
  0
LINE
  5
2B7
330
1F
100
AcDbEntity
  8
Ech.1_2
 62
   190
370
     9
100
AcDbLine
 10
11405.42532030307
 20
1821.294458963685
 30
0.0
 11
11404.67868713834
 21
1815.694710228108
 31
0.0
  0
LINE
  5
2B8
330
1F
100
AcDbEntity
  8
Ech.1_2
 62
   190
370
     9
100
AcDbLine
 10
11407.49037760481
 20
1821.019117990136
 30
0.0
 11
11406.74374444007
 21
1815.419369254532
 31
0.0
  0
LINE
  5
2B9
330
1F
100
AcDbEntity
  8
Ech.1_2
 62
   190
370
     9
100
AcDbLine
 10
11409.55543490655
 20
1820.74377701656
 30
0.0
 11
11408.80880174181
 21
1815.144028280984
 31
0.0
  0
LINE
  5
2BA
330
1F
100
AcDbEntity
  8
Ech.1_2
 62
   190
370
     9
100
AcDbLine
 10
11367.12996436416
 20
1829.903457153823
 30
0.0
 11
11366.37277775892
 21
1830.004415367866
 31
0.0
  0
LINE
  5
2BB
330
1F
100
AcDbEntity
  8
Ech.1_2
 62
   190
370
     9
100
AcDbLine
 10
11415.75060928581
 20
1819.917753765994
 30
0.0
 11
11415.00397612108
 21
1814.318005030418
 31
0.0
  0
LINE
  5
2BC
330
1F
100
AcDbEntity
  8
Ech.1_2
 62
   190
370
     9
100
AcDbLine
 10
11413.68555198408
 20
1820.19309473957
 30
0.0
 11
11412.93891881934
 21
1814.593346003994
 31
0.0
  0
LINE
  5
2BD
330
1F
100
AcDbEntity
  8
Ech.1_2
 62
   190
370
     9
100
AcDbLine
 10
11411.62049468233
 20
1820.468435713128
 30
0.0
 11
11410.8738615176
 21
1814.868686977552
 31
0.0
  0
LINE
  5
2BE
330
1F
100
AcDbEntity
  8
Ech.1_2
 62
   190
370
     9
100
AcDbLine
 10
11421.94578366508
 20
1819.091730515456
 30
0.0
 11
11421.19915050035
 21
1813.491981779862
 31
0.0
  0
LINE
  5
2BF
330
1F
100
AcDbEntity
  8
Ech.1_2
 62
   190
370
     9
100
AcDbLine
 10
11419.88072636334
 20
1819.367071489014
 30
0.0
 11
11419.13409319861
 21
1813.767322753438
 31
0.0
  0
LINE
  5
2C0
330
1F
100
AcDbEntity
  8
Ech.1_2
 62
   190
370
     9
100
AcDbLine
 10
11417.81566906161
 20
1819.642412462572
 30
0.0
 11
11417.06903589687
 21
1814.042663726987
 31
0.0
  0
LINE
  5
2C1
330
1F
100
AcDbEntity
  8
Ech.1_2
 62
   190
370
     9
100
AcDbLine
 10
11428.14095804435
 20
1818.2657072649
 30
0.0
 11
11427.39432487962
 21
1812.665958529324
 31
0.0
  0
LINE
  5
2C2
330
1F
100
AcDbEntity
  8
Ech.1_2
 62
   190
370
     9
100
AcDbLine
 10
11426.07590074261
 20
1818.541048238458
 30
0.0
 11
11425.32926757788
 21
1812.941299502882
 31
0.0
  0
LINE
  5
2C3
330
1F
100
AcDbEntity
  8
Ech.1_2
 62
   190
370
     9
100
AcDbLine
 10
11424.01084344087
 20
1818.816389212016
 30
0.0
 11
11423.26421027614
 21
1813.21664047643
 31
0.0
  0
LINE
  5
2C4
330
1F
100
AcDbEntity
  8
Ech.1_2
 62
   190
370
     9
100
AcDbLine
 10
11434.33613242362
 20
1817.439684014344
 30
0.0
 11
11433.58949925889
 21
1811.839935278767
 31
0.0
  0
LINE
  5
2C5
330
1F
100
AcDbEntity
  8
Ech.1_2
 62
   190
370
     9
100
AcDbLine
 10
11432.27107512188
 20
1817.715024987901
 30
0.0
 11
11431.52444195715
 21
1812.115276252325
 31
0.0
  0
LINE
  5
2C6
330
1F
100
AcDbEntity
  8
Ech.1_2
 62
   190
370
     9
100
AcDbLine
 10
11430.20601782014
 20
1817.990365961459
 30
0.0
 11
11429.45938465541
 21
1812.390617225874
 31
0.0
  0
LINE
  5
2C7
330
1F
100
AcDbEntity
  8
Ech.1_2
 62
   190
370
     9
100
AcDbLine
 10
11399.2301459238
 20
1822.120482214241
 30
0.0
 11
11398.48351275907
 21
1816.520733478665
 31
0.0
  0
LINE
  5
2C8
330
1F
100
AcDbEntity
  8
Ech.1_2
 62
   190
370
     9
100
AcDbLine
 10
11401.29520322554
 20
1821.845141240692
 30
0.0
 11
11400.54857006081
 21
1816.245392505089
 31
0.0
  0
LINE
  5
2C9
330
1F
100
AcDbEntity
  8
Ech.1_2
 62
   190
370
     9
100
AcDbLine
 10
11403.36026052728
 20
1821.569800267116
 30
0.0
 11
11402.61362736254
 21
1815.97005153154
 31
0.0
  0
LINE
  5
2CA
330
1F
100
AcDbEntity
  8
Ech.1_2
 62
   190
370
     9
100
AcDbLine
 10
11397.16508614801
 20
1822.395823517672
 30
0.0
 11
11396.41845298328
 21
1816.796074782096
 31
0.0
  0
LINE
  5
2CB
330
1F
100
AcDbEntity
  8
Ech.1_2
 62
   190
370
     9
100
AcDbLine
 10
11518.65372846978
 20
1803.347687962896
 30
0.0
 11
11512.43035646178
 21
1807.027120809307
 31
0.0
  0
ARC
  5
2CC
330
1F
100
AcDbEntity
  8
Ech.1_2
 62
   190
370
     9
100
AcDbCircle
 10
11515.54951050146
 20
1803.761583477519
 30
0.0
 40
4.515844991642323
100
AcDbArc
 50
133.6865965455584
 51
211.1241167175121
  0
LINE
  5
2CD
330
1F
100
AcDbEntity
  8
Ech.1_2
 62
   190
370
     9
100
AcDbLine
 10
11518.65372846978
 20
1803.347687962896
 30
0.0
 11
11511.68372329706
 21
1801.427372073731
 31
0.0
  0
HATCH
  5
2CE
330
1F
100
AcDbEntity
  8
Ech.1_2
 62
   252
440
 33554687
370
     5
100
AcDbHatch
 10
0.0
 20
0.0
 30
0.0
210
0.0
220
0.0
230
1.0
  2
SOLID
 70
     1
 71
     1
 91
        1
 92
        3
 72
     0
 73
     1
 93
        4
 10
11371.6377554662
 20
1820.100167784321
 10
11373.70281524199
 20
1819.824826480881
 10
11374.44944840673
 20
1825.424575216448
 10
11372.38438863094
 20
1825.699916519898
 97
        0
 75
     0
 76
     1
 98
        0
  0
LWPOLYLINE
  5
2CF
330
1F
100
AcDbEntity
  8
Ech.1_2
 62
     7
370
     9
100
AcDbPolyline
 90
        5
 70
     0
 43
0.0
 10
11371.6377554662
 20
1820.100167784321
 10
11373.70281524199
 20
1819.824826480881
 10
11374.44944840673
 20
1825.424575216448
 10
11372.38438863094
 20
1825.699916519898
 10
11371.6377554662
 20
1820.100167784321
  0
HATCH
  5
2D0
330
1F
100
AcDbEntity
  8
Ech.1_2
 62
   252
440
 33554687
370
     5
100
AcDbHatch
 10
0.0
 20
0.0
 30
0.0
210
0.0
220
0.0
230
1.0
  2
SOLID
 70
     1
 71
     1
 91
        1
 92
        3
 72
     0
 73
     1
 93
        4
 10
11373.70281524199
 20
1819.824826480881
 10
11375.76787501778
 20
1819.549485177449
 10
11376.51450818252
 20
1825.149233913025
 10
11374.44944840673
 20
1825.424575216448
 97
        0
 75
     0
 76
     1
 98
        0
  0
LWPOLYLINE
  5
2D1
330
1F
100
AcDbEntity
  8
Ech.1_2
 62
     7
370
     9
100
AcDbPolyline
 90
        5
 70
     0
 43
0.0
 10
11373.70281524199
 20
1819.824826480881
 10
11375.76787501778
 20
1819.549485177449
 10
11376.51450818252
 20
1825.149233913025
 10
11374.44944840673
 20
1825.424575216448
 10
11373.70281524199
 20
1819.824826480881
  0
HATCH
  5
2D2
330
1F
100
AcDbEntity
  8
Ech.1_2
 62
   252
440
 33554687
370
     5
100
AcDbHatch
 10
0.0
 20
0.0
 30
0.0
210
0.0
220
0.0
230
1.0
  2
SOLID
 70
     1
 71
     1
 91
        1
 92
        3
 72
     0
 73
     1
 93
        4
 10
11375.76787501778
 20
1819.549485177449
 10
11377.83293479358
 20
1819.274143874018
 10
11378.5795679583
 20
1824.873892609603
 10
11376.51450818252
 20
1825.149233913025
 97
        0
 75
     0
 76
     1
 98
        0
  0
LWPOLYLINE
  5
2D3
330
1F
100
AcDbEntity
  8
Ech.1_2
 62
     7
370
     9
100
AcDbPolyline
 90
        5
 70
     0
 43
0.0
 10
11375.76787501778
 20
1819.549485177449
 10
11377.83293479358
 20
1819.274143874018
 10
11378.5795679583
 20
1824.873892609603
 10
11376.51450818252
 20
1825.149233913025
 10
11375.76787501778
 20
1819.549485177449
  0
HATCH
  5
2D4
330
1F
100
AcDbEntity
  8
Ech.1_2
 62
   252
440
 33554687
370
     5
100
AcDbHatch
 10
0.0
 20
0.0
 30
0.0
210
0.0
220
0.0
230
1.0
  2
SOLID
 70
     1
 71
     1
 91
        1
 92
        3
 72
     0
 73
     1
 93
        4
 10
11377.83293479358
 20
1819.274143874018
 10
11379.89799456936
 20
1818.998802570577
 10
11380.64462773409
 20
1824.598551306153
 10
11378.5795679583
 20
1824.873892609603
 97
        0
 75
     0
 76
     1
 98
        0
  0
LWPOLYLINE
  5
2D5
330
1F
100
AcDbEntity
  8
Ech.1_2
 62
     7
370
     9
100
AcDbPolyline
 90
        5
 70
     0
 43
0.0
 10
11377.83293479358
 20
1819.274143874018
 10
11379.89799456936
 20
1818.998802570577
 10
11380.64462773409
 20
1824.598551306153
 10
11378.5795679583
 20
1824.873892609603
 10
11377.83293479358
 20
1819.274143874018
  0
HATCH
  5
2D6
330
1F
100
AcDbEntity
  8
Ech.1_2
 62
   252
440
 33554687
370
     5
100
AcDbHatch
 10
0.0
 20
0.0
 30
0.0
210
0.0
220
0.0
230
1.0
  2
SOLID
 70
     1
 71
     1
 91
        1
 92
        3
 72
     0
 73
     1
 93
        4
 10
11379.89798962126
 20
1818.998803230315
 10
11381.96304939705
 20
1818.723461926884
 10
11382.70968256178
 20
1824.323210662469
 10
11380.64462278599
 20
1824.59855196591
 97
        0
 75
     0
 76
     1
 98
        0
  0
LWPOLYLINE
  5
2D7
330
1F
100
AcDbEntity
  8
Ech.1_2
 62
     7
370
     9
100
AcDbPolyline
 90
        5
 70
     0
 43
0.0
 10
11379.89798962126
 20
1818.998803230315
 10
11381.96304939705
 20
1818.723461926884
 10
11382.70968256178
 20
1824.323210662469
 10
11380.64462278599
 20
1824.59855196591
 10
11379.89798962126
 20
1818.998803230315
  0
HATCH
  5
2D8
330
1F
100
AcDbEntity
  8
Ech.1_2
 62
   252
440
 33554687
370
     5
100
AcDbHatch
 10
0.0
 20
0.0
 30
0.0
210
0.0
220
0.0
230
1.0
  2
SOLID
 70
     1
 71
     1
 91
        1
 92
        3
 72
     0
 73
     1
 93
        4
 10
11381.963046923
 20
1818.723462256758
 10
11384.02810669879
 20
1818.448120953335
 10
11384.77473986352
 20
1824.047869688911
 10
11382.70968008773
 20
1824.323210992343
 97
        0
 75
     0
 76
     1
 98
        0
  0
LWPOLYLINE
  5
2D9
330
1F
100
AcDbEntity
  8
Ech.1_2
 62
     7
370
     9
100
AcDbPolyline
 90
        5
 70
     0
 43
0.0
 10
11381.963046923
 20
1818.723462256758
 10
11384.02810669879
 20
1818.448120953335
 10
11384.77473986352
 20
1824.047869688911
 10
11382.70968008773
 20
1824.323210992343
 10
11381.963046923
 20
1818.723462256758
  0
HATCH
  5
2DA
330
1F
100
AcDbEntity
  8
Ech.1_2
 62
   252
440
 33554687
370
     5
100
AcDbHatch
 10
0.0
 20
0.0
 30
0.0
210
0.0
220
0.0
230
1.0
  2
SOLID
 70
     1
 71
     1
 91
        1
 92
        3
 72
     0
 73
     1
 93
        4
 10
11384.02810669879
 20
1818.448120953335
 10
11386.09316647458
 20
1818.172779649885
 10
11386.83979963931
 20
1823.77252838548
 10
11384.77473986352
 20
1824.047869688911
 97
        0
 75
     0
 76
     1
 98
        0
  0
LWPOLYLINE
  5
2DB
330
1F
100
AcDbEntity
  8
Ech.1_2
 62
     7
370
     9
100
AcDbPolyline
 90
        5
 70
     0
 43
0.0
 10
11384.02810669879
 20
1818.448120953335
 10
11386.09316647458
 20
1818.172779649885
 10
11386.83979963931
 20
1823.77252838548
 10
11384.77473986352
 20
1824.047869688911
 10
11384.02810669879
 20
1818.448120953335
  0
HATCH
  5
2DC
330
1F
100
AcDbEntity
  8
Ech.1_2
 62
   252
440
 33554687
370
     5
100
AcDbHatch
 10
0.0
 20
0.0
 30
0.0
210
0.0
220
0.0
230
1.0
  2
SOLID
 70
     1
 71
     1
 91
        1
 92
        3
 72
     0
 73
     1
 93
        4
 10
11386.09316400053
 20
1818.172779979759
 10
11388.15822377632
 20
1817.897438676328
 10
11388.90485694105
 20
1823.497187411913
 10
11386.83979716526
 20
1823.772528715353
 97
        0
 75
     0
 76
     1
 98
        0
  0
LWPOLYLINE
  5
2DD
330
1F
100
AcDbEntity
  8
Ech.1_2
 62
     7
370
     9
100
AcDbPolyline
 90
        5
 70
     0
 43
0.0
 10
11386.09316400053
 20
1818.172779979759
 10
11388.15822377632
 20
1817.897438676328
 10
11388.90485694105
 20
1823.497187411913
 10
11386.83979716526
 20
1823.772528715353
 10
11386.09316400053
 20
1818.172779979759
  0
HATCH
  5
2DE
330
1F
100
AcDbEntity
  8
Ech.1_2
 62
   252
440
 33554687
370
     5
100
AcDbHatch
 10
0.0
 20
0.0
 30
0.0
210
0.0
220
0.0
230
1.0
  2
SOLID
 70
     1
 71
     1
 91
        1
 92
        3
 72
     0
 73
     1
 93
        4
 10
11388.15822377632
 20
1817.897438676328
 10
11390.2232835521
 20
1817.622097372905
 10
11390.96991671684
 20
1823.221846108481
 10
11388.90485694105
 20
1823.497187411913
 97
        0
 75
     0
 76
     1
 98
        0
  0
LWPOLYLINE
  5
2DF
330
1F
100
AcDbEntity
  8
Ech.1_2
 62
     7
370
     9
100
AcDbPolyline
 90
        5
 70
     0
 43
0.0
 10
11388.15822377632
 20
1817.897438676328
 10
11390.2232835521
 20
1817.622097372905
 10
11390.96991671684
 20
1823.221846108481
 10
11388.90485694105
 20
1823.497187411913
 10
11388.15822377632
 20
1817.897438676328
  0
HATCH
  5
2E0
330
1F
100
AcDbEntity
  8
Ech.1_2
 62
   252
440
 33554687
370
     5
100
AcDbHatch
 10
0.0
 20
0.0
 30
0.0
210
0.0
220
0.0
230
1.0
  2
SOLID
 70
     1
 71
     1
 91
        1
 92
        3
 72
     0
 73
     1
 93
        4
 10
11390.22327860401
 20
1817.622098032653
 10
11392.28833837979
 20
1817.346756729221
 10
11393.03497154453
 20
1822.946505464797
 10
11390.96991176874
 20
1823.221846768229
 97
        0
 75
     0
 76
     1
 98
        0
  0
LWPOLYLINE
  5
2E1
330
1F
100
AcDbEntity
  8
Ech.1_2
 62
     7
370
     9
100
AcDbPolyline
 90
        5
 70
     0
 43
0.0
 10
11390.22327860401
 20
1817.622098032653
 10
11392.28833837979
 20
1817.346756729221
 10
11393.03497154453
 20
1822.946505464797
 10
11390.96991176874
 20
1823.221846768229
 10
11390.22327860401
 20
1817.622098032653
  0
HATCH
  5
2E2
330
1F
100
AcDbEntity
  8
Ech.1_2
 62
   252
440
 33554687
370
     5
100
AcDbHatch
 10
0.0
 20
0.0
 30
0.0
210
0.0
220
0.0
230
1.0
  2
SOLID
 70
     1
 71
     1
 91
        1
 92
        3
 72
     0
 73
     1
 93
        4
 10
11392.28833837979
 20
1817.346756729221
 10
11394.35339815559
 20
1817.071415425771
 10
11395.10003132032
 20
1822.671164161357
 10
11393.03497154453
 20
1822.946505464797
 97
        0
 75
     0
 76
     1
 98
        0
  0
LWPOLYLINE
  5
2E3
330
1F
100
AcDbEntity
  8
Ech.1_2
 62
     7
370
     9
100
AcDbPolyline
 90
        5
 70
     0
 43
0.0
 10
11392.28833837979
 20
1817.346756729221
 10
11394.35339815559
 20
1817.071415425771
 10
11395.10003132032
 20
1822.671164161357
 10
11393.03497154453
 20
1822.946505464797
 10
11392.28833837979
 20
1817.346756729221
  0
HATCH
  5
2E4
330
1F
100
AcDbEntity
  8
Ech.1_2
 62
   252
440
 33554687
370
     5
100
AcDbHatch
 10
0.0
 20
0.0
 30
0.0
210
0.0
220
0.0
230
1.0
  2
SOLID
 70
     1
 71
     1
 91
        1
 92
        3
 72
     0
 73
     1
 93
        4
 10
11394.35339815559
 20
1817.071415425771
 10
11396.41845793138
 20
1816.796074122349
 10
11397.1650910961
 20
1822.395822857925
 10
11395.10003132032
 20
1822.671164161357
 97
        0
 75
     0
 76
     1
 98
        0
  0
LWPOLYLINE
  5
2E5
330
1F
100
AcDbEntity
  8
Ech.1_2
 62
     7
370
     9
100
AcDbPolyline
 90
        5
 70
     0
 43
0.0
 10
11394.35339815559
 20
1817.071415425771
 10
11396.41845793138
 20
1816.796074122349
 10
11397.1650910961
 20
1822.395822857925
 10
11395.10003132032
 20
1822.671164161357
 10
11394.35339815559
 20
1817.071415425771
  0
HATCH
  5
2E6
330
1F
100
AcDbEntity
  8
Ech.1_2
 62
   252
440
 33554687
370
     5
100
AcDbHatch
 10
0.0
 20
0.0
 30
0.0
210
0.0
220
0.0
230
1.0
  2
SOLID
 70
     1
 71
     1
 91
        1
 92
        3
 72
     0
 73
     1
 93
        4
 10
11396.41845793138
 20
1816.796074122349
 10
11398.48351770716
 20
1816.520732818917
 10
11399.2301508719
 20
1822.120481554493
 10
11397.1650910961
 20
1822.395822857925
 97
        0
 75
     0
 76
     1
 98
        0
  0
LWPOLYLINE
  5
2E7
330
1F
100
AcDbEntity
  8
Ech.1_2
 62
     7
370
     9
100
AcDbPolyline
 90
        5
 70
     0
 43
0.0
 10
11396.41845793138
 20
1816.796074122349
 10
11398.48351770716
 20
1816.520732818917
 10
11399.2301508719
 20
1822.120481554493
 10
11397.1650910961
 20
1822.395822857925
 10
11396.41845793138
 20
1816.796074122349
  0
HATCH
  5
2E8
330
1F
100
AcDbEntity
  8
Ech.1_2
 62
   252
440
 33554687
370
     5
100
AcDbHatch
 10
0.0
 20
0.0
 30
0.0
210
0.0
220
0.0
230
1.0
  2
SOLID
 70
     1
 71
     1
 91
        1
 92
        3
 72
     0
 73
     1
 93
        4
 10
11398.48351770716
 20
1816.520732818917
 10
11400.54857748295
 20
1816.245391515467
 10
11401.29521064769
 20
1821.845140251071
 10
11399.2301508719
 20
1822.120481554493
 97
        0
 75
     0
 76
     1
 98
        0
  0
LWPOLYLINE
  5
2E9
330
1F
100
AcDbEntity
  8
Ech.1_2
 62
     7
370
     9
100
AcDbPolyline
 90
        5
 70
     0
 43
0.0
 10
11398.48351770716
 20
1816.520732818917
 10
11400.54857748295
 20
1816.245391515467
 10
11401.29521064769
 20
1821.845140251071
 10
11399.2301508719
 20
1822.120481554493
 10
11398.48351770716
 20
1816.520732818917
  0
HATCH
  5
2EA
330
1F
100
AcDbEntity
  8
Ech.1_2
 62
   252
440
 33554687
370
     5
100
AcDbHatch
 10
0.0
 20
0.0
 30
0.0
210
0.0
220
0.0
230
1.0
  2
SOLID
 70
     1
 71
     1
 91
        1
 92
        3
 72
     0
 73
     1
 93
        4
 10
11400.54857253485
 20
1816.245392175215
 10
11402.61363231064
 20
1815.970050871792
 10
11403.36026547538
 20
1821.569799607369
 10
11401.29520569959
 20
1821.845140910818
 97
        0
 75
     0
 76
     1
 98
        0
  0
LWPOLYLINE
  5
2EB
330
1F
100
AcDbEntity
  8
Ech.1_2
 62
     7
370
     9
100
AcDbPolyline
 90
        5
 70
     0
 43
0.0
 10
11400.54857253485
 20
1816.245392175215
 10
11402.61363231064
 20
1815.970050871792
 10
11403.36026547538
 20
1821.569799607369
 10
11401.29520569959
 20
1821.845140910818
 10
11400.54857253485
 20
1816.245392175215
  0
HATCH
  5
2EC
330
1F
100
AcDbEntity
  8
Ech.1_2
 62
   252
440
 33554687
370
     5
100
AcDbHatch
 10
0.0
 20
0.0
 30
0.0
210
0.0
220
0.0
230
1.0
  2
SOLID
 70
     1
 71
     1
 91
        1
 92
        3
 72
     0
 73
     1
 93
        4
 10
11402.6136298366
 20
1815.970051201666
 10
11404.67868961238
 20
1815.694709898235
 10
11405.42532277712
 20
1821.294458633811
 10
11403.36026300133
 20
1821.569799937242
 97
        0
 75
     0
 76
     1
 98
        0
  0
LWPOLYLINE
  5
2ED
330
1F
100
AcDbEntity
  8
Ech.1_2
 62
     7
370
     9
100
AcDbPolyline
 90
        5
 70
     0
 43
0.0
 10
11402.6136298366
 20
1815.970051201666
 10
11404.67868961238
 20
1815.694709898235
 10
11405.42532277712
 20
1821.294458633811
 10
11403.36026300133
 20
1821.569799937242
 10
11402.6136298366
 20
1815.970051201666
  0
HATCH
  5
2EE
330
1F
100
AcDbEntity
  8
Ech.1_2
 62
   252
440
 33554687
370
     5
100
AcDbHatch
 10
0.0
 20
0.0
 30
0.0
210
0.0
220
0.0
230
1.0
  2
SOLID
 70
     1
 71
     1
 91
        1
 92
        3
 72
     0
 73
     1
 93
        4
 10
11404.67868961238
 20
1815.694709898235
 10
11406.74374938817
 20
1815.419368594785
 10
11407.49038255291
 20
1821.019117330388
 10
11405.42532277712
 20
1821.294458633811
 97
        0
 75
     0
 76
     1
 98
        0
  0
LWPOLYLINE
  5
2EF
330
1F
100
AcDbEntity
  8
Ech.1_2
 62
     7
370
     9
100
AcDbPolyline
 90
        5
 70
     0
 43
0.0
 10
11404.67868961238
 20
1815.694709898235
 10
11406.74374938817
 20
1815.419368594785
 10
11407.49038255291
 20
1821.019117330388
 10
11405.42532277712
 20
1821.294458633811
 10
11404.67868961238
 20
1815.694709898235
  0
HATCH
  5
2F0
330
1F
100
AcDbEntity
  8
Ech.1_2
 62
   252
440
 33554687
370
     5
100
AcDbHatch
 10
0.0
 20
0.0
 30
0.0
210
0.0
220
0.0
230
1.0
  2
SOLID
 70
     1
 71
     1
 91
        1
 92
        3
 72
     0
 73
     1
 93
        4
 10
11406.74374691413
 20
1815.419368924659
 10
11408.80880668991
 20
1815.144027621236
 10
11409.55543985465
 20
1820.743776356812
 10
11407.49038007885
 20
1821.019117660262
 97
        0
 75
     0
 76
     1
 98
        0
  0
LWPOLYLINE
  5
2F1
330
1F
100
AcDbEntity
  8
Ech.1_2
 62
     7
370
     9
100
AcDbPolyline
 90
        5
 70
     0
 43
0.0
 10
11406.74374691413
 20
1815.419368924659
 10
11408.80880668991
 20
1815.144027621236
 10
11409.55543985465
 20
1820.743776356812
 10
11407.49038007885
 20
1821.019117660262
 10
11406.74374691413
 20
1815.419368924659
  0
HATCH
  5
2F2
330
1F
100
AcDbEntity
  8
Ech.1_2
 62
   252
440
 33554687
370
     5
100
AcDbHatch
 10
0.0
 20
0.0
 30
0.0
210
0.0
220
0.0
230
1.0
  2
SOLID
 70
     1
 71
     1
 91
        1
 92
        3
 72
     0
 73
     1
 93
        4
 10
11408.80880668991
 20
1815.144027621236
 10
11410.8738664657
 20
1814.868686317805
 10
11411.62049963044
 20
1820.468435053381
 10
11409.55543985465
 20
1820.743776356812
 97
        0
 75
     0
 76
     1
 98
        0
  0
LWPOLYLINE
  5
2F3
330
1F
100
AcDbEntity
  8
Ech.1_2
 62
     7
370
     9
100
AcDbPolyline
 90
        5
 70
     0
 43
0.0
 10
11408.80880668991
 20
1815.144027621236
 10
11410.8738664657
 20
1814.868686317805
 10
11411.62049963044
 20
1820.468435053381
 10
11409.55543985465
 20
1820.743776356812
 10
11408.80880668991
 20
1815.144027621236
  0
HATCH
  5
2F4
330
1F
100
AcDbEntity
  8
Ech.1_2
 62
   252
440
 33554687
370
     5
100
AcDbHatch
 10
0.0
 20
0.0
 30
0.0
210
0.0
220
0.0
230
1.0
  2
SOLID
 70
     1
 71
     1
 91
        1
 92
        3
 72
     0
 73
     1
 93
        4
 10
11410.8738615176
 20
1814.868686977552
 10
11412.93892129339
 20
1814.59334567412
 10
11413.68555445812
 20
1820.193094409706
 10
11411.62049468233
 20
1820.468435713128
 97
        0
 75
     0
 76
     1
 98
        0
  0
LWPOLYLINE
  5
2F5
330
1F
100
AcDbEntity
  8
Ech.1_2
 62
     7
370
     9
100
AcDbPolyline
 90
        5
 70
     0
 43
0.0
 10
11410.8738615176
 20
1814.868686977552
 10
11412.93892129339
 20
1814.59334567412
 10
11413.68555445812
 20
1820.193094409706
 10
11411.62049468233
 20
1820.468435713128
 10
11410.8738615176
 20
1814.868686977552
  0
HATCH
  5
2F6
330
1F
100
AcDbEntity
  8
Ech.1_2
 62
   252
440
 33554687
370
     5
100
AcDbHatch
 10
0.0
 20
0.0
 30
0.0
210
0.0
220
0.0
230
1.0
  2
SOLID
 70
     1
 71
     1
 91
        1
 92
        3
 72
     0
 73
     1
 93
        4
 10
11412.93892129339
 20
1814.59334567412
 10
11415.00398106919
 20
1814.31800437068
 10
11415.75061423391
 20
1819.917753106256
 10
11413.68555445812
 20
1820.193094409706
 97
        0
 75
     0
 76
     1
 98
        0
  0
LWPOLYLINE
  5
2F7
330
1F
100
AcDbEntity
  8
Ech.1_2
 62
     7
370
     9
100
AcDbPolyline
 90
        5
 70
     0
 43
0.0
 10
11412.93892129339
 20
1814.59334567412
 10
11415.00398106919
 20
1814.31800437068
 10
11415.75061423391
 20
1819.917753106256
 10
11413.68555445812
 20
1820.193094409706
 10
11412.93892129339
 20
1814.59334567412
  0
HATCH
  5
2F8
330
1F
100
AcDbEntity
  8
Ech.1_2
 62
   252
440
 33554687
370
     5
100
AcDbHatch
 10
0.0
 20
0.0
 30
0.0
210
0.0
220
0.0
230
1.0
  2
SOLID
 70
     1
 71
     1
 91
        1
 92
        3
 72
     0
 73
     1
 93
        4
 10
11415.00398106919
 20
1814.31800437068
 10
11417.06904084497
 20
1814.042663067248
 10
11417.81567400971
 20
1819.642411802824
 10
11415.75061423391
 20
1819.917753106256
 97
        0
 75
     0
 76
     1
 98
        0
  0
LWPOLYLINE
  5
2F9
330
1F
100
AcDbEntity
  8
Ech.1_2
 62
     7
370
     9
100
AcDbPolyline
 90
        5
 70
     0
 43
0.0
 10
11415.00398106919
 20
1814.31800437068
 10
11417.06904084497
 20
1814.042663067248
 10
11417.81567400971
 20
1819.642411802824
 10
11415.75061423391
 20
1819.917753106256
 10
11415.00398106919
 20
1814.31800437068
  0
HATCH
  5
2FA
330
1F
100
AcDbEntity
  8
Ech.1_2
 62
   252
440
 33554687
370
     5
100
AcDbHatch
 10
0.0
 20
0.0
 30
0.0
210
0.0
220
0.0
230
1.0
  2
SOLID
 70
     1
 71
     1
 91
        1
 92
        3
 72
     0
 73
     1
 93
        4
 10
11417.06904084497
 20
1814.042663067248
 10
11419.13410062076
 20
1813.767321763817
 10
11419.88073378549
 20
1819.367070499402
 10
11417.81567400971
 20
1819.642411802824
 97
        0
 75
     0
 76
     1
 98
        0
  0
LWPOLYLINE
  5
2FB
330
1F
100
AcDbEntity
  8
Ech.1_2
 62
     7
370
     9
100
AcDbPolyline
 90
        5
 70
     0
 43
0.0
 10
11417.06904084497
 20
1814.042663067248
 10
11419.13410062076
 20
1813.767321763817
 10
11419.88073378549
 20
1819.367070499402
 10
11417.81567400971
 20
1819.642411802824
 10
11417.06904084497
 20
1814.042663067248
  0
HATCH
  5
2FC
330
1F
100
AcDbEntity
  8
Ech.1_2
 62
   252
440
 33554687
370
     5
100
AcDbHatch
 10
0.0
 20
0.0
 30
0.0
210
0.0
220
0.0
230
1.0
  2
SOLID
 70
     1
 71
     1
 91
        1
 92
        3
 72
     0
 73
     1
 93
        4
 10
11419.13410062076
 20
1813.767321763817
 10
11421.19916039655
 20
1813.491980460376
 10
11421.94579356128
 20
1819.09172919597
 10
11419.88073378549
 20
1819.367070499402
 97
        0
 75
     0
 76
     1
 98
        0
  0
LWPOLYLINE
  5
2FD
330
1F
100
AcDbEntity
  8
Ech.1_2
 62
     7
370
     9
100
AcDbPolyline
 90
        5
 70
     0
 43
0.0
 10
11419.13410062076
 20
1813.767321763817
 10
11421.19916039655
 20
1813.491980460376
 10
11421.94579356128
 20
1819.09172919597
 10
11419.88073378549
 20
1819.367070499402
 10
11419.13410062076
 20
1813.767321763817
  0
HATCH
  5
2FE
330
1F
100
AcDbEntity
  8
Ech.1_2
 62
   252
440
 33554687
370
     5
100
AcDbHatch
 10
0.0
 20
0.0
 30
0.0
210
0.0
220
0.0
230
1.0
  2
SOLID
 70
     1
 71
     1
 91
        1
 92
        3
 72
     0
 73
     1
 93
        4
 10
11421.19915544845
 20
1813.491981120123
 10
11423.26421522424
 20
1813.216639816692
 10
11424.01084838897
 20
1818.816388552268
 10
11421.94578861318
 20
1819.091729855709
 97
        0
 75
     0
 76
     1
 98
        0
  0
LWPOLYLINE
  5
2FF
330
1F
100
AcDbEntity
  8
Ech.1_2
 62
     7
370
     9
100
AcDbPolyline
 90
        5
 70
     0
 43
0.0
 10
11421.19915544845
 20
1813.491981120123
 10
11423.26421522424
 20
1813.216639816692
 10
11424.01084838897
 20
1818.816388552268
 10
11421.94578861318
 20
1819.091729855709
 10
11421.19915544845
 20
1813.491981120123
  0
HATCH
  5
300
330
1F
100
AcDbEntity
  8
Ech.1_2
 62
   252
440
 33554687
370
     5
100
AcDbHatch
 10
0.0
 20
0.0
 30
0.0
210
0.0
220
0.0
230
1.0
  2
SOLID
 70
     1
 71
     1
 91
        1
 92
        3
 72
     0
 73
     1
 93
        4
 10
11423.26421275019
 20
1813.216640146557
 10
11425.32927252598
 20
1812.941298843134
 10
11426.07590569071
 20
1818.54104757871
 10
11424.01084591492
 20
1818.816388882142
 97
        0
 75
     0
 76
     1
 98
        0
  0
LWPOLYLINE
  5
301
330
1F
100
AcDbEntity
  8
Ech.1_2
 62
     7
370
     9
100
AcDbPolyline
 90
        5
 70
     0
 43
0.0
 10
11423.26421275019
 20
1813.216640146557
 10
11425.32927252598
 20
1812.941298843134
 10
11426.07590569071
 20
1818.54104757871
 10
11424.01084591492
 20
1818.816388882142
 10
11423.26421275019
 20
1813.216640146557
  0
HATCH
  5
302
330
1F
100
AcDbEntity
  8
Ech.1_2
 62
   252
440
 33554687
370
     5
100
AcDbHatch
 10
0.0
 20
0.0
 30
0.0
210
0.0
220
0.0
230
1.0
  2
SOLID
 70
     1
 71
     1
 91
        1
 92
        3
 72
     0
 73
     1
 93
        4
 10
11425.32927252598
 20
1812.941298843134
 10
11427.39433230177
 20
1812.665957539693
 10
11428.1409654665
 20
1818.265706275279
 10
11426.07590569071
 20
1818.54104757871
 97
        0
 75
     0
 76
     1
 98
        0
  0
LWPOLYLINE
  5
303
330
1F
100
AcDbEntity
  8
Ech.1_2
 62
     7
370
     9
100
AcDbPolyline
 90
        5
 70
     0
 43
0.0
 10
11425.32927252598
 20
1812.941298843134
 10
11427.39433230177
 20
1812.665957539693
 10
11428.1409654665
 20
1818.265706275279
 10
11426.07590569071
 20
1818.54104757871
 10
11425.32927252598
 20
1812.941298843134
  0
HATCH
  5
304
330
1F
100
AcDbEntity
  8
Ech.1_2
 62
   252
440
 33554687
370
     5
100
AcDbHatch
 10
0.0
 20
0.0
 30
0.0
210
0.0
220
0.0
230
1.0
  2
SOLID
 70
     1
 71
     1
 91
        1
 92
        3
 72
     0
 73
     1
 93
        4
 10
11427.39432982771
 20
1812.665957869558
 10
11429.45938960351
 20
1812.390616566126
 10
11430.20602276824
 20
1817.990365301712
 10
11428.14096299245
 20
1818.265706605152
 97
        0
 75
     0
 76
     1
 98
        0
  0
LWPOLYLINE
  5
305
330
1F
100
AcDbEntity
  8
Ech.1_2
 62
     7
370
     9
100
AcDbPolyline
 90
        5
 70
     0
 43
0.0
 10
11427.39432982771
 20
1812.665957869558
 10
11429.45938960351
 20
1812.390616566126
 10
11430.20602276824
 20
1817.990365301712
 10
11428.14096299245
 20
1818.265706605152
 10
11427.39432982771
 20
1812.665957869558
  0
HATCH
  5
306
330
1F
100
AcDbEntity
  8
Ech.1_2
 62
   252
440
 33554687
370
     5
100
AcDbHatch
 10
0.0
 20
0.0
 30
0.0
210
0.0
220
0.0
230
1.0
  2
SOLID
 70
     1
 71
     1
 91
        1
 92
        3
 72
     0
 73
     1
 93
        4
 10
11429.45938960351
 20
1812.390616566126
 10
11431.5244493793
 20
1812.115275262704
 10
11432.27108254403
 20
1817.71502399828
 10
11430.20602276824
 20
1817.990365301712
 97
        0
 75
     0
 76
     1
 98
        0
  0
LWPOLYLINE
  5
307
330
1F
100
AcDbEntity
  8
Ech.1_2
 62
     7
370
     9
100
AcDbPolyline
 90
        5
 70
     0
 43
0.0
 10
11429.45938960351
 20
1812.390616566126
 10
11431.5244493793
 20
1812.115275262704
 10
11432.27108254403
 20
1817.71502399828
 10
11430.20602276824
 20
1817.990365301712
 10
11429.45938960351
 20
1812.390616566126
  0
HATCH
  5
308
330
1F
100
AcDbEntity
  8
Ech.1_2
 62
   252
440
 33554687
370
     5
100
AcDbHatch
 10
0.0
 20
0.0
 30
0.0
210
0.0
220
0.0
230
1.0
  2
SOLID
 70
     1
 71
     1
 91
        1
 92
        3
 72
     0
 73
     1
 93
        4
 10
11431.5244444312
 20
1812.115275922451
 10
11433.58950420698
 20
1811.83993461902
 10
11434.33613737172
 20
1817.439683354596
 10
11432.27107759593
 20
1817.715024658028
 97
        0
 75
     0
 76
     1
 98
        0
  0
LWPOLYLINE
  5
309
330
1F
100
AcDbEntity
  8
Ech.1_2
 62
     7
370
     9
100
AcDbPolyline
 90
        5
 70
     0
 43
0.0
 10
11431.5244444312
 20
1812.115275922451
 10
11433.58950420698
 20
1811.83993461902
 10
11434.33613737172
 20
1817.439683354596
 10
11432.27107759593
 20
1817.715024658028
 10
11431.5244444312
 20
1812.115275922451
  0
HATCH
  5
30A
330
1F
100
AcDbEntity
  8
Ech.1_2
 62
   252
440
 33554687
370
     5
100
AcDbHatch
 10
0.0
 20
0.0
 30
0.0
210
0.0
220
0.0
230
1.0
  2
SOLID
 70
     1
 71
     1
 91
        1
 92
        3
 72
     0
 73
     1
 93
        4
 10
11433.58949925889
 20
1811.839935278767
 10
11435.65455903467
 20
1811.564593975318
 10
11436.40119219941
 20
1817.164342710921
 10
11434.33613242362
 20
1817.439684014344
 97
        0
 75
     0
 76
     1
 98
        0
  0
LWPOLYLINE
  5
30B
330
1F
100
AcDbEntity
  8
Ech.1_2
 62
     7
370
     9
100
AcDbPolyline
 90
        5
 70
     0
 43
0.0
 10
11433.58949925889
 20
1811.839935278767
 10
11435.65455903467
 20
1811.564593975318
 10
11436.40119219941
 20
1817.164342710921
 10
11434.33613242362
 20
1817.439684014344
 10
11433.58949925889
 20
1811.839935278767
  0
HATCH
  5
30C
330
1F
100
AcDbEntity
  8
Ech.1_2
 62
   252
440
 33554687
370
     5
100
AcDbHatch
 10
0.0
 20
0.0
 30
0.0
210
0.0
220
0.0
230
1.0
  2
SOLID
 70
     1
 71
     1
 91
        1
 92
        3
 72
     0
 73
     1
 93
        4
 10
11435.65455903467
 20
1811.564593975318
 10
11437.71961881046
 20
1811.289252671895
 10
11438.4662519752
 20
1816.889001407471
 10
11436.40119219941
 20
1817.164342710921
 97
        0
 75
     0
 76
     1
 98
        0
  0
LWPOLYLINE
  5
30D
330
1F
100
AcDbEntity
  8
Ech.1_2
 62
     7
370
     9
100
AcDbPolyline
 90
        5
 70
     0
 43
0.0
 10
11435.65455903467
 20
1811.564593975318
 10
11437.71961881046
 20
1811.289252671895
 10
11438.4662519752
 20
1816.889001407471
 10
11436.40119219941
 20
1817.164342710921
 10
11435.65455903467
 20
1811.564593975318
  0
HATCH
  5
30E
330
1F
100
AcDbEntity
  8
Ech.1_2
 62
   252
440
 33554687
370
     5
100
AcDbHatch
 10
0.0
 20
0.0
 30
0.0
210
0.0
220
0.0
230
1.0
  2
SOLID
 70
     1
 71
     1
 91
        1
 92
        3
 72
     0
 73
     1
 93
        4
 10
11437.71961881046
 20
1811.289252671895
 10
11439.78467858626
 20
1811.013911368464
 10
11440.53131175098
 20
1816.61366010404
 10
11438.4662519752
 20
1816.889001407471
 97
        0
 75
     0
 76
     1
 98
        0
  0
LWPOLYLINE
  5
30F
330
1F
100
AcDbEntity
  8
Ech.1_2
 62
     7
370
     9
100
AcDbPolyline
 90
        5
 70
     0
 43
0.0
 10
11437.71961881046
 20
1811.289252671895
 10
11439.78467858626
 20
1811.013911368464
 10
11440.53131175098
 20
1816.61366010404
 10
11438.4662519752
 20
1816.889001407471
 10
11437.71961881046
 20
1811.289252671895
  0
HATCH
  5
310
330
1F
100
AcDbEntity
  8
Ech.1_2
 62
   252
440
 33554687
370
     5
100
AcDbHatch
 10
0.0
 20
0.0
 30
0.0
210
0.0
220
0.0
230
1.0
  2
SOLID
 70
     1
 71
     1
 91
        1
 92
        3
 72
     0
 73
     1
 93
        4
 10
11439.78467858626
 20
1811.013911368464
 10
11441.84973836204
 20
1810.738570065014
 10
11442.59637152678
 20
1816.338318800617
 10
11440.53131175098
 20
1816.61366010404
 97
        0
 75
     0
 76
     1
 98
        0
  0
LWPOLYLINE
  5
311
330
1F
100
AcDbEntity
  8
Ech.1_2
 62
     7
370
     9
100
AcDbPolyline
 90
        5
 70
     0
 43
0.0
 10
11439.78467858626
 20
1811.013911368464
 10
11441.84973836204
 20
1810.738570065014
 10
11442.59637152678
 20
1816.338318800617
 10
11440.53131175098
 20
1816.61366010404
 10
11439.78467858626
 20
1811.013911368464
  0
HATCH
  5
312
330
1F
100
AcDbEntity
  8
Ech.1_2
 62
   252
440
 33554687
370
     5
100
AcDbHatch
 10
0.0
 20
0.0
 30
0.0
210
0.0
220
0.0
230
1.0
  2
SOLID
 70
     1
 71
     1
 91
        1
 92
        3
 72
     0
 73
     1
 93
        4
 10
11441.84973341395
 20
1810.738570724761
 10
11443.91479318973
 20
1810.463229421339
 10
11444.66142635447
 20
1816.062978156915
 10
11442.59636657867
 20
1816.338319460365
 97
        0
 75
     0
 76
     1
 98
        0
  0
LWPOLYLINE
  5
313
330
1F
100
AcDbEntity
  8
Ech.1_2
 62
     7
370
     9
100
AcDbPolyline
 90
        5
 70
     0
 43
0.0
 10
11441.84973341395
 20
1810.738570724761
 10
11443.91479318973
 20
1810.463229421339
 10
11444.66142635447
 20
1816.062978156915
 10
11442.59636657867
 20
1816.338319460365
 10
11441.84973341395
 20
1810.738570724761
  0
HATCH
  5
314
330
1F
100
AcDbEntity
  8
Ech.1_2
 62
   252
440
 33554687
370
     5
100
AcDbHatch
 10
0.0
 20
0.0
 30
0.0
210
0.0
220
0.0
230
1.0
  2
SOLID
 70
     1
 71
     1
 91
        1
 92
        3
 72
     0
 73
     1
 93
        4
 10
11443.91479071568
 20
1810.463229751213
 10
11445.97985049148
 20
1810.187888447781
 10
11446.7264836562
 20
1815.787637183357
 10
11444.66142388042
 20
1816.062978486789
 97
        0
 75
     0
 76
     1
 98
        0
  0
LWPOLYLINE
  5
315
330
1F
100
AcDbEntity
  8
Ech.1_2
 62
     7
370
     9
100
AcDbPolyline
 90
        5
 70
     0
 43
0.0
 10
11443.91479071568
 20
1810.463229751213
 10
11445.97985049148
 20
1810.187888447781
 10
11446.7264836562
 20
1815.787637183357
 10
11444.66142388042
 20
1816.062978486789
 10
11443.91479071568
 20
1810.463229751213
  0
HATCH
  5
316
330
1F
100
AcDbEntity
  8
Ech.1_2
 62
   252
440
 33554687
370
     5
100
AcDbHatch
 10
0.0
 20
0.0
 30
0.0
210
0.0
220
0.0
230
1.0
  2
SOLID
 70
     1
 71
     1
 91
        1
 92
        3
 72
     0
 73
     1
 93
        4
 10
11445.97985049148
 20
1810.187888447781
 10
11448.04491026726
 20
1809.912547144349
 10
11448.791543432
 20
1815.512295879935
 10
11446.7264836562
 20
1815.787637183357
 97
        0
 75
     0
 76
     1
 98
        0
  0
LWPOLYLINE
  5
317
330
1F
100
AcDbEntity
  8
Ech.1_2
 62
     7
370
     9
100
AcDbPolyline
 90
        5
 70
     0
 43
0.0
 10
11445.97985049148
 20
1810.187888447781
 10
11448.04491026726
 20
1809.912547144349
 10
11448.791543432
 20
1815.512295879935
 10
11446.7264836562
 20
1815.787637183357
 10
11445.97985049148
 20
1810.187888447781
  0
HATCH
  5
318
330
1F
100
AcDbEntity
  8
Ech.1_2
 62
   252
440
 33554687
370
     5
100
AcDbHatch
 10
0.0
 20
0.0
 30
0.0
210
0.0
220
0.0
230
1.0
  2
SOLID
 70
     1
 71
     1
 91
        1
 92
        3
 72
     0
 73
     1
 93
        4
 10
11448.04490779321
 20
1809.912547474223
 10
11450.109967569
 20
1809.637206170783
 10
11450.85660073373
 20
1815.236954906359
 10
11448.79154095794
 20
1815.512296209808
 97
        0
 75
     0
 76
     1
 98
        0
  0
LWPOLYLINE
  5
319
330
1F
100
AcDbEntity
  8
Ech.1_2
 62
     7
370
     9
100
AcDbPolyline
 90
        5
 70
     0
 43
0.0
 10
11448.04490779321
 20
1809.912547474223
 10
11450.109967569
 20
1809.637206170783
 10
11450.85660073373
 20
1815.236954906359
 10
11448.79154095794
 20
1815.512296209808
 10
11448.04490779321
 20
1809.912547474223
  0
HATCH
  5
31A
330
1F
100
AcDbEntity
  8
Ech.1_2
 62
   252
440
 33554687
370
     5
100
AcDbHatch
 10
0.0
 20
0.0
 30
0.0
210
0.0
220
0.0
230
1.0
  2
SOLID
 70
     1
 71
     1
 91
        1
 92
        3
 72
     0
 73
     1
 93
        4
 10
11450.109967569
 20
1809.637206170783
 10
11452.17502734479
 20
1809.361864867351
 10
11452.92166050953
 20
1814.961613602927
 10
11450.85660073373
 20
1815.236954906359
 97
        0
 75
     0
 76
     1
 98
        0
  0
LWPOLYLINE
  5
31B
330
1F
100
AcDbEntity
  8
Ech.1_2
 62
     7
370
     9
100
AcDbPolyline
 90
        5
 70
     0
 43
0.0
 10
11450.109967569
 20
1809.637206170783
 10
11452.17502734479
 20
1809.361864867351
 10
11452.92166050953
 20
1814.961613602927
 10
11450.85660073373
 20
1815.236954906359
 10
11450.109967569
 20
1809.637206170783
  0
HATCH
  5
31C
330
1F
100
AcDbEntity
  8
Ech.1_2
 62
   252
440
 33554687
370
     5
100
AcDbHatch
 10
0.0
 20
0.0
 30
0.0
210
0.0
220
0.0
230
1.0
  2
SOLID
 70
     1
 71
     1
 91
        1
 92
        3
 72
     0
 73
     1
 93
        4
 10
11452.17502239669
 20
1809.361865527089
 10
11454.24008217248
 20
1809.086524223667
 10
11454.98671533721
 20
1814.686272959243
 10
11452.92165556142
 20
1814.961614262675
 97
        0
 75
     0
 76
     1
 98
        0
  0
LWPOLYLINE
  5
31D
330
1F
100
AcDbEntity
  8
Ech.1_2
 62
     7
370
     9
100
AcDbPolyline
 90
        5
 70
     0
 43
0.0
 10
11452.17502239669
 20
1809.361865527089
 10
11454.24008217248
 20
1809.086524223667
 10
11454.98671533721
 20
1814.686272959243
 10
11452.92165556142
 20
1814.961614262675
 10
11452.17502239669
 20
1809.361865527089
  0
HATCH
  5
31E
330
1F
100
AcDbEntity
  8
Ech.1_2
 62
   252
440
 33554687
370
     5
100
AcDbHatch
 10
0.0
 20
0.0
 30
0.0
210
0.0
220
0.0
230
1.0
  2
SOLID
 70
     1
 71
     1
 91
        1
 92
        3
 72
     0
 73
     1
 93
        4
 10
11454.24008217248
 20
1809.086524223667
 10
11456.30514194827
 20
1808.811182920226
 10
11457.051775113
 20
1814.410931655812
 10
11454.98671533721
 20
1814.686272959243
 97
        0
 75
     0
 76
     1
 98
        0
  0
LWPOLYLINE
  5
31F
330
1F
100
AcDbEntity
  8
Ech.1_2
 62
     7
370
     9
100
AcDbPolyline
 90
        5
 70
     0
 43
0.0
 10
11454.24008217248
 20
1809.086524223667
 10
11456.30514194827
 20
1808.811182920226
 10
11457.051775113
 20
1814.410931655812
 10
11454.98671533721
 20
1814.686272959243
 10
11454.24008217248
 20
1809.086524223667
  0
HATCH
  5
320
330
1F
100
AcDbEntity
  8
Ech.1_2
 62
   252
440
 33554687
370
     5
100
AcDbHatch
 10
0.0
 20
0.0
 30
0.0
210
0.0
220
0.0
230
1.0
  2
SOLID
 70
     1
 71
     1
 91
        1
 92
        3
 72
     0
 73
     1
 93
        4
 10
11456.30514194827
 20
1808.811182920226
 10
11458.37020172406
 20
1808.535841616795
 10
11459.11683488879
 20
1814.135590352371
 10
11457.051775113
 20
1814.410931655812
 97
        0
 75
     0
 76
     1
 98
        0
  0
LWPOLYLINE
  5
321
330
1F
100
AcDbEntity
  8
Ech.1_2
 62
     7
370
     9
100
AcDbPolyline
 90
        5
 70
     0
 43
0.0
 10
11456.30514194827
 20
1808.811182920226
 10
11458.37020172406
 20
1808.535841616795
 10
11459.11683488879
 20
1814.135590352371
 10
11457.051775113
 20
1814.410931655812
 10
11456.30514194827
 20
1808.811182920226
  0
HATCH
  5
322
330
1F
100
AcDbEntity
  8
Ech.1_2
 62
   252
440
 33554687
370
     5
100
AcDbHatch
 10
0.0
 20
0.0
 30
0.0
210
0.0
220
0.0
230
1.0
  2
SOLID
 70
     1
 71
     1
 91
        1
 92
        3
 72
     0
 73
     1
 93
        4
 10
11458.37020172406
 20
1808.535841616795
 10
11460.43526149985
 20
1808.260500313363
 10
11461.18189466458
 20
1813.860249048948
 10
11459.11683488879
 20
1814.135590352371
 97
        0
 75
     0
 76
     1
 98
        0
  0
LWPOLYLINE
  5
323
330
1F
100
AcDbEntity
  8
Ech.1_2
 62
     7
370
     9
100
AcDbPolyline
 90
        5
 70
     0
 43
0.0
 10
11458.37020172406
 20
1808.535841616795
 10
11460.43526149985
 20
1808.260500313363
 10
11461.18189466458
 20
1813.860249048948
 10
11459.11683488879
 20
1814.135590352371
 10
11458.37020172406
 20
1808.535841616795
  0
HATCH
  5
324
330
1F
100
AcDbEntity
  8
Ech.1_2
 62
   252
440
 33554687
370
     5
100
AcDbHatch
 10
0.0
 20
0.0
 30
0.0
210
0.0
220
0.0
230
1.0
  2
SOLID
 70
     1
 71
     1
 91
        1
 92
        3
 72
     1
 73
     1
 93
        4
 10
11512.43035646178
 20
1807.027120809307
 42
0.0
 10
11508.67824971534
 20
1807.527401708967
 42
0.0
 10
11507.93161655061
 20
1801.927652973382
 42
0.0
 10
11511.68372329706
 20
1801.427372073731
 42
-0.3513591548539232
 97
        0
 75
     0
 76
     1
 98
        0
  0
LWPOLYLINE
  5
325
330
1F
100
AcDbEntity
  8
Ech.1_2
 62
     7
370
     9
100
AcDbPolyline
 90
        5
 70
     0
 43
0.0
 10
11512.43035646178
 20
1807.027120809307
 10
11508.67824971534
 20
1807.527401708967
 10
11507.93161655061
 20
1801.927652973382
 10
11511.68372329706
 20
1801.427372073731
 42
-0.3513591548537405
 10
11512.43035646178
 20
1807.027120809307
  0
HATCH
  5
326
330
1F
100
AcDbEntity
  8
Ech.1_2
 62
   252
440
 33554687
370
     5
100
AcDbHatch
 10
0.0
 20
0.0
 30
0.0
210
0.0
220
0.0
230
1.0
  2
SOLID
 70
     1
 71
     1
 91
        1
 92
        3
 72
     1
 73
     1
 93
        3
 10
11518.65372846978
 20
1803.347687962896
 42
0.0
 10
11512.43035646178
 20
1807.027120809307
 42
0.3513591548539339
 10
11511.68372329706
 20
1801.427372073731
 42
0.0
 97
        0
 75
     0
 76
     1
 98
        0
  0
LWPOLYLINE
  5
327
330
1F
100
AcDbEntity
  8
Ech.1_2
 62
     7
370
     9
100
AcDbPolyline
 90
        4
 70
     0
 43
0.0
 10
11518.65372846978
 20
1803.347687962896
 10
11512.43035646178
 20
1807.027120809307
 42
0.3513591548539557
 10
11511.68372329706
 20
1801.427372073731
 10
11518.65372846978
 20
1803.347687962896
  0
HATCH
  5
328
330
1F
100
AcDbEntity
  8
Ech.1_2
 62
   252
440
 33554687
370
     5
100
AcDbHatch
 10
0.0
 20
0.0
 30
0.0
210
0.0
220
0.0
230
1.0
  2
SOLID
 70
     1
 71
     1
 91
        1
 92
        3
 72
     1
 73
     1
 93
        6
 10
11371.6377554662
 20
1820.100167784321
 42
0.0
 10
11367.30113587403
 20
1820.678383729928
 42
0.4142135727518377
 10
11365.74086848765
 20
1819.485238079951
 42
0.0
 10
11366.85462339077
 20
1827.838399853545
 42
0.4142135726589775
 10
11368.04776903876
 20
1826.278132465504
 42
0.0
 10
11372.38438863094
 20
1825.699916519898
 42
0.0
 97
        0
 75
     0
 76
     1
 98
        0
  0
LWPOLYLINE
  5
329
330
1F
100
AcDbEntity
  8
Ech.1_2
 62
     7
370
     9
100
AcDbPolyline
 90
        7
 70
     0
 43
0.0
 10
11371.6377554662
 20
1820.100167784321
 10
11367.30113587403
 20
1820.678383729928
 42
0.414213572751773
 10
11365.74086848765
 20
1819.485238079951
 10
11366.85462339077
 20
1827.838399853545
 42
0.4142135726569319
 10
11368.04776903876
 20
1826.278132465504
 10
11372.38438863094
 20
1825.699916519898
 10
11371.6377554662
 20
1820.100167784321
  0
HATCH
  5
32A
330
1F
100
AcDbEntity
  8
Ech.1_2
 62
   252
440
 33554687
370
     5
100
AcDbHatch
 10
0.0
 20
0.0
 30
0.0
210
0.0
220
0.0
230
1.0
  2
SOLID
 70
     1
 71
     1
 91
        1
 92
        1
 93
        2
 72
     1
 10
11364.70834090033
 20
1817.521138928196
 11
11366.37277776764
 21
1830.004415433204
 72
     2
 10
11396.6730536414
 20
1819.611777939773
 40
32.03300847713503
 50
161.0686359818396
 51
183.7420772812017
 73
     1
 97
        0
 75
     0
 76
     1
 98
        0
  0
LWPOLYLINE
  5
32B
330
1F
100
AcDbEntity
  8
Ech.1_2
 62
     7
370
     9
100
AcDbPolyline
 90
        3
 70
     0
 43
0.0
 10
11364.70834090033
 20
1817.521138928196
 10
11366.37277776764
 20
1830.004415433204
 42
0.0992555820867348
 10
11364.70834090033
 20
1817.521138928196
  0
HATCH
  5
32C
330
1F
100
AcDbEntity
  8
Ech.1_2
 62
   252
440
 33554687
370
     5
100
AcDbHatch
 10
0.0
 20
0.0
 30
0.0
210
0.0
220
0.0
230
1.0
  2
SOLID
 70
     1
 71
     1
 91
        1
 92
        3
 72
     0
 73
     1
 93
        6
 10
11365.46552751428
 20
1817.420180779654
 10
11365.74086848765
 20
1819.485238079951
 10
11366.85462339077
 20
1827.838399853545
 10
11367.12996436416
 20
1829.903457153823
 10
11366.37277776764
 20
1830.004415433204
 10
11364.70834090033
 20
1817.521138928196
 97
        0
 75
     0
 76
     1
 98
        0
  0
LWPOLYLINE
  5
32D
330
1F
100
AcDbEntity
  8
Ech.1_2
 62
     7
370
     9
100
AcDbPolyline
 90
        7
 70
     0
 43
0.0
 10
11365.46552751428
 20
1817.420180779654
 10
11365.74086848765
 20
1819.485238079951
 10
11366.85462339077
 20
1827.838399853545
 10
11367.12996436416
 20
1829.903457153823
 10
11366.37277776764
 20
1830.004415433204
 10
11364.70834090033
 20
1817.521138928196
 10
11365.46552751428
 20
1817.420180779654
  0
HATCH
  5
32E
330
1F
100
AcDbEntity
  8
Ech.1_2
 62
   252
440
 33554687
370
     5
100
AcDbHatch
 10
0.0
 20
0.0
 30
0.0
210
0.0
220
0.0
230
1.0
  2
SOLID
 70
     1
 71
     1
 91
        1
 92
        3
 72
     0
 73
     1
 93
        4
 10
11460.43526149985
 20
1808.260500313363
 10
11462.50032127564
 20
1807.985159009922
 10
11463.24695444037
 20
1813.584907745517
 10
11461.18189466458
 20
1813.860249048948
 97
        0
 75
     0
 76
     1
 98
        0
  0
LWPOLYLINE
  5
32F
330
1F
100
AcDbEntity
  8
Ech.1_2
 62
     7
370
     9
100
AcDbPolyline
 90
        5
 70
     0
 43
0.0
 10
11460.43526149985
 20
1808.260500313363
 10
11462.50032127564
 20
1807.985159009922
 10
11463.24695444037
 20
1813.584907745517
 10
11461.18189466458
 20
1813.860249048948
 10
11460.43526149985
 20
1808.260500313363
  0
LINE
  5
330
330
1F
100
AcDbEntity
  8
Ech.1_2
 62
   190
370
     9
100
AcDbLine
 10
11465.31200431996
 20
1813.309567761562
 30
0.0
 11
11464.56537115523
 21
1807.709819025977
 31
0.0
  0
LINE
  5
331
330
1F
100
AcDbEntity
  8
Ech.1_2
 62
   190
370
     9
100
AcDbLine
 10
11463.24694949227
 20
1813.584908405255
 30
0.0
 11
11462.50031632754
 21
1807.985159669661
 31
0.0
  0
HATCH
  5
332
330
1F
100
AcDbEntity
  8
Ech.1_2
 62
   252
440
 33554687
370
     5
100
AcDbHatch
 10
0.0
 20
0.0
 30
0.0
210
0.0
220
0.0
230
1.0
  2
SOLID
 70
     1
 71
     1
 91
        1
 92
        3
 72
     0
 73
     1
 93
        4
 10
11462.50031137944
 20
1807.985160329408
 10
11464.56537115523
 20
1807.709819025977
 10
11465.31200431996
 20
1813.309567761562
 10
11463.24694454417
 20
1813.584909065003
 97
        0
 75
     0
 76
     1
 98
        0
  0
LWPOLYLINE
  5
333
330
1F
100
AcDbEntity
  8
Ech.1_2
 62
     7
370
     9
100
AcDbPolyline
 90
        5
 70
     0
 43
0.0
 10
11462.50031137944
 20
1807.985160329408
 10
11464.56537115523
 20
1807.709819025977
 10
11465.31200431996
 20
1813.309567761562
 10
11463.24694454417
 20
1813.584909065003
 10
11462.50031137944
 20
1807.985160329408
  0
HATCH
  5
334
330
1F
100
AcDbEntity
  8
Ech.1_2
 62
   252
440
 33554687
370
     5
100
AcDbHatch
 10
0.0
 20
0.0
 30
0.0
210
0.0
220
0.0
230
1.0
  2
SOLID
 70
     1
 71
     1
 91
        1
 92
        3
 72
     0
 73
     1
 93
        4
 10
11464.56537115523
 20
1807.709819025977
 10
11466.63043093102
 20
1807.434477722554
 10
11467.37706409575
 20
1813.03422645813
 10
11465.31200431996
 20
1813.30956776158
 97
        0
 75
     0
 76
     1
 98
        0
  0
LWPOLYLINE
  5
335
330
1F
100
AcDbEntity
  8
Ech.1_2
 62
     7
370
     9
100
AcDbPolyline
 90
        5
 70
     0
 43
0.0
 10
11464.56537115523
 20
1807.709819025977
 10
11466.63043093102
 20
1807.434477722554
 10
11467.37706409575
 20
1813.03422645813
 10
11465.31200431996
 20
1813.30956776158
 10
11464.56537115523
 20
1807.709819025977
  0
HATCH
  5
336
330
1F
100
AcDbEntity
  8
Ech.1_2
 62
   252
440
 33554687
370
     5
100
AcDbHatch
 10
0.0
 20
0.0
 30
0.0
210
0.0
220
0.0
230
1.0
  2
SOLID
 70
     1
 71
     1
 91
        1
 92
        3
 72
     0
 73
     1
 93
        4
 10
11466.63043093102
 20
1807.434477722554
 10
11468.6954907068
 20
1807.159136419123
 10
11469.44212387154
 20
1812.758885154699
 10
11467.37706409575
 20
1813.03422645813
 97
        0
 75
     0
 76
     1
 98
        0
  0
LWPOLYLINE
  5
337
330
1F
100
AcDbEntity
  8
Ech.1_2
 62
     7
370
     9
100
AcDbPolyline
 90
        5
 70
     0
 43
0.0
 10
11466.63043093102
 20
1807.434477722554
 10
11468.6954907068
 20
1807.159136419123
 10
11469.44212387154
 20
1812.758885154699
 10
11467.37706409575
 20
1813.03422645813
 10
11466.63043093102
 20
1807.434477722554
  0
HATCH
  5
338
330
1F
100
AcDbEntity
  8
Ech.1_2
 62
   252
440
 33554687
370
     5
100
AcDbHatch
 10
0.0
 20
0.0
 30
0.0
210
0.0
220
0.0
230
1.0
  2
SOLID
 70
     1
 71
     1
 91
        1
 92
        3
 72
     0
 73
     1
 93
        4
 10
11468.6954907068
 20
1807.159136419123
 10
11470.7605504826
 20
1806.883795115691
 10
11471.50718364733
 20
1812.483543851276
 10
11469.44212387154
 20
1812.758885154699
 97
        0
 75
     0
 76
     1
 98
        0
  0
LWPOLYLINE
  5
339
330
1F
100
AcDbEntity
  8
Ech.1_2
 62
     7
370
     9
100
AcDbPolyline
 90
        5
 70
     0
 43
0.0
 10
11468.6954907068
 20
1807.159136419123
 10
11470.7605504826
 20
1806.883795115691
 10
11471.50718364733
 20
1812.483543851276
 10
11469.44212387154
 20
1812.758885154699
 10
11468.6954907068
 20
1807.159136419123
  0
HATCH
  5
33A
330
1F
100
AcDbEntity
  8
Ech.1_2
 62
   252
440
 33554687
370
     5
100
AcDbHatch
 10
0.0
 20
0.0
 30
0.0
210
0.0
220
0.0
230
1.0
  2
SOLID
 70
     1
 71
     1
 91
        1
 92
        3
 72
     0
 73
     1
 93
        4
 10
11470.7605504826
 20
1806.883795115691
 10
11472.82561025839
 20
1806.60845381225
 10
11473.57224342311
 20
1812.208202547827
 10
11471.50718364733
 20
1812.483543851276
 97
        0
 75
     0
 76
     1
 98
        0
  0
LWPOLYLINE
  5
33B
330
1F
100
AcDbEntity
  8
Ech.1_2
 62
     7
370
     9
100
AcDbPolyline
 90
        5
 70
     0
 43
0.0
 10
11470.7605504826
 20
1806.883795115691
 10
11472.82561025839
 20
1806.60845381225
 10
11473.57224342311
 20
1812.208202547827
 10
11471.50718364733
 20
1812.483543851276
 10
11470.7605504826
 20
1806.883795115691
  0
HATCH
  5
33C
330
1F
100
AcDbEntity
  8
Ech.1_2
 62
   252
440
 33554687
370
     5
100
AcDbHatch
 10
0.0
 20
0.0
 30
0.0
210
0.0
220
0.0
230
1.0
  2
SOLID
 70
     1
 71
     1
 91
        1
 92
        3
 72
     0
 73
     1
 93
        4
 10
11472.82561025839
 20
1806.60845381225
 10
11474.89067003417
 20
1806.333112508819
 10
11475.63730319891
 20
1811.932861244395
 10
11473.57224342311
 20
1812.208202547827
 97
        0
 75
     0
 76
     1
 98
        0
  0
LWPOLYLINE
  5
33D
330
1F
100
AcDbEntity
  8
Ech.1_2
 62
     7
370
     9
100
AcDbPolyline
 90
        5
 70
     0
 43
0.0
 10
11472.82561025839
 20
1806.60845381225
 10
11474.89067003417
 20
1806.333112508819
 10
11475.63730319891
 20
1811.932861244395
 10
11473.57224342311
 20
1812.208202547827
 10
11472.82561025839
 20
1806.60845381225
  0
HATCH
  5
33E
330
1F
100
AcDbEntity
  8
Ech.1_2
 62
   252
440
 33554687
370
     5
100
AcDbHatch
 10
0.0
 20
0.0
 30
0.0
210
0.0
220
0.0
230
1.0
  2
SOLID
 70
     1
 71
     1
 91
        1
 92
        3
 72
     0
 73
     1
 93
        4
 10
11474.89067003417
 20
1806.333112508819
 10
11476.95572980996
 20
1806.057771205387
 10
11477.7023629747
 20
1811.657519940973
 10
11475.63730319891
 20
1811.932861244395
 97
        0
 75
     0
 76
     1
 98
        0
  0
LWPOLYLINE
  5
33F
330
1F
100
AcDbEntity
  8
Ech.1_2
 62
     7
370
     9
100
AcDbPolyline
 90
        5
 70
     0
 43
0.0
 10
11474.89067003417
 20
1806.333112508819
 10
11476.95572980996
 20
1806.057771205387
 10
11477.7023629747
 20
1811.657519940973
 10
11475.63730319891
 20
1811.932861244395
 10
11474.89067003417
 20
1806.333112508819
  0
HATCH
  5
340
330
1F
100
AcDbEntity
  8
Ech.1_2
 62
   252
440
 33554687
370
     5
100
AcDbHatch
 10
0.0
 20
0.0
 30
0.0
210
0.0
220
0.0
230
1.0
  2
SOLID
 70
     1
 71
     1
 91
        1
 92
        3
 72
     0
 73
     1
 93
        4
 10
11476.95572980996
 20
1806.057771205387
 10
11479.02078958576
 20
1805.782429901947
 10
11479.76742275049
 20
1811.382178637523
 10
11477.7023629747
 20
1811.657519940973
 97
        0
 75
     0
 76
     1
 98
        0
  0
LWPOLYLINE
  5
341
330
1F
100
AcDbEntity
  8
Ech.1_2
 62
     7
370
     9
100
AcDbPolyline
 90
        5
 70
     0
 43
0.0
 10
11476.95572980996
 20
1806.057771205387
 10
11479.02078958576
 20
1805.782429901947
 10
11479.76742275049
 20
1811.382178637523
 10
11477.7023629747
 20
1811.657519940973
 10
11476.95572980996
 20
1806.057771205387
  0
HATCH
  5
342
330
1F
100
AcDbEntity
  8
Ech.1_2
 62
   252
440
 33554687
370
     5
100
AcDbHatch
 10
0.0
 20
0.0
 30
0.0
210
0.0
220
0.0
230
1.0
  2
SOLID
 70
     1
 71
     1
 91
        1
 92
        3
 72
     0
 73
     1
 93
        4
 10
11479.02078958576
 20
1805.782429901947
 10
11481.08584936155
 20
1805.507088598524
 10
11481.83248252628
 20
1811.106837334091
 10
11479.76742275049
 20
1811.382178637523
 97
        0
 75
     0
 76
     1
 98
        0
  0
LWPOLYLINE
  5
343
330
1F
100
AcDbEntity
  8
Ech.1_2
 62
     7
370
     9
100
AcDbPolyline
 90
        5
 70
     0
 43
0.0
 10
11479.02078958576
 20
1805.782429901947
 10
11481.08584936155
 20
1805.507088598524
 10
11481.83248252628
 20
1811.106837334091
 10
11479.76742275049
 20
1811.382178637523
 10
11479.02078958576
 20
1805.782429901947
  0
HATCH
  5
344
330
1F
100
AcDbEntity
  8
Ech.1_2
 62
   252
440
 33554687
370
     5
100
AcDbHatch
 10
0.0
 20
0.0
 30
0.0
210
0.0
220
0.0
230
1.0
  2
SOLID
 70
     1
 71
     1
 91
        1
 92
        3
 72
     0
 73
     1
 93
        4
 10
11481.08584936155
 20
1805.507088598524
 10
11483.15090913733
 20
1805.231747295093
 10
11483.89754230207
 20
1810.831496030669
 10
11481.83248252628
 20
1811.106837334091
 97
        0
 75
     0
 76
     1
 98
        0
  0
LWPOLYLINE
  5
345
330
1F
100
AcDbEntity
  8
Ech.1_2
 62
     7
370
     9
100
AcDbPolyline
 90
        5
 70
     0
 43
0.0
 10
11481.08584936155
 20
1805.507088598524
 10
11483.15090913733
 20
1805.231747295093
 10
11483.89754230207
 20
1810.831496030669
 10
11481.83248252628
 20
1811.106837334091
 10
11481.08584936155
 20
1805.507088598524
  0
LINE
  5
346
330
1F
100
AcDbEntity
  8
Ech.1_2
 62
   190
370
     9
100
AcDbLine
 10
11485.96259712976
 20
1810.556155386985
 30
0.0
 11
11485.21596396502
 21
1804.956406651409
 31
0.0
  0
HATCH
  5
347
330
1F
100
AcDbEntity
  8
Ech.1_2
 62
   252
440
 33554687
370
     5
100
AcDbHatch
 10
0.0
 20
0.0
 30
0.0
210
0.0
220
0.0
230
1.0
  2
SOLID
 70
     1
 71
     1
 91
        1
 92
        3
 72
     0
 73
     1
 93
        4
 10
11483.15090913733
 20
1805.231747295093
 10
11485.21596891312
 20
1804.956405991661
 10
11485.96260207786
 20
1810.556154727237
 10
11483.89754230207
 20
1810.831496030669
 97
        0
 75
     0
 76
     1
 98
        0
  0
LWPOLYLINE
  5
348
330
1F
100
AcDbEntity
  8
Ech.1_2
 62
     7
370
     9
100
AcDbPolyline
 90
        5
 70
     0
 43
0.0
 10
11483.15090913733
 20
1805.231747295093
 10
11485.21596891312
 20
1804.956405991661
 10
11485.96260207786
 20
1810.556154727237
 10
11483.89754230207
 20
1810.831496030669
 10
11483.15090913733
 20
1805.231747295093
  0
HATCH
  5
349
330
1F
100
AcDbEntity
  8
Ech.1_2
 62
   252
440
 33554687
370
     5
100
AcDbHatch
 10
0.0
 20
0.0
 30
0.0
210
0.0
220
0.0
230
1.0
  2
SOLID
 70
     1
 71
     1
 91
        1
 92
        3
 72
     0
 73
     1
 93
        4
 10
11485.21596891312
 20
1804.956405991661
 10
11487.28102868891
 20
1804.68106468822
 10
11488.02766185365
 20
1810.280813423806
 10
11485.96260207786
 20
1810.556154727237
 97
        0
 75
     0
 76
     1
 98
        0
  0
LWPOLYLINE
  5
34A
330
1F
100
AcDbEntity
  8
Ech.1_2
 62
     7
370
     9
100
AcDbPolyline
 90
        5
 70
     0
 43
0.0
 10
11485.21596891312
 20
1804.956405991661
 10
11487.28102868891
 20
1804.68106468822
 10
11488.02766185365
 20
1810.280813423806
 10
11485.96260207786
 20
1810.556154727237
 10
11485.21596891312
 20
1804.956405991661
  0
LINE
  5
34B
330
1F
100
AcDbEntity
  8
Ech.1_2
 62
   190
370
     9
100
AcDbLine
 10
11490.09271173323
 20
1810.00547343986
 30
0.0
 11
11489.34607856851
 21
1804.405724704275
 31
0.0
  0
LINE
  5
34C
330
1F
100
AcDbEntity
  8
Ech.1_2
 62
   190
370
     9
100
AcDbLine
 10
11488.02765690554
 20
1810.280814083553
 30
0.0
 11
11487.28102374082
 21
1804.681065347959
 31
0.0
  0
HATCH
  5
34D
330
1F
100
AcDbEntity
  8
Ech.1_2
 62
   252
440
 33554687
370
     5
100
AcDbHatch
 10
0.0
 20
0.0
 30
0.0
210
0.0
220
0.0
230
1.0
  2
SOLID
 70
     1
 71
     1
 91
        1
 92
        3
 72
     0
 73
     1
 93
        4
 10
11487.28101879271
 20
1804.681066007706
 10
11489.34607856851
 20
1804.405724704275
 10
11490.09271173323
 20
1810.00547343986
 10
11488.02765195745
 20
1810.280814743301
 97
        0
 75
     0
 76
     1
 98
        0
  0
LWPOLYLINE
  5
34E
330
1F
100
AcDbEntity
  8
Ech.1_2
 62
     7
370
     9
100
AcDbPolyline
 90
        5
 70
     0
 43
0.0
 10
11487.28101879271
 20
1804.681066007706
 10
11489.34607856851
 20
1804.405724704275
 10
11490.09271173323
 20
1810.00547343986
 10
11488.02765195745
 20
1810.280814743301
 10
11487.28101879271
 20
1804.681066007706
  0
HATCH
  5
34F
330
1F
100
AcDbEntity
  8
Ech.1_2
 62
   252
440
 33554687
370
     5
100
AcDbHatch
 10
0.0
 20
0.0
 30
0.0
210
0.0
220
0.0
230
1.0
  2
SOLID
 70
     1
 71
     1
 91
        1
 92
        3
 72
     0
 73
     1
 93
        4
 10
11489.34607856851
 20
1804.405724704275
 10
11491.41113834429
 20
1804.130383400852
 10
11492.15777150903
 20
1809.730132136428
 10
11490.09271173323
 20
1810.005473439878
 97
        0
 75
     0
 76
     1
 98
        0
  0
LWPOLYLINE
  5
350
330
1F
100
AcDbEntity
  8
Ech.1_2
 62
     7
370
     9
100
AcDbPolyline
 90
        5
 70
     0
 43
0.0
 10
11489.34607856851
 20
1804.405724704275
 10
11491.41113834429
 20
1804.130383400852
 10
11492.15777150903
 20
1809.730132136428
 10
11490.09271173323
 20
1810.005473439878
 10
11489.34607856851
 20
1804.405724704275
  0
HATCH
  5
351
330
1F
100
AcDbEntity
  8
Ech.1_2
 62
   252
440
 33554687
370
     5
100
AcDbHatch
 10
0.0
 20
0.0
 30
0.0
210
0.0
220
0.0
230
1.0
  2
SOLID
 70
     1
 71
     1
 91
        1
 92
        3
 72
     0
 73
     1
 93
        4
 10
11491.41113834429
 20
1804.130383400852
 10
11493.47619812008
 20
1803.855042097421
 10
11494.22283128481
 20
1809.454790832997
 10
11492.15777150903
 20
1809.730132136428
 97
        0
 75
     0
 76
     1
 98
        0
  0
LWPOLYLINE
  5
352
330
1F
100
AcDbEntity
  8
Ech.1_2
 62
     7
370
     9
100
AcDbPolyline
 90
        5
 70
     0
 43
0.0
 10
11491.41113834429
 20
1804.130383400852
 10
11493.47619812008
 20
1803.855042097421
 10
11494.22283128481
 20
1809.454790832997
 10
11492.15777150903
 20
1809.730132136428
 10
11491.41113834429
 20
1804.130383400852
  0
HATCH
  5
353
330
1F
100
AcDbEntity
  8
Ech.1_2
 62
   252
440
 33554687
370
     5
100
AcDbHatch
 10
0.0
 20
0.0
 30
0.0
210
0.0
220
0.0
230
1.0
  2
SOLID
 70
     1
 71
     1
 91
        1
 92
        3
 72
     0
 73
     1
 93
        4
 10
11493.47619812008
 20
1803.855042097421
 10
11495.54125789587
 20
1803.579700793989
 10
11496.2878910606
 20
1809.179449529574
 10
11494.22283128481
 20
1809.454790832997
 97
        0
 75
     0
 76
     1
 98
        0
  0
LWPOLYLINE
  5
354
330
1F
100
AcDbEntity
  8
Ech.1_2
 62
     7
370
     9
100
AcDbPolyline
 90
        5
 70
     0
 43
0.0
 10
11493.47619812008
 20
1803.855042097421
 10
11495.54125789587
 20
1803.579700793989
 10
11496.2878910606
 20
1809.179449529574
 10
11494.22283128481
 20
1809.454790832997
 10
11493.47619812008
 20
1803.855042097421
  0
HATCH
  5
355
330
1F
100
AcDbEntity
  8
Ech.1_2
 62
   252
440
 33554687
370
     5
100
AcDbHatch
 10
0.0
 20
0.0
 30
0.0
210
0.0
220
0.0
230
1.0
  2
SOLID
 70
     1
 71
     1
 91
        1
 92
        3
 72
     0
 73
     1
 93
        4
 10
11495.54125789587
 20
1803.579700793989
 10
11497.60631767166
 20
1803.304359490548
 10
11498.35295083639
 20
1808.904108226125
 10
11496.2878910606
 20
1809.179449529574
 97
        0
 75
     0
 76
     1
 98
        0
  0
LWPOLYLINE
  5
356
330
1F
100
AcDbEntity
  8
Ech.1_2
 62
     7
370
     9
100
AcDbPolyline
 90
        5
 70
     0
 43
0.0
 10
11495.54125789587
 20
1803.579700793989
 10
11497.60631767166
 20
1803.304359490548
 10
11498.35295083639
 20
1808.904108226125
 10
11496.2878910606
 20
1809.179449529574
 10
11495.54125789587
 20
1803.579700793989
  0
HATCH
  5
357
330
1F
100
AcDbEntity
  8
Ech.1_2
 62
   252
440
 33554687
370
     5
100
AcDbHatch
 10
0.0
 20
0.0
 30
0.0
210
0.0
220
0.0
230
1.0
  2
SOLID
 70
     1
 71
     1
 91
        1
 92
        3
 72
     0
 73
     1
 93
        4
 10
11497.60631767166
 20
1803.304359490548
 10
11499.67137744745
 20
1803.029018187117
 10
11500.41801061218
 20
1808.628766922693
 10
11498.35295083639
 20
1808.904108226125
 97
        0
 75
     0
 76
     1
 98
        0
  0
LWPOLYLINE
  5
358
330
1F
100
AcDbEntity
  8
Ech.1_2
 62
     7
370
     9
100
AcDbPolyline
 90
        5
 70
     0
 43
0.0
 10
11497.60631767166
 20
1803.304359490548
 10
11499.67137744745
 20
1803.029018187117
 10
11500.41801061218
 20
1808.628766922693
 10
11498.35295083639
 20
1808.904108226125
 10
11497.60631767166
 20
1803.304359490548
  0
HATCH
  5
359
330
1F
100
AcDbEntity
  8
Ech.1_2
 62
   252
440
 33554687
370
     5
100
AcDbHatch
 10
0.0
 20
0.0
 30
0.0
210
0.0
220
0.0
230
1.0
  2
SOLID
 70
     1
 71
     1
 91
        1
 92
        3
 72
     0
 73
     1
 93
        4
 10
11499.67137744745
 20
1803.029018187117
 10
11501.73643722324
 20
1802.753676883685
 10
11502.48307038797
 20
1808.353425619271
 10
11500.41801061218
 20
1808.628766922693
 97
        0
 75
     0
 76
     1
 98
        0
  0
LWPOLYLINE
  5
35A
330
1F
100
AcDbEntity
  8
Ech.1_2
 62
     7
370
     9
100
AcDbPolyline
 90
        5
 70
     0
 43
0.0
 10
11499.67137744745
 20
1803.029018187117
 10
11501.73643722324
 20
1802.753676883685
 10
11502.48307038797
 20
1808.353425619271
 10
11500.41801061218
 20
1808.628766922693
 10
11499.67137744745
 20
1803.029018187117
  0
HATCH
  5
35B
330
1F
100
AcDbEntity
  8
Ech.1_2
 62
   252
440
 33554687
370
     5
100
AcDbHatch
 10
0.0
 20
0.0
 30
0.0
210
0.0
220
0.0
230
1.0
  2
SOLID
 70
     1
 71
     1
 91
        1
 92
        3
 72
     0
 73
     1
 93
        4
 10
11501.73643722324
 20
1802.753676883685
 10
11503.80149699903
 20
1802.478335580245
 10
11504.54813016376
 20
1808.078084315821
 10
11502.48307038797
 20
1808.353425619271
 97
        0
 75
     0
 76
     1
 98
        0
  0
LWPOLYLINE
  5
35C
330
1F
100
AcDbEntity
  8
Ech.1_2
 62
     7
370
     9
100
AcDbPolyline
 90
        5
 70
     0
 43
0.0
 10
11501.73643722324
 20
1802.753676883685
 10
11503.80149699903
 20
1802.478335580245
 10
11504.54813016376
 20
1808.078084315821
 10
11502.48307038797
 20
1808.353425619271
 10
11501.73643722324
 20
1802.753676883685
  0
HATCH
  5
35D
330
1F
100
AcDbEntity
  8
Ech.1_2
 62
   252
440
 33554687
370
     5
100
AcDbHatch
 10
0.0
 20
0.0
 30
0.0
210
0.0
220
0.0
230
1.0
  2
SOLID
 70
     1
 71
     1
 91
        1
 92
        3
 72
     0
 73
     1
 93
        4
 10
11503.80149699903
 20
1802.478335580245
 10
11505.86655677482
 20
1802.202994276813
 10
11506.61318993955
 20
1807.802743012389
 10
11504.54813016376
 20
1808.078084315821
 97
        0
 75
     0
 76
     1
 98
        0
  0
LWPOLYLINE
  5
35E
330
1F
100
AcDbEntity
  8
Ech.1_2
 62
     7
370
     9
100
AcDbPolyline
 90
        5
 70
     0
 43
0.0
 10
11503.80149699903
 20
1802.478335580245
 10
11505.86655677482
 20
1802.202994276813
 10
11506.61318993955
 20
1807.802743012389
 10
11504.54813016376
 20
1808.078084315821
 10
11503.80149699903
 20
1802.478335580245
  0
HATCH
  5
35F
330
1F
100
AcDbEntity
  8
Ech.1_2
 62
   252
440
 33554687
370
     5
100
AcDbHatch
 10
0.0
 20
0.0
 30
0.0
210
0.0
220
0.0
230
1.0
  2
SOLID
 70
     1
 71
     1
 91
        1
 92
        3
 72
     0
 73
     1
 93
        4
 10
11505.86655677482
 20
1802.202994276813
 10
11507.93161655061
 20
1801.927652973382
 10
11508.67824971534
 20
1807.527401708967
 10
11506.61318993955
 20
1807.802743012389
 97
        0
 75
     0
 76
     1
 98
        0
  0
LWPOLYLINE
  5
360
330
1F
100
AcDbEntity
  8
Ech.1_2
 62
     7
370
     9
100
AcDbPolyline
 90
        5
 70
     0
 43
0.0
 10
11505.86655677482
 20
1802.202994276813
 10
11507.93161655061
 20
1801.927652973382
 10
11508.67824971534
 20
1807.527401708967
 10
11506.61318993955
 20
1807.802743012389
 10
11505.86655677482
 20
1802.202994276813
  0
LINE
  5
361
330
1F
100
AcDbEntity
  8
Ech.1_2
 62
   190
370
     9
100
AcDbLine
 10
11387.25193307465
 20
1986.935611175877
 30
0.0
 11
11385.58749622479
 21
1974.452334801708
 31
0.0
  0
LINE
  5
362
330
1F
100
AcDbEntity
  8
Ech.1_2
 62
   190
370
     9
100
AcDbLine
 10
11386.34468283001
 20
1974.351376587674
 30
0.0
 11
11385.58749622479
 21
1974.452334801708
 31
0.0
  0
LINE
  5
363
330
1F
100
AcDbEntity
  8
Ech.1_2
 62
   190
370
     9
100
AcDbLine
 10
11533.30951145162
 20
1963.958316306025
 30
0.0
 11
11414.60775140122
 21
1979.78521800057
 31
0.0
  0
LINE
  5
364
330
1F
100
AcDbEntity
  8
Ech.1_2
 62
   190
370
     9
100
AcDbLine
 10
11532.56287855661
 20
1958.358567460436
 30
0.0
 11
11413.86111823649
 21
1974.185469264985
 31
0.0
  0
ARC
  5
365
330
1F
100
AcDbEntity
  8
Ech.1_2
 62
   190
370
     9
100
AcDbCircle
 10
11417.55220895695
 20
1976.542973747814
 30
0.0
 40
32.03300847694837
100
AcDbArc
 50
161.0686359817832
 51
183.7420772812629
  0
LINE
  5
366
330
1F
100
AcDbEntity
  8
Ech.1_2
 62
   190
370
     9
100
AcDbLine
 10
11388.00911967989
 20
1986.834652961843
 30
0.0
 11
11387.73377870651
 21
1984.769595661564
 31
0.0
  0
ARC
  5
367
330
1F
100
AcDbEntity
  8
Ech.1_2
 62
   190
370
     9
100
AcDbCircle
 10
11389.11048519711
 20
1984.586034770579
 30
0.0
 40
1.388889974755694
100
AcDbArc
 50
172.4053555857677
 51
262.405357598609
  0
LINE
  5
368
330
1F
100
AcDbEntity
  8
Ech.1_2
 62
   190
370
     9
100
AcDbLine
 10
11387.73377870651
 20
1984.769595661564
 30
0.0
 11
11386.62002380338
 21
1976.416433887971
 31
0.0
  0
ARC
  5
369
330
1F
100
AcDbEntity
  8
Ech.1_2
 62
   190
370
     9
100
AcDbCircle
 10
11387.99673030042
 20
1976.232873047402
 30
0.0
 40
1.388889974469647
100
AcDbArc
 50
82.40535565261216
 51
172.4053576824283
  0
LINE
  5
36A
330
1F
100
AcDbEntity
  8
Ech.1_2
 62
   190
370
     9
100
AcDbLine
 10
11386.34468283001
 20
1974.351376587674
 30
0.0
 11
11386.62002380338
 21
1976.416433887971
 31
0.0
  0
LINE
  5
36B
330
1F
100
AcDbEntity
  8
Ech.1_2
 62
   190
370
     9
100
AcDbLine
 10
11413.91412686026
 20
1979.877701272817
 30
0.0
 11
11413.16749369553
 21
1974.277952537241
 31
0.0
  0
LINE
  5
36C
330
1F
100
AcDbEntity
  8
Ech.1_2
 62
   190
370
     9
100
AcDbLine
 10
11415.97918416201
 20
1979.602360299241
 30
0.0
 11
11415.23255099727
 21
1974.002611563665
 31
0.0
  0
LINE
  5
36D
330
1F
100
AcDbEntity
  8
Ech.1_2
 62
   190
370
     9
100
AcDbLine
 10
11407.71895248099
 20
1980.703724523373
 30
0.0
 11
11406.97231931626
 21
1975.103975787779
 31
0.0
  0
LINE
  5
36E
330
1F
100
AcDbEntity
  8
Ech.1_2
 62
   190
370
     9
100
AcDbLine
 10
11409.78400978273
 20
1980.428383549797
 30
0.0
 11
11409.037376618
 21
1974.828634814221
 31
0.0
  0
LINE
  5
36F
330
1F
100
AcDbEntity
  8
Ech.1_2
 62
   190
370
     9
100
AcDbLine
 10
11411.84906708448
 20
1980.153042576248
 30
0.0
 11
11411.10243391974
 21
1974.553293840663
 31
0.0
  0
LINE
  5
370
330
1F
100
AcDbEntity
  8
Ech.1_2
 62
   190
370
     9
100
AcDbLine
 10
11401.52377810173
 20
1981.52974777393
 30
0.0
 11
11400.77714493699
 21
1975.929999038335
 31
0.0
  0
LINE
  5
371
330
1F
100
AcDbEntity
  8
Ech.1_2
 62
   190
370
     9
100
AcDbLine
 10
11403.58883540346
 20
1981.254406800354
 30
0.0
 11
11402.84220223873
 21
1975.654658064777
 31
0.0
  0
LINE
  5
372
330
1F
100
AcDbEntity
  8
Ech.1_2
 62
   190
370
     9
100
AcDbLine
 10
11405.6538927052
 20
1980.979065826805
 30
0.0
 11
11404.90725954047
 21
1975.379317091219
 31
0.0
  0
LINE
  5
373
330
1F
100
AcDbEntity
  8
Ech.1_2
 62
   190
370
     9
100
AcDbLine
 10
11399.45871832593
 20
1981.805089077361
 30
0.0
 11
11398.71208516121
 21
1976.205340341776
 31
0.0
  0
LINE
  5
374
330
1F
100
AcDbEntity
  8
Ech.1_2
 62
   190
370
     9
100
AcDbLine
 10
11397.3936610242
 20
1982.08043005091
 30
0.0
 11
11396.64702785946
 21
1976.480681315334
 31
0.0
  0
LINE
  5
375
330
1F
100
AcDbEntity
  8
Ech.1_2
 62
   190
370
     9
100
AcDbLine
 10
11395.32860372246
 20
1982.355771024468
 30
0.0
 11
11394.58197055772
 21
1976.756022288891
 31
0.0
  0
LINE
  5
376
330
1F
100
AcDbEntity
  8
Ech.1_2
 62
   190
370
     9
100
AcDbLine
 10
11393.26354394667
 20
1982.631112327917
 30
0.0
 11
11392.51691078194
 21
1977.031363592332
 31
0.0
  0
LINE
  5
377
330
1F
100
AcDbEntity
  8
Ech.1_2
 62
   190
370
     9
100
AcDbLine
 10
11479.99598525642
 20
1971.066786820129
 30
0.0
 11
11479.24935209169
 21
1965.467038084553
 31
0.0
  0
LINE
  5
378
330
1F
100
AcDbEntity
  8
Ech.1_2
 62
   190
370
     9
100
AcDbLine
 10
11477.93092795469
 20
1971.342127793705
 30
0.0
 11
11477.18429478995
 21
1965.742379058111
 31
0.0
  0
LINE
  5
379
330
1F
100
AcDbEntity
  8
Ech.1_2
 62
   190
370
     9
100
AcDbLine
 10
11482.06104503221
 20
1970.791445516707
 30
0.0
 11
11481.31441186748
 21
1965.191696781121
 31
0.0
  0
LINE
  5
37A
330
1F
100
AcDbEntity
  8
Ech.1_2
 62
   190
370
     9
100
AcDbLine
 10
11471.73575357541
 20
1972.168151044243
 30
0.0
 11
11470.98912041069
 21
1966.568402308667
 31
0.0
  0
LINE
  5
37B
330
1F
100
AcDbEntity
  8
Ech.1_2
 62
   190
370
     9
100
AcDbLine
 10
11473.80081087716
 20
1971.892810070685
 30
0.0
 11
11473.05417771242
 21
1966.293061335109
 31
0.0
  0
LINE
  5
37C
330
1F
100
AcDbEntity
  8
Ech.1_2
 62
   190
370
     9
100
AcDbLine
 10
11475.86587065294
 20
1971.617468767263
 30
0.0
 11
11475.11923748822
 21
1966.017720031678
 31
0.0
  0
LINE
  5
37D
330
1F
100
AcDbEntity
  8
Ech.1_2
 62
   190
370
     9
100
AcDbLine
 10
11465.54057919615
 20
1972.994174294799
 30
0.0
 11
11464.79394603142
 21
1967.394425559223
 31
0.0
  0
LINE
  5
37E
330
1F
100
AcDbEntity
  8
Ech.1_2
 62
   190
370
     9
100
AcDbLine
 10
11467.60563649789
 20
1972.718833321242
 30
0.0
 11
11466.85900333316
 21
1967.119084585665
 31
0.0
  0
LINE
  5
37F
330
1F
100
AcDbEntity
  8
Ech.1_2
 62
   190
370
     9
100
AcDbLine
 10
11469.67069627368
 20
1972.443492017819
 30
0.0
 11
11468.92406310895
 21
1966.843743282234
 31
0.0
  0
LINE
  5
380
330
1F
100
AcDbEntity
  8
Ech.1_2
 62
   190
370
     9
100
AcDbLine
 10
11459.34540481689
 20
1973.820197545365
 30
0.0
 11
11458.59877165215
 21
1968.22044880978
 31
0.0
  0
LINE
  5
381
330
1F
100
AcDbEntity
  8
Ech.1_2
 62
   190
370
     9
100
AcDbLine
 10
11461.41046211862
 20
1973.544856571798
 30
0.0
 11
11460.66382895389
 21
1967.945107836231
 31
0.0
  0
LINE
  5
382
330
1F
100
AcDbEntity
  8
Ech.1_2
 62
   190
370
     9
100
AcDbLine
 10
11463.47552189441
 20
1973.269515268375
 30
0.0
 11
11462.72888872967
 21
1967.669766532781
 31
0.0
  0
LINE
  5
383
330
1F
100
AcDbEntity
  8
Ech.1_2
 62
   190
370
     9
100
AcDbLine
 10
11457.28034751514
 20
1974.095538518932
 30
0.0
 11
11456.53371435041
 21
1968.495789783337
 31
0.0
  0
LINE
  5
384
330
1F
100
AcDbEntity
  8
Ech.1_2
 62
   190
370
     9
100
AcDbLine
 10
11424.23941584301
 20
1978.500996075127
 30
0.0
 11
11423.49278267828
 21
1972.901247339551
 31
0.0
  0
LINE
  5
385
330
1F
100
AcDbEntity
  8
Ech.1_2
 62
   190
370
     9
100
AcDbLine
 10
11426.3044756188
 20
1978.225654771695
 30
0.0
 11
11425.55784245407
 21
1972.625906036128
 31
0.0
  0
LINE
  5
386
330
1F
100
AcDbEntity
  8
Ech.1_2
 62
   190
370
     9
100
AcDbLine
 10
11428.36953292054
 20
1977.950313798146
 30
0.0
 11
11427.62289975581
 21
1972.350565062543
 31
0.0
  0
LINE
  5
387
330
1F
100
AcDbEntity
  8
Ech.1_2
 62
   190
370
     9
100
AcDbLine
 10
11430.43459022228
 20
1977.67497282457
 30
0.0
 11
11429.68795705754
 21
1972.075224088994
 31
0.0
  0
LINE
  5
388
330
1F
100
AcDbEntity
  8
Ech.1_2
 62
   190
370
     9
100
AcDbLine
 10
11388.00911967989
 20
1986.834652961843
 30
0.0
 11
11387.25193307465
 21
1986.935611175877
 31
0.0
  0
LINE
  5
389
330
1F
100
AcDbEntity
  8
Ech.1_2
 62
   190
370
     9
100
AcDbLine
 10
11436.62976460155
 20
1976.848949574014
 30
0.0
 11
11435.88313143681
 21
1971.249200838438
 31
0.0
  0
LINE
  5
38A
330
1F
100
AcDbEntity
  8
Ech.1_2
 62
   190
370
     9
100
AcDbLine
 10
11434.56470729981
 20
1977.12429054759
 30
0.0
 11
11433.81807413507
 21
1971.524541812005
 31
0.0
  0
LINE
  5
38B
330
1F
100
AcDbEntity
  8
Ech.1_2
 62
   190
370
     9
100
AcDbLine
 10
11432.49964999807
 20
1977.399631521139
 30
0.0
 11
11431.75301683334
 21
1971.799882785563
 31
0.0
  0
LINE
  5
38C
330
1F
100
AcDbEntity
  8
Ech.1_2
 62
   190
370
     9
100
AcDbLine
 10
11442.82493898081
 20
1976.022926323476
 30
0.0
 11
11442.07830581609
 21
1970.423177587882
 31
0.0
  0
LINE
  5
38D
330
1F
100
AcDbEntity
  8
Ech.1_2
 62
   190
370
     9
100
AcDbLine
 10
11440.75988167908
 20
1976.298267297034
 30
0.0
 11
11440.01324851434
 21
1970.698518561449
 31
0.0
  0
LINE
  5
38E
330
1F
100
AcDbEntity
  8
Ech.1_2
 62
   190
370
     9
100
AcDbLine
 10
11438.69482437733
 20
1976.573608270583
 30
0.0
 11
11437.9481912126
 21
1970.973859535006
 31
0.0
  0
LINE
  5
38F
330
1F
100
AcDbEntity
  8
Ech.1_2
 62
   190
370
     9
100
AcDbLine
 10
11449.02011336008
 20
1975.19690307292
 30
0.0
 11
11448.27348019535
 21
1969.597154337343
 31
0.0
  0
LINE
  5
390
330
1F
100
AcDbEntity
  8
Ech.1_2
 62
   190
370
     9
100
AcDbLine
 10
11446.95505605834
 20
1975.472244046477
 30
0.0
 11
11446.20842289361
 21
1969.872495310892
 31
0.0
  0
LINE
  5
391
330
1F
100
AcDbEntity
  8
Ech.1_2
 62
   190
370
     9
100
AcDbLine
 10
11444.88999875661
 20
1975.747585020026
 30
0.0
 11
11444.14336559187
 21
1970.14783628445
 31
0.0
  0
LINE
  5
392
330
1F
100
AcDbEntity
  8
Ech.1_2
 62
   190
370
     9
100
AcDbLine
 10
11455.21528773936
 20
1974.370879822363
 30
0.0
 11
11454.46865457462
 21
1968.771131086787
 31
0.0
  0
LINE
  5
393
330
1F
100
AcDbEntity
  8
Ech.1_2
 62
   190
370
     9
100
AcDbLine
 10
11453.15023043761
 20
1974.646220795921
 30
0.0
 11
11452.40359727288
 21
1969.046472060336
 31
0.0
  0
LINE
  5
394
330
1F
100
AcDbEntity
  8
Ech.1_2
 62
   190
370
     9
100
AcDbLine
 10
11451.08517313587
 20
1974.92156176947
 30
0.0
 11
11450.33853997114
 21
1969.321813033894
 31
0.0
  0
LINE
  5
395
330
1F
100
AcDbEntity
  8
Ech.1_2
 62
   190
370
     9
100
AcDbLine
 10
11420.10930123953
 20
1979.051678022261
 30
0.0
 11
11419.3626680748
 21
1973.451929286684
 31
0.0
  0
LINE
  5
396
330
1F
100
AcDbEntity
  8
Ech.1_2
 62
   190
370
     9
100
AcDbLine
 10
11422.17435854127
 20
1978.776337048703
 30
0.0
 11
11421.42772537654
 21
1973.176588313108
 31
0.0
  0
LINE
  5
397
330
1F
100
AcDbEntity
  8
Ech.1_2
 62
   190
370
     9
100
AcDbLine
 10
11424.23941584301
 20
1978.500996075127
 30
0.0
 11
11423.49278267828
 21
1972.901247339551
 31
0.0
  0
LINE
  5
398
330
1F
100
AcDbEntity
  8
Ech.1_2
 62
   190
370
     9
100
AcDbLine
 10
11418.04424146374
 20
1979.327019325692
 30
0.0
 11
11417.29760829901
 21
1973.727270590107
 31
0.0
  0
LINE
  5
399
330
1F
100
AcDbEntity
  8
Ech.1_2
 62
   190
370
     9
100
AcDbLine
 10
11539.53288378551
 20
1960.278883770916
 30
0.0
 11
11533.30951177752
 21
1963.958316617327
 31
0.0
  0
ARC
  5
39A
330
1F
100
AcDbEntity
  8
Ech.1_2
 62
   190
370
     9
100
AcDbCircle
 10
11536.42866581719
 20
1960.692779285539
 30
0.0
 40
4.515844991640189
100
AcDbArc
 50
133.6865965455457
 51
211.1241167175289
  0
LINE
  5
39B
330
1F
100
AcDbEntity
  8
Ech.1_2
 62
   190
370
     9
100
AcDbLine
 10
11539.53288378551
 20
1960.278883770916
 30
0.0
 11
11532.56287861279
 21
1958.358567881742
 31
0.0
  0
HATCH
  5
39C
330
1F
100
AcDbEntity
  8
Ech.1_2
 62
   252
440
 33554687
370
     5
100
AcDbHatch
 10
0.0
 20
0.0
 30
0.0
210
0.0
220
0.0
230
1.0
  2
SOLID
 70
     1
 71
     1
 91
        1
 92
        3
 72
     0
 73
     1
 93
        4
 10
11392.51691078194
 20
1977.031363592332
 10
11394.58197055772
 20
1976.756022288891
 10
11395.32860372246
 20
1982.355771024468
 10
11393.26354394667
 20
1982.631112327917
 97
        0
 75
     0
 76
     1
 98
        0
  0
LWPOLYLINE
  5
39D
330
1F
100
AcDbEntity
  8
Ech.1_2
 62
     7
370
     9
100
AcDbPolyline
 90
        5
 70
     0
 43
0.0
 10
11392.51691078194
 20
1977.031363592332
 10
11394.58197055772
 20
1976.756022288891
 10
11395.32860372246
 20
1982.355771024468
 10
11393.26354394667
 20
1982.631112327917
 10
11392.51691078194
 20
1977.031363592332
  0
HATCH
  5
39E
330
1F
100
AcDbEntity
  8
Ech.1_2
 62
   252
440
 33554687
370
     5
100
AcDbHatch
 10
0.0
 20
0.0
 30
0.0
210
0.0
220
0.0
230
1.0
  2
SOLID
 70
     1
 71
     1
 91
        1
 92
        3
 72
     0
 73
     1
 93
        4
 10
11394.58197055772
 20
1976.756022288891
 10
11396.64703033352
 20
1976.48068098546
 10
11397.39366349825
 20
1982.080429721036
 10
11395.32860372246
 20
1982.355771024468
 97
        0
 75
     0
 76
     1
 98
        0
  0
LWPOLYLINE
  5
39F
330
1F
100
AcDbEntity
  8
Ech.1_2
 62
     7
370
     9
100
AcDbPolyline
 90
        5
 70
     0
 43
0.0
 10
11394.58197055772
 20
1976.756022288891
 10
11396.64703033352
 20
1976.48068098546
 10
11397.39366349825
 20
1982.080429721036
 10
11395.32860372246
 20
1982.355771024468
 10
11394.58197055772
 20
1976.756022288891
  0
HATCH
  5
3A0
330
1F
100
AcDbEntity
  8
Ech.1_2
 62
   252
440
 33554687
370
     5
100
AcDbHatch
 10
0.0
 20
0.0
 30
0.0
210
0.0
220
0.0
230
1.0
  2
SOLID
 70
     1
 71
     1
 91
        1
 92
        3
 72
     0
 73
     1
 93
        4
 10
11396.64703033352
 20
1976.48068098546
 10
11398.71209010931
 20
1976.205339682028
 10
11399.45872327404
 20
1981.805088417614
 10
11397.39366349825
 20
1982.080429721036
 97
        0
 75
     0
 76
     1
 98
        0
  0
LWPOLYLINE
  5
3A1
330
1F
100
AcDbEntity
  8
Ech.1_2
 62
     7
370
     9
100
AcDbPolyline
 90
        5
 70
     0
 43
0.0
 10
11396.64703033352
 20
1976.48068098546
 10
11398.71209010931
 20
1976.205339682028
 10
11399.45872327404
 20
1981.805088417614
 10
11397.39366349825
 20
1982.080429721036
 10
11396.64703033352
 20
1976.48068098546
  0
HATCH
  5
3A2
330
1F
100
AcDbEntity
  8
Ech.1_2
 62
   252
440
 33554687
370
     5
100
AcDbHatch
 10
0.0
 20
0.0
 30
0.0
210
0.0
220
0.0
230
1.0
  2
SOLID
 70
     1
 71
     1
 91
        1
 92
        3
 72
     0
 73
     1
 93
        4
 10
11398.71209010931
 20
1976.205339682028
 10
11400.7771498851
 20
1975.929998378588
 10
11401.52378304982
 20
1981.529747114164
 10
11399.45872327404
 20
1981.805088417614
 97
        0
 75
     0
 76
     1
 98
        0
  0
LWPOLYLINE
  5
3A3
330
1F
100
AcDbEntity
  8
Ech.1_2
 62
     7
370
     9
100
AcDbPolyline
 90
        5
 70
     0
 43
0.0
 10
11398.71209010931
 20
1976.205339682028
 10
11400.7771498851
 20
1975.929998378588
 10
11401.52378304982
 20
1981.529747114164
 10
11399.45872327404
 20
1981.805088417614
 10
11398.71209010931
 20
1976.205339682028
  0
HATCH
  5
3A4
330
1F
100
AcDbEntity
  8
Ech.1_2
 62
   252
440
 33554687
370
     5
100
AcDbHatch
 10
0.0
 20
0.0
 30
0.0
210
0.0
220
0.0
230
1.0
  2
SOLID
 70
     1
 71
     1
 91
        1
 92
        3
 72
     0
 73
     1
 93
        4
 10
11400.77714493699
 20
1975.929999038335
 10
11402.84220471278
 20
1975.654657734904
 10
11403.58883787752
 20
1981.25440647048
 10
11401.52377810173
 20
1981.52974777393
 97
        0
 75
     0
 76
     1
 98
        0
  0
LWPOLYLINE
  5
3A5
330
1F
100
AcDbEntity
  8
Ech.1_2
 62
     7
370
     9
100
AcDbPolyline
 90
        5
 70
     0
 43
0.0
 10
11400.77714493699
 20
1975.929999038335
 10
11402.84220471278
 20
1975.654657734904
 10
11403.58883787752
 20
1981.25440647048
 10
11401.52377810173
 20
1981.52974777393
 10
11400.77714493699
 20
1975.929999038335
  0
HATCH
  5
3A6
330
1F
100
AcDbEntity
  8
Ech.1_2
 62
   252
440
 33554687
370
     5
100
AcDbHatch
 10
0.0
 20
0.0
 30
0.0
210
0.0
220
0.0
230
1.0
  2
SOLID
 70
     1
 71
     1
 91
        1
 92
        3
 72
     0
 73
     1
 93
        4
 10
11402.84220223873
 20
1975.654658064777
 10
11404.90726201452
 20
1975.379316761346
 10
11405.65389517926
 20
1980.979065496931
 10
11403.58883540346
 20
1981.254406800354
 97
        0
 75
     0
 76
     1
 98
        0
  0
LWPOLYLINE
  5
3A7
330
1F
100
AcDbEntity
  8
Ech.1_2
 62
     7
370
     9
100
AcDbPolyline
 90
        5
 70
     0
 43
0.0
 10
11402.84220223873
 20
1975.654658064777
 10
11404.90726201452
 20
1975.379316761346
 10
11405.65389517926
 20
1980.979065496931
 10
11403.58883540346
 20
1981.254406800354
 10
11402.84220223873
 20
1975.654658064777
  0
HATCH
  5
3A8
330
1F
100
AcDbEntity
  8
Ech.1_2
 62
   252
440
 33554687
370
     5
100
AcDbHatch
 10
0.0
 20
0.0
 30
0.0
210
0.0
220
0.0
230
1.0
  2
SOLID
 70
     1
 71
     1
 91
        1
 92
        3
 72
     0
 73
     1
 93
        4
 10
11404.90726201452
 20
1975.379316761346
 10
11406.97232179031
 20
1975.103975457905
 10
11407.71895495504
 20
1980.7037241935
 10
11405.65389517926
 20
1980.979065496931
 97
        0
 75
     0
 76
     1
 98
        0
  0
LWPOLYLINE
  5
3A9
330
1F
100
AcDbEntity
  8
Ech.1_2
 62
     7
370
     9
100
AcDbPolyline
 90
        5
 70
     0
 43
0.0
 10
11404.90726201452
 20
1975.379316761346
 10
11406.97232179031
 20
1975.103975457905
 10
11407.71895495504
 20
1980.7037241935
 10
11405.65389517926
 20
1980.979065496931
 10
11404.90726201452
 20
1975.379316761346
  0
HATCH
  5
3AA
330
1F
100
AcDbEntity
  8
Ech.1_2
 62
   252
440
 33554687
370
     5
100
AcDbHatch
 10
0.0
 20
0.0
 30
0.0
210
0.0
220
0.0
230
1.0
  2
SOLID
 70
     1
 71
     1
 91
        1
 92
        3
 72
     0
 73
     1
 93
        4
 10
11406.97231931626
 20
1975.103975787779
 10
11409.03737909205
 20
1974.828634484347
 10
11409.78401225679
 20
1980.428383219923
 10
11407.71895248099
 20
1980.703724523373
 97
        0
 75
     0
 76
     1
 98
        0
  0
LWPOLYLINE
  5
3AB
330
1F
100
AcDbEntity
  8
Ech.1_2
 62
     7
370
     9
100
AcDbPolyline
 90
        5
 70
     0
 43
0.0
 10
11406.97231931626
 20
1975.103975787779
 10
11409.03737909205
 20
1974.828634484347
 10
11409.78401225679
 20
1980.428383219923
 10
11407.71895248099
 20
1980.703724523373
 10
11406.97231931626
 20
1975.103975787779
  0
HATCH
  5
3AC
330
1F
100
AcDbEntity
  8
Ech.1_2
 62
   252
440
 33554687
370
     5
100
AcDbHatch
 10
0.0
 20
0.0
 30
0.0
210
0.0
220
0.0
230
1.0
  2
SOLID
 70
     1
 71
     1
 91
        1
 92
        3
 72
     0
 73
     1
 93
        4
 10
11409.03737909205
 20
1974.828634484347
 10
11411.10243886784
 20
1974.553293180916
 10
11411.84907203257
 20
1980.153041916501
 10
11409.78401225679
 20
1980.428383219923
 97
        0
 75
     0
 76
     1
 98
        0
  0
LWPOLYLINE
  5
3AD
330
1F
100
AcDbEntity
  8
Ech.1_2
 62
     7
370
     9
100
AcDbPolyline
 90
        5
 70
     0
 43
0.0
 10
11409.03737909205
 20
1974.828634484347
 10
11411.10243886784
 20
1974.553293180916
 10
11411.84907203257
 20
1980.153041916501
 10
11409.78401225679
 20
1980.428383219923
 10
11409.03737909205
 20
1974.828634484347
  0
HATCH
  5
3AE
330
1F
100
AcDbEntity
  8
Ech.1_2
 62
   252
440
 33554687
370
     5
100
AcDbHatch
 10
0.0
 20
0.0
 30
0.0
210
0.0
220
0.0
230
1.0
  2
SOLID
 70
     1
 71
     1
 91
        1
 92
        3
 72
     0
 73
     1
 93
        4
 10
11411.10243391974
 20
1974.553293840663
 10
11413.16749369553
 20
1974.277952537241
 10
11413.91412686026
 20
1979.877701272817
 10
11411.84906708448
 20
1980.153042576248
 97
        0
 75
     0
 76
     1
 98
        0
  0
LWPOLYLINE
  5
3AF
330
1F
100
AcDbEntity
  8
Ech.1_2
 62
     7
370
     9
100
AcDbPolyline
 90
        5
 70
     0
 43
0.0
 10
11411.10243391974
 20
1974.553293840663
 10
11413.16749369553
 20
1974.277952537241
 10
11413.91412686026
 20
1979.877701272817
 10
11411.84906708448
 20
1980.153042576248
 10
11411.10243391974
 20
1974.553293840663
  0
HATCH
  5
3B0
330
1F
100
AcDbEntity
  8
Ech.1_2
 62
   252
440
 33554687
370
     5
100
AcDbHatch
 10
0.0
 20
0.0
 30
0.0
210
0.0
220
0.0
230
1.0
  2
SOLID
 70
     1
 71
     1
 91
        1
 92
        3
 72
     0
 73
     1
 93
        4
 10
11413.16749369553
 20
1974.277952537241
 10
11415.23255347132
 20
1974.002611233791
 10
11415.97918663605
 20
1979.602359969367
 10
11413.91412686026
 20
1979.877701272817
 97
        0
 75
     0
 76
     1
 98
        0
  0
LWPOLYLINE
  5
3B1
330
1F
100
AcDbEntity
  8
Ech.1_2
 62
     7
370
     9
100
AcDbPolyline
 90
        5
 70
     0
 43
0.0
 10
11413.16749369553
 20
1974.277952537241
 10
11415.23255347132
 20
1974.002611233791
 10
11415.97918663605
 20
1979.602359969367
 10
11413.91412686026
 20
1979.877701272817
 10
11413.16749369553
 20
1974.277952537241
  0
HATCH
  5
3B2
330
1F
100
AcDbEntity
  8
Ech.1_2
 62
   252
440
 33554687
370
     5
100
AcDbHatch
 10
0.0
 20
0.0
 30
0.0
210
0.0
220
0.0
230
1.0
  2
SOLID
 70
     1
 71
     1
 91
        1
 92
        3
 72
     0
 73
     1
 93
        4
 10
11415.23255347132
 20
1974.002611233791
 10
11417.29761324711
 20
1973.727269930359
 10
11418.04424641184
 20
1979.327018665945
 10
11415.97918663605
 20
1979.602359969367
 97
        0
 75
     0
 76
     1
 98
        0
  0
LWPOLYLINE
  5
3B3
330
1F
100
AcDbEntity
  8
Ech.1_2
 62
     7
370
     9
100
AcDbPolyline
 90
        5
 70
     0
 43
0.0
 10
11415.23255347132
 20
1974.002611233791
 10
11417.29761324711
 20
1973.727269930359
 10
11418.04424641184
 20
1979.327018665945
 10
11415.97918663605
 20
1979.602359969367
 10
11415.23255347132
 20
1974.002611233791
  0
HATCH
  5
3B4
330
1F
100
AcDbEntity
  8
Ech.1_2
 62
   252
440
 33554687
370
     5
100
AcDbHatch
 10
0.0
 20
0.0
 30
0.0
210
0.0
220
0.0
230
1.0
  2
SOLID
 70
     1
 71
     1
 91
        1
 92
        3
 72
     0
 73
     1
 93
        4
 10
11417.29761324711
 20
1973.727269930359
 10
11419.3626730229
 20
1973.451928626937
 10
11420.10930618763
 20
1979.051677362513
 10
11418.04424641184
 20
1979.327018665945
 97
        0
 75
     0
 76
     1
 98
        0
  0
LWPOLYLINE
  5
3B5
330
1F
100
AcDbEntity
  8
Ech.1_2
 62
     7
370
     9
100
AcDbPolyline
 90
        5
 70
     0
 43
0.0
 10
11417.29761324711
 20
1973.727269930359
 10
11419.3626730229
 20
1973.451928626937
 10
11420.10930618763
 20
1979.051677362513
 10
11418.04424641184
 20
1979.327018665945
 10
11417.29761324711
 20
1973.727269930359
  0
HATCH
  5
3B6
330
1F
100
AcDbEntity
  8
Ech.1_2
 62
   252
440
 33554687
370
     5
100
AcDbHatch
 10
0.0
 20
0.0
 30
0.0
210
0.0
220
0.0
230
1.0
  2
SOLID
 70
     1
 71
     1
 91
        1
 92
        3
 72
     0
 73
     1
 93
        4
 10
11419.3626730229
 20
1973.451928626937
 10
11421.42773279868
 20
1973.176587323487
 10
11422.17436596342
 20
1978.776336059082
 10
11420.10930618763
 20
1979.051677362513
 97
        0
 75
     0
 76
     1
 98
        0
  0
LWPOLYLINE
  5
3B7
330
1F
100
AcDbEntity
  8
Ech.1_2
 62
     7
370
     9
100
AcDbPolyline
 90
        5
 70
     0
 43
0.0
 10
11419.3626730229
 20
1973.451928626937
 10
11421.42773279868
 20
1973.176587323487
 10
11422.17436596342
 20
1978.776336059082
 10
11420.10930618763
 20
1979.051677362513
 10
11419.3626730229
 20
1973.451928626937
  0
HATCH
  5
3B8
330
1F
100
AcDbEntity
  8
Ech.1_2
 62
   252
440
 33554687
370
     5
100
AcDbHatch
 10
0.0
 20
0.0
 30
0.0
210
0.0
220
0.0
230
1.0
  2
SOLID
 70
     1
 71
     1
 91
        1
 92
        3
 72
     0
 73
     1
 93
        4
 10
11421.42772785059
 20
1973.176587983235
 10
11423.49278762638
 20
1972.901246679803
 10
11424.23942079111
 20
1978.500995415388
 10
11422.17436101532
 20
1978.776336718829
 97
        0
 75
     0
 76
     1
 98
        0
  0
LWPOLYLINE
  5
3B9
330
1F
100
AcDbEntity
  8
Ech.1_2
 62
     7
370
     9
100
AcDbPolyline
 90
        5
 70
     0
 43
0.0
 10
11421.42772785059
 20
1973.176587983235
 10
11423.49278762638
 20
1972.901246679803
 10
11424.23942079111
 20
1978.500995415388
 10
11422.17436101532
 20
1978.776336718829
 10
11421.42772785059
 20
1973.176587983235
  0
HATCH
  5
3BA
330
1F
100
AcDbEntity
  8
Ech.1_2
 62
   252
440
 33554687
370
     5
100
AcDbHatch
 10
0.0
 20
0.0
 30
0.0
210
0.0
220
0.0
230
1.0
  2
SOLID
 70
     1
 71
     1
 91
        1
 92
        3
 72
     0
 73
     1
 93
        4
 10
11423.49278515233
 20
1972.901247009677
 10
11425.55784492812
 20
1972.625905706254
 10
11426.30447809285
 20
1978.225654441831
 10
11424.23941831706
 20
1978.500995745262
 97
        0
 75
     0
 76
     1
 98
        0
  0
LWPOLYLINE
  5
3BB
330
1F
100
AcDbEntity
  8
Ech.1_2
 62
     7
370
     9
100
AcDbPolyline
 90
        5
 70
     0
 43
0.0
 10
11423.49278515233
 20
1972.901247009677
 10
11425.55784492812
 20
1972.625905706254
 10
11426.30447809285
 20
1978.225654441831
 10
11424.23941831706
 20
1978.500995745262
 10
11423.49278515233
 20
1972.901247009677
  0
HATCH
  5
3BC
330
1F
100
AcDbEntity
  8
Ech.1_2
 62
   252
440
 33554687
370
     5
100
AcDbHatch
 10
0.0
 20
0.0
 30
0.0
210
0.0
220
0.0
230
1.0
  2
SOLID
 70
     1
 71
     1
 91
        1
 92
        3
 72
     0
 73
     1
 93
        4
 10
11425.55784492812
 20
1972.625905706254
 10
11427.6229047039
 20
1972.350564402805
 10
11428.36953786864
 20
1977.950313138399
 10
11426.30447809285
 20
1978.225654441831
 97
        0
 75
     0
 76
     1
 98
        0
  0
LWPOLYLINE
  5
3BD
330
1F
100
AcDbEntity
  8
Ech.1_2
 62
     7
370
     9
100
AcDbPolyline
 90
        5
 70
     0
 43
0.0
 10
11425.55784492812
 20
1972.625905706254
 10
11427.6229047039
 20
1972.350564402805
 10
11428.36953786864
 20
1977.950313138399
 10
11426.30447809285
 20
1978.225654441831
 10
11425.55784492812
 20
1972.625905706254
  0
HATCH
  5
3BE
330
1F
100
AcDbEntity
  8
Ech.1_2
 62
   252
440
 33554687
370
     5
100
AcDbHatch
 10
0.0
 20
0.0
 30
0.0
210
0.0
220
0.0
230
1.0
  2
SOLID
 70
     1
 71
     1
 91
        1
 92
        3
 72
     0
 73
     1
 93
        4
 10
11427.62290222986
 20
1972.350564732678
 10
11429.68796200565
 20
1972.075223429247
 10
11430.43459517038
 20
1977.674972164832
 10
11428.36953539459
 20
1977.950313468273
 97
        0
 75
     0
 76
     1
 98
        0
  0
LWPOLYLINE
  5
3BF
330
1F
100
AcDbEntity
  8
Ech.1_2
 62
     7
370
     9
100
AcDbPolyline
 90
        5
 70
     0
 43
0.0
 10
11427.62290222986
 20
1972.350564732678
 10
11429.68796200565
 20
1972.075223429247
 10
11430.43459517038
 20
1977.674972164832
 10
11428.36953539459
 20
1977.950313468273
 10
11427.62290222986
 20
1972.350564732678
  0
HATCH
  5
3C0
330
1F
100
AcDbEntity
  8
Ech.1_2
 62
   252
440
 33554687
370
     5
100
AcDbHatch
 10
0.0
 20
0.0
 30
0.0
210
0.0
220
0.0
230
1.0
  2
SOLID
 70
     1
 71
     1
 91
        1
 92
        3
 72
     0
 73
     1
 93
        4
 10
11429.68796200565
 20
1972.075223429247
 10
11431.75302178143
 20
1971.799882125824
 10
11432.49965494617
 20
1977.399630861401
 10
11430.43459517038
 20
1977.674972164832
 97
        0
 75
     0
 76
     1
 98
        0
  0
LWPOLYLINE
  5
3C1
330
1F
100
AcDbEntity
  8
Ech.1_2
 62
     7
370
     9
100
AcDbPolyline
 90
        5
 70
     0
 43
0.0
 10
11429.68796200565
 20
1972.075223429247
 10
11431.75302178143
 20
1971.799882125824
 10
11432.49965494617
 20
1977.399630861401
 10
11430.43459517038
 20
1977.674972164832
 10
11429.68796200565
 20
1972.075223429247
  0
HATCH
  5
3C2
330
1F
100
AcDbEntity
  8
Ech.1_2
 62
   252
440
 33554687
370
     5
100
AcDbHatch
 10
0.0
 20
0.0
 30
0.0
210
0.0
220
0.0
230
1.0
  2
SOLID
 70
     1
 71
     1
 91
        1
 92
        3
 72
     0
 73
     1
 93
        4
 10
11431.75301683334
 20
1971.799882785563
 10
11433.81807660913
 20
1971.524541482131
 10
11434.56470977385
 20
1977.124290217716
 10
11432.49964999807
 20
1977.399631521139
 97
        0
 75
     0
 76
     1
 98
        0
  0
LWPOLYLINE
  5
3C3
330
1F
100
AcDbEntity
  8
Ech.1_2
 62
     7
370
     9
100
AcDbPolyline
 90
        5
 70
     0
 43
0.0
 10
11431.75301683334
 20
1971.799882785563
 10
11433.81807660913
 20
1971.524541482131
 10
11434.56470977385
 20
1977.124290217716
 10
11432.49964999807
 20
1977.399631521139
 10
11431.75301683334
 20
1971.799882785563
  0
HATCH
  5
3C4
330
1F
100
AcDbEntity
  8
Ech.1_2
 62
   252
440
 33554687
370
     5
100
AcDbHatch
 10
0.0
 20
0.0
 30
0.0
210
0.0
220
0.0
230
1.0
  2
SOLID
 70
     1
 71
     1
 91
        1
 92
        3
 72
     0
 73
     1
 93
        4
 10
11433.81807660913
 20
1971.524541482131
 10
11435.88313638491
 20
1971.24920017869
 10
11436.62976954965
 20
1976.848948914267
 10
11434.56470977385
 20
1977.124290217716
 97
        0
 75
     0
 76
     1
 98
        0
  0
LWPOLYLINE
  5
3C5
330
1F
100
AcDbEntity
  8
Ech.1_2
 62
     7
370
     9
100
AcDbPolyline
 90
        5
 70
     0
 43
0.0
 10
11433.81807660913
 20
1971.524541482131
 10
11435.88313638491
 20
1971.24920017869
 10
11436.62976954965
 20
1976.848948914267
 10
11434.56470977385
 20
1977.124290217716
 10
11433.81807660913
 20
1971.524541482131
  0
HATCH
  5
3C6
330
1F
100
AcDbEntity
  8
Ech.1_2
 62
   252
440
 33554687
370
     5
100
AcDbHatch
 10
0.0
 20
0.0
 30
0.0
210
0.0
220
0.0
230
1.0
  2
SOLID
 70
     1
 71
     1
 91
        1
 92
        3
 72
     0
 73
     1
 93
        4
 10
11435.88313638491
 20
1971.24920017869
 10
11437.94819616071
 20
1970.973858875268
 10
11438.69482932544
 20
1976.573607610835
 10
11436.62976954965
 20
1976.848948914267
 97
        0
 75
     0
 76
     1
 98
        0
  0
LWPOLYLINE
  5
3C7
330
1F
100
AcDbEntity
  8
Ech.1_2
 62
     7
370
     9
100
AcDbPolyline
 90
        5
 70
     0
 43
0.0
 10
11435.88313638491
 20
1971.24920017869
 10
11437.94819616071
 20
1970.973858875268
 10
11438.69482932544
 20
1976.573607610835
 10
11436.62976954965
 20
1976.848948914267
 10
11435.88313638491
 20
1971.24920017869
  0
HATCH
  5
3C8
330
1F
100
AcDbEntity
  8
Ech.1_2
 62
   252
440
 33554687
370
     5
100
AcDbHatch
 10
0.0
 20
0.0
 30
0.0
210
0.0
220
0.0
230
1.0
  2
SOLID
 70
     1
 71
     1
 91
        1
 92
        3
 72
     0
 73
     1
 93
        4
 10
11437.94819616071
 20
1970.973858875268
 10
11440.01325593649
 20
1970.698517571836
 10
11440.75988910123
 20
1976.298266307413
 10
11438.69482932544
 20
1976.573607610835
 97
        0
 75
     0
 76
     1
 98
        0
  0
LWPOLYLINE
  5
3C9
330
1F
100
AcDbEntity
  8
Ech.1_2
 62
     7
370
     9
100
AcDbPolyline
 90
        5
 70
     0
 43
0.0
 10
11437.94819616071
 20
1970.973858875268
 10
11440.01325593649
 20
1970.698517571836
 10
11440.75988910123
 20
1976.298266307413
 10
11438.69482932544
 20
1976.573607610835
 10
11437.94819616071
 20
1970.973858875268
  0
HATCH
  5
3CA
330
1F
100
AcDbEntity
  8
Ech.1_2
 62
   252
440
 33554687
370
     5
100
AcDbHatch
 10
0.0
 20
0.0
 30
0.0
210
0.0
220
0.0
230
1.0
  2
SOLID
 70
     1
 71
     1
 91
        1
 92
        3
 72
     0
 73
     1
 93
        4
 10
11440.01325593649
 20
1970.698517571836
 10
11442.07831571228
 20
1970.423176268387
 10
11442.82494887701
 20
1976.02292500399
 10
11440.75988910123
 20
1976.298266307413
 97
        0
 75
     0
 76
     1
 98
        0
  0
LWPOLYLINE
  5
3CB
330
1F
100
AcDbEntity
  8
Ech.1_2
 62
     7
370
     9
100
AcDbPolyline
 90
        5
 70
     0
 43
0.0
 10
11440.01325593649
 20
1970.698517571836
 10
11442.07831571228
 20
1970.423176268387
 10
11442.82494887701
 20
1976.02292500399
 10
11440.75988910123
 20
1976.298266307413
 10
11440.01325593649
 20
1970.698517571836
  0
HATCH
  5
3CC
330
1F
100
AcDbEntity
  8
Ech.1_2
 62
   252
440
 33554687
370
     5
100
AcDbHatch
 10
0.0
 20
0.0
 30
0.0
210
0.0
220
0.0
230
1.0
  2
SOLID
 70
     1
 71
     1
 91
        1
 92
        3
 72
     0
 73
     1
 93
        4
 10
11442.07831076419
 20
1970.423176928134
 10
11444.14337053997
 20
1970.147835624703
 10
11444.8900037047
 20
1975.747584360279
 10
11442.82494392891
 20
1976.022925663729
 97
        0
 75
     0
 76
     1
 98
        0
  0
LWPOLYLINE
  5
3CD
330
1F
100
AcDbEntity
  8
Ech.1_2
 62
     7
370
     9
100
AcDbPolyline
 90
        5
 70
     0
 43
0.0
 10
11442.07831076419
 20
1970.423176928134
 10
11444.14337053997
 20
1970.147835624703
 10
11444.8900037047
 20
1975.747584360279
 10
11442.82494392891
 20
1976.022925663729
 10
11442.07831076419
 20
1970.423176928134
  0
HATCH
  5
3CE
330
1F
100
AcDbEntity
  8
Ech.1_2
 62
   252
440
 33554687
370
     5
100
AcDbHatch
 10
0.0
 20
0.0
 30
0.0
210
0.0
220
0.0
230
1.0
  2
SOLID
 70
     1
 71
     1
 91
        1
 92
        3
 72
     0
 73
     1
 93
        4
 10
11444.14336806592
 20
1970.147835954576
 10
11446.20842784171
 20
1969.872494651145
 10
11446.95506100644
 20
1975.47224338673
 10
11444.89000123065
 20
1975.747584690153
 97
        0
 75
     0
 76
     1
 98
        0
  0
LWPOLYLINE
  5
3CF
330
1F
100
AcDbEntity
  8
Ech.1_2
 62
     7
370
     9
100
AcDbPolyline
 90
        5
 70
     0
 43
0.0
 10
11444.14336806592
 20
1970.147835954576
 10
11446.20842784171
 20
1969.872494651145
 10
11446.95506100644
 20
1975.47224338673
 10
11444.89000123065
 20
1975.747584690153
 10
11444.14336806592
 20
1970.147835954576
  0
HATCH
  5
3D0
330
1F
100
AcDbEntity
  8
Ech.1_2
 62
   252
440
 33554687
370
     5
100
AcDbHatch
 10
0.0
 20
0.0
 30
0.0
210
0.0
220
0.0
230
1.0
  2
SOLID
 70
     1
 71
     1
 91
        1
 92
        3
 72
     0
 73
     1
 93
        4
 10
11446.20842784171
 20
1969.872494651145
 10
11448.2734876175
 20
1969.597153347704
 10
11449.02012078223
 20
1975.196902083298
 10
11446.95506100644
 20
1975.47224338673
 97
        0
 75
     0
 76
     1
 98
        0
  0
LWPOLYLINE
  5
3D1
330
1F
100
AcDbEntity
  8
Ech.1_2
 62
     7
370
     9
100
AcDbPolyline
 90
        5
 70
     0
 43
0.0
 10
11446.20842784171
 20
1969.872494651145
 10
11448.2734876175
 20
1969.597153347704
 10
11449.02012078223
 20
1975.196902083298
 10
11446.95506100644
 20
1975.47224338673
 10
11446.20842784171
 20
1969.872494651145
  0
HATCH
  5
3D2
330
1F
100
AcDbEntity
  8
Ech.1_2
 62
   252
440
 33554687
370
     5
100
AcDbHatch
 10
0.0
 20
0.0
 30
0.0
210
0.0
220
0.0
230
1.0
  2
SOLID
 70
     1
 71
     1
 91
        1
 92
        3
 72
     0
 73
     1
 93
        4
 10
11448.27348514345
 20
1969.597153677578
 10
11450.33854491924
 20
1969.321812374146
 10
11451.08517808397
 20
1974.921561109722
 10
11449.02011830818
 20
1975.196902413172
 97
        0
 75
     0
 76
     1
 98
        0
  0
LWPOLYLINE
  5
3D3
330
1F
100
AcDbEntity
  8
Ech.1_2
 62
     7
370
     9
100
AcDbPolyline
 90
        5
 70
     0
 43
0.0
 10
11448.27348514345
 20
1969.597153677578
 10
11450.33854491924
 20
1969.321812374146
 10
11451.08517808397
 20
1974.921561109722
 10
11449.02011830818
 20
1975.196902413172
 10
11448.27348514345
 20
1969.597153677578
  0
HATCH
  5
3D4
330
1F
100
AcDbEntity
  8
Ech.1_2
 62
   252
440
 33554687
370
     5
100
AcDbHatch
 10
0.0
 20
0.0
 30
0.0
210
0.0
220
0.0
230
1.0
  2
SOLID
 70
     1
 71
     1
 91
        1
 92
        3
 72
     0
 73
     1
 93
        4
 10
11450.33854491924
 20
1969.321812374146
 10
11452.40360469503
 20
1969.046471070715
 10
11453.15023785976
 20
1974.6462198063
 10
11451.08517808397
 20
1974.921561109722
 97
        0
 75
     0
 76
     1
 98
        0
  0
LWPOLYLINE
  5
3D5
330
1F
100
AcDbEntity
  8
Ech.1_2
 62
     7
370
     9
100
AcDbPolyline
 90
        5
 70
     0
 43
0.0
 10
11450.33854491924
 20
1969.321812374146
 10
11452.40360469503
 20
1969.046471070715
 10
11453.15023785976
 20
1974.6462198063
 10
11451.08517808397
 20
1974.921561109722
 10
11450.33854491924
 20
1969.321812374146
  0
HATCH
  5
3D6
330
1F
100
AcDbEntity
  8
Ech.1_2
 62
   252
440
 33554687
370
     5
100
AcDbHatch
 10
0.0
 20
0.0
 30
0.0
210
0.0
220
0.0
230
1.0
  2
SOLID
 70
     1
 71
     1
 91
        1
 92
        3
 72
     0
 73
     1
 93
        4
 10
11452.40359974693
 20
1969.046471730462
 10
11454.46865952272
 20
1968.77113042704
 10
11455.21529268745
 20
1974.370879162616
 10
11453.15023291166
 20
1974.646220466047
 97
        0
 75
     0
 76
     1
 98
        0
  0
LWPOLYLINE
  5
3D7
330
1F
100
AcDbEntity
  8
Ech.1_2
 62
     7
370
     9
100
AcDbPolyline
 90
        5
 70
     0
 43
0.0
 10
11452.40359974693
 20
1969.046471730462
 10
11454.46865952272
 20
1968.77113042704
 10
11455.21529268745
 20
1974.370879162616
 10
11453.15023291166
 20
1974.646220466047
 10
11452.40359974693
 20
1969.046471730462
  0
HATCH
  5
3D8
330
1F
100
AcDbEntity
  8
Ech.1_2
 62
   252
440
 33554687
370
     5
100
AcDbHatch
 10
0.0
 20
0.0
 30
0.0
210
0.0
220
0.0
230
1.0
  2
SOLID
 70
     1
 71
     1
 91
        1
 92
        3
 72
     0
 73
     1
 93
        4
 10
11454.46865457462
 20
1968.771131086787
 10
11456.53371435041
 20
1968.495789783337
 10
11457.28034751514
 20
1974.095538518932
 10
11455.21528773936
 20
1974.370879822363
 97
        0
 75
     0
 76
     1
 98
        0
  0
LWPOLYLINE
  5
3D9
330
1F
100
AcDbEntity
  8
Ech.1_2
 62
     7
370
     9
100
AcDbPolyline
 90
        5
 70
     0
 43
0.0
 10
11454.46865457462
 20
1968.771131086787
 10
11456.53371435041
 20
1968.495789783337
 10
11457.28034751514
 20
1974.095538518932
 10
11455.21528773936
 20
1974.370879822363
 10
11454.46865457462
 20
1968.771131086787
  0
HATCH
  5
3DA
330
1F
100
AcDbEntity
  8
Ech.1_2
 62
   252
440
 33554687
370
     5
100
AcDbHatch
 10
0.0
 20
0.0
 30
0.0
210
0.0
220
0.0
230
1.0
  2
SOLID
 70
     1
 71
     1
 91
        1
 92
        3
 72
     0
 73
     1
 93
        4
 10
11456.53371435041
 20
1968.495789783337
 10
11458.59877412619
 20
1968.220448479906
 10
11459.34540729093
 20
1973.820197215491
 10
11457.28034751514
 20
1974.095538518932
 97
        0
 75
     0
 76
     1
 98
        0
  0
LWPOLYLINE
  5
3DB
330
1F
100
AcDbEntity
  8
Ech.1_2
 62
     7
370
     9
100
AcDbPolyline
 90
        5
 70
     0
 43
0.0
 10
11456.53371435041
 20
1968.495789783337
 10
11458.59877412619
 20
1968.220448479906
 10
11459.34540729093
 20
1973.820197215491
 10
11457.28034751514
 20
1974.095538518932
 10
11456.53371435041
 20
1968.495789783337
  0
HATCH
  5
3DC
330
1F
100
AcDbEntity
  8
Ech.1_2
 62
   252
440
 33554687
370
     5
100
AcDbHatch
 10
0.0
 20
0.0
 30
0.0
210
0.0
220
0.0
230
1.0
  2
SOLID
 70
     1
 71
     1
 91
        1
 92
        3
 72
     0
 73
     1
 93
        4
 10
11458.59877412619
 20
1968.220448479906
 10
11460.66383390199
 20
1967.945107176483
 10
11461.41046706672
 20
1973.54485591206
 10
11459.34540729093
 20
1973.820197215491
 97
        0
 75
     0
 76
     1
 98
        0
  0
LWPOLYLINE
  5
3DD
330
1F
100
AcDbEntity
  8
Ech.1_2
 62
     7
370
     9
100
AcDbPolyline
 90
        5
 70
     0
 43
0.0
 10
11458.59877412619
 20
1968.220448479906
 10
11460.66383390199
 20
1967.945107176483
 10
11461.41046706672
 20
1973.54485591206
 10
11459.34540729093
 20
1973.820197215491
 10
11458.59877412619
 20
1968.220448479906
  0
HATCH
  5
3DE
330
1F
100
AcDbEntity
  8
Ech.1_2
 62
   252
440
 33554687
370
     5
100
AcDbHatch
 10
0.0
 20
0.0
 30
0.0
210
0.0
220
0.0
230
1.0
  2
SOLID
 70
     1
 71
     1
 91
        1
 92
        3
 72
     0
 73
     1
 93
        4
 10
11460.66383390199
 20
1967.945107176483
 10
11462.72889367778
 20
1967.669765873034
 10
11463.47552684251
 20
1973.269514608628
 10
11461.41046706672
 20
1973.54485591206
 97
        0
 75
     0
 76
     1
 98
        0
  0
LWPOLYLINE
  5
3DF
330
1F
100
AcDbEntity
  8
Ech.1_2
 62
     7
370
     9
100
AcDbPolyline
 90
        5
 70
     0
 43
0.0
 10
11460.66383390199
 20
1967.945107176483
 10
11462.72889367778
 20
1967.669765873034
 10
11463.47552684251
 20
1973.269514608628
 10
11461.41046706672
 20
1973.54485591206
 10
11460.66383390199
 20
1967.945107176483
  0
HATCH
  5
3E0
330
1F
100
AcDbEntity
  8
Ech.1_2
 62
   252
440
 33554687
370
     5
100
AcDbHatch
 10
0.0
 20
0.0
 30
0.0
210
0.0
220
0.0
230
1.0
  2
SOLID
 70
     1
 71
     1
 91
        1
 92
        3
 72
     0
 73
     1
 93
        4
 10
11462.72888872967
 20
1967.669766532781
 10
11464.79394850547
 20
1967.39442522935
 10
11465.5405816702
 20
1972.994173964935
 10
11463.47552189441
 20
1973.269515268375
 97
        0
 75
     0
 76
     1
 98
        0
  0
LWPOLYLINE
  5
3E1
330
1F
100
AcDbEntity
  8
Ech.1_2
 62
     7
370
     9
100
AcDbPolyline
 90
        5
 70
     0
 43
0.0
 10
11462.72888872967
 20
1967.669766532781
 10
11464.79394850547
 20
1967.39442522935
 10
11465.5405816702
 20
1972.994173964935
 10
11463.47552189441
 20
1973.269515268375
 10
11462.72888872967
 20
1967.669766532781
  0
HATCH
  5
3E2
330
1F
100
AcDbEntity
  8
Ech.1_2
 62
   252
440
 33554687
370
     5
100
AcDbHatch
 10
0.0
 20
0.0
 30
0.0
210
0.0
220
0.0
230
1.0
  2
SOLID
 70
     1
 71
     1
 91
        1
 92
        3
 72
     0
 73
     1
 93
        4
 10
11464.79394603142
 20
1967.394425559223
 10
11466.8590058072
 20
1967.119084255801
 10
11467.60563897194
 20
1972.718832991368
 10
11465.54057919615
 20
1972.994174294799
 97
        0
 75
     0
 76
     1
 98
        0
  0
LWPOLYLINE
  5
3E3
330
1F
100
AcDbEntity
  8
Ech.1_2
 62
     7
370
     9
100
AcDbPolyline
 90
        5
 70
     0
 43
0.0
 10
11464.79394603142
 20
1967.394425559223
 10
11466.8590058072
 20
1967.119084255801
 10
11467.60563897194
 20
1972.718832991368
 10
11465.54057919615
 20
1972.994174294799
 10
11464.79394603142
 20
1967.394425559223
  0
HATCH
  5
3E4
330
1F
100
AcDbEntity
  8
Ech.1_2
 62
   252
440
 33554687
370
     5
100
AcDbHatch
 10
0.0
 20
0.0
 30
0.0
210
0.0
220
0.0
230
1.0
  2
SOLID
 70
     1
 71
     1
 91
        1
 92
        3
 72
     0
 73
     1
 93
        4
 10
11466.8590058072
 20
1967.119084255801
 10
11468.92406558299
 20
1966.843742952369
 10
11469.67069874773
 20
1972.443491687945
 10
11467.60563897194
 20
1972.718832991368
 97
        0
 75
     0
 76
     1
 98
        0
  0
LWPOLYLINE
  5
3E5
330
1F
100
AcDbEntity
  8
Ech.1_2
 62
     7
370
     9
100
AcDbPolyline
 90
        5
 70
     0
 43
0.0
 10
11466.8590058072
 20
1967.119084255801
 10
11468.92406558299
 20
1966.843742952369
 10
11469.67069874773
 20
1972.443491687945
 10
11467.60563897194
 20
1972.718832991368
 10
11466.8590058072
 20
1967.119084255801
  0
HATCH
  5
3E6
330
1F
100
AcDbEntity
  8
Ech.1_2
 62
   252
440
 33554687
370
     5
100
AcDbHatch
 10
0.0
 20
0.0
 30
0.0
210
0.0
220
0.0
230
1.0
  2
SOLID
 70
     1
 71
     1
 91
        1
 92
        3
 72
     0
 73
     1
 93
        4
 10
11468.92406310895
 20
1966.843743282234
 10
11470.98912288473
 20
1966.568401978793
 10
11471.73575604947
 20
1972.168150714369
 10
11469.67069627368
 20
1972.443492017819
 97
        0
 75
     0
 76
     1
 98
        0
  0
LWPOLYLINE
  5
3E7
330
1F
100
AcDbEntity
  8
Ech.1_2
 62
     7
370
     9
100
AcDbPolyline
 90
        5
 70
     0
 43
0.0
 10
11468.92406310895
 20
1966.843743282234
 10
11470.98912288473
 20
1966.568401978793
 10
11471.73575604947
 20
1972.168150714369
 10
11469.67069627368
 20
1972.443492017819
 10
11468.92406310895
 20
1966.843743282234
  0
HATCH
  5
3E8
330
1F
100
AcDbEntity
  8
Ech.1_2
 62
   252
440
 33554687
370
     5
100
AcDbHatch
 10
0.0
 20
0.0
 30
0.0
210
0.0
220
0.0
230
1.0
  2
SOLID
 70
     1
 71
     1
 91
        1
 92
        3
 72
     0
 73
     1
 93
        4
 10
11470.98912288473
 20
1966.568401978793
 10
11473.05418266052
 20
1966.293060675371
 10
11473.80081582526
 20
1971.892809410938
 10
11471.73575604947
 20
1972.168150714369
 97
        0
 75
     0
 76
     1
 98
        0
  0
LWPOLYLINE
  5
3E9
330
1F
100
AcDbEntity
  8
Ech.1_2
 62
     7
370
     9
100
AcDbPolyline
 90
        5
 70
     0
 43
0.0
 10
11470.98912288473
 20
1966.568401978793
 10
11473.05418266052
 20
1966.293060675371
 10
11473.80081582526
 20
1971.892809410938
 10
11471.73575604947
 20
1972.168150714369
 10
11470.98912288473
 20
1966.568401978793
  0
HATCH
  5
3EA
330
1F
100
AcDbEntity
  8
Ech.1_2
 62
   252
440
 33554687
370
     5
100
AcDbHatch
 10
0.0
 20
0.0
 30
0.0
210
0.0
220
0.0
230
1.0
  2
SOLID
 70
     1
 71
     1
 91
        1
 92
        3
 72
     0
 73
     1
 93
        4
 10
11473.05417771242
 20
1966.293061335109
 10
11475.11923748822
 20
1966.017720031678
 10
11475.86587065294
 20
1971.617468767263
 10
11473.80081087716
 20
1971.892810070685
 97
        0
 75
     0
 76
     1
 98
        0
  0
LWPOLYLINE
  5
3EB
330
1F
100
AcDbEntity
  8
Ech.1_2
 62
     7
370
     9
100
AcDbPolyline
 90
        5
 70
     0
 43
0.0
 10
11473.05417771242
 20
1966.293061335109
 10
11475.11923748822
 20
1966.017720031678
 10
11475.86587065294
 20
1971.617468767263
 10
11473.80081087716
 20
1971.892810070685
 10
11473.05417771242
 20
1966.293061335109
  0
HATCH
  5
3EC
330
1F
100
AcDbEntity
  8
Ech.1_2
 62
   252
440
 33554687
370
     5
100
AcDbHatch
 10
0.0
 20
0.0
 30
0.0
210
0.0
220
0.0
230
1.0
  2
SOLID
 70
     1
 71
     1
 91
        1
 92
        3
 72
     0
 73
     1
 93
        4
 10
11475.11923748822
 20
1966.017720031678
 10
11477.184297264
 20
1965.742378728237
 10
11477.93093042873
 20
1971.342127463831
 10
11475.86587065294
 20
1971.617468767263
 97
        0
 75
     0
 76
     1
 98
        0
  0
LWPOLYLINE
  5
3ED
330
1F
100
AcDbEntity
  8
Ech.1_2
 62
     7
370
     9
100
AcDbPolyline
 90
        5
 70
     0
 43
0.0
 10
11475.11923748822
 20
1966.017720031678
 10
11477.184297264
 20
1965.742378728237
 10
11477.93093042873
 20
1971.342127463831
 10
11475.86587065294
 20
1971.617468767263
 10
11475.11923748822
 20
1966.017720031678
  0
HATCH
  5
3EE
330
1F
100
AcDbEntity
  8
Ech.1_2
 62
   252
440
 33554687
370
     5
100
AcDbHatch
 10
0.0
 20
0.0
 30
0.0
210
0.0
220
0.0
230
1.0
  2
SOLID
 70
     1
 71
     1
 91
        1
 92
        3
 72
     0
 73
     1
 93
        4
 10
11477.184297264
 20
1965.742378728237
 10
11479.24935703979
 20
1965.467037424805
 10
11479.99599020452
 20
1971.066786160382
 10
11477.93093042873
 20
1971.342127463831
 97
        0
 75
     0
 76
     1
 98
        0
  0
LWPOLYLINE
  5
3EF
330
1F
100
AcDbEntity
  8
Ech.1_2
 62
     7
370
     9
100
AcDbPolyline
 90
        5
 70
     0
 43
0.0
 10
11477.184297264
 20
1965.742378728237
 10
11479.24935703979
 20
1965.467037424805
 10
11479.99599020452
 20
1971.066786160382
 10
11477.93093042873
 20
1971.342127463831
 10
11477.184297264
 20
1965.742378728237
  0
HATCH
  5
3F0
330
1F
100
AcDbEntity
  8
Ech.1_2
 62
   252
440
 33554687
370
     5
100
AcDbHatch
 10
0.0
 20
0.0
 30
0.0
210
0.0
220
0.0
230
1.0
  2
SOLID
 70
     1
 71
     1
 91
        1
 92
        3
 72
     0
 73
     1
 93
        4
 10
11479.24935703979
 20
1965.467037424805
 10
11481.31441681558
 20
1965.191696121374
 10
11482.06104998032
 20
1970.791444856959
 10
11479.99599020452
 20
1971.066786160382
 97
        0
 75
     0
 76
     1
 98
        0
  0
LWPOLYLINE
  5
3F1
330
1F
100
AcDbEntity
  8
Ech.1_2
 62
     7
370
     9
100
AcDbPolyline
 90
        5
 70
     0
 43
0.0
 10
11479.24935703979
 20
1965.467037424805
 10
11481.31441681558
 20
1965.191696121374
 10
11482.06104998032
 20
1970.791444856959
 10
11479.99599020452
 20
1971.066786160382
 10
11479.24935703979
 20
1965.467037424805
  0
HATCH
  5
3F2
330
1F
100
AcDbEntity
  8
Ech.1_2
 62
   252
440
 33554687
370
     5
100
AcDbHatch
 10
0.0
 20
0.0
 30
0.0
210
0.0
220
0.0
230
1.0
  2
SOLID
 70
     1
 71
     1
 91
        1
 92
        3
 72
     1
 73
     1
 93
        4
 10
11533.30951177752
 20
1963.958316617327
 42
0.0
 10
11529.55740503107
 20
1964.458597516978
 42
0.0
 10
11528.81077186634
 20
1958.858848781401
 42
0.0
 10
11532.56287861279
 20
1958.358567881742
 42
-0.351359154852056
 97
        0
 75
     0
 76
     1
 98
        0
  0
LWPOLYLINE
  5
3F3
330
1F
100
AcDbEntity
  8
Ech.1_2
 62
     7
370
     9
100
AcDbPolyline
 90
        5
 70
     0
 43
0.0
 10
11533.30951177752
 20
1963.958316617327
 10
11529.55740503107
 20
1964.458597516978
 10
11528.81077186634
 20
1958.858848781401
 10
11532.56287861279
 20
1958.358567881742
 42
-0.3513591548521343
 10
11533.30951177752
 20
1963.958316617327
  0
HATCH
  5
3F4
330
1F
100
AcDbEntity
  8
Ech.1_2
 62
   252
440
 33554687
370
     5
100
AcDbHatch
 10
0.0
 20
0.0
 30
0.0
210
0.0
220
0.0
230
1.0
  2
SOLID
 70
     1
 71
     1
 91
        1
 92
        3
 72
     1
 73
     1
 93
        3
 10
11539.53288378551
 20
1960.278883770916
 42
0.0
 10
11533.30951177752
 20
1963.958316617327
 42
0.351359154852705
 10
11532.56287861279
 20
1958.358567881742
 42
0.0
 97
        0
 75
     0
 76
     1
 98
        0
  0
LWPOLYLINE
  5
3F5
330
1F
100
AcDbEntity
  8
Ech.1_2
 62
     7
370
     9
100
AcDbPolyline
 90
        4
 70
     0
 43
0.0
 10
11539.53288378551
 20
1960.278883770916
 10
11533.30951177752
 20
1963.958316617327
 42
0.3513591548523466
 10
11532.56287861279
 20
1958.358567881742
 10
11539.53288378551
 20
1960.278883770916
  0
HATCH
  5
3F6
330
1F
100
AcDbEntity
  8
Ech.1_2
 62
   252
440
 33554687
370
     5
100
AcDbHatch
 10
0.0
 20
0.0
 30
0.0
210
0.0
220
0.0
230
1.0
  2
SOLID
 70
     1
 71
     1
 91
        1
 92
        3
 72
     1
 73
     1
 93
        6
 10
11392.51691078194
 20
1977.031363592332
 42
0.0
 10
11388.18029118976
 20
1977.609579537939
 42
0.4142135727489767
 10
11386.62002380338
 20
1976.416433887971
 42
0.0
 10
11387.73377870651
 20
1984.769595661564
 42
0.4142135726625583
 10
11388.92692435449
 20
1983.209328273524
 42
0.0
 10
11393.26354394667
 20
1982.631112327917
 42
0.0
 97
        0
 75
     0
 76
     1
 98
        0
  0
LWPOLYLINE
  5
3F7
330
1F
100
AcDbEntity
  8
Ech.1_2
 62
     7
370
     9
100
AcDbPolyline
 90
        7
 70
     0
 43
0.0
 10
11392.51691078194
 20
1977.031363592332
 10
11388.18029118976
 20
1977.609579537939
 42
0.4142135727492605
 10
11386.62002380338
 20
1976.416433887971
 10
11387.73377870651
 20
1984.769595661564
 42
0.4142135726625581
 10
11388.92692435449
 20
1983.209328273524
 10
11393.26354394667
 20
1982.631112327917
 10
11392.51691078194
 20
1977.031363592332
  0
HATCH
  5
3F8
330
1F
100
AcDbEntity
  8
Ech.1_2
 62
   252
440
 33554687
370
     5
100
AcDbHatch
 10
0.0
 20
0.0
 30
0.0
210
0.0
220
0.0
230
1.0
  2
SOLID
 70
     1
 71
     1
 91
        1
 92
        1
 93
        2
 72
     1
 10
11385.58749621606
 20
1974.452334736216
 11
11387.25193308337
 21
1986.935611241215
 72
     2
 10
11417.55220895707
 20
1976.542973747798
 40
32.03300847706937
 50
161.0686359818272
 51
183.7420772812196
 73
     1
 97
        0
 75
     0
 76
     1
 98
        0
  0
LWPOLYLINE
  5
3F9
330
1F
100
AcDbEntity
  8
Ech.1_2
 62
     7
370
     9
100
AcDbPolyline
 90
        3
 70
     0
 43
0.0
 10
11385.58749621606
 20
1974.452334736216
 10
11387.25193308337
 20
1986.935611241215
 42
0.0992555820868679
 10
11385.58749621606
 20
1974.452334736216
  0
HATCH
  5
3FA
330
1F
100
AcDbEntity
  8
Ech.1_2
 62
   252
440
 33554687
370
     5
100
AcDbHatch
 10
0.0
 20
0.0
 30
0.0
210
0.0
220
0.0
230
1.0
  2
SOLID
 70
     1
 71
     1
 91
        1
 92
        3
 72
     0
 73
     1
 93
        6
 10
11386.34468283001
 20
1974.351376587674
 10
11386.62002380338
 20
1976.416433887971
 10
11387.73377870651
 20
1984.769595661564
 10
11388.00911967989
 20
1986.834652961843
 10
11387.25193308337
 20
1986.935611241215
 10
11385.58749621606
 20
1974.452334736216
 97
        0
 75
     0
 76
     1
 98
        0
  0
LWPOLYLINE
  5
3FB
330
1F
100
AcDbEntity
  8
Ech.1_2
 62
     7
370
     9
100
AcDbPolyline
 90
        7
 70
     0
 43
0.0
 10
11386.34468283001
 20
1974.351376587674
 10
11386.62002380338
 20
1976.416433887971
 10
11387.73377870651
 20
1984.769595661564
 10
11388.00911967989
 20
1986.834652961843
 10
11387.25193308337
 20
1986.935611241215
 10
11385.58749621606
 20
1974.452334736216
 10
11386.34468283001
 20
1974.351376587674
  0
HATCH
  5
3FC
330
1F
100
AcDbEntity
  8
Ech.1_2
 62
   252
440
 33554687
370
     5
100
AcDbHatch
 10
0.0
 20
0.0
 30
0.0
210
0.0
220
0.0
230
1.0
  2
SOLID
 70
     1
 71
     1
 91
        1
 92
        3
 72
     0
 73
     1
 93
        4
 10
11481.31441681558
 20
1965.191696121374
 10
11483.37947659137
 20
1964.916354817933
 10
11484.1261097561
 20
1970.516103553528
 10
11482.06104998032
 20
1970.791444856959
 97
        0
 75
     0
 76
     1
 98
        0
  0
LWPOLYLINE
  5
3FD
330
1F
100
AcDbEntity
  8
Ech.1_2
 62
     7
370
     9
100
AcDbPolyline
 90
        5
 70
     0
 43
0.0
 10
11481.31441681558
 20
1965.191696121374
 10
11483.37947659137
 20
1964.916354817933
 10
11484.1261097561
 20
1970.516103553528
 10
11482.06104998032
 20
1970.791444856959
 10
11481.31441681558
 20
1965.191696121374
  0
LINE
  5
3FE
330
1F
100
AcDbEntity
  8
Ech.1_2
 62
   190
370
     9
100
AcDbLine
 10
11486.19115963569
 20
1970.240763569573
 30
0.0
 11
11485.44452647096
 21
1964.641014833996
 31
0.0
  0
LINE
  5
3FF
330
1F
100
AcDbEntity
  8
Ech.1_2
 62
   190
370
     9
100
AcDbLine
 10
11484.126104808
 20
1970.516104213275
 30
0.0
 11
11483.37947164327
 21
1964.916355477681
 31
0.0
  0
HATCH
  5
400
330
1F
100
AcDbEntity
  8
Ech.1_2
 62
   252
440
 33554687
370
     5
100
AcDbHatch
 10
0.0
 20
0.0
 30
0.0
210
0.0
220
0.0
230
1.0
  2
SOLID
 70
     1
 71
     1
 91
        1
 92
        3
 72
     0
 73
     1
 93
        4
 10
11483.37946669517
 20
1964.916356137428
 10
11485.44452647096
 20
1964.641014833996
 10
11486.19115963569
 20
1970.240763569573
 10
11484.1260998599
 20
1970.516104873022
 97
        0
 75
     0
 76
     1
 98
        0
  0
LWPOLYLINE
  5
401
330
1F
100
AcDbEntity
  8
Ech.1_2
 62
     7
370
     9
100
AcDbPolyline
 90
        5
 70
     0
 43
0.0
 10
11483.37946669517
 20
1964.916356137428
 10
11485.44452647096
 20
1964.641014833996
 10
11486.19115963569
 20
1970.240763569573
 10
11484.1260998599
 20
1970.516104873022
 10
11483.37946669517
 20
1964.916356137428
  0
HATCH
  5
402
330
1F
100
AcDbEntity
  8
Ech.1_2
 62
   252
440
 33554687
370
     5
100
AcDbHatch
 10
0.0
 20
0.0
 30
0.0
210
0.0
220
0.0
230
1.0
  2
SOLID
 70
     1
 71
     1
 91
        1
 92
        3
 72
     0
 73
     1
 93
        4
 10
11485.44452647096
 20
1964.641014833996
 10
11487.50958624675
 20
1964.365673530565
 10
11488.25621941148
 20
1969.96542226615
 10
11486.19115963569
 20
1970.240763569591
 97
        0
 75
     0
 76
     1
 98
        0
  0
LWPOLYLINE
  5
403
330
1F
100
AcDbEntity
  8
Ech.1_2
 62
     7
370
     9
100
AcDbPolyline
 90
        5
 70
     0
 43
0.0
 10
11485.44452647096
 20
1964.641014833996
 10
11487.50958624675
 20
1964.365673530565
 10
11488.25621941148
 20
1969.96542226615
 10
11486.19115963569
 20
1970.240763569591
 10
11485.44452647096
 20
1964.641014833996
  0
HATCH
  5
404
330
1F
100
AcDbEntity
  8
Ech.1_2
 62
   252
440
 33554687
370
     5
100
AcDbHatch
 10
0.0
 20
0.0
 30
0.0
210
0.0
220
0.0
230
1.0
  2
SOLID
 70
     1
 71
     1
 91
        1
 92
        3
 72
     0
 73
     1
 93
        4
 10
11487.50958624675
 20
1964.365673530565
 10
11489.57464602254
 20
1964.090332227142
 10
11490.32127918727
 20
1969.690080962719
 10
11488.25621941148
 20
1969.96542226615
 97
        0
 75
     0
 76
     1
 98
        0
  0
LWPOLYLINE
  5
405
330
1F
100
AcDbEntity
  8
Ech.1_2
 62
     7
370
     9
100
AcDbPolyline
 90
        5
 70
     0
 43
0.0
 10
11487.50958624675
 20
1964.365673530565
 10
11489.57464602254
 20
1964.090332227142
 10
11490.32127918727
 20
1969.690080962719
 10
11488.25621941148
 20
1969.96542226615
 10
11487.50958624675
 20
1964.365673530565
  0
HATCH
  5
406
330
1F
100
AcDbEntity
  8
Ech.1_2
 62
   252
440
 33554687
370
     5
100
AcDbHatch
 10
0.0
 20
0.0
 30
0.0
210
0.0
220
0.0
230
1.0
  2
SOLID
 70
     1
 71
     1
 91
        1
 92
        3
 72
     0
 73
     1
 93
        4
 10
11489.57464602254
 20
1964.090332227142
 10
11491.63970579833
 20
1963.814990923711
 10
11492.38633896306
 20
1969.414739659287
 10
11490.32127918727
 20
1969.690080962719
 97
        0
 75
     0
 76
     1
 98
        0
  0
LWPOLYLINE
  5
407
330
1F
100
AcDbEntity
  8
Ech.1_2
 62
     7
370
     9
100
AcDbPolyline
 90
        5
 70
     0
 43
0.0
 10
11489.57464602254
 20
1964.090332227142
 10
11491.63970579833
 20
1963.814990923711
 10
11492.38633896306
 20
1969.414739659287
 10
11490.32127918727
 20
1969.690080962719
 10
11489.57464602254
 20
1964.090332227142
  0
HATCH
  5
408
330
1F
100
AcDbEntity
  8
Ech.1_2
 62
   252
440
 33554687
370
     5
100
AcDbHatch
 10
0.0
 20
0.0
 30
0.0
210
0.0
220
0.0
230
1.0
  2
SOLID
 70
     1
 71
     1
 91
        1
 92
        3
 72
     0
 73
     1
 93
        4
 10
11491.63970579833
 20
1963.814990923711
 10
11493.70476557412
 20
1963.539649620261
 10
11494.45139873885
 20
1969.139398355846
 10
11492.38633896306
 20
1969.414739659287
 97
        0
 75
     0
 76
     1
 98
        0
  0
LWPOLYLINE
  5
409
330
1F
100
AcDbEntity
  8
Ech.1_2
 62
     7
370
     9
100
AcDbPolyline
 90
        5
 70
     0
 43
0.0
 10
11491.63970579833
 20
1963.814990923711
 10
11493.70476557412
 20
1963.539649620261
 10
11494.45139873885
 20
1969.139398355846
 10
11492.38633896306
 20
1969.414739659287
 10
11491.63970579833
 20
1963.814990923711
  0
HATCH
  5
40A
330
1F
100
AcDbEntity
  8
Ech.1_2
 62
   252
440
 33554687
370
     5
100
AcDbHatch
 10
0.0
 20
0.0
 30
0.0
210
0.0
220
0.0
230
1.0
  2
SOLID
 70
     1
 71
     1
 91
        1
 92
        3
 72
     0
 73
     1
 93
        4
 10
11493.70476557412
 20
1963.539649620261
 10
11495.76982534991
 20
1963.264308316839
 10
11496.51645851464
 20
1968.864057052415
 10
11494.45139873885
 20
1969.139398355846
 97
        0
 75
     0
 76
     1
 98
        0
  0
LWPOLYLINE
  5
40B
330
1F
100
AcDbEntity
  8
Ech.1_2
 62
     7
370
     9
100
AcDbPolyline
 90
        5
 70
     0
 43
0.0
 10
11493.70476557412
 20
1963.539649620261
 10
11495.76982534991
 20
1963.264308316839
 10
11496.51645851464
 20
1968.864057052415
 10
11494.45139873885
 20
1969.139398355846
 10
11493.70476557412
 20
1963.539649620261
  0
HATCH
  5
40C
330
1F
100
AcDbEntity
  8
Ech.1_2
 62
   252
440
 33554687
370
     5
100
AcDbHatch
 10
0.0
 20
0.0
 30
0.0
210
0.0
220
0.0
230
1.0
  2
SOLID
 70
     1
 71
     1
 91
        1
 92
        3
 72
     0
 73
     1
 93
        4
 10
11495.76982534991
 20
1963.264308316839
 10
11497.83488512569
 20
1962.988967013407
 10
11498.58151829043
 20
1968.588715748983
 10
11496.51645851464
 20
1968.864057052415
 97
        0
 75
     0
 76
     1
 98
        0
  0
LWPOLYLINE
  5
40D
330
1F
100
AcDbEntity
  8
Ech.1_2
 62
     7
370
     9
100
AcDbPolyline
 90
        5
 70
     0
 43
0.0
 10
11495.76982534991
 20
1963.264308316839
 10
11497.83488512569
 20
1962.988967013407
 10
11498.58151829043
 20
1968.588715748983
 10
11496.51645851464
 20
1968.864057052415
 10
11495.76982534991
 20
1963.264308316839
  0
HATCH
  5
40E
330
1F
100
AcDbEntity
  8
Ech.1_2
 62
   252
440
 33554687
370
     5
100
AcDbHatch
 10
0.0
 20
0.0
 30
0.0
210
0.0
220
0.0
230
1.0
  2
SOLID
 70
     1
 71
     1
 91
        1
 92
        3
 72
     0
 73
     1
 93
        4
 10
11497.83488512569
 20
1962.988967013407
 10
11499.89994490149
 20
1962.713625709957
 10
11500.64657806622
 20
1968.313374445543
 10
11498.58151829043
 20
1968.588715748983
 97
        0
 75
     0
 76
     1
 98
        0
  0
LWPOLYLINE
  5
40F
330
1F
100
AcDbEntity
  8
Ech.1_2
 62
     7
370
     9
100
AcDbPolyline
 90
        5
 70
     0
 43
0.0
 10
11497.83488512569
 20
1962.988967013407
 10
11499.89994490149
 20
1962.713625709957
 10
11500.64657806622
 20
1968.313374445543
 10
11498.58151829043
 20
1968.588715748983
 10
11497.83488512569
 20
1962.988967013407
  0
HATCH
  5
410
330
1F
100
AcDbEntity
  8
Ech.1_2
 62
   252
440
 33554687
370
     5
100
AcDbHatch
 10
0.0
 20
0.0
 30
0.0
210
0.0
220
0.0
230
1.0
  2
SOLID
 70
     1
 71
     1
 91
        1
 92
        3
 72
     0
 73
     1
 93
        4
 10
11499.89994490149
 20
1962.713625709957
 10
11501.96500467728
 20
1962.438284406535
 10
11502.71163784201
 20
1968.038033142111
 10
11500.64657806622
 20
1968.313374445543
 97
        0
 75
     0
 76
     1
 98
        0
  0
LWPOLYLINE
  5
411
330
1F
100
AcDbEntity
  8
Ech.1_2
 62
     7
370
     9
100
AcDbPolyline
 90
        5
 70
     0
 43
0.0
 10
11499.89994490149
 20
1962.713625709957
 10
11501.96500467728
 20
1962.438284406535
 10
11502.71163784201
 20
1968.038033142111
 10
11500.64657806622
 20
1968.313374445543
 10
11499.89994490149
 20
1962.713625709957
  0
HATCH
  5
412
330
1F
100
AcDbEntity
  8
Ech.1_2
 62
   252
440
 33554687
370
     5
100
AcDbHatch
 10
0.0
 20
0.0
 30
0.0
210
0.0
220
0.0
230
1.0
  2
SOLID
 70
     1
 71
     1
 91
        1
 92
        3
 72
     0
 73
     1
 93
        4
 10
11501.96500467728
 20
1962.438284406535
 10
11504.03006445307
 20
1962.162943103103
 10
11504.7766976178
 20
1967.76269183868
 10
11502.71163784201
 20
1968.038033142111
 97
        0
 75
     0
 76
     1
 98
        0
  0
LWPOLYLINE
  5
413
330
1F
100
AcDbEntity
  8
Ech.1_2
 62
     7
370
     9
100
AcDbPolyline
 90
        5
 70
     0
 43
0.0
 10
11501.96500467728
 20
1962.438284406535
 10
11504.03006445307
 20
1962.162943103103
 10
11504.7766976178
 20
1967.76269183868
 10
11502.71163784201
 20
1968.038033142111
 10
11501.96500467728
 20
1962.438284406535
  0
LINE
  5
414
330
1F
100
AcDbEntity
  8
Ech.1_2
 62
   190
370
     9
100
AcDbLine
 10
11506.84175244549
 20
1967.487351195005
 30
0.0
 11
11506.09511928075
 21
1961.887602459419
 31
0.0
  0
HATCH
  5
415
330
1F
100
AcDbEntity
  8
Ech.1_2
 62
   252
440
 33554687
370
     5
100
AcDbHatch
 10
0.0
 20
0.0
 30
0.0
210
0.0
220
0.0
230
1.0
  2
SOLID
 70
     1
 71
     1
 91
        1
 92
        3
 72
     0
 73
     1
 93
        4
 10
11504.03006445307
 20
1962.162943103103
 10
11506.09512422885
 20
1961.887601799672
 10
11506.84175739359
 20
1967.487350535257
 10
11504.7766976178
 20
1967.76269183868
 97
        0
 75
     0
 76
     1
 98
        0
  0
LWPOLYLINE
  5
416
330
1F
100
AcDbEntity
  8
Ech.1_2
 62
     7
370
     9
100
AcDbPolyline
 90
        5
 70
     0
 43
0.0
 10
11504.03006445307
 20
1962.162943103103
 10
11506.09512422885
 20
1961.887601799672
 10
11506.84175739359
 20
1967.487350535257
 10
11504.7766976178
 20
1967.76269183868
 10
11504.03006445307
 20
1962.162943103103
  0
HATCH
  5
417
330
1F
100
AcDbEntity
  8
Ech.1_2
 62
   252
440
 33554687
370
     5
100
AcDbHatch
 10
0.0
 20
0.0
 30
0.0
210
0.0
220
0.0
230
1.0
  2
SOLID
 70
     1
 71
     1
 91
        1
 92
        3
 72
     0
 73
     1
 93
        4
 10
11506.09512422885
 20
1961.887601799672
 10
11508.16018400465
 20
1961.612260496231
 10
11508.90681716938
 20
1967.212009231826
 10
11506.84175739359
 20
1967.487350535257
 97
        0
 75
     0
 76
     1
 98
        0
  0
LWPOLYLINE
  5
418
330
1F
100
AcDbEntity
  8
Ech.1_2
 62
     7
370
     9
100
AcDbPolyline
 90
        5
 70
     0
 43
0.0
 10
11506.09512422885
 20
1961.887601799672
 10
11508.16018400465
 20
1961.612260496231
 10
11508.90681716938
 20
1967.212009231826
 10
11506.84175739359
 20
1967.487350535257
 10
11506.09512422885
 20
1961.887601799672
  0
LINE
  5
419
330
1F
100
AcDbEntity
  8
Ech.1_2
 62
   190
370
     9
100
AcDbLine
 10
11510.97186704897
 20
1966.936669247871
 30
0.0
 11
11510.22523388424
 21
1961.336920512294
 31
0.0
  0
LINE
  5
41A
330
1F
100
AcDbEntity
  8
Ech.1_2
 62
   190
370
     9
100
AcDbLine
 10
11508.90681222128
 20
1967.212009891573
 30
0.0
 11
11508.16017905655
 21
1961.612261155979
 31
0.0
  0
HATCH
  5
41B
330
1F
100
AcDbEntity
  8
Ech.1_2
 62
   252
440
 33554687
370
     5
100
AcDbHatch
 10
0.0
 20
0.0
 30
0.0
210
0.0
220
0.0
230
1.0
  2
SOLID
 70
     1
 71
     1
 91
        1
 92
        3
 72
     0
 73
     1
 93
        4
 10
11508.16017410844
 20
1961.612261815726
 10
11510.22523388424
 20
1961.336920512294
 10
11510.97186704897
 20
1966.936669247871
 10
11508.90680727318
 20
1967.21201055132
 97
        0
 75
     0
 76
     1
 98
        0
  0
LWPOLYLINE
  5
41C
330
1F
100
AcDbEntity
  8
Ech.1_2
 62
     7
370
     9
100
AcDbPolyline
 90
        5
 70
     0
 43
0.0
 10
11508.16017410844
 20
1961.612261815726
 10
11510.22523388424
 20
1961.336920512294
 10
11510.97186704897
 20
1966.936669247871
 10
11508.90680727318
 20
1967.21201055132
 10
11508.16017410844
 20
1961.612261815726
  0
HATCH
  5
41D
330
1F
100
AcDbEntity
  8
Ech.1_2
 62
   252
440
 33554687
370
     5
100
AcDbHatch
 10
0.0
 20
0.0
 30
0.0
210
0.0
220
0.0
230
1.0
  2
SOLID
 70
     1
 71
     1
 91
        1
 92
        3
 72
     0
 73
     1
 93
        4
 10
11510.22523388424
 20
1961.336920512294
 10
11512.29029366003
 20
1961.061579208863
 10
11513.03692682476
 20
1966.661327944448
 10
11510.97186704897
 20
1966.936669247889
 97
        0
 75
     0
 76
     1
 98
        0
  0
LWPOLYLINE
  5
41E
330
1F
100
AcDbEntity
  8
Ech.1_2
 62
     7
370
     9
100
AcDbPolyline
 90
        5
 70
     0
 43
0.0
 10
11510.22523388424
 20
1961.336920512294
 10
11512.29029366003
 20
1961.061579208863
 10
11513.03692682476
 20
1966.661327944448
 10
11510.97186704897
 20
1966.936669247889
 10
11510.22523388424
 20
1961.336920512294
  0
HATCH
  5
41F
330
1F
100
AcDbEntity
  8
Ech.1_2
 62
   252
440
 33554687
370
     5
100
AcDbHatch
 10
0.0
 20
0.0
 30
0.0
210
0.0
220
0.0
230
1.0
  2
SOLID
 70
     1
 71
     1
 91
        1
 92
        3
 72
     0
 73
     1
 93
        4
 10
11512.29029366003
 20
1961.061579208863
 10
11514.35535343581
 20
1960.78623790544
 10
11515.10198660055
 20
1966.385986641017
 10
11513.03692682476
 20
1966.661327944448
 97
        0
 75
     0
 76
     1
 98
        0
  0
LWPOLYLINE
  5
420
330
1F
100
AcDbEntity
  8
Ech.1_2
 62
     7
370
     9
100
AcDbPolyline
 90
        5
 70
     0
 43
0.0
 10
11512.29029366003
 20
1961.061579208863
 10
11514.35535343581
 20
1960.78623790544
 10
11515.10198660055
 20
1966.385986641017
 10
11513.03692682476
 20
1966.661327944448
 10
11512.29029366003
 20
1961.061579208863
  0
HATCH
  5
421
330
1F
100
AcDbEntity
  8
Ech.1_2
 62
   252
440
 33554687
370
     5
100
AcDbHatch
 10
0.0
 20
0.0
 30
0.0
210
0.0
220
0.0
230
1.0
  2
SOLID
 70
     1
 71
     1
 91
        1
 92
        3
 72
     0
 73
     1
 93
        4
 10
11514.35535343581
 20
1960.78623790544
 10
11516.4204132116
 20
1960.510896602009
 10
11517.16704637633
 20
1966.110645337585
 10
11515.10198660055
 20
1966.385986641017
 97
        0
 75
     0
 76
     1
 98
        0
  0
LWPOLYLINE
  5
422
330
1F
100
AcDbEntity
  8
Ech.1_2
 62
     7
370
     9
100
AcDbPolyline
 90
        5
 70
     0
 43
0.0
 10
11514.35535343581
 20
1960.78623790544
 10
11516.4204132116
 20
1960.510896602009
 10
11517.16704637633
 20
1966.110645337585
 10
11515.10198660055
 20
1966.385986641017
 10
11514.35535343581
 20
1960.78623790544
  0
HATCH
  5
423
330
1F
100
AcDbEntity
  8
Ech.1_2
 62
   252
440
 33554687
370
     5
100
AcDbHatch
 10
0.0
 20
0.0
 30
0.0
210
0.0
220
0.0
230
1.0
  2
SOLID
 70
     1
 71
     1
 91
        1
 92
        3
 72
     0
 73
     1
 93
        4
 10
11516.4204132116
 20
1960.510896602009
 10
11518.4854729874
 20
1960.235555298559
 10
11519.23210615212
 20
1965.835304034144
 10
11517.16704637633
 20
1966.110645337585
 97
        0
 75
     0
 76
     1
 98
        0
  0
LWPOLYLINE
  5
424
330
1F
100
AcDbEntity
  8
Ech.1_2
 62
     7
370
     9
100
AcDbPolyline
 90
        5
 70
     0
 43
0.0
 10
11516.4204132116
 20
1960.510896602009
 10
11518.4854729874
 20
1960.235555298559
 10
11519.23210615212
 20
1965.835304034144
 10
11517.16704637633
 20
1966.110645337585
 10
11516.4204132116
 20
1960.510896602009
  0
HATCH
  5
425
330
1F
100
AcDbEntity
  8
Ech.1_2
 62
   252
440
 33554687
370
     5
100
AcDbHatch
 10
0.0
 20
0.0
 30
0.0
210
0.0
220
0.0
230
1.0
  2
SOLID
 70
     1
 71
     1
 91
        1
 92
        3
 72
     0
 73
     1
 93
        4
 10
11518.4854729874
 20
1960.235555298559
 10
11520.55053276318
 20
1959.960213995137
 10
11521.29716592792
 20
1965.559962730713
 10
11519.23210615212
 20
1965.835304034144
 97
        0
 75
     0
 76
     1
 98
        0
  0
LWPOLYLINE
  5
426
330
1F
100
AcDbEntity
  8
Ech.1_2
 62
     7
370
     9
100
AcDbPolyline
 90
        5
 70
     0
 43
0.0
 10
11518.4854729874
 20
1960.235555298559
 10
11520.55053276318
 20
1959.960213995137
 10
11521.29716592792
 20
1965.559962730713
 10
11519.23210615212
 20
1965.835304034144
 10
11518.4854729874
 20
1960.235555298559
  0
HATCH
  5
427
330
1F
100
AcDbEntity
  8
Ech.1_2
 62
   252
440
 33554687
370
     5
100
AcDbHatch
 10
0.0
 20
0.0
 30
0.0
210
0.0
220
0.0
230
1.0
  2
SOLID
 70
     1
 71
     1
 91
        1
 92
        3
 72
     0
 73
     1
 93
        4
 10
11520.55053276318
 20
1959.960213995137
 10
11522.61559253897
 20
1959.684872691705
 10
11523.3622257037
 20
1965.284621427281
 10
11521.29716592792
 20
1965.559962730713
 97
        0
 75
     0
 76
     1
 98
        0
  0
LWPOLYLINE
  5
428
330
1F
100
AcDbEntity
  8
Ech.1_2
 62
     7
370
     9
100
AcDbPolyline
 90
        5
 70
     0
 43
0.0
 10
11520.55053276318
 20
1959.960213995137
 10
11522.61559253897
 20
1959.684872691705
 10
11523.3622257037
 20
1965.284621427281
 10
11521.29716592792
 20
1965.559962730713
 10
11520.55053276318
 20
1959.960213995137
  0
HATCH
  5
429
330
1F
100
AcDbEntity
  8
Ech.1_2
 62
   252
440
 33554687
370
     5
100
AcDbHatch
 10
0.0
 20
0.0
 30
0.0
210
0.0
220
0.0
230
1.0
  2
SOLID
 70
     1
 71
     1
 91
        1
 92
        3
 72
     0
 73
     1
 93
        4
 10
11522.61559253897
 20
1959.684872691705
 10
11524.68065231476
 20
1959.409531388255
 10
11525.42728547949
 20
1965.009280123841
 10
11523.3622257037
 20
1965.284621427281
 97
        0
 75
     0
 76
     1
 98
        0
  0
LWPOLYLINE
  5
42A
330
1F
100
AcDbEntity
  8
Ech.1_2
 62
     7
370
     9
100
AcDbPolyline
 90
        5
 70
     0
 43
0.0
 10
11522.61559253897
 20
1959.684872691705
 10
11524.68065231476
 20
1959.409531388255
 10
11525.42728547949
 20
1965.009280123841
 10
11523.3622257037
 20
1965.284621427281
 10
11522.61559253897
 20
1959.684872691705
  0
HATCH
  5
42B
330
1F
100
AcDbEntity
  8
Ech.1_2
 62
   252
440
 33554687
370
     5
100
AcDbHatch
 10
0.0
 20
0.0
 30
0.0
210
0.0
220
0.0
230
1.0
  2
SOLID
 70
     1
 71
     1
 91
        1
 92
        3
 72
     0
 73
     1
 93
        4
 10
11524.68065231476
 20
1959.409531388255
 10
11526.74571209056
 20
1959.134190084833
 10
11527.49234525528
 20
1964.733938820409
 10
11525.42728547949
 20
1965.009280123841
 97
        0
 75
     0
 76
     1
 98
        0
  0
LWPOLYLINE
  5
42C
330
1F
100
AcDbEntity
  8
Ech.1_2
 62
     7
370
     9
100
AcDbPolyline
 90
        5
 70
     0
 43
0.0
 10
11524.68065231476
 20
1959.409531388255
 10
11526.74571209056
 20
1959.134190084833
 10
11527.49234525528
 20
1964.733938820409
 10
11525.42728547949
 20
1965.009280123841
 10
11524.68065231476
 20
1959.409531388255
  0
HATCH
  5
42D
330
1F
100
AcDbEntity
  8
Ech.1_2
 62
   252
440
 33554687
370
     5
100
AcDbHatch
 10
0.0
 20
0.0
 30
0.0
210
0.0
220
0.0
230
1.0
  2
SOLID
 70
     1
 71
     1
 91
        1
 92
        3
 72
     0
 73
     1
 93
        4
 10
11526.74571209056
 20
1959.134190084833
 10
11528.81077186634
 20
1958.858848781401
 10
11529.55740503107
 20
1964.458597516978
 10
11527.49234525528
 20
1964.733938820409
 97
        0
 75
     0
 76
     1
 98
        0
  0
LWPOLYLINE
  5
42E
330
1F
100
AcDbEntity
  8
Ech.1_2
 62
     7
370
     9
100
AcDbPolyline
 90
        5
 70
     0
 43
0.0
 10
11526.74571209056
 20
1959.134190084833
 10
11528.81077186634
 20
1958.858848781401
 10
11529.55740503107
 20
1964.458597516978
 10
11527.49234525528
 20
1964.733938820409
 10
11526.74571209056
 20
1959.134190084833
  0
LINE
  5
42F
330
1F
100
AcDbEntity
  8
Ech.1_2
 62
   190
370
    15
100
AcDbLine
 10
11407.32527128861
 20
1780.372615454262
 30
0.0
 11
11406.25801183569
 21
1699.04744512829
 31
0.0
  0
DIMENSION
  5
431
102
{ACAD_REACTORS
330
432
102
}
330
1F
100
AcDbEntity
  8
Ech.1_2
 62
   190
370
    15
100
AcDbDimension
280
     0
  2
*D70
 10
11411.27678800469
 20
2156.552667684682
 30
0.0
 11
11400.02678800469
 21
2143.985810000213
 31
0.0
 70
   161
  1
10 mini
 71
     5
 42
25.13371536892009
 73
     0
 74
     0
 75
     0
 53
90.0
  3
Standard
100
AcDbAlignedDimension
 13
11432.29753663716
 23
2131.418952315762
 33
0.0
 14
11432.29753663716
 24
2156.552667684682
 34
0.0
1001
ACAD
1000
DSTYLE
1002
{
1070
   178
1070
   190
1070
   271
1070
     0
1070
   147
1040
0.0
1070
   140
1040
12.5
1070
   340
1005
430
1070
   144
1040
1.0
1070
    42
1040
0.0
1070
    44
1040
5.0
1070
    41
1040
5.0
1070
   342
1005
1BB
1070
   175
1070
     1
1070
   279
1070
     2
1070
   172
1070
     1
1002
}
  0
MTEXT
  5
43F
330
1F
100
AcDbEntity
  8
Ech.1_2
 62
     4
420
    65535
100
AcDbMText
 10
11736.29528874811
 20
2123.010337385504
 30
0.0
 40
13.75
 41
215.5995499559413
 46
0.0
 71
     1
 72
     1
  1
{\fArial|b0|i0;\W1.000000;\H13.750000;\c16711848;Grille pare-insectes}
 73
     1
 44
1.07999975538982
  0
MTEXT
  5
440
330
1F
100
AcDbEntity
  8
Ech.1_2
 62
     4
420
    65535
100
AcDbMText
 10
11585.53208001985
 20
1528.325924870951
 30
0.0
 40
12.5
 41
488.3428846351944
 46
0.0
 71
     2
 72
     1
  1
{\fArial|b0|i0;\W1.000000;\H12.500000;\c16711848;Vue en coupe verticale}
 73
     1
 44
1.07999975538982
  0
MTEXT
  5
441
330
1F
100
AcDbEntity
  8
Ech.1_2
 62
     4
420
    65535
100
AcDbMText
 10
11905.8521900407
 20
1528.493101363601
 30
0.0
 40
12.5
 41
127.297335406498
 46
0.0
 71
     2
 72
     1
  1
{\fArial|b0|i0;\W1.000000;\H12.500000;\c16711848;Ech 1/2 }
 73
     1
 44
1.07999975538982
  0
MTEXT
  5
442
330
1F
100
AcDbEntity
  8
Ech.1_2
 62
     4
420
    65535
100
AcDbMText
 10
11257.03302870458
 20
1528.764857666083
 30
0.0
 40
12.5
 41
143.6552179953505
 46
0.0
 71
     2
 72
     1
  1
{\fArial|b0|i0;\W1.000000;\H12.500000;\c16711848;BLRHZ10-02}
 73
     1
 44
1.07999975538982
  0
MTEXT
  5
443
330
1F
100
AcDbEntity
  8
Ech.1_2
 62
   200
420
 11010303
100
AcDbMText
 10
11483.25085774395
 20
1506.995740329239
 30
0.0
 40
6.25
 41
978.75
 46
0.0
 71
     2
 72
     1
  3
{\fArial|b0|i1;\W1.000000;\H6.250000;\c16711848; Il est rappelé à l'utilisateur qui consulte le site et utilise les informations qu'il contient, qu'il doit les utiliser sous sa seule responsabilité en vérifiant leur pertinence, leur cohérence et leur
  1
 non obsolescence.}
 73
     1
 44
1.07999975538982
  0
MTEXT
  5
444
330
1F
100
AcDbEntity
  8
Ech.1_2
 62
   200
420
 11010303
100
AcDbMText
 10
11483.25085774395
 20
1472.83121243574
 30
0.0
 40
8.125
 41
976.875
 46
0.0
 71
     2
 72
     1
  1
{\fArial|b0|i1;\W1.000000;\H8.125000;\c16711848;www.catalogue-bois-construction.fr}
 73
     1
 44
1.07999975538982
  0
MTEXT
  5
445
330
1F
100
AcDbEntity
  8
Ech.1_2
 62
     4
420
    65535
100
AcDbMText
 10
11483.25085774395
 20
2678.066813177984
 30
0.0
 40
16.25
 41
968.75
 46
0.0
 71
     2
 72
     1
  1
{\fArial|b0|i0;\W1.000000;\H16.250000;\c16711848;Détail tête de mur sous débord de toit - Jonction avec habillage en sous-face de rampant}
 73
     1
 44
1.07999975538982
  0
MTEXT
  5
446
330
1F
100
AcDbEntity
  8
Ech.1_2
 62
     4
420
    65535
100
AcDbMText
 10
11303.57727270299
 20
2017.555388958608
 30
0.0
 40
13.75
 41
214.7630289426124
 46
0.0
 71
     3
 72
     1
  1
{\fArial|b0|i0;\W1.000000;\H13.750000;\c16711848;Habillage en sous-face}
 73
     1
 44
1.07999975538982
  0
MTEXT
  5
447
330
1F
100
AcDbEntity
  8
Ech.1_2
 62
     4
420
    65535
100
AcDbMText
 10
11303.57727270299
 20
1975.27457302378
 30
0.0
 40
13.75
 41
287.6124076482574
 46
0.0
 71
     3
 72
     1
  1
{\fArial|b0|i0;\W1.000000;\H13.750000;\c16711848;Bardage bois en lames à recouvrement en pose horizontale - épaisseur 18 mm mini}
 73
     1
 44
1.07999975538982
  0
MTEXT
  5
448
330
1F
100
AcDbEntity
  8
Ech.1_2
 62
     4
420
    65535
100
AcDbMText
 10
11303.57727270299
 20
1745.6354293603
 30
0.0
 40
13.75
 41
183.7312587778615
 46
0.0
 71
     3
 72
     1
  1
{\fArial|b0|i0;\W1.000000;\H13.750000;\c16711848;Paroi support}
 73
     1
 44
1.07999975538982
  0
MTEXT
  5
449
330
1F
100
AcDbEntity
  8
Ech.1_2
 62
     4
420
    65535
100
AcDbMText
 10
11303.57727270299
 20
1862.95419357677
 30
0.0
 40
13.75
 41
294.2582911829377
 46
0.0
 71
     3
 72
     1
  1
{\fArial|b0|i0;\W1.000000;\H13.750000;\c16711848;Tasseau bois support de bardage}
 73
     1
 44
1.07999975538982
  0
TEXT
  5
44B
330
1F
100
AcDbEntity
  8
Ech.1_2
 62
   190
100
AcDbText
 10
11042.57298844624
 20
1516.333958316372
 30
0.0
 40
12.5
  1
20/11/2020
  7
arial-
100
AcDbText
  0
TEXT
  5
44C
330
1F
100
AcDbEntity
  8
Ech.1_2
 62
   190
100
AcDbText
 10
11167.49058857891
 20
2693.968317810331
 30
0.0
 40
16.5
  1
Epaisseur mini selon NF DTU 41.2 - hors exigences feu façade
  7
arial-
100
AcDbText
  0
TEXT
  5
44E
330
1F
100
AcDbEntity
  8
Ech.1_2
 62
   190
100
AcDbText
 10
11149.86043110821
 20
2726.351785600973
 30
0.0
 40
16.5
  1
BARDAGES EN LAMES : lames à recouvrement - pose horizontale
  7
arial-b
100
AcDbText
  0
VIEWPORT
  5
243
330
23D
100
AcDbEntity
 67
     1
  8
0
100
AcDbViewport
 10
98.8
 20
135.7999999999991
 30
0.0
 40
209.0608
 41
287.3527999999981
 68
     1
 69
     1
 12
128.5
 22
97.5
 13
0.0
 23
0.0
 14
10.0
 24
10.0
 15
10.0
 25
10.0
 16
0.0
 26
0.0
 36
1.0
 17
0.0
 27
0.0
 37
0.0
 42
50.0
 43
0.0
 44
0.0
 45
222.18
 50
0.0
 51
0.0
 72
   100
 90
   557152
  1

281
     0
 71
     1
 74
     0
110
0.0
120
0.0
130
0.0
111
1.0
121
0.0
131
0.0
112
0.0
122
1.0
132
0.0
 79
     0
146
0.0
170
     0
 61
     5
348
2F
292
     1
282
     1
141
0.0
142
0.0
 63
   256
361
244
  0
VIEWPORT
  5
245
330
23D
100
AcDbEntity
 67
     1
  8
0
 60
     1
100
AcDbViewport
 10
98.8
 20
135.7999999999991
 30
0.0
 40
197.6
 41
271.5999999999982
 68
     2
 69
     2
 12
11483.25085774395
 22
2072.101785601058
 13
0.0
 23
0.0
 14
10.0
 24
10.0
 15
10.0
 25
10.0
 16
0.0
 26
0.0
 36
1.0
 17
0.0
 27
0.0
 37
0.0
 42
50.0
 43
0.0
 44
0.0
 45
1357.999999999991
 50
0.0
 51
0.0
 72
   100
 90
   557152
  1

281
     0
 71
     1
 74
     0
110
0.0
120
0.0
130
0.0
111
1.0
121
0.0
131
0.0
112
0.0
122
1.0
132
0.0
 79
     0
146
0.0
170
     0
 61
     5
348
2F
292
     1
282
     1
141
0.0
142
0.0
 63
   256
  0
ENDSEC
  0
SECTION
  2
OBJECTS
  0
DICTIONARY
  5
C
330
0
100
AcDbDictionary
281
     1
  3
ACAD_DETAILVIEWSTYLE
350
456
  3
ACAD_GROUP
350
D
  3
ACAD_IMAGE_DICT
350
276
  3
ACAD_IMAGE_VARS
350
6F
  3
ACAD_LAYOUT
350
1A
  3
ACAD_MATERIAL
350
43
  3
ACAD_MLEADERSTYLE
350
6B
  3
ACAD_MLINESTYLE
350
17
  3
ACAD_PLOTSETTINGS
350
19
  3
ACAD_PLOTSTYLENAME
350
E
  3
ACAD_SCALELIST
350
47
  3
ACAD_SECTIONVIEWSTYLE
350
457
  3
ACAD_TABLESTYLE
350
69
  3
ACAD_VISUALSTYLE
350
2A
  3
ACDB_RECOMPOSE_DATA
350
453
  3
AcDbVariableDictionary
350
44F
  0
SUN
  5
6D
330
29
100
AcDbSun
 90
        1
290
     0
 63
     7
421
 16777215
 40
1.0
291
     1
 91
  2455826
 92
 54000000
292
     0
 70
     2
 71
   256
280
     1
  0
IMAGEDEF_REACTOR
  5
279
330
278
100
AcDbRasterImageDefReactor
 90
        2
330
278
  0
IMAGEDEF_REACTOR
  5
27C
330
27B
100
AcDbRasterImageDefReactor
 90
        2
330
27B
  0
IMAGEDEF_REACTOR
  5
27F
330
27E
100
AcDbRasterImageDefReactor
 90
        2
330
27E
  0
SUN
  5
244
330
243
100
AcDbSun
 90
        1
290
     0
 63
     7
421
 16777215
 40
1.0
291
     1
 91
  2455826
 92
 54000000
292
     0
 70
     2
 71
   256
280
     1
  0
DICTIONARY
  5
456
102
{ACAD_REACTORS
330
C
102
}
330
C
100
AcDbDictionary
281
     1
  0
DICTIONARY
  5
D
102
{ACAD_REACTORS
330
C
102
}
330
C
100
AcDbDictionary
281
     1
  3
DIM2
350
432
  0
DICTIONARY
  5
276
102
{ACAD_REACTORS
330
C
102
}
330
C
100
AcDbDictionary
281
     1
  3
C:\Users\MAIFFR~1\AppData\Local\Temp\EXE_LOGO_FBF_soutien_Q_L.jpg1
350
27A
  3
C:\Users\MAIFFR~1\AppData\Local\Temp\fcba.jpg0
350
277
  3
C:\Users\MAIFFR~1\AppData\Local\Temp\logo_codifab_baseline_soutien.jpg2
350
27D
  0
RASTERVARIABLES
  5
6F
102
{ACAD_REACTORS
330
C
102
}
330
C
100
AcDbRasterVariables
 90
        0
 70
     0
 71
     1
 72
     1
  0
DICTIONARY
  5
1A
102
{ACAD_REACTORS
330
C
102
}
330
C
100
AcDbDictionary
281
     1
  3
CompleteLayout
350
1E
  3
Model
350
22
  3
PrintFrame_12
350
23E
  0
DICTIONARY
  5
43
102
{ACAD_REACTORS
330
C
102
}
330
C
100
AcDbDictionary
281
     1
  3
ByBlock
350
45
  3
ByLayer
350
44
  3
Global
350
46
  0
DICTIONARY
  5
6B
102
{ACAD_REACTORS
330
C
102
}
330
C
100
AcDbDictionary
281
     1
  3
Standard
350
6C
  0
DICTIONARY
  5
17
102
{ACAD_REACTORS
330
C
102
}
330
C
100
AcDbDictionary
281
     1
  3
Standard
350
18
  0
DICTIONARY
  5
19
102
{ACAD_REACTORS
330
C
102
}
330
C
100
AcDbDictionary
281
     1
  3
PlotSettings_
350
241
  0
ACDBDICTIONARYWDFLT
  5
E
102
{ACAD_REACTORS
330
C
102
}
330
C
100
AcDbDictionary
281
     1
  3
Normal
350
F
100
AcDbDictionaryWithDefault
340
F
  0
DICTIONARY
  5
47
102
{ACAD_REACTORS
330
C
102
}
330
C
100
AcDbDictionary
281
     1
  3
A0
350
48
  3
A1
350
49
  3
A2
350
4A
  3
A3
350
4B
  3
A4
350
4C
  3
A5
350
4D
  3
A6
350
4E
  3
A7
350
4F
  3
A8
350
50
  3
A9
350
51
  3
B0
350
52
  3
B1
350
53
  3
B2
350
54
  3
B3
350
55
  3
B4
350
56
  3
B5
350
57
  3
B6
350
58
  3
B7
350
59
  3
B8
350
5A
  3
B9
350
5B
  3
C0
350
5C
  3
C1
350
5D
  3
C2
350
5E
  3
C3
350
5F
  3
C4
350
60
  3
C5
350
61
  3
C6
350
62
  3
C7
350
63
  3
C8
350
64
  3
C9
350
65
  3
D0
350
66
  3
D1
350
67
  3
D2
350
68
  0
DICTIONARY
  5
457
102
{ACAD_REACTORS
330
C
102
}
330
C
100
AcDbDictionary
281
     1
  0
DICTIONARY
  5
69
102
{ACAD_REACTORS
330
C
102
}
330
C
100
AcDbDictionary
281
     1
  3
Standard
350
6A
  0
DICTIONARY
  5
2A
102
{ACAD_REACTORS
330
C
102
}
330
C
100
AcDbDictionary
281
     1
  3
2dWireframe
350
2F
  3
Basic
350
32
  3
Brighten
350
36
  3
ColorChange
350
3A
  3
Conceptual
350
34
  3
Dim
350
35
  3
EdgeColorOff
350
3D
  3
Facepattern
350
39
  3
Flat
350
2B
  3
FlatWithEdges
350
2C
  3
Gouraud
350
2D
  3
GouraudWithEdges
350
2E
  3
Hidden
350
31
  3
JitterOff
350
3B
  3
Linepattern
350
38
  3
OverhangOff
350
3C
  3
Realistic
350
33
  3
Shaded
350
42
  3
Shaded with edges
350
41
  3
Shades of Gray
350
3E
  3
Sketchy
350
3F
  3
Thicken
350
37
  3
Wireframe
350
30
  3
X-Ray
350
40
  0
XRECORD
  5
453
102
{ACAD_REACTORS
330
C
102
}
330
C
100
AcDbXrecord
280
     1
 90
        1
330
6A
  0
DICTIONARY
  5
44F
102
{ACAD_REACTORS
330
C
102
}
330
C
100
AcDbDictionary
281
     1
  3
CANNOSCALE
350
450
  3
CMLEADERSTYLE
350
455
  3
CTABLESTYLE
350
454
  3
WIPEOUTFRAME
350
458
  0
GROUP
  5
432
102
{ACAD_REACTORS
330
D
102
}
330
D
100
AcDbGroup
300

 70
     0
 71
     1
340
431
  0
IMAGEDEF
  5
27A
102
{ACAD_REACTORS
330
276
330
27C
102
}
330
276
100
AcDbRasterImageDef
 90
        0
  1
EXE_LOGO_FBF_soutien_Q_L.jpg
 10
200.0
 20
133.0
 11
0.3527336860670194
 21
0.3527336860670194
280
     1
281
     3
  0
IMAGEDEF
  5
277
102
{ACAD_REACTORS
330
276
330
279
102
}
330
276
100
AcDbRasterImageDef
 90
        0
  1
fcba.jpg
 10
247.0
 20
171.0
 11
0.3527336860670194
 21
0.3527336860670194
280
     1
281
     3
  0
IMAGEDEF
  5
27D
102
{ACAD_REACTORS
330
276
330
27F
102
}
330
276
100
AcDbRasterImageDef
 90
        0
  1
logo_codifab_baseline_soutien.jpg
 10
1326.0
 20
580.0
 11
0.08466683600033867
 21
0.08466683600033867
280
     1
281
     3
  0
LAYOUT
  5
1E
102
{ACAD_REACTORS
330
1A
102
}
330
1A
100
AcDbPlotSettings
  1

  2
none_device
  4

  6

 40
0.0
 41
0.0
 42
0.0
 43
0.0
 44
0.0
 45
0.0
 46
0.0
 47
0.0
 48
0.0
 49
0.0
140
0.0
141
0.0
142
1.0
143
1.0
 70
   688
 72
     0
 73
     0
 74
     5
  7

 75
    16
 76
     0
 77
     2
 78
   300
147
1.0
148
0.0
149
0.0
100
AcDbLayout
  1
CompleteLayout
 70
     1
 71
     1
 10
0.0
 20
0.0
 11
12.0
 21
9.0
 12
0.0
 22
0.0
 32
0.0
 14
1.000000000000000E+20
 24
1.000000000000000E+20
 34
1.000000000000000E+20
 15
-1.000000000000000E+20
 25
-1.000000000000000E+20
 35
-1.000000000000000E+20
146
0.0
 13
0.0
 23
0.0
 33
0.0
 16
1.0
 26
0.0
 36
0.0
 17
0.0
 27
1.0
 37
0.0
 76
     0
330
1B
  0
LAYOUT
  5
22
102
{ACAD_REACTORS
330
1A
102
}
330
1A
100
AcDbPlotSettings
  1

  2
none_device
  4
Letter_(8.50_x_11.00_Inches)
  6

 40
6.35
 41
6.35
 42
6.35000508
 43
6.35000508
 44
215.9
 45
279.4
 46
0.0
 47
0.0
 48
0.0
 49
0.0
140
0.0
141
0.0
142
1.0
143
1.0
 70
  1712
 72
     0
 73
     0
 74
     0
  7

 75
     0
 76
     0
 77
     2
 78
   300
147
1.0
148
0.0
149
0.0
100
AcDbLayout
  1
Model
 70
     1
 71
     0
 10
0.0
 20
0.0
 11
12.0
 21
9.0
 12
0.0
 22
0.0
 32
0.0
 14
10990.75085774395
 24
1394.601785601026
 34
0.0
 15
11975.75085774395
 25
2749.601785601053
 35
0.0
146
0.0
 13
0.0
 23
0.0
 33
0.0
 16
1.0
 26
0.0
 36
0.0
 17
0.0
 27
1.0
 37
0.0
 76
     0
330
1F
331
29
  0
LAYOUT
  5
23E
102
{ACAD_REACTORS
330
1A
102
}
330
1A
100
AcDbPlotSettings
  1
PlotSettings_
  2
Custom Device
  4
Custom_210.000000x297.000000_12.700000_12.700000_6.200000_6.200000
  6

 40
6.2
 41
12.7
 42
6.2
 43
12.7
 44
210.0
 45
296.9999999999982
 46
0.0
 47
0.0
 48
0.0
 49
0.0
140
0.0
141
0.0
142
1.0
143
1.0
 70
   752
 72
     1
 73
     0
 74
     5
  7

 75
    16
 76
     0
 77
     2
 78
   300
147
1.0
148
0.0
149
0.0
100
AcDbLayout
  1
PrintFrame_12
 70
     0
 71
     2
 10
-20.0
 20
-7.5
 11
277.0
 21
202.5
 12
0.0
 22
0.0
 32
0.0
 14
0.0
 24
0.0
 34
0.0
 15
197.6
 25
271.5999999999982
 35
0.0
146
0.0
 13
0.0
 23
0.0
 33
0.0
 16
1.0
 26
0.0
 36
0.0
 17
0.0
 27
1.0
 37
0.0
 76
     0
330
23D
331
243
1001
PLOTTRANSPARENCY
1071
        1
1000
layout-user-created
1070
     1
1000
layout-line-weight-scale
1042
1.0
  0
MATERIAL
  5
45
102
{ACAD_REACTORS
330
43
102
}
330
43
100
AcDbMaterial
  1
ByBlock
 72
     1
 94
      127
  0
MATERIAL
  5
44
102
{ACAD_REACTORS
330
43
102
}
330
43
100
AcDbMaterial
  1
ByLayer
 72
     1
 94
      127
  0
MATERIAL
  5
46
102
{ACAD_REACTORS
330
43
102
}
330
43
100
AcDbMaterial
  1
Global
 72
     1
 94
      127
  0
MLEADERSTYLE
  5
6C
102
{ACAD_REACTORS
330
6B
102
}
330
6B
100
AcDbMLeaderStyle
179
     2
170
     2
171
     1
172
     0
 90
        2
 40
0.0
 41
0.0
173
     1
 91
-1056964608
340
14
 92
       -2
290
     1
 42
0.09
291
     1
 43
0.36
  3
Standard
341
0
 44
0.18
300

342
11
174
     1
178
     6
175
     1
176
     0
 93
-1056964608
 45
0.18
292
     0
297
     0
 46
0.18
343
0
 94
-1056964608
 47
1.0
 49
1.0
140
1.0
293
     1
141
0.0
294
     1
177
     0
142
1.0
295
     0
296
     0
143
0.125
271
     0
272
     9
273
     9
298
     0
  0
MLINESTYLE
  5
18
102
{ACAD_REACTORS
330
17
102
}
330
17
100
AcDbMlineStyle
  2
Standard
 70
     0
  3

 62
   256
 51
90.0
 52
90.0
 71
     2
 49
0.5
 62
   256
  6
BYLAYER
 49
-0.5
 62
   256
  6
BYLAYER
  0
PLOTSETTINGS
  5
241
102
{ACAD_REACTORS
330
19
102
}
330
19
100
AcDbPlotSettings
  1
PlotSettings_
  2
Custom Device
  4
Custom_210.000000x297.000000_12.700000_12.700000_6.200000_6.200000
  6

 40
6.2
 41
12.7
 42
6.2
 43
12.7
 44
210.0
 45
296.9999999999982
 46
0.0
 47
0.0
 48
0.0
 49
0.0
140
0.0
141
0.0
142
1.0
143
1.0
 70
   752
 72
     1
 73
     0
 74
     5
  7

 75
    16
 76
     0
 77
     2
 78
   300
147
1.0
148
0.0
149
0.0
1001
PLOTTRANSPARENCY
1071
        1
1000
layout-user-created
1070
     1
1000
layout-line-weight-scale
1042
1.0
  0
ACDBPLACEHOLDER
  5
F
102
{ACAD_REACTORS
330
E
102
}
330
E
  0
SCALE
  5
48
102
{ACAD_REACTORS
330
47
102
}
330
47
100
AcDbScale
 70
     0
300
1:1
140
1.0
141
1.0
290
     1
  0
SCALE
  5
49
102
{ACAD_REACTORS
330
47
102
}
330
47
100
AcDbScale
 70
     0
300
1:2
140
1.0
141
2.0
290
     0
  0
SCALE
  5
4A
102
{ACAD_REACTORS
330
47
102
}
330
47
100
AcDbScale
 70
     0
300
1:4
140
1.0
141
4.0
290
     0
  0
SCALE
  5
4B
102
{ACAD_REACTORS
330
47
102
}
330
47
100
AcDbScale
 70
     0
300
1:5
140
1.0
141
5.0
290
     0
  0
SCALE
  5
4C
102
{ACAD_REACTORS
330
47
102
}
330
47
100
AcDbScale
 70
     0
300
1:8
140
1.0
141
8.0
290
     0
  0
SCALE
  5
4D
102
{ACAD_REACTORS
330
47
102
}
330
47
100
AcDbScale
 70
     0
300
1:10
140
1.0
141
10.0
290
     0
  0
SCALE
  5
4E
102
{ACAD_REACTORS
330
47
102
}
330
47
100
AcDbScale
 70
     0
300
1:16
140
1.0
141
16.0
290
     0
  0
SCALE
  5
4F
102
{ACAD_REACTORS
330
47
102
}
330
47
100
AcDbScale
 70
     0
300
1:20
140
1.0
141
20.0
290
     0
  0
SCALE
  5
50
102
{ACAD_REACTORS
330
47
102
}
330
47
100
AcDbScale
 70
     0
300
1:30
140
1.0
141
30.0
290
     0
  0
SCALE
  5
51
102
{ACAD_REACTORS
330
47
102
}
330
47
100
AcDbScale
 70
     0
300
1:40
140
1.0
141
40.0
290
     0
  0
SCALE
  5
52
102
{ACAD_REACTORS
330
47
102
}
330
47
100
AcDbScale
 70
     0
300
1:50
140
1.0
141
50.0
290
     0
  0
SCALE
  5
53
102
{ACAD_REACTORS
330
47
102
}
330
47
100
AcDbScale
 70
     0
300
1:100
140
1.0
141
100.0
290
     0
  0
SCALE
  5
54
102
{ACAD_REACTORS
330
47
102
}
330
47
100
AcDbScale
 70
     0
300
2:1
140
2.0
141
1.0
290
     0
  0
SCALE
  5
55
102
{ACAD_REACTORS
330
47
102
}
330
47
100
AcDbScale
 70
     0
300
4:1
140
4.0
141
1.0
290
     0
  0
SCALE
  5
56
102
{ACAD_REACTORS
330
47
102
}
330
47
100
AcDbScale
 70
     0
300
8:1
140
8.0
141
1.0
290
     0
  0
SCALE
  5
57
102
{ACAD_REACTORS
330
47
102
}
330
47
100
AcDbScale
 70
     0
300
10:1
140
10.0
141
1.0
290
     0
  0
SCALE
  5
58
102
{ACAD_REACTORS
330
47
102
}
330
47
100
AcDbScale
 70
     0
300
100:1
140
100.0
141
1.0
290
     0
  0
SCALE
  5
59
102
{ACAD_REACTORS
330
47
102
}
330
47
100
AcDbScale
 70
     0
300
1/128" = 1'-0"
140
0.0078125
141
12.0
290
     0
  0
SCALE
  5
5A
102
{ACAD_REACTORS
330
47
102
}
330
47
100
AcDbScale
 70
     0
300
1/64" = 1'-0"
140
0.015625
141
12.0
290
     0
  0
SCALE
  5
5B
102
{ACAD_REACTORS
330
47
102
}
330
47
100
AcDbScale
 70
     0
300
1/32" = 1'-0"
140
0.03125
141
12.0
290
     0
  0
SCALE
  5
5C
102
{ACAD_REACTORS
330
47
102
}
330
47
100
AcDbScale
 70
     0
300
1/16" = 1'-0"
140
0.0625
141
12.0
290
     0
  0
SCALE
  5
5D
102
{ACAD_REACTORS
330
47
102
}
330
47
100
AcDbScale
 70
     0
300
3/32" = 1'-0"
140
0.09375
141
12.0
290
     0
  0
SCALE
  5
5E
102
{ACAD_REACTORS
330
47
102
}
330
47
100
AcDbScale
 70
     0
300
1/8" = 1'-0"
140
0.125
141
12.0
290
     0
  0
SCALE
  5
5F
102
{ACAD_REACTORS
330
47
102
}
330
47
100
AcDbScale
 70
     0
300
3/16" = 1'-0"
140
0.1875
141
12.0
290
     0
  0
SCALE
  5
60
102
{ACAD_REACTORS
330
47
102
}
330
47
100
AcDbScale
 70
     0
300
1/4" = 1'-0"
140
0.25
141
12.0
290
     0
  0
SCALE
  5
61
102
{ACAD_REACTORS
330
47
102
}
330
47
100
AcDbScale
 70
     0
300
3/8" = 1'-0"
140
0.375
141
12.0
290
     0
  0
SCALE
  5
62
102
{ACAD_REACTORS
330
47
102
}
330
47
100
AcDbScale
 70
     0
300
1/2" = 1'-0"
140
0.5
141
12.0
290
     0
  0
SCALE
  5
63
102
{ACAD_REACTORS
330
47
102
}
330
47
100
AcDbScale
 70
     0
300
3/4" = 1'-0"
140
0.75
141
12.0
290
     0
  0
SCALE
  5
64
102
{ACAD_REACTORS
330
47
102
}
330
47
100
AcDbScale
 70
     0
300
1" = 1'-0"
140
1.0
141
12.0
290
     0
  0
SCALE
  5
65
102
{ACAD_REACTORS
330
47
102
}
330
47
100
AcDbScale
 70
     0
300
1-1/2" = 1'-0"
140
1.5
141
12.0
290
     0
  0
SCALE
  5
66
102
{ACAD_REACTORS
330
47
102
}
330
47
100
AcDbScale
 70
     0
300
3" = 1'-0"
140
3.0
141
12.0
290
     0
  0
SCALE
  5
67
102
{ACAD_REACTORS
330
47
102
}
330
47
100
AcDbScale
 70
     0
300
6" = 1'-0"
140
6.0
141
12.0
290
     0
  0
SCALE
  5
68
102
{ACAD_REACTORS
330
47
102
}
330
47
100
AcDbScale
 70
     0
300
1'-0" = 1'-0"
140
12.0
141
12.0
290
     0
  0
TABLESTYLE
  5
6A
102
{ACAD_REACTORS
330
69
102
}
102
{ACAD_XDICTIONARY
360
451
102
}
330
69
100
AcDbTableStyle
  3
Standard
 70
     0
 71
     0
 40
0.06
 41
0.06
280
     0
281
     0
  7
Standard
140
0.18
170
     2
 62
     0
 63
   257
283
     0
 90
        4
 91
        0
  1

274
    -2
284
     1
 64
     0
275
    -2
285
     1
 65
     0
276
    -2
286
     1
 66
     0
277
    -2
287
     1
 67
     0
278
    -2
288
     1
 68
     0
279
    -2
289
     1
 69
     0
  7
Standard
140
0.25
170
     5
 62
     0
 63
   257
283
     0
 90
        4
 91
        0
  1

274
    -2
284
     1
 64
     0
275
    -2
285
     1
 65
     0
276
    -2
286
     1
 66
     0
277
    -2
287
     1
 67
     0
278
    -2
288
     1
 68
     0
279
    -2
289
     1
 69
     0
  7
Standard
140
0.18
170
     5
 62
     0
 63
   257
283
     0
 90
        4
 91
        0
  1

274
    -2
284
     1
 64
     0
275
    -2
285
     1
 65
     0
276
    -2
286
     1
 66
     0
277
    -2
287
     1
 67
     0
278
    -2
288
     1
 68
     0
279
    -2
289
     1
 69
     0
  0
VISUALSTYLE
  5
2F
102
{ACAD_REACTORS
330
2A
102
}
330
2A
100
AcDbVisualStyle
  2
2dWireframe
 70
     4
177
     3
291
     0
 70
    58
 90
        0
176
     1
 90
        2
176
     1
 90
        0
176
     1
 90
        0
176
     1
 40
0.6
176
     1
 40
30.0
176
     1
 62
     7
420
 16777215
176
     1
 90
        1
176
     1
 90
        4
176
     1
 62
     7
176
     1
 62
   257
176
     1
 90
        1
176
     1
 90
        1
176
     1
 40
1.0
176
     1
 90
        0
176
     1
 62
   257
176
     1
 40
1.0
176
     1
 90
        1
176
     1
 90
        6
176
     1
 90
        2
176
     1
 62
     7
176
     1
 90
        5
176
     1
 90
        0
176
     1
 90
        0
176
     1
290
     0
176
     1
 90
        1
176
     1
 40
0.0
176
     1
 90
        0
176
     1
290
     1
176
     1
290
     1
176
     1
290
     0
176
     1
290
     0
176
     1
290
     0
176
     1
290
     0
176
     1
290
     0
176
     1
290
     0
176
     1
290
     0
176
     1
 90
       50
176
     1
 40
0.0
176
     1
 40
1.0
176
     1
 90
        0
176
     1
 62
    18
420
        0
176
     1
 90
       50
176
     1
 90
        3
176
     1
 62
     5
420
      255
176
     1
290
     0
176
     1
 90
       50
176
     1
 90
       50
176
     1
 90
       50
176
     1
290
     0
176
     1
 90
       50
176
     1
 62
   256
176
     0
 40
1.0
176
     0
 90
        2
176
     1
  1
strokes_ogs.tif
176
     1
290
     0
176
     1
 40
1.0
176
     1
 40
1.0
176
     1
  0
VISUALSTYLE
  5
32
102
{ACAD_REACTORS
330
2A
102
}
330
2A
100
AcDbVisualStyle
  2
Basic
 70
     7
177
     3
291
     1
 70
    58
 90
        1
176
     1
 90
        0
176
     1
 90
        1
176
     1
 90
        0
176
     1
 40
0.6
176
     1
 40
30.0
176
     1
 62
     7
420
 16777215
176
     1
 90
        0
176
     1
 90
        4
176
     1
 62
     7
176
     1
 62
   257
176
     1
 90
        1
176
     1
 90
        1
176
     1
 40
1.0
176
     1
 90
        8
176
     1
 62
     7
176
     1
 40
1.0
176
     1
 90
        1
176
     1
 90
        6
176
     1
 90
        2
176
     1
 62
     7
176
     1
 90
        5
176
     1
 90
        0
176
     1
 90
        0
176
     1
290
     0
176
     1
 90
        1
176
     1
 40
0.0
176
     1
 90
        0
176
     1
290
     0
176
     1
290
     1
176
     1
290
     1
176
     1
290
     0
176
     1
290
     0
176
     1
290
     0
176
     1
290
     0
176
     1
290
     0
176
     1
290
     0
176
     1
 90
       50
176
     1
 40
0.0
176
     1
 40
1.0
176
     1
 90
        0
176
     1
 62
    18
420
        0
176
     1
 90
       50
176
     1
 90
        3
176
     1
 62
     5
420
      255
176
     1
290
     0
176
     1
 90
       50
176
     1
 90
       50
176
     1
 90
       50
176
     1
290
     0
176
     1
 90
       50
176
     1
 62
   256
176
     0
 40
1.0
176
     0
 90
        2
176
     1
  1
strokes_ogs.tif
176
     1
290
     0
176
     1
 40
1.0
176
     1
 40
1.0
176
     1
  0
VISUALSTYLE
  5
36
102
{ACAD_REACTORS
330
2A
102
}
330
2A
100
AcDbVisualStyle
  2
Brighten
 70
    12
177
     3
291
     1
 70
    58
 90
        2
176
     1
 90
        2
176
     1
 90
        0
176
     1
 90
        0
176
     1
 40
0.6
176
     1
 40
30.0
176
     1
 62
     7
420
 16777215
176
     1
 90
        1
176
     1
 90
        4
176
     1
 62
     7
176
     1
 62
   257
176
     1
 90
        1
176
     1
 90
        1
176
     1
 40
1.0
176
     1
 90
        8
176
     1
 62
     7
176
     1
 40
1.0
176
     1
 90
        1
176
     1
 90
        6
176
     1
 90
        2
176
     1
 62
     7
176
     1
 90
        5
176
     1
 90
        0
176
     1
 90
        0
176
     1
290
     0
176
     1
 90
        1
176
     1
 40
50.0
176
     1
 90
        0
176
     1
290
     0
176
     1
290
     1
176
     1
290
     1
176
     1
290
     0
176
     1
290
     0
176
     1
290
     0
176
     1
290
     0
176
     1
290
     0
176
     1
290
     0
176
     1
 90
       50
176
     1
 40
0.0
176
     1
 40
1.0
176
     1
 90
        0
176
     1
 62
    18
420
        0
176
     1
 90
       50
176
     1
 90
        3
176
     1
 62
     5
420
      255
176
     1
290
     0
176
     1
 90
       50
176
     1
 90
       50
176
     1
 90
       50
176
     1
290
     0
176
     1
 90
       50
176
     1
 62
   256
176
     0
 40
1.0
176
     0
 90
        2
176
     1
  1
strokes_ogs.tif
176
     1
290
     0
176
     1
 40
1.0
176
     1
 40
1.0
176
     1
  0
VISUALSTYLE
  5
3A
102
{ACAD_REACTORS
330
2A
102
}
330
2A
100
AcDbVisualStyle
  2
ColorChange
 70
    16
177
     3
291
     1
 70
    58
 90
        2
176
     1
 90
        2
176
     1
 90
        3
176
     1
 90
        0
176
     1
 40
0.6
176
     1
 40
30.0
176
     1
 62
     8
420
  8421504
176
     1
 90
        1
176
     1
 90
        4
176
     1
 62
     7
176
     1
 62
   257
176
     1
 90
        1
176
     1
 90
        1
176
     1
 40
1.0
176
     1
 90
        8
176
     1
 62
     8
420
  8421504
176
     1
 40
1.0
176
     1
 90
        1
176
     1
 90
        6
176
     1
 90
        2
176
     1
 62
     7
176
     1
 90
        5
176
     1
 90
        0
176
     1
 90
        0
176
     1
290
     0
176
     1
 90
        1
176
     1
 40
0.0
176
     1
 90
        0
176
     1
290
     0
176
     1
290
     1
176
     1
290
     1
176
     1
290
     0
176
     1
290
     0
176
     1
290
     0
176
     1
290
     0
176
     1
290
     0
176
     1
290
     0
176
     1
 90
       50
176
     1
 40
0.0
176
     1
 40
1.0
176
     1
 90
        0
176
     1
 62
    18
420
        0
176
     1
 90
       50
176
     1
 90
        3
176
     1
 62
     5
420
      255
176
     1
290
     0
176
     1
 90
       50
176
     1
 90
       50
176
     1
 90
       50
176
     1
290
     0
176
     1
 90
       50
176
     1
 62
   256
176
     0
 40
1.0
176
     0
 90
        2
176
     1
  1
strokes_ogs.tif
176
     1
290
     0
176
     1
 40
1.0
176
     1
 40
1.0
176
     1
  0
VISUALSTYLE
  5
34
102
{ACAD_REACTORS
330
2A
102
}
330
2A
100
AcDbVisualStyle
  2
Conceptual
 70
     9
177
     3
291
     0
 70
    58
 90
        3
176
     1
 90
        2
176
     1
 90
        0
176
     1
 90
        0
176
     1
 40
0.6
176
     1
 40
30.0
176
     1
 62
     7
420
 16777215
176
     1
 90
        2
176
     1
 90
        2
176
     1
 62
     7
176
     1
 62
   257
176
     1
 90
        1
176
     1
 90
        1
176
     1
 40
179.0
176
     1
 90
        8
176
     1
 62
     7
176
     1
 40
1.0
176
     1
 90
        1
176
     1
 90
        6
176
     1
 90
        2
176
     1
 62
     7
176
     1
 90
        3
176
     1
 90
        0
176
     1
 90
        0
176
     1
290
     0
176
     1
 90
        1
176
     1
 40
0.0
176
     1
 90
        0
176
     1
290
     0
176
     1
290
     1
176
     1
290
     1
176
     1
290
     0
176
     1
290
     0
176
     1
290
     0
176
     1
290
     0
176
     1
290
     0
176
     1
290
     0
176
     1
 90
       50
176
     1
 40
0.0
176
     1
 40
1.0
176
     1
 90
        0
176
     1
 62
    18
420
        0
176
     1
 90
       50
176
     1
 90
        3
176
     1
 62
     5
420
      255
176
     1
290
     0
176
     1
 90
       50
176
     1
 90
       50
176
     1
 90
       50
176
     1
290
     0
176
     1
 90
       50
176
     1
 62
   256
176
     0
 40
1.0
176
     0
 90
        2
176
     1
  1
strokes_ogs.tif
176
     1
290
     0
176
     1
 40
1.0
176
     1
 40
1.0
176
     1
  0
VISUALSTYLE
  5
35
102
{ACAD_REACTORS
330
2A
102
}
330
2A
100
AcDbVisualStyle
  2
Dim
 70
    11
177
     3
291
     1
 70
    58
 90
        2
176
     1
 90
        2
176
     1
 90
        0
176
     1
 90
        0
176
     1
 40
0.6
176
     1
 40
30.0
176
     1
 62
     7
420
 16777215
176
     1
 90
        1
176
     1
 90
        4
176
     1
 62
     7
176
     1
 62
   257
176
     1
 90
        1
176
     1
 90
        1
176
     1
 40
1.0
176
     1
 90
        8
176
     1
 62
     7
176
     1
 40
1.0
176
     1
 90
        1
176
     1
 90
        6
176
     1
 90
        2
176
     1
 62
     7
176
     1
 90
        5
176
     1
 90
        0
176
     1
 90
        0
176
     1
290
     0
176
     1
 90
        1
176
     1
 40
-50.0
176
     1
 90
        0
176
     1
290
     0
176
     1
290
     1
176
     1
290
     1
176
     1
290
     0
176
     1
290
     0
176
     1
290
     0
176
     1
290
     0
176
     1
290
     0
176
     1
290
     0
176
     1
 90
       50
176
     1
 40
0.0
176
     1
 40
1.0
176
     1
 90
        0
176
     1
 62
    18
420
        0
176
     1
 90
       50
176
     1
 90
        3
176
     1
 62
     5
420
      255
176
     1
290
     0
176
     1
 90
       50
176
     1
 90
       50
176
     1
 90
       50
176
     1
290
     0
176
     1
 90
       50
176
     1
 62
   256
176
     0
 40
1.0
176
     0
 90
        2
176
     1
  1
strokes_ogs.tif
176
     1
290
     0
176
     1
 40
1.0
176
     1
 40
1.0
176
     1
  0
VISUALSTYLE
  5
3D
102
{ACAD_REACTORS
330
2A
102
}
330
2A
100
AcDbVisualStyle
  2
EdgeColorOff
 70
    22
177
     3
291
     1
 70
    58
 90
        2
176
     0
 90
        2
176
     0
 90
        0
176
     0
 90
        0
176
     0
 40
0.6
176
     0
 40
30.0
176
     0
 62
     7
420
 16777215
176
     0
 90
        1
176
     0
 90
        4
176
     0
 62
     7
176
     0
 62
   257
176
     0
 90
        1
176
     0
 90
        1
176
     0
 40
1.0
176
     0
 90
        8
176
     2
 62
     7
176
     0
 40
1.0
176
     0
 90
        1
176
     0
 90
        6
176
     0
 90
        2
176
     0
 62
     7
176
     0
 90
        5
176
     0
 90
        0
176
     0
 90
        0
176
     0
290
     0
176
     0
 90
        1
176
     0
 40
0.0
176
     0
 90
        0
176
     0
290
     0
176
     0
290
     1
176
     0
290
     1
176
     0
290
     0
176
     0
290
     0
176
     0
290
     0
176
     0
290
     0
176
     0
290
     0
176
     0
290
     0
176
     0
 90
       50
176
     0
 40
0.0
176
     0
 40
1.0
176
     0
 90
        0
176
     0
 62
    18
420
        0
176
     0
 90
       50
176
     0
 90
        3
176
     0
 62
     5
420
      255
176
     0
290
     0
176
     0
 90
       50
176
     0
 90
       50
176
     0
 90
       50
176
     0
290
     0
176
     0
 90
       50
176
     0
 62
   256
176
     0
 40
1.0
176
     0
 90
        2
176
     0
  1
strokes_ogs.tif
176
     0
290
     0
176
     0
 40
1.0
176
     0
 40
1.0
176
     0
  0
VISUALSTYLE
  5
39
102
{ACAD_REACTORS
330
2A
102
}
330
2A
100
AcDbVisualStyle
  2
Facepattern
 70
    15
177
     3
291
     1
 70
    58
 90
        2
176
     1
 90
        2
176
     1
 90
        0
176
     1
 90
        0
176
     1
 40
0.6
176
     1
 40
30.0
176
     1
 62
     7
420
 16777215
176
     1
 90
        1
176
     1
 90
        4
176
     1
 62
     7
176
     1
 62
   257
176
     1
 90
        1
176
     1
 90
        1
176
     1
 40
1.0
176
     1
 90
        8
176
     1
 62
     7
176
     1
 40
1.0
176
     1
 90
        1
176
     1
 90
        6
176
     1
 90
        2
176
     1
 62
     7
176
     1
 90
        5
176
     1
 90
        0
176
     1
 90
        0
176
     1
290
     0
176
     1
 90
        1
176
     1
 40
0.0
176
     1
 90
        0
176
     1
290
     0
176
     1
290
     1
176
     1
290
     1
176
     1
290
     0
176
     1
290
     0
176
     1
290
     0
176
     1
290
     0
176
     1
290
     0
176
     1
290
     0
176
     1
 90
       50
176
     1
 40
0.0
176
     1
 40
1.0
176
     1
 90
        0
176
     1
 62
    18
420
        0
176
     1
 90
       50
176
     1
 90
        3
176
     1
 62
     5
420
      255
176
     1
290
     0
176
     1
 90
       50
176
     1
 90
       50
176
     1
 90
       50
176
     1
290
     0
176
     1
 90
       50
176
     1
 62
   256
176
     0
 40
1.0
176
     0
 90
        2
176
     1
  1
strokes_ogs.tif
176
     1
290
     0
176
     1
 40
1.0
176
     1
 40
1.0
176
     1
  0
VISUALSTYLE
  5
2B
102
{ACAD_REACTORS
330
2A
102
}
330
2A
100
AcDbVisualStyle
  2
Flat
 70
     0
177
     3
291
     1
 70
    58
 90
        2
176
     1
 90
        1
176
     1
 90
        1
176
     1
 90
        2
176
     1
 40
0.6
176
     1
 40
30.0
176
     1
 62
     7
420
 16777215
176
     1
 90
        0
176
     1
 90
        0
176
     1
 62
     7
176
     1
 62
   257
176
     1
 90
        1
176
     1
 90
        1
176
     1
 40
1.0
176
     1
 90
        8
176
     1
 62
     7
176
     1
 40
1.0
176
     1
 90
        1
176
     1
 90
        6
176
     1
 90
        2
176
     1
 62
     7
176
     1
 90
        5
176
     1
 90
        0
176
     1
 90
        0
176
     1
290
     0
176
     1
 90
       13
176
     1
 40
0.0
176
     1
 90
        0
176
     1
290
     0
176
     1
290
     1
176
     1
290
     1
176
     1
290
     0
176
     1
290
     0
176
     1
290
     0
176
     1
290
     0
176
     1
290
     0
176
     1
290
     0
176
     1
 90
       50
176
     1
 40
0.0
176
     1
 40
1.0
176
     1
 90
        0
176
     1
 62
    18
420
        0
176
     1
 90
       50
176
     1
 90
        3
176
     1
 62
     5
420
      255
176
     1
290
     0
176
     1
 90
       50
176
     1
 90
       50
176
     1
 90
       50
176
     1
290
     0
176
     1
 90
       50
176
     1
 62
   256
176
     0
 40
1.0
176
     0
 90
        2
176
     1
  1
strokes_ogs.tif
176
     1
290
     0
176
     1
 40
1.0
176
     1
 40
1.0
176
     1
  0
VISUALSTYLE
  5
2C
102
{ACAD_REACTORS
330
2A
102
}
330
2A
100
AcDbVisualStyle
  2
FlatWithEdges
 70
     1
177
     3
291
     1
 70
    58
 90
        2
176
     1
 90
        1
176
     1
 90
        1
176
     1
 90
        2
176
     1
 40
0.6
176
     1
 40
30.0
176
     1
 62
     7
420
 16777215
176
     1
 90
        1
176
     1
 90
        0
176
     1
 62
     7
176
     1
 62
   257
176
     1
 90
        1
176
     1
 90
        1
176
     1
 40
1.0
176
     1
 90
        0
176
     1
 62
   257
176
     1
 40
1.0
176
     1
 90
        1
176
     1
 90
        6
176
     1
 90
        2
176
     1
 62
     7
176
     1
 90
        5
176
     1
 90
        0
176
     1
 90
        0
176
     1
290
     0
176
     1
 90
       13
176
     1
 40
0.0
176
     1
 90
        0
176
     1
290
     0
176
     1
290
     1
176
     1
290
     1
176
     1
290
     0
176
     1
290
     0
176
     1
290
     0
176
     1
290
     0
176
     1
290
     0
176
     1
290
     0
176
     1
 90
       50
176
     1
 40
0.0
176
     1
 40
1.0
176
     1
 90
        0
176
     1
 62
    18
420
        0
176
     1
 90
       50
176
     1
 90
        3
176
     1
 62
     5
420
      255
176
     1
290
     0
176
     1
 90
       50
176
     1
 90
       50
176
     1
 90
       50
176
     1
290
     0
176
     1
 90
       50
176
     1
 62
   256
176
     0
 40
1.0
176
     0
 90
        2
176
     1
  1
strokes_ogs.tif
176
     1
290
     0
176
     1
 40
1.0
176
     1
 40
1.0
176
     1
  0
VISUALSTYLE
  5
2D
102
{ACAD_REACTORS
330
2A
102
}
330
2A
100
AcDbVisualStyle
  2
Gouraud
 70
     2
177
     3
291
     1
 70
    58
 90
        2
176
     1
 90
        2
176
     1
 90
        1
176
     1
 90
        2
176
     1
 40
0.6
176
     1
 40
30.0
176
     1
 62
     7
420
 16777215
176
     1
 90
        0
176
     1
 90
        0
176
     1
 62
     7
176
     1
 62
   257
176
     1
 90
        1
176
     1
 90
        1
176
     1
 40
1.0
176
     1
 90
        0
176
     1
 62
     7
176
     1
 40
1.0
176
     1
 90
        1
176
     1
 90
        6
176
     1
 90
        2
176
     1
 62
     7
176
     1
 90
        5
176
     1
 90
        0
176
     1
 90
        0
176
     1
290
     0
176
     1
 90
       13
176
     1
 40
0.0
176
     1
 90
        0
176
     1
290
     0
176
     1
290
     1
176
     1
290
     1
176
     1
290
     0
176
     1
290
     0
176
     1
290
     0
176
     1
290
     0
176
     1
290
     0
176
     1
290
     0
176
     1
 90
       50
176
     1
 40
0.0
176
     1
 40
1.0
176
     1
 90
        0
176
     1
 62
    18
420
        0
176
     1
 90
       50
176
     1
 90
        3
176
     1
 62
     5
420
      255
176
     1
290
     0
176
     1
 90
       50
176
     1
 90
       50
176
     1
 90
       50
176
     1
290
     0
176
     1
 90
       50
176
     1
 62
   256
176
     0
 40
1.0
176
     0
 90
        2
176
     1
  1
strokes_ogs.tif
176
     1
290
     0
176
     1
 40
1.0
176
     1
 40
1.0
176
     1
  0
VISUALSTYLE
  5
2E
102
{ACAD_REACTORS
330
2A
102
}
330
2A
100
AcDbVisualStyle
  2
GouraudWithEdges
 70
     3
177
     3
291
     1
 70
    58
 90
        2
176
     1
 90
        2
176
     1
 90
        1
176
     1
 90
        2
176
     1
 40
0.6
176
     1
 40
30.0
176
     1
 62
     7
420
 16777215
176
     1
 90
        1
176
     1
 90
        0
176
     1
 62
     7
176
     1
 62
   257
176
     1
 90
        1
176
     1
 90
        1
176
     1
 40
1.0
176
     1
 90
        0
176
     1
 62
   257
176
     1
 40
1.0
176
     1
 90
        1
176
     1
 90
        6
176
     1
 90
        2
176
     1
 62
     7
176
     1
 90
        5
176
     1
 90
        0
176
     1
 90
        0
176
     1
290
     0
176
     1
 90
       13
176
     1
 40
0.0
176
     1
 90
        0
176
     1
290
     0
176
     1
290
     1
176
     1
290
     1
176
     1
290
     0
176
     1
290
     0
176
     1
290
     0
176
     1
290
     0
176
     1
290
     0
176
     1
290
     0
176
     1
 90
       50
176
     1
 40
0.0
176
     1
 40
1.0
176
     1
 90
        0
176
     1
 62
    18
420
        0
176
     1
 90
       50
176
     1
 90
        3
176
     1
 62
     5
420
      255
176
     1
290
     0
176
     1
 90
       50
176
     1
 90
       50
176
     1
 90
       50
176
     1
290
     0
176
     1
 90
       50
176
     1
 62
   256
176
     0
 40
1.0
176
     0
 90
        2
176
     1
  1
strokes_ogs.tif
176
     1
290
     0
176
     1
 40
1.0
176
     1
 40
1.0
176
     1
  0
VISUALSTYLE
  5
31
102
{ACAD_REACTORS
330
2A
102
}
330
2A
100
AcDbVisualStyle
  2
Hidden
 70
     6
177
     3
291
     0
 70
    58
 90
        1
176
     1
 90
        2
176
     1
 90
        2
176
     1
 90
        0
176
     1
 40
0.6
176
     1
 40
30.0
176
     1
 62
     7
420
 16777215
176
     1
 90
        2
176
     1
 90
        2
176
     1
 62
     7
176
     1
 62
   257
176
     1
 90
        2
176
     1
 90
        1
176
     1
 40
40.0
176
     1
 90
        0
176
     1
 62
   257
176
     1
 40
1.0
176
     1
 90
        1
176
     1
 90
        6
176
     1
 90
        2
176
     1
 62
     7
176
     1
 90
        3
176
     1
 90
        0
176
     1
 90
        0
176
     1
290
     0
176
     1
 90
        1
176
     1
 40
0.0
176
     1
 90
        0
176
     1
290
     0
176
     1
290
     1
176
     1
290
     1
176
     1
290
     0
176
     1
290
     0
176
     1
290
     0
176
     1
290
     0
176
     1
290
     0
176
     1
290
     0
176
     1
 90
       50
176
     1
 40
0.0
176
     1
 40
1.0
176
     1
 90
        0
176
     1
 62
    18
420
        0
176
     1
 90
       50
176
     1
 90
        3
176
     1
 62
     5
420
      255
176
     1
290
     0
176
     1
 90
       50
176
     1
 90
       50
176
     1
 90
       50
176
     1
290
     0
176
     1
 90
       50
176
     1
 62
   256
176
     0
 40
1.0
176
     0
 90
        2
176
     1
  1
strokes_ogs.tif
176
     1
290
     0
176
     1
 40
1.0
176
     1
 40
1.0
176
     1
  0
VISUALSTYLE
  5
3B
102
{ACAD_REACTORS
330
2A
102
}
330
2A
100
AcDbVisualStyle
  2
JitterOff
 70
    20
177
     3
291
     1
 70
    58
 90
        2
176
     0
 90
        2
176
     0
 90
        0
176
     0
 90
        0
176
     0
 40
0.6
176
     0
 40
30.0
176
     0
 62
     7
420
 16777215
176
     0
 90
        1
176
     0
 90
        4
176
     0
 62
     7
176
     0
 62
   257
176
     0
 90
        1
176
     0
 90
        1
176
     0
 40
1.0
176
     0
 90
       10
176
     2
 62
     7
176
     0
 40
1.0
176
     0
 90
        1
176
     0
 90
        6
176
     0
 90
        2
176
     0
 62
     7
176
     0
 90
        5
176
     0
 90
        0
176
     0
 90
        0
176
     0
290
     0
176
     0
 90
        1
176
     0
 40
0.0
176
     0
 90
        0
176
     0
290
     0
176
     0
290
     1
176
     0
290
     1
176
     0
290
     0
176
     0
290
     0
176
     0
290
     0
176
     0
290
     0
176
     0
290
     0
176
     0
290
     0
176
     0
 90
       50
176
     0
 40
0.0
176
     0
 40
1.0
176
     0
 90
        0
176
     0
 62
    18
420
        0
176
     0
 90
       50
176
     0
 90
        3
176
     0
 62
     5
420
      255
176
     0
290
     0
176
     0
 90
       50
176
     0
 90
       50
176
     0
 90
       50
176
     0
290
     0
176
     0
 90
       50
176
     0
 62
   256
176
     0
 40
1.0
176
     0
 90
        2
176
     0
  1
strokes_ogs.tif
176
     0
290
     0
176
     0
 40
1.0
176
     0
 40
1.0
176
     0
  0
VISUALSTYLE
  5
38
102
{ACAD_REACTORS
330
2A
102
}
330
2A
100
AcDbVisualStyle
  2
Linepattern
 70
    14
177
     3
291
     1
 70
    58
 90
        2
176
     1
 90
        2
176
     1
 90
        0
176
     1
 90
        0
176
     1
 40
0.6
176
     1
 40
30.0
176
     1
 62
     7
420
 16777215
176
     1
 90
        1
176
     1
 90
        4
176
     1
 62
     7
176
     1
 62
   257
176
     1
 90
        7
176
     1
 90
        7
176
     1
 40
1.0
176
     1
 90
        8
176
     1
 62
     7
176
     1
 40
1.0
176
     1
 90
        1
176
     1
 90
        6
176
     1
 90
        2
176
     1
 62
     7
176
     1
 90
        5
176
     1
 90
        0
176
     1
 90
        0
176
     1
290
     0
176
     1
 90
        1
176
     1
 40
0.0
176
     1
 90
        0
176
     1
290
     0
176
     1
290
     1
176
     1
290
     1
176
     1
290
     0
176
     1
290
     0
176
     1
290
     0
176
     1
290
     0
176
     1
290
     0
176
     1
290
     0
176
     1
 90
       50
176
     1
 40
0.0
176
     1
 40
1.0
176
     1
 90
        0
176
     1
 62
    18
420
        0
176
     1
 90
       50
176
     1
 90
        3
176
     1
 62
     5
420
      255
176
     1
290
     0
176
     1
 90
       50
176
     1
 90
       50
176
     1
 90
       50
176
     1
290
     0
176
     1
 90
       50
176
     1
 62
   256
176
     0
 40
1.0
176
     0
 90
        2
176
     1
  1
strokes_ogs.tif
176
     1
290
     0
176
     1
 40
1.0
176
     1
 40
1.0
176
     1
  0
VISUALSTYLE
  5
3C
102
{ACAD_REACTORS
330
2A
102
}
330
2A
100
AcDbVisualStyle
  2
OverhangOff
 70
    21
177
     3
291
     1
 70
    58
 90
        2
176
     0
 90
        2
176
     0
 90
        0
176
     0
 90
        0
176
     0
 40
0.6
176
     0
 40
30.0
176
     0
 62
     7
420
 16777215
176
     0
 90
        1
176
     0
 90
        4
176
     0
 62
     7
176
     0
 62
   257
176
     0
 90
        1
176
     0
 90
        1
176
     0
 40
1.0
176
     0
 90
        9
176
     2
 62
     7
176
     0
 40
1.0
176
     0
 90
        1
176
     0
 90
        6
176
     0
 90
        2
176
     0
 62
     7
176
     0
 90
        5
176
     0
 90
        0
176
     0
 90
        0
176
     0
290
     0
176
     0
 90
        1
176
     0
 40
0.0
176
     0
 90
        0
176
     0
290
     0
176
     0
290
     1
176
     0
290
     1
176
     0
290
     0
176
     0
290
     0
176
     0
290
     0
176
     0
290
     0
176
     0
290
     0
176
     0
290
     0
176
     0
 90
       50
176
     0
 40
0.0
176
     0
 40
1.0
176
     0
 90
        0
176
     0
 62
    18
420
        0
176
     0
 90
       50
176
     0
 90
        3
176
     0
 62
     5
420
      255
176
     0
290
     0
176
     0
 90
       50
176
     0
 90
       50
176
     0
 90
       50
176
     0
290
     0
176
     0
 90
       50
176
     0
 62
   256
176
     0
 40
1.0
176
     0
 90
        2
176
     0
  1
strokes_ogs.tif
176
     0
290
     0
176
     0
 40
1.0
176
     0
 40
1.0
176
     0
  0
VISUALSTYLE
  5
33
102
{ACAD_REACTORS
330
2A
102
}
330
2A
100
AcDbVisualStyle
  2
Realistic
 70
     8
177
     3
291
     0
 70
    58
 90
        2
176
     1
 90
        3
176
     1
 90
        0
176
     1
 90
        2
176
     1
 40
0.6
176
     1
 40
30.0
176
     1
 62
     7
420
 16777215
176
     1
 90
        0
176
     1
 90
        0
176
     1
 62
     7
176
     1
 62
   257
176
     1
 90
        1
176
     1
 90
        1
176
     1
 40
1.0
176
     1
 90
        8
176
     1
 62
   257
176
     1
 40
1.0
176
     1
 90
        1
176
     1
 90
        6
176
     1
 90
        2
176
     1
 62
     7
176
     1
 90
        3
176
     1
 90
        0
176
     1
 90
        0
176
     1
290
     0
176
     1
 90
       13
176
     1
 40
0.0
176
     1
 90
        0
176
     1
290
     0
176
     1
290
     1
176
     1
290
     1
176
     1
290
     0
176
     1
290
     0
176
     1
290
     0
176
     1
290
     0
176
     1
290
     0
176
     1
290
     0
176
     1
 90
       50
176
     1
 40
0.0
176
     1
 40
1.0
176
     1
 90
        0
176
     1
 62
    18
420
        0
176
     1
 90
       50
176
     1
 90
        3
176
     1
 62
     5
420
      255
176
     1
290
     0
176
     1
 90
       50
176
     1
 90
       50
176
     1
 90
       50
176
     1
290
     0
176
     1
 90
       50
176
     1
 62
   256
176
     0
 40
1.0
176
     0
 90
        2
176
     1
  1
strokes_ogs.tif
176
     1
290
     0
176
     1
 40
1.0
176
     1
 40
1.0
176
     1
  0
VISUALSTYLE
  5
42
102
{ACAD_REACTORS
330
2A
102
}
330
2A
100
AcDbVisualStyle
  2
Shaded
 70
    27
177
     3
291
     0
 70
    58
 90
        2
176
     1
 90
        2
176
     1
 90
        1
176
     1
 90
        2
176
     1
 40
0.6
176
     1
 40
30.0
176
     1
 62
     7
420
 16777215
176
     1
 90
        0
176
     1
 90
        4
176
     1
 62
     7
176
     1
 62
   257
176
     1
 90
        1
176
     1
 90
        1
176
     1
 40
1.0
176
     1
 90
        8
176
     1
 62
   257
176
     1
 40
1.0
176
     1
 90
        1
176
     1
 90
        6
176
     1
 90
        2
176
     1
 62
     8
420
  7895160
176
     1
 90
        3
176
     1
 90
        0
176
     1
 90
        0
176
     1
290
     0
176
     1
 90
        5
176
     1
 40
0.0
176
     1
 90
        0
176
     1
290
     0
176
     1
290
     1
176
     1
290
     1
176
     1
290
     0
176
     1
290
     0
176
     1
290
     0
176
     1
290
     0
176
     1
290
     0
176
     1
290
     0
176
     1
 90
       50
176
     1
 40
0.0
176
     1
 40
1.0
176
     1
 90
        0
176
     1
 62
    18
420
        0
176
     1
 90
       50
176
     1
 90
        3
176
     1
 62
     5
420
      255
176
     1
290
     0
176
     1
 90
       50
176
     1
 90
       50
176
     1
 90
       50
176
     1
290
     0
176
     1
 90
       50
176
     1
 62
   256
176
     0
 40
1.0
176
     0
 90
        2
176
     1
  1
strokes_ogs.tif
176
     1
290
     0
176
     1
 40
1.0
176
     1
 40
1.0
176
     1
  0
VISUALSTYLE
  5
41
102
{ACAD_REACTORS
330
2A
102
}
330
2A
100
AcDbVisualStyle
  2
Shaded with edges
 70
    26
177
     3
291
     0
 70
    58
 90
        2
176
     1
 90
        2
176
     1
 90
        1
176
     1
 90
        2
176
     1
 40
0.6
176
     1
 40
30.0
176
     1
 62
     7
420
 16777215
176
     1
 90
        1
176
     1
 90
       10
176
     1
 62
     7
176
     1
 62
   257
176
     1
 90
        2
176
     1
 90
        1
176
     1
 40
1.0
176
     1
 90
        8
176
     1
 62
   257
176
     1
 40
1.0
176
     1
 90
        1
176
     1
 90
        6
176
     1
 90
        2
176
     1
 62
     7
176
     1
 90
        3
176
     1
 90
        0
176
     1
 90
        0
176
     1
290
     0
176
     1
 90
        5
176
     1
 40
0.0
176
     1
 90
        0
176
     1
290
     0
176
     1
290
     1
176
     1
290
     1
176
     1
290
     0
176
     1
290
     0
176
     1
290
     0
176
     1
290
     0
176
     1
290
     0
176
     1
290
     0
176
     1
 90
       50
176
     1
 40
0.0
176
     1
 40
1.0
176
     1
 90
        0
176
     1
 62
    18
420
        0
176
     1
 90
       50
176
     1
 90
        3
176
     1
 62
     5
420
      255
176
     1
290
     0
176
     1
 90
       50
176
     1
 90
       50
176
     1
 90
       50
176
     1
290
     0
176
     1
 90
       50
176
     1
 62
   256
176
     0
 40
1.0
176
     0
 90
        2
176
     1
  1
strokes_ogs.tif
176
     1
290
     0
176
     1
 40
1.0
176
     1
 40
1.0
176
     1
  0
VISUALSTYLE
  5
3E
102
{ACAD_REACTORS
330
2A
102
}
330
2A
100
AcDbVisualStyle
  2
Shades of Gray
 70
    23
177
     3
291
     0
 70
    58
 90
        2
176
     1
 90
        2
176
     1
 90
        3
176
     1
 90
        0
176
     1
 40
0.6
176
     1
 40
30.0
176
     1
 62
     7
420
 16777215
176
     1
 90
        2
176
     1
 90
        2
176
     1
 62
     7
176
     1
 62
     7
176
     1
 90
        1
176
     1
 90
        1
176
     1
 40
40.0
176
     1
 90
        8
176
     1
 62
     7
176
     1
 40
1.0
176
     1
 90
        1
176
     1
 90
        6
176
     1
 90
        2
176
     1
 62
     7
176
     1
 90
        3
176
     1
 90
        0
176
     1
 90
        0
176
     1
290
     0
176
     1
 90
        1
176
     1
 40
0.0
176
     1
 90
        0
176
     1
290
     0
176
     1
290
     1
176
     1
290
     1
176
     1
290
     0
176
     1
290
     0
176
     1
290
     0
176
     1
290
     0
176
     1
290
     0
176
     1
290
     0
176
     1
 90
       50
176
     1
 40
0.0
176
     1
 40
1.0
176
     1
 90
        0
176
     1
 62
    18
420
        0
176
     1
 90
       50
176
     1
 90
        3
176
     1
 62
     5
420
      255
176
     1
290
     0
176
     1
 90
       50
176
     1
 90
       50
176
     1
 90
       50
176
     1
290
     0
176
     1
 90
       50
176
     1
 62
   256
176
     0
 40
1.0
176
     0
 90
        2
176
     1
  1
strokes_ogs.tif
176
     1
290
     0
176
     1
 40
1.0
176
     1
 40
1.0
176
     1
  0
VISUALSTYLE
  5
3F
102
{ACAD_REACTORS
330
2A
102
}
330
2A
100
AcDbVisualStyle
  2
Sketchy
 70
    24
177
     3
291
     0
 70
    58
 90
        1
176
     1
 90
        2
176
     1
 90
        2
176
     1
 90
        0
176
     1
 40
0.6
176
     1
 40
30.0
176
     1
 62
     7
420
 16777215
176
     1
 90
        2
176
     1
 90
        2
176
     1
 62
     7
176
     1
 62
     7
176
     1
 90
        1
176
     1
 90
        1
176
     1
 40
40.0
176
     1
 90
       11
176
     1
 62
     7
176
     1
 40
1.0
176
     1
 90
        1
176
     1
 90
        6
176
     1
 90
        2
176
     1
 62
     7
176
     1
 90
        6
176
     1
 90
        0
176
     1
 90
        0
176
     1
290
     0
176
     1
 90
        1
176
     1
 40
0.0
176
     1
 90
        0
176
     1
290
     0
176
     1
290
     1
176
     1
290
     1
176
     1
290
     0
176
     1
290
     0
176
     1
290
     0
176
     1
290
     0
176
     1
290
     0
176
     1
290
     0
176
     1
 90
       50
176
     1
 40
0.0
176
     1
 40
1.0
176
     1
 90
        0
176
     1
 62
    18
420
        0
176
     1
 90
       50
176
     1
 90
        3
176
     1
 62
     5
420
      255
176
     1
290
     0
176
     1
 90
       50
176
     1
 90
       50
176
     1
 90
       50
176
     1
290
     0
176
     1
 90
       50
176
     1
 62
   256
176
     0
 40
1.0
176
     0
 90
        2
176
     1
  1
strokes_ogs.tif
176
     1
290
     0
176
     1
 40
1.0
176
     1
 40
1.0
176
     1
  0
VISUALSTYLE
  5
37
102
{ACAD_REACTORS
330
2A
102
}
330
2A
100
AcDbVisualStyle
  2
Thicken
 70
    13
177
     3
291
     1
 70
    58
 90
        2
176
     1
 90
        2
176
     1
 90
        0
176
     1
 90
        0
176
     1
 40
0.6
176
     1
 40
30.0
176
     1
 62
     7
420
 16777215
176
     1
 90
        1
176
     1
 90
        4
176
     1
 62
     7
176
     1
 62
   257
176
     1
 90
        1
176
     1
 90
        1
176
     1
 40
1.0
176
     1
 90
       12
176
     1
 62
     7
176
     1
 40
1.0
176
     1
 90
        1
176
     1
 90
        6
176
     1
 90
        2
176
     1
 62
     7
176
     1
 90
        5
176
     1
 90
        0
176
     1
 90
        0
176
     1
290
     0
176
     1
 90
        1
176
     1
 40
0.0
176
     1
 90
        0
176
     1
290
     0
176
     1
290
     1
176
     1
290
     1
176
     1
290
     0
176
     1
290
     0
176
     1
290
     0
176
     1
290
     0
176
     1
290
     0
176
     1
290
     0
176
     1
 90
       50
176
     1
 40
0.0
176
     1
 40
1.0
176
     1
 90
        0
176
     1
 62
    18
420
        0
176
     1
 90
       50
176
     1
 90
        3
176
     1
 62
     5
420
      255
176
     1
290
     0
176
     1
 90
       50
176
     1
 90
       50
176
     1
 90
       50
176
     1
290
     0
176
     1
 90
       50
176
     1
 62
   256
176
     0
 40
1.0
176
     0
 90
        2
176
     1
  1
strokes_ogs.tif
176
     1
290
     0
176
     1
 40
1.0
176
     1
 40
1.0
176
     1
  0
VISUALSTYLE
  5
30
102
{ACAD_REACTORS
330
2A
102
}
330
2A
100
AcDbVisualStyle
  2
Wireframe
 70
     5
177
     3
291
     0
 70
    58
 90
        0
176
     1
 90
        2
176
     1
 90
        0
176
     1
 90
        0
176
     1
 40
0.6
176
     1
 40
30.0
176
     1
 62
     7
420
 16777215
176
     1
 90
        1
176
     1
 90
        4
176
     1
 62
     7
176
     1
 62
   257
176
     1
 90
        1
176
     1
 90
        1
176
     1
 40
1.0
176
     1
 90
        0
176
     1
 62
   257
176
     1
 40
1.0
176
     1
 90
        1
176
     1
 90
        6
176
     1
 90
        2
176
     1
 62
     7
176
     1
 90
        3
176
     1
 90
        0
176
     1
 90
        0
176
     1
290
     0
176
     1
 90
        1
176
     1
 40
0.0
176
     1
 90
        0
176
     1
290
     0
176
     1
290
     1
176
     1
290
     1
176
     1
290
     0
176
     1
290
     0
176
     1
290
     0
176
     1
290
     0
176
     1
290
     0
176
     1
290
     0
176
     1
 90
       50
176
     1
 40
0.0
176
     1
 40
1.0
176
     1
 90
        0
176
     1
 62
    18
420
        0
176
     1
 90
       50
176
     1
 90
        3
176
     1
 62
     5
420
      255
176
     1
290
     0
176
     1
 90
       50
176
     1
 90
       50
176
     1
 90
       50
176
     1
290
     0
176
     1
 90
       50
176
     1
 62
   256
176
     0
 40
1.0
176
     0
 90
        2
176
     1
  1
strokes_ogs.tif
176
     1
290
     0
176
     1
 40
1.0
176
     1
 40
1.0
176
     1
  0
VISUALSTYLE
  5
40
102
{ACAD_REACTORS
330
2A
102
}
330
2A
100
AcDbVisualStyle
  2
X-Ray
 70
    25
177
     3
291
     0
 70
    58
 90
        2
176
     1
 90
        2
176
     1
 90
        1
176
     1
 90
        1
176
     1
 40
0.5
176
     1
 40
30.0
176
     1
 62
     7
420
 16777215
176
     1
 90
        1
176
     1
 90
        0
176
     1
 62
     7
176
     1
 62
   257
176
     1
 90
        1
176
     1
 90
        1
176
     1
 40
1.0
176
     1
 90
        8
176
     1
 62
     7
176
     1
 40
1.0
176
     1
 90
        1
176
     1
 90
        6
176
     1
 90
        2
176
     1
 62
     7
176
     1
 90
        3
176
     1
 90
        0
176
     1
 90
        0
176
     1
290
     0
176
     1
 90
       13
176
     1
 40
0.0
176
     1
 90
        0
176
     1
290
     0
176
     1
290
     1
176
     1
290
     1
176
     1
290
     0
176
     1
290
     0
176
     1
290
     0
176
     1
290
     0
176
     1
290
     0
176
     1
290
     0
176
     1
 90
       50
176
     1
 40
0.0
176
     1
 40
1.0
176
     1
 90
        0
176
     1
 62
    18
420
        0
176
     1
 90
       50
176
     1
 90
        3
176
     1
 62
     5
420
      255
176
     1
290
     0
176
     1
 90
       50
176
     1
 90
       50
176
     1
 90
       50
176
     1
290
     0
176
     1
 90
       50
176
     1
 62
   256
176
     0
 40
1.0
176
     0
 90
        2
176
     1
  1
strokes_ogs.tif
176
     1
290
     0
176
     1
 40
1.0
176
     1
 40
1.0
176
     1
  0
DICTIONARYVAR
  5
450
102
{ACAD_REACTORS
330
44F
102
}
330
44F
100
DictionaryVariables
280
     0
  1
1:1
  0
DICTIONARYVAR
  5
455
102
{ACAD_REACTORS
330
44F
102
}
330
44F
100
DictionaryVariables
280
     0
  1
Standard
  0
DICTIONARYVAR
  5
454
102
{ACAD_REACTORS
330
44F
102
}
330
44F
100
DictionaryVariables
280
     0
  1
Standard
  0
DICTIONARYVAR
  5
458
102
{ACAD_REACTORS
330
44F
102
}
330
44F
100
DictionaryVariables
280
     0
  1
0
  0
DICTIONARY
  5
451
330
6A
100
AcDbDictionary
280
     1
281
     1
  3
ACAD_ROUNDTRIP_2008_TABLESTYLE_CELLSTYLEMAP
360
452
  0
CELLSTYLEMAP
  5
452
102
{ACAD_REACTORS
330
451
102
}
330
451
100
AcDbCellStyleMap
 90
        3
300
CELLSTYLE
  1
TABLEFORMAT_BEGIN
 90
        5
170
     1
 91
        0
 92
    32768
 62
   257
 93
        1
300
CONTENTFORMAT
  1
CONTENTFORMAT_BEGIN
 90
        0
 91
        0
 92
        4
 93
        0
300

 40
0.0
140
1.0
 94
        5
 62
     0
340
11
144
0.25
309
CONTENTFORMAT_END
171
     1
301
MARGIN
  1
CELLMARGIN_BEGIN
 40
0.06
 40
0.06
 40
0.06
 40
0.06
 40
0.06
 40
0.06
309
CELLMARGIN_END
 94
        6
 95
        1
302
GRIDFORMAT
  1
GRIDFORMAT_BEGIN
 90
        0
 91
        1
 62
     0
 92
       -2
340
14
 93
        0
 40
0.045
309
GRIDFORMAT_END
 95
        2
302
GRIDFORMAT
  1
GRIDFORMAT_BEGIN
 90
        0
 91
        1
 62
     0
 92
       -2
340
14
 93
        0
 40
0.045
309
GRIDFORMAT_END
 95
        4
302
GRIDFORMAT
  1
GRIDFORMAT_BEGIN
 90
        0
 91
        1
 62
     0
 92
       -2
340
14
 93
        0
 40
0.045
309
GRIDFORMAT_END
 95
        8
302
GRIDFORMAT
  1
GRIDFORMAT_BEGIN
 90
        0
 91
        1
 62
     0
 92
       -2
340
14
 93
        0
 40
0.045
309
GRIDFORMAT_END
 95
       16
302
GRIDFORMAT
  1
GRIDFORMAT_BEGIN
 90
        0
 91
        1
 62
     0
 92
       -2
340
14
 93
        0
 40
0.045
309
GRIDFORMAT_END
 95
       32
302
GRIDFORMAT
  1
GRIDFORMAT_BEGIN
 90
        0
 91
        1
 62
     0
 92
       -2
340
14
 93
        0
 40
0.045
309
GRIDFORMAT_END
309
TABLEFORMAT_END
  1
CELLSTYLE_BEGIN
 90
        1
 91
        1
300
_TITLE
309
CELLSTYLE_END
300
CELLSTYLE
  1
TABLEFORMAT_BEGIN
 90
        5
170
     1
 91
        0
 92
        0
 62
   257
 93
        1
300
CONTENTFORMAT
  1
CONTENTFORMAT_BEGIN
 90
        0
 91
        0
 92
        4
 93
        0
300

 40
0.0
140
1.0
 94
        5
 62
     0
340
11
144
0.18
309
CONTENTFORMAT_END
171
     1
301
MARGIN
  1
CELLMARGIN_BEGIN
 40
0.06
 40
0.06
 40
0.06
 40
0.06
 40
0.06
 40
0.06
309
CELLMARGIN_END
 94
        6
 95
        1
302
GRIDFORMAT
  1
GRIDFORMAT_BEGIN
 90
        0
 91
        1
 62
     0
 92
       -2
340
14
 93
        0
 40
0.045
309
GRIDFORMAT_END
 95
        2
302
GRIDFORMAT
  1
GRIDFORMAT_BEGIN
 90
        0
 91
        1
 62
     0
 92
       -2
340
14
 93
        0
 40
0.045
309
GRIDFORMAT_END
 95
        4
302
GRIDFORMAT
  1
GRIDFORMAT_BEGIN
 90
        0
 91
        1
 62
     0
 92
       -2
340
14
 93
        0
 40
0.045
309
GRIDFORMAT_END
 95
        8
302
GRIDFORMAT
  1
GRIDFORMAT_BEGIN
 90
        0
 91
        1
 62
     0
 92
       -2
340
14
 93
        0
 40
0.045
309
GRIDFORMAT_END
 95
       16
302
GRIDFORMAT
  1
GRIDFORMAT_BEGIN
 90
        0
 91
        1
 62
     0
 92
       -2
340
14
 93
        0
 40
0.045
309
GRIDFORMAT_END
 95
       32
302
GRIDFORMAT
  1
GRIDFORMAT_BEGIN
 90
        0
 91
        1
 62
     0
 92
       -2
340
14
 93
        0
 40
0.045
309
GRIDFORMAT_END
309
TABLEFORMAT_END
  1
CELLSTYLE_BEGIN
 90
        2
 91
        1
300
_HEADER
309
CELLSTYLE_END
300
CELLSTYLE
  1
TABLEFORMAT_BEGIN
 90
        5
170
     1
 91
        0
 92
        0
 62
   257
 93
        1
300
CONTENTFORMAT
  1
CONTENTFORMAT_BEGIN
 90
        0
 91
        0
 92
        4
 93
        0
300

 40
0.0
140
1.0
 94
        2
 62
     0
340
11
144
0.18
309
CONTENTFORMAT_END
171
     1
301
MARGIN
  1
CELLMARGIN_BEGIN
 40
0.06
 40
0.06
 40
0.06
 40
0.06
 40
0.06
 40
0.06
309
CELLMARGIN_END
 94
        6
 95
        1
302
GRIDFORMAT
  1
GRIDFORMAT_BEGIN
 90
        0
 91
        1
 62
     0
 92
       -2
340
14
 93
        0
 40
0.045
309
GRIDFORMAT_END
 95
        2
302
GRIDFORMAT
  1
GRIDFORMAT_BEGIN
 90
        0
 91
        1
 62
     0
 92
       -2
340
14
 93
        0
 40
0.045
309
GRIDFORMAT_END
 95
        4
302
GRIDFORMAT
  1
GRIDFORMAT_BEGIN
 90
        0
 91
        1
 62
     0
 92
       -2
340
14
 93
        0
 40
0.045
309
GRIDFORMAT_END
 95
        8
302
GRIDFORMAT
  1
GRIDFORMAT_BEGIN
 90
        0
 91
        1
 62
     0
 92
       -2
340
14
 93
        0
 40
0.045
309
GRIDFORMAT_END
 95
       16
302
GRIDFORMAT
  1
GRIDFORMAT_BEGIN
 90
        0
 91
        1
 62
     0
 92
       -2
340
14
 93
        0
 40
0.045
309
GRIDFORMAT_END
 95
       32
302
GRIDFORMAT
  1
GRIDFORMAT_BEGIN
 90
        0
 91
        1
 62
     0
 92
       -2
340
14
 93
        0
 40
0.045
309
GRIDFORMAT_END
309
TABLEFORMAT_END
  1
CELLSTYLE_BEGIN
 90
        3
 91
        2
300
_DATA
309
CELLSTYLE_END
  0
ENDSEC
  0
EOF
