  0
SECTION
  2
HEADER
  9
$ACADVER
  1
AC1027
  9
$ACADMAINTVER
 70
   105
  9
$DWGCODEPAGE
  3
ANSI_1252
  9
$REQUIREDVERSIONS
160
                 0
  9
$INSBASE
 10
0.0
 20
0.0
 30
0.0
  9
$EXTMIN
 10
-1.082185646295329
 20
-9777.512248640422
 30
0.0
  9
$EXTMAX
 10
983.9178143537118
 20
-8422.512248640422
 30
2500.0
  9
$LIMMIN
 10
0.0
 20
0.0
  9
$LIMMAX
 10
12.0
 20
9.0
  9
$ORTHOMODE
 70
     0
  9
$REGENMODE
 70
     1
  9
$FILLMODE
 70
     1
  9
$QTEXTMODE
 70
     0
  9
$MIRRTEXT
 70
     1
  9
$LTSCALE
 40
5.0
  9
$ATTMODE
 70
     1
  9
$TEXTSIZE
 40
0.2
  9
$TRACEWID
 40
0.05
  9
$TEXTSTYLE
  7
Standard
  9
$CLAYER
  8
0
  9
$CELTYPE
  6
ByLayer
  9
$CECOLOR
 62
   256
  9
$CELTSCALE
 40
1.0
  9
$DISPSILH
 70
     0
  9
$DIMSCALE
 40
1.0
  9
$DIMASZ
 40
0.18
  9
$DIMEXO
 40
0.0625
  9
$DIMDLI
 40
0.38
  9
$DIMRND
 40
0.0
  9
$DIMDLE
 40
0.0
  9
$DIMEXE
 40
0.18
  9
$DIMTP
 40
0.0
  9
$DIMTM
 40
0.0
  9
$DIMTXT
 40
0.18
  9
$DIMCEN
 40
0.09
  9
$DIMTSZ
 40
0.0
  9
$DIMTOL
 70
     0
  9
$DIMLIM
 70
     0
  9
$DIMTIH
 70
     1
  9
$DIMTOH
 70
     1
  9
$DIMSE1
 70
     0
  9
$DIMSE2
 70
     0
  9
$DIMTAD
 70
     0
  9
$DIMZIN
 70
     0
  9
$DIMBLK
  1

  9
$DIMASO
 70
     1
  9
$DIMSHO
 70
     1
  9
$DIMPOST
  1

  9
$DIMAPOST
  1

  9
$DIMALT
 70
     0
  9
$DIMALTD
 70
     2
  9
$DIMALTF
 40
25.4
  9
$DIMLFAC
 40
1.0
  9
$DIMTOFL
 70
     1
  9
$DIMTVP
 40
0.0
  9
$DIMTIX
 70
     0
  9
$DIMSOXD
 70
     1
  9
$DIMSAH
 70
     0
  9
$DIMBLK1
  1

  9
$DIMBLK2
  1

  9
$DIMSTYLE
  2
Standard
  9
$DIMCLRD
 70
     0
  9
$DIMCLRE
 70
     0
  9
$DIMCLRT
 70
     0
  9
$DIMTFAC
 40
1.0
  9
$DIMGAP
 40
0.09
  9
$DIMJUST
 70
     0
  9
$DIMSD1
 70
     0
  9
$DIMSD2
 70
     0
  9
$DIMTOLJ
 70
     1
  9
$DIMTZIN
 70
     0
  9
$DIMALTZ
 70
     0
  9
$DIMALTTZ
 70
     0
  9
$DIMUPT
 70
     0
  9
$DIMDEC
 70
     4
  9
$DIMTDEC
 70
     4
  9
$DIMALTU
 70
     2
  9
$DIMALTTD
 70
     2
  9
$DIMTXSTY
  7
Standard
  9
$DIMAUNIT
 70
     0
  9
$DIMADEC
 70
     0
  9
$DIMALTRND
 40
0.0
  9
$DIMAZIN
 70
     0
  9
$DIMDSEP
 70
    46
  9
$DIMATFIT
 70
     3
  9
$DIMFRAC
 70
     0
  9
$DIMLDRBLK
  1

  9
$DIMLUNIT
 70
     2
  9
$DIMLWD
 70
    -2
  9
$DIMLWE
 70
    -2
  9
$DIMTMOVE
 70
     2
  9
$DIMFXL
 40
1.0
  9
$DIMFXLON
 70
     0
  9
$DIMJOGANG
 40
0.7853981633974483
  9
$DIMTFILL
 70
     0
  9
$DIMTFILLCLR
 70
     0
  9
$DIMARCSYM
 70
     0
  9
$DIMLTYPE
  6

  9
$DIMLTEX1
  6

  9
$DIMLTEX2
  6

  9
$DIMTXTDIRECTION
 70
     0
  9
$LUNITS
 70
     2
  9
$LUPREC
 70
     4
  9
$SKETCHINC
 40
0.1
  9
$FILLETRAD
 40
0.5
  9
$AUNITS
 70
     0
  9
$AUPREC
 70
     0
  9
$MENU
  1
.
  9
$ELEVATION
 40
0.0
  9
$PELEVATION
 40
0.0
  9
$THICKNESS
 40
0.0
  9
$LIMCHECK
 70
     0
  9
$CHAMFERA
 40
0.0
  9
$CHAMFERB
 40
0.0
  9
$CHAMFERC
 40
0.0
  9
$CHAMFERD
 40
0.0
  9
$SKPOLY
 70
     0
  9
$TDCREATE
 40
2459184.490881435
  9
$TDUCREATE
 40
2459184.449214769
  9
$TDUPDATE
 40
2459184.490883692
  9
$TDUUPDATE
 40
2459184.449217026
  9
$TDINDWG
 40
0.0000000116
  9
$TDUSRTIMER
 40
0.0000000116
  9
$USRTIMER
 70
     1
  9
$ANGBASE
 50
0.0
  9
$ANGDIR
 70
     0
  9
$PDMODE
 70
     0
  9
$PDSIZE
 40
0.0
  9
$PLINEWID
 40
0.0
  9
$SPLFRAME
 70
     0
  9
$SPLINETYPE
 70
     6
  9
$SPLINESEGS
 70
     8
  9
$HANDSEED
  5
42B
  9
$SURFTAB1
 70
     6
  9
$SURFTAB2
 70
     6
  9
$SURFTYPE
 70
     6
  9
$SURFU
 70
     6
  9
$SURFV
 70
     6
  9
$UCSBASE
  2

  9
$UCSNAME
  2

  9
$UCSORG
 10
0.0
 20
0.0
 30
0.0
  9
$UCSXDIR
 10
1.0
 20
0.0
 30
0.0
  9
$UCSYDIR
 10
0.0
 20
1.0
 30
0.0
  9
$UCSORTHOREF
  2

  9
$UCSORTHOVIEW
 70
     0
  9
$UCSORGTOP
 10
0.0
 20
0.0
 30
0.0
  9
$UCSORGBOTTOM
 10
0.0
 20
0.0
 30
0.0
  9
$UCSORGLEFT
 10
0.0
 20
0.0
 30
0.0
  9
$UCSORGRIGHT
 10
0.0
 20
0.0
 30
0.0
  9
$UCSORGFRONT
 10
0.0
 20
0.0
 30
0.0
  9
$UCSORGBACK
 10
0.0
 20
0.0
 30
0.0
  9
$PUCSBASE
  2

  9
$PUCSNAME
  2

  9
$PUCSORG
 10
0.0
 20
0.0
 30
0.0
  9
$PUCSXDIR
 10
1.0
 20
0.0
 30
0.0
  9
$PUCSYDIR
 10
0.0
 20
1.0
 30
0.0
  9
$PUCSORTHOREF
  2

  9
$PUCSORTHOVIEW
 70
     0
  9
$PUCSORGTOP
 10
0.0
 20
0.0
 30
0.0
  9
$PUCSORGBOTTOM
 10
0.0
 20
0.0
 30
0.0
  9
$PUCSORGLEFT
 10
0.0
 20
0.0
 30
0.0
  9
$PUCSORGRIGHT
 10
0.0
 20
0.0
 30
0.0
  9
$PUCSORGFRONT
 10
0.0
 20
0.0
 30
0.0
  9
$PUCSORGBACK
 10
0.0
 20
0.0
 30
0.0
  9
$USERI1
 70
     0
  9
$USERI2
 70
     0
  9
$USERI3
 70
     0
  9
$USERI4
 70
     0
  9
$USERI5
 70
     0
  9
$USERR1
 40
0.0
  9
$USERR2
 40
0.0
  9
$USERR3
 40
0.0
  9
$USERR4
 40
0.0
  9
$USERR5
 40
0.0
  9
$WORLDVIEW
 70
     1
  9
$SHADEDGE
 70
     3
  9
$SHADEDIF
 70
    70
  9
$TILEMODE
 70
     1
  9
$MAXACTVP
 70
    64
  9
$PINSBASE
 10
0.0
 20
0.0
 30
0.0
  9
$PLIMCHECK
 70
     0
  9
$PEXTMIN
 10
0.0
 20
0.0
 30
0.0
  9
$PEXTMAX
 10
197.6
 20
271.6
 30
0.0
  9
$PLIMMIN
 10
-20.0
 20
-7.5
  9
$PLIMMAX
 10
277.0
 20
202.5
  9
$UNITMODE
 70
     0
  9
$VISRETAIN
 70
     1
  9
$PLINEGEN
 70
     0
  9
$PSLTSCALE
 70
     0
  9
$TREEDEPTH
 70
  3020
  9
$CMLSTYLE
  2
Standard
  9
$CMLJUST
 70
     0
  9
$CMLSCALE
 40
1.0
  9
$PROXYGRAPHICS
 70
     1
  9
$MEASUREMENT
 70
     1
  9
$CELWEIGHT
370
    -1
  9
$ENDCAPS
280
     0
  9
$JOINSTYLE
280
     0
  9
$LWDISPLAY
290
     0
  9
$INSUNITS
 70
     4
  9
$HYPERLINKBASE
  1

  9
$STYLESHEET
  1

  9
$XEDIT
290
     1
  9
$CEPSNTYPE
380
     0
  9
$PSTYLEMODE
290
     0
  9
$FINGERPRINTGUID
  2
{94448D01-D55E-47A4-BF5E-008B41E413CC}
  9
$VERSIONGUID
  2
{FAEB1C32-E019-11D5-929B-00C0DF256EC4}
  9
$EXTNAMES
290
     1
  9
$PSVPSCALE
 40
0.0
  9
$OLESTARTUP
290
     0
  9
$SORTENTS
280
   127
  9
$INDEXCTL
280
     0
  9
$HIDETEXT
280
     1
  9
$XCLIPFRAME
280
     2
  9
$HALOGAP
280
     0
  9
$OBSCOLOR
 70
   257
  9
$OBSLTYPE
280
     0
  9
$INTERSECTIONDISPLAY
280
     0
  9
$INTERSECTIONCOLOR
 70
   257
  9
$DIMASSOC
280
     2
  9
$PROJECTNAME
  1

  9
$CAMERADISPLAY
290
     0
  9
$LENSLENGTH
 40
50.0
  9
$CAMERAHEIGHT
 40
0.0
  9
$STEPSPERSEC
 40
2.0
  9
$STEPSIZE
 40
6.0
  9
$3DDWFPREC
 40
2.0
  9
$PSOLWIDTH
 40
0.25
  9
$PSOLHEIGHT
 40
4.0
  9
$LOFTANG1
 40
1.570796326794897
  9
$LOFTANG2
 40
1.570796326794897
  9
$LOFTMAG1
 40
0.0
  9
$LOFTMAG2
 40
0.0
  9
$LOFTPARAM
 70
     7
  9
$LOFTNORMALS
280
     1
  9
$LATITUDE
 40
37.795
  9
$LONGITUDE
 40
-122.394
  9
$NORTHDIRECTION
 40
0.0
  9
$TIMEZONE
 70
 -8000
  9
$LIGHTGLYPHDISPLAY
280
     1
  9
$TILEMODELIGHTSYNCH
280
     1
  9
$CMATERIAL
347
44
  9
$SOLIDHIST
280
     0
  9
$SHOWHIST
280
     1
  9
$DWFFRAME
280
     2
  9
$DGNFRAME
280
     2
  9
$REALWORLDSCALE
290
     1
  9
$INTERFERECOLOR
 62
   256
  9
$CSHADOW
280
     0
  9
$SHADOWPLANELOCATION
 40
0.0
  0
ENDSEC
  0
SECTION
  2
CLASSES
  0
CLASS
  1
ACDBDICTIONARYWDFLT
  2
AcDbDictionaryWithDefault
  3
ObjectDBX Classes
 90
        0
 91
        3
280
     0
281
     0
  0
CLASS
  1
VISUALSTYLE
  2
AcDbVisualStyle
  3
ObjectDBX Classes
 90
     4095
 91
        3
280
     0
281
     0
  0
CLASS
  1
MATERIAL
  2
AcDbMaterial
  3
ObjectDBX Classes
 90
     1153
 91
        3
280
     0
281
     0
  0
CLASS
  1
SCALE
  2
AcDbScale
  3
ObjectDBX Classes
 90
     1153
 91
        3
280
     0
281
     0
  0
CLASS
  1
TABLESTYLE
  2
AcDbTableStyle
  3
ObjectDBX Classes
 90
     4095
 91
        3
280
     0
281
     0
  0
CLASS
  1
MLEADERSTYLE
  2
AcDbMLeaderStyle
  3
ACDB_MLEADERSTYLE_CLASS
 90
     4095
 91
        3
280
     0
281
     0
  0
CLASS
  1
SUN
  2
AcDbSun
  3
SCENEOE
 90
     1153
 91
        3
280
     0
281
     0
  0
CLASS
  1
RASTERVARIABLES
  2
AcDbRasterVariables
  3
ISM
 90
        0
 91
        3
280
     0
281
     0
  0
CLASS
  1
PLOTSETTINGS
  2
AcDbPlotSettings
  3
ObjectDBX Classes
 90
        0
 91
        3
280
     0
281
     0
  0
CLASS
  1
IMAGEDEF
  2
AcDbRasterImageDef
  3
ISM
 90
        0
 91
        3
280
     0
281
     0
  0
CLASS
  1
IMAGE
  2
AcDbRasterImage
  3
ISM
 90
      127
 91
        4
280
     0
281
     1
  0
CLASS
  1
IMAGEDEF_REACTOR
  2
AcDbRasterImageDefReactor
  3
ISM
 90
        1
 91
        3
280
     0
281
     0
  0
CLASS
  1
DICTIONARYVAR
  2
AcDbDictionaryVar
  3
ObjectDBX Classes
 90
        0
 91
        3
280
     0
281
     0
  0
CLASS
  1
CELLSTYLEMAP
  2
AcDbCellStyleMap
  3
ObjectDBX Classes
 90
     1152
 91
        3
280
     0
281
     0
  0
ENDSEC
  0
SECTION
  2
TABLES
  0
TABLE
  2
VPORT
  5
8
330
0
100
AcDbSymbolTable
 70
     1
  0
VPORT
  5
29
330
8
100
AcDbSymbolTableRecord
100
AcDbViewportTableRecord
  2
*Active
 70
     0
 10
0.0
 20
0.0
 11
1.0
 21
1.0
 12
10.42990654205607
 22
4.5
 13
0.0
 23
0.0
 14
0.5
 24
0.5
 15
0.5
 25
0.5
 16
0.0
 26
0.0
 36
1.0
 17
0.0
 27
0.0
 37
0.0
 40
9.0
 41
1.972972972850329
 42
50.0
 43
0.0
 44
0.0
 50
0.0
 51
0.0
 71
     0
 72
   100
 73
     1
 74
     3
 75
     0
 76
     0
 77
     0
 78
     0
281
     0
 65
     1
110
0.0
120
0.0
130
0.0
111
1.0
121
0.0
131
0.0
112
0.0
122
1.0
132
0.0
 79
     0
146
0.0
348
2F
 60
     3
 61
     5
292
     1
282
     1
141
0.0
142
0.0
 63
   250
361
6D
  0
ENDTAB
  0
TABLE
  2
LTYPE
  5
5
330
0
100
AcDbSymbolTable
 70
     2
  0
LTYPE
  5
14
330
5
100
AcDbSymbolTableRecord
100
AcDbLinetypeTableRecord
  2
ByBlock
 70
     0
  3

 72
    65
 73
     0
 40
0.0
  0
LTYPE
  5
15
330
5
100
AcDbSymbolTableRecord
100
AcDbLinetypeTableRecord
  2
ByLayer
 70
     0
  3

 72
    65
 73
     0
 40
0.0
  0
LTYPE
  5
16
330
5
100
AcDbSymbolTableRecord
100
AcDbLinetypeTableRecord
  2
Continuous
 70
     0
  3
Solid line
 72
    65
 73
     0
 40
0.0
  0
LTYPE
  5
182
330
5
100
AcDbSymbolTableRecord
100
AcDbLinetypeTableRecord
  2
CADWORK_3
 70
     0
  3

 72
    65
 73
     2
 40
4.0
 49
2.0
 74
     0
 49
-2.0
 74
     0
  0
ENDTAB
  0
TABLE
  2
LAYER
  5
2
330
0
100
AcDbSymbolTable
 70
    19
  0
LAYER
  5
10
330
2
100
AcDbSymbolTableRecord
100
AcDbLayerTableRecord
  2
0
 70
     0
 62
     7
  6
Continuous
370
    -3
390
F
347
46
348
0
  0
LAYER
  5
70
330
2
100
AcDbSymbolTableRecord
100
AcDbLayerTableRecord
  2
Standard
 70
     0
 62
     7
  6
Continuous
370
    -3
390
F
347
46
348
0
  0
LAYER
  5
71
330
2
100
AcDbSymbolTableRecord
100
AcDbLayerTableRecord
  2
Ech.1_1
 70
     0
 62
     7
  6
Continuous
370
    -3
390
F
347
46
348
0
  0
LAYER
  5
72
330
2
100
AcDbSymbolTableRecord
100
AcDbLayerTableRecord
  2
Ech.1_2
 70
     0
 62
     7
  6
Continuous
370
    -3
390
F
347
46
348
0
  0
LAYER
  5
73
330
2
100
AcDbSymbolTableRecord
100
AcDbLayerTableRecord
  2
Ech.1_5
 70
     0
 62
     7
  6
Continuous
370
    -3
390
F
347
46
348
0
  0
LAYER
  5
74
330
2
100
AcDbSymbolTableRecord
100
AcDbLayerTableRecord
  2
Ech.1_10
 70
     0
 62
     7
  6
Continuous
370
    -3
390
F
347
46
348
0
  0
LAYER
  5
75
330
2
100
AcDbSymbolTableRecord
100
AcDbLayerTableRecord
  2
Ech.1_20
 70
     0
 62
     7
  6
Continuous
370
    -3
390
F
347
46
348
0
  0
LAYER
  5
76
330
2
100
AcDbSymbolTableRecord
100
AcDbLayerTableRecord
  2
Ech.1_25
 70
     0
 62
     7
  6
Continuous
370
    -3
390
F
347
46
348
0
  0
LAYER
  5
77
330
2
100
AcDbSymbolTableRecord
100
AcDbLayerTableRecord
  2
Ech.1_33
 70
     0
 62
     7
  6
Continuous
370
    -3
390
F
347
46
348
0
  0
LAYER
  5
78
330
2
100
AcDbSymbolTableRecord
100
AcDbLayerTableRecord
  2
Ech.1_50
 70
     0
 62
     7
  6
Continuous
370
    -3
390
F
347
46
348
0
  0
LAYER
  5
79
330
2
100
AcDbSymbolTableRecord
100
AcDbLayerTableRecord
  2
Ech.1_75
 70
     0
 62
     7
  6
Continuous
370
    -3
390
F
347
46
348
0
  0
LAYER
  5
7A
330
2
100
AcDbSymbolTableRecord
100
AcDbLayerTableRecord
  2
Ech.1_100
 70
     0
 62
     7
  6
Continuous
370
    -3
390
F
347
46
348
0
  0
LAYER
  5
7B
330
2
100
AcDbSymbolTableRecord
100
AcDbLayerTableRecord
  2
Ech.1_200
 70
     0
 62
     7
  6
Continuous
370
    -3
390
F
347
46
348
0
  0
LAYER
  5
7C
330
2
100
AcDbSymbolTableRecord
100
AcDbLayerTableRecord
  2
Ech.1_500
 70
     0
 62
     7
  6
Continuous
370
    -3
390
F
347
46
348
0
  0
LAYER
  5
7D
330
2
100
AcDbSymbolTableRecord
100
AcDbLayerTableRecord
  2
Ech.1_1000
 70
     0
 62
     7
  6
Continuous
370
    -3
390
F
347
46
348
0
  0
LAYER
  5
7E
330
2
100
AcDbSymbolTableRecord
100
AcDbLayerTableRecord
  2
Cadres traceur
 70
     0
 62
     7
  6
Continuous
370
    -3
390
F
347
46
348
0
  0
LAYER
  5
7F
330
2
100
AcDbSymbolTableRecord
100
AcDbLayerTableRecord
  2
Cadres laser
 70
     0
 62
     7
  6
Continuous
370
    -3
390
F
347
46
348
0
  0
LAYER
  5
80
330
2
100
AcDbSymbolTableRecord
100
AcDbLayerTableRecord
  2
Légende d_aide
 70
     0
 62
     7
  6
Continuous
370
    -3
390
F
347
46
348
0
  0
LAYER
  5
3D7
330
2
100
AcDbSymbolTableRecord
100
AcDbLayerTableRecord
  2
Defpoints
 70
     0
 62
     7
  6
Continuous
290
     0
370
    -3
390
F
347
46
348
0
  0
ENDTAB
  0
TABLE
  2
STYLE
  5
3
330
0
100
AcDbSymbolTable
 70
     9
  0
STYLE
  5
11
330
3
100
AcDbSymbolTableRecord
100
AcDbTextStyleTableRecord
  2
Standard
 70
     0
 40
0.0
 41
1.0
 50
0.0
 71
     0
 42
0.2
  3
txt
  4

  0
STYLE
  5
81
330
3
100
AcDbSymbolTableRecord
100
AcDbTextStyleTableRecord
  2
CwStyleShx
 70
     0
 40
1.0
 41
1.0
 50
0.0
 71
     0
 42
0.2
  3

  4

  0
STYLE
  5
82
330
3
100
AcDbSymbolTableRecord
100
AcDbTextStyleTableRecord
  2
CwStyleShx16
 70
     0
 40
1.0
 41
1.0
 50
0.0
 71
     0
 42
0.2
  3

  4

  0
STYLE
  5
83
330
3
100
AcDbSymbolTableRecord
100
AcDbTextStyleTableRecord
  2
MONOTXT
 70
     0
 40
0.0
 41
1.0
 50
0.0
 71
     0
 42
0.2
  3
MONOTXT
  4

  0
STYLE
  5
84
330
3
100
AcDbSymbolTableRecord
100
AcDbTextStyleTableRecord
  2
SYMAP
 70
     0
 40
1.0
 41
1.0
 50
0.0
 71
     0
 42
0.2
  3
SYMAP
  4

  0
STYLE
  5
85
330
3
100
AcDbSymbolTableRecord
100
AcDbTextStyleTableRecord
  2
CwStyleTtf
 70
     0
 40
1.0
 41
1.0
 50
0.0
 71
     0
 42
0.2
  3
arial.ttf
  4

  0
STYLE
  5
3D4
330
3
100
AcDbSymbolTableRecord
100
AcDbTextStyleTableRecord
  2
arial-z
 70
     0
 40
0.0
 41
1.0
 50
0.0
 71
     0
 42
0.2
  3
arial.ttf
  4

1001
ACAD
1000
Arial
1071
        0
  0
STYLE
  5
403
330
3
100
AcDbSymbolTableRecord
100
AcDbTextStyleTableRecord
  2
arial-
 70
     0
 40
1.0
 41
1.0
 50
0.0
 71
     0
 42
0.2
  3

  4

1001
ACAD
1000
Arial
1071
        0
  0
STYLE
  5
406
330
3
100
AcDbSymbolTableRecord
100
AcDbTextStyleTableRecord
  2
tahoma-b
 70
     0
 40
1.0
 41
1.0
 50
0.0
 71
     0
 42
0.2
  3
tahomabd.ttf
  4

1001
ACAD
1000
Tahoma
1071
 33554432
  0
ENDTAB
  0
TABLE
  2
VIEW
  5
6
330
0
100
AcDbSymbolTable
 70
     0
  0
ENDTAB
  0
TABLE
  2
UCS
  5
7
330
0
100
AcDbSymbolTable
 70
     0
  0
ENDTAB
  0
TABLE
  2
APPID
  5
9
330
0
100
AcDbSymbolTable
 70
     3
  0
APPID
  5
12
330
9
100
AcDbSymbolTableRecord
100
AcDbRegAppTableRecord
  2
ACAD
 70
     0
  0
APPID
  5
6E
330
9
100
AcDbSymbolTableRecord
100
AcDbRegAppTableRecord
  2
Cadwork
 70
     0
  0
APPID
  5
232
330
9
100
AcDbSymbolTableRecord
100
AcDbRegAppTableRecord
  2
PLOTTRANSPARENCY
 70
     0
  0
ENDTAB
  0
TABLE
  2
DIMSTYLE
  5
A
330
0
100
AcDbSymbolTable
 70
     1
100
AcDbDimStyleTable
  0
DIMSTYLE
105
27
102
{ACAD_REACTORS
330
3D5
330
3E6
102
}
330
A
100
AcDbSymbolTableRecord
100
AcDbDimStyleTableRecord
  2
Standard
 70
     0
178
     0
340
11
  0
ENDTAB
  0
TABLE
  2
BLOCK_RECORD
  5
1
330
0
100
AcDbSymbolTable
 70
    71
  0
BLOCK_RECORD
  5
1F
330
1
100
AcDbSymbolTableRecord
100
AcDbBlockTableRecord
  2
*Model_Space
340
22
 70
     0
280
     1
281
     0
  0
BLOCK_RECORD
  5
22D
330
1
100
AcDbSymbolTableRecord
100
AcDbBlockTableRecord
  2
*Paper_Space
340
22E
 70
     0
280
     1
281
     0
  0
BLOCK_RECORD
  5
86
330
1
100
AcDbSymbolTableRecord
100
AcDbBlockTableRecord
  2
CDWK_PTTYP1
340
0
 70
     0
280
     1
281
     1
  0
BLOCK_RECORD
  5
8D
330
1
100
AcDbSymbolTableRecord
100
AcDbBlockTableRecord
  2
CDWK_PTTYP2
340
0
 70
     0
280
     1
281
     1
  0
BLOCK_RECORD
  5
92
330
1
100
AcDbSymbolTableRecord
100
AcDbBlockTableRecord
  2
CDWK_PTTYP4
340
0
 70
     0
280
     1
281
     1
  0
BLOCK_RECORD
  5
96
330
1
100
AcDbSymbolTableRecord
100
AcDbBlockTableRecord
  2
CDWK_PTTYP5
340
0
 70
     0
280
     1
281
     1
  0
BLOCK_RECORD
  5
9F
330
1
100
AcDbSymbolTableRecord
100
AcDbBlockTableRecord
  2
CDWK_PTTYP6
340
0
 70
     0
280
     1
281
     1
  0
BLOCK_RECORD
  5
A7
330
1
100
AcDbSymbolTableRecord
100
AcDbBlockTableRecord
  2
CDWK_PTTYP7
340
0
 70
     0
280
     1
281
     1
  0
BLOCK_RECORD
  5
B0
330
1
100
AcDbSymbolTableRecord
100
AcDbBlockTableRecord
  2
CDWK_PTTYP8
340
0
 70
     0
280
     1
281
     1
  0
BLOCK_RECORD
  5
B4
330
1
100
AcDbSymbolTableRecord
100
AcDbBlockTableRecord
  2
CDWK_PTTYP9
340
0
 70
     0
280
     1
281
     1
  0
BLOCK_RECORD
  5
B9
330
1
100
AcDbSymbolTableRecord
100
AcDbBlockTableRecord
  2
CDWK_PTTYP10
340
0
 70
     0
280
     1
281
     1
  0
BLOCK_RECORD
  5
BD
330
1
100
AcDbSymbolTableRecord
100
AcDbBlockTableRecord
  2
CDWK_PTTYP11
340
0
 70
     0
280
     1
281
     1
  0
BLOCK_RECORD
  5
C2
330
1
100
AcDbSymbolTableRecord
100
AcDbBlockTableRecord
  2
CDWK_PTTYP12
340
0
 70
     0
280
     1
281
     1
  0
BLOCK_RECORD
  5
C7
330
1
100
AcDbSymbolTableRecord
100
AcDbBlockTableRecord
  2
CDWK_PTTYP13
340
0
 70
     0
280
     1
281
     1
  0
BLOCK_RECORD
  5
CD
330
1
100
AcDbSymbolTableRecord
100
AcDbBlockTableRecord
  2
CDWK_PTTYP16
340
0
 70
     0
280
     1
281
     1
  0
BLOCK_RECORD
  5
D4
330
1
100
AcDbSymbolTableRecord
100
AcDbBlockTableRecord
  2
CDWK_PTTYP17
340
0
 70
     0
280
     1
281
     1
  0
BLOCK_RECORD
  5
D9
330
1
100
AcDbSymbolTableRecord
100
AcDbBlockTableRecord
  2
CDWK_PTTYP18
340
0
 70
     0
280
     1
281
     1
  0
BLOCK_RECORD
  5
DE
330
1
100
AcDbSymbolTableRecord
100
AcDbBlockTableRecord
  2
CDWK_PTTYP19
340
0
 70
     0
280
     1
281
     1
  0
BLOCK_RECORD
  5
E4
330
1
100
AcDbSymbolTableRecord
100
AcDbBlockTableRecord
  2
CDWK_PTTYP20
340
0
 70
     0
280
     1
281
     1
  0
BLOCK_RECORD
  5
E9
330
1
100
AcDbSymbolTableRecord
100
AcDbBlockTableRecord
  2
CDWK_PTTYP21
340
0
 70
     0
280
     1
281
     1
  0
BLOCK_RECORD
  5
EE
330
1
100
AcDbSymbolTableRecord
100
AcDbBlockTableRecord
  2
CDWK_PTTYP25
340
0
 70
     0
280
     1
281
     1
  0
BLOCK_RECORD
  5
F5
330
1
100
AcDbSymbolTableRecord
100
AcDbBlockTableRecord
  2
CDWK_PTTYP26
340
0
 70
     0
280
     1
281
     1
  0
BLOCK_RECORD
  5
FC
330
1
100
AcDbSymbolTableRecord
100
AcDbBlockTableRecord
  2
CDWK_PTTYP27
340
0
 70
     0
280
     1
281
     1
  0
BLOCK_RECORD
  5
104
330
1
100
AcDbSymbolTableRecord
100
AcDbBlockTableRecord
  2
CDWK_PTTYP28
340
0
 70
     0
280
     1
281
     1
  0
BLOCK_RECORD
  5
10B
330
1
100
AcDbSymbolTableRecord
100
AcDbBlockTableRecord
  2
CDWK_PTTYP29
340
0
 70
     0
280
     1
281
     1
  0
BLOCK_RECORD
  5
111
330
1
100
AcDbSymbolTableRecord
100
AcDbBlockTableRecord
  2
CDWK_PTTYP30
340
0
 70
     0
280
     1
281
     1
  0
BLOCK_RECORD
  5
118
330
1
100
AcDbSymbolTableRecord
100
AcDbBlockTableRecord
  2
CDWK_PTTYP31
340
0
 70
     0
280
     1
281
     1
  0
BLOCK_RECORD
  5
120
330
1
100
AcDbSymbolTableRecord
100
AcDbBlockTableRecord
  2
CDWK_PTTYP32
340
0
 70
     0
280
     1
281
     1
  0
BLOCK_RECORD
  5
129
330
1
100
AcDbSymbolTableRecord
100
AcDbBlockTableRecord
  2
CDWK_PTTYP33
340
0
 70
     0
280
     1
281
     1
  0
BLOCK_RECORD
  5
12F
330
1
100
AcDbSymbolTableRecord
100
AcDbBlockTableRecord
  2
CDWK_PTTYP34
340
0
 70
     0
280
     1
281
     1
  0
BLOCK_RECORD
  5
135
330
1
100
AcDbSymbolTableRecord
100
AcDbBlockTableRecord
  2
CDWK_PTTYP35
340
0
 70
     0
280
     1
281
     1
  0
BLOCK_RECORD
  5
13B
330
1
100
AcDbSymbolTableRecord
100
AcDbBlockTableRecord
  2
CDWK_PTTYP36
340
0
 70
     0
280
     1
281
     1
  0
BLOCK_RECORD
  5
143
330
1
100
AcDbSymbolTableRecord
100
AcDbBlockTableRecord
  2
CDWK_PTTYP37
340
0
 70
     0
280
     1
281
     1
  0
BLOCK_RECORD
  5
148
330
1
100
AcDbSymbolTableRecord
100
AcDbBlockTableRecord
  2
CDWK_PTTYP38
340
0
 70
     0
280
     1
281
     1
  0
BLOCK_RECORD
  5
14E
330
1
100
AcDbSymbolTableRecord
100
AcDbBlockTableRecord
  2
CDWK_PTTYP41
340
0
 70
     0
280
     1
281
     1
  0
BLOCK_RECORD
  5
158
330
1
100
AcDbSymbolTableRecord
100
AcDbBlockTableRecord
  2
CDWK_PTTYP42
340
0
 70
     0
280
     1
281
     1
  0
BLOCK_RECORD
  5
161
330
1
100
AcDbSymbolTableRecord
100
AcDbBlockTableRecord
  2
CDWK_PTTYP43
340
0
 70
     0
280
     1
281
     1
  0
BLOCK_RECORD
  5
167
330
1
100
AcDbSymbolTableRecord
100
AcDbBlockTableRecord
  2
CDWK_PTTYP44
340
0
 70
     0
280
     1
281
     1
  0
BLOCK_RECORD
  5
170
330
1
100
AcDbSymbolTableRecord
100
AcDbBlockTableRecord
  2
CDWK_PTTYP45
340
0
 70
     0
280
     1
281
     1
  0
BLOCK_RECORD
  5
175
330
1
100
AcDbSymbolTableRecord
100
AcDbBlockTableRecord
  2
CDWK_PTTYP46
340
0
 70
     0
280
     1
281
     1
  0
BLOCK_RECORD
  5
17A
330
1
100
AcDbSymbolTableRecord
100
AcDbBlockTableRecord
  2
CDWK_PTTYP47
340
0
 70
     0
280
     1
281
     1
  0
BLOCK_RECORD
  5
183
330
1
100
AcDbSymbolTableRecord
100
AcDbBlockTableRecord
  2
CDWK_PTTYP48
340
0
 70
     0
280
     1
281
     1
  0
BLOCK_RECORD
  5
188
330
1
100
AcDbSymbolTableRecord
100
AcDbBlockTableRecord
  2
CDWK_PTTYP49
340
0
 70
     0
280
     1
281
     1
  0
BLOCK_RECORD
  5
18F
330
1
100
AcDbSymbolTableRecord
100
AcDbBlockTableRecord
  2
CDWK_PTTYP50
340
0
 70
     0
280
     1
281
     1
  0
BLOCK_RECORD
  5
199
330
1
100
AcDbSymbolTableRecord
100
AcDbBlockTableRecord
  2
CDWK_PTTYP51
340
0
 70
     0
280
     1
281
     1
  0
BLOCK_RECORD
  5
19E
330
1
100
AcDbSymbolTableRecord
100
AcDbBlockTableRecord
  2
CDWK_PTTYP52
340
0
 70
     0
280
     1
281
     1
  0
BLOCK_RECORD
  5
1A4
330
1
100
AcDbSymbolTableRecord
100
AcDbBlockTableRecord
  2
cw-dimension-symbol1
340
0
 70
     0
280
     1
281
     0
  0
BLOCK_RECORD
  5
1AB
330
1
100
AcDbSymbolTableRecord
100
AcDbBlockTableRecord
  2
cw-dimension-symbol2
340
0
102
{BLKREFS
331
3E1
331
3E0
331
3F1
331
3F0
102
}
 70
     0
280
     1
281
     0
  0
BLOCK_RECORD
  5
1B0
330
1
100
AcDbSymbolTableRecord
100
AcDbBlockTableRecord
  2
cw-dimension-symbol3
340
0
 70
     0
280
     1
281
     0
  0
BLOCK_RECORD
  5
1B5
330
1
100
AcDbSymbolTableRecord
100
AcDbBlockTableRecord
  2
cw-dimension-symbol5
340
0
 70
     0
280
     1
281
     0
  0
BLOCK_RECORD
  5
1BC
330
1
100
AcDbSymbolTableRecord
100
AcDbBlockTableRecord
  2
cw-dimension-symbol6
340
0
 70
     0
280
     1
281
     0
  0
BLOCK_RECORD
  5
1C2
330
1
100
AcDbSymbolTableRecord
100
AcDbBlockTableRecord
  2
cw-dimension-symbol11
340
0
 70
     0
280
     1
281
     0
  0
BLOCK_RECORD
  5
1C8
330
1
100
AcDbSymbolTableRecord
100
AcDbBlockTableRecord
  2
cw-dimension-symbol13
340
0
 70
     0
280
     1
281
     0
  0
BLOCK_RECORD
  5
1CE
330
1
100
AcDbSymbolTableRecord
100
AcDbBlockTableRecord
  2
cw-dimension-symbol15
340
0
 70
     0
280
     1
281
     0
  0
BLOCK_RECORD
  5
1D5
330
1
100
AcDbSymbolTableRecord
100
AcDbBlockTableRecord
  2
cw-dimension-symbol16
340
0
 70
     0
280
     1
281
     0
  0
BLOCK_RECORD
  5
1DC
330
1
100
AcDbSymbolTableRecord
100
AcDbBlockTableRecord
  2
cw-dimension-symbol17
340
0
 70
     0
280
     1
281
     0
  0
BLOCK_RECORD
  5
1E3
330
1
100
AcDbSymbolTableRecord
100
AcDbBlockTableRecord
  2
cw-dimension-symbol18
340
0
 70
     0
280
     1
281
     0
  0
BLOCK_RECORD
  5
1EA
330
1
100
AcDbSymbolTableRecord
100
AcDbBlockTableRecord
  2
cw-dimension-symbol19
340
0
 70
     0
280
     1
281
     0
  0
BLOCK_RECORD
  5
1ED
330
1
100
AcDbSymbolTableRecord
100
AcDbBlockTableRecord
  2
cw-dimension-symbol20
340
0
 70
     0
280
     1
281
     0
  0
BLOCK_RECORD
  5
1F4
330
1
100
AcDbSymbolTableRecord
100
AcDbBlockTableRecord
  2
cw-dimension-symbol21
340
0
 70
     0
280
     1
281
     0
  0
BLOCK_RECORD
  5
1FB
330
1
100
AcDbSymbolTableRecord
100
AcDbBlockTableRecord
  2
cw-line-extremity0
340
0
 70
     0
280
     1
281
     0
  0
BLOCK_RECORD
  5
1FF
330
1
100
AcDbSymbolTableRecord
100
AcDbBlockTableRecord
  2
cw-line-extremity2
340
0
 70
     0
280
     1
281
     0
  0
BLOCK_RECORD
  5
204
330
1
100
AcDbSymbolTableRecord
100
AcDbBlockTableRecord
  2
cw-line-extremity3
340
0
 70
     0
280
     1
281
     0
  0
BLOCK_RECORD
  5
209
330
1
100
AcDbSymbolTableRecord
100
AcDbBlockTableRecord
  2
cw-line-extremity301
340
0
 70
     0
280
     1
281
     0
  0
BLOCK_RECORD
  5
20B
330
1
100
AcDbSymbolTableRecord
100
AcDbBlockTableRecord
  2
cw-line-extremity4
340
0
102
{BLKREFS
331
23B
331
3C7
331
3C9
331
3CB
331
3CD
331
3D3
102
}
 70
     0
280
     1
281
     0
  0
BLOCK_RECORD
  5
20D
330
1
100
AcDbSymbolTableRecord
100
AcDbBlockTableRecord
  2
cw-line-extremity5
340
0
 70
     0
280
     1
281
     0
  0
BLOCK_RECORD
  5
20F
330
1
100
AcDbSymbolTableRecord
100
AcDbBlockTableRecord
  2
cw-line-extremity6
340
0
 70
     0
280
     1
281
     0
  0
BLOCK_RECORD
  5
211
330
1
100
AcDbSymbolTableRecord
100
AcDbBlockTableRecord
  2
cw-line-extremity9
340
0
 70
     0
280
     1
281
     0
  0
BLOCK_RECORD
  5
213
330
1
100
AcDbSymbolTableRecord
100
AcDbBlockTableRecord
  2
cw-line-extremity10
340
0
 70
     0
280
     1
281
     0
  0
BLOCK_RECORD
  5
215
330
1
100
AcDbSymbolTableRecord
100
AcDbBlockTableRecord
  2
cw-line-extremity1
340
0
 70
     0
280
     1
281
     0
  0
BLOCK_RECORD
  5
1B
330
1
100
AcDbSymbolTableRecord
100
AcDbBlockTableRecord
  2
*Paper_Space69
340
1E
 70
     0
280
     1
281
     0
  0
BLOCK_RECORD
  5
3D8
330
1
100
AcDbSymbolTableRecord
100
AcDbBlockTableRecord
  2
*D70
340
0
 70
     0
280
     1
281
     0
  0
BLOCK_RECORD
  5
3E8
330
1
100
AcDbSymbolTableRecord
100
AcDbBlockTableRecord
  2
*D71
340
0
 70
     0
280
     1
281
     0
  0
ENDTAB
  0
ENDSEC
  0
SECTION
  2
BLOCKS
  0
BLOCK
  5
20
330
1F
100
AcDbEntity
  8
0
100
AcDbBlockBegin
  2
*Model_Space
 70
     0
 10
0.0
 20
0.0
 30
0.0
  3
*Model_Space
  1

  0
ENDBLK
  5
21
330
1F
100
AcDbEntity
  8
0
100
AcDbBlockEnd
  0
BLOCK
  5
22F
330
22D
100
AcDbEntity
 67
     1
  8
0
100
AcDbBlockBegin
  2
*Paper_Space
 70
     0
 10
0.0
 20
0.0
 30
0.0
  3
*Paper_Space
  1

  0
ENDBLK
  5
230
330
22D
100
AcDbEntity
 67
     1
  8
0
100
AcDbBlockEnd
  0
BLOCK
  5
8B
330
86
100
AcDbEntity
  8
0
100
AcDbBlockBegin
  2
CDWK_PTTYP1
 70
     0
 10
0.0
 20
0.0
 30
0.0
  3
CDWK_PTTYP1
  1

  0
LINE
  5
87
330
86
100
AcDbEntity
  8
0
 62
     0
370
    -2
100
AcDbLine
 10
-0.5
 20
0.5
 30
0.0
 11
0.5
 21
0.5
 31
0.0
  0
LINE
  5
88
330
86
100
AcDbEntity
  8
0
 62
     0
370
    -2
100
AcDbLine
 10
0.5
 20
0.5
 30
0.0
 11
0.5
 21
-0.5
 31
0.0
  0
LINE
  5
89
330
86
100
AcDbEntity
  8
0
 62
     0
370
    -2
100
AcDbLine
 10
0.5
 20
-0.5
 30
0.0
 11
-0.5
 21
-0.5
 31
0.0
  0
LINE
  5
8A
330
86
100
AcDbEntity
  8
0
 62
     0
370
    -2
100
AcDbLine
 10
-0.5
 20
-0.5
 30
0.0
 11
-0.5
 21
0.5
 31
0.0
  0
ENDBLK
  5
8C
330
86
100
AcDbEntity
  8
0
100
AcDbBlockEnd
  0
BLOCK
  5
90
330
8D
100
AcDbEntity
  8
0
100
AcDbBlockBegin
  2
CDWK_PTTYP2
 70
     0
 10
0.0
 20
0.0
 30
0.0
  3
CDWK_PTTYP2
  1

  0
LINE
  5
8E
330
8D
100
AcDbEntity
  8
0
 62
     0
370
    -2
100
AcDbLine
 10
0.0
 20
0.5
 30
0.0
 11
0.0
 21
-0.5
 31
0.0
  0
LINE
  5
8F
330
8D
100
AcDbEntity
  8
0
 62
     0
370
    -2
100
AcDbLine
 10
0.5
 20
0.0
 30
0.0
 11
-0.5
 21
0.0
 31
0.0
  0
ENDBLK
  5
91
330
8D
100
AcDbEntity
  8
0
100
AcDbBlockEnd
  0
BLOCK
  5
94
330
92
100
AcDbEntity
  8
0
100
AcDbBlockBegin
  2
CDWK_PTTYP4
 70
     0
 10
0.0
 20
0.0
 30
0.0
  3
CDWK_PTTYP4
  1

  0
HATCH
  5
93
330
92
100
AcDbEntity
  8
0
 62
     0
370
    -2
100
AcDbHatch
 10
0.0
 20
0.0
 30
0.0
210
0.0
220
0.0
230
1.0
  2
SOLID
 70
     1
 71
     1
 91
        1
 92
        1
 93
        1
 72
     2
 10
0.0
 20
0.0
 40
0.5
 50
0.0
 51
360.0
 73
     1
 97
        0
 75
     0
 76
     1
 98
        0
  0
ENDBLK
  5
95
330
92
100
AcDbEntity
  8
0
100
AcDbBlockEnd
  0
BLOCK
  5
9D
330
96
100
AcDbEntity
  8
0
100
AcDbBlockBegin
  2
CDWK_PTTYP5
 70
     0
 10
0.0
 20
0.0
 30
0.0
  3
CDWK_PTTYP5
  1

  0
LINE
  5
97
330
96
100
AcDbEntity
  8
0
 62
     0
370
    -2
100
AcDbLine
 10
-0.5
 20
0.5
 30
0.0
 11
0.5
 21
0.5
 31
0.0
  0
LINE
  5
98
330
96
100
AcDbEntity
  8
0
 62
     0
370
    -2
100
AcDbLine
 10
0.5
 20
0.5
 30
0.0
 11
0.5
 21
-0.5
 31
0.0
  0
LINE
  5
99
330
96
100
AcDbEntity
  8
0
 62
     0
370
    -2
100
AcDbLine
 10
0.5
 20
-0.5
 30
0.0
 11
-0.5
 21
-0.5
 31
0.0
  0
LINE
  5
9A
330
96
100
AcDbEntity
  8
0
 62
     0
370
    -2
100
AcDbLine
 10
-0.5
 20
-0.5
 30
0.0
 11
-0.5
 21
0.5
 31
0.0
  0
HATCH
  5
9B
330
96
100
AcDbEntity
  8
0
 62
     0
370
    -2
100
AcDbHatch
 10
0.0
 20
0.0
 30
0.0
210
0.0
220
0.0
230
1.0
  2
SOLID
 70
     1
 71
     1
 91
        1
 92
        3
 72
     0
 73
     1
 93
        4
 10
-0.5
 20
0.0
 10
0.0
 20
0.0
 10
0.0
 20
-0.5
 10
-0.5
 20
-0.5
 97
        0
 75
     0
 76
     1
 98
        0
  0
HATCH
  5
9C
330
96
100
AcDbEntity
  8
0
 62
     0
370
    -2
100
AcDbHatch
 10
0.0
 20
0.0
 30
0.0
210
0.0
220
0.0
230
1.0
  2
SOLID
 70
     1
 71
     1
 91
        1
 92
        3
 72
     0
 73
     1
 93
        4
 10
0.0
 20
0.0
 10
0.5
 20
0.0
 10
0.5
 20
0.5
 10
0.0
 20
0.5
 97
        0
 75
     0
 76
     1
 98
        0
  0
ENDBLK
  5
9E
330
96
100
AcDbEntity
  8
0
100
AcDbBlockEnd
  0
BLOCK
  5
A5
330
9F
100
AcDbEntity
  8
0
100
AcDbBlockBegin
  2
CDWK_PTTYP6
 70
     0
 10
0.0
 20
0.0
 30
0.0
  3
CDWK_PTTYP6
  1

  0
LINE
  5
A0
330
9F
100
AcDbEntity
  8
0
 62
     0
370
    -2
100
AcDbLine
 10
-0.5
 20
0.5
 30
0.0
 11
0.5
 21
0.5
 31
0.0
  0
LINE
  5
A1
330
9F
100
AcDbEntity
  8
0
 62
     0
370
    -2
100
AcDbLine
 10
0.5
 20
0.5
 30
0.0
 11
0.5
 21
-0.5
 31
0.0
  0
LINE
  5
A2
330
9F
100
AcDbEntity
  8
0
 62
     0
370
    -2
100
AcDbLine
 10
0.5
 20
-0.5
 30
0.0
 11
-0.5
 21
-0.5
 31
0.0
  0
LINE
  5
A3
330
9F
100
AcDbEntity
  8
0
 62
     0
370
    -2
100
AcDbLine
 10
-0.5
 20
-0.5
 30
0.0
 11
-0.5
 21
0.5
 31
0.0
  0
HATCH
  5
A4
330
9F
100
AcDbEntity
  8
0
 62
     0
370
    -2
100
AcDbHatch
 10
0.0
 20
0.0
 30
0.0
210
0.0
220
0.0
230
1.0
  2
SOLID
 70
     1
 71
     1
 91
        1
 92
        3
 72
     0
 73
     1
 93
        3
 10
-0.5
 20
-0.5
 10
-0.5
 20
0.5
 10
0.5
 20
0.5
 97
        0
 75
     0
 76
     1
 98
        0
  0
ENDBLK
  5
A6
330
9F
100
AcDbEntity
  8
0
100
AcDbBlockEnd
  0
BLOCK
  5
AE
330
A7
100
AcDbEntity
  8
0
100
AcDbBlockBegin
  2
CDWK_PTTYP7
 70
     0
 10
0.0
 20
0.0
 30
0.0
  3
CDWK_PTTYP7
  1

  0
LINE
  5
A8
330
A7
100
AcDbEntity
  8
0
 62
     0
370
    -2
100
AcDbLine
 10
-0.5
 20
0.5
 30
0.0
 11
0.5
 21
0.5
 31
0.0
  0
LINE
  5
A9
330
A7
100
AcDbEntity
  8
0
 62
     0
370
    -2
100
AcDbLine
 10
0.5
 20
0.5
 30
0.0
 11
0.5
 21
-0.5
 31
0.0
  0
LINE
  5
AA
330
A7
100
AcDbEntity
  8
0
 62
     0
370
    -2
100
AcDbLine
 10
0.5
 20
-0.5
 30
0.0
 11
-0.5
 21
-0.5
 31
0.0
  0
LINE
  5
AB
330
A7
100
AcDbEntity
  8
0
 62
     0
370
    -2
100
AcDbLine
 10
-0.5
 20
-0.5
 30
0.0
 11
-0.5
 21
0.5
 31
0.0
  0
LINE
  5
AC
330
A7
100
AcDbEntity
  8
0
 62
     0
370
    -2
100
AcDbLine
 10
0.0
 20
0.5
 30
0.0
 11
0.0
 21
-0.5
 31
0.0
  0
LINE
  5
AD
330
A7
100
AcDbEntity
  8
0
 62
     0
370
    -2
100
AcDbLine
 10
0.5
 20
0.0
 30
0.0
 11
-0.5
 21
0.0
 31
0.0
  0
ENDBLK
  5
AF
330
A7
100
AcDbEntity
  8
0
100
AcDbBlockEnd
  0
BLOCK
  5
B2
330
B0
100
AcDbEntity
  8
0
100
AcDbBlockBegin
  2
CDWK_PTTYP8
 70
     0
 10
0.0
 20
0.0
 30
0.0
  3
CDWK_PTTYP8
  1

  0
HATCH
  5
B1
330
B0
100
AcDbEntity
  8
0
 62
     0
370
    -2
100
AcDbHatch
 10
0.0
 20
0.0
 30
0.0
210
0.0
220
0.0
230
1.0
  2
SOLID
 70
     1
 71
     1
 91
        1
 92
        3
 72
     0
 73
     1
 93
        4
 10
0.5
 20
0.5
 10
0.5
 20
-0.5
 10
-0.5
 20
-0.5
 10
-0.5
 20
0.5
 97
        0
 75
     0
 76
     1
 98
        0
  0
ENDBLK
  5
B3
330
B0
100
AcDbEntity
  8
0
100
AcDbBlockEnd
  0
BLOCK
  5
B7
330
B4
100
AcDbEntity
  8
0
100
AcDbBlockBegin
  2
CDWK_PTTYP9
 70
     0
 10
0.0
 20
0.0
 30
0.0
  3
CDWK_PTTYP9
  1

  0
CIRCLE
  5
B5
330
B4
100
AcDbEntity
  8
0
 62
     0
370
    -2
100
AcDbCircle
 10
0.0
 20
0.0
 30
0.0
 40
0.1666666666666667
  0
CIRCLE
  5
B6
330
B4
100
AcDbEntity
  8
0
 62
     0
370
    -2
100
AcDbCircle
 10
0.0
 20
0.0
 30
0.0
 40
0.5
  0
ENDBLK
  5
B8
330
B4
100
AcDbEntity
  8
0
100
AcDbBlockEnd
  0
BLOCK
  5
BB
330
B9
100
AcDbEntity
  8
0
100
AcDbBlockBegin
  2
CDWK_PTTYP10
 70
     0
 10
0.0
 20
0.0
 30
0.0
  3
CDWK_PTTYP10
  1

  0
CIRCLE
  5
BA
330
B9
100
AcDbEntity
  8
0
 62
     0
370
    -2
100
AcDbCircle
 10
0.0
 20
0.0
 30
0.0
 40
0.5
  0
ENDBLK
  5
BC
330
B9
100
AcDbEntity
  8
0
100
AcDbBlockEnd
  0
BLOCK
  5
C0
330
BD
100
AcDbEntity
  8
0
100
AcDbBlockBegin
  2
CDWK_PTTYP11
 70
     0
 10
0.0
 20
0.0
 30
0.0
  3
CDWK_PTTYP11
  1

  0
CIRCLE
  5
BE
330
BD
100
AcDbEntity
  8
0
 62
     0
370
    -2
100
AcDbCircle
 10
0.0
 20
0.0
 30
0.0
 40
0.25
  0
CIRCLE
  5
BF
330
BD
100
AcDbEntity
  8
0
 62
     0
370
    -2
100
AcDbCircle
 10
0.0
 20
0.0
 30
0.0
 40
0.5
  0
ENDBLK
  5
C1
330
BD
100
AcDbEntity
  8
0
100
AcDbBlockEnd
  0
BLOCK
  5
C5
330
C2
100
AcDbEntity
  8
0
100
AcDbBlockBegin
  2
CDWK_PTTYP12
 70
     0
 10
0.0
 20
0.0
 30
0.0
  3
CDWK_PTTYP12
  1

  0
CIRCLE
  5
C3
330
C2
100
AcDbEntity
  8
0
 62
     0
370
    -2
100
AcDbCircle
 10
0.25
 20
0.0
 30
0.0
 40
0.25
  0
CIRCLE
  5
C4
330
C2
100
AcDbEntity
  8
0
 62
     0
370
    -2
100
AcDbCircle
 10
0.0
 20
0.0
 30
0.0
 40
0.5
  0
ENDBLK
  5
C6
330
C2
100
AcDbEntity
  8
0
100
AcDbBlockEnd
  0
BLOCK
  5
CB
330
C7
100
AcDbEntity
  8
0
100
AcDbBlockBegin
  2
CDWK_PTTYP13
 70
     0
 10
0.0
 20
0.0
 30
0.0
  3
CDWK_PTTYP13
  1

  0
CIRCLE
  5
C8
330
C7
100
AcDbEntity
  8
0
 62
     0
370
    -2
100
AcDbCircle
 10
-0.25
 20
0.0
 30
0.0
 40
0.25
  0
CIRCLE
  5
C9
330
C7
100
AcDbEntity
  8
0
 62
     0
370
    -2
100
AcDbCircle
 10
0.25
 20
0.0
 30
0.0
 40
0.25
  0
CIRCLE
  5
CA
330
C7
100
AcDbEntity
  8
0
 62
     0
370
    -2
100
AcDbCircle
 10
0.0
 20
0.0
 30
0.0
 40
0.5
  0
ENDBLK
  5
CC
330
C7
100
AcDbEntity
  8
0
100
AcDbBlockEnd
  0
BLOCK
  5
D2
330
CD
100
AcDbEntity
  8
0
100
AcDbBlockBegin
  2
CDWK_PTTYP16
 70
     0
 10
0.0
 20
0.0
 30
0.0
  3
CDWK_PTTYP16
  1

  0
LINE
  5
CE
330
CD
100
AcDbEntity
  8
0
 62
     0
370
    -2
100
AcDbLine
 10
-0.5
 20
-0.289
 30
0.0
 11
0.5
 21
-0.289
 31
0.0
  0
LINE
  5
CF
330
CD
100
AcDbEntity
  8
0
 62
     0
370
    -2
100
AcDbLine
 10
0.5
 20
-0.289
 30
0.0
 11
0.0
 21
0.577
 31
0.0
  0
LINE
  5
D0
330
CD
100
AcDbEntity
  8
0
 62
     0
370
    -2
100
AcDbLine
 10
0.0
 20
0.577
 30
0.0
 11
-0.5
 21
-0.289
 31
0.0
  0
CIRCLE
  5
D1
330
CD
100
AcDbEntity
  8
0
 62
     0
370
    -2
100
AcDbCircle
 10
0.0
 20
0.0
 30
0.0
 40
0.289
  0
ENDBLK
  5
D3
330
CD
100
AcDbEntity
  8
0
100
AcDbBlockEnd
  0
BLOCK
  5
D7
330
D4
100
AcDbEntity
  8
0
100
AcDbBlockBegin
  2
CDWK_PTTYP17
 70
     0
 10
0.0
 20
0.0
 30
0.0
  3
CDWK_PTTYP17
  1

  0
CIRCLE
  5
D5
330
D4
100
AcDbEntity
  8
0
 62
     0
370
    -2
100
AcDbCircle
 10
0.0
 20
0.0
 30
0.0
 40
0.5
  0
HATCH
  5
D6
330
D4
100
AcDbEntity
  8
0
 62
     0
370
    -2
100
AcDbHatch
 10
0.0
 20
0.0
 30
0.0
210
0.0
220
0.0
230
1.0
  2
SOLID
 70
     1
 71
     1
 91
        1
 92
        1
 93
        1
 72
     2
 10
0.0
 20
0.0
 40
0.25
 50
0.0
 51
360.0
 73
     1
 97
        0
 75
     0
 76
     1
 98
        0
  0
ENDBLK
  5
D8
330
D4
100
AcDbEntity
  8
0
100
AcDbBlockEnd
  0
BLOCK
  5
DC
330
D9
100
AcDbEntity
  8
0
100
AcDbBlockBegin
  2
CDWK_PTTYP18
 70
     0
 10
0.0
 20
0.0
 30
0.0
  3
CDWK_PTTYP18
  1

  0
CIRCLE
  5
DA
330
D9
100
AcDbEntity
  8
0
 62
     0
370
    -2
100
AcDbCircle
 10
0.0
 20
0.0
 30
0.0
 40
0.5
  0
CIRCLE
  5
DB
330
D9
100
AcDbEntity
  8
0
 62
     0
370
    -2
100
AcDbCircle
 10
0.0
 20
0.0
 30
0.0
 40
0.208
  0
ENDBLK
  5
DD
330
D9
100
AcDbEntity
  8
0
100
AcDbBlockEnd
  0
BLOCK
  5
E2
330
DE
100
AcDbEntity
  8
0
100
AcDbBlockBegin
  2
CDWK_PTTYP19
 70
     0
 10
0.0
 20
0.0
 30
0.0
  3
CDWK_PTTYP19
  1

  0
CIRCLE
  5
DF
330
DE
100
AcDbEntity
  8
0
 62
     0
370
    -2
100
AcDbCircle
 10
0.0
 20
0.0
 30
0.0
 40
0.25
  0
CIRCLE
  5
E0
330
DE
100
AcDbEntity
  8
0
 62
     0
370
    -2
100
AcDbCircle
 10
0.0
 20
0.0
 30
0.0
 40
0.35
  0
LINE
  5
E1
330
DE
100
AcDbEntity
  8
0
 62
     0
370
    -2
100
AcDbLine
 10
-0.25
 20
0.0
 30
0.0
 11
0.25
 21
0.0
 31
0.0
  0
ENDBLK
  5
E3
330
DE
100
AcDbEntity
  8
0
100
AcDbBlockEnd
  0
BLOCK
  5
E7
330
E4
100
AcDbEntity
  8
0
100
AcDbBlockBegin
  2
CDWK_PTTYP20
 70
     0
 10
0.0
 20
0.0
 30
0.0
  3
CDWK_PTTYP20
  1

  0
CIRCLE
  5
E5
330
E4
100
AcDbEntity
  8
0
 62
     0
370
    -2
100
AcDbCircle
 10
0.0
 20
0.0
 30
0.0
 40
0.3333333333333333
  0
CIRCLE
  5
E6
330
E4
100
AcDbEntity
  8
0
 62
     0
370
    -2
100
AcDbCircle
 10
0.0
 20
0.0
 30
0.0
 40
0.5
  0
ENDBLK
  5
E8
330
E4
100
AcDbEntity
  8
0
100
AcDbBlockEnd
  0
BLOCK
  5
EC
330
E9
100
AcDbEntity
  8
0
100
AcDbBlockBegin
  2
CDWK_PTTYP21
 70
     0
 10
0.0
 20
0.0
 30
0.0
  3
CDWK_PTTYP21
  1

  0
CIRCLE
  5
EA
330
E9
100
AcDbEntity
  8
0
 62
     0
370
    -2
100
AcDbCircle
 10
0.0
 20
0.0
 30
0.0
 40
0.5
  0
LINE
  5
EB
330
E9
100
AcDbEntity
  8
0
 62
     0
370
    -2
100
AcDbLine
 10
-0.5
 20
0.0
 30
0.0
 11
0.5
 21
0.0
 31
0.0
  0
ENDBLK
  5
ED
330
E9
100
AcDbEntity
  8
0
100
AcDbBlockEnd
  0
BLOCK
  5
F3
330
EE
100
AcDbEntity
  8
0
100
AcDbBlockBegin
  2
CDWK_PTTYP25
 70
     0
 10
0.0
 20
0.0
 30
0.0
  3
CDWK_PTTYP25
  1

  0
LINE
  5
EF
330
EE
100
AcDbEntity
  8
0
 62
     0
370
    -2
100
AcDbLine
 10
0.0
 20
0.5
 30
0.0
 11
-0.4330127018922193
 21
-0.25
 31
0.0
  0
LINE
  5
F0
330
EE
100
AcDbEntity
  8
0
 62
     0
370
    -2
100
AcDbLine
 10
-0.4330127018922193
 20
-0.25
 30
0.0
 11
0.4330127018922193
 21
-0.25
 31
0.0
  0
LINE
  5
F1
330
EE
100
AcDbEntity
  8
0
 62
     0
370
    -2
100
AcDbLine
 10
0.4330127018922193
 20
-0.25
 30
0.0
 11
0.0
 21
0.5
 31
0.0
  0
CIRCLE
  5
F2
330
EE
100
AcDbEntity
  8
0
 62
     0
370
    -2
100
AcDbCircle
 10
0.0
 20
0.0
 30
0.0
 40
0.5
  0
ENDBLK
  5
F4
330
EE
100
AcDbEntity
  8
0
100
AcDbBlockEnd
  0
BLOCK
  5
FA
330
F5
100
AcDbEntity
  8
0
100
AcDbBlockBegin
  2
CDWK_PTTYP26
 70
     0
 10
0.0
 20
0.0
 30
0.0
  3
CDWK_PTTYP26
  1

  0
LINE
  5
F6
330
F5
100
AcDbEntity
  8
0
 62
     0
370
    -2
100
AcDbLine
 10
-0.5
 20
-0.289
 30
0.0
 11
0.5
 21
-0.289
 31
0.0
  0
LINE
  5
F7
330
F5
100
AcDbEntity
  8
0
 62
     0
370
    -2
100
AcDbLine
 10
0.5
 20
-0.289
 30
0.0
 11
0.0
 21
0.577
 31
0.0
  0
LINE
  5
F8
330
F5
100
AcDbEntity
  8
0
 62
     0
370
    -2
100
AcDbLine
 10
0.0
 20
0.577
 30
0.0
 11
-0.5
 21
-0.289
 31
0.0
  0
CIRCLE
  5
F9
330
F5
100
AcDbEntity
  8
0
 62
     0
370
    -2
100
AcDbCircle
 10
0.0
 20
0.0
 30
0.0
 40
0.125
  0
ENDBLK
  5
FB
330
F5
100
AcDbEntity
  8
0
100
AcDbBlockEnd
  0
BLOCK
  5
102
330
FC
100
AcDbEntity
  8
0
100
AcDbBlockBegin
  2
CDWK_PTTYP27
 70
     0
 10
0.0
 20
0.0
 30
0.0
  3
CDWK_PTTYP27
  1

  0
LINE
  5
FD
330
FC
100
AcDbEntity
  8
0
 62
     0
370
    -2
100
AcDbLine
 10
0.0
 20
0.5
 30
0.0
 11
-0.4330127018922193
 21
-0.25
 31
0.0
  0
LINE
  5
FE
330
FC
100
AcDbEntity
  8
0
 62
     0
370
    -2
100
AcDbLine
 10
-0.4330127018922193
 20
-0.25
 30
0.0
 11
0.4330127018922193
 21
-0.25
 31
0.0
  0
LINE
  5
FF
330
FC
100
AcDbEntity
  8
0
 62
     0
370
    -2
100
AcDbLine
 10
0.4330127018922193
 20
-0.25
 30
0.0
 11
0.0
 21
0.5
 31
0.0
  0
CIRCLE
  5
100
330
FC
100
AcDbEntity
  8
0
 62
     0
370
    -2
100
AcDbCircle
 10
0.0
 20
0.0
 30
0.0
 40
0.125
  0
CIRCLE
  5
101
330
FC
100
AcDbEntity
  8
0
 62
     0
370
    -2
100
AcDbCircle
 10
0.0
 20
0.0
 30
0.0
 40
0.5
  0
ENDBLK
  5
103
330
FC
100
AcDbEntity
  8
0
100
AcDbBlockEnd
  0
BLOCK
  5
109
330
104
100
AcDbEntity
  8
0
100
AcDbBlockBegin
  2
CDWK_PTTYP28
 70
     0
 10
0.0
 20
0.0
 30
0.0
  3
CDWK_PTTYP28
  1

  0
LINE
  5
105
330
104
100
AcDbEntity
  8
0
 62
     0
370
    -2
100
AcDbLine
 10
-0.5
 20
0.5
 30
0.0
 11
0.5
 21
0.5
 31
0.0
  0
LINE
  5
106
330
104
100
AcDbEntity
  8
0
 62
     0
370
    -2
100
AcDbLine
 10
0.5
 20
0.5
 30
0.0
 11
-0.5
 21
-0.5
 31
0.0
  0
LINE
  5
107
330
104
100
AcDbEntity
  8
0
 62
     0
370
    -2
100
AcDbLine
 10
0.5
 20
-0.5
 30
0.0
 11
-0.5
 21
-0.5
 31
0.0
  0
LINE
  5
108
330
104
100
AcDbEntity
  8
0
 62
     0
370
    -2
100
AcDbLine
 10
-0.5
 20
0.5
 30
0.0
 11
0.5
 21
-0.5
 31
0.0
  0
ENDBLK
  5
10A
330
104
100
AcDbEntity
  8
0
100
AcDbBlockEnd
  0
BLOCK
  5
10F
330
10B
100
AcDbEntity
  8
0
100
AcDbBlockBegin
  2
CDWK_PTTYP29
 70
     0
 10
0.0
 20
0.0
 30
0.0
  3
CDWK_PTTYP29
  1

  0
CIRCLE
  5
10C
330
10B
100
AcDbEntity
  8
0
 62
     0
370
    -2
100
AcDbCircle
 10
0.0
 20
0.0
 30
0.0
 40
0.2
  0
CIRCLE
  5
10D
330
10B
100
AcDbEntity
  8
0
 62
     0
370
    -2
100
AcDbCircle
 10
0.0
 20
0.0
 30
0.0
 40
0.35
  0
CIRCLE
  5
10E
330
10B
100
AcDbEntity
  8
0
 62
     0
370
    -2
100
AcDbCircle
 10
0.0
 20
0.0
 30
0.0
 40
0.5
  0
ENDBLK
  5
110
330
10B
100
AcDbEntity
  8
0
100
AcDbBlockEnd
  0
BLOCK
  5
116
330
111
100
AcDbEntity
  8
0
100
AcDbBlockBegin
  2
CDWK_PTTYP30
 70
     0
 10
0.0
 20
0.0
 30
0.0
  3
CDWK_PTTYP30
  1

  0
LINE
  5
112
330
111
100
AcDbEntity
  8
0
 62
     0
370
    -2
100
AcDbLine
 10
-0.5
 20
0.5
 30
0.0
 11
-0.1
 21
0.1
 31
0.0
  0
LINE
  5
113
330
111
100
AcDbEntity
  8
0
 62
     0
370
    -2
100
AcDbLine
 10
0.5
 20
0.5
 30
0.0
 11
0.1
 21
0.1
 31
0.0
  0
LINE
  5
114
330
111
100
AcDbEntity
  8
0
 62
     0
370
    -2
100
AcDbLine
 10
0.5
 20
-0.5
 30
0.0
 11
0.1
 21
-0.1
 31
0.0
  0
LINE
  5
115
330
111
100
AcDbEntity
  8
0
 62
     0
370
    -2
100
AcDbLine
 10
-0.5
 20
-0.5
 30
0.0
 11
-0.1
 21
-0.1
 31
0.0
  0
ENDBLK
  5
117
330
111
100
AcDbEntity
  8
0
100
AcDbBlockEnd
  0
BLOCK
  5
11E
330
118
100
AcDbEntity
  8
0
100
AcDbBlockBegin
  2
CDWK_PTTYP31
 70
     0
 10
0.0
 20
0.0
 30
0.0
  3
CDWK_PTTYP31
  1

  0
LINE
  5
119
330
118
100
AcDbEntity
  8
0
 62
     0
370
    -2
100
AcDbLine
 10
-0.5
 20
0.0
 30
0.0
 11
-0.1
 21
0.0
 31
0.0
  0
LINE
  5
11A
330
118
100
AcDbEntity
  8
0
 62
     0
370
    -2
100
AcDbLine
 10
0.1
 20
0.0
 30
0.0
 11
0.5
 21
0.0
 31
0.0
  0
LINE
  5
11B
330
118
100
AcDbEntity
  8
0
 62
     0
370
    -2
100
AcDbLine
 10
0.0
 20
0.5
 30
0.0
 11
0.0
 21
0.1
 31
0.0
  0
LINE
  5
11C
330
118
100
AcDbEntity
  8
0
 62
     0
370
    -2
100
AcDbLine
 10
0.0
 20
-0.1
 30
0.0
 11
0.0
 21
-0.5
 31
0.0
  0
CIRCLE
  5
11D
330
118
100
AcDbEntity
  8
0
 62
     0
370
    -2
100
AcDbCircle
 10
0.0
 20
0.0
 30
0.0
 40
0.1
  0
ENDBLK
  5
11F
330
118
100
AcDbEntity
  8
0
100
AcDbBlockEnd
  0
BLOCK
  5
127
330
120
100
AcDbEntity
  8
0
100
AcDbBlockBegin
  2
CDWK_PTTYP32
 70
     0
 10
0.0
 20
0.0
 30
0.0
  3
CDWK_PTTYP32
  1

  0
CIRCLE
  5
121
330
120
100
AcDbEntity
  8
0
 62
     0
370
    -2
100
AcDbCircle
 10
0.0
 20
0.0
 30
0.0
 40
0.2
  0
CIRCLE
  5
122
330
120
100
AcDbEntity
  8
0
 62
     0
370
    -2
100
AcDbCircle
 10
0.0
 20
0.0
 30
0.0
 40
0.5
  0
LINE
  5
123
330
120
100
AcDbEntity
  8
0
 62
     0
370
    -2
100
AcDbLine
 10
0.1414213562373095
 20
0.1414213562373095
 30
0.0
 11
0.3535533905932738
 21
0.3535533905932738
 31
0.0
  0
LINE
  5
124
330
120
100
AcDbEntity
  8
0
 62
     0
370
    -2
100
AcDbLine
 10
-0.1414213562373095
 20
0.1414213562373095
 30
0.0
 11
-0.3535533905932738
 21
0.3535533905932738
 31
0.0
  0
LINE
  5
125
330
120
100
AcDbEntity
  8
0
 62
     0
370
    -2
100
AcDbLine
 10
0.1414213562373095
 20
-0.1414213562373095
 30
0.0
 11
0.3535533905932738
 21
-0.3535533905932738
 31
0.0
  0
LINE
  5
126
330
120
100
AcDbEntity
  8
0
 62
     0
370
    -2
100
AcDbLine
 10
-0.1414213562373095
 20
-0.1414213562373095
 30
0.0
 11
-0.3535533905932738
 21
-0.3535533905932738
 31
0.0
  0
ENDBLK
  5
128
330
120
100
AcDbEntity
  8
0
100
AcDbBlockEnd
  0
BLOCK
  5
12D
330
129
100
AcDbEntity
  8
0
100
AcDbBlockBegin
  2
CDWK_PTTYP33
 70
     0
 10
0.0
 20
0.0
 30
0.0
  3
CDWK_PTTYP33
  1

  0
LINE
  5
12A
330
129
100
AcDbEntity
  8
0
 62
     0
370
    -2
100
AcDbLine
 10
0.0
 20
-0.5
 30
0.0
 11
0.0
 21
0.5
 31
0.0
  0
LINE
  5
12B
330
129
100
AcDbEntity
  8
0
 62
     0
370
    -2
100
AcDbLine
 10
0.5
 20
0.0
 30
0.0
 11
-0.5
 21
0.0
 31
0.0
  0
CIRCLE
  5
12C
330
129
100
AcDbEntity
  8
0
 62
     0
370
    -2
100
AcDbCircle
 10
0.0
 20
0.0
 30
0.0
 40
0.5
  0
ENDBLK
  5
12E
330
129
100
AcDbEntity
  8
0
100
AcDbBlockEnd
  0
BLOCK
  5
133
330
12F
100
AcDbEntity
  8
0
100
AcDbBlockBegin
  2
CDWK_PTTYP34
 70
     0
 10
0.0
 20
0.0
 30
0.0
  3
CDWK_PTTYP34
  1

  0
CIRCLE
  5
130
330
12F
100
AcDbEntity
  8
0
 62
     0
370
    -2
100
AcDbCircle
 10
0.0
 20
0.0
 30
0.0
 40
0.5
  0
LINE
  5
131
330
12F
100
AcDbEntity
  8
0
 62
     0
370
    -2
100
AcDbLine
 10
-0.4
 20
-0.3
 30
0.0
 11
0.3
 21
0.4
 31
0.0
  0
LINE
  5
132
330
12F
100
AcDbEntity
  8
0
 62
     0
370
    -2
100
AcDbLine
 10
-0.3
 20
-0.4
 30
0.0
 11
0.4
 21
0.3
 31
0.0
  0
ENDBLK
  5
134
330
12F
100
AcDbEntity
  8
0
100
AcDbBlockEnd
  0
BLOCK
  5
139
330
135
100
AcDbEntity
  8
0
100
AcDbBlockBegin
  2
CDWK_PTTYP35
 70
     0
 10
0.0
 20
0.0
 30
0.0
  3
CDWK_PTTYP35
  1

  0
LINE
  5
136
330
135
100
AcDbEntity
  8
0
 62
     0
370
    -2
100
AcDbLine
 10
0.0
 20
0.2
 30
0.0
 11
0.0
 21
0.5
 31
0.0
  0
LINE
  5
137
330
135
100
AcDbEntity
  8
0
 62
     0
370
    -2
100
AcDbLine
 10
0.0
 20
-0.2
 30
0.0
 11
0.0
 21
-0.5
 31
0.0
  0
CIRCLE
  5
138
330
135
100
AcDbEntity
  8
0
 62
     0
370
    -2
100
AcDbCircle
 10
0.0
 20
0.0
 30
0.0
 40
0.2
  0
ENDBLK
  5
13A
330
135
100
AcDbEntity
  8
0
100
AcDbBlockEnd
  0
BLOCK
  5
141
330
13B
100
AcDbEntity
  8
0
100
AcDbBlockBegin
  2
CDWK_PTTYP36
 70
     0
 10
0.0
 20
0.0
 30
0.0
  3
CDWK_PTTYP36
  1

  0
LINE
  5
13C
330
13B
100
AcDbEntity
  8
0
 62
     0
370
    -2
100
AcDbLine
 10
-0.5
 20
0.2
 30
0.0
 11
0.5
 21
0.2
 31
0.0
  0
LINE
  5
13D
330
13B
100
AcDbEntity
  8
0
 62
     0
370
    -2
100
AcDbLine
 10
0.5
 20
0.2
 30
0.0
 11
0.5
 21
-0.2
 31
0.0
  0
LINE
  5
13E
330
13B
100
AcDbEntity
  8
0
 62
     0
370
    -2
100
AcDbLine
 10
0.5
 20
-0.2
 30
0.0
 11
-0.5
 21
-0.2
 31
0.0
  0
LINE
  5
13F
330
13B
100
AcDbEntity
  8
0
 62
     0
370
    -2
100
AcDbLine
 10
-0.5
 20
-0.2
 30
0.0
 11
-0.5
 21
0.2
 31
0.0
  0
HATCH
  5
140
330
13B
100
AcDbEntity
  8
0
 62
     0
370
    -2
100
AcDbHatch
 10
0.0
 20
0.0
 30
0.0
210
0.0
220
0.0
230
1.0
  2
SOLID
 70
     1
 71
     1
 91
        1
 92
        3
 72
     0
 73
     1
 93
        3
 10
-0.5
 20
-0.2
 10
0.5
 20
-0.2
 10
0.5
 20
0.2
 97
        0
 75
     0
 76
     1
 98
        0
  0
ENDBLK
  5
142
330
13B
100
AcDbEntity
  8
0
100
AcDbBlockEnd
  0
BLOCK
  5
146
330
143
100
AcDbEntity
  8
0
100
AcDbBlockBegin
  2
CDWK_PTTYP37
 70
     0
 10
0.0
 20
0.0
 30
0.0
  3
CDWK_PTTYP37
  1

  0
HATCH
  5
144
330
143
100
AcDbEntity
  8
0
 62
     0
370
    -2
100
AcDbHatch
 10
0.0
 20
0.0
 30
0.0
210
0.0
220
0.0
230
1.0
  2
SOLID
 70
     1
 71
     1
 91
        1
 92
        3
 72
     0
 73
     1
 93
      202
 10
-0.3535533905932738
 20
-0.3535533905932738
 10
-0.3485533905932738
 20
-0.3535533905932737
 10
-0.3435533905932738
 20
-0.3584836591895546
 10
-0.3385533905932738
 20
-0.3632782236961988
 10
-0.3335533905932738
 20
-0.367942389128785
 10
-0.3285533905932738
 20
-0.372481054046687
 10
-0.3235533905932738
 20
-0.3768987523588579
 10
-0.3185533905932738
 20
-0.3811996897107819
 10
-0.3135533905932738
 20
-0.3853877752881235
 10
-0.3085533905932737
 20
-0.3894666497242888
 10
-0.3035533905932737
 20
-0.3934397096803965
 10
-0.2985533905932737
 20
-0.3973101295704999
 10
-0.2935533905932737
 20
-0.4010808808273714
 10
-0.2885533905932737
 20
-0.4047547490409382
 10
-0.2835533905932737
 20
-0.4083343492496384
 10
-0.2785533905932737
 20
-0.4118221396222626
 10
-0.2735533905932737
 20
-0.4152204337324827
 10
-0.2685533905932737
 20
-0.4185314115988474
 10
-0.2635533905932737
 20
-0.4217571296384408
 10
-0.2585533905932737
 20
-0.4248995296617653
 10
-0.2535533905932737
 20
-0.4279604470190231
 10
-0.2485533905932737
 20
-0.4309416179932669
 10
-0.2435533905932737
 20
-0.4338446865234004
 10
-0.2385533905932737
 20
-0.4366712103293738
 10
-0.2335533905932737
 20
-0.439422666502825
 10
-0.2285533905932737
 20
-0.4421004566186126
 10
-0.2235533905932737
 20
-0.4447059114159811
 10
-0.2185533905932737
 20
-0.4472402950923041
 10
-0.2135533905932737
 20
-0.4497048092473372
 10
-0.2085533905932737
 20
-0.4521005965115692
 10
-0.2035533905932737
 20
-0.4544287438884664
 10
-0.1985533905932736
 20
-0.456690285837111
 10
-0.1935533905932736
 20
-0.45888620711884
 10
-0.1885533905932736
 20
-0.4610174454289638
 10
-0.1835533905932736
 20
-0.4630848938324164
 10
-0.1785533905932736
 20
-0.4650894030202291
 10
-0.1735533905932736
 20
-0.4670317834019928
 10
-0.1685533905932736
 20
-0.46891280704794
 10
-0.1635533905932736
 20
-0.4707332094929264
 10
-0.1585533905932736
 20
-0.4724936914133818
 10
-0.1535533905932736
 20
-0.4741949201872336
 10
-0.1485533905932736
 20
-0.4758375313458466
 10
-0.1435533905932736
 20
-0.4774221299261716
 10
-0.1385533905932736
 20
-0.4789492917305286
 10
-0.1335533905932736
 20
-0.4804195645007682
 10
-0.1285533905932736
 20
-0.4818334690129366
 10
-0.1235533905932736
 20
-0.4831915000980183
 10
-0.1185533905932736
 20
-0.4844941275938295
 10
-0.1135533905932736
 20
-0.4857417972326848
 10
-0.1085533905932736
 20
-0.4869349314690531
 10
-0.1035533905932736
 20
-0.4880739302510473
 10
-0.0985533905932736
 20
-0.489159171739258
 10
-0.0935533905932736
 20
-0.4901910129761353
 10
-0.0885533905932736
 20
-0.4911697905088447
 10
-0.0835533905932735
 20
-0.4920958209682695
 10
-0.0785533905932735
 20
-0.4929694016065986
 10
-0.0735533905932735
 20
-0.4937908107957261
 10
-0.0685533905932735
 20
-0.494560308488493
 10
-0.0635533905932735
 20
-0.4952781366446192
 10
-0.0585533905932735
 20
-0.4959445196230107
 10
-0.0535533905932735
 20
-0.4965596645419678
 10
-0.0485533905932735
 20
-0.4971237616086806
 10
-0.0435533905932735
 20
-0.4976369844192622
 10
-0.0385533905932735
 20
-0.4980994902304456
 10
-0.0335533905932735
 20
-0.4985114202039533
 10
-0.0285533905932735
 20
-0.4988728996244386
 10
-0.0235533905932735
 20
-0.4991840380917923
 10
-0.0185533905932735
 20
-0.49944492968851
 10
-0.0135533905932735
 20
-0.4996556531227215
 10
-0.0085533905932735
 20
-0.4998162718473921
 10
-0.0035533905932735
 20
-0.4999268341561182
 10
0.0014466094067265
 20
-0.499987373255857
 10
0.0064466094067265
 20
-0.4999979073168451
 10
0.0114466094067265
 20
-0.4999584394998819
 10
0.0164466094067265
 20
-0.4998689579610739
 10
0.0214466094067265
 20
-0.4997294358340547
 10
0.0264466094067265
 20
-0.4995398311896213
 10
0.0314466094067265
 20
-0.4993000869726422
 10
0.0364466094067265
 20
-0.4990101309160174
 10
0.0414466094067265
 20
-0.4986698754313855
 10
0.0464466094067265
 20
-0.498279217476192
 10
0.0514466094067265
 20
-0.4978380383966446
 10
0.0564466094067265
 20
-0.497346203745994
 10
0.0614466094067265
 20
-0.4968035630774849
 10
0.0664466094067264
 20
-0.4962099497112257
 10
0.0714466094067265
 20
-0.4955651804741228
 10
0.0764466094067265
 20
-0.4948690554119167
 10
0.0814466094067265
 20
-0.4941213574722463
 10
0.0864466094067265
 20
-0.4933218521575424
 10
0.0914466094067265
 20
-0.4924702871464235
 10
0.0964466094067265
 20
-0.4915663918821278
 10
0.1014466094067265
 20
-0.4906098771263643
 10
0.1064466094067265
 20
-0.4896004344768079
 10
0.1114466094067265
 20
-0.4885377358462822
 10
0.1164466094067265
 20
-0.4874214329014929
 10
0.1214466094067265
 20
-0.4862511564589613
 10
0.1264466094067265
 20
-0.4850265158355881
 10
0.1314466094067265
 20
-0.4837470981510305
 10
0.1364466094067265
 20
-0.482412467578809
 10
0.1414466094067265
 20
-0.4810221645427664
 10
0.1464466094067265
 20
-0.4795757048551781
 10
0.1514466094067265
 20
-0.4780725787924608
 10
0.1564466094067265
 20
-0.4765122501040308
 10
0.1614466094067265
 20
-0.4748941549494363
 10
0.1664466094067265
 20
-0.4732177007584056
 10
0.1714466094067265
 20
-0.4714822650079264
 10
0.1764466094067265
 20
-0.4696871939098801
 10
0.1814466094067266
 20
-0.4678318010021017
 10
0.1864466094067266
 20
-0.4659153656350076
 10
0.1914466094067266
 20
-0.4639371313451162
 10
0.1964466094067266
 20
-0.4618963041058764
 10
0.2014466094067266
 20
-0.4597920504451997
 10
0.2064466094067266
 20
-0.4576234954179405
 10
0.2114466094067266
 20
-0.4553897204202862
 10
0.2164466094067266
 20
-0.4530897608315588
 10
0.2214466094067266
 20
-0.45072260346729
 10
0.2264466094067266
 20
-0.4482871838255748
 10
0.2314466094067266
 20
-0.4457823831065977
 10
0.2364466094067266
 20
-0.4432070249828292
 10
0.2414466094067266
 20
-0.4405598720946596
 10
0.2464466094067266
 20
-0.4378396222431172
 10
0.2514466094067266
 20
-0.4350449042477435
 10
0.2564466094067266
 20
-0.4321742734336012
 10
0.2614466094067266
 20
-0.4292262067066663
 10
0.2664466094067266
 20
-0.4261990971714118
 10
0.2714466094067266
 20
-0.4230912482380831
 10
0.2764466094067266
 20
-0.4199008671598476
 10
0.2814466094067266
 20
-0.4166260579314797
 10
0.2864466094067266
 20
-0.4132648134712868
 10
0.2914466094067266
 20
-0.4098150069963156
 10
0.2964466094067266
 20
-0.4062743824871597
 10
0.3014466094067266
 20
-0.4026405441224911
 10
0.3064466094067266
 20
-0.3989109445442534
 10
0.3114466094067266
 20
-0.3950828717916294
 10
0.3164466094067266
 20
-0.391153434714632
 10
0.3214466094067266
 20
-0.3871195466454601
 10
0.3264466094067267
 20
-0.3829779070663467
 10
0.3314466094067267
 20
-0.3787249809648844
 10
0.3364466094067267
 20
-0.3743569755097196
 10
0.3414466094067267
 20
-0.3698698136084067
 10
0.3464466094067267
 20
-0.3652591038217257
 10
0.3514466094067267
 20
-0.3605201060004601
 10
0.3564466094067267
 20
-0.3556476918757041
 10
0.3614466094067267
 20
-0.3506362996645505
 10
0.3664466094067267
 20
-0.34547988153926
 10
0.3714466094067267
 20
-0.3401718425359658
 10
0.3764466094067267
 20
-0.334704969129899
 10
0.3814466094067267
 20
-0.3290713452523318
 10
0.3864466094067267
 20
-0.3232622529342269
 10
0.3914466094067267
 20
-0.3172680539828188
 10
0.3964466094067267
 20
-0.3110780480586465
 10
0.4014466094067267
 20
-0.304680301118911
 10
0.4064466094067267
 20
-0.2980614362775617
 10
0.4114466094067267
 20
-0.291206376478565
 10
0.4164466094067267
 20
-0.2840980246459106
 10
0.4214466094067267
 20
-0.276716861635935
 10
0.4264466094067267
 20
-0.2690404345439063
 10
0.4314466094067267
 20
-0.2610426963649944
 10
0.4364466094067267
 20
-0.2526931404518915
 10
0.4414466094067268
 20
-0.2439556458403291
 10
0.4464466094067268
 20
-0.2347869056044327
 10
0.4514466094067268
 20
-0.2251342376211081
 10
0.4564466094067268
 20
-0.2149324518428296
 10
0.4614466094067268
 20
-0.2040992228331676
 10
0.4664466094067268
 20
-0.1925279893081412
 10
0.4714466094067268
 20
-0.1800765408735088
 10
0.4764466094067268
 20
-0.1665475742210051
 10
0.4814466094067268
 20
-0.1516529867323223
 10
0.4864466094067268
 20
-0.1349413290684758
 10
0.4914466094067268
 20
-0.1156274024472547
 10
0.4964466094067268
 20
-0.0920881648347501
 10
0.5
 20
0.0
 10
0.495
 20
0.0
 10
0.49
 20
0.0705336798983295
 10
0.485
 20
0.0994987437106621
 10
0.48
 20
0.1215524578114322
 10
0.475
 20
0.14
 10
0.47
 20
0.15612494995996
 10
0.465
 20
0.1705872210923199
 10
0.46
 20
0.1837797594948911
 10
0.455
 20
0.1959591794226544
 10
0.45
 20
0.2073041244162789
 10
0.445
 20
0.2179449471770338
 10
0.4399999999999999
 20
0.2279802623035601
 10
0.4349999999999999
 20
0.2374868417407584
 10
0.4299999999999999
 20
0.2465258607124211
 10
0.4249999999999999
 20
0.2551470164434615
 10
0.4199999999999999
 20
0.2633913438213186
 10
0.4149999999999999
 20
0.2712931993250108
 10
0.4099999999999999
 20
0.2788816953476869
 10
0.4049999999999999
 20
0.2861817604250838
 10
0.3999999999999999
 20
0.2932149382279151
 10
0.3949999999999999
 20
0.3000000000000002
 10
0.3899999999999999
 20
0.3065534211193868
 10
0.3849999999999999
 20
0.3128897569432404
 10
0.3799999999999999
 20
0.3190219428189855
 10
0.3749999999999999
 20
0.3249615361854385
 10
0.3699999999999999
 20
0.330718913883074
 10
0.3649999999999999
 20
0.3363034344160049
 10
0.3599999999999999
 20
0.3417235724968357
 10
0.3549999999999999
 20
0.3469870314579496
 10
0.3535533905932738
 20
0.3535533905932738
 97
        0
 75
     0
 76
     1
 98
        0
  0
CIRCLE
  5
145
330
143
100
AcDbEntity
  8
0
 62
     0
370
    -2
100
AcDbCircle
 10
0.0
 20
0.0
 30
0.0
 40
0.5
  0
ENDBLK
  5
147
330
143
100
AcDbEntity
  8
0
100
AcDbBlockEnd
  0
BLOCK
  5
14C
330
148
100
AcDbEntity
  8
0
100
AcDbBlockBegin
  2
CDWK_PTTYP38
 70
     0
 10
0.0
 20
0.0
 30
0.0
  3
CDWK_PTTYP38
  1

  0
HATCH
  5
149
330
148
100
AcDbEntity
  8
0
 62
     0
370
    -2
100
AcDbHatch
 10
0.0
 20
0.0
 30
0.0
210
0.0
220
0.0
230
1.0
  2
SOLID
 70
     1
 71
     1
 91
        1
 92
        3
 72
     0
 73
     1
 93
      102
 10
0.0
 20
0.0
 10
0.0
 20
0.5
 10
0.005
 20
0.5
 10
0.01
 20
0.4999749993749688
 10
0.015
 20
0.4998999899979995
 10
0.02
 20
0.4997749493522059
 10
0.025
 20
0.4995998398718718
 10
0.03
 20
0.4993746088859545
 10
0.035
 20
0.4990991885387112
 10
0.04
 20
0.4987734956871706
 10
0.045
 20
0.4983974317750845
 10
0.05
 20
0.4979708826829135
 10
0.055
 20
0.49749371855331
 10
0.06
 20
0.4969657935914704
 10
0.065
 20
0.4963869458396343
 10
0.07
 20
0.4957569969249047
 10
0.075
 20
0.4950757517794626
 10
0.08
 20
0.4943429983321297
 10
0.085
 20
0.4935585071701227
 10
0.09
 20
0.4927220311697053
 10
0.095
 20
0.4918333050943175
 10
0.1
 20
0.4908920451586071
 10
0.105
 20
0.4898979485566356
 10
0.11
 20
0.4888506929523574
 10
0.115
 20
0.4877499359302879
 10
0.12
 20
0.4865953144040744
 10
0.125
 20
0.4853864439804639
 10
0.13
 20
0.4841229182759271
 10
0.135
 20
0.4828043081829325
 10
0.14
 20
0.4814301610825811
 10
0.145
 20
0.48
 10
0.15
 20
0.478513322698543
 10
0.1550000000000001
 20
0.4769696007084728
 10
0.1600000000000001
 20
0.4753682782853731
 10
0.1650000000000001
 20
0.4737087712930804
 10
0.1700000000000001
 20
0.4719904660054056
 10
0.1750000000000001
 20
0.4702127178203498
 10
0.1800000000000001
 20
0.4683748498798799
 10
0.1850000000000001
 20
0.466476151587624
 10
0.1900000000000001
 20
0.4645158770160606
 10
0.1950000000000001
 20
0.4624932431938871
 10
0.2000000000000001
 20
0.460407428263272
 10
0.2050000000000001
 20
0.4582575694955839
 10
0.2100000000000001
 20
0.4560427611529427
 10
0.2150000000000001
 20
0.4537620521815371
 10
0.2200000000000001
 20
0.4514144437210665
 10
0.2250000000000001
 20
0.4489988864128729
 10
0.2300000000000001
 20
0.4465142774872937
 10
0.2350000000000001
 20
0.4439594576084622
 10
0.2400000000000001
 20
0.4413332074521472
 10
0.2450000000000001
 20
0.4386342439892261
 10
0.2500000000000001
 20
0.4358612164439502
 10
0.2550000000000001
 20
0.4330127018922192
 10
0.2600000000000001
 20
0.4300872004605577
 10
0.2650000000000001
 20
0.4270831300812524
 10
0.2700000000000001
 20
0.423998820753077
 10
0.2750000000000001
 20
0.4208325082500162
 10
0.2800000000000001
 20
0.4175823272122516
 10
0.2850000000000001
 20
0.4142463035441595
 10
0.2900000000000001
 20
0.4108223460329293
 10
0.2950000000000002
 20
0.4073082370883259
 10
0.3000000000000002
 20
0.403701622488689
 10
0.3050000000000002
 20
0.3999999999999999
 10
0.3100000000000002
 20
0.3962007067131506
 10
0.3150000000000002
 20
0.3923009049186605
 10
0.3200000000000002
 20
0.3882975663070783
 10
0.3250000000000002
 20
0.3841874542459708
 10
0.3300000000000002
 20
0.3799671038392664
 10
0.3350000000000002
 20
0.3756327994198588
 10
0.3400000000000002
 20
0.3711805490593491
 10
0.3450000000000002
 20
0.366606055596467
 10
0.3500000000000002
 20
0.3619046835839512
 10
0.3550000000000002
 20
0.3570714214271423
 10
0.3600000000000002
 20
0.3521008378291649
 10
0.3650000000000002
 20
0.3469870314579492
 10
0.3700000000000002
 20
0.3417235724968353
 10
0.3750000000000002
 20
0.3363034344160045
 10
0.3800000000000002
 20
0.3307189138830736
 10
0.3850000000000002
 20
0.3249615361854382
 10
0.3900000000000002
 20
0.3190219428189851
 10
0.3950000000000002
 20
0.31288975694324
 10
0.4000000000000002
 20
0.3065534211193863
 10
0.4050000000000002
 20
0.2999999999999997
 10
0.4100000000000003
 20
0.2932149382279147
 10
0.4150000000000003
 20
0.2861817604250834
 10
0.4200000000000003
 20
0.2788816953476864
 10
0.4250000000000003
 20
0.2712931993250103
 10
0.4300000000000003
 20
0.263391343821318
 10
0.4350000000000003
 20
0.255147016443461
 10
0.4400000000000003
 20
0.2465258607124206
 10
0.4450000000000003
 20
0.2374868417407578
 10
0.4500000000000003
 20
0.2279802623035594
 10
0.4550000000000003
 20
0.2179449471770331
 10
0.4600000000000003
 20
0.2073041244162782
 10
0.4650000000000003
 20
0.1959591794226536
 10
0.4700000000000003
 20
0.1837797594948903
 10
0.4750000000000003
 20
0.170587221092319
 10
0.4800000000000003
 20
0.156124949959959
 10
0.4850000000000003
 20
0.1399999999999989
 10
0.4900000000000003
 20
0.1215524578114309
 10
0.4950000000000003
 20
0.0994987437106604
 10
0.5
 20
0.0
 97
        0
 75
     0
 76
     1
 98
        0
  0
HATCH
  5
14A
330
148
100
AcDbEntity
  8
0
 62
     0
370
    -2
100
AcDbHatch
 10
0.0
 20
0.0
 30
0.0
210
0.0
220
0.0
230
1.0
  2
SOLID
 70
     1
 71
     1
 91
        1
 92
        3
 72
     0
 73
     1
 93
      102
 10
0.0
 20
0.0
 10
-0.5
 20
0.0
 10
-0.495
 20
0.0
 10
-0.49
 20
-0.0705336798983295
 10
-0.485
 20
-0.0994987437106621
 10
-0.48
 20
-0.1215524578114322
 10
-0.475
 20
-0.14
 10
-0.47
 20
-0.15612494995996
 10
-0.465
 20
-0.1705872210923199
 10
-0.46
 20
-0.1837797594948911
 10
-0.455
 20
-0.1959591794226544
 10
-0.45
 20
-0.2073041244162789
 10
-0.445
 20
-0.2179449471770338
 10
-0.4399999999999999
 20
-0.2279802623035601
 10
-0.4349999999999999
 20
-0.2374868417407584
 10
-0.4299999999999999
 20
-0.2465258607124211
 10
-0.4249999999999999
 20
-0.2551470164434615
 10
-0.4199999999999999
 20
-0.2633913438213186
 10
-0.4149999999999999
 20
-0.2712931993250108
 10
-0.4099999999999999
 20
-0.2788816953476869
 10
-0.4049999999999999
 20
-0.2861817604250838
 10
-0.3999999999999999
 20
-0.2932149382279151
 10
-0.3949999999999999
 20
-0.3000000000000002
 10
-0.3899999999999999
 20
-0.3065534211193868
 10
-0.3849999999999999
 20
-0.3128897569432404
 10
-0.3799999999999999
 20
-0.3190219428189855
 10
-0.3749999999999999
 20
-0.3249615361854385
 10
-0.3699999999999999
 20
-0.330718913883074
 10
-0.3649999999999999
 20
-0.3363034344160049
 10
-0.3599999999999999
 20
-0.3417235724968357
 10
-0.3549999999999999
 20
-0.3469870314579496
 10
-0.3499999999999999
 20
-0.3521008378291652
 10
-0.3449999999999999
 20
-0.3570714214271427
 10
-0.3399999999999999
 20
-0.3619046835839516
 10
-0.3349999999999999
 20
-0.3666060555964674
 10
-0.3299999999999998
 20
-0.3711805490593494
 10
-0.3249999999999998
 20
-0.3756327994198591
 10
-0.3199999999999998
 20
-0.3799671038392667
 10
-0.3149999999999998
 20
-0.3841874542459711
 10
-0.3099999999999998
 20
-0.3882975663070786
 10
-0.3049999999999998
 20
-0.3923009049186608
 10
-0.2999999999999998
 20
-0.3962007067131507
 10
-0.2949999999999998
 20
-0.4000000000000001
 10
-0.2899999999999998
 20
-0.4037016224886891
 10
-0.2849999999999998
 20
-0.4073082370883261
 10
-0.2799999999999998
 20
-0.4108223460329296
 10
-0.2749999999999998
 20
-0.4142463035441597
 10
-0.2699999999999998
 20
-0.4175823272122518
 10
-0.2649999999999998
 20
-0.4208325082500164
 10
-0.2599999999999998
 20
-0.4239988207530773
 10
-0.2549999999999998
 20
-0.4270831300812526
 10
-0.2499999999999998
 20
-0.4300872004605579
 10
-0.2449999999999998
 20
-0.4330127018922195
 10
-0.2399999999999998
 20
-0.4358612164439503
 10
-0.2349999999999998
 20
-0.4386342439892263
 10
-0.2299999999999998
 20
-0.4413332074521473
 10
-0.2249999999999998
 20
-0.4439594576084624
 10
-0.2199999999999998
 20
-0.4465142774872939
 10
-0.2149999999999997
 20
-0.4489988864128731
 10
-0.2099999999999997
 20
-0.4514144437210667
 10
-0.2049999999999997
 20
-0.4537620521815372
 10
-0.1999999999999997
 20
-0.4560427611529429
 10
-0.1949999999999997
 20
-0.4582575694955841
 10
-0.1899999999999997
 20
-0.4604074282632722
 10
-0.1849999999999997
 20
-0.4624932431938872
 10
-0.1799999999999997
 20
-0.4645158770160608
 10
-0.1749999999999997
 20
-0.4664761515876241
 10
-0.1699999999999997
 20
-0.46837484987988
 10
-0.1649999999999997
 20
-0.47021271782035
 10
-0.1599999999999997
 20
-0.4719904660054058
 10
-0.1549999999999997
 20
-0.4737087712930805
 10
-0.1499999999999997
 20
-0.4753682782853733
 10
-0.1449999999999997
 20
-0.4769696007084729
 10
-0.1399999999999997
 20
-0.4785133226985431
 10
-0.1349999999999997
 20
-0.4800000000000001
 10
-0.1299999999999997
 20
-0.4814301610825812
 10
-0.1249999999999997
 20
-0.4828043081829325
 10
-0.1199999999999997
 20
-0.4841229182759272
 10
-0.1149999999999997
 20
-0.485386443980464
 10
-0.1099999999999997
 20
-0.4865953144040744
 10
-0.1049999999999996
 20
-0.487749935930288
 10
-0.0999999999999996
 20
-0.4888506929523574
 10
-0.0949999999999996
 20
-0.4898979485566357
 10
-0.0899999999999996
 20
-0.4908920451586072
 10
-0.0849999999999996
 20
-0.4918333050943176
 10
-0.0799999999999996
 20
-0.4927220311697053
 10
-0.0749999999999996
 20
-0.4935585071701227
 10
-0.0699999999999996
 20
-0.4943429983321298
 10
-0.0649999999999996
 20
-0.4950757517794626
 10
-0.0599999999999996
 20
-0.4957569969249048
 10
-0.0549999999999996
 20
-0.4963869458396343
 10
-0.0499999999999996
 20
-0.4969657935914705
 10
-0.0449999999999996
 20
-0.49749371855331
 10
-0.0399999999999996
 20
-0.4979708826829135
 10
-0.0349999999999996
 20
-0.4983974317750846
 10
-0.0299999999999996
 20
-0.4987734956871706
 10
-0.0249999999999996
 20
-0.4990991885387112
 10
-0.0199999999999996
 20
-0.4993746088859545
 10
-0.0149999999999996
 20
-0.4995998398718719
 10
-0.0099999999999996
 20
-0.499774949352206
 10
-0.0049999999999996
 20
-0.4998999899979995
 10
0.0
 20
-0.5
 97
        0
 75
     0
 76
     1
 98
        0
  0
CIRCLE
  5
14B
330
148
100
AcDbEntity
  8
0
 62
     0
370
    -2
100
AcDbCircle
 10
0.0
 20
0.0
 30
0.0
 40
0.5
  0
ENDBLK
  5
14D
330
148
100
AcDbEntity
  8
0
100
AcDbBlockEnd
  0
BLOCK
  5
156
330
14E
100
AcDbEntity
  8
0
100
AcDbBlockBegin
  2
CDWK_PTTYP41
 70
     0
 10
0.0
 20
0.0
 30
0.0
  3
CDWK_PTTYP41
  1

  0
LINE
  5
14F
330
14E
100
AcDbEntity
  8
0
 62
     0
370
    -2
100
AcDbLine
 10
-0.5
 20
0.5
 30
0.0
 11
0.5
 21
0.5
 31
0.0
  0
LINE
  5
150
330
14E
100
AcDbEntity
  8
0
 62
     0
370
    -2
100
AcDbLine
 10
0.5
 20
0.5
 30
0.0
 11
0.5
 21
-0.5
 31
0.0
  0
LINE
  5
151
330
14E
100
AcDbEntity
  8
0
 62
     0
370
    -2
100
AcDbLine
 10
0.5
 20
-0.5
 30
0.0
 11
-0.5
 21
-0.5
 31
0.0
  0
LINE
  5
152
330
14E
100
AcDbEntity
  8
0
 62
     0
370
    -2
100
AcDbLine
 10
-0.5
 20
-0.5
 30
0.0
 11
-0.5
 21
0.5
 31
0.0
  0
LINE
  5
153
330
14E
100
AcDbEntity
  8
0
 62
     0
370
    -2
100
AcDbLine
 10
-0.375
 20
0.25
 30
0.0
 11
0.375
 21
0.25
 31
0.0
  0
LINE
  5
154
330
14E
100
AcDbEntity
  8
0
 62
     0
370
    -2
100
AcDbLine
 10
-0.375
 20
0.0
 30
0.0
 11
0.375
 21
0.0
 31
0.0
  0
LINE
  5
155
330
14E
100
AcDbEntity
  8
0
 62
     0
370
    -2
100
AcDbLine
 10
-0.375
 20
-0.25
 30
0.0
 11
0.375
 21
-0.25
 31
0.0
  0
ENDBLK
  5
157
330
14E
100
AcDbEntity
  8
0
100
AcDbBlockEnd
  0
BLOCK
  5
15F
330
158
100
AcDbEntity
  8
0
100
AcDbBlockBegin
  2
CDWK_PTTYP42
 70
     0
 10
0.0
 20
0.0
 30
0.0
  3
CDWK_PTTYP42
  1

  0
LINE
  5
159
330
158
100
AcDbEntity
  8
0
 62
     0
370
    -2
100
AcDbLine
 10
-0.5
 20
0.5
 30
0.0
 11
0.5
 21
0.5
 31
0.0
  0
LINE
  5
15A
330
158
100
AcDbEntity
  8
0
 62
     0
370
    -2
100
AcDbLine
 10
0.5
 20
0.5
 30
0.0
 11
0.5
 21
-0.5
 31
0.0
  0
LINE
  5
15B
330
158
100
AcDbEntity
  8
0
 62
     0
370
    -2
100
AcDbLine
 10
0.5
 20
-0.5
 30
0.0
 11
-0.5
 21
-0.5
 31
0.0
  0
LINE
  5
15C
330
158
100
AcDbEntity
  8
0
 62
     0
370
    -2
100
AcDbLine
 10
-0.5
 20
-0.5
 30
0.0
 11
-0.5
 21
0.5
 31
0.0
  0
LINE
  5
15D
330
158
100
AcDbEntity
  8
0
 62
     0
370
    -2
100
AcDbLine
 10
-0.375
 20
0.125
 30
0.0
 11
0.375
 21
0.125
 31
0.0
  0
LINE
  5
15E
330
158
100
AcDbEntity
  8
0
 62
     0
370
    -2
100
AcDbLine
 10
-0.375
 20
-0.125
 30
0.0
 11
0.375
 21
-0.125
 31
0.0
  0
ENDBLK
  5
160
330
158
100
AcDbEntity
  8
0
100
AcDbBlockEnd
  0
BLOCK
  5
165
330
161
100
AcDbEntity
  8
0
100
AcDbBlockBegin
  2
CDWK_PTTYP43
 70
     0
 10
0.0
 20
0.0
 30
0.0
  3
CDWK_PTTYP43
  1

  0
CIRCLE
  5
162
330
161
100
AcDbEntity
  8
0
 62
     0
370
    -2
100
AcDbCircle
 10
0.0
 20
0.0
 30
0.0
 40
0.5
  0
LINE
  5
163
330
161
100
AcDbEntity
  8
0
 62
     0
370
    -2
100
AcDbLine
 10
-0.375
 20
0.166
 30
0.0
 11
0.375
 21
0.166
 31
0.0
  0
LINE
  5
164
330
161
100
AcDbEntity
  8
0
 62
     0
370
    -2
100
AcDbLine
 10
-0.375
 20
-0.166
 30
0.0
 11
0.375
 21
-0.166
 31
0.0
  0
ENDBLK
  5
166
330
161
100
AcDbEntity
  8
0
100
AcDbBlockEnd
  0
BLOCK
  5
16E
330
167
100
AcDbEntity
  8
0
100
AcDbBlockBegin
  2
CDWK_PTTYP44
 70
     0
 10
0.0
 20
0.0
 30
0.0
  3
CDWK_PTTYP44
  1

  0
CIRCLE
  5
168
330
167
100
AcDbEntity
  8
0
 62
     0
370
    -2
100
AcDbCircle
 10
0.0
 20
0.0
 30
0.0
 40
0.5
  0
LINE
  5
169
330
167
100
AcDbEntity
  8
0
 62
     0
370
    -2
100
AcDbLine
 10
-0.375
 20
0.333
 30
0.0
 11
0.375
 21
0.333
 31
0.0
  0
LINE
  5
16A
330
167
100
AcDbEntity
  8
0
 62
     0
370
    -2
100
AcDbLine
 10
-0.375
 20
0.166
 30
0.0
 11
0.375
 21
0.166
 31
0.0
  0
LINE
  5
16B
330
167
100
AcDbEntity
  8
0
 62
     0
370
    -2
100
AcDbLine
 10
-0.375
 20
0.0
 30
0.0
 11
0.375
 21
0.0
 31
0.0
  0
LINE
  5
16C
330
167
100
AcDbEntity
  8
0
 62
     0
370
    -2
100
AcDbLine
 10
-0.375
 20
-0.166
 30
0.0
 11
0.375
 21
-0.166
 31
0.0
  0
LINE
  5
16D
330
167
100
AcDbEntity
  8
0
 62
     0
370
    -2
100
AcDbLine
 10
-0.375
 20
-0.333
 30
0.0
 11
0.375
 21
-0.333
 31
0.0
  0
ENDBLK
  5
16F
330
167
100
AcDbEntity
  8
0
100
AcDbBlockEnd
  0
BLOCK
  5
173
330
170
100
AcDbEntity
  8
0
100
AcDbBlockBegin
  2
CDWK_PTTYP45
 70
     0
 10
0.0
 20
0.0
 30
0.0
  3
CDWK_PTTYP45
  1

  0
ELLIPSE
  5
171
330
170
100
AcDbEntity
  8
0
 62
     0
370
    -2
100
AcDbEllipse
 10
0.0
 20
0.0
 30
0.0
 11
0.5
 21
0.0
 31
0.0
210
0.0
220
0.0
230
1.0
 40
0.82
 41
0.0
 42
6.283185307179586
  0
CIRCLE
  5
172
330
170
100
AcDbEntity
  8
0
 62
     0
370
    -2
100
AcDbCircle
 10
-0.235
 20
0.0
 30
0.0
 40
0.26
  0
ENDBLK
  5
174
330
170
100
AcDbEntity
  8
0
100
AcDbBlockEnd
  0
BLOCK
  5
178
330
175
100
AcDbEntity
  8
0
100
AcDbBlockBegin
  2
CDWK_PTTYP46
 70
     0
 10
0.0
 20
0.0
 30
0.0
  3
CDWK_PTTYP46
  1

  0
ELLIPSE
  5
176
330
175
100
AcDbEntity
  8
0
 62
     0
370
    -2
100
AcDbEllipse
 10
0.0
 20
0.0
 30
0.0
 11
0.5
 21
0.0
 31
0.0
210
0.0
220
0.0
230
1.0
 40
0.82
 41
0.0
 42
6.283185307179586
  0
CIRCLE
  5
177
330
175
100
AcDbEntity
  8
0
 62
     0
370
    -2
100
AcDbCircle
 10
0.0
 20
0.15
 30
0.0
 40
0.26
  0
ENDBLK
  5
179
330
175
100
AcDbEntity
  8
0
100
AcDbBlockEnd
  0
BLOCK
  5
180
330
17A
100
AcDbEntity
  8
0
100
AcDbBlockBegin
  2
CDWK_PTTYP47
 70
     0
 10
0.0
 20
0.0
 30
0.0
  3
CDWK_PTTYP47
  1

  0
LINE
  5
17B
330
17A
100
AcDbEntity
  8
0
 62
     0
370
    -2
100
AcDbLine
 10
-0.5
 20
0.166
 30
0.0
 11
0.5
 21
0.166
 31
0.0
  0
LINE
  5
17C
330
17A
100
AcDbEntity
  8
0
 62
     0
370
    -2
100
AcDbLine
 10
0.5
 20
0.166
 30
0.0
 11
0.5
 21
-0.166
 31
0.0
  0
LINE
  5
17D
330
17A
100
AcDbEntity
  8
0
 62
     0
370
    -2
100
AcDbLine
 10
0.5
 20
-0.166
 30
0.0
 11
-0.5
 21
-0.166
 31
0.0
  0
LINE
  5
17E
330
17A
100
AcDbEntity
  8
0
 62
     0
370
    -2
100
AcDbLine
 10
-0.5
 20
-0.166
 30
0.0
 11
-0.5
 21
0.166
 31
0.0
  0
CIRCLE
  5
17F
330
17A
100
AcDbEntity
  8
0
 62
     0
370
    -2
100
AcDbCircle
 10
0.0
 20
-0.313
 30
0.0
 40
0.4
  0
ENDBLK
  5
181
330
17A
100
AcDbEntity
  8
0
100
AcDbBlockEnd
  0
BLOCK
  5
186
330
183
100
AcDbEntity
  8
0
100
AcDbBlockBegin
  2
CDWK_PTTYP48
 70
     0
 10
0.0
 20
0.0
 30
0.0
  3
CDWK_PTTYP48
  1

  0
CIRCLE
  5
184
330
183
100
AcDbEntity
  8
0
  6
CADWORK_3
 62
     0
 48
0.1
370
    -2
100
AcDbCircle
 10
0.0
 20
0.0
 30
0.0
 40
0.5
  0
CIRCLE
  5
185
330
183
100
AcDbEntity
  8
0
 62
     0
370
    -2
100
AcDbCircle
 10
0.0
 20
0.0
 30
0.0
 40
0.25
  0
ENDBLK
  5
187
330
183
100
AcDbEntity
  8
0
100
AcDbBlockEnd
  0
BLOCK
  5
18D
330
188
100
AcDbEntity
  8
0
100
AcDbBlockBegin
  2
CDWK_PTTYP49
 70
     0
 10
0.0
 20
0.0
 30
0.0
  3
CDWK_PTTYP49
  1

  0
LINE
  5
189
330
188
100
AcDbEntity
  8
0
 62
     0
370
    -2
100
AcDbLine
 10
-0.5
 20
0.166
 30
0.0
 11
0.5
 21
0.166
 31
0.0
  0
LINE
  5
18A
330
188
100
AcDbEntity
  8
0
 62
     0
370
    -2
100
AcDbLine
 10
0.5
 20
0.166
 30
0.0
 11
0.5
 21
-0.166
 31
0.0
  0
LINE
  5
18B
330
188
100
AcDbEntity
  8
0
 62
     0
370
    -2
100
AcDbLine
 10
0.5
 20
-0.166
 30
0.0
 11
-0.5
 21
-0.166
 31
0.0
  0
LINE
  5
18C
330
188
100
AcDbEntity
  8
0
 62
     0
370
    -2
100
AcDbLine
 10
-0.5
 20
-0.166
 30
0.0
 11
-0.5
 21
0.166
 31
0.0
  0
ENDBLK
  5
18E
330
188
100
AcDbEntity
  8
0
100
AcDbBlockEnd
  0
BLOCK
  5
197
330
18F
100
AcDbEntity
  8
0
100
AcDbBlockBegin
  2
CDWK_PTTYP50
 70
     0
 10
0.0
 20
0.0
 30
0.0
  3
CDWK_PTTYP50
  1

  0
LINE
  5
190
330
18F
100
AcDbEntity
  8
0
 62
     0
370
    -2
100
AcDbLine
 10
-0.5
 20
0.166
 30
0.0
 11
0.5
 21
0.166
 31
0.0
  0
LINE
  5
191
330
18F
100
AcDbEntity
  8
0
 62
     0
370
    -2
100
AcDbLine
 10
0.5
 20
0.166
 30
0.0
 11
0.5
 21
-0.166
 31
0.0
  0
LINE
  5
192
330
18F
100
AcDbEntity
  8
0
 62
     0
370
    -2
100
AcDbLine
 10
0.5
 20
-0.166
 30
0.0
 11
-0.5
 21
-0.166
 31
0.0
  0
LINE
  5
193
330
18F
100
AcDbEntity
  8
0
 62
     0
370
    -2
100
AcDbLine
 10
-0.5
 20
-0.166
 30
0.0
 11
-0.5
 21
0.166
 31
0.0
  0
LINE
  5
194
330
18F
100
AcDbEntity
  8
0
 62
     0
370
    -2
100
AcDbLine
 10
-0.25
 20
-0.166
 30
0.0
 11
-0.25
 21
0.166
 31
0.0
  0
LINE
  5
195
330
18F
100
AcDbEntity
  8
0
 62
     0
370
    -2
100
AcDbLine
 10
0.0
 20
-0.166
 30
0.0
 11
0.0
 21
0.166
 31
0.0
  0
LINE
  5
196
330
18F
100
AcDbEntity
  8
0
 62
     0
370
    -2
100
AcDbLine
 10
0.25
 20
-0.166
 30
0.0
 11
0.25
 21
0.166
 31
0.0
  0
ENDBLK
  5
198
330
18F
100
AcDbEntity
  8
0
100
AcDbBlockEnd
  0
BLOCK
  5
19C
330
199
100
AcDbEntity
  8
0
100
AcDbBlockBegin
  2
CDWK_PTTYP51
 70
     0
 10
0.0
 20
0.0
 30
0.0
  3
CDWK_PTTYP51
  1

  0
SPLINE
  5
19A
330
199
100
AcDbEntity
  8
0
 62
     0
370
    -2
100
AcDbSpline
210
0.0
220
0.0
230
1.0
 70
  1064
 71
     3
 72
    12
 73
     8
 74
     6
 42
0.000000001
 43
0.0000000001
 44
0.0000000001
 40
0.0
 40
0.0
 40
0.0
 40
0.0
 40
0.1690118339052032
 40
0.5175774661755118
 40
0.8011704844252565
 40
0.9154070810132151
 40
0.975822310881188
 40
0.975822310881188
 40
0.975822310881188
 40
0.975822310881188
 10
-0.5
 20
-0.077
 30
0.0
 10
-0.443824324006723
 20
-0.0900581618560981
 30
0.0
 10
-0.2717933876546281
 20
-0.1300471387828842
 30
0.0
 10
-0.0276699186086479
 20
-0.0006977790990417
 30
0.0
 10
0.2303349729129116
 20
0.0817803270207037
 30
0.0
 10
0.3686157174766292
 20
0.0066250198607167
 30
0.0
 10
0.4216533294581816
 20
-0.0168719667726145
 30
0.0
 10
0.44
 20
-0.025
 30
0.0
 11
-0.5
 21
-0.077
 31
0.0
 11
-0.333
 21
-0.103
 31
0.0
 11
0.0
 21
0.0
 31
0.0
 11
0.28
 21
0.045
 31
0.0
 11
0.385
 21
0.0
 31
0.0
 11
0.44
 21
-0.025
 31
0.0
  0
HATCH
  5
19B
330
199
100
AcDbEntity
  8
0
 62
     0
370
    -2
100
AcDbHatch
 10
0.0
 20
0.0
 30
0.0
210
0.0
220
0.0
230
1.0
  2
SOLID
 70
     1
 71
     1
 91
        1
 92
        3
 72
     0
 73
     1
 93
        3
 10
0.365
 20
-0.05
 10
0.5
 20
-0.042
 10
0.395
 20
0.045
 97
        0
 75
     0
 76
     1
 98
        0
  0
ENDBLK
  5
19D
330
199
100
AcDbEntity
  8
0
100
AcDbBlockEnd
  0
BLOCK
  5
1A2
330
19E
100
AcDbEntity
  8
0
100
AcDbBlockBegin
  2
CDWK_PTTYP52
 70
     0
 10
0.0
 20
0.0
 30
0.0
  3
CDWK_PTTYP52
  1

  0
LINE
  5
19F
330
19E
100
AcDbEntity
  8
0
 62
     0
370
    -2
100
AcDbLine
 10
-0.5
 20
-0.289
 30
0.0
 11
0.5
 21
-0.289
 31
0.0
  0
LINE
  5
1A0
330
19E
100
AcDbEntity
  8
0
 62
     0
370
    -2
100
AcDbLine
 10
0.5
 20
-0.289
 30
0.0
 11
0.0
 21
0.577
 31
0.0
  0
LINE
  5
1A1
330
19E
100
AcDbEntity
  8
0
 62
     0
370
    -2
100
AcDbLine
 10
0.0
 20
0.577
 30
0.0
 11
-0.5
 21
-0.289
 31
0.0
  0
ENDBLK
  5
1A3
330
19E
100
AcDbEntity
  8
0
100
AcDbBlockEnd
  0
BLOCK
  5
1A9
330
1A4
100
AcDbEntity
  8
0
100
AcDbBlockBegin
  2
cw-dimension-symbol1
 70
     0
 10
0.0
 20
0.0
 30
0.0
  3
cw-dimension-symbol1
  1

  0
LINE
  5
1A5
330
1A4
100
AcDbEntity
  8
0
 62
     0
370
    -2
100
AcDbLine
 10
0.0
 20
0.0
 30
0.0
 11
-1.0
 21
0.25
 31
0.0
  0
LINE
  5
1A6
330
1A4
100
AcDbEntity
  8
0
 62
     0
370
    -2
100
AcDbLine
 10
0.0
 20
0.0
 30
0.0
 11
-1.0
 21
-0.25
 31
0.0
  0
LINE
  5
1A7
330
1A4
100
AcDbEntity
  8
0
 62
     0
370
    -2
100
AcDbLine
 10
-1.0
 20
0.25
 30
0.0
 11
-1.0
 21
-0.25
 31
0.0
  0
LINE
  5
1A8
330
1A4
100
AcDbEntity
  8
0
 62
     0
370
    -2
100
AcDbLine
 10
0.0
 20
0.0
 30
0.0
 11
-1.0
 21
0.0
 31
0.0
  0
ENDBLK
  5
1AA
330
1A4
100
AcDbEntity
  8
0
100
AcDbBlockEnd
  0
BLOCK
  5
1AE
330
1AB
100
AcDbEntity
  8
0
100
AcDbBlockBegin
  2
cw-dimension-symbol2
 70
     0
 10
0.0
 20
0.0
 30
0.0
  3
cw-dimension-symbol2
  1

  0
LINE
  5
1AC
330
1AB
100
AcDbEntity
  8
0
 62
     0
370
    -2
100
AcDbLine
 10
-1.0
 20
0.0
 30
0.0
 11
1.0
 21
0.0
 31
0.0
  0
LINE
  5
1AD
330
1AB
100
AcDbEntity
  8
0
 62
     0
370
    -2
100
AcDbLine
 10
-0.5
 20
-0.5
 30
0.0
 11
0.5
 21
0.5
 31
0.0
  0
ENDBLK
  5
1AF
330
1AB
100
AcDbEntity
  8
0
100
AcDbBlockEnd
  0
BLOCK
  5
1B3
330
1B0
100
AcDbEntity
  8
0
100
AcDbBlockBegin
  2
cw-dimension-symbol3
 70
     0
 10
0.0
 20
0.0
 30
0.0
  3
cw-dimension-symbol3
  1

  0
LINE
  5
1B1
330
1B0
100
AcDbEntity
  8
0
 62
     0
370
    -2
100
AcDbLine
 10
-1.0
 20
0.0
 30
0.0
 11
1.0
 21
0.0
 31
0.0
  0
CIRCLE
  5
1B2
330
1B0
100
AcDbEntity
  8
0
 62
     0
370
    -2
100
AcDbCircle
 10
0.0
 20
0.0
 30
0.0
 40
0.25
  0
ENDBLK
  5
1B4
330
1B0
100
AcDbEntity
  8
0
100
AcDbBlockEnd
  0
BLOCK
  5
1BA
330
1B5
100
AcDbEntity
  8
0
100
AcDbBlockBegin
  2
cw-dimension-symbol5
 70
     0
 10
0.0
 20
0.0
 30
0.0
  3
cw-dimension-symbol5
  1

  0
HATCH
  5
1B6
330
1B5
100
AcDbEntity
  8
0
 62
     0
370
    -2
100
AcDbHatch
 10
0.0
 20
0.0
 30
0.0
210
0.0
220
0.0
230
1.0
  2
SOLID
 70
     1
 71
     1
 91
        1
 92
        3
 72
     0
 73
     1
 93
        3
 10
0.0
 20
0.0
 10
-1.0
 20
0.25
 10
-1.0
 20
-0.25
 97
        0
 75
     0
 76
     1
 98
        0
  0
LINE
  5
1B7
330
1B5
100
AcDbEntity
  8
0
 62
     0
370
    -2
100
AcDbLine
 10
0.0
 20
0.0
 30
0.0
 11
-1.0
 21
0.25
 31
0.0
  0
LINE
  5
1B8
330
1B5
100
AcDbEntity
  8
0
 62
     0
370
    -2
100
AcDbLine
 10
-1.0
 20
0.25
 30
0.0
 11
-1.0
 21
-0.25
 31
0.0
  0
LINE
  5
1B9
330
1B5
100
AcDbEntity
  8
0
 62
     0
370
    -2
100
AcDbLine
 10
-1.0
 20
-0.25
 30
0.0
 11
0.0
 21
0.0
 31
0.0
  0
ENDBLK
  5
1BB
330
1B5
100
AcDbEntity
  8
0
100
AcDbBlockEnd
  0
BLOCK
  5
1C0
330
1BC
100
AcDbEntity
  8
0
100
AcDbBlockBegin
  2
cw-dimension-symbol6
 70
     0
 10
0.0
 20
0.0
 30
0.0
  3
cw-dimension-symbol6
  1

  0
LINE
  5
1BD
330
1BC
100
AcDbEntity
  8
0
 62
     0
370
    -2
100
AcDbLine
 10
0.0
 20
0.0
 30
0.0
 11
-1.0
 21
0.25
 31
0.0
  0
LINE
  5
1BE
330
1BC
100
AcDbEntity
  8
0
 62
     0
370
    -2
100
AcDbLine
 10
0.0
 20
0.0
 30
0.0
 11
-1.0
 21
-0.25
 31
0.0
  0
LINE
  5
1BF
330
1BC
100
AcDbEntity
  8
0
 62
     0
370
    -2
100
AcDbLine
 10
0.0
 20
0.0
 30
0.0
 11
-1.0
 21
0.0
 31
0.0
  0
ENDBLK
  5
1C1
330
1BC
100
AcDbEntity
  8
0
100
AcDbBlockEnd
  0
BLOCK
  5
1C6
330
1C2
100
AcDbEntity
  8
0
100
AcDbBlockBegin
  2
cw-dimension-symbol11
 70
     0
 10
0.0
 20
0.0
 30
0.0
  3
cw-dimension-symbol11
  1

  0
LINE
  5
1C3
330
1C2
100
AcDbEntity
  8
0
 62
     0
370
    -2
100
AcDbLine
 10
-1.0
 20
1.0
 30
0.0
 11
1.0
 21
1.0
 31
0.0
  0
LINE
  5
1C4
330
1C2
100
AcDbEntity
  8
0
 62
     0
370
    -2
100
AcDbLine
 10
0.0
 20
0.0
 30
0.0
 11
-1.0
 21
1.0
 31
0.0
  0
LINE
  5
1C5
330
1C2
100
AcDbEntity
  8
0
 62
     0
370
    -2
100
AcDbLine
 10
0.0
 20
0.0
 30
0.0
 11
1.0
 21
1.0
 31
0.0
  0
ENDBLK
  5
1C7
330
1C2
100
AcDbEntity
  8
0
100
AcDbBlockEnd
  0
BLOCK
  5
1CC
330
1C8
100
AcDbEntity
  8
0
100
AcDbBlockBegin
  2
cw-dimension-symbol13
 70
     0
 10
0.0
 20
0.0
 30
0.0
  3
cw-dimension-symbol13
  1

  0
LINE
  5
1C9
330
1C8
100
AcDbEntity
  8
0
 62
     0
370
    -2
100
AcDbLine
 10
-1.0
 20
-1.0
 30
0.0
 11
1.0
 21
-1.0
 31
0.0
  0
LINE
  5
1CA
330
1C8
100
AcDbEntity
  8
0
 62
     0
370
    -2
100
AcDbLine
 10
0.0
 20
0.0
 30
0.0
 11
-1.0
 21
-1.0
 31
0.0
  0
LINE
  5
1CB
330
1C8
100
AcDbEntity
  8
0
 62
     0
370
    -2
100
AcDbLine
 10
0.0
 20
0.0
 30
0.0
 11
1.0
 21
-1.0
 31
0.0
  0
ENDBLK
  5
1CD
330
1C8
100
AcDbEntity
  8
0
100
AcDbBlockEnd
  0
BLOCK
  5
1D3
330
1CE
100
AcDbEntity
  8
0
100
AcDbBlockBegin
  2
cw-dimension-symbol15
 70
     0
 10
0.0
 20
0.0
 30
0.0
  3
cw-dimension-symbol15
  1

  0
HATCH
  5
1CF
330
1CE
100
AcDbEntity
  8
0
 62
     0
370
    -2
100
AcDbHatch
 10
0.0
 20
0.0
 30
0.0
210
0.0
220
0.0
230
1.0
  2
SOLID
 70
     1
 71
     1
 91
        1
 92
        3
 72
     0
 73
     1
 93
        3
 10
0.0
 20
0.0
 10
-1.0
 20
1.0
 10
1.0
 20
1.0
 97
        0
 75
     0
 76
     1
 98
        0
  0
LINE
  5
1D0
330
1CE
100
AcDbEntity
  8
0
 62
     0
370
    -2
100
AcDbLine
 10
0.0
 20
0.0
 30
0.0
 11
-1.0
 21
1.0
 31
0.0
  0
LINE
  5
1D1
330
1CE
100
AcDbEntity
  8
0
 62
     0
370
    -2
100
AcDbLine
 10
-1.0
 20
1.0
 30
0.0
 11
1.0
 21
1.0
 31
0.0
  0
LINE
  5
1D2
330
1CE
100
AcDbEntity
  8
0
 62
     0
370
    -2
100
AcDbLine
 10
1.0
 20
1.0
 30
0.0
 11
0.0
 21
0.0
 31
0.0
  0
ENDBLK
  5
1D4
330
1CE
100
AcDbEntity
  8
0
100
AcDbBlockEnd
  0
BLOCK
  5
1DA
330
1D5
100
AcDbEntity
  8
0
100
AcDbBlockBegin
  2
cw-dimension-symbol16
 70
     0
 10
0.0
 20
0.0
 30
0.0
  3
cw-dimension-symbol16
  1

  0
HATCH
  5
1D6
330
1D5
100
AcDbEntity
  8
0
 62
     0
370
    -2
100
AcDbHatch
 10
0.0
 20
0.0
 30
0.0
210
0.0
220
0.0
230
1.0
  2
SOLID
 70
     1
 71
     1
 91
        1
 92
        3
 72
     0
 73
     1
 93
        3
 10
0.0
 20
0.0
 10
-1.0
 20
-1.0
 10
1.0
 20
-1.0
 97
        0
 75
     0
 76
     1
 98
        0
  0
LINE
  5
1D7
330
1D5
100
AcDbEntity
  8
0
 62
     0
370
    -2
100
AcDbLine
 10
0.0
 20
0.0
 30
0.0
 11
-1.0
 21
-1.0
 31
0.0
  0
LINE
  5
1D8
330
1D5
100
AcDbEntity
  8
0
 62
     0
370
    -2
100
AcDbLine
 10
-1.0
 20
-1.0
 30
0.0
 11
1.0
 21
-1.0
 31
0.0
  0
LINE
  5
1D9
330
1D5
100
AcDbEntity
  8
0
 62
     0
370
    -2
100
AcDbLine
 10
1.0
 20
-1.0
 30
0.0
 11
0.0
 21
0.0
 31
0.0
  0
ENDBLK
  5
1DB
330
1D5
100
AcDbEntity
  8
0
100
AcDbBlockEnd
  0
BLOCK
  5
1E1
330
1DC
100
AcDbEntity
  8
0
100
AcDbBlockBegin
  2
cw-dimension-symbol17
 70
     0
 10
0.0
 20
0.0
 30
0.0
  3
cw-dimension-symbol17
  1

  0
LINE
  5
1DD
330
1DC
100
AcDbEntity
  8
0
 62
     0
370
    -2
100
AcDbLine
 10
0.0
 20
0.0
 30
0.0
 11
1.0
 21
1.0
 31
0.0
  0
LINE
  5
1DE
330
1DC
100
AcDbEntity
  8
0
 62
     0
370
    -2
100
AcDbLine
 10
1.0
 20
1.0
 30
0.0
 11
-1.0
 21
1.0
 31
0.0
  0
LINE
  5
1DF
330
1DC
100
AcDbEntity
  8
0
 62
     0
370
    -2
100
AcDbLine
 10
-1.0
 20
1.0
 30
0.0
 11
0.0
 21
0.0
 31
0.0
  0
HATCH
  5
1E0
330
1DC
100
AcDbEntity
  8
0
 62
     0
370
    -2
100
AcDbHatch
 10
0.0
 20
0.0
 30
0.0
210
0.0
220
0.0
230
1.0
  2
SOLID
 70
     1
 71
     1
 91
        1
 92
        3
 72
     0
 73
     1
 93
        3
 10
0.0
 20
0.0
 10
-1.0
 20
1.0
 10
0.0
 20
1.0
 97
        0
 75
     0
 76
     1
 98
        0
  0
ENDBLK
  5
1E2
330
1DC
100
AcDbEntity
  8
0
100
AcDbBlockEnd
  0
BLOCK
  5
1E8
330
1E3
100
AcDbEntity
  8
0
100
AcDbBlockBegin
  2
cw-dimension-symbol18
 70
     0
 10
0.0
 20
0.0
 30
0.0
  3
cw-dimension-symbol18
  1

  0
LINE
  5
1E4
330
1E3
100
AcDbEntity
  8
0
 62
     0
370
    -2
100
AcDbLine
 10
0.0
 20
0.0
 30
0.0
 11
1.0
 21
-1.0
 31
0.0
  0
LINE
  5
1E5
330
1E3
100
AcDbEntity
  8
0
 62
     0
370
    -2
100
AcDbLine
 10
1.0
 20
-1.0
 30
0.0
 11
-1.0
 21
-1.0
 31
0.0
  0
LINE
  5
1E6
330
1E3
100
AcDbEntity
  8
0
 62
     0
370
    -2
100
AcDbLine
 10
-1.0
 20
-1.0
 30
0.0
 11
0.0
 21
0.0
 31
0.0
  0
HATCH
  5
1E7
330
1E3
100
AcDbEntity
  8
0
 62
     0
370
    -2
100
AcDbHatch
 10
0.0
 20
0.0
 30
0.0
210
0.0
220
0.0
230
1.0
  2
SOLID
 70
     1
 71
     1
 91
        1
 92
        3
 72
     0
 73
     1
 93
        3
 10
0.0
 20
0.0
 10
-1.0
 20
-1.0
 10
0.0
 20
-1.0
 97
        0
 75
     0
 76
     1
 98
        0
  0
ENDBLK
  5
1E9
330
1E3
100
AcDbEntity
  8
0
100
AcDbBlockEnd
  0
BLOCK
  5
1EB
330
1EA
100
AcDbEntity
  8
0
100
AcDbBlockBegin
  2
cw-dimension-symbol19
 70
     0
 10
0.0
 20
0.0
 30
0.0
  3
cw-dimension-symbol19
  1

  0
ENDBLK
  5
1EC
330
1EA
100
AcDbEntity
  8
0
100
AcDbBlockEnd
  0
BLOCK
  5
1F2
330
1ED
100
AcDbEntity
  8
0
100
AcDbBlockBegin
  2
cw-dimension-symbol20
 70
     0
 10
0.0
 20
0.0
 30
0.0
  3
cw-dimension-symbol20
  1

  0
LINE
  5
1EE
330
1ED
100
AcDbEntity
  8
0
 62
     0
370
    -2
100
AcDbLine
 10
0.0
 20
0.0
 30
0.0
 11
0.0
 21
2.0
 31
0.0
  0
LINE
  5
1EF
330
1ED
100
AcDbEntity
  8
0
 62
     0
370
    -2
100
AcDbLine
 10
0.0
 20
0.0
 30
0.0
 11
-1.0
 21
0.33
 31
0.0
  0
LINE
  5
1F0
330
1ED
100
AcDbEntity
  8
0
 62
     0
370
    -2
100
AcDbLine
 10
0.0
 20
0.0
 30
0.0
 11
1.0
 21
0.33
 31
0.0
  0
LINE
  5
1F1
330
1ED
100
AcDbEntity
  8
0
 62
     0
370
    -2
100
AcDbLine
 10
0.0
 20
2.0
 30
0.0
 11
4.15
 21
2.0
 31
0.0
  0
ENDBLK
  5
1F3
330
1ED
100
AcDbEntity
  8
0
100
AcDbBlockEnd
  0
BLOCK
  5
1F9
330
1F4
100
AcDbEntity
  8
0
100
AcDbBlockBegin
  2
cw-dimension-symbol21
 70
     0
 10
0.0
 20
0.0
 30
0.0
  3
cw-dimension-symbol21
  1

  0
LINE
  5
1F5
330
1F4
100
AcDbEntity
  8
0
 62
     0
370
    -2
100
AcDbLine
 10
0.0
 20
0.0
 30
0.0
 11
0.0
 21
-2.0
 31
0.0
  0
LINE
  5
1F6
330
1F4
100
AcDbEntity
  8
0
 62
     0
370
    -2
100
AcDbLine
 10
0.0
 20
0.0
 30
0.0
 11
-1.0
 21
-0.33
 31
0.0
  0
LINE
  5
1F7
330
1F4
100
AcDbEntity
  8
0
 62
     0
370
    -2
100
AcDbLine
 10
0.0
 20
0.0
 30
0.0
 11
1.0
 21
-0.33
 31
0.0
  0
LINE
  5
1F8
330
1F4
100
AcDbEntity
  8
0
 62
     0
370
    -2
100
AcDbLine
 10
0.0
 20
-2.0
 30
0.0
 11
4.15
 21
-2.0
 31
0.0
  0
ENDBLK
  5
1FA
330
1F4
100
AcDbEntity
  8
0
100
AcDbBlockEnd
  0
BLOCK
  5
22B
330
1FB
100
AcDbEntity
  8
0
100
AcDbBlockBegin
  2
cw-line-extremity0
 70
     0
 10
0.0
 20
0.0
 30
0.0
  3
cw-line-extremity0
  1

  0
LINE
  5
1FC
330
1FB
100
AcDbEntity
  8
0
 62
     0
370
    -2
100
AcDbLine
 10
0.0
 20
0.0
 30
0.0
 11
10.0
 21
2.5
 31
0.0
  0
LINE
  5
1FD
330
1FB
100
AcDbEntity
  8
0
 62
     0
370
    -2
100
AcDbLine
 10
0.0
 20
0.0
 30
0.0
 11
10.0
 21
-2.5
 31
0.0
  0
LINE
  5
1FE
330
1FB
100
AcDbEntity
  8
0
 62
     0
370
    -2
100
AcDbLine
 10
10.0
 20
2.5
 30
0.0
 11
10.0
 21
-2.5
 31
0.0
  0
ENDBLK
  5
22C
330
1FB
100
AcDbEntity
  8
0
100
AcDbBlockEnd
  0
BLOCK
  5
229
330
1FF
100
AcDbEntity
  8
0
100
AcDbBlockBegin
  2
cw-line-extremity2
 70
     0
 10
0.0
 20
0.0
 30
0.0
  3
cw-line-extremity2
  1

  0
HATCH
  5
200
330
1FF
100
AcDbEntity
  8
0
 62
     0
370
     0
100
AcDbHatch
 10
0.0
 20
0.0
 30
0.0
210
0.0
220
0.0
230
1.0
  2
SOLID
 70
     1
 71
     1
 91
        1
 92
        3
 72
     0
 73
     1
 93
        3
 10
0.0
 20
0.0
 10
10.0
 20
2.5
 10
10.0
 20
-2.5
 97
        0
 75
     0
 76
     1
 98
        0
  0
LINE
  5
201
330
1FF
100
AcDbEntity
  8
0
 62
     0
370
    -2
100
AcDbLine
 10
0.0
 20
0.0
 30
0.0
 11
10.0
 21
2.5
 31
0.0
  0
LINE
  5
202
330
1FF
100
AcDbEntity
  8
0
 62
     0
370
    -2
100
AcDbLine
 10
10.0
 20
2.5
 30
0.0
 11
10.0
 21
-2.5
 31
0.0
  0
LINE
  5
203
330
1FF
100
AcDbEntity
  8
0
 62
     0
370
    -2
100
AcDbLine
 10
10.0
 20
-2.5
 30
0.0
 11
0.0
 21
0.0
 31
0.0
  0
ENDBLK
  5
22A
330
1FF
100
AcDbEntity
  8
0
100
AcDbBlockEnd
  0
BLOCK
  5
227
330
204
100
AcDbEntity
  8
0
100
AcDbBlockBegin
  2
cw-line-extremity3
 70
     0
 10
0.0
 20
0.0
 30
0.0
  3
cw-line-extremity3
  1

  0
HATCH
  5
205
330
204
100
AcDbEntity
  8
0
 62
     0
370
     0
100
AcDbHatch
 10
0.0
 20
0.0
 30
0.0
210
0.0
220
0.0
230
1.0
  2
SOLID
 70
     1
 71
     1
 91
        1
 92
        3
 72
     0
 73
     1
 93
        3
 10
0.0
 20
0.0
 10
10.0
 20
2.5
 10
10.0
 20
-2.5
 97
        0
 75
     0
 76
     1
 98
        0
  0
LINE
  5
206
330
204
100
AcDbEntity
  8
0
 62
     0
370
    -2
100
AcDbLine
 10
0.0
 20
0.0
 30
0.0
 11
10.0
 21
2.5
 31
0.0
  0
LINE
  5
207
330
204
100
AcDbEntity
  8
0
 62
     0
370
    -2
100
AcDbLine
 10
10.0
 20
2.5
 30
0.0
 11
10.0
 21
-2.5
 31
0.0
  0
LINE
  5
208
330
204
100
AcDbEntity
  8
0
 62
     0
370
    -2
100
AcDbLine
 10
10.0
 20
-2.5
 30
0.0
 11
0.0
 21
0.0
 31
0.0
  0
ENDBLK
  5
228
330
204
100
AcDbEntity
  8
0
100
AcDbBlockEnd
  0
BLOCK
  5
225
330
209
100
AcDbEntity
  8
0
100
AcDbBlockBegin
  2
cw-line-extremity301
 70
     0
 10
0.0
 20
0.0
 30
0.0
  3
cw-line-extremity301
  1

  0
LINE
  5
20A
330
209
100
AcDbEntity
  8
0
 62
     0
370
    -2
100
AcDbLine
 10
0.0
 20
6.66665
 30
0.0
 11
0.0
 21
-6.66665
 31
0.0
  0
ENDBLK
  5
226
330
209
100
AcDbEntity
  8
0
100
AcDbBlockEnd
  0
BLOCK
  5
223
330
20B
100
AcDbEntity
  8
0
100
AcDbBlockBegin
  2
cw-line-extremity4
 70
     0
 10
0.0
 20
0.0
 30
0.0
  3
cw-line-extremity4
  1

  0
HATCH
  5
20C
330
20B
100
AcDbEntity
  8
0
 62
     0
370
     5
100
AcDbHatch
 10
0.0
 20
0.0
 30
0.0
210
0.0
220
0.0
230
1.0
  2
SOLID
 70
     1
 71
     1
 91
        1
 92
        1
 93
        1
 72
     2
 10
0.0
 20
0.0
 40
2.5
 50
0.0
 51
360.0
 73
     1
 97
        0
 75
     0
 76
     1
 98
        0
  0
ENDBLK
  5
224
330
20B
100
AcDbEntity
  8
0
100
AcDbBlockEnd
  0
BLOCK
  5
221
330
20D
100
AcDbEntity
  8
0
100
AcDbBlockBegin
  2
cw-line-extremity5
 70
     0
 10
0.0
 20
0.0
 30
0.0
  3
cw-line-extremity5
  1

  0
LINE
  5
20E
330
20D
100
AcDbEntity
  8
0
 62
     0
370
    -2
100
AcDbLine
 10
0.0
 20
0.0
 30
0.0
 11
-2.5
 21
0.0
 31
0.0
  0
ENDBLK
  5
222
330
20D
100
AcDbEntity
  8
0
100
AcDbBlockEnd
  0
BLOCK
  5
21F
330
20F
100
AcDbEntity
  8
0
100
AcDbBlockBegin
  2
cw-line-extremity6
 70
     0
 10
0.0
 20
0.0
 30
0.0
  3
cw-line-extremity6
  1

  0
LINE
  5
210
330
20F
100
AcDbEntity
  8
0
 62
     0
370
    18
100
AcDbLine
 10
0.0
 20
2.5
 30
0.0
 11
0.0
 21
-2.5
 31
0.0
  0
ENDBLK
  5
220
330
20F
100
AcDbEntity
  8
0
100
AcDbBlockEnd
  0
BLOCK
  5
21D
330
211
100
AcDbEntity
  8
0
100
AcDbBlockBegin
  2
cw-line-extremity9
 70
     0
 10
0.0
 20
0.0
 30
0.0
  3
cw-line-extremity9
  1

  0
LINE
  5
212
330
211
100
AcDbEntity
  8
0
 62
     0
370
    18
100
AcDbLine
 10
-2.5
 20
-2.5
 30
0.0
 11
2.5
 21
2.5
 31
0.0
  0
ENDBLK
  5
21E
330
211
100
AcDbEntity
  8
0
100
AcDbBlockEnd
  0
BLOCK
  5
21B
330
213
100
AcDbEntity
  8
0
100
AcDbBlockBegin
  2
cw-line-extremity10
 70
     0
 10
0.0
 20
0.0
 30
0.0
  3
cw-line-extremity10
  1

  0
CIRCLE
  5
214
330
213
100
AcDbEntity
  8
0
 62
     0
370
    -2
100
AcDbCircle
 10
0.0
 20
0.0
 30
0.0
 40
2.5
  0
ENDBLK
  5
21C
330
213
100
AcDbEntity
  8
0
100
AcDbBlockEnd
  0
BLOCK
  5
219
330
215
100
AcDbEntity
  8
0
100
AcDbBlockBegin
  2
cw-line-extremity1
 70
     0
 10
0.0
 20
0.0
 30
0.0
  3
cw-line-extremity1
  1

  0
LINE
  5
216
330
215
100
AcDbEntity
  8
0
 62
     0
370
    -2
100
AcDbLine
 10
0.0
 20
0.0
 30
0.0
 11
0.0
 21
2.5
 31
0.0
  0
LINE
  5
217
330
215
100
AcDbEntity
  8
0
 62
     0
370
    -2
100
AcDbLine
 10
0.0
 20
2.5
 30
0.0
 11
1.25
 21
3.75
 31
0.0
  0
LINE
  5
218
330
215
100
AcDbEntity
  8
0
 62
     0
370
    -2
100
AcDbLine
 10
1.25
 20
3.75
 30
0.0
 11
3.75
 21
3.75
 31
0.0
  0
ENDBLK
  5
21A
330
215
100
AcDbEntity
  8
0
100
AcDbBlockEnd
  0
BLOCK
  5
1C
330
1B
100
AcDbEntity
  8
0
100
AcDbBlockBegin
  2
*Paper_Space69
 70
     0
 10
0.0
 20
0.0
 30
0.0
  3
*Paper_Space69
  1

  0
ENDBLK
  5
1D
330
1B
100
AcDbEntity
  8
0
100
AcDbBlockEnd
  0
BLOCK
  5
3D9
330
3D8
100
AcDbEntity
  8
0
100
AcDbBlockBegin
  2
*D70
 70
     1
 10
0.0
 20
0.0
 30
0.0
  3
*D70
  1

  0
LINE
  5
3DB
330
3D8
100
AcDbEntity
  8
Ech.1_5
 62
     0
370
    -2
100
AcDbLine
 10
419.7343602261553
 20
-9091.560249843613
 30
0.0
 11
430.7248356091495
 21
-9091.560249843613
 31
0.0
  0
LINE
  5
3DC
330
3D8
100
AcDbEntity
  8
Ech.1_5
 62
     0
370
    -2
100
AcDbLine
 10
449.7343602261553
 20
-9086.47683286803
 30
0.0
 11
420.7248356091495
 21
-9086.47683286803
 31
0.0
  0
LINE
  5
3DD
330
3D8
100
AcDbEntity
  8
Ech.1_5
 62
     0
370
    -2
100
AcDbLine
 10
425.7248356091495
 20
-9091.560249843613
 30
0.0
 11
425.7248356091495
 21
-9086.47683286803
 31
0.0
  0
LINE
  5
3DE
330
3D8
100
AcDbEntity
  8
Ech.1_5
 62
     0
370
    -2
100
AcDbLine
 10
425.7248356091495
 20
-9096.560249843613
 30
0.0
 11
425.7248356091495
 21
-9101.560249843613
 31
0.0
  0
LINE
  5
3DF
330
3D8
100
AcDbEntity
  8
Ech.1_5
 62
     0
370
    -2
100
AcDbLine
 10
425.7248356091495
 20
-9081.47683286803
 30
0.0
 11
425.7248356091495
 21
-9076.47683286803
 31
0.0
  0
INSERT
  5
3E0
330
3D8
100
AcDbEntity
  8
Ech.1_5
 62
     0
370
    -2
100
AcDbBlockReference
  2
cw-dimension-symbol2
 10
425.7248356091495
 20
-9091.560249843613
 30
0.0
 41
5.0
 42
5.0
 43
5.0
 50
90.0
  0
INSERT
  5
3E1
330
3D8
100
AcDbEntity
  8
Ech.1_5
 62
     0
370
    -2
100
AcDbBlockReference
  2
cw-dimension-symbol2
 10
425.7248356091495
 20
-9086.47683286803
 30
0.0
 41
5.0
 42
5.0
 43
5.0
 50
270.0
  0
MTEXT
  5
3E2
330
3D8
100
AcDbEntity
  8
Ech.1_5
 62
   190
370
    20
100
AcDbMText
 10
414.4748356091495
 20
-9089.018541355821
 30
0.0
 40
12.5
 41
0.0
 46
0.0
 71
     5
 72
     1
  1
\A1;5 mm
  7
arial-z
 11
6.123233995736766E-17
 21
1.0
 31
0.0
 73
     1
 44
1.0
  0
POINT
  5
3E3
330
3D8
100
AcDbEntity
  8
Defpoints
 62
     0
100
AcDbPoint
 10
419.7343602261553
 20
-9091.560249843613
 30
0.0
  0
POINT
  5
3E4
330
3D8
100
AcDbEntity
  8
Defpoints
 62
     0
100
AcDbPoint
 10
449.7343602261553
 20
-9086.47683286803
 30
0.0
  0
POINT
  5
3E5
330
3D8
100
AcDbEntity
  8
Defpoints
 62
     0
100
AcDbPoint
 10
425.7248356091495
 20
-9086.47683286803
 30
0.0
  0
ENDBLK
  5
3DA
330
3D8
100
AcDbEntity
  8
0
100
AcDbBlockEnd
  0
BLOCK
  5
3E9
330
3E8
100
AcDbEntity
  8
0
100
AcDbBlockBegin
  2
*D71
 70
     1
 10
0.0
 20
0.0
 30
0.0
  3
*D71
  1

  0
LINE
  5
3EB
330
3E8
100
AcDbEntity
  8
Ech.1_5
 62
     0
370
    -2
100
AcDbLine
 10
419.7343602261553
 20
-9006.14441806409
 30
0.0
 11
430.7248356091495
 21
-9006.14441806409
 31
0.0
  0
LINE
  5
3EC
330
3E8
100
AcDbEntity
  8
Ech.1_5
 62
     0
370
    -2
100
AcDbLine
 10
449.7343602261553
 20
-9001.06100108851
 30
0.0
 11
420.7248356091495
 21
-9001.06100108851
 31
0.0
  0
LINE
  5
3ED
330
3E8
100
AcDbEntity
  8
Ech.1_5
 62
     0
370
    -2
100
AcDbLine
 10
425.7248356091495
 20
-9006.14441806409
 30
0.0
 11
425.7248356091495
 21
-9001.06100108851
 31
0.0
  0
LINE
  5
3EE
330
3E8
100
AcDbEntity
  8
Ech.1_5
 62
     0
370
    -2
100
AcDbLine
 10
425.7248356091495
 20
-9011.14441806409
 30
0.0
 11
425.7248356091495
 21
-9016.14441806409
 31
0.0
  0
LINE
  5
3EF
330
3E8
100
AcDbEntity
  8
Ech.1_5
 62
     0
370
    -2
100
AcDbLine
 10
425.7248356091495
 20
-8996.06100108851
 30
0.0
 11
425.7248356091495
 21
-8991.06100108851
 31
0.0
  0
INSERT
  5
3F0
330
3E8
100
AcDbEntity
  8
Ech.1_5
 62
     0
370
    -2
100
AcDbBlockReference
  2
cw-dimension-symbol2
 10
425.7248356091495
 20
-9006.14441806409
 30
0.0
 41
5.0
 42
5.0
 43
5.0
 50
90.0
  0
INSERT
  5
3F1
330
3E8
100
AcDbEntity
  8
Ech.1_5
 62
     0
370
    -2
100
AcDbBlockReference
  2
cw-dimension-symbol2
 10
425.7248356091495
 20
-9001.06100108851
 30
0.0
 41
5.0
 42
5.0
 43
5.0
 50
270.0
  0
MTEXT
  5
3F2
330
3E8
100
AcDbEntity
  8
Ech.1_5
 62
   190
370
    20
100
AcDbMText
 10
414.4748356091495
 20
-9003.602709576298
 30
0.0
 40
12.5
 41
0.0
 46
0.0
 71
     5
 72
     1
  1
\A1;5 mm
  7
arial-z
 11
6.123233995736766E-17
 21
1.0
 31
0.0
 73
     1
 44
1.0
  0
POINT
  5
3F3
330
3E8
100
AcDbEntity
  8
Defpoints
 62
     0
100
AcDbPoint
 10
419.7343602261553
 20
-9006.14441806409
 30
0.0
  0
POINT
  5
3F4
330
3E8
100
AcDbEntity
  8
Defpoints
 62
     0
100
AcDbPoint
 10
449.7343602261553
 20
-9001.06100108851
 30
0.0
  0
POINT
  5
3F5
330
3E8
100
AcDbEntity
  8
Defpoints
 62
     0
100
AcDbPoint
 10
425.7248356091495
 20
-9001.06100108851
 30
0.0
  0
ENDBLK
  5
3EA
330
3E8
100
AcDbEntity
  8
0
100
AcDbBlockEnd
  0
ENDSEC
  0
SECTION
  2
ENTITIES
  0
LWPOLYLINE
  5
236
330
1F
100
AcDbEntity
  8
Ech.1_5
 62
   190
370
    20
100
AcDbPolyline
 90
        9
 70
     0
 43
0.0
 10
543.0916282637554
 20
-9447.783582920514
 10
559.5779823452685
 20
-9429.805231316088
 10
545.4680423274622
 20
-9465.760931327895
 10
561.9535454833604
 20
-9447.783582920514
 10
629.0916282640665
 20
-9447.781953370737
 10
629.0916282640665
 20
-9086.47683286803
 10
449.0916282638755
 20
-9086.47683286803
 10
449.0916282640646
 20
-9447.783291328073
 10
543.0916282637554
 20
-9447.783582920514
  0
HATCH
  5
237
330
1F
100
AcDbEntity
  8
Ech.1_5
 62
    21
420
 16756102
440
 33554687
370
     5
100
AcDbHatch
 10
0.0
 20
0.0
 30
0.0
210
0.0
220
0.0
230
1.0
  2
SOLID
 70
     1
 71
     1
 91
        1
 92
        3
 72
     0
 73
     1
 93
        8
 10
449.0916282635553
 20
-8644.894303131186
 10
449.091628263759
 20
-9006.14441806409
 10
629.0916282640665
 20
-9006.144577079038
 10
629.0916282640665
 20
-8644.894611395524
 10
552.7035454835132
 20
-8644.894211350162
 10
536.2171914020146
 20
-8662.872562954588
 10
550.327131419821
 20
-8626.91686294278
 10
533.8416282639082
 20
-8644.894211350162
 97
        0
 75
     0
 76
     1
 98
        0
  0
LWPOLYLINE
  5
238
330
1F
100
AcDbEntity
  8
Ech.1_5
 62
   190
370
    20
100
AcDbPolyline
 90
        9
 70
     0
 43
0.0
 10
449.0916282635553
 20
-8644.894303131186
 10
449.091628263759
 20
-9006.14441806409
 10
629.0916282640665
 20
-9006.144577079038
 10
629.0916282640665
 20
-8644.894611395524
 10
552.7035454835132
 20
-8644.894211350162
 10
536.2171914020146
 20
-8662.872562954588
 10
550.327131419821
 20
-8626.91686294278
 10
533.8416282639082
 20
-8644.894211350162
 10
449.0916282635553
 20
-8644.894303131186
  0
LINE
  5
239
330
1F
100
AcDbEntity
  8
Ech.1_5
 62
   190
370
    20
100
AcDbLine
 10
629.0916282640665
 20
-8927.654018824855
 30
0.0
 11
629.0916282640665
 21
-8644.895455874946
 31
0.0
  0
LWPOLYLINE
  5
23A
330
1F
100
AcDbEntity
  8
Ech.1_5
 62
   190
370
    20
100
AcDbPolyline
 90
        3
 70
     0
 43
0.0
 10
663.2593054258232
 20
-9063.32027004295
 10
723.2544973577369
 20
-9137.948990528828
 10
743.2544973577369
 20
-9137.948990528828
  0
INSERT
  5
23B
330
1F
100
AcDbEntity
  8
Ech.1_5
 62
   190
370
    20
100
AcDbBlockReference
  2
cw-line-extremity4
 10
663.2593054258232
 20
-9063.32027004295
 30
0.0
 50
308.7963440570758
  0
LWPOLYLINE
  5
23C
330
1F
100
AcDbEntity
  8
Ech.1_5
 62
   190
370
    20
100
AcDbPolyline
 90
        6
 70
     0
 43
0.0
 10
360.0345420472913
 20
-8644.894865056169
 10
533.8416282639082
 20
-8644.894211350162
 10
550.327131419821
 20
-8626.91686294278
 10
536.2171914020146
 20
-8662.872562954588
 10
552.7035454835132
 20
-8644.894211350162
 10
644.0916282640665
 20
-8644.894714382634
  0
LWPOLYLINE
  5
23D
330
1F
100
AcDbEntity
  8
Ech.1_5
 62
   190
370
    20
100
AcDbPolyline
 90
        5
 70
     0
 43
0.0
 10
370.0345420472913
 20
-9126.47683286803
 10
370.0345420472913
 20
-8966.47683286803
 10
335.0345420472913
 20
-9006.47683286803
 10
335.0345420472913
 20
-9086.47683286803
 10
370.0345420472913
 20
-9126.47683286803
  0
LWPOLYLINE
  5
23E
330
1F
100
AcDbEntity
  8
Ech.1_5
 62
   190
370
    20
100
AcDbPolyline
 90
        4
 70
     0
 43
0.0
 10
370.0345420472913
 20
-9086.47683286803
 10
678.4727861874762
 20
-9086.47683286803
 10
678.4727861874762
 20
-9006.14441806409
 10
370.0345420472913
 20
-9006.14441806409
  0
LWPOLYLINE
  5
23F
330
1F
100
AcDbEntity
  8
Ech.1_5
 62
   190
370
    20
100
AcDbPolyline
 90
        4
 70
     0
 43
0.0
 10
335.0345420472913
 20
-9086.47683286803
 10
255.0345420472913
 20
-9086.47683286803
 10
255.0345420472913
 20
-9006.47683286803
 10
335.0345420472913
 20
-9006.47683286803
  0
LWPOLYLINE
  5
240
330
1F
100
AcDbEntity
  8
Ech.1_5
 62
   190
370
    20
100
AcDbPolyline
 90
        4
 70
     0
 43
0.0
 10
255.0345420472913
 20
-9076.47683286803
 10
245.0345420472913
 20
-9076.47683286803
 10
245.0345420472913
 20
-9016.47683286803
 10
255.0345420472913
 20
-9016.47683286803
  0
LWPOLYLINE
  5
241
330
1F
100
AcDbEntity
  8
Ech.1_5
 62
   190
370
    20
100
AcDbPolyline
 90
        8
 70
     0
 43
0.0
 10
678.4727861874762
 20
-9081.47683286803
 10
683.4727861874762
 20
-9081.47683286803
 10
688.4727861874762
 20
-9086.47683286803
 10
693.4727861874762
 20
-9081.47683286803
 10
693.4727861874762
 20
-9011.47683286803
 10
688.4727861874762
 20
-9006.47683286803
 10
683.4727861874762
 20
-9011.47683286803
 10
678.4727861874762
 20
-9011.47683286803
  0
LWPOLYLINE
  5
242
330
1F
100
AcDbEntity
  8
Ech.1_5
 62
   190
370
    20
100
AcDbPolyline
 90
        4
 70
     0
 43
0.0
 10
693.4727861874762
 20
-9081.47683286803
 10
723.4727861874762
 20
-9081.47683286803
 10
723.4727861874762
 20
-9011.47683286803
 10
693.4727861874762
 20
-9011.47683286803
  0
LINE
  5
243
330
1F
100
AcDbEntity
  8
Ech.1_5
 62
   190
370
    20
100
AcDbLine
 10
683.4727861874762
 20
-9081.47683286803
 30
0.0
 11
683.4727861874762
 21
-9011.47683286803
 31
0.0
  0
LWPOLYLINE
  5
244
330
1F
100
AcDbEntity
  8
Ech.1_5
 62
   190
370
    20
100
AcDbPolyline
 90
        5
 70
     0
 43
0.0
 10
320.0345420472913
 20
-9041.47683286803
 10
270.0345420472913
 20
-9041.47683286803
 42
1.0
 10
270.0345420472913
 20
-9051.47683286803
 10
320.0345420472913
 20
-9051.47683286803
 42
1.0
 10
320.0345420472913
 20
-9041.47683286803
  0
LWPOLYLINE
  5
245
330
1F
100
AcDbEntity
  8
Ech.1_5
 62
   190
370
    20
100
AcDbPolyline
 90
        5
 70
     0
 43
0.0
 10
320.0345420472913
 20
-9016.47683286803
 10
270.0345420472913
 20
-9016.47683286803
 42
1.0
 10
270.0345420472913
 20
-9026.47683286803
 10
320.0345420472913
 20
-9026.47683286803
 42
1.0
 10
320.0345420472913
 20
-9016.47683286803
  0
LWPOLYLINE
  5
246
330
1F
100
AcDbEntity
  8
Ech.1_5
 62
   190
370
    20
100
AcDbPolyline
 90
        5
 70
     0
 43
0.0
 10
320.0345420472913
 20
-9076.47683286803
 10
270.0345420472913
 20
-9076.47683286803
 42
-1.0
 10
270.0345420472913
 20
-9066.47683286803
 10
320.0345420472913
 20
-9066.47683286803
 42
-1.0
 10
320.0345420472913
 20
-9076.47683286803
  0
LWPOLYLINE
  5
247
330
1F
100
AcDbEntity
  8
Ech.1_5
 62
   190
370
    20
100
AcDbPolyline
 90
        9
 70
     0
 43
0.0
 38
2500.0
 10
543.0916282637554
 20
-9447.783582920514
 10
559.5779823452685
 20
-9429.805231316088
 10
545.4680423274622
 20
-9465.760931327895
 10
561.9535454833604
 20
-9447.783582920514
 10
629.0916282640665
 20
-9447.781953370737
 10
629.0916282640665
 20
-9086.47683286803
 10
449.0916282638755
 20
-9086.47683286803
 10
449.0916282640646
 20
-9447.783291328073
 10
543.0916282637554
 20
-9447.783582920514
  0
HATCH
  5
248
330
1F
100
AcDbEntity
  8
Ech.1_5
 62
    21
420
 16756102
440
 33554687
370
     5
100
AcDbHatch
 10
0.0
 20
0.0
 30
0.0
210
0.0
220
0.0
230
1.0
  2
SOLID
 70
     1
 71
     1
 91
        1
 92
        3
 72
     0
 73
     1
 93
        8
 10
629.0916282640665
 20
-9086.47683286803
 10
449.0916282638755
 20
-9086.47683286803
 10
449.0916282640646
 20
-9447.783291328073
 10
543.0916282637554
 20
-9447.783582920514
 10
559.5779823452685
 20
-9429.805231316088
 10
545.4680423274622
 20
-9465.760931327895
 10
561.9535454833604
 20
-9447.783582920514
 10
629.0916282640665
 20
-9447.781953370737
 97
        0
 75
     0
 76
     1
 98
        0
  0
LWPOLYLINE
  5
249
330
1F
100
AcDbEntity
  8
Ech.1_5
 62
   190
370
    20
100
AcDbPolyline
 90
        9
 70
     0
 43
0.0
 38
2500.0
 39
-2500.0
 10
629.0916282640665
 20
-9086.47683286803
 10
449.0916282638755
 20
-9086.47683286803
 10
449.0916282640646
 20
-9447.783291328073
 10
543.0916282637554
 20
-9447.783582920514
 10
559.5779823452685
 20
-9429.805231316088
 10
545.4680423274622
 20
-9465.760931327895
 10
561.9535454833604
 20
-9447.783582920514
 10
629.0916282640665
 20
-9447.781953370737
 10
629.0916282640665
 20
-9086.47683286803
  0
LWPOLYLINE
  5
24A
330
1F
100
AcDbEntity
  8
Ech.1_5
 62
   190
370
    20
100
AcDbPolyline
 90
        6
 70
     0
 43
0.0
 10
644.0916282640665
 20
-9447.782627804732
 10
561.9535454833604
 20
-9447.783582920514
 10
545.4680423274622
 20
-9465.760931327895
 10
559.5779823452685
 20
-9429.805231316088
 10
543.0916282637554
 20
-9447.783582920514
 10
360.0345420472913
 20
-9447.78281193605
  0
LWPOLYLINE
  5
24B
330
1F
100
AcDbEntity
  8
Ech.1_5
 62
   190
370
    20
100
AcDbPolyline
 90
        5
 70
     0
 43
0.0
 10
-1.082185646295329
 20
-9640.099176575368
 10
983.9178143537046
 20
-9640.099176575368
 10
983.9178143537046
 20
-9777.512248640422
 10
-1.082185646295329
 20
-9777.512248640422
 10
-1.082185646295329
 20
-9640.099176575368
  0
LWPOLYLINE
  5
24C
330
1F
100
AcDbEntity
  8
Ech.1_5
 62
   190
370
    20
100
AcDbPolyline
 90
        5
 70
     0
 43
0.0
 10
983.9178143537046
 20
-8518.02921164619
 10
-1.082185646295329
 20
-8518.02921164619
 10
-1.082185646295329
 20
-8422.512248640542
 10
983.9178143537046
 20
-8422.512248640542
 10
983.9178143537046
 20
-8518.02921164619
  0
LWPOLYLINE
  5
24D
330
1F
100
AcDbEntity
  8
Ech.1_5
 62
   190
370
    20
100
AcDbPolyline
 90
        5
 70
     0
 43
0.0
 10
983.9178143537046
 20
-9662.099176575364
 10
-1.082185646295329
 20
-9662.099176575364
 10
-1.082185646295329
 20
-9640.099176575368
 10
983.9178143537046
 20
-9640.099176575368
 10
983.9178143537046
 20
-9662.099176575364
  0
LWPOLYLINE
  5
24E
330
1F
100
AcDbEntity
  8
Ech.1_5
 62
   190
370
    20
100
AcDbPolyline
 90
        5
 70
     0
 43
0.0
 10
983.9178143537046
 20
-9718.970321805707
 10
-1.082185646295329
 20
-9718.970321805707
 10
-1.082185646295329
 20
-9695.243293494968
 10
983.9178143537046
 20
-9695.243293494968
 10
983.9178143537046
 20
-9718.970321805707
  0
LINE
  5
24F
330
1F
100
AcDbEntity
  8
Ech.1_5
 62
   190
370
    20
100
AcDbLine
 10
187.1223763166599
 20
-9640.099176575368
 30
0.0
 11
187.1223763166599
 21
-9662.099176575364
 31
0.0
  0
LINE
  5
250
330
1F
100
AcDbEntity
  8
Ech.1_5
 62
   190
370
    20
100
AcDbLine
 10
844.1204789472085
 20
-9640.099176575368
 30
0.0
 11
844.1204789472085
 21
-9662.099176575364
 31
0.0
  0
LINE
  5
251
330
1F
100
AcDbEntity
  8
Ech.1_5
 62
   190
370
    20
100
AcDbLine
 10
343.2775943120141
 20
-9640.099176575368
 30
0.0
 11
343.2775943120141
 21
-9662.099176575364
 31
0.0
  0
IMAGE
  5
254
330
1F
100
AcDbEntity
  8
Ech.1_5
160
                 8
310
0800000000000000
100
AcDbRasterImage
 90
        0
 10
189.9820630945851
 20
-9772.476701159376
 30
0.0
 11
0.2834008097165992
 21
0.0
 31
0.0
 12
0.0
 22
0.2807017543859649
 32
0.0
 13
247.0
 23
171.0
340
253
 70
     3
280
     0
281
    50
282
    50
283
     0
360
255
 71
     1
 91
        2
 14
-0.5
 24
-0.5
 14
246.5
 24
170.5
290
     0
  0
IMAGE
  5
257
330
1F
100
AcDbEntity
  8
Ech.1_5
160
                 8
310
0800000000000000
100
AcDbRasterImage
 90
        0
 10
451.0597343365626
 20
-9775.031313463158
 30
0.0
 11
0.4
 21
0.0
 31
0.0
 12
0.0
 22
0.3984962406015037
 32
0.0
 13
200.0
 23
133.0
340
256
 70
     3
280
     0
281
    50
282
    50
283
     0
360
258
 71
     1
 91
        2
 14
-0.5
 24
-0.5
 14
199.5
 24
132.5
290
     0
  0
IMAGE
  5
25A
330
1F
100
AcDbEntity
  8
Ech.1_5
160
                 8
310
0800000000000000
100
AcDbRasterImage
 90
        0
 10
694.4344007157106
 20
-9776.236291378107
 30
0.0
 11
0.09502262443438914
 21
0.0
 31
0.0
 12
0.0
 22
0.09482758620689655
 32
0.0
 13
1326.0
 23
580.0
340
259
 70
     3
280
     0
281
    50
282
    50
283
     0
360
25B
 71
     1
 91
        2
 14
-0.5
 24
-0.5
 14
1325.5
 24
579.5
290
     0
  0
LINE
  5
25C
330
1F
100
AcDbEntity
  8
Ech.1_5
 62
   190
370
    20
100
AcDbLine
 10
983.9178143537118
 20
-8452.512248640433
 30
0.0
 11
-1.082185646288053
 21
-8452.512248640433
 31
0.0
  0
LWPOLYLINE
  5
25D
330
1F
100
AcDbEntity
  8
Ech.1_5
 62
   190
370
    20
100
AcDbPolyline
 90
        5
 70
     0
 43
0.0
 10
983.9178143537046
 20
-9777.512248640422
 10
983.9178143537046
 20
-8422.512248640422
 10
-1.082185646295329
 20
-8422.512248640422
 10
-1.082185646295329
 20
-9777.512248640422
 10
983.9178143537046
 20
-9777.512248640422
  0
LWPOLYLINE
  5
25E
330
1F
100
AcDbEntity
  8
Ech.1_5
 62
   190
370
    20
100
AcDbPolyline
 90
        9
 70
     0
 43
0.0
 10
449.0916282635553
 20
-8644.894303131186
 10
449.091628263759
 20
-9006.14441806409
 10
629.0916282640665
 20
-9006.144577079038
 10
629.0916282640665
 20
-8644.894611395524
 10
552.7035454835132
 20
-8644.894211350162
 10
536.2171914020146
 20
-8662.872562954588
 10
550.327131419821
 20
-8626.91686294278
 10
533.8416282639082
 20
-8644.894211350162
 10
449.0916282635553
 20
-8644.894303131186
  0
LWPOLYLINE
  5
25F
330
1F
100
AcDbEntity
  8
Ech.1_5
 62
   154
420
    21156
370
    20
100
AcDbPolyline
 90
      194
 70
     0
 43
0.0
 10
856.8346651697666
 20
-8598.149071273205
 10
857.7614162236251
 20
-8600.824267744802
 10
858.6692913136126
 20
-8603.503012214202
 10
859.1102516334452
 20
-8604.844823697385
 10
859.5394144758583
 20
-8606.188852679199
 10
859.9544203453684
 20
-8607.535542659363
 10
860.3529097464914
 20
-8608.8853371376
 10
860.7325231837434
 20
-8610.238679613642
 10
861.0909011616408
 20
-8611.596013587208
 10
861.4256841846994
 20
-8612.957782558024
 10
861.7345127574355
 20
-8614.324430025816
 10
862.0150273843655
 20
-8615.696399490309
 10
862.264868570005
 20
-8617.074134451228
 10
862.4816768188705
 20
-8618.4580784083
 10
862.6630926354782
 20
-8619.848674861249
 10
862.8067565243438
 20
-8621.246367309797
 10
862.8636941535349
 20
-8621.948013126086
 10
862.9103089899841
 20
-8622.651599253673
 10
862.9463060967557
 20
-8623.357181130023
 10
862.9713905369146
 20
-8624.064814192601
 10
862.9852673735252
 20
-8624.774553878875
 10
862.9876416696518
 20
-8625.486455626307
 10
862.9782870516509
 20
-8626.200560125586
 10
862.9578418343326
 20
-8626.916722087897
 10
862.8886113947689
 20
-8628.354125664897
 10
862.7898714551773
 20
-8629.796468512734
 10
862.6715546234079
 20
-8631.241550312607
 10
862.4159207147312
 20
-8634.131129493258
 10
862.2984688535229
 20
-8635.571226236432
 10
862.2011705315338
 20
-8637.005260656435
 10
862.1339583566134
 20
-8638.431032434468
 10
862.1147385142567
 20
-8639.140132233117
 10
862.1067649366108
 20
-8639.846341251725
 10
862.1112791996566
 20
-8640.549384450434
 10
862.1295228793756
 20
-8641.248986789404
 10
862.1627375517487
 20
-8641.944873228778
 10
862.2121647927571
 20
-8642.636768728706
 10
862.2790461783821
 20
-8643.32439824934
 10
862.3646232846046
 20
-8644.007486750828
 10
862.4701376874065
 20
-8644.685759193324
 10
862.596830962768
 20
-8645.358940536973
 10
862.7459446866707
 20
-8646.026755741923
 10
862.918720435096
 20
-8646.68892976833
 10
863.1163997840247
 20
-8647.34518757634
 10
863.3402243094383
 20
-8647.995254126103
 10
863.5914355873175
 20
-8648.638854377768
 10
863.8712682504658
 20
-8649.275712599456
 10
864.180255134173
 20
-8649.90548311045
 10
864.5176347851911
 20
-8650.527691227051
 10
864.8825062051931
 20
-8651.14184835698
 10
865.2739683958501
 20
-8651.747465907947
 10
865.6911203588355
 20
-8652.344055287665
 10
866.1330610958206
 20
-8652.931127903852
 10
866.5988896084777
 20
-8653.508195164219
 10
867.0877048984793
 20
-8654.074768476481
 10
867.5986059674971
 20
-8654.63035924835
 10
868.1306918172033
 20
-8655.174478887542
 10
868.6830614492703
 20
-8655.70663880177
 10
869.2548138653701
 20
-8656.226350398745
 10
869.8450480671748
 20
-8656.733125086184
 10
870.4528630563568
 20
-8657.226474271805
 10
871.0773578345879
 20
-8657.705909363316
 10
871.7176314035405
 20
-8658.17094176843
 10
872.3727827648866
 20
-8658.621082894866
 10
873.0419109202985
 20
-8659.055844150333
 10
873.7241148714479
 20
-8659.47473694255
 10
874.4184936200076
 20
-8659.877272679225
 10
875.1241461676495
 20
-8660.262962768076
 10
875.8401715160454
 20
-8660.631318616814
 10
876.5656686668681
 20
-8660.981851633154
 10
877.2997366217892
 20
-8661.314073224812
 10
878.041474382481
 20
-8661.6274947995
 10
878.7899809506156
 20
-8661.921627764934
 10
879.5443553278654
 20
-8662.195983528823
 10
880.3036965159023
 20
-8662.450073498887
 10
881.0671035163986
 20
-8662.683409082832
 10
881.8336753310261
 20
-8662.89550168838
 10
882.6025109614575
 20
-8663.085862723241
 10
883.3727094093643
 20
-8663.254003595126
 10
884.1433696764195
 20
-8663.399435711757
 10
884.9135907642947
 20
-8663.521670480844
 10
885.6824716746619
 20
-8663.620219310096
 10
886.4491114091933
 20
-8663.694593607232
 10
887.2126089695615
 20
-8663.744304779964
 10
887.9720633574383
 20
-8663.768864236008
 10
888.7265735744955
 20
-8663.767783383075
 10
889.4752386224061
 20
-8663.74057362888
 10
890.2171575028416
 20
-8663.686746381138
 10
890.9514292174744
 20
-8663.605813047563
 10
891.6771527679766
 20
-8663.497285035868
 10
892.3934271560202
 20
-8663.360673753767
 10
893.0993513832776
 20
-8663.19549060897
 10
893.7940244514207
 20
-8663.001247009197
 10
894.4765453621219
 20
-8662.77745436216
 10
895.1460131170534
 20
-8662.523624075573
 10
895.8015267178866
 20
-8662.239267557148
 10
896.442212831908
 20
-8661.92395095205
 10
897.0676051790916
 20
-8661.578045774419
 10
897.6775473340236
 20
-8661.202536597326
 10
898.2718906425223
 20
-8660.798423369524
 10
898.8504864504052
 20
-8660.366706039758
 10
899.4131861034908
 20
-8659.90838455678
 10
899.9598409475966
 20
-8659.424458869336
 10
900.4903023285411
 20
-8658.915928926179
 10
901.0044215921417
 20
-8658.383794676054
 10
901.5020500842168
 20
-8657.82905606771
 10
901.983039150584
 20
-8657.252713049898
 10
902.4472401370615
 20
-8656.655765571364
 10
902.8945043894671
 20
-8656.03921358086
 10
903.324683253619
 20
-8655.404057027132
 10
903.7376280753348
 20
-8654.75129585893
 10
904.1331902004328
 20
-8654.081930025002
 10
904.5112209747307
 20
-8653.3969594741
 10
904.8715717440468
 20
-8652.697384154966
 10
905.2140938541987
 20
-8651.984204016355
 10
905.5386386510045
 20
-8651.258419007014
 10
905.8450574802821
 20
-8650.521029075691
 10
906.1332016878497
 20
-8649.773034171136
 10
906.402922619525
 20
-8649.015434242096
 10
906.654071621126
 20
-8648.24922923732
 10
906.8865000384707
 20
-8647.47541910556
 10
907.100059217377
 20
-8646.69500379556
 10
907.2946005036631
 20
-8645.908983256073
 10
907.4699752431467
 20
-8645.118357435844
 10
907.6260347816458
 20
-8644.324126283625
 10
907.7626304649784
 20
-8643.527289748165
 10
907.8796136389625
 20
-8642.728847778208
 10
907.9768356494161
 20
-8641.929800322507
 10
908.0541478421569
 20
-8641.131147329812
 10
908.1114015630033
 20
-8640.333888748868
 10
908.1484481577727
 20
-8639.539024528423
 10
908.1651389722836
 20
-8638.74755461723
 10
908.1613253523535
 20
-8637.960478964036
 10
908.1368586438008
 20
-8637.17879751759
 10
908.091590192443
 20
-8636.403510226639
 10
908.0253713440987
 20
-8635.635617039936
 10
907.9380534445853
 20
-8634.876117906226
 10
907.8294878397209
 20
-8634.126012774257
 10
907.6995258753234
 20
-8633.38630159278
 10
907.5480188972108
 20
-8632.657984310543
 10
907.3748182512013
 20
-8631.942060876296
 10
907.1797752831126
 20
-8631.239531238789
 10
906.9627413387626
 20
-8630.551395346767
 10
906.7235677639694
 20
-8629.878653148979
 10
906.4621059045512
 20
-8629.222304594176
 10
906.1782071063255
 20
-8628.583349631106
 10
905.8717227151105
 20
-8627.962788208519
 10
905.5425290321208
 20
-8627.361573211467
 10
905.1909419021983
 20
-8626.77982858419
 10
904.8176529083107
 20
-8626.216969661718
 10
904.4233657292318
 20
-8625.67238896744
 10
904.0087840437353
 20
-8625.145479024737
 10
903.574611530596
 20
-8624.635632357003
 10
903.1215518685877
 20
-8624.142241487629
 10
902.6503087364846
 20
-8623.664698940003
 10
902.1615858130606
 20
-8623.202397237512
 10
901.65608677709
 20
-8622.754728903546
 10
901.134515307347
 20
-8622.3210864615
 10
900.5975750826057
 20
-8621.900862434757
 10
900.0459697816399
 20
-8621.493449346708
 10
899.480403083224
 20
-8621.098239720744
 10
898.9015786661322
 20
-8620.714626080253
 10
898.3102002091383
 20
-8620.342000948622
 10
897.7069713910167
 20
-8619.979756849245
 10
897.0925958905414
 20
-8619.627286305506
 10
896.4677773864864
 20
-8619.283981840796
 10
895.8332195576262
 20
-8618.94923597851
 10
895.1896260827343
 20
-8618.622441242029
 10
894.5377006405854
 20
-8618.302990154749
 10
893.2116685696125
 20
-8617.68368902134
 10
891.8607527748998
 20
-8617.086472765392
 10
890.4905826866404
 20
-8616.506481574022
 10
889.1067877350279
 20
-8615.93885563435
 10
886.3208409625126
 20
-8614.821260258535
 10
884.9299480019963
 20
-8614.261571196628
 10
883.5479478988982
 20
-8613.694808134871
 10
882.1804700834108
 20
-8613.11611126038
 10
880.8326278273665
 20
-8612.521064103295
 10
879.5053940378833
 20
-8611.908806470195
 10
878.1977503494161
 20
-8611.28018852811
 10
876.9086657040166
 20
-8610.636071345934
 10
875.6371090437361
 20
-8609.977315992559
 10
874.3820493106269
 20
-8609.30478353688
 10
873.1424554467412
 20
-8608.619335047795
 10
871.9172963941303
 20
-8607.92183159419
 10
870.705541094846
 20
-8607.213134244967
 10
869.5061584909402
 20
-8606.494104069017
 10
868.3181175244642
 20
-8605.76560213523
 10
867.140387137471
 20
-8605.028489512506
 10
865.9719362720111
 20
-8604.283627269737
 10
863.6587488739001
 20
-8602.774098199634
 10
861.3703068665462
 20
-8601.243903476077
 10
859.0983617863635
 20
-8599.699931650215
 10
856.8346651697666
 20
-8598.149071273205
  0
LWPOLYLINE
  5
260
330
1F
100
AcDbEntity
  8
Ech.1_5
 62
   154
420
    21156
370
    20
100
AcDbPolyline
 90
       95
 70
     0
 43
0.0
 10
900.7235730929514
 20
-8627.360934178829
 10
900.6766329369013
 20
-8628.697920286808
 10
900.6291960358726
 20
-8630.058396070404
 10
900.6051360731848
 20
-8630.75478311419
 10
900.5807656448854
 20
-8631.465851205234
 10
900.5560226578515
 20
-8632.194536552994
 10
900.5308450189613
 20
-8632.943775366914
 10
900.5051706350918
 20
-8633.716503856454
 10
900.4789374131207
 20
-8634.51565823106
 10
900.4520832599256
 20
-8635.344174700187
 10
900.4245460823847
 20
-8636.20498947329
 10
900.396263787375
 20
-8637.101038759814
 10
900.3671742817745
 20
-8638.035258769218
 10
900.3523074209018
 20
-8638.517600360452
 10
900.3372154724605
 20
-8639.010585710948
 10
900.3065901737041
 20
-8640.028097184428
 10
900.2770381149458
 20
-8641.078087677595
 10
900.2508519213294
 20
-8642.146972520883
 10
900.2303249464521
 20
-8643.221161933852
 10
900.2177505439108
 20
-8644.287066136061
 10
900.2154220673025
 20
-8645.331095347065
 10
900.2188167242222
 20
-8645.840660024478
 10
900.2256328702239
 20
-8646.33965978642
 10
900.2361571745074
 20
-8646.826395910342
 10
900.2506763062719
 20
-8647.299169673683
 10
900.2694769347175
 20
-8647.756282353894
 10
900.2928457290436
 20
-8648.196035228417
 10
900.3210693584498
 20
-8648.616729574695
 10
900.3544344921361
 20
-8649.016666670175
 10
900.3932277993014
 20
-8649.394147792298
 10
900.4377359491457
 20
-8649.747474218511
 10
900.4882456108685
 20
-8650.07494722626
 10
900.5450434536699
 20
-8650.37486809299
 10
900.6084161467488
 20
-8650.645538096142
 10
900.6786503593052
 20
-8650.88525851316
 10
900.7560327605387
 20
-8651.092330621495
 10
900.8408500196488
 20
-8651.265055698588
 10
900.9333888058355
 20
-8651.401735021884
 10
901.0339357882978
 20
-8651.500669868827
 10
901.0873019372574
 20
-8651.535452262866
 10
901.1427776362357
 20
-8651.56016151686
 10
901.2003987188828
 20
-8651.574585290487
 10
901.2602010188486
 20
-8651.578511243431
 10
901.3222186400363
 20
-8651.57173259822
 10
901.3864252352348
 20
-8651.55423698771
 10
901.4527196473094
 20
-8651.526252632886
 10
901.5209960766691
 20
-8651.488022684842
 10
901.663071788878
 20
-8651.381798613462
 10
901.8118059751323
 20
-8651.237509982315
 10
901.9663522387016
 20
-8651.057102000144
 10
902.1258641828557
 20
-8650.84251987569
 10
902.2894954108651
 20
-8650.595708817706
 10
902.4563995259998
 20
-8650.318614034924
 10
902.6257301315295
 20
-8650.013180736094
 10
902.7966408307244
 20
-8649.681354129962
 10
902.9682852268546
 20
-8649.325079425265
 10
903.1398169231901
 20
-8648.946301830752
 10
903.310389523001
 20
-8648.546966555166
 10
903.4791566295572
 20
-8648.129018807247
 10
903.6452718461286
 20
-8647.69440379574
 10
903.8078887759855
 20
-8647.245066729392
 10
903.9661610223978
 20
-8646.782952816946
 10
904.1192421886356
 20
-8646.310007267142
 10
904.4064456936679
 20
-8645.339402090443
 10
904.662728117242
 20
-8644.348812869244
 10
904.7771579316575
 20
-8643.850887263818
 10
904.8813182855188
 20
-8643.353801273497
 10
904.9743627820957
 20
-8642.859500107028
 10
905.0554450246583
 20
-8642.369928973148
 10
905.1237201814532
 20
-8641.887030247306
 10
905.1786792048215
 20
-8641.412138385978
 10
905.2205642042138
 20
-8640.945227916305
 10
905.2497192328931
 20
-8640.486088801666
 10
905.2664883441215
 20
-8640.034511005435
 10
905.2712155911619
 20
-8639.590284490992
 10
905.2642450272765
 20
-8639.153199221715
 10
905.2459207057279
 20
-8638.72304516098
 10
905.216586679779
 20
-8638.299612272163
 10
905.1765870026917
 20
-8637.882690518645
 10
905.1262657277289
 20
-8637.472069863803
 10
905.065966908153
 20
-8637.067540271013
 10
904.9960345972265
 20
-8636.668891703652
 10
904.9168128482121
 20
-8636.2759141251
 10
904.828645714372
 20
-8635.88839749873
 10
904.7318772489691
 20
-8635.506131787924
 10
904.513912536524
 20
-8634.756512966509
 10
904.2656711369774
 20
-8634.025377367874
 10
903.9899054764295
 20
-8633.311044699041
 10
903.6893679809798
 20
-8632.611834667026
 10
903.3668110767292
 20
-8631.926066978853
 10
903.0249871897772
 20
-8631.252061341536
 10
902.6666487462244
 20
-8630.588137462104
 10
902.2945481721706
 20
-8629.932615047568
 10
901.5200703369617
 20
-8628.640053441279
 10
900.7235730929514
 20
-8627.360934178829
  0
LWPOLYLINE
  5
261
330
1F
100
AcDbEntity
  8
Ech.1_5
 62
   154
420
    21156
370
    20
100
AcDbPolyline
 90
      171
 70
     0
 43
0.0
 10
825.8762586543653
 20
-8613.21501252781
 10
826.7096908252079
 20
-8616.112227784693
 10
827.1092550231647
 20
-8617.564011837609
 10
827.4882369561644
 20
-8619.01960759989
 10
827.8397758692213
 20
-8620.48028564133
 10
828.1570110073494
 20
-8621.947316531712
 10
828.3006206748821
 20
-8622.683611348317
 10
828.4330816155631
 20
-8623.421970840829
 10
828.5535362350191
 20
-8624.162553830472
 10
828.6611269388768
 20
-8624.905519138469
 10
828.7549961327629
 20
-8625.651025586045
 10
828.8342862223046
 20
-8626.399231994421
 10
828.8981396131284
 20
-8627.150297184824
 10
828.9456987108607
 20
-8627.904379978474
 10
828.976105921129
 20
-8628.6616391966
 10
828.9885036495596
 20
-8629.422233660418
 10
828.9820343017797
 20
-8630.18632219116
 10
828.9558402834155
 20
-8630.954063610043
 10
828.9098221404626
 20
-8631.725452020484
 10
828.8480962543613
 20
-8632.49956556995
 10
828.6998157642639
 20
-8634.05101423783
 10
828.555594790444
 20
-8635.598500406511
 10
828.4989432996896
 20
-8636.36766083198
 10
828.460030701066
 20
-8637.132114566642
 10
828.4444316655942
 20
-8637.890622921832
 10
828.4577208642943
 20
-8638.641947208878
 10
828.5054729681872
 20
-8639.38484873911
 10
828.5440146942747
 20
-8639.75275388021
 10
828.593262648293
 20
-8640.118088823858
 10
828.6539136641196
 20
-8640.480698733967
 10
828.7266645756324
 20
-8640.840428774456
 10
828.8122122167088
 20
-8641.19712410924
 10
828.9112534212262
 20
-8641.550629902235
 10
829.0244850230622
 20
-8641.90079131736
 10
829.1526038560944
 20
-8642.247453518527
 10
829.2963067542005
 20
-8642.590461669655
 10
829.4562419190371
 20
-8642.929654995476
 10
829.6323787480438
 20
-8643.264789822113
 10
829.824188015846
 20
-8643.595561581638
 10
830.0311289795637
 20
-8643.921664299556
 10
830.2526608963177
 20
-8644.242792001372
 10
830.4882430232278
 20
-8644.55863871259
 10
830.7373346174144
 20
-8644.868898458715
 10
830.9993949359973
 20
-8645.173265265248
 10
831.2738832360974
 20
-8645.471433157698
 10
831.5602587748346
 20
-8645.763096161565
 10
831.8579808093293
 20
-8646.04794830236
 10
832.1665085967013
 20
-8646.325683605577
 10
832.4853013940714
 20
-8646.595996096727
 10
832.8138184585592
 20
-8646.858579801312
 10
833.1515190472855
 20
-8647.113128744837
 10
833.4978624173704
 20
-8647.359336952806
 10
833.8523078259338
 20
-8647.596898450725
 10
834.2143145300964
 20
-8647.825507264095
 10
834.5833417869784
 20
-8648.044857418423
 10
834.9588488536997
 20
-8648.254642939211
 10
835.3402949873807
 20
-8648.454557851966
 10
835.7271394451416
 20
-8648.64429618219
 10
836.1188414841026
 20
-8648.823551955387
 10
836.5148603613841
 20
-8648.992019197063
 10
836.9146553341062
 20
-8649.149391932726
 10
837.317685659389
 20
-8649.295364187868
 10
837.7234105943533
 20
-8649.429629988004
 10
838.1312893961185
 20
-8649.551883358637
 10
838.5407813218055
 20
-8649.661818325269
 10
838.9513456285342
 20
-8649.759128913402
 10
839.362441573425
 20
-8649.843509148543
 10
839.7735284135982
 20
-8649.914653056197
 10
840.1840654061737
 20
-8649.972254661869
 10
840.593511808272
 20
-8650.016007991058
 10
841.0013268770131
 20
-8650.045607069274
 10
841.4069698695176
 20
-8650.06074592202
 10
841.8099000429055
 20
-8650.061118574797
 10
842.2095766542969
 20
-8650.046419053111
 10
842.6054589608124
 20
-8650.016341382468
 10
842.997006219572
 20
-8649.970579588371
 10
843.3836776876959
 20
-8649.908827696325
 10
843.7649326223045
 20
-8649.830779731832
 10
844.1402302805178
 20
-8649.736129720399
 10
844.5090299194563
 20
-8649.624571687527
 10
844.8707907962399
 20
-8649.495799658724
 10
845.2249721679891
 20
-8649.349507659492
 10
845.5710343506054
 20
-8649.18539197804
 10
845.9085737184794
 20
-8649.003439671082
 10
846.2374552772397
 20
-8648.804211883013
 10
846.5575755175031
 20
-8648.588337044313
 10
846.8688309298867
 20
-8648.35644358546
 10
847.171118005008
 20
-8648.109159936941
 10
847.4643332334842
 20
-8647.847114529231
 10
847.7483731059327
 20
-8647.570935792814
 10
848.0231341129705
 20
-8647.281252158167
 10
848.2885127452151
 20
-8646.978692055776
 10
848.5444054932836
 20
-8646.663883916117
 10
848.7907088477939
 20
-8646.337456169675
 10
849.0273192993623
 20
-8646.000037246926
 10
849.2541333386065
 20
-8645.652255578354
 10
849.4710474561441
 20
-8645.294739594437
 10
849.677958142592
 20
-8644.928117725658
 10
849.8747618885675
 20
-8644.5530184025
 10
850.0613551846883
 20
-8644.170070055441
 10
850.2376345215711
 20
-8643.779901114962
 10
850.4034963898334
 20
-8643.383140011541
 10
850.5588372800927
 20
-8642.980415175662
 10
850.703553682966
 20
-8642.572355037804
 10
850.8375420890707
 20
-8642.159588028453
 10
850.960698989024
 20
-8641.74274257808
 10
851.0729208734432
 20
-8641.322447117174
 10
851.1741042329456
 20
-8640.899330076214
 10
851.2641455581484
 20
-8640.474019885676
 10
851.342941339669
 20
-8640.047144976048
 10
851.4103880681247
 20
-8639.619333777806
 10
851.4663822341327
 20
-8639.191214721432
 10
851.5108203283103
 20
-8638.763416237405
 10
851.5435988412747
 20
-8638.336566756208
 10
851.5646142636431
 20
-8637.91129470832
 10
851.5737630860331
 20
-8637.488228524226
 10
851.5709417990619
 20
-8637.0679966344
 10
851.5560468933467
 20
-8636.651227469329
 10
851.5289748595043
 20
-8636.23854945949
 10
851.489622188153
 20
-8635.830591035363
 10
851.4378853699092
 20
-8635.427980627433
 10
851.3736608953906
 20
-8635.031346666177
 10
851.2968452552142
 20
-8634.641317582076
 10
851.2073349399975
 20
-8634.258521805612
 10
851.1050264403578
 20
-8633.883587767266
 10
850.9898162469124
 20
-8633.517143897518
 10
850.8616008502783
 20
-8633.15981862685
 10
850.7202767410729
 20
-8632.81224038574
 10
850.5657404099138
 20
-8632.47503760467
 10
850.3978883474178
 20
-8632.148838714122
 10
850.2166363274326
 20
-8631.834236856832
 10
850.0222101523495
 20
-8631.531257832446
 10
849.8150857793985
 20
-8631.239469664633
 10
849.5957463011831
 20
-8630.958427319529
 10
849.3646748103082
 20
-8630.68768576328
 10
849.1223543993781
 20
-8630.42679996203
 10
848.8692681609966
 20
-8630.175324881917
 10
848.6058991877682
 20
-8629.932815489085
 10
848.3327305722971
 20
-8629.698826749673
 10
848.0502454071873
 20
-8629.472913629827
 10
847.7589267850432
 20
-8629.254631095688
 10
847.459257798469
 20
-8629.043534113396
 10
847.1517215400688
 20
-8628.839177649092
 10
846.5149795782075
 20
-8628.448906139027
 10
845.8525656402936
 20
-8628.080256294626
 10
845.1683444671603
 20
-8627.729667845026
 10
844.4661807996417
 20
-8627.393580519356
 10
843.7499393785712
 20
-8627.06843404676
 10
842.2906822391104
 20
-8626.436722577322
 10
840.8214909754481
 20
-8625.806051269794
 10
840.0928318991256
 20
-8625.482204999586
 10
839.3732835142539
 20
-8625.14793795726
 10
838.6667105616671
 20
-8624.799689871956
 10
837.9767997361835
 20
-8624.434067906934
 10
837.3046895500254
 20
-8624.050075531353
 10
836.6496145626857
 20
-8623.648506687809
 10
836.0107635742205
 20
-8623.23019835096
 10
835.3873253846858
 20
-8622.795987495474
 10
834.7784887941383
 20
-8622.346711096012
 10
834.1834426026337
 20
-8621.883206127244
 10
833.6013756102287
 20
-8621.406309563832
 10
833.0314766169796
 20
-8620.916858380442
 10
832.4729344229422
 20
-8620.415689551737
 10
831.9249378281737
 20
-8619.90364005239
 10
831.3866756327292
 20
-8619.381546857052
 10
830.8573366366663
 20
-8618.850246940407
 10
830.3361096400399
 20
-8618.310577277103
 10
829.8221834429074
 20
-8617.763374841816
 10
828.8129886473478
 20
-8616.649719553941
 10
827.8232626504375
 20
-8615.5159768741
 10
825.8762586543653
 20
-8613.21501252781
  0
LWPOLYLINE
  5
262
330
1F
100
AcDbEntity
  8
Ech.1_5
 62
   154
420
    21156
370
    20
100
AcDbPolyline
 90
       70
 70
     0
 43
0.0
 10
847.8207112069085
 20
-8631.848465339655
 10
847.7127927217643
 20
-8632.526733911469
 10
847.6049059455697
 20
-8633.216333057513
 10
847.4970825872743
 20
-8633.928593352024
 10
847.3893543558278
 20
-8634.67484536923
 10
847.3355358217193
 20
-8635.064259078292
 10
847.2817529601795
 20
-8635.466419683366
 10
847.2280097348265
 20
-8635.88274350623
 10
847.1743101092792
 20
-8636.314646868665
 10
847.1206580471563
 20
-8636.763546092447
 10
847.0670575120765
 20
-8637.230857499355
 10
847.0135124676588
 20
-8637.717997411171
 10
846.9601508355568
 20
-8638.225782409065
 10
846.908150156322
 20
-8638.74995075012
 10
846.8592162496404
 20
-8639.283684742162
 10
846.7773880955045
 20
-8640.352501194446
 10
846.7479135188343
 20
-8640.873909412312
 10
846.7283450562844
 20
-8641.377534796404
 10
846.720392543247
 20
-8641.856540225535
 10
846.7257658151142
 20
-8642.304088578516
 10
846.7339839439469
 20
-8642.513929751078
 10
846.7461747072774
 20
-8642.713342734158
 10
846.7625518345303
 20
-8642.901472887606
 10
846.783329055129
 20
-8643.077465571272
 10
846.8087200984979
 20
-8643.240466145013
 10
846.8389386940606
 20
-8643.38961996867
 10
846.8741985712412
 20
-8643.524072402102
 10
846.9147134594641
 20
-8643.642968805161
 10
846.9606970881528
 20
-8643.745454537693
 10
847.0123631867314
 20
-8643.830674959554
 10
847.0699254846238
 20
-8643.897775430594
 10
847.133597711254
 20
-8643.945901310663
 10
847.2035935960463
 20
-8643.974197959615
 10
847.2801082579771
 20
-8643.981853749745
 10
847.3629631448003
 20
-8643.968920681928
 10
847.4516339532311
 20
-8643.936249856504
 10
847.5455833641322
 20
-8643.884722456036
 10
847.6442740583668
 20
-8643.815219663085
 10
847.7471687167979
 20
-8643.728622660225
 10
847.8537300202889
 20
-8643.625812630014
 10
847.9634206497024
 20
-8643.50767075502
 10
848.0757032859016
 20
-8643.375078217805
 10
848.1900406097493
 20
-8643.228916200935
 10
848.3058953021088
 20
-8643.070065886974
 10
848.4227300438429
 20
-8642.89940845849
 10
848.540007515815
 20
-8642.717825098043
 10
848.773741373925
 20
-8642.325405311527
 10
849.0027983233423
 20
-8641.899855987947
 10
849.2228798109717
 20
-8641.448226587816
 10
849.4296872837173
 20
-8640.977566571657
 10
849.6189221884838
 20
-8640.494925399986
 10
849.786285972175
 20
-8640.007352533323
 10
849.9274800816956
 20
-8639.521897432185
 10
850.0382201138127
 20
-8639.045591309869
 10
850.116093581398
 20
-8638.583051415686
 10
850.1624128117911
 20
-8638.134091595637
 10
850.1789308181693
 20
-8637.69795740116
 10
850.1674006137099
 20
-8637.273894383685
 10
850.1295752115906
 20
-8636.86114809466
 10
850.0672076249879
 20
-8636.458964085514
 10
849.9820508670799
 20
-8636.066587907684
 10
849.8758579510438
 20
-8635.683265112611
 10
849.7503818900569
 20
-8635.30824125173
 10
849.6073756972964
 20
-8634.94076187648
 10
849.44859238594
 20
-8634.580072538296
 10
849.2757849691645
 20
-8634.225418788614
 10
849.0907064601477
 20
-8633.876046178872
 10
848.6907482180993
 20
-8633.190126584961
 10
848.2627417652133
 20
-8632.516278168056
 10
847.8207112069085
 20
-8631.848465339655
  0
CIRCLE
  5
263
330
1F
100
AcDbEntity
  8
Ech.1_5
 62
   154
420
    21156
370
    50
100
AcDbCircle
 10
858.9203593000475
 20
-8628.772092741792
 30
0.0
 40
74.99236516096607
  0
HATCH
  5
264
330
1F
100
AcDbEntity
  8
Ech.1_5
 62
    35
420
  9529928
440
 33554687
370
    20
100
AcDbHatch
 10
0.0
 20
0.0
 30
0.0
210
0.0
220
0.0
230
1.0
  2
SOLID
 70
     1
 71
     1
 91
        1
 92
        3
 72
     0
 73
     1
 93
        4
 10
449.0916282637518
 20
-9001.06100108851
 10
449.0916282637536
 20
-8644.894808639652
 10
422.0916282636827
 20
-8644.894808639652
 10
422.0916282637518
 20
-9001.06100108851
 97
        0
 75
     0
 76
     1
 98
        0
  0
LWPOLYLINE
  5
265
330
1F
100
AcDbEntity
  8
Ech.1_5
 62
   190
370
    20
100
AcDbPolyline
 90
        5
 70
     0
 43
0.0
 10
449.0916282637518
 20
-9001.06100108851
 10
449.0916282637536
 20
-8644.894808639652
 10
422.0916282636827
 20
-8644.894808639652
 10
422.0916282637518
 20
-9001.06100108851
 10
449.0916282637518
 20
-9001.06100108851
  0
LWPOLYLINE
  5
266
330
1F
100
AcDbEntity
  8
Ech.1_5
 62
     7
370
    20
100
AcDbPolyline
 90
        3
 70
     0
 43
0.0
 10
449.0916282637518
 20
-9001.06100108851
 10
422.0916282637518
 20
-9001.06100108851
 10
422.0916282637518
 20
-8644.894808639652
  0
HATCH
  5
267
330
1F
100
AcDbEntity
  8
Ech.1_5
 62
    17
420
  8405056
440
 33554687
370
    20
100
AcDbHatch
 10
0.0
 20
0.0
 30
0.0
210
0.0
220
0.0
230
1.0
  2
SOLID
 70
     1
 71
     1
 91
        1
 92
        3
 72
     0
 73
     1
 93
        4
 10
395.0916282637518
 20
-9001.06100108851
 10
395.0345420472913
 20
-8644.894808639652
 10
375.0345420472913
 20
-8644.894808639652
 10
375.0345420472913
 20
-9001.06100108851
 97
        0
 75
     0
 76
     1
 98
        0
  0
LWPOLYLINE
  5
268
330
1F
100
AcDbEntity
  8
Ech.1_5
 62
     7
370
    20
100
AcDbPolyline
 90
        5
 70
     0
 43
0.0
 10
395.0916282637518
 20
-9001.06100108851
 10
395.0345420472913
 20
-8644.894808639652
 10
375.0345420472913
 20
-8644.894808639652
 10
375.0345420472913
 20
-9001.06100108851
 10
395.0916282637518
 20
-9001.06100108851
  0
HATCH
  5
269
330
1F
100
AcDbEntity
  8
Ech.1_5
 62
    35
420
  9529928
440
 33554687
370
    20
100
AcDbHatch
 10
0.0
 20
0.0
 30
0.0
210
0.0
220
0.0
230
1.0
  2
SOLID
 70
     1
 71
     1
 91
        1
 92
        3
 72
     0
 73
     1
 93
        4
 10
395.0916282637518
 20
-8961.061000611378
 10
395.0916282637518
 20
-9001.06100108851
 10
422.0916282637518
 20
-9001.06100108851
 10
422.0916282637518
 20
-8961.06100108851
 97
        0
 75
     0
 76
     1
 98
        0
  0
LWPOLYLINE
  5
26A
330
1F
100
AcDbEntity
  8
Ech.1_5
 62
   190
370
    20
100
AcDbPolyline
 90
        5
 70
     0
 43
0.0
 10
395.0916282637518
 20
-8961.061000611378
 10
395.0916282637518
 20
-9001.06100108851
 10
422.0916282637518
 20
-9001.06100108851
 10
422.0916282637518
 20
-8961.06100108851
 10
395.0916282637518
 20
-8961.061000611378
  0
LWPOLYLINE
  5
26B
330
1F
100
AcDbEntity
  8
Ech.1_5
 62
   190
370
    20
100
AcDbPolyline
 90
        4
 70
     0
 43
0.0
 10
422.0916282637518
 20
-8961.06100108851
 10
395.0916282637518
 20
-9001.06100108851
 10
422.0916282637518
 20
-9001.06100108851
 10
395.0916282637518
 20
-8961.061113922562
  0
LWPOLYLINE
  5
26C
330
1F
100
AcDbEntity
  8
Ech.1_5
 62
     5
370
    20
100
AcDbPolyline
 90
        5
 70
     0
 43
0.0
 10
395.0916282637518
 20
-8961.061113922562
 10
395.0916282637518
 20
-9001.06100108851
 10
422.0916282637518
 20
-9001.06100108851
 10
422.0916282637518
 20
-8961.06100108851
 10
395.0916282637518
 20
-8961.061113922562
  0
LWPOLYLINE
  5
26D
330
1F
100
AcDbEntity
  8
Ech.1_5
 62
     7
370
    20
100
AcDbPolyline
 90
        4
 70
     0
 43
0.0
 10
375.0345420472913
 20
-8644.894808639652
 10
375.0345420472913
 20
-9001.06100108851
 10
395.0916282637518
 20
-9001.06100108851
 10
395.0345420472913
 20
-8644.894808639652
  0
LINE
  5
26E
330
1F
100
AcDbEntity
  8
Ech.1_5
 62
   190
370
     9
100
AcDbLine
 10
374.4789860480141
 20
-8978.542251088522
 30
0.0
 11
374.1734310471111
 21
-8978.542251088522
 31
0.0
  0
LINE
  5
26F
330
1F
100
AcDbEntity
  8
Ech.1_5
 62
   190
370
     9
100
AcDbLine
 10
374.1734310471111
 20
-8978.542251088522
 30
0.0
 11
374.1734310471111
 21
-8983.579751088499
 31
0.0
  0
LINE
  5
270
330
1F
100
AcDbEntity
  8
Ech.1_5
 62
   190
370
     9
100
AcDbLine
 10
374.4789860480123
 20
-8983.579751088499
 30
0.0
 11
374.1734310471111
 21
-8983.579751088499
 31
0.0
  0
HATCH
  5
271
330
1F
100
AcDbEntity
  8
Ech.1_5
 62
   252
440
 33554687
370
     5
100
AcDbHatch
 10
0.0
 20
0.0
 30
0.0
210
0.0
220
0.0
230
1.0
  2
SOLID
 70
     1
 71
     1
 91
        1
 92
        3
 72
     0
 73
     1
 93
        4
 10
414.2845410492082
 20
-8982.190862088562
 10
415.1178750481267
 20
-8982.190862088562
 10
415.1178750481267
 20
-8979.931140088516
 10
414.2845410492082
 20
-8979.931140088516
 97
        0
 75
     0
 76
     1
 98
        0
  0
LWPOLYLINE
  5
272
330
1F
100
AcDbEntity
  8
Ech.1_5
 62
     7
370
     9
100
AcDbPolyline
 90
        5
 70
     0
 43
0.0
 10
414.2845410492082
 20
-8982.190862088562
 10
415.1178750481267
 20
-8982.190862088562
 10
415.1178750481267
 20
-8979.931140088516
 10
414.2845410492082
 20
-8979.931140088516
 10
414.2845410492082
 20
-8982.190862088562
  0
LINE
  5
273
330
1F
100
AcDbEntity
  8
Ech.1_5
 62
   190
370
     9
100
AcDbLine
 10
417.3169590466314
 20
-8979.931140088516
 30
0.0
 11
375.0345420472913
 21
-8979.931140088516
 31
0.0
  0
LINE
  5
274
330
1F
100
AcDbEntity
  8
Ech.1_5
 62
   190
370
     9
100
AcDbLine
 10
417.3169590466314
 20
-8982.190862088562
 30
0.0
 11
375.0345420472913
 21
-8982.190862088562
 31
0.0
  0
ARC
  5
275
330
1F
100
AcDbEntity
  8
Ech.1_5
 62
   190
370
     9
100
AcDbCircle
 10
386.7366344379453
 20
-8981.06100108854
 30
0.0
 40
12.81320339083424
100
AcDbArc
 50
168.6632793503133
 51
191.3367206496867
  0
LINE
  5
276
330
1F
100
AcDbEntity
  8
Ech.1_5
 62
   190
370
     9
100
AcDbLine
 10
374.4789860480141
 20
-8978.542251088522
 30
0.0
 11
374.4789860480123
 21
-8979.375584088473
 31
0.0
  0
ARC
  5
277
330
1F
100
AcDbEntity
  8
Ech.1_5
 62
   190
370
     9
100
AcDbCircle
 10
375.0345420379112
 20
-8979.375584098618
 30
0.0
 40
0.5555559898988737
100
AcDbArc
 50
179.9999989537737
 51
270.0000009673947
  0
LINE
  5
278
330
1F
100
AcDbEntity
  8
Ech.1_5
 62
   190
370
     9
100
AcDbLine
 10
374.4789860480123
 20
-8979.375584088473
 30
0.0
 11
374.4789860480123
 21
-8982.74641808854
 31
0.0
  0
ARC
  5
279
330
1F
100
AcDbEntity
  8
Ech.1_5
 62
   190
370
     9
100
AcDbCircle
 10
375.0345420377994
 20
-8982.74641807835
 30
0.0
 40
0.5555559897870862
100
AcDbArc
 50
89.99999902107403
 51
180.0000010509162
  0
LINE
  5
27A
330
1F
100
AcDbEntity
  8
Ech.1_5
 62
   190
370
     9
100
AcDbLine
 10
374.4789860480123
 20
-8983.579751088499
 30
0.0
 11
374.4789860480123
 21
-8982.74641808854
 31
0.0
  0
LINE
  5
27B
330
1F
100
AcDbEntity
  8
Ech.1_5
 62
   190
370
     9
100
AcDbLine
 10
385.1178750481267
 20
-8979.931140088516
 30
0.0
 11
385.1178750481267
 21
-8982.190862088562
 31
0.0
  0
LINE
  5
27C
330
1F
100
AcDbEntity
  8
Ech.1_5
 62
   190
370
     9
100
AcDbLine
 10
385.9512080486675
 20
-8979.931140088516
 30
0.0
 11
385.9512080486675
 21
-8982.190862088562
 31
0.0
  0
LINE
  5
27D
330
1F
100
AcDbEntity
  8
Ech.1_5
 62
   190
370
     9
100
AcDbLine
 10
382.6178750481267
 20
-8979.931140088516
 30
0.0
 11
382.6178750481267
 21
-8982.190862088562
 31
0.0
  0
LINE
  5
27E
330
1F
100
AcDbEntity
  8
Ech.1_5
 62
   190
370
     9
100
AcDbLine
 10
383.4512080486675
 20
-8979.931140088516
 30
0.0
 11
383.4512080486675
 21
-8982.190862088562
 31
0.0
  0
LINE
  5
27F
330
1F
100
AcDbEntity
  8
Ech.1_5
 62
   190
370
     9
100
AcDbLine
 10
384.2845410492082
 20
-8979.931140088516
 30
0.0
 11
384.2845410492082
 21
-8982.190862088562
 31
0.0
  0
LINE
  5
280
330
1F
100
AcDbEntity
  8
Ech.1_5
 62
   190
370
     9
100
AcDbLine
 10
380.1178750481267
 20
-8979.931140088516
 30
0.0
 11
380.1178750481267
 21
-8982.190862088562
 31
0.0
  0
LINE
  5
281
330
1F
100
AcDbEntity
  8
Ech.1_5
 62
   190
370
     9
100
AcDbLine
 10
380.9512080486693
 20
-8979.931140088516
 30
0.0
 11
380.9512080486693
 21
-8982.190862088562
 31
0.0
  0
LINE
  5
282
330
1F
100
AcDbEntity
  8
Ech.1_5
 62
   190
370
     9
100
AcDbLine
 10
381.78454104921
 20
-8979.931140088516
 30
0.0
 11
381.78454104921
 21
-8982.190862088562
 31
0.0
  0
LINE
  5
283
330
1F
100
AcDbEntity
  8
Ech.1_5
 62
   190
370
     9
100
AcDbLine
 10
379.2845410492082
 20
-8979.931140088516
 30
0.0
 11
379.2845410492082
 21
-8982.190862088562
 31
0.0
  0
LINE
  5
284
330
1F
100
AcDbEntity
  8
Ech.1_5
 62
   190
370
     9
100
AcDbLine
 10
378.4512080486675
 20
-8979.931140088516
 30
0.0
 11
378.4512080486675
 21
-8982.190862088562
 31
0.0
  0
LINE
  5
285
330
1F
100
AcDbEntity
  8
Ech.1_5
 62
   190
370
     9
100
AcDbLine
 10
377.6178750481267
 20
-8979.931140088516
 30
0.0
 11
377.6178750481267
 21
-8982.190862088562
 31
0.0
  0
LINE
  5
286
330
1F
100
AcDbEntity
  8
Ech.1_5
 62
   190
370
     9
100
AcDbLine
 10
376.7845410492082
 20
-8979.931140088516
 30
0.0
 11
376.7845410492082
 21
-8982.190862088555
 31
0.0
  0
LINE
  5
287
330
1F
100
AcDbEntity
  8
Ech.1_5
 62
   190
370
     9
100
AcDbLine
 10
411.7845410492082
 20
-8979.931140088516
 30
0.0
 11
411.7845410492082
 21
-8982.190862088562
 31
0.0
  0
LINE
  5
288
330
1F
100
AcDbEntity
  8
Ech.1_5
 62
   190
370
     9
100
AcDbLine
 10
410.9512080486675
 20
-8979.931140088516
 30
0.0
 11
410.9512080486675
 21
-8982.190862088562
 31
0.0
  0
LINE
  5
289
330
1F
100
AcDbEntity
  8
Ech.1_5
 62
   190
370
     9
100
AcDbLine
 10
412.6178750481267
 20
-8979.931140088516
 30
0.0
 11
412.6178750481267
 21
-8982.190862088562
 31
0.0
  0
LINE
  5
28A
330
1F
100
AcDbEntity
  8
Ech.1_5
 62
   190
370
     9
100
AcDbLine
 10
408.4512080486675
 20
-8979.931140088516
 30
0.0
 11
408.4512080486675
 21
-8982.190862088562
 31
0.0
  0
LINE
  5
28B
330
1F
100
AcDbEntity
  8
Ech.1_5
 62
   190
370
     9
100
AcDbLine
 10
409.2845410492082
 20
-8979.931140088516
 30
0.0
 11
409.2845410492082
 21
-8982.190862088562
 31
0.0
  0
LINE
  5
28C
330
1F
100
AcDbEntity
  8
Ech.1_5
 62
   190
370
     9
100
AcDbLine
 10
410.1178750481267
 20
-8979.931140088516
 30
0.0
 11
410.1178750481267
 21
-8982.190862088562
 31
0.0
  0
LINE
  5
28D
330
1F
100
AcDbEntity
  8
Ech.1_5
 62
   190
370
     9
100
AcDbLine
 10
405.9512080486675
 20
-8979.931140088516
 30
0.0
 11
405.9512080486675
 21
-8982.190862088562
 31
0.0
  0
LINE
  5
28E
330
1F
100
AcDbEntity
  8
Ech.1_5
 62
   190
370
     9
100
AcDbLine
 10
406.7845410492082
 20
-8979.931140088516
 30
0.0
 11
406.7845410492082
 21
-8982.190862088562
 31
0.0
  0
LINE
  5
28F
330
1F
100
AcDbEntity
  8
Ech.1_5
 62
   190
370
     9
100
AcDbLine
 10
407.6178750481267
 20
-8979.931140088516
 30
0.0
 11
407.6178750481267
 21
-8982.190862088562
 31
0.0
  0
LINE
  5
290
330
1F
100
AcDbEntity
  8
Ech.1_5
 62
   190
370
     9
100
AcDbLine
 10
403.4512080486675
 20
-8979.931140088516
 30
0.0
 11
403.4512080486675
 21
-8982.190862088562
 31
0.0
  0
LINE
  5
291
330
1F
100
AcDbEntity
  8
Ech.1_5
 62
   190
370
     9
100
AcDbLine
 10
404.2845410492082
 20
-8979.931140088516
 30
0.0
 11
404.2845410492082
 21
-8982.190862088562
 31
0.0
  0
LINE
  5
292
330
1F
100
AcDbEntity
  8
Ech.1_5
 62
   190
370
     9
100
AcDbLine
 10
405.1178750481267
 20
-8979.931140088516
 30
0.0
 11
405.1178750481267
 21
-8982.190862088562
 31
0.0
  0
LINE
  5
293
330
1F
100
AcDbEntity
  8
Ech.1_5
 62
   190
370
     9
100
AcDbLine
 10
402.6178750481267
 20
-8979.931140088516
 30
0.0
 11
402.6178750481267
 21
-8982.190862088562
 31
0.0
  0
LINE
  5
294
330
1F
100
AcDbEntity
  8
Ech.1_5
 62
   190
370
     9
100
AcDbLine
 10
389.2845410492082
 20
-8979.931140088516
 30
0.0
 11
389.2845410492082
 21
-8982.190862088562
 31
0.0
  0
LINE
  5
295
330
1F
100
AcDbEntity
  8
Ech.1_5
 62
   190
370
     9
100
AcDbLine
 10
390.1178750481267
 20
-8979.931140088516
 30
0.0
 11
390.1178750481267
 21
-8982.190862088562
 31
0.0
  0
LINE
  5
296
330
1F
100
AcDbEntity
  8
Ech.1_5
 62
   190
370
     9
100
AcDbLine
 10
390.9512080486675
 20
-8979.931140088516
 30
0.0
 11
390.9512080486675
 21
-8982.190862088562
 31
0.0
  0
LINE
  5
297
330
1F
100
AcDbEntity
  8
Ech.1_5
 62
   190
370
     9
100
AcDbLine
 10
391.7845410492082
 20
-8979.931140088516
 30
0.0
 11
391.7845410492082
 21
-8982.190862088562
 31
0.0
  0
LINE
  5
298
330
1F
100
AcDbEntity
  8
Ech.1_5
 62
   190
370
     9
100
AcDbLine
 10
394.2845410492082
 20
-8979.931140088516
 30
0.0
 11
394.2845410492082
 21
-8982.190862088562
 31
0.0
  0
LINE
  5
299
330
1F
100
AcDbEntity
  8
Ech.1_5
 62
   190
370
     9
100
AcDbLine
 10
393.4512080486675
 20
-8979.931140088516
 30
0.0
 11
393.4512080486675
 21
-8982.190862088562
 31
0.0
  0
LINE
  5
29A
330
1F
100
AcDbEntity
  8
Ech.1_5
 62
   190
370
     9
100
AcDbLine
 10
392.6178750481267
 20
-8979.931140088516
 30
0.0
 11
392.6178750481267
 21
-8982.190862088562
 31
0.0
  0
LINE
  5
29B
330
1F
100
AcDbEntity
  8
Ech.1_5
 62
   190
370
     9
100
AcDbLine
 10
396.7845410492082
 20
-8979.931140088516
 30
0.0
 11
396.7845410492082
 21
-8982.190862088562
 31
0.0
  0
LINE
  5
29C
330
1F
100
AcDbEntity
  8
Ech.1_5
 62
   190
370
     9
100
AcDbLine
 10
395.9512080486675
 20
-8979.931140088516
 30
0.0
 11
395.9512080486675
 21
-8982.190862088562
 31
0.0
  0
LINE
  5
29D
330
1F
100
AcDbEntity
  8
Ech.1_5
 62
   190
370
     9
100
AcDbLine
 10
395.1178750481267
 20
-8979.931140088516
 30
0.0
 11
395.1178750481267
 21
-8982.190862088562
 31
0.0
  0
LINE
  5
29E
330
1F
100
AcDbEntity
  8
Ech.1_5
 62
   190
370
     9
100
AcDbLine
 10
399.2845410492082
 20
-8979.931140088516
 30
0.0
 11
399.2845410492082
 21
-8982.190862088562
 31
0.0
  0
LINE
  5
29F
330
1F
100
AcDbEntity
  8
Ech.1_5
 62
   190
370
     9
100
AcDbLine
 10
398.4512080486675
 20
-8979.931140088516
 30
0.0
 11
398.4512080486675
 21
-8982.190862088562
 31
0.0
  0
LINE
  5
2A0
330
1F
100
AcDbEntity
  8
Ech.1_5
 62
   190
370
     9
100
AcDbLine
 10
397.6178750481267
 20
-8979.931140088516
 30
0.0
 11
397.6178750481267
 21
-8982.190862088562
 31
0.0
  0
LINE
  5
2A1
330
1F
100
AcDbEntity
  8
Ech.1_5
 62
   190
370
     9
100
AcDbLine
 10
401.7845410492082
 20
-8979.931140088516
 30
0.0
 11
401.7845410492082
 21
-8982.190862088562
 31
0.0
  0
LINE
  5
2A2
330
1F
100
AcDbEntity
  8
Ech.1_5
 62
   190
370
     9
100
AcDbLine
 10
400.9512080486675
 20
-8979.931140088516
 30
0.0
 11
400.9512080486675
 21
-8982.190862088562
 31
0.0
  0
LINE
  5
2A3
330
1F
100
AcDbEntity
  8
Ech.1_5
 62
   190
370
     9
100
AcDbLine
 10
400.1178750481267
 20
-8979.931140088516
 30
0.0
 11
400.1178750481267
 21
-8982.190862088562
 31
0.0
  0
LINE
  5
2A4
330
1F
100
AcDbEntity
  8
Ech.1_5
 62
   190
370
     9
100
AcDbLine
 10
387.6178750481267
 20
-8979.931140088516
 30
0.0
 11
387.6178750481267
 21
-8982.190862088562
 31
0.0
  0
LINE
  5
2A5
330
1F
100
AcDbEntity
  8
Ech.1_5
 62
   190
370
     9
100
AcDbLine
 10
388.4512080486675
 20
-8979.931140088516
 30
0.0
 11
388.4512080486675
 21
-8982.190862088562
 31
0.0
  0
LINE
  5
2A6
330
1F
100
AcDbEntity
  8
Ech.1_5
 62
   190
370
     9
100
AcDbLine
 10
389.2845410492082
 20
-8979.931140088516
 30
0.0
 11
389.2845410492082
 21
-8982.190862088562
 31
0.0
  0
LINE
  5
2A7
330
1F
100
AcDbEntity
  8
Ech.1_5
 62
   190
370
     9
100
AcDbLine
 10
386.7845410492082
 20
-8979.931140088516
 30
0.0
 11
386.7845410492082
 21
-8982.190862088562
 31
0.0
  0
LINE
  5
2A8
330
1F
100
AcDbEntity
  8
Ech.1_5
 62
   190
370
     9
100
AcDbLine
 10
419.9789860480123
 20
-8981.06100108851
 30
0.0
 11
417.3169590466314
 21
-8979.931140088516
 31
0.0
  0
ARC
  5
2A9
330
1F
100
AcDbEntity
  8
Ech.1_5
 62
   190
370
     9
100
AcDbCircle
 10
418.7263100372287
 20
-8981.061001088507
 30
0.0
 40
1.806337996665553
100
AcDbArc
 50
141.2812399141942
 51
218.7187600858058
  0
LINE
  5
2AA
330
1F
100
AcDbEntity
  8
Ech.1_5
 62
   190
370
     9
100
AcDbLine
 10
419.9789860480123
 20
-8981.06100108851
 30
0.0
 11
417.3169590466314
 21
-8982.190862088562
 31
0.0
  0
HATCH
  5
2AB
330
1F
100
AcDbEntity
  8
Ech.1_5
 62
   252
440
 33554687
370
     5
100
AcDbHatch
 10
0.0
 20
0.0
 30
0.0
210
0.0
220
0.0
230
1.0
  2
SOLID
 70
     1
 71
     1
 91
        1
 92
        3
 72
     0
 73
     1
 93
        4
 10
376.7845410492082
 20
-8982.190862088555
 10
377.6178750481267
 20
-8982.190862088562
 10
377.6178750481267
 20
-8979.931140088516
 10
376.7845410492082
 20
-8979.931140088516
 97
        0
 75
     0
 76
     1
 98
        0
  0
LWPOLYLINE
  5
2AC
330
1F
100
AcDbEntity
  8
Ech.1_5
 62
     7
370
     9
100
AcDbPolyline
 90
        5
 70
     0
 43
0.0
 10
376.7845410492082
 20
-8982.190862088555
 10
377.6178750481267
 20
-8982.190862088562
 10
377.6178750481267
 20
-8979.931140088516
 10
376.7845410492082
 20
-8979.931140088516
 10
376.7845410492082
 20
-8982.190862088555
  0
HATCH
  5
2AD
330
1F
100
AcDbEntity
  8
Ech.1_5
 62
   252
440
 33554687
370
     5
100
AcDbHatch
 10
0.0
 20
0.0
 30
0.0
210
0.0
220
0.0
230
1.0
  2
SOLID
 70
     1
 71
     1
 91
        1
 92
        3
 72
     0
 73
     1
 93
        4
 10
377.6178750481267
 20
-8982.190862088562
 10
378.4512090470453
 20
-8982.190862088562
 10
378.4512090470453
 20
-8979.931140088516
 10
377.6178750481267
 20
-8979.931140088516
 97
        0
 75
     0
 76
     1
 98
        0
  0
LWPOLYLINE
  5
2AE
330
1F
100
AcDbEntity
  8
Ech.1_5
 62
     7
370
     9
100
AcDbPolyline
 90
        5
 70
     0
 43
0.0
 10
377.6178750481267
 20
-8982.190862088562
 10
378.4512090470453
 20
-8982.190862088562
 10
378.4512090470453
 20
-8979.931140088516
 10
377.6178750481267
 20
-8979.931140088516
 10
377.6178750481267
 20
-8982.190862088562
  0
HATCH
  5
2AF
330
1F
100
AcDbEntity
  8
Ech.1_5
 62
   252
440
 33554687
370
     5
100
AcDbHatch
 10
0.0
 20
0.0
 30
0.0
210
0.0
220
0.0
230
1.0
  2
SOLID
 70
     1
 71
     1
 91
        1
 92
        3
 72
     0
 73
     1
 93
        4
 10
378.4512090470453
 20
-8982.190862088562
 10
379.2845430459638
 20
-8982.190862088562
 10
379.2845430459638
 20
-8979.931140088516
 10
378.4512090470453
 20
-8979.931140088516
 97
        0
 75
     0
 76
     1
 98
        0
  0
LWPOLYLINE
  5
2B0
330
1F
100
AcDbEntity
  8
Ech.1_5
 62
     7
370
     9
100
AcDbPolyline
 90
        5
 70
     0
 43
0.0
 10
378.4512090470453
 20
-8982.190862088562
 10
379.2845430459638
 20
-8982.190862088562
 10
379.2845430459638
 20
-8979.931140088516
 10
378.4512090470453
 20
-8979.931140088516
 10
378.4512090470453
 20
-8982.190862088562
  0
HATCH
  5
2B1
330
1F
100
AcDbEntity
  8
Ech.1_5
 62
   252
440
 33554687
370
     5
100
AcDbHatch
 10
0.0
 20
0.0
 30
0.0
210
0.0
220
0.0
230
1.0
  2
SOLID
 70
     1
 71
     1
 91
        1
 92
        3
 72
     0
 73
     1
 93
        4
 10
379.2845430459638
 20
-8982.190862088562
 10
380.1178770448823
 20
-8982.190862088562
 10
380.1178770448823
 20
-8979.931140088516
 10
379.2845430459638
 20
-8979.931140088516
 97
        0
 75
     0
 76
     1
 98
        0
  0
LWPOLYLINE
  5
2B2
330
1F
100
AcDbEntity
  8
Ech.1_5
 62
     7
370
     9
100
AcDbPolyline
 90
        5
 70
     0
 43
0.0
 10
379.2845430459638
 20
-8982.190862088562
 10
380.1178770448823
 20
-8982.190862088562
 10
380.1178770448823
 20
-8979.931140088516
 10
379.2845430459638
 20
-8979.931140088516
 10
379.2845430459638
 20
-8982.190862088562
  0
HATCH
  5
2B3
330
1F
100
AcDbEntity
  8
Ech.1_5
 62
   252
440
 33554687
370
     5
100
AcDbHatch
 10
0.0
 20
0.0
 30
0.0
210
0.0
220
0.0
230
1.0
  2
SOLID
 70
     1
 71
     1
 91
        1
 92
        3
 72
     0
 73
     1
 93
        4
 10
380.1178750481267
 20
-8982.190862088562
 10
380.9512090470471
 20
-8982.190862088562
 10
380.9512090470471
 20
-8979.931140088516
 10
380.1178750481267
 20
-8979.931140088516
 97
        0
 75
     0
 76
     1
 98
        0
  0
LWPOLYLINE
  5
2B4
330
1F
100
AcDbEntity
  8
Ech.1_5
 62
     7
370
     9
100
AcDbPolyline
 90
        5
 70
     0
 43
0.0
 10
380.1178750481267
 20
-8982.190862088562
 10
380.9512090470471
 20
-8982.190862088562
 10
380.9512090470471
 20
-8979.931140088516
 10
380.1178750481267
 20
-8979.931140088516
 10
380.1178750481267
 20
-8982.190862088562
  0
HATCH
  5
2B5
330
1F
100
AcDbEntity
  8
Ech.1_5
 62
   252
440
 33554687
370
     5
100
AcDbHatch
 10
0.0
 20
0.0
 30
0.0
210
0.0
220
0.0
230
1.0
  2
SOLID
 70
     1
 71
     1
 91
        1
 92
        3
 72
     0
 73
     1
 93
        4
 10
380.9512080486693
 20
-8982.190862088562
 10
381.7845420475878
 20
-8982.190862088562
 10
381.7845420475878
 20
-8979.931140088509
 10
380.9512080486693
 20
-8979.931140088516
 97
        0
 75
     0
 76
     1
 98
        0
  0
LWPOLYLINE
  5
2B6
330
1F
100
AcDbEntity
  8
Ech.1_5
 62
     7
370
     9
100
AcDbPolyline
 90
        5
 70
     0
 43
0.0
 10
380.9512080486693
 20
-8982.190862088562
 10
381.7845420475878
 20
-8982.190862088562
 10
381.7845420475878
 20
-8979.931140088509
 10
380.9512080486693
 20
-8979.931140088516
 10
380.9512080486693
 20
-8982.190862088562
  0
HATCH
  5
2B7
330
1F
100
AcDbEntity
  8
Ech.1_5
 62
   252
440
 33554687
370
     5
100
AcDbHatch
 10
0.0
 20
0.0
 30
0.0
210
0.0
220
0.0
230
1.0
  2
SOLID
 70
     1
 71
     1
 91
        1
 92
        3
 72
     0
 73
     1
 93
        4
 10
381.7845420475878
 20
-8982.190862088562
 10
382.6178760465045
 20
-8982.190862088562
 10
382.6178760465045
 20
-8979.931140088516
 10
381.7845420475878
 20
-8979.931140088509
 97
        0
 75
     0
 76
     1
 98
        0
  0
LWPOLYLINE
  5
2B8
330
1F
100
AcDbEntity
  8
Ech.1_5
 62
     7
370
     9
100
AcDbPolyline
 90
        5
 70
     0
 43
0.0
 10
381.7845420475878
 20
-8982.190862088562
 10
382.6178760465045
 20
-8982.190862088562
 10
382.6178760465045
 20
-8979.931140088516
 10
381.7845420475878
 20
-8979.931140088509
 10
381.7845420475878
 20
-8982.190862088562
  0
HATCH
  5
2B9
330
1F
100
AcDbEntity
  8
Ech.1_5
 62
   252
440
 33554687
370
     5
100
AcDbHatch
 10
0.0
 20
0.0
 30
0.0
210
0.0
220
0.0
230
1.0
  2
SOLID
 70
     1
 71
     1
 91
        1
 92
        3
 72
     0
 73
     1
 93
        4
 10
382.6178750481267
 20
-8982.190862088562
 10
383.4512090470453
 20
-8982.190862088562
 10
383.4512090470453
 20
-8979.931140088516
 10
382.6178750481267
 20
-8979.931140088516
 97
        0
 75
     0
 76
     1
 98
        0
  0
LWPOLYLINE
  5
2BA
330
1F
100
AcDbEntity
  8
Ech.1_5
 62
     7
370
     9
100
AcDbPolyline
 90
        5
 70
     0
 43
0.0
 10
382.6178750481267
 20
-8982.190862088562
 10
383.4512090470453
 20
-8982.190862088562
 10
383.4512090470453
 20
-8979.931140088516
 10
382.6178750481267
 20
-8979.931140088516
 10
382.6178750481267
 20
-8982.190862088562
  0
HATCH
  5
2BB
330
1F
100
AcDbEntity
  8
Ech.1_5
 62
   252
440
 33554687
370
     5
100
AcDbHatch
 10
0.0
 20
0.0
 30
0.0
210
0.0
220
0.0
230
1.0
  2
SOLID
 70
     1
 71
     1
 91
        1
 92
        3
 72
     0
 73
     1
 93
        4
 10
383.4512090470453
 20
-8982.190862088562
 10
384.2845430459638
 20
-8982.190862088562
 10
384.2845430459638
 20
-8979.931140088516
 10
383.4512090470453
 20
-8979.931140088516
 97
        0
 75
     0
 76
     1
 98
        0
  0
LWPOLYLINE
  5
2BC
330
1F
100
AcDbEntity
  8
Ech.1_5
 62
     7
370
     9
100
AcDbPolyline
 90
        5
 70
     0
 43
0.0
 10
383.4512090470453
 20
-8982.190862088562
 10
384.2845430459638
 20
-8982.190862088562
 10
384.2845430459638
 20
-8979.931140088516
 10
383.4512090470453
 20
-8979.931140088516
 10
383.4512090470453
 20
-8982.190862088562
  0
HATCH
  5
2BD
330
1F
100
AcDbEntity
  8
Ech.1_5
 62
   252
440
 33554687
370
     5
100
AcDbHatch
 10
0.0
 20
0.0
 30
0.0
210
0.0
220
0.0
230
1.0
  2
SOLID
 70
     1
 71
     1
 91
        1
 92
        3
 72
     0
 73
     1
 93
        4
 10
384.2845410492082
 20
-8982.190862088562
 10
385.1178750481267
 20
-8982.190862088562
 10
385.1178750481267
 20
-8979.931140088516
 10
384.2845410492082
 20
-8979.931140088516
 97
        0
 75
     0
 76
     1
 98
        0
  0
LWPOLYLINE
  5
2BE
330
1F
100
AcDbEntity
  8
Ech.1_5
 62
     7
370
     9
100
AcDbPolyline
 90
        5
 70
     0
 43
0.0
 10
384.2845410492082
 20
-8982.190862088562
 10
385.1178750481267
 20
-8982.190862088562
 10
385.1178750481267
 20
-8979.931140088516
 10
384.2845410492082
 20
-8979.931140088516
 10
384.2845410492082
 20
-8982.190862088562
  0
HATCH
  5
2BF
330
1F
100
AcDbEntity
  8
Ech.1_5
 62
   252
440
 33554687
370
     5
100
AcDbHatch
 10
0.0
 20
0.0
 30
0.0
210
0.0
220
0.0
230
1.0
  2
SOLID
 70
     1
 71
     1
 91
        1
 92
        3
 72
     0
 73
     1
 93
        4
 10
385.1178750481267
 20
-8982.190862088562
 10
385.9512090470453
 20
-8982.190862088562
 10
385.9512090470453
 20
-8979.931140088516
 10
385.1178750481267
 20
-8979.931140088516
 97
        0
 75
     0
 76
     1
 98
        0
  0
LWPOLYLINE
  5
2C0
330
1F
100
AcDbEntity
  8
Ech.1_5
 62
     7
370
     9
100
AcDbPolyline
 90
        5
 70
     0
 43
0.0
 10
385.1178750481267
 20
-8982.190862088562
 10
385.9512090470453
 20
-8982.190862088562
 10
385.9512090470453
 20
-8979.931140088516
 10
385.1178750481267
 20
-8979.931140088516
 10
385.1178750481267
 20
-8982.190862088562
  0
HATCH
  5
2C1
330
1F
100
AcDbEntity
  8
Ech.1_5
 62
   252
440
 33554687
370
     5
100
AcDbHatch
 10
0.0
 20
0.0
 30
0.0
210
0.0
220
0.0
230
1.0
  2
SOLID
 70
     1
 71
     1
 91
        1
 92
        3
 72
     0
 73
     1
 93
        4
 10
385.9512090470453
 20
-8982.190862088562
 10
386.7845430459638
 20
-8982.190862088562
 10
386.7845430459656
 20
-8979.931140088516
 10
385.9512090470453
 20
-8979.931140088516
 97
        0
 75
     0
 76
     1
 98
        0
  0
LWPOLYLINE
  5
2C2
330
1F
100
AcDbEntity
  8
Ech.1_5
 62
     7
370
     9
100
AcDbPolyline
 90
        5
 70
     0
 43
0.0
 10
385.9512090470453
 20
-8982.190862088562
 10
386.7845430459638
 20
-8982.190862088562
 10
386.7845430459656
 20
-8979.931140088516
 10
385.9512090470453
 20
-8979.931140088516
 10
385.9512090470453
 20
-8982.190862088562
  0
HATCH
  5
2C3
330
1F
100
AcDbEntity
  8
Ech.1_5
 62
   252
440
 33554687
370
     5
100
AcDbHatch
 10
0.0
 20
0.0
 30
0.0
210
0.0
220
0.0
230
1.0
  2
SOLID
 70
     1
 71
     1
 91
        1
 92
        3
 72
     0
 73
     1
 93
        4
 10
386.7845430459638
 20
-8982.190862088562
 10
387.6178770448823
 20
-8982.190862088562
 10
387.6178770448823
 20
-8979.931140088516
 10
386.7845430459656
 20
-8979.931140088516
 97
        0
 75
     0
 76
     1
 98
        0
  0
LWPOLYLINE
  5
2C4
330
1F
100
AcDbEntity
  8
Ech.1_5
 62
     7
370
     9
100
AcDbPolyline
 90
        5
 70
     0
 43
0.0
 10
386.7845430459638
 20
-8982.190862088562
 10
387.6178770448823
 20
-8982.190862088562
 10
387.6178770448823
 20
-8979.931140088516
 10
386.7845430459656
 20
-8979.931140088516
 10
386.7845430459638
 20
-8982.190862088562
  0
HATCH
  5
2C5
330
1F
100
AcDbEntity
  8
Ech.1_5
 62
   252
440
 33554687
370
     5
100
AcDbHatch
 10
0.0
 20
0.0
 30
0.0
210
0.0
220
0.0
230
1.0
  2
SOLID
 70
     1
 71
     1
 91
        1
 92
        3
 72
     0
 73
     1
 93
        4
 10
387.6178770448823
 20
-8982.190862088562
 10
388.4512110438009
 20
-8982.190862088562
 10
388.4512110438009
 20
-8979.931140088516
 10
387.6178770448823
 20
-8979.931140088516
 97
        0
 75
     0
 76
     1
 98
        0
  0
LWPOLYLINE
  5
2C6
330
1F
100
AcDbEntity
  8
Ech.1_5
 62
     7
370
     9
100
AcDbPolyline
 90
        5
 70
     0
 43
0.0
 10
387.6178770448823
 20
-8982.190862088562
 10
388.4512110438009
 20
-8982.190862088562
 10
388.4512110438009
 20
-8979.931140088516
 10
387.6178770448823
 20
-8979.931140088516
 10
387.6178770448823
 20
-8982.190862088562
  0
HATCH
  5
2C7
330
1F
100
AcDbEntity
  8
Ech.1_5
 62
   252
440
 33554687
370
     5
100
AcDbHatch
 10
0.0
 20
0.0
 30
0.0
210
0.0
220
0.0
230
1.0
  2
SOLID
 70
     1
 71
     1
 91
        1
 92
        3
 72
     0
 73
     1
 93
        4
 10
388.4512090470453
 20
-8982.190862088562
 10
389.2845430459638
 20
-8982.190862088562
 10
389.2845430459638
 20
-8979.931140088516
 10
388.4512090470453
 20
-8979.931140088516
 97
        0
 75
     0
 76
     1
 98
        0
  0
LWPOLYLINE
  5
2C8
330
1F
100
AcDbEntity
  8
Ech.1_5
 62
     7
370
     9
100
AcDbPolyline
 90
        5
 70
     0
 43
0.0
 10
388.4512090470453
 20
-8982.190862088562
 10
389.2845430459638
 20
-8982.190862088562
 10
389.2845430459638
 20
-8979.931140088516
 10
388.4512090470453
 20
-8979.931140088516
 10
388.4512090470453
 20
-8982.190862088562
  0
HATCH
  5
2C9
330
1F
100
AcDbEntity
  8
Ech.1_5
 62
   252
440
 33554687
370
     5
100
AcDbHatch
 10
0.0
 20
0.0
 30
0.0
210
0.0
220
0.0
230
1.0
  2
SOLID
 70
     1
 71
     1
 91
        1
 92
        3
 72
     0
 73
     1
 93
        4
 10
389.284542047586
 20
-8982.190862088562
 10
390.1178760465045
 20
-8982.190862088562
 10
390.1178760465045
 20
-8979.931140088516
 10
389.284542047586
 20
-8979.931140088516
 97
        0
 75
     0
 76
     1
 98
        0
  0
LWPOLYLINE
  5
2CA
330
1F
100
AcDbEntity
  8
Ech.1_5
 62
     7
370
     9
100
AcDbPolyline
 90
        5
 70
     0
 43
0.0
 10
389.284542047586
 20
-8982.190862088562
 10
390.1178760465045
 20
-8982.190862088562
 10
390.1178760465045
 20
-8979.931140088516
 10
389.284542047586
 20
-8979.931140088516
 10
389.284542047586
 20
-8982.190862088562
  0
HATCH
  5
2CB
330
1F
100
AcDbEntity
  8
Ech.1_5
 62
   252
440
 33554687
370
     5
100
AcDbHatch
 10
0.0
 20
0.0
 30
0.0
210
0.0
220
0.0
230
1.0
  2
SOLID
 70
     1
 71
     1
 91
        1
 92
        3
 72
     0
 73
     1
 93
        4
 10
390.1178760465045
 20
-8982.190862088562
 10
390.9512100454231
 20
-8982.190862088562
 10
390.9512100454231
 20
-8979.931140088516
 10
390.1178760465045
 20
-8979.931140088516
 97
        0
 75
     0
 76
     1
 98
        0
  0
LWPOLYLINE
  5
2CC
330
1F
100
AcDbEntity
  8
Ech.1_5
 62
     7
370
     9
100
AcDbPolyline
 90
        5
 70
     0
 43
0.0
 10
390.1178760465045
 20
-8982.190862088562
 10
390.9512100454231
 20
-8982.190862088562
 10
390.9512100454231
 20
-8979.931140088516
 10
390.1178760465045
 20
-8979.931140088516
 10
390.1178760465045
 20
-8982.190862088562
  0
HATCH
  5
2CD
330
1F
100
AcDbEntity
  8
Ech.1_5
 62
   252
440
 33554687
370
     5
100
AcDbHatch
 10
0.0
 20
0.0
 30
0.0
210
0.0
220
0.0
230
1.0
  2
SOLID
 70
     1
 71
     1
 91
        1
 92
        3
 72
     0
 73
     1
 93
        4
 10
390.9512090470453
 20
-8982.190862088562
 10
391.7845430459638
 20
-8982.190862088562
 10
391.7845430459638
 20
-8979.931140088516
 10
390.9512090470453
 20
-8979.931140088516
 97
        0
 75
     0
 76
     1
 98
        0
  0
LWPOLYLINE
  5
2CE
330
1F
100
AcDbEntity
  8
Ech.1_5
 62
     7
370
     9
100
AcDbPolyline
 90
        5
 70
     0
 43
0.0
 10
390.9512090470453
 20
-8982.190862088562
 10
391.7845430459638
 20
-8982.190862088562
 10
391.7845430459638
 20
-8979.931140088516
 10
390.9512090470453
 20
-8979.931140088516
 10
390.9512090470453
 20
-8982.190862088562
  0
HATCH
  5
2CF
330
1F
100
AcDbEntity
  8
Ech.1_5
 62
   252
440
 33554687
370
     5
100
AcDbHatch
 10
0.0
 20
0.0
 30
0.0
210
0.0
220
0.0
230
1.0
  2
SOLID
 70
     1
 71
     1
 91
        1
 92
        3
 72
     0
 73
     1
 93
        4
 10
391.7845430459638
 20
-8982.190862088562
 10
392.6178770448823
 20
-8982.190862088562
 10
392.6178770448823
 20
-8979.931140088516
 10
391.7845430459638
 20
-8979.931140088516
 97
        0
 75
     0
 76
     1
 98
        0
  0
LWPOLYLINE
  5
2D0
330
1F
100
AcDbEntity
  8
Ech.1_5
 62
     7
370
     9
100
AcDbPolyline
 90
        5
 70
     0
 43
0.0
 10
391.7845430459638
 20
-8982.190862088562
 10
392.6178770448823
 20
-8982.190862088562
 10
392.6178770448823
 20
-8979.931140088516
 10
391.7845430459638
 20
-8979.931140088516
 10
391.7845430459638
 20
-8982.190862088562
  0
HATCH
  5
2D1
330
1F
100
AcDbEntity
  8
Ech.1_5
 62
   252
440
 33554687
370
     5
100
AcDbHatch
 10
0.0
 20
0.0
 30
0.0
210
0.0
220
0.0
230
1.0
  2
SOLID
 70
     1
 71
     1
 91
        1
 92
        3
 72
     0
 73
     1
 93
        4
 10
392.6178750481267
 20
-8982.190862088562
 10
393.4512090470453
 20
-8982.190862088562
 10
393.4512090470453
 20
-8979.931140088516
 10
392.6178750481267
 20
-8979.931140088516
 97
        0
 75
     0
 76
     1
 98
        0
  0
LWPOLYLINE
  5
2D2
330
1F
100
AcDbEntity
  8
Ech.1_5
 62
     7
370
     9
100
AcDbPolyline
 90
        5
 70
     0
 43
0.0
 10
392.6178750481267
 20
-8982.190862088562
 10
393.4512090470453
 20
-8982.190862088562
 10
393.4512090470453
 20
-8979.931140088516
 10
392.6178750481267
 20
-8979.931140088516
 10
392.6178750481267
 20
-8982.190862088562
  0
HATCH
  5
2D3
330
1F
100
AcDbEntity
  8
Ech.1_5
 62
   252
440
 33554687
370
     5
100
AcDbHatch
 10
0.0
 20
0.0
 30
0.0
210
0.0
220
0.0
230
1.0
  2
SOLID
 70
     1
 71
     1
 91
        1
 92
        3
 72
     0
 73
     1
 93
        4
 10
393.4512090470453
 20
-8982.190862088562
 10
394.2845430459638
 20
-8982.190862088562
 10
394.2845430459638
 20
-8979.931140088516
 10
393.4512090470453
 20
-8979.931140088516
 97
        0
 75
     0
 76
     1
 98
        0
  0
LWPOLYLINE
  5
2D4
330
1F
100
AcDbEntity
  8
Ech.1_5
 62
     7
370
     9
100
AcDbPolyline
 90
        5
 70
     0
 43
0.0
 10
393.4512090470453
 20
-8982.190862088562
 10
394.2845430459638
 20
-8982.190862088562
 10
394.2845430459638
 20
-8979.931140088516
 10
393.4512090470453
 20
-8979.931140088516
 10
393.4512090470453
 20
-8982.190862088562
  0
HATCH
  5
2D5
330
1F
100
AcDbEntity
  8
Ech.1_5
 62
   252
440
 33554687
370
     5
100
AcDbHatch
 10
0.0
 20
0.0
 30
0.0
210
0.0
220
0.0
230
1.0
  2
SOLID
 70
     1
 71
     1
 91
        1
 92
        3
 72
     0
 73
     1
 93
        4
 10
394.2845430459638
 20
-8982.190862088562
 10
395.1178770448823
 20
-8982.190862088562
 10
395.1178770448823
 20
-8979.931140088516
 10
394.2845430459638
 20
-8979.931140088516
 97
        0
 75
     0
 76
     1
 98
        0
  0
LWPOLYLINE
  5
2D6
330
1F
100
AcDbEntity
  8
Ech.1_5
 62
     7
370
     9
100
AcDbPolyline
 90
        5
 70
     0
 43
0.0
 10
394.2845430459638
 20
-8982.190862088562
 10
395.1178770448823
 20
-8982.190862088562
 10
395.1178770448823
 20
-8979.931140088516
 10
394.2845430459638
 20
-8979.931140088516
 10
394.2845430459638
 20
-8982.190862088562
  0
HATCH
  5
2D7
330
1F
100
AcDbEntity
  8
Ech.1_5
 62
   252
440
 33554687
370
     5
100
AcDbHatch
 10
0.0
 20
0.0
 30
0.0
210
0.0
220
0.0
230
1.0
  2
SOLID
 70
     1
 71
     1
 91
        1
 92
        3
 72
     0
 73
     1
 93
        4
 10
395.1178770448823
 20
-8982.190862088562
 10
395.9512110438027
 20
-8982.190862088562
 10
395.9512110438009
 20
-8979.931140088516
 10
395.1178770448823
 20
-8979.931140088516
 97
        0
 75
     0
 76
     1
 98
        0
  0
LWPOLYLINE
  5
2D8
330
1F
100
AcDbEntity
  8
Ech.1_5
 62
     7
370
     9
100
AcDbPolyline
 90
        5
 70
     0
 43
0.0
 10
395.1178770448823
 20
-8982.190862088562
 10
395.9512110438027
 20
-8982.190862088562
 10
395.9512110438009
 20
-8979.931140088516
 10
395.1178770448823
 20
-8979.931140088516
 10
395.1178770448823
 20
-8982.190862088562
  0
HATCH
  5
2D9
330
1F
100
AcDbEntity
  8
Ech.1_5
 62
   252
440
 33554687
370
     5
100
AcDbHatch
 10
0.0
 20
0.0
 30
0.0
210
0.0
220
0.0
230
1.0
  2
SOLID
 70
     1
 71
     1
 91
        1
 92
        3
 72
     0
 73
     1
 93
        4
 10
395.9512110438027
 20
-8982.190862088562
 10
396.7845450427194
 20
-8982.190862088562
 10
396.7845450427194
 20
-8979.931140088516
 10
395.9512110438009
 20
-8979.931140088516
 97
        0
 75
     0
 76
     1
 98
        0
  0
LWPOLYLINE
  5
2DA
330
1F
100
AcDbEntity
  8
Ech.1_5
 62
     7
370
     9
100
AcDbPolyline
 90
        5
 70
     0
 43
0.0
 10
395.9512110438027
 20
-8982.190862088562
 10
396.7845450427194
 20
-8982.190862088562
 10
396.7845450427194
 20
-8979.931140088516
 10
395.9512110438009
 20
-8979.931140088516
 10
395.9512110438027
 20
-8982.190862088562
  0
HATCH
  5
2DB
330
1F
100
AcDbEntity
  8
Ech.1_5
 62
   252
440
 33554687
370
     5
100
AcDbHatch
 10
0.0
 20
0.0
 30
0.0
210
0.0
220
0.0
230
1.0
  2
SOLID
 70
     1
 71
     1
 91
        1
 92
        3
 72
     0
 73
     1
 93
        4
 10
396.7845430459638
 20
-8982.190862088562
 10
397.6178770448823
 20
-8982.190862088562
 10
397.6178770448823
 20
-8979.931140088516
 10
396.7845430459638
 20
-8979.931140088516
 97
        0
 75
     0
 76
     1
 98
        0
  0
LWPOLYLINE
  5
2DC
330
1F
100
AcDbEntity
  8
Ech.1_5
 62
     7
370
     9
100
AcDbPolyline
 90
        5
 70
     0
 43
0.0
 10
396.7845430459638
 20
-8982.190862088562
 10
397.6178770448823
 20
-8982.190862088562
 10
397.6178770448823
 20
-8979.931140088516
 10
396.7845430459638
 20
-8979.931140088516
 10
396.7845430459638
 20
-8982.190862088562
  0
HATCH
  5
2DD
330
1F
100
AcDbEntity
  8
Ech.1_5
 62
   252
440
 33554687
370
     5
100
AcDbHatch
 10
0.0
 20
0.0
 30
0.0
210
0.0
220
0.0
230
1.0
  2
SOLID
 70
     1
 71
     1
 91
        1
 92
        3
 72
     0
 73
     1
 93
        4
 10
397.6178760465045
 20
-8982.190862088562
 10
398.4512100454231
 20
-8982.190862088562
 10
398.4512100454231
 20
-8979.931140088516
 10
397.6178760465045
 20
-8979.931140088516
 97
        0
 75
     0
 76
     1
 98
        0
  0
LWPOLYLINE
  5
2DE
330
1F
100
AcDbEntity
  8
Ech.1_5
 62
     7
370
     9
100
AcDbPolyline
 90
        5
 70
     0
 43
0.0
 10
397.6178760465045
 20
-8982.190862088562
 10
398.4512100454231
 20
-8982.190862088562
 10
398.4512100454231
 20
-8979.931140088516
 10
397.6178760465045
 20
-8979.931140088516
 10
397.6178760465045
 20
-8982.190862088562
  0
HATCH
  5
2DF
330
1F
100
AcDbEntity
  8
Ech.1_5
 62
   252
440
 33554687
370
     5
100
AcDbHatch
 10
0.0
 20
0.0
 30
0.0
210
0.0
220
0.0
230
1.0
  2
SOLID
 70
     1
 71
     1
 91
        1
 92
        3
 72
     0
 73
     1
 93
        4
 10
398.4512100454231
 20
-8982.190862088562
 10
399.2845440443416
 20
-8982.190862088562
 10
399.2845440443416
 20
-8979.931140088516
 10
398.4512100454231
 20
-8979.931140088516
 97
        0
 75
     0
 76
     1
 98
        0
  0
LWPOLYLINE
  5
2E0
330
1F
100
AcDbEntity
  8
Ech.1_5
 62
     7
370
     9
100
AcDbPolyline
 90
        5
 70
     0
 43
0.0
 10
398.4512100454231
 20
-8982.190862088562
 10
399.2845440443416
 20
-8982.190862088562
 10
399.2845440443416
 20
-8979.931140088516
 10
398.4512100454231
 20
-8979.931140088516
 10
398.4512100454231
 20
-8982.190862088562
  0
HATCH
  5
2E1
330
1F
100
AcDbEntity
  8
Ech.1_5
 62
   252
440
 33554687
370
     5
100
AcDbHatch
 10
0.0
 20
0.0
 30
0.0
210
0.0
220
0.0
230
1.0
  2
SOLID
 70
     1
 71
     1
 91
        1
 92
        3
 72
     0
 73
     1
 93
        4
 10
399.2845430459638
 20
-8982.190862088562
 10
400.1178770448823
 20
-8982.190862088562
 10
400.1178770448823
 20
-8979.931140088516
 10
399.2845430459638
 20
-8979.931140088516
 97
        0
 75
     0
 76
     1
 98
        0
  0
LWPOLYLINE
  5
2E2
330
1F
100
AcDbEntity
  8
Ech.1_5
 62
     7
370
     9
100
AcDbPolyline
 90
        5
 70
     0
 43
0.0
 10
399.2845430459638
 20
-8982.190862088562
 10
400.1178770448823
 20
-8982.190862088562
 10
400.1178770448823
 20
-8979.931140088516
 10
399.2845430459638
 20
-8979.931140088516
 10
399.2845430459638
 20
-8982.190862088562
  0
HATCH
  5
2E3
330
1F
100
AcDbEntity
  8
Ech.1_5
 62
   252
440
 33554687
370
     5
100
AcDbHatch
 10
0.0
 20
0.0
 30
0.0
210
0.0
220
0.0
230
1.0
  2
SOLID
 70
     1
 71
     1
 91
        1
 92
        3
 72
     0
 73
     1
 93
        4
 10
400.1178770448823
 20
-8982.190862088562
 10
400.9512110438009
 20
-8982.190862088562
 10
400.9512110438009
 20
-8979.931140088516
 10
400.1178770448823
 20
-8979.931140088516
 97
        0
 75
     0
 76
     1
 98
        0
  0
LWPOLYLINE
  5
2E4
330
1F
100
AcDbEntity
  8
Ech.1_5
 62
     7
370
     9
100
AcDbPolyline
 90
        5
 70
     0
 43
0.0
 10
400.1178770448823
 20
-8982.190862088562
 10
400.9512110438009
 20
-8982.190862088562
 10
400.9512110438009
 20
-8979.931140088516
 10
400.1178770448823
 20
-8979.931140088516
 10
400.1178770448823
 20
-8982.190862088562
  0
HATCH
  5
2E5
330
1F
100
AcDbEntity
  8
Ech.1_5
 62
   252
440
 33554687
370
     5
100
AcDbHatch
 10
0.0
 20
0.0
 30
0.0
210
0.0
220
0.0
230
1.0
  2
SOLID
 70
     1
 71
     1
 91
        1
 92
        3
 72
     0
 73
     1
 93
        4
 10
400.9512090470453
 20
-8982.190862088562
 10
401.7845430459638
 20
-8982.190862088562
 10
401.7845430459638
 20
-8979.931140088516
 10
400.9512090470453
 20
-8979.931140088516
 97
        0
 75
     0
 76
     1
 98
        0
  0
LWPOLYLINE
  5
2E6
330
1F
100
AcDbEntity
  8
Ech.1_5
 62
     7
370
     9
100
AcDbPolyline
 90
        5
 70
     0
 43
0.0
 10
400.9512090470453
 20
-8982.190862088562
 10
401.7845430459638
 20
-8982.190862088562
 10
401.7845430459638
 20
-8979.931140088516
 10
400.9512090470453
 20
-8979.931140088516
 10
400.9512090470453
 20
-8982.190862088562
  0
HATCH
  5
2E7
330
1F
100
AcDbEntity
  8
Ech.1_5
 62
   252
440
 33554687
370
     5
100
AcDbHatch
 10
0.0
 20
0.0
 30
0.0
210
0.0
220
0.0
230
1.0
  2
SOLID
 70
     1
 71
     1
 91
        1
 92
        3
 72
     0
 73
     1
 93
        4
 10
401.7845410492082
 20
-8982.190862088562
 10
402.6178750481267
 20
-8982.190862088562
 10
402.6178750481267
 20
-8979.931140088516
 10
401.7845410492082
 20
-8979.931140088516
 97
        0
 75
     0
 76
     1
 98
        0
  0
LWPOLYLINE
  5
2E8
330
1F
100
AcDbEntity
  8
Ech.1_5
 62
     7
370
     9
100
AcDbPolyline
 90
        5
 70
     0
 43
0.0
 10
401.7845410492082
 20
-8982.190862088562
 10
402.6178750481267
 20
-8982.190862088562
 10
402.6178750481267
 20
-8979.931140088516
 10
401.7845410492082
 20
-8979.931140088516
 10
401.7845410492082
 20
-8982.190862088562
  0
HATCH
  5
2E9
330
1F
100
AcDbEntity
  8
Ech.1_5
 62
   252
440
 33554687
370
     5
100
AcDbHatch
 10
0.0
 20
0.0
 30
0.0
210
0.0
220
0.0
230
1.0
  2
SOLID
 70
     1
 71
     1
 91
        1
 92
        3
 72
     0
 73
     1
 93
        4
 10
402.6178750481267
 20
-8982.190862088562
 10
403.4512090470453
 20
-8982.190862088562
 10
403.4512090470453
 20
-8979.931140088516
 10
402.6178750481267
 20
-8979.931140088516
 97
        0
 75
     0
 76
     1
 98
        0
  0
LWPOLYLINE
  5
2EA
330
1F
100
AcDbEntity
  8
Ech.1_5
 62
     7
370
     9
100
AcDbPolyline
 90
        5
 70
     0
 43
0.0
 10
402.6178750481267
 20
-8982.190862088562
 10
403.4512090470453
 20
-8982.190862088562
 10
403.4512090470453
 20
-8979.931140088516
 10
402.6178750481267
 20
-8979.931140088516
 10
402.6178750481267
 20
-8982.190862088562
  0
HATCH
  5
2EB
330
1F
100
AcDbEntity
  8
Ech.1_5
 62
   252
440
 33554687
370
     5
100
AcDbHatch
 10
0.0
 20
0.0
 30
0.0
210
0.0
220
0.0
230
1.0
  2
SOLID
 70
     1
 71
     1
 91
        1
 92
        3
 72
     0
 73
     1
 93
        4
 10
403.4512090470453
 20
-8982.190862088562
 10
404.2845430459638
 20
-8982.190862088562
 10
404.2845430459638
 20
-8979.931140088516
 10
403.4512090470453
 20
-8979.931140088516
 97
        0
 75
     0
 76
     1
 98
        0
  0
LWPOLYLINE
  5
2EC
330
1F
100
AcDbEntity
  8
Ech.1_5
 62
     7
370
     9
100
AcDbPolyline
 90
        5
 70
     0
 43
0.0
 10
403.4512090470453
 20
-8982.190862088562
 10
404.2845430459638
 20
-8982.190862088562
 10
404.2845430459638
 20
-8979.931140088516
 10
403.4512090470453
 20
-8979.931140088516
 10
403.4512090470453
 20
-8982.190862088562
  0
HATCH
  5
2ED
330
1F
100
AcDbEntity
  8
Ech.1_5
 62
   252
440
 33554687
370
     5
100
AcDbHatch
 10
0.0
 20
0.0
 30
0.0
210
0.0
220
0.0
230
1.0
  2
SOLID
 70
     1
 71
     1
 91
        1
 92
        3
 72
     0
 73
     1
 93
        4
 10
404.2845430459638
 20
-8982.190862088562
 10
405.1178770448823
 20
-8982.190862088562
 10
405.1178770448823
 20
-8979.931140088516
 10
404.2845430459638
 20
-8979.931140088516
 97
        0
 75
     0
 76
     1
 98
        0
  0
LWPOLYLINE
  5
2EE
330
1F
100
AcDbEntity
  8
Ech.1_5
 62
     7
370
     9
100
AcDbPolyline
 90
        5
 70
     0
 43
0.0
 10
404.2845430459638
 20
-8982.190862088562
 10
405.1178770448823
 20
-8982.190862088562
 10
405.1178770448823
 20
-8979.931140088516
 10
404.2845430459638
 20
-8979.931140088516
 10
404.2845430459638
 20
-8982.190862088562
  0
HATCH
  5
2EF
330
1F
100
AcDbEntity
  8
Ech.1_5
 62
   252
440
 33554687
370
     5
100
AcDbHatch
 10
0.0
 20
0.0
 30
0.0
210
0.0
220
0.0
230
1.0
  2
SOLID
 70
     1
 71
     1
 91
        1
 92
        3
 72
     0
 73
     1
 93
        4
 10
405.1178750481267
 20
-8982.190862088562
 10
405.9512090470453
 20
-8982.190862088562
 10
405.9512090470453
 20
-8979.931140088516
 10
405.1178750481267
 20
-8979.931140088516
 97
        0
 75
     0
 76
     1
 98
        0
  0
LWPOLYLINE
  5
2F0
330
1F
100
AcDbEntity
  8
Ech.1_5
 62
     7
370
     9
100
AcDbPolyline
 90
        5
 70
     0
 43
0.0
 10
405.1178750481267
 20
-8982.190862088562
 10
405.9512090470453
 20
-8982.190862088562
 10
405.9512090470453
 20
-8979.931140088516
 10
405.1178750481267
 20
-8979.931140088516
 10
405.1178750481267
 20
-8982.190862088562
  0
HATCH
  5
2F1
330
1F
100
AcDbEntity
  8
Ech.1_5
 62
   252
440
 33554687
370
     5
100
AcDbHatch
 10
0.0
 20
0.0
 30
0.0
210
0.0
220
0.0
230
1.0
  2
SOLID
 70
     1
 71
     1
 91
        1
 92
        3
 72
     0
 73
     1
 93
        4
 10
405.9512080486675
 20
-8982.190862088562
 10
406.784542047586
 20
-8982.190862088562
 10
406.784542047586
 20
-8979.931140088516
 10
405.9512080486675
 20
-8979.931140088516
 97
        0
 75
     0
 76
     1
 98
        0
  0
LWPOLYLINE
  5
2F2
330
1F
100
AcDbEntity
  8
Ech.1_5
 62
     7
370
     9
100
AcDbPolyline
 90
        5
 70
     0
 43
0.0
 10
405.9512080486675
 20
-8982.190862088562
 10
406.784542047586
 20
-8982.190862088562
 10
406.784542047586
 20
-8979.931140088516
 10
405.9512080486675
 20
-8979.931140088516
 10
405.9512080486675
 20
-8982.190862088562
  0
HATCH
  5
2F3
330
1F
100
AcDbEntity
  8
Ech.1_5
 62
   252
440
 33554687
370
     5
100
AcDbHatch
 10
0.0
 20
0.0
 30
0.0
210
0.0
220
0.0
230
1.0
  2
SOLID
 70
     1
 71
     1
 91
        1
 92
        3
 72
     0
 73
     1
 93
        4
 10
406.784542047586
 20
-8982.190862088562
 10
407.6178760465045
 20
-8982.190862088562
 10
407.6178760465045
 20
-8979.931140088516
 10
406.784542047586
 20
-8979.931140088516
 97
        0
 75
     0
 76
     1
 98
        0
  0
LWPOLYLINE
  5
2F4
330
1F
100
AcDbEntity
  8
Ech.1_5
 62
     7
370
     9
100
AcDbPolyline
 90
        5
 70
     0
 43
0.0
 10
406.784542047586
 20
-8982.190862088562
 10
407.6178760465045
 20
-8982.190862088562
 10
407.6178760465045
 20
-8979.931140088516
 10
406.784542047586
 20
-8979.931140088516
 10
406.784542047586
 20
-8982.190862088562
  0
HATCH
  5
2F5
330
1F
100
AcDbEntity
  8
Ech.1_5
 62
   252
440
 33554687
370
     5
100
AcDbHatch
 10
0.0
 20
0.0
 30
0.0
210
0.0
220
0.0
230
1.0
  2
SOLID
 70
     1
 71
     1
 91
        1
 92
        3
 72
     0
 73
     1
 93
        4
 10
407.6178750481267
 20
-8982.190862088562
 10
408.4512090470453
 20
-8982.190862088562
 10
408.4512090470453
 20
-8979.931140088516
 10
407.6178750481267
 20
-8979.931140088516
 97
        0
 75
     0
 76
     1
 98
        0
  0
LWPOLYLINE
  5
2F6
330
1F
100
AcDbEntity
  8
Ech.1_5
 62
     7
370
     9
100
AcDbPolyline
 90
        5
 70
     0
 43
0.0
 10
407.6178750481267
 20
-8982.190862088562
 10
408.4512090470453
 20
-8982.190862088562
 10
408.4512090470453
 20
-8979.931140088516
 10
407.6178750481267
 20
-8979.931140088516
 10
407.6178750481267
 20
-8982.190862088562
  0
HATCH
  5
2F7
330
1F
100
AcDbEntity
  8
Ech.1_5
 62
   252
440
 33554687
370
     5
100
AcDbHatch
 10
0.0
 20
0.0
 30
0.0
210
0.0
220
0.0
230
1.0
  2
SOLID
 70
     1
 71
     1
 91
        1
 92
        3
 72
     0
 73
     1
 93
        4
 10
408.4512090470453
 20
-8982.190862088562
 10
409.2845430459638
 20
-8982.190862088562
 10
409.2845430459638
 20
-8979.931140088516
 10
408.4512090470453
 20
-8979.931140088516
 97
        0
 75
     0
 76
     1
 98
        0
  0
LWPOLYLINE
  5
2F8
330
1F
100
AcDbEntity
  8
Ech.1_5
 62
     7
370
     9
100
AcDbPolyline
 90
        5
 70
     0
 43
0.0
 10
408.4512090470453
 20
-8982.190862088562
 10
409.2845430459638
 20
-8982.190862088562
 10
409.2845430459638
 20
-8979.931140088516
 10
408.4512090470453
 20
-8979.931140088516
 10
408.4512090470453
 20
-8982.190862088562
  0
HATCH
  5
2F9
330
1F
100
AcDbEntity
  8
Ech.1_5
 62
   252
440
 33554687
370
     5
100
AcDbHatch
 10
0.0
 20
0.0
 30
0.0
210
0.0
220
0.0
230
1.0
  2
SOLID
 70
     1
 71
     1
 91
        1
 92
        3
 72
     0
 73
     1
 93
        4
 10
409.2845410492082
 20
-8982.190862088562
 10
410.1178750481267
 20
-8982.190862088562
 10
410.1178750481267
 20
-8979.931140088516
 10
409.2845410492082
 20
-8979.931140088516
 97
        0
 75
     0
 76
     1
 98
        0
  0
LWPOLYLINE
  5
2FA
330
1F
100
AcDbEntity
  8
Ech.1_5
 62
     7
370
     9
100
AcDbPolyline
 90
        5
 70
     0
 43
0.0
 10
409.2845410492082
 20
-8982.190862088562
 10
410.1178750481267
 20
-8982.190862088562
 10
410.1178750481267
 20
-8979.931140088516
 10
409.2845410492082
 20
-8979.931140088516
 10
409.2845410492082
 20
-8982.190862088562
  0
HATCH
  5
2FB
330
1F
100
AcDbEntity
  8
Ech.1_5
 62
   252
440
 33554687
370
     5
100
AcDbHatch
 10
0.0
 20
0.0
 30
0.0
210
0.0
220
0.0
230
1.0
  2
SOLID
 70
     1
 71
     1
 91
        1
 92
        3
 72
     0
 73
     1
 93
        4
 10
410.1178750481267
 20
-8982.190862088562
 10
410.9512090470453
 20
-8982.190862088562
 10
410.9512090470453
 20
-8979.931140088516
 10
410.1178750481267
 20
-8979.931140088516
 97
        0
 75
     0
 76
     1
 98
        0
  0
LWPOLYLINE
  5
2FC
330
1F
100
AcDbEntity
  8
Ech.1_5
 62
     7
370
     9
100
AcDbPolyline
 90
        5
 70
     0
 43
0.0
 10
410.1178750481267
 20
-8982.190862088562
 10
410.9512090470453
 20
-8982.190862088562
 10
410.9512090470453
 20
-8979.931140088516
 10
410.1178750481267
 20
-8979.931140088516
 10
410.1178750481267
 20
-8982.190862088562
  0
HATCH
  5
2FD
330
1F
100
AcDbEntity
  8
Ech.1_5
 62
   252
440
 33554687
370
     5
100
AcDbHatch
 10
0.0
 20
0.0
 30
0.0
210
0.0
220
0.0
230
1.0
  2
SOLID
 70
     1
 71
     1
 91
        1
 92
        3
 72
     0
 73
     1
 93
        4
 10
410.9512090470453
 20
-8982.190862088562
 10
411.7845430459638
 20
-8982.190862088562
 10
411.7845430459638
 20
-8979.931140088516
 10
410.9512090470453
 20
-8979.931140088516
 97
        0
 75
     0
 76
     1
 98
        0
  0
LWPOLYLINE
  5
2FE
330
1F
100
AcDbEntity
  8
Ech.1_5
 62
     7
370
     9
100
AcDbPolyline
 90
        5
 70
     0
 43
0.0
 10
410.9512090470453
 20
-8982.190862088562
 10
411.7845430459638
 20
-8982.190862088562
 10
411.7845430459638
 20
-8979.931140088516
 10
410.9512090470453
 20
-8979.931140088516
 10
410.9512090470453
 20
-8982.190862088562
  0
HATCH
  5
2FF
330
1F
100
AcDbEntity
  8
Ech.1_5
 62
   252
440
 33554687
370
     5
100
AcDbHatch
 10
0.0
 20
0.0
 30
0.0
210
0.0
220
0.0
230
1.0
  2
SOLID
 70
     1
 71
     1
 91
        1
 92
        3
 72
     0
 73
     1
 93
        4
 10
411.7845430459638
 20
-8982.190862088562
 10
412.6178770448823
 20
-8982.190862088562
 10
412.6178770448823
 20
-8979.931140088516
 10
411.7845430459638
 20
-8979.931140088516
 97
        0
 75
     0
 76
     1
 98
        0
  0
LWPOLYLINE
  5
300
330
1F
100
AcDbEntity
  8
Ech.1_5
 62
     7
370
     9
100
AcDbPolyline
 90
        5
 70
     0
 43
0.0
 10
411.7845430459638
 20
-8982.190862088562
 10
412.6178770448823
 20
-8982.190862088562
 10
412.6178770448823
 20
-8979.931140088516
 10
411.7845430459638
 20
-8979.931140088516
 10
411.7845430459638
 20
-8982.190862088562
  0
HATCH
  5
301
330
1F
100
AcDbEntity
  8
Ech.1_5
 62
   252
440
 33554687
370
     5
100
AcDbHatch
 10
0.0
 20
0.0
 30
0.0
210
0.0
220
0.0
230
1.0
  2
SOLID
 70
     1
 71
     1
 91
        1
 92
        3
 72
     1
 73
     1
 93
        4
 10
417.3169590466314
 20
-8979.931140088516
 42
0.0
 10
415.9512070502897
 20
-8979.931140088516
 42
0.0
 10
415.9512070502897
 20
-8982.190862088562
 42
0.0
 10
417.3169590466314
 20
-8982.190862088562
 42
-0.3513591548518968
 97
        0
 75
     0
 76
     1
 98
        0
  0
LWPOLYLINE
  5
302
330
1F
100
AcDbEntity
  8
Ech.1_5
 62
     7
370
     9
100
AcDbPolyline
 90
        5
 70
     0
 43
0.0
 10
417.3169590466314
 20
-8979.931140088516
 10
415.9512070502897
 20
-8979.931140088516
 10
415.9512070502897
 20
-8982.190862088562
 10
417.3169590466314
 20
-8982.190862088562
 42
-0.3513591548518972
 10
417.3169590466314
 20
-8979.931140088516
  0
HATCH
  5
303
330
1F
100
AcDbEntity
  8
Ech.1_5
 62
   252
440
 33554687
370
     5
100
AcDbHatch
 10
0.0
 20
0.0
 30
0.0
210
0.0
220
0.0
230
1.0
  2
SOLID
 70
     1
 71
     1
 91
        1
 92
        3
 72
     1
 73
     1
 93
        3
 10
419.9789860480123
 20
-8981.06100108851
 42
0.0
 10
417.3169590466314
 20
-8979.931140088516
 42
0.3513591548518968
 10
417.3169590466314
 20
-8982.190862088562
 42
0.0
 97
        0
 75
     0
 76
     1
 98
        0
  0
LWPOLYLINE
  5
304
330
1F
100
AcDbEntity
  8
Ech.1_5
 62
     7
370
     9
100
AcDbPolyline
 90
        4
 70
     0
 43
0.0
 10
419.9789860480123
 20
-8981.06100108851
 10
417.3169590466314
 20
-8979.931140088516
 42
0.3513591548518956
 10
417.3169590466314
 20
-8982.190862088562
 10
419.9789860480123
 20
-8981.06100108851
  0
HATCH
  5
305
330
1F
100
AcDbEntity
  8
Ech.1_5
 62
   252
440
 33554687
370
     5
100
AcDbHatch
 10
0.0
 20
0.0
 30
0.0
210
0.0
220
0.0
230
1.0
  2
SOLID
 70
     1
 71
     1
 91
        1
 92
        3
 72
     1
 73
     1
 93
        6
 10
376.7845410492082
 20
-8982.190862088555
 42
0.0
 10
375.0345420472913
 20
-8982.190862088562
 42
0.4142135727490664
 10
374.4789860480123
 20
-8982.74641808854
 42
0.0
 10
374.4789860480123
 20
-8979.375584088473
 42
0.4142135726679704
 10
375.0345420472913
 20
-8979.931140088516
 42
0.0
 10
376.7845410492082
 20
-8979.931140088516
 42
0.0
 97
        0
 75
     0
 76
     1
 98
        0
  0
LWPOLYLINE
  5
306
330
1F
100
AcDbEntity
  8
Ech.1_5
 62
     7
370
     9
100
AcDbPolyline
 90
        7
 70
     0
 43
0.0
 10
376.7845410492082
 20
-8982.190862088555
 10
375.0345420472913
 20
-8982.190862088562
 42
0.4142135727497837
 10
374.4789860480123
 20
-8982.74641808854
 10
374.4789860480123
 20
-8979.375584088473
 42
0.414213572666436
 10
375.0345420472913
 20
-8979.931140088516
 10
376.7845410492082
 20
-8979.931140088516
 10
376.7845410492082
 20
-8982.190862088555
  0
HATCH
  5
307
330
1F
100
AcDbEntity
  8
Ech.1_5
 62
   252
440
 33554687
370
     5
100
AcDbHatch
 10
0.0
 20
0.0
 30
0.0
210
0.0
220
0.0
230
1.0
  2
SOLID
 70
     1
 71
     1
 91
        1
 92
        1
 93
        2
 72
     1
 10
374.1734310471111
 20
-8983.579751114925
 11
374.1734310471111
 21
-8978.542251062154
 72
     2
 10
386.7366344379354
 20
-8981.06100108854
 40
12.81320339082451
 50
168.6632793503046
 51
191.3367206496955
 73
     1
 97
        0
 75
     0
 76
     1
 98
        0
  0
LWPOLYLINE
  5
308
330
1F
100
AcDbEntity
  8
Ech.1_5
 62
     7
370
     9
100
AcDbPolyline
 90
        3
 70
     0
 43
0.0
 10
374.1734310471111
 20
-8983.579751114925
 10
374.1734310471111
 20
-8978.542251062154
 42
0.0992555820868614
 10
374.1734310471111
 20
-8983.579751114925
  0
HATCH
  5
309
330
1F
100
AcDbEntity
  8
Ech.1_5
 62
   252
440
 33554687
370
     5
100
AcDbHatch
 10
0.0
 20
0.0
 30
0.0
210
0.0
220
0.0
230
1.0
  2
SOLID
 70
     1
 71
     1
 91
        1
 92
        3
 72
     0
 73
     1
 93
        6
 10
374.4789860480123
 20
-8983.579751088499
 10
374.4789860480123
 20
-8982.74641808854
 10
374.4789860480123
 20
-8979.375584088473
 10
374.4789860480141
 20
-8978.542251088522
 10
374.1734310471111
 20
-8978.542251062154
 10
374.1734310471111
 20
-8983.579751114925
 97
        0
 75
     0
 76
     1
 98
        0
  0
LWPOLYLINE
  5
30A
330
1F
100
AcDbEntity
  8
Ech.1_5
 62
     7
370
     9
100
AcDbPolyline
 90
        7
 70
     0
 43
0.0
 10
374.4789860480123
 20
-8983.579751088499
 10
374.4789860480123
 20
-8982.74641808854
 10
374.4789860480123
 20
-8979.375584088473
 10
374.4789860480141
 20
-8978.542251088522
 10
374.1734310471111
 20
-8978.542251062154
 10
374.1734310471111
 20
-8983.579751114925
 10
374.4789860480123
 20
-8983.579751088499
  0
HATCH
  5
30B
330
1F
100
AcDbEntity
  8
Ech.1_5
 62
   252
440
 33554687
370
     5
100
AcDbHatch
 10
0.0
 20
0.0
 30
0.0
210
0.0
220
0.0
230
1.0
  2
SOLID
 70
     1
 71
     1
 91
        1
 92
        3
 72
     0
 73
     1
 93
        4
 10
412.6178770448823
 20
-8982.190862088562
 10
413.4512110438009
 20
-8982.190862088562
 10
413.4512110438009
 20
-8979.931140088516
 10
412.6178770448823
 20
-8979.931140088516
 97
        0
 75
     0
 76
     1
 98
        0
  0
LWPOLYLINE
  5
30C
330
1F
100
AcDbEntity
  8
Ech.1_5
 62
     7
370
     9
100
AcDbPolyline
 90
        5
 70
     0
 43
0.0
 10
412.6178770448823
 20
-8982.190862088562
 10
413.4512110438009
 20
-8982.190862088562
 10
413.4512110438009
 20
-8979.931140088516
 10
412.6178770448823
 20
-8979.931140088516
 10
412.6178770448823
 20
-8982.190862088562
  0
LINE
  5
30D
330
1F
100
AcDbEntity
  8
Ech.1_5
 62
   190
370
     9
100
AcDbLine
 10
414.2845410492082
 20
-8979.931140088516
 30
0.0
 11
414.2845410492082
 21
-8982.190862088562
 31
0.0
  0
LINE
  5
30E
330
1F
100
AcDbEntity
  8
Ech.1_5
 62
   190
370
     9
100
AcDbLine
 10
415.1178750481267
 20
-8979.931140088516
 30
0.0
 11
415.1178750481267
 21
-8982.190862088562
 31
0.0
  0
LINE
  5
30F
330
1F
100
AcDbEntity
  8
Ech.1_5
 62
   190
370
     9
100
AcDbLine
 10
415.9512070502897
 20
-8979.931140088516
 30
0.0
 11
415.9512070502897
 21
-8982.190862088562
 31
0.0
  0
LINE
  5
310
330
1F
100
AcDbEntity
  8
Ech.1_5
 62
   190
370
     9
100
AcDbLine
 10
413.4512090470453
 20
-8979.931140088516
 30
0.0
 11
413.4512090470453
 21
-8982.190862088562
 31
0.0
  0
HATCH
  5
311
330
1F
100
AcDbEntity
  8
Ech.1_5
 62
   252
440
 33554687
370
     5
100
AcDbHatch
 10
0.0
 20
0.0
 30
0.0
210
0.0
220
0.0
230
1.0
  2
SOLID
 70
     1
 71
     1
 91
        1
 92
        3
 72
     0
 73
     1
 93
        4
 10
413.4512070502897
 20
-8982.190862088562
 10
414.2845410492082
 20
-8982.190862088562
 10
414.2845410492082
 20
-8979.931140088516
 10
413.4512070502897
 20
-8979.931140088516
 97
        0
 75
     0
 76
     1
 98
        0
  0
LWPOLYLINE
  5
312
330
1F
100
AcDbEntity
  8
Ech.1_5
 62
     7
370
     9
100
AcDbPolyline
 90
        5
 70
     0
 43
0.0
 10
413.4512070502897
 20
-8982.190862088562
 10
414.2845410492082
 20
-8982.190862088562
 10
414.2845410492082
 20
-8979.931140088516
 10
413.4512070502897
 20
-8979.931140088516
 10
413.4512070502897
 20
-8982.190862088562
  0
HATCH
  5
313
330
1F
100
AcDbEntity
  8
Ech.1_5
 62
   252
440
 33554687
370
     5
100
AcDbHatch
 10
0.0
 20
0.0
 30
0.0
210
0.0
220
0.0
230
1.0
  2
SOLID
 70
     1
 71
     1
 91
        1
 92
        3
 72
     0
 73
     1
 93
        4
 10
415.1178730513711
 20
-8982.190862088562
 10
415.9512070502897
 20
-8982.190862088562
 10
415.9512070502897
 20
-8979.931140088516
 10
415.1178730513711
 20
-8979.931140088516
 97
        0
 75
     0
 76
     1
 98
        0
  0
LWPOLYLINE
  5
314
330
1F
100
AcDbEntity
  8
Ech.1_5
 62
     7
370
     9
100
AcDbPolyline
 90
        5
 70
     0
 43
0.0
 10
415.1178730513711
 20
-8982.190862088562
 10
415.9512070502897
 20
-8982.190862088562
 10
415.9512070502897
 20
-8979.931140088516
 10
415.1178730513711
 20
-8979.931140088516
 10
415.1178730513711
 20
-8982.190862088562
  0
HATCH
  5
315
330
1F
100
AcDbEntity
  8
Ech.1_5
 62
    35
420
  9529928
440
 33554687
370
    20
100
AcDbHatch
 10
0.0
 20
0.0
 30
0.0
210
0.0
220
0.0
230
1.0
  2
SOLID
 70
     1
 71
     1
 91
        1
 92
        3
 72
     0
 73
     1
 93
        4
 10
449.0916282637518
 20
-9091.560249843613
 10
422.0916282637518
 20
-9091.560249843613
 10
422.0916282636917
 20
-9447.782875111789
 10
449.0916282637554
 20
-9447.782875111789
 97
        0
 75
     0
 76
     1
 98
        0
  0
LWPOLYLINE
  5
316
330
1F
100
AcDbEntity
  8
Ech.1_5
 62
   190
370
    20
100
AcDbPolyline
 90
        5
 70
     0
 43
0.0
 10
449.0916282637518
 20
-9091.560249843613
 10
422.0916282637518
 20
-9091.560249843613
 10
422.0916282636917
 20
-9447.782875111789
 10
449.0916282637554
 20
-9447.782875111789
 10
449.0916282637518
 20
-9091.560249843613
  0
LWPOLYLINE
  5
317
330
1F
100
AcDbEntity
  8
Ech.1_5
 62
     7
370
    20
100
AcDbPolyline
 90
        3
 70
     0
 43
0.0
 10
449.0916282637518
 20
-9091.560249843613
 10
422.0916282637518
 20
-9091.560249843613
 10
422.0916282637518
 20
-9447.782875111789
  0
HATCH
  5
318
330
1F
100
AcDbEntity
  8
Ech.1_5
 62
    17
420
  8405056
440
 33554687
370
    20
100
AcDbHatch
 10
0.0
 20
0.0
 30
0.0
210
0.0
220
0.0
230
1.0
  2
SOLID
 70
     1
 71
     1
 91
        1
 92
        3
 72
     0
 73
     1
 93
        4
 10
395.0916282637518
 20
-9091.560249843613
 10
375.0345420472913
 20
-9091.560249843613
 10
375.0345420472913
 20
-9447.782875111789
 10
395.0414726104173
 20
-9447.782875111789
 97
        0
 75
     0
 76
     1
 98
        0
  0
LWPOLYLINE
  5
319
330
1F
100
AcDbEntity
  8
Ech.1_5
 62
     7
370
    20
100
AcDbPolyline
 90
        5
 70
     0
 43
0.0
 10
395.0916282637518
 20
-9091.560249843613
 10
375.0345420472913
 20
-9091.560249843613
 10
375.0345420472913
 20
-9447.782875111789
 10
395.0414726104173
 20
-9447.782875111789
 10
395.0916282637518
 20
-9091.560249843613
  0
HATCH
  5
31A
330
1F
100
AcDbEntity
  8
Ech.1_5
 62
    35
420
  9529928
440
 33554687
370
    20
100
AcDbHatch
 10
0.0
 20
0.0
 30
0.0
210
0.0
220
0.0
230
1.0
  2
SOLID
 70
     1
 71
     1
 91
        1
 92
        3
 72
     0
 73
     1
 93
        4
 10
395.0916282637536
 20
-9131.560250320745
 10
395.0916282637536
 20
-9091.560249843613
 10
422.0916282637536
 20
-9091.560249843613
 10
422.0916282637536
 20
-9131.560249843613
 97
        0
 75
     0
 76
     1
 98
        0
  0
LWPOLYLINE
  5
31B
330
1F
100
AcDbEntity
  8
Ech.1_5
 62
   190
370
    20
100
AcDbPolyline
 90
        5
 70
     0
 43
0.0
 10
395.0916282637536
 20
-9131.560250320745
 10
395.0916282637536
 20
-9091.560249843613
 10
422.0916282637536
 20
-9091.560249843613
 10
422.0916282637536
 20
-9131.560249843613
 10
395.0916282637536
 20
-9131.560250320745
  0
LWPOLYLINE
  5
31C
330
1F
100
AcDbEntity
  8
Ech.1_5
 62
   190
370
    20
100
AcDbPolyline
 90
        4
 70
     0
 43
0.0
 10
422.0916282637536
 20
-9131.560249843613
 10
395.0916282637536
 20
-9091.560249843613
 10
422.0916282637536
 20
-9091.560249843613
 10
395.0916282637536
 20
-9131.560137009561
  0
LWPOLYLINE
  5
31D
330
1F
100
AcDbEntity
  8
Ech.1_5
 62
     5
370
    20
100
AcDbPolyline
 90
        5
 70
     0
 43
0.0
 10
395.0916282637536
 20
-9131.560137009561
 10
395.0916282637536
 20
-9091.560249843613
 10
422.0916282637536
 20
-9091.560249843613
 10
422.0916282637536
 20
-9131.560249843613
 10
395.0916282637536
 20
-9131.560137009561
  0
LWPOLYLINE
  5
31E
330
1F
100
AcDbEntity
  8
Ech.1_5
 62
     7
370
    20
100
AcDbPolyline
 90
        4
 70
     0
 43
0.0
 10
375.0345420472913
 20
-9447.782875111789
 10
375.0345420472913
 20
-9091.560249843613
 10
395.0916282637518
 20
-9091.560249843613
 10
395.0414726104173
 20
-9447.782875111789
  0
LINE
  5
31F
330
1F
100
AcDbEntity
  8
Ech.1_5
 62
   190
370
     9
100
AcDbLine
 10
374.4789860480159
 20
-9114.078999843601
 30
0.0
 11
374.1734310471129
 21
-9114.078999843601
 31
0.0
  0
LINE
  5
320
330
1F
100
AcDbEntity
  8
Ech.1_5
 62
   190
370
     9
100
AcDbLine
 10
374.1734310471129
 20
-9114.078999843601
 30
0.0
 11
374.1734310471129
 21
-9109.041499843624
 31
0.0
  0
LINE
  5
321
330
1F
100
AcDbEntity
  8
Ech.1_5
 62
   190
370
     9
100
AcDbLine
 10
374.4789860480141
 20
-9109.041499843624
 30
0.0
 11
374.1734310471129
 21
-9109.041499843624
 31
0.0
  0
HATCH
  5
322
330
1F
100
AcDbEntity
  8
Ech.1_5
 62
   252
440
 33554687
370
     5
100
AcDbHatch
 10
0.0
 20
0.0
 30
0.0
210
0.0
220
0.0
230
1.0
  2
SOLID
 70
     1
 71
     1
 91
        1
 92
        3
 72
     0
 73
     1
 93
        4
 10
414.28454104921
 20
-9110.43038884356
 10
415.1178750481286
 20
-9110.43038884356
 10
415.1178750481286
 20
-9112.690110843607
 10
414.28454104921
 20
-9112.690110843607
 97
        0
 75
     0
 76
     1
 98
        0
  0
LWPOLYLINE
  5
323
330
1F
100
AcDbEntity
  8
Ech.1_5
 62
     7
370
     9
100
AcDbPolyline
 90
        5
 70
     0
 43
0.0
 10
414.28454104921
 20
-9110.43038884356
 10
415.1178750481286
 20
-9110.43038884356
 10
415.1178750481286
 20
-9112.690110843607
 10
414.28454104921
 20
-9112.690110843607
 10
414.28454104921
 20
-9110.43038884356
  0
LINE
  5
324
330
1F
100
AcDbEntity
  8
Ech.1_5
 62
   190
370
     9
100
AcDbLine
 10
417.3169590466332
 20
-9112.690110843607
 30
0.0
 11
375.0345420472931
 21
-9112.690110843607
 31
0.0
  0
LINE
  5
325
330
1F
100
AcDbEntity
  8
Ech.1_5
 62
   190
370
     9
100
AcDbLine
 10
417.3169590466332
 20
-9110.43038884356
 30
0.0
 11
375.0345420472931
 21
-9110.43038884356
 31
0.0
  0
ARC
  5
326
330
1F
100
AcDbEntity
  8
Ech.1_5
 62
   190
370
     9
100
AcDbCircle
 10
386.7366344379471
 20
-9111.560249843584
 30
0.0
 40
12.81320339083424
100
AcDbArc
 50
168.6632793503133
 51
191.3367206496867
  0
LINE
  5
327
330
1F
100
AcDbEntity
  8
Ech.1_5
 62
   190
370
     9
100
AcDbLine
 10
374.4789860480159
 20
-9114.078999843601
 30
0.0
 11
374.4789860480141
 21
-9113.24566684365
 31
0.0
  0
ARC
  5
328
330
1F
100
AcDbEntity
  8
Ech.1_5
 62
   190
370
     9
100
AcDbCircle
 10
375.034542037913
 20
-9113.245666833505
 30
0.0
 40
0.5555559898988739
100
AcDbArc
 50
89.99999903260536
 51
180.0000010462262
  0
LINE
  5
329
330
1F
100
AcDbEntity
  8
Ech.1_5
 62
   190
370
     9
100
AcDbLine
 10
374.4789860480141
 20
-9113.24566684365
 30
0.0
 11
374.4789860480141
 21
-9109.874832843583
 31
0.0
  0
ARC
  5
32A
330
1F
100
AcDbEntity
  8
Ech.1_5
 62
   190
370
     9
100
AcDbCircle
 10
375.0345420378012
 20
-9109.874832853773
 30
0.0
 40
0.5555559897870865
100
AcDbArc
 50
179.9999989490838
 51
270.000000978926
  0
LINE
  5
32B
330
1F
100
AcDbEntity
  8
Ech.1_5
 62
   190
370
     9
100
AcDbLine
 10
374.4789860480141
 20
-9109.041499843624
 30
0.0
 11
374.4789860480141
 21
-9109.874832843583
 31
0.0
  0
LINE
  5
32C
330
1F
100
AcDbEntity
  8
Ech.1_5
 62
   190
370
     9
100
AcDbLine
 10
385.1178750481286
 20
-9112.690110843607
 30
0.0
 11
385.1178750481286
 21
-9110.43038884356
 31
0.0
  0
LINE
  5
32D
330
1F
100
AcDbEntity
  8
Ech.1_5
 62
   190
370
     9
100
AcDbLine
 10
385.9512080486693
 20
-9112.690110843607
 30
0.0
 11
385.9512080486693
 21
-9110.43038884356
 31
0.0
  0
LINE
  5
32E
330
1F
100
AcDbEntity
  8
Ech.1_5
 62
   190
370
     9
100
AcDbLine
 10
382.6178750481286
 20
-9112.690110843607
 30
0.0
 11
382.6178750481286
 21
-9110.43038884356
 31
0.0
  0
LINE
  5
32F
330
1F
100
AcDbEntity
  8
Ech.1_5
 62
   190
370
     9
100
AcDbLine
 10
383.4512080486693
 20
-9112.690110843607
 30
0.0
 11
383.4512080486693
 21
-9110.43038884356
 31
0.0
  0
LINE
  5
330
330
1F
100
AcDbEntity
  8
Ech.1_5
 62
   190
370
     9
100
AcDbLine
 10
384.28454104921
 20
-9112.690110843607
 30
0.0
 11
384.28454104921
 21
-9110.43038884356
 31
0.0
  0
LINE
  5
331
330
1F
100
AcDbEntity
  8
Ech.1_5
 62
   190
370
     9
100
AcDbLine
 10
380.1178750481286
 20
-9112.690110843607
 30
0.0
 11
380.1178750481286
 21
-9110.43038884356
 31
0.0
  0
LINE
  5
332
330
1F
100
AcDbEntity
  8
Ech.1_5
 62
   190
370
     9
100
AcDbLine
 10
380.9512080486711
 20
-9112.690110843607
 30
0.0
 11
380.9512080486711
 21
-9110.43038884356
 31
0.0
  0
LINE
  5
333
330
1F
100
AcDbEntity
  8
Ech.1_5
 62
   190
370
     9
100
AcDbLine
 10
381.7845410492118
 20
-9112.690110843607
 30
0.0
 11
381.7845410492118
 21
-9110.43038884356
 31
0.0
  0
LINE
  5
334
330
1F
100
AcDbEntity
  8
Ech.1_5
 62
   190
370
     9
100
AcDbLine
 10
379.28454104921
 20
-9112.690110843607
 30
0.0
 11
379.28454104921
 21
-9110.43038884356
 31
0.0
  0
LINE
  5
335
330
1F
100
AcDbEntity
  8
Ech.1_5
 62
   190
370
     9
100
AcDbLine
 10
378.4512080486693
 20
-9112.690110843607
 30
0.0
 11
378.4512080486693
 21
-9110.43038884356
 31
0.0
  0
LINE
  5
336
330
1F
100
AcDbEntity
  8
Ech.1_5
 62
   190
370
     9
100
AcDbLine
 10
377.6178750481286
 20
-9112.690110843607
 30
0.0
 11
377.6178750481286
 21
-9110.43038884356
 31
0.0
  0
LINE
  5
337
330
1F
100
AcDbEntity
  8
Ech.1_5
 62
   190
370
     9
100
AcDbLine
 10
376.78454104921
 20
-9112.690110843607
 30
0.0
 11
376.78454104921
 21
-9110.430388843568
 31
0.0
  0
LINE
  5
338
330
1F
100
AcDbEntity
  8
Ech.1_5
 62
   190
370
     9
100
AcDbLine
 10
411.78454104921
 20
-9112.690110843607
 30
0.0
 11
411.78454104921
 21
-9110.43038884356
 31
0.0
  0
LINE
  5
339
330
1F
100
AcDbEntity
  8
Ech.1_5
 62
   190
370
     9
100
AcDbLine
 10
410.9512080486693
 20
-9112.690110843607
 30
0.0
 11
410.9512080486693
 21
-9110.43038884356
 31
0.0
  0
LINE
  5
33A
330
1F
100
AcDbEntity
  8
Ech.1_5
 62
   190
370
     9
100
AcDbLine
 10
412.6178750481286
 20
-9112.690110843607
 30
0.0
 11
412.6178750481286
 21
-9110.43038884356
 31
0.0
  0
LINE
  5
33B
330
1F
100
AcDbEntity
  8
Ech.1_5
 62
   190
370
     9
100
AcDbLine
 10
408.4512080486693
 20
-9112.690110843607
 30
0.0
 11
408.4512080486693
 21
-9110.43038884356
 31
0.0
  0
LINE
  5
33C
330
1F
100
AcDbEntity
  8
Ech.1_5
 62
   190
370
     9
100
AcDbLine
 10
409.28454104921
 20
-9112.690110843607
 30
0.0
 11
409.28454104921
 21
-9110.43038884356
 31
0.0
  0
LINE
  5
33D
330
1F
100
AcDbEntity
  8
Ech.1_5
 62
   190
370
     9
100
AcDbLine
 10
410.1178750481286
 20
-9112.690110843607
 30
0.0
 11
410.1178750481286
 21
-9110.43038884356
 31
0.0
  0
LINE
  5
33E
330
1F
100
AcDbEntity
  8
Ech.1_5
 62
   190
370
     9
100
AcDbLine
 10
405.9512080486693
 20
-9112.690110843607
 30
0.0
 11
405.9512080486693
 21
-9110.43038884356
 31
0.0
  0
LINE
  5
33F
330
1F
100
AcDbEntity
  8
Ech.1_5
 62
   190
370
     9
100
AcDbLine
 10
406.78454104921
 20
-9112.690110843607
 30
0.0
 11
406.78454104921
 21
-9110.43038884356
 31
0.0
  0
LINE
  5
340
330
1F
100
AcDbEntity
  8
Ech.1_5
 62
   190
370
     9
100
AcDbLine
 10
407.6178750481286
 20
-9112.690110843607
 30
0.0
 11
407.6178750481286
 21
-9110.43038884356
 31
0.0
  0
LINE
  5
341
330
1F
100
AcDbEntity
  8
Ech.1_5
 62
   190
370
     9
100
AcDbLine
 10
403.4512080486693
 20
-9112.690110843607
 30
0.0
 11
403.4512080486693
 21
-9110.43038884356
 31
0.0
  0
LINE
  5
342
330
1F
100
AcDbEntity
  8
Ech.1_5
 62
   190
370
     9
100
AcDbLine
 10
404.28454104921
 20
-9112.690110843607
 30
0.0
 11
404.28454104921
 21
-9110.43038884356
 31
0.0
  0
LINE
  5
343
330
1F
100
AcDbEntity
  8
Ech.1_5
 62
   190
370
     9
100
AcDbLine
 10
405.1178750481286
 20
-9112.690110843607
 30
0.0
 11
405.1178750481286
 21
-9110.43038884356
 31
0.0
  0
LINE
  5
344
330
1F
100
AcDbEntity
  8
Ech.1_5
 62
   190
370
     9
100
AcDbLine
 10
402.6178750481286
 20
-9112.690110843607
 30
0.0
 11
402.6178750481286
 21
-9110.43038884356
 31
0.0
  0
LINE
  5
345
330
1F
100
AcDbEntity
  8
Ech.1_5
 62
   190
370
     9
100
AcDbLine
 10
389.28454104921
 20
-9112.690110843607
 30
0.0
 11
389.28454104921
 21
-9110.43038884356
 31
0.0
  0
LINE
  5
346
330
1F
100
AcDbEntity
  8
Ech.1_5
 62
   190
370
     9
100
AcDbLine
 10
390.1178750481286
 20
-9112.690110843607
 30
0.0
 11
390.1178750481286
 21
-9110.43038884356
 31
0.0
  0
LINE
  5
347
330
1F
100
AcDbEntity
  8
Ech.1_5
 62
   190
370
     9
100
AcDbLine
 10
390.9512080486693
 20
-9112.690110843607
 30
0.0
 11
390.9512080486693
 21
-9110.43038884356
 31
0.0
  0
LINE
  5
348
330
1F
100
AcDbEntity
  8
Ech.1_5
 62
   190
370
     9
100
AcDbLine
 10
391.78454104921
 20
-9112.690110843607
 30
0.0
 11
391.78454104921
 21
-9110.43038884356
 31
0.0
  0
LINE
  5
349
330
1F
100
AcDbEntity
  8
Ech.1_5
 62
   190
370
     9
100
AcDbLine
 10
394.28454104921
 20
-9112.690110843607
 30
0.0
 11
394.28454104921
 21
-9110.43038884356
 31
0.0
  0
LINE
  5
34A
330
1F
100
AcDbEntity
  8
Ech.1_5
 62
   190
370
     9
100
AcDbLine
 10
393.4512080486693
 20
-9112.690110843607
 30
0.0
 11
393.4512080486693
 21
-9110.43038884356
 31
0.0
  0
LINE
  5
34B
330
1F
100
AcDbEntity
  8
Ech.1_5
 62
   190
370
     9
100
AcDbLine
 10
392.6178750481286
 20
-9112.690110843607
 30
0.0
 11
392.6178750481286
 21
-9110.43038884356
 31
0.0
  0
LINE
  5
34C
330
1F
100
AcDbEntity
  8
Ech.1_5
 62
   190
370
     9
100
AcDbLine
 10
396.78454104921
 20
-9112.690110843607
 30
0.0
 11
396.78454104921
 21
-9110.43038884356
 31
0.0
  0
LINE
  5
34D
330
1F
100
AcDbEntity
  8
Ech.1_5
 62
   190
370
     9
100
AcDbLine
 10
395.9512080486693
 20
-9112.690110843607
 30
0.0
 11
395.9512080486693
 21
-9110.43038884356
 31
0.0
  0
LINE
  5
34E
330
1F
100
AcDbEntity
  8
Ech.1_5
 62
   190
370
     9
100
AcDbLine
 10
395.1178750481286
 20
-9112.690110843607
 30
0.0
 11
395.1178750481286
 21
-9110.43038884356
 31
0.0
  0
LINE
  5
34F
330
1F
100
AcDbEntity
  8
Ech.1_5
 62
   190
370
     9
100
AcDbLine
 10
399.28454104921
 20
-9112.690110843607
 30
0.0
 11
399.28454104921
 21
-9110.43038884356
 31
0.0
  0
LINE
  5
350
330
1F
100
AcDbEntity
  8
Ech.1_5
 62
   190
370
     9
100
AcDbLine
 10
398.4512080486693
 20
-9112.690110843607
 30
0.0
 11
398.4512080486693
 21
-9110.43038884356
 31
0.0
  0
LINE
  5
351
330
1F
100
AcDbEntity
  8
Ech.1_5
 62
   190
370
     9
100
AcDbLine
 10
397.6178750481286
 20
-9112.690110843607
 30
0.0
 11
397.6178750481286
 21
-9110.43038884356
 31
0.0
  0
LINE
  5
352
330
1F
100
AcDbEntity
  8
Ech.1_5
 62
   190
370
     9
100
AcDbLine
 10
401.78454104921
 20
-9112.690110843607
 30
0.0
 11
401.78454104921
 21
-9110.43038884356
 31
0.0
  0
LINE
  5
353
330
1F
100
AcDbEntity
  8
Ech.1_5
 62
   190
370
     9
100
AcDbLine
 10
400.9512080486693
 20
-9112.690110843607
 30
0.0
 11
400.9512080486693
 21
-9110.43038884356
 31
0.0
  0
LINE
  5
354
330
1F
100
AcDbEntity
  8
Ech.1_5
 62
   190
370
     9
100
AcDbLine
 10
400.1178750481286
 20
-9112.690110843607
 30
0.0
 11
400.1178750481286
 21
-9110.43038884356
 31
0.0
  0
LINE
  5
355
330
1F
100
AcDbEntity
  8
Ech.1_5
 62
   190
370
     9
100
AcDbLine
 10
387.6178750481286
 20
-9112.690110843607
 30
0.0
 11
387.6178750481286
 21
-9110.43038884356
 31
0.0
  0
LINE
  5
356
330
1F
100
AcDbEntity
  8
Ech.1_5
 62
   190
370
     9
100
AcDbLine
 10
388.4512080486693
 20
-9112.690110843607
 30
0.0
 11
388.4512080486693
 21
-9110.43038884356
 31
0.0
  0
LINE
  5
357
330
1F
100
AcDbEntity
  8
Ech.1_5
 62
   190
370
     9
100
AcDbLine
 10
389.28454104921
 20
-9112.690110843607
 30
0.0
 11
389.28454104921
 21
-9110.43038884356
 31
0.0
  0
LINE
  5
358
330
1F
100
AcDbEntity
  8
Ech.1_5
 62
   190
370
     9
100
AcDbLine
 10
386.78454104921
 20
-9112.690110843607
 30
0.0
 11
386.78454104921
 21
-9110.43038884356
 31
0.0
  0
LINE
  5
359
330
1F
100
AcDbEntity
  8
Ech.1_5
 62
   190
370
     9
100
AcDbLine
 10
419.9789860480141
 20
-9111.560249843613
 30
0.0
 11
417.3169590466332
 21
-9112.690110843607
 31
0.0
  0
ARC
  5
35A
330
1F
100
AcDbEntity
  8
Ech.1_5
 62
   190
370
     9
100
AcDbCircle
 10
418.7263100372305
 20
-9111.560249843616
 30
0.0
 40
1.806337996665552
100
AcDbArc
 50
141.2812399141942
 51
218.7187600858058
  0
LINE
  5
35B
330
1F
100
AcDbEntity
  8
Ech.1_5
 62
   190
370
     9
100
AcDbLine
 10
419.9789860480141
 20
-9111.560249843613
 30
0.0
 11
417.3169590466332
 21
-9110.43038884356
 31
0.0
  0
HATCH
  5
35C
330
1F
100
AcDbEntity
  8
Ech.1_5
 62
   252
440
 33554687
370
     5
100
AcDbHatch
 10
0.0
 20
0.0
 30
0.0
210
0.0
220
0.0
230
1.0
  2
SOLID
 70
     1
 71
     1
 91
        1
 92
        3
 72
     0
 73
     1
 93
        4
 10
376.78454104921
 20
-9110.430388843568
 10
377.6178750481286
 20
-9110.43038884356
 10
377.6178750481286
 20
-9112.690110843607
 10
376.78454104921
 20
-9112.690110843607
 97
        0
 75
     0
 76
     1
 98
        0
  0
LWPOLYLINE
  5
35D
330
1F
100
AcDbEntity
  8
Ech.1_5
 62
     7
370
     9
100
AcDbPolyline
 90
        5
 70
     0
 43
0.0
 10
376.78454104921
 20
-9110.430388843568
 10
377.6178750481286
 20
-9110.43038884356
 10
377.6178750481286
 20
-9112.690110843607
 10
376.78454104921
 20
-9112.690110843607
 10
376.78454104921
 20
-9110.430388843568
  0
HATCH
  5
35E
330
1F
100
AcDbEntity
  8
Ech.1_5
 62
   252
440
 33554687
370
     5
100
AcDbHatch
 10
0.0
 20
0.0
 30
0.0
210
0.0
220
0.0
230
1.0
  2
SOLID
 70
     1
 71
     1
 91
        1
 92
        3
 72
     0
 73
     1
 93
        4
 10
377.6178750481286
 20
-9110.43038884356
 10
378.4512090470471
 20
-9110.43038884356
 10
378.4512090470471
 20
-9112.690110843607
 10
377.6178750481286
 20
-9112.690110843607
 97
        0
 75
     0
 76
     1
 98
        0
  0
LWPOLYLINE
  5
35F
330
1F
100
AcDbEntity
  8
Ech.1_5
 62
     7
370
     9
100
AcDbPolyline
 90
        5
 70
     0
 43
0.0
 10
377.6178750481286
 20
-9110.43038884356
 10
378.4512090470471
 20
-9110.43038884356
 10
378.4512090470471
 20
-9112.690110843607
 10
377.6178750481286
 20
-9112.690110843607
 10
377.6178750481286
 20
-9110.43038884356
  0
HATCH
  5
360
330
1F
100
AcDbEntity
  8
Ech.1_5
 62
   252
440
 33554687
370
     5
100
AcDbHatch
 10
0.0
 20
0.0
 30
0.0
210
0.0
220
0.0
230
1.0
  2
SOLID
 70
     1
 71
     1
 91
        1
 92
        3
 72
     0
 73
     1
 93
        4
 10
378.4512090470471
 20
-9110.43038884356
 10
379.2845430459656
 20
-9110.43038884356
 10
379.2845430459656
 20
-9112.690110843607
 10
378.4512090470471
 20
-9112.690110843607
 97
        0
 75
     0
 76
     1
 98
        0
  0
LWPOLYLINE
  5
361
330
1F
100
AcDbEntity
  8
Ech.1_5
 62
     7
370
     9
100
AcDbPolyline
 90
        5
 70
     0
 43
0.0
 10
378.4512090470471
 20
-9110.43038884356
 10
379.2845430459656
 20
-9110.43038884356
 10
379.2845430459656
 20
-9112.690110843607
 10
378.4512090470471
 20
-9112.690110843607
 10
378.4512090470471
 20
-9110.43038884356
  0
HATCH
  5
362
330
1F
100
AcDbEntity
  8
Ech.1_5
 62
   252
440
 33554687
370
     5
100
AcDbHatch
 10
0.0
 20
0.0
 30
0.0
210
0.0
220
0.0
230
1.0
  2
SOLID
 70
     1
 71
     1
 91
        1
 92
        3
 72
     0
 73
     1
 93
        4
 10
379.2845430459656
 20
-9110.43038884356
 10
380.1178770448842
 20
-9110.43038884356
 10
380.1178770448842
 20
-9112.690110843607
 10
379.2845430459656
 20
-9112.690110843607
 97
        0
 75
     0
 76
     1
 98
        0
  0
LWPOLYLINE
  5
363
330
1F
100
AcDbEntity
  8
Ech.1_5
 62
     7
370
     9
100
AcDbPolyline
 90
        5
 70
     0
 43
0.0
 10
379.2845430459656
 20
-9110.43038884356
 10
380.1178770448842
 20
-9110.43038884356
 10
380.1178770448842
 20
-9112.690110843607
 10
379.2845430459656
 20
-9112.690110843607
 10
379.2845430459656
 20
-9110.43038884356
  0
HATCH
  5
364
330
1F
100
AcDbEntity
  8
Ech.1_5
 62
   252
440
 33554687
370
     5
100
AcDbHatch
 10
0.0
 20
0.0
 30
0.0
210
0.0
220
0.0
230
1.0
  2
SOLID
 70
     1
 71
     1
 91
        1
 92
        3
 72
     0
 73
     1
 93
        4
 10
380.1178750481286
 20
-9110.43038884356
 10
380.9512090470489
 20
-9110.43038884356
 10
380.9512090470489
 20
-9112.690110843607
 10
380.1178750481286
 20
-9112.690110843607
 97
        0
 75
     0
 76
     1
 98
        0
  0
LWPOLYLINE
  5
365
330
1F
100
AcDbEntity
  8
Ech.1_5
 62
     7
370
     9
100
AcDbPolyline
 90
        5
 70
     0
 43
0.0
 10
380.1178750481286
 20
-9110.43038884356
 10
380.9512090470489
 20
-9110.43038884356
 10
380.9512090470489
 20
-9112.690110843607
 10
380.1178750481286
 20
-9112.690110843607
 10
380.1178750481286
 20
-9110.43038884356
  0
HATCH
  5
366
330
1F
100
AcDbEntity
  8
Ech.1_5
 62
   252
440
 33554687
370
     5
100
AcDbHatch
 10
0.0
 20
0.0
 30
0.0
210
0.0
220
0.0
230
1.0
  2
SOLID
 70
     1
 71
     1
 91
        1
 92
        3
 72
     0
 73
     1
 93
        4
 10
380.9512080486711
 20
-9110.43038884356
 10
381.7845420475896
 20
-9110.43038884356
 10
381.7845420475896
 20
-9112.690110843614
 10
380.9512080486711
 20
-9112.690110843607
 97
        0
 75
     0
 76
     1
 98
        0
  0
LWPOLYLINE
  5
367
330
1F
100
AcDbEntity
  8
Ech.1_5
 62
     7
370
     9
100
AcDbPolyline
 90
        5
 70
     0
 43
0.0
 10
380.9512080486711
 20
-9110.43038884356
 10
381.7845420475896
 20
-9110.43038884356
 10
381.7845420475896
 20
-9112.690110843614
 10
380.9512080486711
 20
-9112.690110843607
 10
380.9512080486711
 20
-9110.43038884356
  0
HATCH
  5
368
330
1F
100
AcDbEntity
  8
Ech.1_5
 62
   252
440
 33554687
370
     5
100
AcDbHatch
 10
0.0
 20
0.0
 30
0.0
210
0.0
220
0.0
230
1.0
  2
SOLID
 70
     1
 71
     1
 91
        1
 92
        3
 72
     0
 73
     1
 93
        4
 10
381.7845420475896
 20
-9110.43038884356
 10
382.6178760465064
 20
-9110.43038884356
 10
382.6178760465064
 20
-9112.690110843607
 10
381.7845420475896
 20
-9112.690110843614
 97
        0
 75
     0
 76
     1
 98
        0
  0
LWPOLYLINE
  5
369
330
1F
100
AcDbEntity
  8
Ech.1_5
 62
     7
370
     9
100
AcDbPolyline
 90
        5
 70
     0
 43
0.0
 10
381.7845420475896
 20
-9110.43038884356
 10
382.6178760465064
 20
-9110.43038884356
 10
382.6178760465064
 20
-9112.690110843607
 10
381.7845420475896
 20
-9112.690110843614
 10
381.7845420475896
 20
-9110.43038884356
  0
HATCH
  5
36A
330
1F
100
AcDbEntity
  8
Ech.1_5
 62
   252
440
 33554687
370
     5
100
AcDbHatch
 10
0.0
 20
0.0
 30
0.0
210
0.0
220
0.0
230
1.0
  2
SOLID
 70
     1
 71
     1
 91
        1
 92
        3
 72
     0
 73
     1
 93
        4
 10
382.6178750481286
 20
-9110.43038884356
 10
383.4512090470471
 20
-9110.43038884356
 10
383.4512090470471
 20
-9112.690110843607
 10
382.6178750481286
 20
-9112.690110843607
 97
        0
 75
     0
 76
     1
 98
        0
  0
LWPOLYLINE
  5
36B
330
1F
100
AcDbEntity
  8
Ech.1_5
 62
     7
370
     9
100
AcDbPolyline
 90
        5
 70
     0
 43
0.0
 10
382.6178750481286
 20
-9110.43038884356
 10
383.4512090470471
 20
-9110.43038884356
 10
383.4512090470471
 20
-9112.690110843607
 10
382.6178750481286
 20
-9112.690110843607
 10
382.6178750481286
 20
-9110.43038884356
  0
HATCH
  5
36C
330
1F
100
AcDbEntity
  8
Ech.1_5
 62
   252
440
 33554687
370
     5
100
AcDbHatch
 10
0.0
 20
0.0
 30
0.0
210
0.0
220
0.0
230
1.0
  2
SOLID
 70
     1
 71
     1
 91
        1
 92
        3
 72
     0
 73
     1
 93
        4
 10
383.4512090470471
 20
-9110.43038884356
 10
384.2845430459656
 20
-9110.43038884356
 10
384.2845430459656
 20
-9112.690110843607
 10
383.4512090470471
 20
-9112.690110843607
 97
        0
 75
     0
 76
     1
 98
        0
  0
LWPOLYLINE
  5
36D
330
1F
100
AcDbEntity
  8
Ech.1_5
 62
     7
370
     9
100
AcDbPolyline
 90
        5
 70
     0
 43
0.0
 10
383.4512090470471
 20
-9110.43038884356
 10
384.2845430459656
 20
-9110.43038884356
 10
384.2845430459656
 20
-9112.690110843607
 10
383.4512090470471
 20
-9112.690110843607
 10
383.4512090470471
 20
-9110.43038884356
  0
HATCH
  5
36E
330
1F
100
AcDbEntity
  8
Ech.1_5
 62
   252
440
 33554687
370
     5
100
AcDbHatch
 10
0.0
 20
0.0
 30
0.0
210
0.0
220
0.0
230
1.0
  2
SOLID
 70
     1
 71
     1
 91
        1
 92
        3
 72
     0
 73
     1
 93
        4
 10
384.28454104921
 20
-9110.43038884356
 10
385.1178750481286
 20
-9110.43038884356
 10
385.1178750481286
 20
-9112.690110843607
 10
384.28454104921
 20
-9112.690110843607
 97
        0
 75
     0
 76
     1
 98
        0
  0
LWPOLYLINE
  5
36F
330
1F
100
AcDbEntity
  8
Ech.1_5
 62
     7
370
     9
100
AcDbPolyline
 90
        5
 70
     0
 43
0.0
 10
384.28454104921
 20
-9110.43038884356
 10
385.1178750481286
 20
-9110.43038884356
 10
385.1178750481286
 20
-9112.690110843607
 10
384.28454104921
 20
-9112.690110843607
 10
384.28454104921
 20
-9110.43038884356
  0
HATCH
  5
370
330
1F
100
AcDbEntity
  8
Ech.1_5
 62
   252
440
 33554687
370
     5
100
AcDbHatch
 10
0.0
 20
0.0
 30
0.0
210
0.0
220
0.0
230
1.0
  2
SOLID
 70
     1
 71
     1
 91
        1
 92
        3
 72
     0
 73
     1
 93
        4
 10
385.1178750481286
 20
-9110.43038884356
 10
385.9512090470471
 20
-9110.43038884356
 10
385.9512090470471
 20
-9112.690110843607
 10
385.1178750481286
 20
-9112.690110843607
 97
        0
 75
     0
 76
     1
 98
        0
  0
LWPOLYLINE
  5
371
330
1F
100
AcDbEntity
  8
Ech.1_5
 62
     7
370
     9
100
AcDbPolyline
 90
        5
 70
     0
 43
0.0
 10
385.1178750481286
 20
-9110.43038884356
 10
385.9512090470471
 20
-9110.43038884356
 10
385.9512090470471
 20
-9112.690110843607
 10
385.1178750481286
 20
-9112.690110843607
 10
385.1178750481286
 20
-9110.43038884356
  0
HATCH
  5
372
330
1F
100
AcDbEntity
  8
Ech.1_5
 62
   252
440
 33554687
370
     5
100
AcDbHatch
 10
0.0
 20
0.0
 30
0.0
210
0.0
220
0.0
230
1.0
  2
SOLID
 70
     1
 71
     1
 91
        1
 92
        3
 72
     0
 73
     1
 93
        4
 10
385.9512090470471
 20
-9110.43038884356
 10
386.7845430459656
 20
-9110.43038884356
 10
386.7845430459674
 20
-9112.690110843607
 10
385.9512090470471
 20
-9112.690110843607
 97
        0
 75
     0
 76
     1
 98
        0
  0
LWPOLYLINE
  5
373
330
1F
100
AcDbEntity
  8
Ech.1_5
 62
     7
370
     9
100
AcDbPolyline
 90
        5
 70
     0
 43
0.0
 10
385.9512090470471
 20
-9110.43038884356
 10
386.7845430459656
 20
-9110.43038884356
 10
386.7845430459674
 20
-9112.690110843607
 10
385.9512090470471
 20
-9112.690110843607
 10
385.9512090470471
 20
-9110.43038884356
  0
HATCH
  5
374
330
1F
100
AcDbEntity
  8
Ech.1_5
 62
   252
440
 33554687
370
     5
100
AcDbHatch
 10
0.0
 20
0.0
 30
0.0
210
0.0
220
0.0
230
1.0
  2
SOLID
 70
     1
 71
     1
 91
        1
 92
        3
 72
     0
 73
     1
 93
        4
 10
386.7845430459656
 20
-9110.43038884356
 10
387.6178770448842
 20
-9110.43038884356
 10
387.6178770448842
 20
-9112.690110843607
 10
386.7845430459674
 20
-9112.690110843607
 97
        0
 75
     0
 76
     1
 98
        0
  0
LWPOLYLINE
  5
375
330
1F
100
AcDbEntity
  8
Ech.1_5
 62
     7
370
     9
100
AcDbPolyline
 90
        5
 70
     0
 43
0.0
 10
386.7845430459656
 20
-9110.43038884356
 10
387.6178770448842
 20
-9110.43038884356
 10
387.6178770448842
 20
-9112.690110843607
 10
386.7845430459674
 20
-9112.690110843607
 10
386.7845430459656
 20
-9110.43038884356
  0
HATCH
  5
376
330
1F
100
AcDbEntity
  8
Ech.1_5
 62
   252
440
 33554687
370
     5
100
AcDbHatch
 10
0.0
 20
0.0
 30
0.0
210
0.0
220
0.0
230
1.0
  2
SOLID
 70
     1
 71
     1
 91
        1
 92
        3
 72
     0
 73
     1
 93
        4
 10
387.6178770448842
 20
-9110.43038884356
 10
388.4512110438027
 20
-9110.43038884356
 10
388.4512110438027
 20
-9112.690110843607
 10
387.6178770448842
 20
-9112.690110843607
 97
        0
 75
     0
 76
     1
 98
        0
  0
LWPOLYLINE
  5
377
330
1F
100
AcDbEntity
  8
Ech.1_5
 62
     7
370
     9
100
AcDbPolyline
 90
        5
 70
     0
 43
0.0
 10
387.6178770448842
 20
-9110.43038884356
 10
388.4512110438027
 20
-9110.43038884356
 10
388.4512110438027
 20
-9112.690110843607
 10
387.6178770448842
 20
-9112.690110843607
 10
387.6178770448842
 20
-9110.43038884356
  0
HATCH
  5
378
330
1F
100
AcDbEntity
  8
Ech.1_5
 62
   252
440
 33554687
370
     5
100
AcDbHatch
 10
0.0
 20
0.0
 30
0.0
210
0.0
220
0.0
230
1.0
  2
SOLID
 70
     1
 71
     1
 91
        1
 92
        3
 72
     0
 73
     1
 93
        4
 10
388.4512090470471
 20
-9110.43038884356
 10
389.2845430459656
 20
-9110.43038884356
 10
389.2845430459656
 20
-9112.690110843607
 10
388.4512090470471
 20
-9112.690110843607
 97
        0
 75
     0
 76
     1
 98
        0
  0
LWPOLYLINE
  5
379
330
1F
100
AcDbEntity
  8
Ech.1_5
 62
     7
370
     9
100
AcDbPolyline
 90
        5
 70
     0
 43
0.0
 10
388.4512090470471
 20
-9110.43038884356
 10
389.2845430459656
 20
-9110.43038884356
 10
389.2845430459656
 20
-9112.690110843607
 10
388.4512090470471
 20
-9112.690110843607
 10
388.4512090470471
 20
-9110.43038884356
  0
HATCH
  5
37A
330
1F
100
AcDbEntity
  8
Ech.1_5
 62
   252
440
 33554687
370
     5
100
AcDbHatch
 10
0.0
 20
0.0
 30
0.0
210
0.0
220
0.0
230
1.0
  2
SOLID
 70
     1
 71
     1
 91
        1
 92
        3
 72
     0
 73
     1
 93
        4
 10
389.2845420475878
 20
-9110.43038884356
 10
390.1178760465064
 20
-9110.43038884356
 10
390.1178760465064
 20
-9112.690110843607
 10
389.2845420475878
 20
-9112.690110843607
 97
        0
 75
     0
 76
     1
 98
        0
  0
LWPOLYLINE
  5
37B
330
1F
100
AcDbEntity
  8
Ech.1_5
 62
     7
370
     9
100
AcDbPolyline
 90
        5
 70
     0
 43
0.0
 10
389.2845420475878
 20
-9110.43038884356
 10
390.1178760465064
 20
-9110.43038884356
 10
390.1178760465064
 20
-9112.690110843607
 10
389.2845420475878
 20
-9112.690110843607
 10
389.2845420475878
 20
-9110.43038884356
  0
HATCH
  5
37C
330
1F
100
AcDbEntity
  8
Ech.1_5
 62
   252
440
 33554687
370
     5
100
AcDbHatch
 10
0.0
 20
0.0
 30
0.0
210
0.0
220
0.0
230
1.0
  2
SOLID
 70
     1
 71
     1
 91
        1
 92
        3
 72
     0
 73
     1
 93
        4
 10
390.1178760465064
 20
-9110.43038884356
 10
390.9512100454249
 20
-9110.43038884356
 10
390.9512100454249
 20
-9112.690110843607
 10
390.1178760465064
 20
-9112.690110843607
 97
        0
 75
     0
 76
     1
 98
        0
  0
LWPOLYLINE
  5
37D
330
1F
100
AcDbEntity
  8
Ech.1_5
 62
     7
370
     9
100
AcDbPolyline
 90
        5
 70
     0
 43
0.0
 10
390.1178760465064
 20
-9110.43038884356
 10
390.9512100454249
 20
-9110.43038884356
 10
390.9512100454249
 20
-9112.690110843607
 10
390.1178760465064
 20
-9112.690110843607
 10
390.1178760465064
 20
-9110.43038884356
  0
HATCH
  5
37E
330
1F
100
AcDbEntity
  8
Ech.1_5
 62
   252
440
 33554687
370
     5
100
AcDbHatch
 10
0.0
 20
0.0
 30
0.0
210
0.0
220
0.0
230
1.0
  2
SOLID
 70
     1
 71
     1
 91
        1
 92
        3
 72
     0
 73
     1
 93
        4
 10
390.9512090470471
 20
-9110.43038884356
 10
391.7845430459656
 20
-9110.43038884356
 10
391.7845430459656
 20
-9112.690110843607
 10
390.9512090470471
 20
-9112.690110843607
 97
        0
 75
     0
 76
     1
 98
        0
  0
LWPOLYLINE
  5
37F
330
1F
100
AcDbEntity
  8
Ech.1_5
 62
     7
370
     9
100
AcDbPolyline
 90
        5
 70
     0
 43
0.0
 10
390.9512090470471
 20
-9110.43038884356
 10
391.7845430459656
 20
-9110.43038884356
 10
391.7845430459656
 20
-9112.690110843607
 10
390.9512090470471
 20
-9112.690110843607
 10
390.9512090470471
 20
-9110.43038884356
  0
HATCH
  5
380
330
1F
100
AcDbEntity
  8
Ech.1_5
 62
   252
440
 33554687
370
     5
100
AcDbHatch
 10
0.0
 20
0.0
 30
0.0
210
0.0
220
0.0
230
1.0
  2
SOLID
 70
     1
 71
     1
 91
        1
 92
        3
 72
     0
 73
     1
 93
        4
 10
391.7845430459656
 20
-9110.43038884356
 10
392.6178770448842
 20
-9110.43038884356
 10
392.6178770448842
 20
-9112.690110843607
 10
391.7845430459656
 20
-9112.690110843607
 97
        0
 75
     0
 76
     1
 98
        0
  0
LWPOLYLINE
  5
381
330
1F
100
AcDbEntity
  8
Ech.1_5
 62
     7
370
     9
100
AcDbPolyline
 90
        5
 70
     0
 43
0.0
 10
391.7845430459656
 20
-9110.43038884356
 10
392.6178770448842
 20
-9110.43038884356
 10
392.6178770448842
 20
-9112.690110843607
 10
391.7845430459656
 20
-9112.690110843607
 10
391.7845430459656
 20
-9110.43038884356
  0
HATCH
  5
382
330
1F
100
AcDbEntity
  8
Ech.1_5
 62
   252
440
 33554687
370
     5
100
AcDbHatch
 10
0.0
 20
0.0
 30
0.0
210
0.0
220
0.0
230
1.0
  2
SOLID
 70
     1
 71
     1
 91
        1
 92
        3
 72
     0
 73
     1
 93
        4
 10
392.6178750481286
 20
-9110.43038884356
 10
393.4512090470471
 20
-9110.43038884356
 10
393.4512090470471
 20
-9112.690110843607
 10
392.6178750481286
 20
-9112.690110843607
 97
        0
 75
     0
 76
     1
 98
        0
  0
LWPOLYLINE
  5
383
330
1F
100
AcDbEntity
  8
Ech.1_5
 62
     7
370
     9
100
AcDbPolyline
 90
        5
 70
     0
 43
0.0
 10
392.6178750481286
 20
-9110.43038884356
 10
393.4512090470471
 20
-9110.43038884356
 10
393.4512090470471
 20
-9112.690110843607
 10
392.6178750481286
 20
-9112.690110843607
 10
392.6178750481286
 20
-9110.43038884356
  0
HATCH
  5
384
330
1F
100
AcDbEntity
  8
Ech.1_5
 62
   252
440
 33554687
370
     5
100
AcDbHatch
 10
0.0
 20
0.0
 30
0.0
210
0.0
220
0.0
230
1.0
  2
SOLID
 70
     1
 71
     1
 91
        1
 92
        3
 72
     0
 73
     1
 93
        4
 10
393.4512090470471
 20
-9110.43038884356
 10
394.2845430459656
 20
-9110.43038884356
 10
394.2845430459656
 20
-9112.690110843607
 10
393.4512090470471
 20
-9112.690110843607
 97
        0
 75
     0
 76
     1
 98
        0
  0
LWPOLYLINE
  5
385
330
1F
100
AcDbEntity
  8
Ech.1_5
 62
     7
370
     9
100
AcDbPolyline
 90
        5
 70
     0
 43
0.0
 10
393.4512090470471
 20
-9110.43038884356
 10
394.2845430459656
 20
-9110.43038884356
 10
394.2845430459656
 20
-9112.690110843607
 10
393.4512090470471
 20
-9112.690110843607
 10
393.4512090470471
 20
-9110.43038884356
  0
HATCH
  5
386
330
1F
100
AcDbEntity
  8
Ech.1_5
 62
   252
440
 33554687
370
     5
100
AcDbHatch
 10
0.0
 20
0.0
 30
0.0
210
0.0
220
0.0
230
1.0
  2
SOLID
 70
     1
 71
     1
 91
        1
 92
        3
 72
     0
 73
     1
 93
        4
 10
394.2845430459656
 20
-9110.43038884356
 10
395.1178770448842
 20
-9110.43038884356
 10
395.1178770448842
 20
-9112.690110843607
 10
394.2845430459656
 20
-9112.690110843607
 97
        0
 75
     0
 76
     1
 98
        0
  0
LWPOLYLINE
  5
387
330
1F
100
AcDbEntity
  8
Ech.1_5
 62
     7
370
     9
100
AcDbPolyline
 90
        5
 70
     0
 43
0.0
 10
394.2845430459656
 20
-9110.43038884356
 10
395.1178770448842
 20
-9110.43038884356
 10
395.1178770448842
 20
-9112.690110843607
 10
394.2845430459656
 20
-9112.690110843607
 10
394.2845430459656
 20
-9110.43038884356
  0
HATCH
  5
388
330
1F
100
AcDbEntity
  8
Ech.1_5
 62
   252
440
 33554687
370
     5
100
AcDbHatch
 10
0.0
 20
0.0
 30
0.0
210
0.0
220
0.0
230
1.0
  2
SOLID
 70
     1
 71
     1
 91
        1
 92
        3
 72
     0
 73
     1
 93
        4
 10
395.1178770448842
 20
-9110.43038884356
 10
395.9512110438045
 20
-9110.43038884356
 10
395.9512110438027
 20
-9112.690110843607
 10
395.1178770448842
 20
-9112.690110843607
 97
        0
 75
     0
 76
     1
 98
        0
  0
LWPOLYLINE
  5
389
330
1F
100
AcDbEntity
  8
Ech.1_5
 62
     7
370
     9
100
AcDbPolyline
 90
        5
 70
     0
 43
0.0
 10
395.1178770448842
 20
-9110.43038884356
 10
395.9512110438045
 20
-9110.43038884356
 10
395.9512110438027
 20
-9112.690110843607
 10
395.1178770448842
 20
-9112.690110843607
 10
395.1178770448842
 20
-9110.43038884356
  0
HATCH
  5
38A
330
1F
100
AcDbEntity
  8
Ech.1_5
 62
   252
440
 33554687
370
     5
100
AcDbHatch
 10
0.0
 20
0.0
 30
0.0
210
0.0
220
0.0
230
1.0
  2
SOLID
 70
     1
 71
     1
 91
        1
 92
        3
 72
     0
 73
     1
 93
        4
 10
395.9512110438045
 20
-9110.43038884356
 10
396.7845450427212
 20
-9110.43038884356
 10
396.7845450427212
 20
-9112.690110843607
 10
395.9512110438027
 20
-9112.690110843607
 97
        0
 75
     0
 76
     1
 98
        0
  0
LWPOLYLINE
  5
38B
330
1F
100
AcDbEntity
  8
Ech.1_5
 62
     7
370
     9
100
AcDbPolyline
 90
        5
 70
     0
 43
0.0
 10
395.9512110438045
 20
-9110.43038884356
 10
396.7845450427212
 20
-9110.43038884356
 10
396.7845450427212
 20
-9112.690110843607
 10
395.9512110438027
 20
-9112.690110843607
 10
395.9512110438045
 20
-9110.43038884356
  0
HATCH
  5
38C
330
1F
100
AcDbEntity
  8
Ech.1_5
 62
   252
440
 33554687
370
     5
100
AcDbHatch
 10
0.0
 20
0.0
 30
0.0
210
0.0
220
0.0
230
1.0
  2
SOLID
 70
     1
 71
     1
 91
        1
 92
        3
 72
     0
 73
     1
 93
        4
 10
396.7845430459656
 20
-9110.43038884356
 10
397.6178770448842
 20
-9110.43038884356
 10
397.6178770448842
 20
-9112.690110843607
 10
396.7845430459656
 20
-9112.690110843607
 97
        0
 75
     0
 76
     1
 98
        0
  0
LWPOLYLINE
  5
38D
330
1F
100
AcDbEntity
  8
Ech.1_5
 62
     7
370
     9
100
AcDbPolyline
 90
        5
 70
     0
 43
0.0
 10
396.7845430459656
 20
-9110.43038884356
 10
397.6178770448842
 20
-9110.43038884356
 10
397.6178770448842
 20
-9112.690110843607
 10
396.7845430459656
 20
-9112.690110843607
 10
396.7845430459656
 20
-9110.43038884356
  0
HATCH
  5
38E
330
1F
100
AcDbEntity
  8
Ech.1_5
 62
   252
440
 33554687
370
     5
100
AcDbHatch
 10
0.0
 20
0.0
 30
0.0
210
0.0
220
0.0
230
1.0
  2
SOLID
 70
     1
 71
     1
 91
        1
 92
        3
 72
     0
 73
     1
 93
        4
 10
397.6178760465064
 20
-9110.43038884356
 10
398.4512100454249
 20
-9110.43038884356
 10
398.4512100454249
 20
-9112.690110843607
 10
397.6178760465064
 20
-9112.690110843607
 97
        0
 75
     0
 76
     1
 98
        0
  0
LWPOLYLINE
  5
38F
330
1F
100
AcDbEntity
  8
Ech.1_5
 62
     7
370
     9
100
AcDbPolyline
 90
        5
 70
     0
 43
0.0
 10
397.6178760465064
 20
-9110.43038884356
 10
398.4512100454249
 20
-9110.43038884356
 10
398.4512100454249
 20
-9112.690110843607
 10
397.6178760465064
 20
-9112.690110843607
 10
397.6178760465064
 20
-9110.43038884356
  0
HATCH
  5
390
330
1F
100
AcDbEntity
  8
Ech.1_5
 62
   252
440
 33554687
370
     5
100
AcDbHatch
 10
0.0
 20
0.0
 30
0.0
210
0.0
220
0.0
230
1.0
  2
SOLID
 70
     1
 71
     1
 91
        1
 92
        3
 72
     0
 73
     1
 93
        4
 10
398.4512100454249
 20
-9110.43038884356
 10
399.2845440443434
 20
-9110.43038884356
 10
399.2845440443434
 20
-9112.690110843607
 10
398.4512100454249
 20
-9112.690110843607
 97
        0
 75
     0
 76
     1
 98
        0
  0
LWPOLYLINE
  5
391
330
1F
100
AcDbEntity
  8
Ech.1_5
 62
     7
370
     9
100
AcDbPolyline
 90
        5
 70
     0
 43
0.0
 10
398.4512100454249
 20
-9110.43038884356
 10
399.2845440443434
 20
-9110.43038884356
 10
399.2845440443434
 20
-9112.690110843607
 10
398.4512100454249
 20
-9112.690110843607
 10
398.4512100454249
 20
-9110.43038884356
  0
HATCH
  5
392
330
1F
100
AcDbEntity
  8
Ech.1_5
 62
   252
440
 33554687
370
     5
100
AcDbHatch
 10
0.0
 20
0.0
 30
0.0
210
0.0
220
0.0
230
1.0
  2
SOLID
 70
     1
 71
     1
 91
        1
 92
        3
 72
     0
 73
     1
 93
        4
 10
399.2845430459656
 20
-9110.43038884356
 10
400.1178770448842
 20
-9110.43038884356
 10
400.1178770448842
 20
-9112.690110843607
 10
399.2845430459656
 20
-9112.690110843607
 97
        0
 75
     0
 76
     1
 98
        0
  0
LWPOLYLINE
  5
393
330
1F
100
AcDbEntity
  8
Ech.1_5
 62
     7
370
     9
100
AcDbPolyline
 90
        5
 70
     0
 43
0.0
 10
399.2845430459656
 20
-9110.43038884356
 10
400.1178770448842
 20
-9110.43038884356
 10
400.1178770448842
 20
-9112.690110843607
 10
399.2845430459656
 20
-9112.690110843607
 10
399.2845430459656
 20
-9110.43038884356
  0
HATCH
  5
394
330
1F
100
AcDbEntity
  8
Ech.1_5
 62
   252
440
 33554687
370
     5
100
AcDbHatch
 10
0.0
 20
0.0
 30
0.0
210
0.0
220
0.0
230
1.0
  2
SOLID
 70
     1
 71
     1
 91
        1
 92
        3
 72
     0
 73
     1
 93
        4
 10
400.1178770448842
 20
-9110.43038884356
 10
400.9512110438027
 20
-9110.43038884356
 10
400.9512110438027
 20
-9112.690110843607
 10
400.1178770448842
 20
-9112.690110843607
 97
        0
 75
     0
 76
     1
 98
        0
  0
LWPOLYLINE
  5
395
330
1F
100
AcDbEntity
  8
Ech.1_5
 62
     7
370
     9
100
AcDbPolyline
 90
        5
 70
     0
 43
0.0
 10
400.1178770448842
 20
-9110.43038884356
 10
400.9512110438027
 20
-9110.43038884356
 10
400.9512110438027
 20
-9112.690110843607
 10
400.1178770448842
 20
-9112.690110843607
 10
400.1178770448842
 20
-9110.43038884356
  0
HATCH
  5
396
330
1F
100
AcDbEntity
  8
Ech.1_5
 62
   252
440
 33554687
370
     5
100
AcDbHatch
 10
0.0
 20
0.0
 30
0.0
210
0.0
220
0.0
230
1.0
  2
SOLID
 70
     1
 71
     1
 91
        1
 92
        3
 72
     0
 73
     1
 93
        4
 10
400.9512090470471
 20
-9110.43038884356
 10
401.7845430459656
 20
-9110.43038884356
 10
401.7845430459656
 20
-9112.690110843607
 10
400.9512090470471
 20
-9112.690110843607
 97
        0
 75
     0
 76
     1
 98
        0
  0
LWPOLYLINE
  5
397
330
1F
100
AcDbEntity
  8
Ech.1_5
 62
     7
370
     9
100
AcDbPolyline
 90
        5
 70
     0
 43
0.0
 10
400.9512090470471
 20
-9110.43038884356
 10
401.7845430459656
 20
-9110.43038884356
 10
401.7845430459656
 20
-9112.690110843607
 10
400.9512090470471
 20
-9112.690110843607
 10
400.9512090470471
 20
-9110.43038884356
  0
HATCH
  5
398
330
1F
100
AcDbEntity
  8
Ech.1_5
 62
   252
440
 33554687
370
     5
100
AcDbHatch
 10
0.0
 20
0.0
 30
0.0
210
0.0
220
0.0
230
1.0
  2
SOLID
 70
     1
 71
     1
 91
        1
 92
        3
 72
     0
 73
     1
 93
        4
 10
401.78454104921
 20
-9110.43038884356
 10
402.6178750481286
 20
-9110.43038884356
 10
402.6178750481286
 20
-9112.690110843607
 10
401.78454104921
 20
-9112.690110843607
 97
        0
 75
     0
 76
     1
 98
        0
  0
LWPOLYLINE
  5
399
330
1F
100
AcDbEntity
  8
Ech.1_5
 62
     7
370
     9
100
AcDbPolyline
 90
        5
 70
     0
 43
0.0
 10
401.78454104921
 20
-9110.43038884356
 10
402.6178750481286
 20
-9110.43038884356
 10
402.6178750481286
 20
-9112.690110843607
 10
401.78454104921
 20
-9112.690110843607
 10
401.78454104921
 20
-9110.43038884356
  0
HATCH
  5
39A
330
1F
100
AcDbEntity
  8
Ech.1_5
 62
   252
440
 33554687
370
     5
100
AcDbHatch
 10
0.0
 20
0.0
 30
0.0
210
0.0
220
0.0
230
1.0
  2
SOLID
 70
     1
 71
     1
 91
        1
 92
        3
 72
     0
 73
     1
 93
        4
 10
402.6178750481286
 20
-9110.43038884356
 10
403.4512090470471
 20
-9110.43038884356
 10
403.4512090470471
 20
-9112.690110843607
 10
402.6178750481286
 20
-9112.690110843607
 97
        0
 75
     0
 76
     1
 98
        0
  0
LWPOLYLINE
  5
39B
330
1F
100
AcDbEntity
  8
Ech.1_5
 62
     7
370
     9
100
AcDbPolyline
 90
        5
 70
     0
 43
0.0
 10
402.6178750481286
 20
-9110.43038884356
 10
403.4512090470471
 20
-9110.43038884356
 10
403.4512090470471
 20
-9112.690110843607
 10
402.6178750481286
 20
-9112.690110843607
 10
402.6178750481286
 20
-9110.43038884356
  0
HATCH
  5
39C
330
1F
100
AcDbEntity
  8
Ech.1_5
 62
   252
440
 33554687
370
     5
100
AcDbHatch
 10
0.0
 20
0.0
 30
0.0
210
0.0
220
0.0
230
1.0
  2
SOLID
 70
     1
 71
     1
 91
        1
 92
        3
 72
     0
 73
     1
 93
        4
 10
403.4512090470471
 20
-9110.43038884356
 10
404.2845430459656
 20
-9110.43038884356
 10
404.2845430459656
 20
-9112.690110843607
 10
403.4512090470471
 20
-9112.690110843607
 97
        0
 75
     0
 76
     1
 98
        0
  0
LWPOLYLINE
  5
39D
330
1F
100
AcDbEntity
  8
Ech.1_5
 62
     7
370
     9
100
AcDbPolyline
 90
        5
 70
     0
 43
0.0
 10
403.4512090470471
 20
-9110.43038884356
 10
404.2845430459656
 20
-9110.43038884356
 10
404.2845430459656
 20
-9112.690110843607
 10
403.4512090470471
 20
-9112.690110843607
 10
403.4512090470471
 20
-9110.43038884356
  0
HATCH
  5
39E
330
1F
100
AcDbEntity
  8
Ech.1_5
 62
   252
440
 33554687
370
     5
100
AcDbHatch
 10
0.0
 20
0.0
 30
0.0
210
0.0
220
0.0
230
1.0
  2
SOLID
 70
     1
 71
     1
 91
        1
 92
        3
 72
     0
 73
     1
 93
        4
 10
404.2845430459656
 20
-9110.43038884356
 10
405.1178770448842
 20
-9110.43038884356
 10
405.1178770448842
 20
-9112.690110843607
 10
404.2845430459656
 20
-9112.690110843607
 97
        0
 75
     0
 76
     1
 98
        0
  0
LWPOLYLINE
  5
39F
330
1F
100
AcDbEntity
  8
Ech.1_5
 62
     7
370
     9
100
AcDbPolyline
 90
        5
 70
     0
 43
0.0
 10
404.2845430459656
 20
-9110.43038884356
 10
405.1178770448842
 20
-9110.43038884356
 10
405.1178770448842
 20
-9112.690110843607
 10
404.2845430459656
 20
-9112.690110843607
 10
404.2845430459656
 20
-9110.43038884356
  0
HATCH
  5
3A0
330
1F
100
AcDbEntity
  8
Ech.1_5
 62
   252
440
 33554687
370
     5
100
AcDbHatch
 10
0.0
 20
0.0
 30
0.0
210
0.0
220
0.0
230
1.0
  2
SOLID
 70
     1
 71
     1
 91
        1
 92
        3
 72
     0
 73
     1
 93
        4
 10
405.1178750481286
 20
-9110.43038884356
 10
405.9512090470471
 20
-9110.43038884356
 10
405.9512090470471
 20
-9112.690110843607
 10
405.1178750481286
 20
-9112.690110843607
 97
        0
 75
     0
 76
     1
 98
        0
  0
LWPOLYLINE
  5
3A1
330
1F
100
AcDbEntity
  8
Ech.1_5
 62
     7
370
     9
100
AcDbPolyline
 90
        5
 70
     0
 43
0.0
 10
405.1178750481286
 20
-9110.43038884356
 10
405.9512090470471
 20
-9110.43038884356
 10
405.9512090470471
 20
-9112.690110843607
 10
405.1178750481286
 20
-9112.690110843607
 10
405.1178750481286
 20
-9110.43038884356
  0
HATCH
  5
3A2
330
1F
100
AcDbEntity
  8
Ech.1_5
 62
   252
440
 33554687
370
     5
100
AcDbHatch
 10
0.0
 20
0.0
 30
0.0
210
0.0
220
0.0
230
1.0
  2
SOLID
 70
     1
 71
     1
 91
        1
 92
        3
 72
     0
 73
     1
 93
        4
 10
405.9512080486693
 20
-9110.43038884356
 10
406.7845420475878
 20
-9110.43038884356
 10
406.7845420475878
 20
-9112.690110843607
 10
405.9512080486693
 20
-9112.690110843607
 97
        0
 75
     0
 76
     1
 98
        0
  0
LWPOLYLINE
  5
3A3
330
1F
100
AcDbEntity
  8
Ech.1_5
 62
     7
370
     9
100
AcDbPolyline
 90
        5
 70
     0
 43
0.0
 10
405.9512080486693
 20
-9110.43038884356
 10
406.7845420475878
 20
-9110.43038884356
 10
406.7845420475878
 20
-9112.690110843607
 10
405.9512080486693
 20
-9112.690110843607
 10
405.9512080486693
 20
-9110.43038884356
  0
HATCH
  5
3A4
330
1F
100
AcDbEntity
  8
Ech.1_5
 62
   252
440
 33554687
370
     5
100
AcDbHatch
 10
0.0
 20
0.0
 30
0.0
210
0.0
220
0.0
230
1.0
  2
SOLID
 70
     1
 71
     1
 91
        1
 92
        3
 72
     0
 73
     1
 93
        4
 10
406.7845420475878
 20
-9110.43038884356
 10
407.6178760465064
 20
-9110.43038884356
 10
407.6178760465064
 20
-9112.690110843607
 10
406.7845420475878
 20
-9112.690110843607
 97
        0
 75
     0
 76
     1
 98
        0
  0
LWPOLYLINE
  5
3A5
330
1F
100
AcDbEntity
  8
Ech.1_5
 62
     7
370
     9
100
AcDbPolyline
 90
        5
 70
     0
 43
0.0
 10
406.7845420475878
 20
-9110.43038884356
 10
407.6178760465064
 20
-9110.43038884356
 10
407.6178760465064
 20
-9112.690110843607
 10
406.7845420475878
 20
-9112.690110843607
 10
406.7845420475878
 20
-9110.43038884356
  0
HATCH
  5
3A6
330
1F
100
AcDbEntity
  8
Ech.1_5
 62
   252
440
 33554687
370
     5
100
AcDbHatch
 10
0.0
 20
0.0
 30
0.0
210
0.0
220
0.0
230
1.0
  2
SOLID
 70
     1
 71
     1
 91
        1
 92
        3
 72
     0
 73
     1
 93
        4
 10
407.6178750481286
 20
-9110.43038884356
 10
408.4512090470471
 20
-9110.43038884356
 10
408.4512090470471
 20
-9112.690110843607
 10
407.6178750481286
 20
-9112.690110843607
 97
        0
 75
     0
 76
     1
 98
        0
  0
LWPOLYLINE
  5
3A7
330
1F
100
AcDbEntity
  8
Ech.1_5
 62
     7
370
     9
100
AcDbPolyline
 90
        5
 70
     0
 43
0.0
 10
407.6178750481286
 20
-9110.43038884356
 10
408.4512090470471
 20
-9110.43038884356
 10
408.4512090470471
 20
-9112.690110843607
 10
407.6178750481286
 20
-9112.690110843607
 10
407.6178750481286
 20
-9110.43038884356
  0
HATCH
  5
3A8
330
1F
100
AcDbEntity
  8
Ech.1_5
 62
   252
440
 33554687
370
     5
100
AcDbHatch
 10
0.0
 20
0.0
 30
0.0
210
0.0
220
0.0
230
1.0
  2
SOLID
 70
     1
 71
     1
 91
        1
 92
        3
 72
     0
 73
     1
 93
        4
 10
408.4512090470471
 20
-9110.43038884356
 10
409.2845430459656
 20
-9110.43038884356
 10
409.2845430459656
 20
-9112.690110843607
 10
408.4512090470471
 20
-9112.690110843607
 97
        0
 75
     0
 76
     1
 98
        0
  0
LWPOLYLINE
  5
3A9
330
1F
100
AcDbEntity
  8
Ech.1_5
 62
     7
370
     9
100
AcDbPolyline
 90
        5
 70
     0
 43
0.0
 10
408.4512090470471
 20
-9110.43038884356
 10
409.2845430459656
 20
-9110.43038884356
 10
409.2845430459656
 20
-9112.690110843607
 10
408.4512090470471
 20
-9112.690110843607
 10
408.4512090470471
 20
-9110.43038884356
  0
HATCH
  5
3AA
330
1F
100
AcDbEntity
  8
Ech.1_5
 62
   252
440
 33554687
370
     5
100
AcDbHatch
 10
0.0
 20
0.0
 30
0.0
210
0.0
220
0.0
230
1.0
  2
SOLID
 70
     1
 71
     1
 91
        1
 92
        3
 72
     0
 73
     1
 93
        4
 10
409.28454104921
 20
-9110.43038884356
 10
410.1178750481286
 20
-9110.43038884356
 10
410.1178750481286
 20
-9112.690110843607
 10
409.28454104921
 20
-9112.690110843607
 97
        0
 75
     0
 76
     1
 98
        0
  0
LWPOLYLINE
  5
3AB
330
1F
100
AcDbEntity
  8
Ech.1_5
 62
     7
370
     9
100
AcDbPolyline
 90
        5
 70
     0
 43
0.0
 10
409.28454104921
 20
-9110.43038884356
 10
410.1178750481286
 20
-9110.43038884356
 10
410.1178750481286
 20
-9112.690110843607
 10
409.28454104921
 20
-9112.690110843607
 10
409.28454104921
 20
-9110.43038884356
  0
HATCH
  5
3AC
330
1F
100
AcDbEntity
  8
Ech.1_5
 62
   252
440
 33554687
370
     5
100
AcDbHatch
 10
0.0
 20
0.0
 30
0.0
210
0.0
220
0.0
230
1.0
  2
SOLID
 70
     1
 71
     1
 91
        1
 92
        3
 72
     0
 73
     1
 93
        4
 10
410.1178750481286
 20
-9110.43038884356
 10
410.9512090470471
 20
-9110.43038884356
 10
410.9512090470471
 20
-9112.690110843607
 10
410.1178750481286
 20
-9112.690110843607
 97
        0
 75
     0
 76
     1
 98
        0
  0
LWPOLYLINE
  5
3AD
330
1F
100
AcDbEntity
  8
Ech.1_5
 62
     7
370
     9
100
AcDbPolyline
 90
        5
 70
     0
 43
0.0
 10
410.1178750481286
 20
-9110.43038884356
 10
410.9512090470471
 20
-9110.43038884356
 10
410.9512090470471
 20
-9112.690110843607
 10
410.1178750481286
 20
-9112.690110843607
 10
410.1178750481286
 20
-9110.43038884356
  0
HATCH
  5
3AE
330
1F
100
AcDbEntity
  8
Ech.1_5
 62
   252
440
 33554687
370
     5
100
AcDbHatch
 10
0.0
 20
0.0
 30
0.0
210
0.0
220
0.0
230
1.0
  2
SOLID
 70
     1
 71
     1
 91
        1
 92
        3
 72
     0
 73
     1
 93
        4
 10
410.9512090470471
 20
-9110.43038884356
 10
411.7845430459656
 20
-9110.43038884356
 10
411.7845430459656
 20
-9112.690110843607
 10
410.9512090470471
 20
-9112.690110843607
 97
        0
 75
     0
 76
     1
 98
        0
  0
LWPOLYLINE
  5
3AF
330
1F
100
AcDbEntity
  8
Ech.1_5
 62
     7
370
     9
100
AcDbPolyline
 90
        5
 70
     0
 43
0.0
 10
410.9512090470471
 20
-9110.43038884356
 10
411.7845430459656
 20
-9110.43038884356
 10
411.7845430459656
 20
-9112.690110843607
 10
410.9512090470471
 20
-9112.690110843607
 10
410.9512090470471
 20
-9110.43038884356
  0
HATCH
  5
3B0
330
1F
100
AcDbEntity
  8
Ech.1_5
 62
   252
440
 33554687
370
     5
100
AcDbHatch
 10
0.0
 20
0.0
 30
0.0
210
0.0
220
0.0
230
1.0
  2
SOLID
 70
     1
 71
     1
 91
        1
 92
        3
 72
     0
 73
     1
 93
        4
 10
411.7845430459656
 20
-9110.43038884356
 10
412.6178770448842
 20
-9110.43038884356
 10
412.6178770448842
 20
-9112.690110843607
 10
411.7845430459656
 20
-9112.690110843607
 97
        0
 75
     0
 76
     1
 98
        0
  0
LWPOLYLINE
  5
3B1
330
1F
100
AcDbEntity
  8
Ech.1_5
 62
     7
370
     9
100
AcDbPolyline
 90
        5
 70
     0
 43
0.0
 10
411.7845430459656
 20
-9110.43038884356
 10
412.6178770448842
 20
-9110.43038884356
 10
412.6178770448842
 20
-9112.690110843607
 10
411.7845430459656
 20
-9112.690110843607
 10
411.7845430459656
 20
-9110.43038884356
  0
HATCH
  5
3B2
330
1F
100
AcDbEntity
  8
Ech.1_5
 62
   252
440
 33554687
370
     5
100
AcDbHatch
 10
0.0
 20
0.0
 30
0.0
210
0.0
220
0.0
230
1.0
  2
SOLID
 70
     1
 71
     1
 91
        1
 92
        3
 72
     1
 73
     1
 93
        4
 10
417.3169590466332
 20
-9112.690110843607
 42
0.0
 10
415.9512070502915
 20
-9112.690110843607
 42
0.0
 10
415.9512070502915
 20
-9110.43038884356
 42
0.0
 10
417.3169590466332
 20
-9110.43038884356
 42
0.3513591548518968
 97
        0
 75
     0
 76
     1
 98
        0
  0
LWPOLYLINE
  5
3B3
330
1F
100
AcDbEntity
  8
Ech.1_5
 62
     7
370
     9
100
AcDbPolyline
 90
        5
 70
     0
 43
0.0
 10
417.3169590466332
 20
-9112.690110843607
 10
415.9512070502915
 20
-9112.690110843607
 10
415.9512070502915
 20
-9110.43038884356
 10
417.3169590466332
 20
-9110.43038884356
 42
0.3513591548518972
 10
417.3169590466332
 20
-9112.690110843607
  0
HATCH
  5
3B4
330
1F
100
AcDbEntity
  8
Ech.1_5
 62
   252
440
 33554687
370
     5
100
AcDbHatch
 10
0.0
 20
0.0
 30
0.0
210
0.0
220
0.0
230
1.0
  2
SOLID
 70
     1
 71
     1
 91
        1
 92
        3
 72
     1
 73
     1
 93
        3
 10
419.9789860480141
 20
-9111.560249843613
 42
0.0
 10
417.3169590466332
 20
-9112.690110843607
 42
-0.3513591548518968
 10
417.3169590466332
 20
-9110.43038884356
 42
0.0
 97
        0
 75
     0
 76
     1
 98
        0
  0
LWPOLYLINE
  5
3B5
330
1F
100
AcDbEntity
  8
Ech.1_5
 62
     7
370
     9
100
AcDbPolyline
 90
        4
 70
     0
 43
0.0
 10
419.9789860480141
 20
-9111.560249843613
 10
417.3169590466332
 20
-9112.690110843607
 42
-0.3513591548518956
 10
417.3169590466332
 20
-9110.43038884356
 10
419.9789860480141
 20
-9111.560249843613
  0
HATCH
  5
3B6
330
1F
100
AcDbEntity
  8
Ech.1_5
 62
   252
440
 33554687
370
     5
100
AcDbHatch
 10
0.0
 20
0.0
 30
0.0
210
0.0
220
0.0
230
1.0
  2
SOLID
 70
     1
 71
     1
 91
        1
 92
        3
 72
     1
 73
     1
 93
        6
 10
376.78454104921
 20
-9110.430388843568
 42
0.0
 10
375.0345420472931
 20
-9110.43038884356
 42
-0.4142135727490664
 10
374.4789860480141
 20
-9109.874832843583
 42
0.0
 10
374.4789860480141
 20
-9113.24566684365
 42
-0.4142135726679704
 10
375.0345420472931
 20
-9112.690110843607
 42
0.0
 10
376.78454104921
 20
-9112.690110843607
 42
0.0
 97
        0
 75
     0
 76
     1
 98
        0
  0
LWPOLYLINE
  5
3B7
330
1F
100
AcDbEntity
  8
Ech.1_5
 62
     7
370
     9
100
AcDbPolyline
 90
        7
 70
     0
 43
0.0
 10
376.78454104921
 20
-9110.430388843568
 10
375.0345420472931
 20
-9110.43038884356
 42
-0.4142135727497837
 10
374.4789860480141
 20
-9109.874832843583
 10
374.4789860480141
 20
-9113.24566684365
 42
-0.414213572666436
 10
375.0345420472931
 20
-9112.690110843607
 10
376.78454104921
 20
-9112.690110843607
 10
376.78454104921
 20
-9110.430388843568
  0
HATCH
  5
3B8
330
1F
100
AcDbEntity
  8
Ech.1_5
 62
   252
440
 33554687
370
     5
100
AcDbHatch
 10
0.0
 20
0.0
 30
0.0
210
0.0
220
0.0
230
1.0
  2
SOLID
 70
     1
 71
     1
 91
        1
 92
        1
 93
        2
 72
     1
 10
374.1734310471129
 20
-9109.041499817198
 11
374.1734310471129
 21
-9114.07899986997
 72
     2
 10
386.7366344379372
 20
-9111.560249843584
 40
12.81320339082451
 50
168.6632793503046
 51
191.3367206496955
 73
     0
 97
        0
 75
     0
 76
     1
 98
        0
  0
LWPOLYLINE
  5
3B9
330
1F
100
AcDbEntity
  8
Ech.1_5
 62
     7
370
     9
100
AcDbPolyline
 90
        3
 70
     0
 43
0.0
 10
374.1734310471129
 20
-9109.041499817198
 10
374.1734310471129
 20
-9114.07899986997
 42
-0.0992555820868614
 10
374.1734310471129
 20
-9109.041499817198
  0
HATCH
  5
3BA
330
1F
100
AcDbEntity
  8
Ech.1_5
 62
   252
440
 33554687
370
     5
100
AcDbHatch
 10
0.0
 20
0.0
 30
0.0
210
0.0
220
0.0
230
1.0
  2
SOLID
 70
     1
 71
     1
 91
        1
 92
        3
 72
     0
 73
     1
 93
        6
 10
374.4789860480141
 20
-9109.041499843624
 10
374.4789860480141
 20
-9109.874832843583
 10
374.4789860480141
 20
-9113.24566684365
 10
374.4789860480159
 20
-9114.078999843601
 10
374.1734310471129
 20
-9114.07899986997
 10
374.1734310471129
 20
-9109.041499817198
 97
        0
 75
     0
 76
     1
 98
        0
  0
LWPOLYLINE
  5
3BB
330
1F
100
AcDbEntity
  8
Ech.1_5
 62
     7
370
     9
100
AcDbPolyline
 90
        7
 70
     0
 43
0.0
 10
374.4789860480141
 20
-9109.041499843624
 10
374.4789860480141
 20
-9109.874832843583
 10
374.4789860480141
 20
-9113.24566684365
 10
374.4789860480159
 20
-9114.078999843601
 10
374.1734310471129
 20
-9114.07899986997
 10
374.1734310471129
 20
-9109.041499817198
 10
374.4789860480141
 20
-9109.041499843624
  0
HATCH
  5
3BC
330
1F
100
AcDbEntity
  8
Ech.1_5
 62
   252
440
 33554687
370
     5
100
AcDbHatch
 10
0.0
 20
0.0
 30
0.0
210
0.0
220
0.0
230
1.0
  2
SOLID
 70
     1
 71
     1
 91
        1
 92
        3
 72
     0
 73
     1
 93
        4
 10
412.6178770448842
 20
-9110.43038884356
 10
413.4512110438027
 20
-9110.43038884356
 10
413.4512110438027
 20
-9112.690110843607
 10
412.6178770448842
 20
-9112.690110843607
 97
        0
 75
     0
 76
     1
 98
        0
  0
LWPOLYLINE
  5
3BD
330
1F
100
AcDbEntity
  8
Ech.1_5
 62
     7
370
     9
100
AcDbPolyline
 90
        5
 70
     0
 43
0.0
 10
412.6178770448842
 20
-9110.43038884356
 10
413.4512110438027
 20
-9110.43038884356
 10
413.4512110438027
 20
-9112.690110843607
 10
412.6178770448842
 20
-9112.690110843607
 10
412.6178770448842
 20
-9110.43038884356
  0
LINE
  5
3BE
330
1F
100
AcDbEntity
  8
Ech.1_5
 62
   190
370
     9
100
AcDbLine
 10
414.28454104921
 20
-9112.690110843607
 30
0.0
 11
414.28454104921
 21
-9110.43038884356
 31
0.0
  0
LINE
  5
3BF
330
1F
100
AcDbEntity
  8
Ech.1_5
 62
   190
370
     9
100
AcDbLine
 10
415.1178750481286
 20
-9112.690110843607
 30
0.0
 11
415.1178750481286
 21
-9110.43038884356
 31
0.0
  0
LINE
  5
3C0
330
1F
100
AcDbEntity
  8
Ech.1_5
 62
   190
370
     9
100
AcDbLine
 10
415.9512070502915
 20
-9112.690110843607
 30
0.0
 11
415.9512070502915
 21
-9110.43038884356
 31
0.0
  0
LINE
  5
3C1
330
1F
100
AcDbEntity
  8
Ech.1_5
 62
   190
370
     9
100
AcDbLine
 10
413.4512090470471
 20
-9112.690110843607
 30
0.0
 11
413.4512090470471
 21
-9110.43038884356
 31
0.0
  0
HATCH
  5
3C2
330
1F
100
AcDbEntity
  8
Ech.1_5
 62
   252
440
 33554687
370
     5
100
AcDbHatch
 10
0.0
 20
0.0
 30
0.0
210
0.0
220
0.0
230
1.0
  2
SOLID
 70
     1
 71
     1
 91
        1
 92
        3
 72
     0
 73
     1
 93
        4
 10
413.4512070502915
 20
-9110.43038884356
 10
414.28454104921
 20
-9110.43038884356
 10
414.28454104921
 20
-9112.690110843607
 10
413.4512070502915
 20
-9112.690110843607
 97
        0
 75
     0
 76
     1
 98
        0
  0
LWPOLYLINE
  5
3C3
330
1F
100
AcDbEntity
  8
Ech.1_5
 62
     7
370
     9
100
AcDbPolyline
 90
        5
 70
     0
 43
0.0
 10
413.4512070502915
 20
-9110.43038884356
 10
414.28454104921
 20
-9110.43038884356
 10
414.28454104921
 20
-9112.690110843607
 10
413.4512070502915
 20
-9112.690110843607
 10
413.4512070502915
 20
-9110.43038884356
  0
HATCH
  5
3C4
330
1F
100
AcDbEntity
  8
Ech.1_5
 62
   252
440
 33554687
370
     5
100
AcDbHatch
 10
0.0
 20
0.0
 30
0.0
210
0.0
220
0.0
230
1.0
  2
SOLID
 70
     1
 71
     1
 91
        1
 92
        3
 72
     0
 73
     1
 93
        4
 10
415.117873051373
 20
-9110.43038884356
 10
415.9512070502915
 20
-9110.43038884356
 10
415.9512070502915
 20
-9112.690110843607
 10
415.117873051373
 20
-9112.690110843607
 97
        0
 75
     0
 76
     1
 98
        0
  0
LWPOLYLINE
  5
3C5
330
1F
100
AcDbEntity
  8
Ech.1_5
 62
     7
370
     9
100
AcDbPolyline
 90
        5
 70
     0
 43
0.0
 10
415.117873051373
 20
-9110.43038884356
 10
415.9512070502915
 20
-9110.43038884356
 10
415.9512070502915
 20
-9112.690110843607
 10
415.117873051373
 20
-9112.690110843607
 10
415.117873051373
 20
-9110.43038884356
  0
LWPOLYLINE
  5
3C6
330
1F
100
AcDbEntity
  8
Ech.1_5
 62
   190
370
    20
100
AcDbPolyline
 90
        3
 70
     0
 43
0.0
 10
445.4963444989226
 20
-8971.59953228635
 10
338.8313273086351
 20
-8916.85234482674
 10
318.8313273086351
 20
-8916.85234482674
  0
INSERT
  5
3C7
330
1F
100
AcDbEntity
  8
Ech.1_5
 62
   190
370
    20
100
AcDbBlockReference
  2
cw-line-extremity4
 10
445.4963444989226
 20
-8971.59953228635
 30
0.0
 50
152.8302565010538
  0
LWPOLYLINE
  5
3C8
330
1F
100
AcDbEntity
  8
Ech.1_5
 62
   190
370
    20
100
AcDbPolyline
 90
        3
 70
     0
 43
0.0
 10
535.9558363570359
 20
-8738.0245133243
 10
338.8313273086351
 20
-8738.0245133243
 10
318.8313273086351
 20
-8738.0245133243
  0
INSERT
  5
3C9
330
1F
100
AcDbEntity
  8
Ech.1_5
 62
   190
370
    20
100
AcDbBlockReference
  2
cw-line-extremity4
 10
535.9558363570359
 20
-8738.0245133243
 30
0.0
 50
180.0
  0
LWPOLYLINE
  5
3CA
330
1F
100
AcDbEntity
  8
Ech.1_5
 62
   190
370
    20
100
AcDbPolyline
 90
        3
 70
     0
 43
0.0
 10
385.0774122018065
 20
-8816.40867461502
 10
338.8313273086351
 20
-8816.40867461502
 10
318.8313273086351
 20
-8816.40867461502
  0
INSERT
  5
3CB
330
1F
100
AcDbEntity
  8
Ech.1_5
 62
   190
370
    20
100
AcDbBlockReference
  2
cw-line-extremity4
 10
385.0774122018065
 20
-8816.40867461502
 30
0.0
 50
180.0
  0
LWPOLYLINE
  5
3CC
330
1F
100
AcDbEntity
  8
Ech.1_5
 62
   190
370
    20
100
AcDbPolyline
 90
        3
 70
     0
 43
0.0
 10
437.0728065871772
 20
-8677.606708798368
 10
338.8313273086351
 20
-8677.606708798368
 10
318.8313273086351
 20
-8677.606708798368
  0
INSERT
  5
3CD
330
1F
100
AcDbEntity
  8
Ech.1_5
 62
   190
370
    20
100
AcDbBlockReference
  2
cw-line-extremity4
 10
437.0728065871772
 20
-8677.606708798368
 30
0.0
 50
180.0
  0
LWPOLYLINE
  5
3CE
330
1F
100
AcDbEntity
  8
Ech.1_5
 62
   202
420
  8519880
370
    50
100
AcDbPolyline
 90
        4
 70
     0
 43
0.0
 10
449.0916282637518
 20
-8938.738774030287
 10
449.0916282637518
 20
-8951.727907450339
 10
443.4110153017573
 20
-8955.662639591254
 10
443.4110153017573
 20
-8969.141069592144
  0
LWPOLYLINE
  5
3CF
330
1F
100
AcDbEntity
  8
Ech.1_5
 62
   202
420
  8519880
370
    50
100
AcDbPolyline
 90
        4
 70
     0
 43
0.0
 10
415.1308676996887
 20
-9006.05906999512
 10
437.1147197947612
 20
-9006.05906999512
 42
0.3516434726147284
 10
447.5916282637518
 20
-8996.143761583888
 10
447.5916282637518
 20
-8957.143809317313
  0
LWPOLYLINE
  5
3D0
330
1F
100
AcDbEntity
  8
Ech.1_5
 62
   202
420
  8519880
370
    50
100
AcDbPolyline
 90
        4
 70
     0
 43
0.0
 10
449.09162826391
 20
-9154.330817217247
 10
449.09162826391
 20
-9141.341683797138
 10
443.4110153019155
 20
-9137.406951656281
 10
443.4110153019155
 20
-9123.928521655333
  0
LWPOLYLINE
  5
3D1
330
1F
100
AcDbEntity
  8
Ech.1_5
 62
   202
420
  8519880
370
    50
100
AcDbPolyline
 90
        4
 70
     0
 43
0.0
 10
415.1274076266782
 20
-9087.010521252356
 10
435.1112597217507
 20
-9087.010521252356
 42
-0.4006337679811697
 10
447.5881681907413
 20
-9096.925829663589
 10
447.5881681907413
 20
-9135.925781930164
  0
LWPOLYLINE
  5
3D2
330
1F
100
AcDbEntity
  8
Ech.1_5
 62
   190
370
    20
100
AcDbPolyline
 90
        3
 70
     0
 43
0.0
 10
407.2065152167706
 20
-9125.441157732806
 10
338.8313273086351
 20
-9197.73408740003
 10
318.8313273086351
 20
-9197.73408740003
  0
INSERT
  5
3D3
330
1F
100
AcDbEntity
  8
Ech.1_5
 62
   190
370
    20
100
AcDbBlockReference
  2
cw-line-extremity4
 10
407.2065152167706
 20
-9125.441157732806
 30
0.0
 50
226.5953299170674
  0
DIMENSION
  5
3D5
102
{ACAD_REACTORS
330
3D6
102
}
330
1F
100
AcDbEntity
  8
Ech.1_5
 62
   190
370
    20
100
AcDbDimension
280
     0
  2
*D70
 10
425.7248356091495
 20
-9086.47683286803
 30
0.0
 11
414.4748356091495
 21
-9089.018541355821
 31
0.0
 70
   160
  1
5 mm
 71
     5
 42
5.08341697558353
 73
     0
 74
     0
 75
     0
 53
90.0
  3
Standard
100
AcDbAlignedDimension
 13
419.7343602261553
 23
-9091.560249843613
 33
0.0
 14
449.7343602261553
 24
-9086.47683286803
 34
0.0
 50
-90.0
100
AcDbRotatedDimension
1001
ACAD
1000
DSTYLE
1002
{
1070
   178
1070
   190
1070
   271
1070
     0
1070
   147
1040
0.0
1070
   140
1040
12.5
1070
   340
1005
3D4
1070
   144
1040
1.0
1070
    42
1040
0.0
1070
    44
1040
5.0
1070
    41
1040
5.0
1070
   342
1005
1AB
1070
   175
1070
     1
1070
   279
1070
     2
1070
   172
1070
     1
1002
}
  0
DIMENSION
  5
3E6
102
{ACAD_REACTORS
330
3E7
102
}
330
1F
100
AcDbEntity
  8
Ech.1_5
 62
   190
370
    20
100
AcDbDimension
280
     0
  2
*D71
 10
425.7248356091495
 20
-9001.06100108851
 30
0.0
 11
414.4748356091495
 21
-9003.602709576298
 31
0.0
 70
   160
  1
5 mm
 71
     5
 42
5.083416975579892
 73
     0
 74
     0
 75
     0
 53
90.0
  3
Standard
100
AcDbAlignedDimension
 13
419.7343602261553
 23
-9006.14441806409
 33
0.0
 14
449.7343602261553
 24
-9001.06100108851
 34
0.0
 50
-90.0
100
AcDbRotatedDimension
1001
ACAD
1000
DSTYLE
1002
{
1070
   178
1070
   190
1070
   271
1070
     0
1070
   147
1040
0.0
1070
   140
1040
12.5
1070
   340
1005
3D4
1070
   144
1040
1.0
1070
    42
1040
0.0
1070
    44
1040
5.0
1070
    41
1040
5.0
1070
   342
1005
1AB
1070
   175
1070
     1
1070
   279
1070
     2
1070
   172
1070
     1
1002
}
  0
MTEXT
  5
3F6
330
1F
100
AcDbEntity
  8
Ech.1_5
 62
     4
420
    65535
100
AcDbMText
 10
743.2544973577369
 20
-9131.073990528828
 30
0.0
 40
13.75
 41
170.4693669864537
 46
0.0
 71
     1
 72
     1
  1
{\fArial|b0|i0;\W1.000000;\H13.750000;\c16711848;Conduit "ventouse"}
 73
     1
 44
1.07999975538982
  0
MTEXT
  5
3F7
330
1F
100
AcDbEntity
  8
Ech.1_5
 62
     4
420
    65535
100
AcDbMText
 10
593.6990366296113
 20
-9643.788109370496
 30
0.0
 40
12.5
 41
488.3428846351944
 46
0.0
 71
     2
 72
     1
  1
{\fArial|b0|i0;\W1.000000;\H12.500000;\c16711848;Vue en coupe verticale}
 73
     1
 44
1.07999975538982
  0
MTEXT
  5
3F8
330
1F
100
AcDbEntity
  8
Ech.1_5
 62
     4
420
    65535
100
AcDbMText
 10
914.0191466504566
 20
-9643.620932877846
 30
0.0
 40
12.5
 41
127.2973354064961
 46
0.0
 71
     2
 72
     1
  1
{\fArial|b0|i0;\W1.000000;\H12.500000;\c16711848;Ech 1/5 }
 73
     1
 44
1.07999975538982
  0
MTEXT
  5
3F9
330
1F
100
AcDbEntity
  8
Ech.1_5
 62
     4
420
    65535
100
AcDbMText
 10
265.199985314337
 20
-9643.349176575364
 30
0.0
 40
12.5
 41
143.6552179953541
 46
0.0
 71
     2
 72
     1
  1
{\fArial|b0|i0;\W1.000000;\H12.500000;\c16711848;BLEVT90-02}
 73
     1
 44
1.07999975538982
  0
MTEXT
  5
3FA
330
1F
100
AcDbEntity
  8
Ech.1_5
 62
   200
420
 11010303
100
AcDbMText
 10
491.4178143537047
 20
-9664.8057939122
 30
0.0
 40
5.625
 41
979.375
 46
0.0
 71
     2
 72
     1
  3
{\fArial|b0|i1;\W1.000000;\H5.625000;\c16711848; Il est rappelé à l'utilisateur qui consulte le site et utilise les informations qu'il contient, qu'il doit les utiliser sous sa seule responsabilité en vérifiant leur pertinence, leur cohérence et leur
  1
 non obsolescence.}
 73
     1
 44
1.07999975538982
  0
MTEXT
  5
3FB
330
1F
100
AcDbEntity
  8
Ech.1_5
 62
   200
420
 11010303
100
AcDbMText
 10
491.4178143537047
 20
-9698.657821805707
 30
0.0
 40
6.875
 41
978.125
 46
0.0
 71
     2
 72
     1
  1
{\fArial|b0|i1;\W1.000000;\H6.875000;\c16711848;www.catalogue-bois-construction.fr}
 73
     1
 44
1.07999975538982
  0
MTEXT
  5
3FC
330
1F
100
AcDbEntity
  8
Ech.1_5
 62
     4
420
    65535
100
AcDbMText
 10
491.4178143537047
 20
-8493.422221063473
 30
0.0
 40
15.0
 41
970.0
 46
0.0
 71
     2
 72
     1
  1
{\fArial|b0|i0;\W1.000000;\H15.000000;\c16711848;Traversée de paroi - Détail sur Conduit "ventouse" de chaudière - Compatible niveau étanchéité Ee1}
 73
     1
 44
1.07999975538982
  0
MTEXT
  5
3FD
330
1F
100
AcDbEntity
  8
Ech.1_5
 62
     4
420
    65535
100
AcDbMText
 10
318.8313273086351
 20
-8885.227345482392
 30
0.0
 40
13.75
 41
265.4705079197865
 46
0.0
 71
     3
 72
     1
  1
{\fArial|b0|i0;\W1.000000;\H13.750000;\c16711848;Manchon ou manchette élastique en caoutchouc EPDM - diamètre fonction du conduit}
 73
     1
 44
1.07999975538982
  0
MTEXT
  5
3FE
330
1F
100
AcDbEntity
  8
Ech.1_5
 62
     4
420
    65535
100
AcDbMText
 10
311.9563273086351
 20
-8670.731708798368
 30
0.0
 40
13.75
 41
250.6054717172829
 46
0.0
 71
     3
 72
     1
  1
{\fArial|b0|i0;\W1.000000;\H13.750000;\c16711848;Double-tasseautage bois support de bardage}
 73
     1
 44
1.07999975538982
  0
MTEXT
  5
3FF
330
1F
100
AcDbEntity
  8
Ech.1_5
 62
     4
420
    65535
100
AcDbMText
 10
311.9563273086351
 20
-8731.1495133243
 30
0.0
 40
13.75
 41
183.7312587778579
 46
0.0
 71
     3
 72
     1
  1
{\fArial|b0|i0;\W1.000000;\H13.750000;\c16711848;Paroi support}
 73
     1
 44
1.07999975538982
  0
MTEXT
  5
400
330
1F
100
AcDbEntity
  8
Ech.1_5
 62
     4
420
    65535
100
AcDbMText
 10
311.9563273086351
 20
-8784.783675270672
 30
0.0
 40
13.75
 41
286.103079226772
 46
0.0
 71
     3
 72
     1
  1
{\fArial|b0|i0;\W1.000000;\H13.750000;\c16711848;Bardage bois en lames à emboitement en pose verticale - épaisseur 20-22 mm}
 73
     1
 44
1.07999975538982
  0
MTEXT
  5
401
330
1F
100
AcDbEntity
  8
Ech.1_5
 62
     4
420
    65535
100
AcDbMText
 10
318.8313273086351
 20
-9166.10908805568
 30
0.0
 40
13.75
 41
265.4705079197865
 46
0.0
 71
     3
 72
     1
  1
{\fArial|b0|i0;\W1.000000;\H13.750000;\c16711848;Tasseaux à prévoir de part et d'autre du percement pour fixation des lames de bardage}
 73
     1
 44
1.07999975538982
  0
MTEXT
  5
402
330
1F
100
AcDbEntity
  8
Ech.1_5
 62
   200
420
 11010303
100
AcDbMText
 10
491.4178143537065
 20
-8430.012248640422
 30
0.0
 40
15.0
 41
970.0000000000036
 46
0.0
 71
     2
 72
     1
  1
{\fArial|b1|i0;\W1.000000;\H15.000000;\c16711848;BARDAGES EN LAMES : lames à emboitement - pose verticale (épaisseur 20-22 mm)}
 73
     1
 44
1.07999975538982
1001
ACAD
1000
ACAD_MTEXT_TEXT_BORDERS_BEGIN
1070
    80
1070
    16
1070
    46
1040
1.5
1070
    81
1070
     1
1070
     5
1005
420
1000
ACAD_MTEXT_TEXT_BORDERS_END
  0
TEXT
  5
404
330
1F
100
AcDbEntity
  8
Ech.1_5
 62
   190
100
AcDbText
 10
50.73994505599512
 20
-9655.780075925075
 30
0.0
 40
12.5
  1
15/10/2020
  7
arial-
100
AcDbText
  0
TEXT
  5
405
330
1F
100
AcDbEntity
  8
Ech.1_5
 62
   190
100
AcDbText
 10
357.7226086652317
 20
-8478.145716431125
 30
0.0
 40
16.5
  1
avec exigences feu façade
  7
arial-
100
AcDbText
  0
TEXT
  5
407
330
1F
100
AcDbEntity
  8
Ech.1_5
 62
   154
420
    21156
100
AcDbText
 10
837.5259219427772
 20
-8580.643275473241
 30
0.0
 40
15.0
  1
m
 50
8.975659904337919
 41
0.8
  7
tahoma-b
100
AcDbText
  0
TEXT
  5
408
330
1F
100
AcDbEntity
  8
Ech.1_5
 62
   154
420
    21156
100
AcDbText
 10
820.3972258989543
 20
-8586.26126732842
 30
0.0
 40
15.0
  1
C
 50
20.66888961048701
 41
0.8
  7
tahoma-b
100
AcDbText
  0
TEXT
  5
409
330
1F
100
AcDbEntity
  8
Ech.1_5
 62
   154
420
    21156
100
AcDbText
 10
829.2781985617131
 20
-8582.910936987584
 30
0.0
 40
15.0
  1
o
 50
15.37326472334296
 41
0.7999999999999999
  7
tahoma-b
100
AcDbText
  0
TEXT
  5
40A
330
1F
100
AcDbEntity
  8
Ech.1_5
 62
   154
420
    21156
100
AcDbText
 10
850.6057781569452
 20
-8578.577325289709
 30
0.0
 40
15.0
  1
p
 50
2.547444553697688
 41
0.7999999999999999
  7
tahoma-b
100
AcDbText
  0
TEXT
  5
40B
330
1F
100
AcDbEntity
  8
Ech.1_5
 62
   154
420
    21156
100
AcDbText
 10
859.2552528880134
 20
-8578.19250483701
 30
0.0
 40
15.0
  1
a
 50
357.5885357786794
 41
0.7999999999999999
  7
tahoma-b
100
AcDbText
  0
TEXT
  5
40C
330
1F
100
AcDbEntity
  8
Ech.1_5
 62
   154
420
    21156
100
AcDbText
 10
867.4889856168976
 20
-8578.539250867554
 30
0.0
 40
15.0
  1
t
 50
353.609164414795
 41
0.8
  7
tahoma-b
100
AcDbText
  0
TEXT
  5
40D
330
1F
100
AcDbEntity
  8
Ech.1_5
 62
   154
420
    21156
100
AcDbText
 10
872.7769997314081
 20
-8579.13154024701
 30
0.0
 40
15.0
  1
i
 50
350.9766571715705
 41
0.7999999999999999
  7
tahoma-b
100
AcDbText
  0
TEXT
  5
40E
330
1F
100
AcDbEntity
  8
Ech.1_5
 62
   154
420
    21156
100
AcDbText
 10
876.3837659583023
 20
-8579.704302285896
 30
0.0
 40
15.0
  1
b
 50
347.3646125172069
 41
0.7999999999999999
  7
tahoma-b
100
AcDbText
  0
TEXT
  5
40F
330
1F
100
AcDbEntity
  8
Ech.1_5
 62
   154
420
    21156
100
AcDbText
 10
884.8321153661765
 20
-8581.598211519897
 30
0.0
 40
15.0
  1
l
 50
343.7525678627352
 41
0.7999999999999999
  7
tahoma-b
100
AcDbText
  0
TEXT
  5
410
330
1F
100
AcDbEntity
  8
Ech.1_5
 62
   154
420
    21156
100
AcDbText
 10
888.3382257659523
 20
-8582.619979024395
 30
0.0
 40
15.0
  1
e
 50
340.2629653357337
 41
0.8
  7
tahoma-b
100
AcDbText
  0
TEXT
  5
411
330
1F
100
AcDbEntity
  8
Ech.1_5
 62
   154
420
    21156
100
AcDbText
 10
805.2334019407335
 20
-8711.264457902758
 30
0.0
 40
15.0
  1
s
 50
329.3124952401491
 41
0.8
  7
tahoma-b
100
AcDbText
  0
TEXT
  5
412
330
1F
100
AcDbEntity
  8
Ech.1_5
 62
   154
420
    21156
100
AcDbText
 10
812.23076363966
 20
-8715.417123513445
 30
0.0
 40
15.0
  1
u
 50
334.627616379442
 41
0.8000000000000002
  7
tahoma-b
100
AcDbText
  0
TEXT
  5
413
330
1F
100
AcDbEntity
  8
Ech.1_5
 62
   154
420
    21156
100
AcDbText
 10
821.3721497567476
 20
-8719.752374454056
 30
0.0
 40
15.0
  1
r
 50
339.5478999136512
 41
0.8
  7
tahoma-b
100
AcDbText
  0
TEXT
  5
414
330
1F
100
AcDbEntity
  8
Ech.1_5
 62
   154
420
    21156
100
AcDbText
 10
831.5444538161665
 20
-8723.312240294505
 30
0.0
 40
15.0
  1
p
 50
346.7359685598703
 41
0.7999999999999999
  7
tahoma-b
100
AcDbText
  0
TEXT
  5
415
330
1F
100
AcDbEntity
  8
Ech.1_5
 62
   154
420
    21156
100
AcDbText
 10
841.1889702723221
 20
-8725.585715458321
 30
0.0
 40
15.0
  1
a
 50
352.3548109071116
 41
0.7999999999999999
  7
tahoma-b
100
AcDbText
  0
TEXT
  5
416
330
1F
100
AcDbEntity
  8
Ech.1_5
 62
   154
420
    21156
100
AcDbText
 10
850.4932639763447
 20
-8726.83464300822
 30
0.0
 40
15.0
  1
r
 50
357.0624896304989
 41
0.8
  7
tahoma-b
100
AcDbText
  0
TEXT
  5
417
330
1F
100
AcDbEntity
  8
Ech.1_5
 62
   154
420
    21156
100
AcDbText
 10
857.2656201660776
 20
-8727.182161021152
 30
0.0
 40
15.0
  1
o
 50
1.861284750916473
 41
0.8000000000000002
  7
tahoma-b
100
AcDbText
  0
TEXT
  5
418
330
1F
100
AcDbEntity
  8
Ech.1_5
 62
   154
420
    21156
100
AcDbText
 10
866.9609196195725
 20
-8726.867093073608
 30
0.0
 40
15.0
  1
i
 50
6.083009645690649
 41
0.8
  7
tahoma-b
100
AcDbText
  0
TEXT
  5
419
330
1F
100
AcDbEntity
  8
Ech.1_5
 62
   154
420
    21156
100
AcDbText
 10
875.6877088249331
 20
-8725.757327134768
 30
0.0
 40
15.0
  1
b
 50
12.69400806614052
 41
0.8
  7
tahoma-b
100
AcDbText
  0
TEXT
  5
41A
330
1F
100
AcDbEntity
  8
Ech.1_5
 62
   154
420
    21156
100
AcDbText
 10
885.3543659278093
 20
-8723.579914117214
 30
0.0
 40
15.0
  1
o
 50
18.40396681049821
 41
0.7999999999999999
  7
tahoma-b
100
AcDbText
  0
TEXT
  5
41B
330
1F
100
AcDbEntity
  8
Ech.1_5
 62
   154
420
    21156
100
AcDbText
 10
894.5586473671591
 20
-8720.517349425696
 30
0.0
 40
15.0
  1
i
 50
22.62569170521065
 41
0.8
  7
tahoma-b
100
AcDbText
  0
TEXT
  5
41C
330
1F
100
AcDbEntity
  8
Ech.1_5
 62
   154
420
    21156
100
AcDbText
 10
898.9887899511177
 20
-8718.67092791506
 30
0.0
 40
15.0
  1
s
 50
26.39183478800251
 41
0.8
  7
tahoma-b
100
AcDbText
  0
TEXT
  5
41D
330
1F
100
AcDbEntity
  8
Ech.1_5
 62
   154
420
    21156
100
AcDbText
 10
834.6594902738634
 20
-8689.117049869546
 30
0.0
 40
25.0
  1
E
 50
345.2222144971133
 41
0.8000000000000002
  7
tahoma-b
100
AcDbText
  0
TEXT
  5
41E
330
1F
100
AcDbEntity
  8
Ech.1_5
 62
   154
420
    21156
100
AcDbText
 10
850.2581427612732
 20
-8693.231922258252
 30
0.0
 40
25.0
  1
e
 50
359.240676951936
 41
0.7999999999999999
  7
tahoma-b
100
AcDbText
  0
TEXT
  5
41F
330
1F
100
AcDbEntity
  8
Ech.1_5
 62
   154
420
    21156
100
AcDbText
 10
865.8712013810383
 20
-8693.43884935615
 30
0.0
 40
25.0
  1
1
 50
13.48894999979596
 41
0.7999999999999998
  7
tahoma-b
100
AcDbText
  0
LWPOLYLINE
  5
420
330
1F
100
AcDbEntity
  8
Ech.1_5
 62
   200
420
 11010303
100
AcDbPolyline
 90
        4
 70
     1
 43
0.0
 10
-1.082185646295329
 20
-8422.512248640422
 10
983.9178143537083
 20
-8422.512248640422
 10
983.9178143537083
 20
-8457.252248640421
 10
-1.082185646295329
 20
-8457.252248640421
  0
VIEWPORT
  5
233
330
22D
100
AcDbEntity
 67
     1
  8
0
100
AcDbViewport
 10
98.8
 20
135.8
 30
0.0
 40
209.0608
 41
287.3528000000001
 68
     1
 69
     1
 12
128.5
 22
97.5
 13
0.0
 23
0.0
 14
10.0
 24
10.0
 15
10.0
 25
10.0
 16
0.0
 26
0.0
 36
1.0
 17
0.0
 27
0.0
 37
0.0
 42
50.0
 43
0.0
 44
0.0
 45
222.18
 50
0.0
 51
0.0
 72
   100
 90
   557152
  1

281
     0
 71
     1
 74
     0
110
0.0
120
0.0
130
0.0
111
1.0
121
0.0
131
0.0
112
0.0
122
1.0
132
0.0
 79
     0
146
0.0
170
     0
 61
     5
348
2F
292
     1
282
     1
141
0.0
142
0.0
 63
   256
361
234
  0
VIEWPORT
  5
235
330
22D
100
AcDbEntity
 67
     1
  8
0
 60
     1
100
AcDbViewport
 10
98.8
 20
135.8
 30
0.0
 40
197.6
 41
271.6
 68
     2
 69
     2
 12
491.4178143537046
 22
-9100.012248640422
 13
0.0
 23
0.0
 14
10.0
 24
10.0
 15
10.0
 25
10.0
 16
0.0
 26
0.0
 36
1.0
 17
0.0
 27
0.0
 37
0.0
 42
50.0
 43
0.0
 44
0.0
 45
1358.0
 50
0.0
 51
0.0
 72
   100
 90
   557152
  1

281
     0
 71
     1
 74
     0
110
0.0
120
0.0
130
0.0
111
1.0
121
0.0
131
0.0
112
0.0
122
1.0
132
0.0
 79
     0
146
0.0
170
     0
 61
     5
348
2F
292
     1
282
     1
141
0.0
142
0.0
 63
   256
  0
ENDSEC
  0
SECTION
  2
OBJECTS
  0
DICTIONARY
  5
C
330
0
100
AcDbDictionary
281
     1
  3
ACAD_DETAILVIEWSTYLE
350
428
  3
ACAD_GROUP
350
D
  3
ACAD_IMAGE_DICT
350
252
  3
ACAD_IMAGE_VARS
350
6F
  3
ACAD_LAYOUT
350
1A
  3
ACAD_MATERIAL
350
43
  3
ACAD_MLEADERSTYLE
350
6B
  3
ACAD_MLINESTYLE
350
17
  3
ACAD_PLOTSETTINGS
350
19
  3
ACAD_PLOTSTYLENAME
350
E
  3
ACAD_SCALELIST
350
47
  3
ACAD_SECTIONVIEWSTYLE
350
429
  3
ACAD_TABLESTYLE
350
69
  3
ACAD_VISUALSTYLE
350
2A
  3
ACDB_RECOMPOSE_DATA
350
425
  3
AcDbVariableDictionary
350
421
  0
SUN
  5
6D
330
29
100
AcDbSun
 90
        1
290
     0
 63
     7
421
 16777215
 40
1.0
291
     1
 91
  2455826
 92
 54000000
292
     0
 70
     2
 71
   256
280
     1
  0
IMAGEDEF_REACTOR
  5
255
330
254
100
AcDbRasterImageDefReactor
 90
        2
330
254
  0
IMAGEDEF_REACTOR
  5
258
330
257
100
AcDbRasterImageDefReactor
 90
        2
330
257
  0
IMAGEDEF_REACTOR
  5
25B
330
25A
100
AcDbRasterImageDefReactor
 90
        2
330
25A
  0
SUN
  5
234
330
233
100
AcDbSun
 90
        1
290
     0
 63
     7
421
 16777215
 40
1.0
291
     1
 91
  2455826
 92
 54000000
292
     0
 70
     2
 71
   256
280
     1
  0
DICTIONARY
  5
428
102
{ACAD_REACTORS
330
C
102
}
330
C
100
AcDbDictionary
281
     1
  0
DICTIONARY
  5
D
102
{ACAD_REACTORS
330
C
102
}
330
C
100
AcDbDictionary
281
     1
  3
DIM78
350
3D6
  3
DIM79
350
3E7
  0
DICTIONARY
  5
252
102
{ACAD_REACTORS
330
C
102
}
330
C
100
AcDbDictionary
281
     1
  3
C:\Users\MAIFFR~1\AppData\Local\Temp\EXE_LOGO_FBF_soutien_Q_L.jpg1
350
256
  3
C:\Users\MAIFFR~1\AppData\Local\Temp\fcba.jpg0
350
253
  3
C:\Users\MAIFFR~1\AppData\Local\Temp\logo_codifab_baseline_soutien.jpg2
350
259
  0
RASTERVARIABLES
  5
6F
102
{ACAD_REACTORS
330
C
102
}
330
C
100
AcDbRasterVariables
 90
        0
 70
     0
 71
     1
 72
     1
  0
DICTIONARY
  5
1A
102
{ACAD_REACTORS
330
C
102
}
330
C
100
AcDbDictionary
281
     1
  3
CompleteLayout
350
1E
  3
Model
350
22
  3
PrintFrame_92
350
22E
  0
DICTIONARY
  5
43
102
{ACAD_REACTORS
330
C
102
}
330
C
100
AcDbDictionary
281
     1
  3
ByBlock
350
45
  3
ByLayer
350
44
  3
Global
350
46
  0
DICTIONARY
  5
6B
102
{ACAD_REACTORS
330
C
102
}
330
C
100
AcDbDictionary
281
     1
  3
Standard
350
6C
  0
DICTIONARY
  5
17
102
{ACAD_REACTORS
330
C
102
}
330
C
100
AcDbDictionary
281
     1
  3
Standard
350
18
  0
DICTIONARY
  5
19
102
{ACAD_REACTORS
330
C
102
}
330
C
100
AcDbDictionary
281
     1
  3
PlotSettings_
350
231
  0
ACDBDICTIONARYWDFLT
  5
E
102
{ACAD_REACTORS
330
C
102
}
330
C
100
AcDbDictionary
281
     1
  3
Normal
350
F
100
AcDbDictionaryWithDefault
340
F
  0
DICTIONARY
  5
47
102
{ACAD_REACTORS
330
C
102
}
330
C
100
AcDbDictionary
281
     1
  3
A0
350
48
  3
A1
350
49
  3
A2
350
4A
  3
A3
350
4B
  3
A4
350
4C
  3
A5
350
4D
  3
A6
350
4E
  3
A7
350
4F
  3
A8
350
50
  3
A9
350
51
  3
B0
350
52
  3
B1
350
53
  3
B2
350
54
  3
B3
350
55
  3
B4
350
56
  3
B5
350
57
  3
B6
350
58
  3
B7
350
59
  3
B8
350
5A
  3
B9
350
5B
  3
C0
350
5C
  3
C1
350
5D
  3
C2
350
5E
  3
C3
350
5F
  3
C4
350
60
  3
C5
350
61
  3
C6
350
62
  3
C7
350
63
  3
C8
350
64
  3
C9
350
65
  3
D0
350
66
  3
D1
350
67
  3
D2
350
68
  0
DICTIONARY
  5
429
102
{ACAD_REACTORS
330
C
102
}
330
C
100
AcDbDictionary
281
     1
  0
DICTIONARY
  5
69
102
{ACAD_REACTORS
330
C
102
}
330
C
100
AcDbDictionary
281
     1
  3
Standard
350
6A
  0
DICTIONARY
  5
2A
102
{ACAD_REACTORS
330
C
102
}
330
C
100
AcDbDictionary
281
     1
  3
2dWireframe
350
2F
  3
Basic
350
32
  3
Brighten
350
36
  3
ColorChange
350
3A
  3
Conceptual
350
34
  3
Dim
350
35
  3
EdgeColorOff
350
3D
  3
Facepattern
350
39
  3
Flat
350
2B
  3
FlatWithEdges
350
2C
  3
Gouraud
350
2D
  3
GouraudWithEdges
350
2E
  3
Hidden
350
31
  3
JitterOff
350
3B
  3
Linepattern
350
38
  3
OverhangOff
350
3C
  3
Realistic
350
33
  3
Shaded
350
42
  3
Shaded with edges
350
41
  3
Shades of Gray
350
3E
  3
Sketchy
350
3F
  3
Thicken
350
37
  3
Wireframe
350
30
  3
X-Ray
350
40
  0
XRECORD
  5
425
102
{ACAD_REACTORS
330
C
102
}
330
C
100
AcDbXrecord
280
     1
 90
        1
330
6A
  0
DICTIONARY
  5
421
102
{ACAD_REACTORS
330
C
102
}
330
C
100
AcDbDictionary
281
     1
  3
CANNOSCALE
350
422
  3
CMLEADERSTYLE
350
427
  3
CTABLESTYLE
350
426
  3
WIPEOUTFRAME
350
42A
  0
GROUP
  5
3D6
102
{ACAD_REACTORS
330
D
102
}
330
D
100
AcDbGroup
300

 70
     0
 71
     1
340
3D5
  0
GROUP
  5
3E7
102
{ACAD_REACTORS
330
D
102
}
330
D
100
AcDbGroup
300

 70
     0
 71
     1
340
3E6
  0
IMAGEDEF
  5
256
102
{ACAD_REACTORS
330
252
330
258
102
}
330
252
100
AcDbRasterImageDef
 90
        0
  1
EXE_LOGO_FBF_soutien_Q_L.jpg
 10
200.0
 20
133.0
 11
0.3527336860670194
 21
0.3527336860670194
280
     1
281
     3
  0
IMAGEDEF
  5
253
102
{ACAD_REACTORS
330
252
330
255
102
}
330
252
100
AcDbRasterImageDef
 90
        0
  1
fcba.jpg
 10
247.0
 20
171.0
 11
0.3527336860670194
 21
0.3527336860670194
280
     1
281
     3
  0
IMAGEDEF
  5
259
102
{ACAD_REACTORS
330
252
330
25B
102
}
330
252
100
AcDbRasterImageDef
 90
        0
  1
logo_codifab_baseline_soutien.jpg
 10
1326.0
 20
580.0
 11
0.08466683600033867
 21
0.08466683600033867
280
     1
281
     3
  0
LAYOUT
  5
1E
102
{ACAD_REACTORS
330
1A
102
}
330
1A
100
AcDbPlotSettings
  1

  2
none_device
  4

  6

 40
0.0
 41
0.0
 42
0.0
 43
0.0
 44
0.0
 45
0.0
 46
0.0
 47
0.0
 48
0.0
 49
0.0
140
0.0
141
0.0
142
1.0
143
1.0
 70
   688
 72
     0
 73
     0
 74
     5
  7

 75
    16
 76
     0
 77
     2
 78
   300
147
1.0
148
0.0
149
0.0
100
AcDbLayout
  1
CompleteLayout
 70
     1
 71
     1
 10
0.0
 20
0.0
 11
12.0
 21
9.0
 12
0.0
 22
0.0
 32
0.0
 14
1.000000000000000E+20
 24
1.000000000000000E+20
 34
1.000000000000000E+20
 15
-1.000000000000000E+20
 25
-1.000000000000000E+20
 35
-1.000000000000000E+20
146
0.0
 13
0.0
 23
0.0
 33
0.0
 16
1.0
 26
0.0
 36
0.0
 17
0.0
 27
1.0
 37
0.0
 76
     0
330
1B
  0
LAYOUT
  5
22
102
{ACAD_REACTORS
330
1A
102
}
330
1A
100
AcDbPlotSettings
  1

  2
none_device
  4
Letter_(8.50_x_11.00_Inches)
  6

 40
6.35
 41
6.35
 42
6.35000508
 43
6.35000508
 44
215.9
 45
279.4
 46
0.0
 47
0.0
 48
0.0
 49
0.0
140
0.0
141
0.0
142
1.0
143
1.0
 70
  1712
 72
     0
 73
     0
 74
     0
  7

 75
     0
 76
     0
 77
     2
 78
   300
147
1.0
148
0.0
149
0.0
100
AcDbLayout
  1
Model
 70
     1
 71
     0
 10
0.0
 20
0.0
 11
12.0
 21
9.0
 12
0.0
 22
0.0
 32
0.0
 14
-1.082185646295329
 24
-9777.512248640422
 34
0.0
 15
983.9178143537118
 25
-8422.512248640422
 35
2500.0
146
0.0
 13
0.0
 23
0.0
 33
0.0
 16
1.0
 26
0.0
 36
0.0
 17
0.0
 27
1.0
 37
0.0
 76
     0
330
1F
331
29
  0
LAYOUT
  5
22E
102
{ACAD_REACTORS
330
1A
102
}
330
1A
100
AcDbPlotSettings
  1
PlotSettings_
  2
Custom Device
  4
Custom_210.000000x297.000000_12.700000_12.700000_6.200000_6.200000
  6

 40
6.2
 41
12.7
 42
6.2
 43
12.7
 44
210.0
 45
297.0
 46
0.0
 47
0.0
 48
0.0
 49
0.0
140
0.0
141
0.0
142
1.0
143
1.0
 70
   752
 72
     1
 73
     0
 74
     5
  7

 75
    16
 76
     0
 77
     2
 78
   300
147
1.0
148
0.0
149
0.0
100
AcDbLayout
  1
PrintFrame_92
 70
     0
 71
     2
 10
-20.0
 20
-7.5
 11
277.0
 21
202.5
 12
0.0
 22
0.0
 32
0.0
 14
0.0
 24
0.0
 34
0.0
 15
197.6
 25
271.6
 35
0.0
146
0.0
 13
0.0
 23
0.0
 33
0.0
 16
1.0
 26
0.0
 36
0.0
 17
0.0
 27
1.0
 37
0.0
 76
     0
330
22D
331
233
1001
PLOTTRANSPARENCY
1071
        1
1000
layout-user-created
1070
     1
1000
layout-line-weight-scale
1042
1.0
  0
MATERIAL
  5
45
102
{ACAD_REACTORS
330
43
102
}
330
43
100
AcDbMaterial
  1
ByBlock
 72
     1
 94
      127
  0
MATERIAL
  5
44
102
{ACAD_REACTORS
330
43
102
}
330
43
100
AcDbMaterial
  1
ByLayer
 72
     1
 94
      127
  0
MATERIAL
  5
46
102
{ACAD_REACTORS
330
43
102
}
330
43
100
AcDbMaterial
  1
Global
 72
     1
 94
      127
  0
MLEADERSTYLE
  5
6C
102
{ACAD_REACTORS
330
6B
102
}
330
6B
100
AcDbMLeaderStyle
179
     2
170
     2
171
     1
172
     0
 90
        2
 40
0.0
 41
0.0
173
     1
 91
-1056964608
340
14
 92
       -2
290
     1
 42
0.09
291
     1
 43
0.36
  3
Standard
341
0
 44
0.18
300

342
11
174
     1
178
     6
175
     1
176
     0
 93
-1056964608
 45
0.18
292
     0
297
     0
 46
0.18
343
0
 94
-1056964608
 47
1.0
 49
1.0
140
1.0
293
     1
141
0.0
294
     1
177
     0
142
1.0
295
     0
296
     0
143
0.125
271
     0
272
     9
273
     9
298
     0
  0
MLINESTYLE
  5
18
102
{ACAD_REACTORS
330
17
102
}
330
17
100
AcDbMlineStyle
  2
Standard
 70
     0
  3

 62
   256
 51
90.0
 52
90.0
 71
     2
 49
0.5
 62
   256
  6
BYLAYER
 49
-0.5
 62
   256
  6
BYLAYER
  0
PLOTSETTINGS
  5
231
102
{ACAD_REACTORS
330
19
102
}
330
19
100
AcDbPlotSettings
  1
PlotSettings_
  2
Custom Device
  4
Custom_210.000000x297.000000_12.700000_12.700000_6.200000_6.200000
  6

 40
6.2
 41
12.7
 42
6.2
 43
12.7
 44
210.0
 45
297.0
 46
0.0
 47
0.0
 48
0.0
 49
0.0
140
0.0
141
0.0
142
1.0
143
1.0
 70
   752
 72
     1
 73
     0
 74
     5
  7

 75
    16
 76
     0
 77
     2
 78
   300
147
1.0
148
0.0
149
0.0
1001
PLOTTRANSPARENCY
1071
        1
1000
layout-user-created
1070
     1
1000
layout-line-weight-scale
1042
1.0
  0
ACDBPLACEHOLDER
  5
F
102
{ACAD_REACTORS
330
E
102
}
330
E
  0
SCALE
  5
48
102
{ACAD_REACTORS
330
47
102
}
330
47
100
AcDbScale
 70
     0
300
1:1
140
1.0
141
1.0
290
     1
  0
SCALE
  5
49
102
{ACAD_REACTORS
330
47
102
}
330
47
100
AcDbScale
 70
     0
300
1:2
140
1.0
141
2.0
290
     0
  0
SCALE
  5
4A
102
{ACAD_REACTORS
330
47
102
}
330
47
100
AcDbScale
 70
     0
300
1:4
140
1.0
141
4.0
290
     0
  0
SCALE
  5
4B
102
{ACAD_REACTORS
330
47
102
}
330
47
100
AcDbScale
 70
     0
300
1:5
140
1.0
141
5.0
290
     0
  0
SCALE
  5
4C
102
{ACAD_REACTORS
330
47
102
}
330
47
100
AcDbScale
 70
     0
300
1:8
140
1.0
141
8.0
290
     0
  0
SCALE
  5
4D
102
{ACAD_REACTORS
330
47
102
}
330
47
100
AcDbScale
 70
     0
300
1:10
140
1.0
141
10.0
290
     0
  0
SCALE
  5
4E
102
{ACAD_REACTORS
330
47
102
}
330
47
100
AcDbScale
 70
     0
300
1:16
140
1.0
141
16.0
290
     0
  0
SCALE
  5
4F
102
{ACAD_REACTORS
330
47
102
}
330
47
100
AcDbScale
 70
     0
300
1:20
140
1.0
141
20.0
290
     0
  0
SCALE
  5
50
102
{ACAD_REACTORS
330
47
102
}
330
47
100
AcDbScale
 70
     0
300
1:30
140
1.0
141
30.0
290
     0
  0
SCALE
  5
51
102
{ACAD_REACTORS
330
47
102
}
330
47
100
AcDbScale
 70
     0
300
1:40
140
1.0
141
40.0
290
     0
  0
SCALE
  5
52
102
{ACAD_REACTORS
330
47
102
}
330
47
100
AcDbScale
 70
     0
300
1:50
140
1.0
141
50.0
290
     0
  0
SCALE
  5
53
102
{ACAD_REACTORS
330
47
102
}
330
47
100
AcDbScale
 70
     0
300
1:100
140
1.0
141
100.0
290
     0
  0
SCALE
  5
54
102
{ACAD_REACTORS
330
47
102
}
330
47
100
AcDbScale
 70
     0
300
2:1
140
2.0
141
1.0
290
     0
  0
SCALE
  5
55
102
{ACAD_REACTORS
330
47
102
}
330
47
100
AcDbScale
 70
     0
300
4:1
140
4.0
141
1.0
290
     0
  0
SCALE
  5
56
102
{ACAD_REACTORS
330
47
102
}
330
47
100
AcDbScale
 70
     0
300
8:1
140
8.0
141
1.0
290
     0
  0
SCALE
  5
57
102
{ACAD_REACTORS
330
47
102
}
330
47
100
AcDbScale
 70
     0
300
10:1
140
10.0
141
1.0
290
     0
  0
SCALE
  5
58
102
{ACAD_REACTORS
330
47
102
}
330
47
100
AcDbScale
 70
     0
300
100:1
140
100.0
141
1.0
290
     0
  0
SCALE
  5
59
102
{ACAD_REACTORS
330
47
102
}
330
47
100
AcDbScale
 70
     0
300
1/128" = 1'-0"
140
0.0078125
141
12.0
290
     0
  0
SCALE
  5
5A
102
{ACAD_REACTORS
330
47
102
}
330
47
100
AcDbScale
 70
     0
300
1/64" = 1'-0"
140
0.015625
141
12.0
290
     0
  0
SCALE
  5
5B
102
{ACAD_REACTORS
330
47
102
}
330
47
100
AcDbScale
 70
     0
300
1/32" = 1'-0"
140
0.03125
141
12.0
290
     0
  0
SCALE
  5
5C
102
{ACAD_REACTORS
330
47
102
}
330
47
100
AcDbScale
 70
     0
300
1/16" = 1'-0"
140
0.0625
141
12.0
290
     0
  0
SCALE
  5
5D
102
{ACAD_REACTORS
330
47
102
}
330
47
100
AcDbScale
 70
     0
300
3/32" = 1'-0"
140
0.09375
141
12.0
290
     0
  0
SCALE
  5
5E
102
{ACAD_REACTORS
330
47
102
}
330
47
100
AcDbScale
 70
     0
300
1/8" = 1'-0"
140
0.125
141
12.0
290
     0
  0
SCALE
  5
5F
102
{ACAD_REACTORS
330
47
102
}
330
47
100
AcDbScale
 70
     0
300
3/16" = 1'-0"
140
0.1875
141
12.0
290
     0
  0
SCALE
  5
60
102
{ACAD_REACTORS
330
47
102
}
330
47
100
AcDbScale
 70
     0
300
1/4" = 1'-0"
140
0.25
141
12.0
290
     0
  0
SCALE
  5
61
102
{ACAD_REACTORS
330
47
102
}
330
47
100
AcDbScale
 70
     0
300
3/8" = 1'-0"
140
0.375
141
12.0
290
     0
  0
SCALE
  5
62
102
{ACAD_REACTORS
330
47
102
}
330
47
100
AcDbScale
 70
     0
300
1/2" = 1'-0"
140
0.5
141
12.0
290
     0
  0
SCALE
  5
63
102
{ACAD_REACTORS
330
47
102
}
330
47
100
AcDbScale
 70
     0
300
3/4" = 1'-0"
140
0.75
141
12.0
290
     0
  0
SCALE
  5
64
102
{ACAD_REACTORS
330
47
102
}
330
47
100
AcDbScale
 70
     0
300
1" = 1'-0"
140
1.0
141
12.0
290
     0
  0
SCALE
  5
65
102
{ACAD_REACTORS
330
47
102
}
330
47
100
AcDbScale
 70
     0
300
1-1/2" = 1'-0"
140
1.5
141
12.0
290
     0
  0
SCALE
  5
66
102
{ACAD_REACTORS
330
47
102
}
330
47
100
AcDbScale
 70
     0
300
3" = 1'-0"
140
3.0
141
12.0
290
     0
  0
SCALE
  5
67
102
{ACAD_REACTORS
330
47
102
}
330
47
100
AcDbScale
 70
     0
300
6" = 1'-0"
140
6.0
141
12.0
290
     0
  0
SCALE
  5
68
102
{ACAD_REACTORS
330
47
102
}
330
47
100
AcDbScale
 70
     0
300
1'-0" = 1'-0"
140
12.0
141
12.0
290
     0
  0
TABLESTYLE
  5
6A
102
{ACAD_REACTORS
330
69
102
}
102
{ACAD_XDICTIONARY
360
423
102
}
330
69
100
AcDbTableStyle
  3
Standard
 70
     0
 71
     0
 40
0.06
 41
0.06
280
     0
281
     0
  7
Standard
140
0.18
170
     2
 62
     0
 63
   257
283
     0
 90
        4
 91
        0
  1

274
    -2
284
     1
 64
     0
275
    -2
285
     1
 65
     0
276
    -2
286
     1
 66
     0
277
    -2
287
     1
 67
     0
278
    -2
288
     1
 68
     0
279
    -2
289
     1
 69
     0
  7
Standard
140
0.25
170
     5
 62
     0
 63
   257
283
     0
 90
        4
 91
        0
  1

274
    -2
284
     1
 64
     0
275
    -2
285
     1
 65
     0
276
    -2
286
     1
 66
     0
277
    -2
287
     1
 67
     0
278
    -2
288
     1
 68
     0
279
    -2
289
     1
 69
     0
  7
Standard
140
0.18
170
     5
 62
     0
 63
   257
283
     0
 90
        4
 91
        0
  1

274
    -2
284
     1
 64
     0
275
    -2
285
     1
 65
     0
276
    -2
286
     1
 66
     0
277
    -2
287
     1
 67
     0
278
    -2
288
     1
 68
     0
279
    -2
289
     1
 69
     0
  0
VISUALSTYLE
  5
2F
102
{ACAD_REACTORS
330
2A
102
}
330
2A
100
AcDbVisualStyle
  2
2dWireframe
 70
     4
177
     3
291
     0
 70
    58
 90
        0
176
     1
 90
        2
176
     1
 90
        0
176
     1
 90
        0
176
     1
 40
0.6
176
     1
 40
30.0
176
     1
 62
     7
420
 16777215
176
     1
 90
        1
176
     1
 90
        4
176
     1
 62
     7
176
     1
 62
   257
176
     1
 90
        1
176
     1
 90
        1
176
     1
 40
1.0
176
     1
 90
        0
176
     1
 62
   257
176
     1
 40
1.0
176
     1
 90
        1
176
     1
 90
        6
176
     1
 90
        2
176
     1
 62
     7
176
     1
 90
        5
176
     1
 90
        0
176
     1
 90
        0
176
     1
290
     0
176
     1
 90
        1
176
     1
 40
0.0
176
     1
 90
        0
176
     1
290
     1
176
     1
290
     1
176
     1
290
     0
176
     1
290
     0
176
     1
290
     0
176
     1
290
     0
176
     1
290
     0
176
     1
290
     0
176
     1
290
     0
176
     1
 90
       50
176
     1
 40
0.0
176
     1
 40
1.0
176
     1
 90
        0
176
     1
 62
    18
420
        0
176
     1
 90
       50
176
     1
 90
        3
176
     1
 62
     5
420
      255
176
     1
290
     0
176
     1
 90
       50
176
     1
 90
       50
176
     1
 90
       50
176
     1
290
     0
176
     1
 90
       50
176
     1
 62
   256
176
     0
 40
1.0
176
     0
 90
        2
176
     1
  1
strokes_ogs.tif
176
     1
290
     0
176
     1
 40
1.0
176
     1
 40
1.0
176
     1
  0
VISUALSTYLE
  5
32
102
{ACAD_REACTORS
330
2A
102
}
330
2A
100
AcDbVisualStyle
  2
Basic
 70
     7
177
     3
291
     1
 70
    58
 90
        1
176
     1
 90
        0
176
     1
 90
        1
176
     1
 90
        0
176
     1
 40
0.6
176
     1
 40
30.0
176
     1
 62
     7
420
 16777215
176
     1
 90
        0
176
     1
 90
        4
176
     1
 62
     7
176
     1
 62
   257
176
     1
 90
        1
176
     1
 90
        1
176
     1
 40
1.0
176
     1
 90
        8
176
     1
 62
     7
176
     1
 40
1.0
176
     1
 90
        1
176
     1
 90
        6
176
     1
 90
        2
176
     1
 62
     7
176
     1
 90
        5
176
     1
 90
        0
176
     1
 90
        0
176
     1
290
     0
176
     1
 90
        1
176
     1
 40
0.0
176
     1
 90
        0
176
     1
290
     0
176
     1
290
     1
176
     1
290
     1
176
     1
290
     0
176
     1
290
     0
176
     1
290
     0
176
     1
290
     0
176
     1
290
     0
176
     1
290
     0
176
     1
 90
       50
176
     1
 40
0.0
176
     1
 40
1.0
176
     1
 90
        0
176
     1
 62
    18
420
        0
176
     1
 90
       50
176
     1
 90
        3
176
     1
 62
     5
420
      255
176
     1
290
     0
176
     1
 90
       50
176
     1
 90
       50
176
     1
 90
       50
176
     1
290
     0
176
     1
 90
       50
176
     1
 62
   256
176
     0
 40
1.0
176
     0
 90
        2
176
     1
  1
strokes_ogs.tif
176
     1
290
     0
176
     1
 40
1.0
176
     1
 40
1.0
176
     1
  0
VISUALSTYLE
  5
36
102
{ACAD_REACTORS
330
2A
102
}
330
2A
100
AcDbVisualStyle
  2
Brighten
 70
    12
177
     3
291
     1
 70
    58
 90
        2
176
     1
 90
        2
176
     1
 90
        0
176
     1
 90
        0
176
     1
 40
0.6
176
     1
 40
30.0
176
     1
 62
     7
420
 16777215
176
     1
 90
        1
176
     1
 90
        4
176
     1
 62
     7
176
     1
 62
   257
176
     1
 90
        1
176
     1
 90
        1
176
     1
 40
1.0
176
     1
 90
        8
176
     1
 62
     7
176
     1
 40
1.0
176
     1
 90
        1
176
     1
 90
        6
176
     1
 90
        2
176
     1
 62
     7
176
     1
 90
        5
176
     1
 90
        0
176
     1
 90
        0
176
     1
290
     0
176
     1
 90
        1
176
     1
 40
50.0
176
     1
 90
        0
176
     1
290
     0
176
     1
290
     1
176
     1
290
     1
176
     1
290
     0
176
     1
290
     0
176
     1
290
     0
176
     1
290
     0
176
     1
290
     0
176
     1
290
     0
176
     1
 90
       50
176
     1
 40
0.0
176
     1
 40
1.0
176
     1
 90
        0
176
     1
 62
    18
420
        0
176
     1
 90
       50
176
     1
 90
        3
176
     1
 62
     5
420
      255
176
     1
290
     0
176
     1
 90
       50
176
     1
 90
       50
176
     1
 90
       50
176
     1
290
     0
176
     1
 90
       50
176
     1
 62
   256
176
     0
 40
1.0
176
     0
 90
        2
176
     1
  1
strokes_ogs.tif
176
     1
290
     0
176
     1
 40
1.0
176
     1
 40
1.0
176
     1
  0
VISUALSTYLE
  5
3A
102
{ACAD_REACTORS
330
2A
102
}
330
2A
100
AcDbVisualStyle
  2
ColorChange
 70
    16
177
     3
291
     1
 70
    58
 90
        2
176
     1
 90
        2
176
     1
 90
        3
176
     1
 90
        0
176
     1
 40
0.6
176
     1
 40
30.0
176
     1
 62
     8
420
  8421504
176
     1
 90
        1
176
     1
 90
        4
176
     1
 62
     7
176
     1
 62
   257
176
     1
 90
        1
176
     1
 90
        1
176
     1
 40
1.0
176
     1
 90
        8
176
     1
 62
     8
420
  8421504
176
     1
 40
1.0
176
     1
 90
        1
176
     1
 90
        6
176
     1
 90
        2
176
     1
 62
     7
176
     1
 90
        5
176
     1
 90
        0
176
     1
 90
        0
176
     1
290
     0
176
     1
 90
        1
176
     1
 40
0.0
176
     1
 90
        0
176
     1
290
     0
176
     1
290
     1
176
     1
290
     1
176
     1
290
     0
176
     1
290
     0
176
     1
290
     0
176
     1
290
     0
176
     1
290
     0
176
     1
290
     0
176
     1
 90
       50
176
     1
 40
0.0
176
     1
 40
1.0
176
     1
 90
        0
176
     1
 62
    18
420
        0
176
     1
 90
       50
176
     1
 90
        3
176
     1
 62
     5
420
      255
176
     1
290
     0
176
     1
 90
       50
176
     1
 90
       50
176
     1
 90
       50
176
     1
290
     0
176
     1
 90
       50
176
     1
 62
   256
176
     0
 40
1.0
176
     0
 90
        2
176
     1
  1
strokes_ogs.tif
176
     1
290
     0
176
     1
 40
1.0
176
     1
 40
1.0
176
     1
  0
VISUALSTYLE
  5
34
102
{ACAD_REACTORS
330
2A
102
}
330
2A
100
AcDbVisualStyle
  2
Conceptual
 70
     9
177
     3
291
     0
 70
    58
 90
        3
176
     1
 90
        2
176
     1
 90
        0
176
     1
 90
        0
176
     1
 40
0.6
176
     1
 40
30.0
176
     1
 62
     7
420
 16777215
176
     1
 90
        2
176
     1
 90
        2
176
     1
 62
     7
176
     1
 62
   257
176
     1
 90
        1
176
     1
 90
        1
176
     1
 40
179.0
176
     1
 90
        8
176
     1
 62
     7
176
     1
 40
1.0
176
     1
 90
        1
176
     1
 90
        6
176
     1
 90
        2
176
     1
 62
     7
176
     1
 90
        3
176
     1
 90
        0
176
     1
 90
        0
176
     1
290
     0
176
     1
 90
        1
176
     1
 40
0.0
176
     1
 90
        0
176
     1
290
     0
176
     1
290
     1
176
     1
290
     1
176
     1
290
     0
176
     1
290
     0
176
     1
290
     0
176
     1
290
     0
176
     1
290
     0
176
     1
290
     0
176
     1
 90
       50
176
     1
 40
0.0
176
     1
 40
1.0
176
     1
 90
        0
176
     1
 62
    18
420
        0
176
     1
 90
       50
176
     1
 90
        3
176
     1
 62
     5
420
      255
176
     1
290
     0
176
     1
 90
       50
176
     1
 90
       50
176
     1
 90
       50
176
     1
290
     0
176
     1
 90
       50
176
     1
 62
   256
176
     0
 40
1.0
176
     0
 90
        2
176
     1
  1
strokes_ogs.tif
176
     1
290
     0
176
     1
 40
1.0
176
     1
 40
1.0
176
     1
  0
VISUALSTYLE
  5
35
102
{ACAD_REACTORS
330
2A
102
}
330
2A
100
AcDbVisualStyle
  2
Dim
 70
    11
177
     3
291
     1
 70
    58
 90
        2
176
     1
 90
        2
176
     1
 90
        0
176
     1
 90
        0
176
     1
 40
0.6
176
     1
 40
30.0
176
     1
 62
     7
420
 16777215
176
     1
 90
        1
176
     1
 90
        4
176
     1
 62
     7
176
     1
 62
   257
176
     1
 90
        1
176
     1
 90
        1
176
     1
 40
1.0
176
     1
 90
        8
176
     1
 62
     7
176
     1
 40
1.0
176
     1
 90
        1
176
     1
 90
        6
176
     1
 90
        2
176
     1
 62
     7
176
     1
 90
        5
176
     1
 90
        0
176
     1
 90
        0
176
     1
290
     0
176
     1
 90
        1
176
     1
 40
-50.0
176
     1
 90
        0
176
     1
290
     0
176
     1
290
     1
176
     1
290
     1
176
     1
290
     0
176
     1
290
     0
176
     1
290
     0
176
     1
290
     0
176
     1
290
     0
176
     1
290
     0
176
     1
 90
       50
176
     1
 40
0.0
176
     1
 40
1.0
176
     1
 90
        0
176
     1
 62
    18
420
        0
176
     1
 90
       50
176
     1
 90
        3
176
     1
 62
     5
420
      255
176
     1
290
     0
176
     1
 90
       50
176
     1
 90
       50
176
     1
 90
       50
176
     1
290
     0
176
     1
 90
       50
176
     1
 62
   256
176
     0
 40
1.0
176
     0
 90
        2
176
     1
  1
strokes_ogs.tif
176
     1
290
     0
176
     1
 40
1.0
176
     1
 40
1.0
176
     1
  0
VISUALSTYLE
  5
3D
102
{ACAD_REACTORS
330
2A
102
}
330
2A
100
AcDbVisualStyle
  2
EdgeColorOff
 70
    22
177
     3
291
     1
 70
    58
 90
        2
176
     0
 90
        2
176
     0
 90
        0
176
     0
 90
        0
176
     0
 40
0.6
176
     0
 40
30.0
176
     0
 62
     7
420
 16777215
176
     0
 90
        1
176
     0
 90
        4
176
     0
 62
     7
176
     0
 62
   257
176
     0
 90
        1
176
     0
 90
        1
176
     0
 40
1.0
176
     0
 90
        8
176
     2
 62
     7
176
     0
 40
1.0
176
     0
 90
        1
176
     0
 90
        6
176
     0
 90
        2
176
     0
 62
     7
176
     0
 90
        5
176
     0
 90
        0
176
     0
 90
        0
176
     0
290
     0
176
     0
 90
        1
176
     0
 40
0.0
176
     0
 90
        0
176
     0
290
     0
176
     0
290
     1
176
     0
290
     1
176
     0
290
     0
176
     0
290
     0
176
     0
290
     0
176
     0
290
     0
176
     0
290
     0
176
     0
290
     0
176
     0
 90
       50
176
     0
 40
0.0
176
     0
 40
1.0
176
     0
 90
        0
176
     0
 62
    18
420
        0
176
     0
 90
       50
176
     0
 90
        3
176
     0
 62
     5
420
      255
176
     0
290
     0
176
     0
 90
       50
176
     0
 90
       50
176
     0
 90
       50
176
     0
290
     0
176
     0
 90
       50
176
     0
 62
   256
176
     0
 40
1.0
176
     0
 90
        2
176
     0
  1
strokes_ogs.tif
176
     0
290
     0
176
     0
 40
1.0
176
     0
 40
1.0
176
     0
  0
VISUALSTYLE
  5
39
102
{ACAD_REACTORS
330
2A
102
}
330
2A
100
AcDbVisualStyle
  2
Facepattern
 70
    15
177
     3
291
     1
 70
    58
 90
        2
176
     1
 90
        2
176
     1
 90
        0
176
     1
 90
        0
176
     1
 40
0.6
176
     1
 40
30.0
176
     1
 62
     7
420
 16777215
176
     1
 90
        1
176
     1
 90
        4
176
     1
 62
     7
176
     1
 62
   257
176
     1
 90
        1
176
     1
 90
        1
176
     1
 40
1.0
176
     1
 90
        8
176
     1
 62
     7
176
     1
 40
1.0
176
     1
 90
        1
176
     1
 90
        6
176
     1
 90
        2
176
     1
 62
     7
176
     1
 90
        5
176
     1
 90
        0
176
     1
 90
        0
176
     1
290
     0
176
     1
 90
        1
176
     1
 40
0.0
176
     1
 90
        0
176
     1
290
     0
176
     1
290
     1
176
     1
290
     1
176
     1
290
     0
176
     1
290
     0
176
     1
290
     0
176
     1
290
     0
176
     1
290
     0
176
     1
290
     0
176
     1
 90
       50
176
     1
 40
0.0
176
     1
 40
1.0
176
     1
 90
        0
176
     1
 62
    18
420
        0
176
     1
 90
       50
176
     1
 90
        3
176
     1
 62
     5
420
      255
176
     1
290
     0
176
     1
 90
       50
176
     1
 90
       50
176
     1
 90
       50
176
     1
290
     0
176
     1
 90
       50
176
     1
 62
   256
176
     0
 40
1.0
176
     0
 90
        2
176
     1
  1
strokes_ogs.tif
176
     1
290
     0
176
     1
 40
1.0
176
     1
 40
1.0
176
     1
  0
VISUALSTYLE
  5
2B
102
{ACAD_REACTORS
330
2A
102
}
330
2A
100
AcDbVisualStyle
  2
Flat
 70
     0
177
     3
291
     1
 70
    58
 90
        2
176
     1
 90
        1
176
     1
 90
        1
176
     1
 90
        2
176
     1
 40
0.6
176
     1
 40
30.0
176
     1
 62
     7
420
 16777215
176
     1
 90
        0
176
     1
 90
        0
176
     1
 62
     7
176
     1
 62
   257
176
     1
 90
        1
176
     1
 90
        1
176
     1
 40
1.0
176
     1
 90
        8
176
     1
 62
     7
176
     1
 40
1.0
176
     1
 90
        1
176
     1
 90
        6
176
     1
 90
        2
176
     1
 62
     7
176
     1
 90
        5
176
     1
 90
        0
176
     1
 90
        0
176
     1
290
     0
176
     1
 90
       13
176
     1
 40
0.0
176
     1
 90
        0
176
     1
290
     0
176
     1
290
     1
176
     1
290
     1
176
     1
290
     0
176
     1
290
     0
176
     1
290
     0
176
     1
290
     0
176
     1
290
     0
176
     1
290
     0
176
     1
 90
       50
176
     1
 40
0.0
176
     1
 40
1.0
176
     1
 90
        0
176
     1
 62
    18
420
        0
176
     1
 90
       50
176
     1
 90
        3
176
     1
 62
     5
420
      255
176
     1
290
     0
176
     1
 90
       50
176
     1
 90
       50
176
     1
 90
       50
176
     1
290
     0
176
     1
 90
       50
176
     1
 62
   256
176
     0
 40
1.0
176
     0
 90
        2
176
     1
  1
strokes_ogs.tif
176
     1
290
     0
176
     1
 40
1.0
176
     1
 40
1.0
176
     1
  0
VISUALSTYLE
  5
2C
102
{ACAD_REACTORS
330
2A
102
}
330
2A
100
AcDbVisualStyle
  2
FlatWithEdges
 70
     1
177
     3
291
     1
 70
    58
 90
        2
176
     1
 90
        1
176
     1
 90
        1
176
     1
 90
        2
176
     1
 40
0.6
176
     1
 40
30.0
176
     1
 62
     7
420
 16777215
176
     1
 90
        1
176
     1
 90
        0
176
     1
 62
     7
176
     1
 62
   257
176
     1
 90
        1
176
     1
 90
        1
176
     1
 40
1.0
176
     1
 90
        0
176
     1
 62
   257
176
     1
 40
1.0
176
     1
 90
        1
176
     1
 90
        6
176
     1
 90
        2
176
     1
 62
     7
176
     1
 90
        5
176
     1
 90
        0
176
     1
 90
        0
176
     1
290
     0
176
     1
 90
       13
176
     1
 40
0.0
176
     1
 90
        0
176
     1
290
     0
176
     1
290
     1
176
     1
290
     1
176
     1
290
     0
176
     1
290
     0
176
     1
290
     0
176
     1
290
     0
176
     1
290
     0
176
     1
290
     0
176
     1
 90
       50
176
     1
 40
0.0
176
     1
 40
1.0
176
     1
 90
        0
176
     1
 62
    18
420
        0
176
     1
 90
       50
176
     1
 90
        3
176
     1
 62
     5
420
      255
176
     1
290
     0
176
     1
 90
       50
176
     1
 90
       50
176
     1
 90
       50
176
     1
290
     0
176
     1
 90
       50
176
     1
 62
   256
176
     0
 40
1.0
176
     0
 90
        2
176
     1
  1
strokes_ogs.tif
176
     1
290
     0
176
     1
 40
1.0
176
     1
 40
1.0
176
     1
  0
VISUALSTYLE
  5
2D
102
{ACAD_REACTORS
330
2A
102
}
330
2A
100
AcDbVisualStyle
  2
Gouraud
 70
     2
177
     3
291
     1
 70
    58
 90
        2
176
     1
 90
        2
176
     1
 90
        1
176
     1
 90
        2
176
     1
 40
0.6
176
     1
 40
30.0
176
     1
 62
     7
420
 16777215
176
     1
 90
        0
176
     1
 90
        0
176
     1
 62
     7
176
     1
 62
   257
176
     1
 90
        1
176
     1
 90
        1
176
     1
 40
1.0
176
     1
 90
        0
176
     1
 62
     7
176
     1
 40
1.0
176
     1
 90
        1
176
     1
 90
        6
176
     1
 90
        2
176
     1
 62
     7
176
     1
 90
        5
176
     1
 90
        0
176
     1
 90
        0
176
     1
290
     0
176
     1
 90
       13
176
     1
 40
0.0
176
     1
 90
        0
176
     1
290
     0
176
     1
290
     1
176
     1
290
     1
176
     1
290
     0
176
     1
290
     0
176
     1
290
     0
176
     1
290
     0
176
     1
290
     0
176
     1
290
     0
176
     1
 90
       50
176
     1
 40
0.0
176
     1
 40
1.0
176
     1
 90
        0
176
     1
 62
    18
420
        0
176
     1
 90
       50
176
     1
 90
        3
176
     1
 62
     5
420
      255
176
     1
290
     0
176
     1
 90
       50
176
     1
 90
       50
176
     1
 90
       50
176
     1
290
     0
176
     1
 90
       50
176
     1
 62
   256
176
     0
 40
1.0
176
     0
 90
        2
176
     1
  1
strokes_ogs.tif
176
     1
290
     0
176
     1
 40
1.0
176
     1
 40
1.0
176
     1
  0
VISUALSTYLE
  5
2E
102
{ACAD_REACTORS
330
2A
102
}
330
2A
100
AcDbVisualStyle
  2
GouraudWithEdges
 70
     3
177
     3
291
     1
 70
    58
 90
        2
176
     1
 90
        2
176
     1
 90
        1
176
     1
 90
        2
176
     1
 40
0.6
176
     1
 40
30.0
176
     1
 62
     7
420
 16777215
176
     1
 90
        1
176
     1
 90
        0
176
     1
 62
     7
176
     1
 62
   257
176
     1
 90
        1
176
     1
 90
        1
176
     1
 40
1.0
176
     1
 90
        0
176
     1
 62
   257
176
     1
 40
1.0
176
     1
 90
        1
176
     1
 90
        6
176
     1
 90
        2
176
     1
 62
     7
176
     1
 90
        5
176
     1
 90
        0
176
     1
 90
        0
176
     1
290
     0
176
     1
 90
       13
176
     1
 40
0.0
176
     1
 90
        0
176
     1
290
     0
176
     1
290
     1
176
     1
290
     1
176
     1
290
     0
176
     1
290
     0
176
     1
290
     0
176
     1
290
     0
176
     1
290
     0
176
     1
290
     0
176
     1
 90
       50
176
     1
 40
0.0
176
     1
 40
1.0
176
     1
 90
        0
176
     1
 62
    18
420
        0
176
     1
 90
       50
176
     1
 90
        3
176
     1
 62
     5
420
      255
176
     1
290
     0
176
     1
 90
       50
176
     1
 90
       50
176
     1
 90
       50
176
     1
290
     0
176
     1
 90
       50
176
     1
 62
   256
176
     0
 40
1.0
176
     0
 90
        2
176
     1
  1
strokes_ogs.tif
176
     1
290
     0
176
     1
 40
1.0
176
     1
 40
1.0
176
     1
  0
VISUALSTYLE
  5
31
102
{ACAD_REACTORS
330
2A
102
}
330
2A
100
AcDbVisualStyle
  2
Hidden
 70
     6
177
     3
291
     0
 70
    58
 90
        1
176
     1
 90
        2
176
     1
 90
        2
176
     1
 90
        0
176
     1
 40
0.6
176
     1
 40
30.0
176
     1
 62
     7
420
 16777215
176
     1
 90
        2
176
     1
 90
        2
176
     1
 62
     7
176
     1
 62
   257
176
     1
 90
        2
176
     1
 90
        1
176
     1
 40
40.0
176
     1
 90
        0
176
     1
 62
   257
176
     1
 40
1.0
176
     1
 90
        1
176
     1
 90
        6
176
     1
 90
        2
176
     1
 62
     7
176
     1
 90
        3
176
     1
 90
        0
176
     1
 90
        0
176
     1
290
     0
176
     1
 90
        1
176
     1
 40
0.0
176
     1
 90
        0
176
     1
290
     0
176
     1
290
     1
176
     1
290
     1
176
     1
290
     0
176
     1
290
     0
176
     1
290
     0
176
     1
290
     0
176
     1
290
     0
176
     1
290
     0
176
     1
 90
       50
176
     1
 40
0.0
176
     1
 40
1.0
176
     1
 90
        0
176
     1
 62
    18
420
        0
176
     1
 90
       50
176
     1
 90
        3
176
     1
 62
     5
420
      255
176
     1
290
     0
176
     1
 90
       50
176
     1
 90
       50
176
     1
 90
       50
176
     1
290
     0
176
     1
 90
       50
176
     1
 62
   256
176
     0
 40
1.0
176
     0
 90
        2
176
     1
  1
strokes_ogs.tif
176
     1
290
     0
176
     1
 40
1.0
176
     1
 40
1.0
176
     1
  0
VISUALSTYLE
  5
3B
102
{ACAD_REACTORS
330
2A
102
}
330
2A
100
AcDbVisualStyle
  2
JitterOff
 70
    20
177
     3
291
     1
 70
    58
 90
        2
176
     0
 90
        2
176
     0
 90
        0
176
     0
 90
        0
176
     0
 40
0.6
176
     0
 40
30.0
176
     0
 62
     7
420
 16777215
176
     0
 90
        1
176
     0
 90
        4
176
     0
 62
     7
176
     0
 62
   257
176
     0
 90
        1
176
     0
 90
        1
176
     0
 40
1.0
176
     0
 90
       10
176
     2
 62
     7
176
     0
 40
1.0
176
     0
 90
        1
176
     0
 90
        6
176
     0
 90
        2
176
     0
 62
     7
176
     0
 90
        5
176
     0
 90
        0
176
     0
 90
        0
176
     0
290
     0
176
     0
 90
        1
176
     0
 40
0.0
176
     0
 90
        0
176
     0
290
     0
176
     0
290
     1
176
     0
290
     1
176
     0
290
     0
176
     0
290
     0
176
     0
290
     0
176
     0
290
     0
176
     0
290
     0
176
     0
290
     0
176
     0
 90
       50
176
     0
 40
0.0
176
     0
 40
1.0
176
     0
 90
        0
176
     0
 62
    18
420
        0
176
     0
 90
       50
176
     0
 90
        3
176
     0
 62
     5
420
      255
176
     0
290
     0
176
     0
 90
       50
176
     0
 90
       50
176
     0
 90
       50
176
     0
290
     0
176
     0
 90
       50
176
     0
 62
   256
176
     0
 40
1.0
176
     0
 90
        2
176
     0
  1
strokes_ogs.tif
176
     0
290
     0
176
     0
 40
1.0
176
     0
 40
1.0
176
     0
  0
VISUALSTYLE
  5
38
102
{ACAD_REACTORS
330
2A
102
}
330
2A
100
AcDbVisualStyle
  2
Linepattern
 70
    14
177
     3
291
     1
 70
    58
 90
        2
176
     1
 90
        2
176
     1
 90
        0
176
     1
 90
        0
176
     1
 40
0.6
176
     1
 40
30.0
176
     1
 62
     7
420
 16777215
176
     1
 90
        1
176
     1
 90
        4
176
     1
 62
     7
176
     1
 62
   257
176
     1
 90
        7
176
     1
 90
        7
176
     1
 40
1.0
176
     1
 90
        8
176
     1
 62
     7
176
     1
 40
1.0
176
     1
 90
        1
176
     1
 90
        6
176
     1
 90
        2
176
     1
 62
     7
176
     1
 90
        5
176
     1
 90
        0
176
     1
 90
        0
176
     1
290
     0
176
     1
 90
        1
176
     1
 40
0.0
176
     1
 90
        0
176
     1
290
     0
176
     1
290
     1
176
     1
290
     1
176
     1
290
     0
176
     1
290
     0
176
     1
290
     0
176
     1
290
     0
176
     1
290
     0
176
     1
290
     0
176
     1
 90
       50
176
     1
 40
0.0
176
     1
 40
1.0
176
     1
 90
        0
176
     1
 62
    18
420
        0
176
     1
 90
       50
176
     1
 90
        3
176
     1
 62
     5
420
      255
176
     1
290
     0
176
     1
 90
       50
176
     1
 90
       50
176
     1
 90
       50
176
     1
290
     0
176
     1
 90
       50
176
     1
 62
   256
176
     0
 40
1.0
176
     0
 90
        2
176
     1
  1
strokes_ogs.tif
176
     1
290
     0
176
     1
 40
1.0
176
     1
 40
1.0
176
     1
  0
VISUALSTYLE
  5
3C
102
{ACAD_REACTORS
330
2A
102
}
330
2A
100
AcDbVisualStyle
  2
OverhangOff
 70
    21
177
     3
291
     1
 70
    58
 90
        2
176
     0
 90
        2
176
     0
 90
        0
176
     0
 90
        0
176
     0
 40
0.6
176
     0
 40
30.0
176
     0
 62
     7
420
 16777215
176
     0
 90
        1
176
     0
 90
        4
176
     0
 62
     7
176
     0
 62
   257
176
     0
 90
        1
176
     0
 90
        1
176
     0
 40
1.0
176
     0
 90
        9
176
     2
 62
     7
176
     0
 40
1.0
176
     0
 90
        1
176
     0
 90
        6
176
     0
 90
        2
176
     0
 62
     7
176
     0
 90
        5
176
     0
 90
        0
176
     0
 90
        0
176
     0
290
     0
176
     0
 90
        1
176
     0
 40
0.0
176
     0
 90
        0
176
     0
290
     0
176
     0
290
     1
176
     0
290
     1
176
     0
290
     0
176
     0
290
     0
176
     0
290
     0
176
     0
290
     0
176
     0
290
     0
176
     0
290
     0
176
     0
 90
       50
176
     0
 40
0.0
176
     0
 40
1.0
176
     0
 90
        0
176
     0
 62
    18
420
        0
176
     0
 90
       50
176
     0
 90
        3
176
     0
 62
     5
420
      255
176
     0
290
     0
176
     0
 90
       50
176
     0
 90
       50
176
     0
 90
       50
176
     0
290
     0
176
     0
 90
       50
176
     0
 62
   256
176
     0
 40
1.0
176
     0
 90
        2
176
     0
  1
strokes_ogs.tif
176
     0
290
     0
176
     0
 40
1.0
176
     0
 40
1.0
176
     0
  0
VISUALSTYLE
  5
33
102
{ACAD_REACTORS
330
2A
102
}
330
2A
100
AcDbVisualStyle
  2
Realistic
 70
     8
177
     3
291
     0
 70
    58
 90
        2
176
     1
 90
        3
176
     1
 90
        0
176
     1
 90
        2
176
     1
 40
0.6
176
     1
 40
30.0
176
     1
 62
     7
420
 16777215
176
     1
 90
        0
176
     1
 90
        0
176
     1
 62
     7
176
     1
 62
   257
176
     1
 90
        1
176
     1
 90
        1
176
     1
 40
1.0
176
     1
 90
        8
176
     1
 62
   257
176
     1
 40
1.0
176
     1
 90
        1
176
     1
 90
        6
176
     1
 90
        2
176
     1
 62
     7
176
     1
 90
        3
176
     1
 90
        0
176
     1
 90
        0
176
     1
290
     0
176
     1
 90
       13
176
     1
 40
0.0
176
     1
 90
        0
176
     1
290
     0
176
     1
290
     1
176
     1
290
     1
176
     1
290
     0
176
     1
290
     0
176
     1
290
     0
176
     1
290
     0
176
     1
290
     0
176
     1
290
     0
176
     1
 90
       50
176
     1
 40
0.0
176
     1
 40
1.0
176
     1
 90
        0
176
     1
 62
    18
420
        0
176
     1
 90
       50
176
     1
 90
        3
176
     1
 62
     5
420
      255
176
     1
290
     0
176
     1
 90
       50
176
     1
 90
       50
176
     1
 90
       50
176
     1
290
     0
176
     1
 90
       50
176
     1
 62
   256
176
     0
 40
1.0
176
     0
 90
        2
176
     1
  1
strokes_ogs.tif
176
     1
290
     0
176
     1
 40
1.0
176
     1
 40
1.0
176
     1
  0
VISUALSTYLE
  5
42
102
{ACAD_REACTORS
330
2A
102
}
330
2A
100
AcDbVisualStyle
  2
Shaded
 70
    27
177
     3
291
     0
 70
    58
 90
        2
176
     1
 90
        2
176
     1
 90
        1
176
     1
 90
        2
176
     1
 40
0.6
176
     1
 40
30.0
176
     1
 62
     7
420
 16777215
176
     1
 90
        0
176
     1
 90
        4
176
     1
 62
     7
176
     1
 62
   257
176
     1
 90
        1
176
     1
 90
        1
176
     1
 40
1.0
176
     1
 90
        8
176
     1
 62
   257
176
     1
 40
1.0
176
     1
 90
        1
176
     1
 90
        6
176
     1
 90
        2
176
     1
 62
     8
420
  7895160
176
     1
 90
        3
176
     1
 90
        0
176
     1
 90
        0
176
     1
290
     0
176
     1
 90
        5
176
     1
 40
0.0
176
     1
 90
        0
176
     1
290
     0
176
     1
290
     1
176
     1
290
     1
176
     1
290
     0
176
     1
290
     0
176
     1
290
     0
176
     1
290
     0
176
     1
290
     0
176
     1
290
     0
176
     1
 90
       50
176
     1
 40
0.0
176
     1
 40
1.0
176
     1
 90
        0
176
     1
 62
    18
420
        0
176
     1
 90
       50
176
     1
 90
        3
176
     1
 62
     5
420
      255
176
     1
290
     0
176
     1
 90
       50
176
     1
 90
       50
176
     1
 90
       50
176
     1
290
     0
176
     1
 90
       50
176
     1
 62
   256
176
     0
 40
1.0
176
     0
 90
        2
176
     1
  1
strokes_ogs.tif
176
     1
290
     0
176
     1
 40
1.0
176
     1
 40
1.0
176
     1
  0
VISUALSTYLE
  5
41
102
{ACAD_REACTORS
330
2A
102
}
330
2A
100
AcDbVisualStyle
  2
Shaded with edges
 70
    26
177
     3
291
     0
 70
    58
 90
        2
176
     1
 90
        2
176
     1
 90
        1
176
     1
 90
        2
176
     1
 40
0.6
176
     1
 40
30.0
176
     1
 62
     7
420
 16777215
176
     1
 90
        1
176
     1
 90
       10
176
     1
 62
     7
176
     1
 62
   257
176
     1
 90
        2
176
     1
 90
        1
176
     1
 40
1.0
176
     1
 90
        8
176
     1
 62
   257
176
     1
 40
1.0
176
     1
 90
        1
176
     1
 90
        6
176
     1
 90
        2
176
     1
 62
     7
176
     1
 90
        3
176
     1
 90
        0
176
     1
 90
        0
176
     1
290
     0
176
     1
 90
        5
176
     1
 40
0.0
176
     1
 90
        0
176
     1
290
     0
176
     1
290
     1
176
     1
290
     1
176
     1
290
     0
176
     1
290
     0
176
     1
290
     0
176
     1
290
     0
176
     1
290
     0
176
     1
290
     0
176
     1
 90
       50
176
     1
 40
0.0
176
     1
 40
1.0
176
     1
 90
        0
176
     1
 62
    18
420
        0
176
     1
 90
       50
176
     1
 90
        3
176
     1
 62
     5
420
      255
176
     1
290
     0
176
     1
 90
       50
176
     1
 90
       50
176
     1
 90
       50
176
     1
290
     0
176
     1
 90
       50
176
     1
 62
   256
176
     0
 40
1.0
176
     0
 90
        2
176
     1
  1
strokes_ogs.tif
176
     1
290
     0
176
     1
 40
1.0
176
     1
 40
1.0
176
     1
  0
VISUALSTYLE
  5
3E
102
{ACAD_REACTORS
330
2A
102
}
330
2A
100
AcDbVisualStyle
  2
Shades of Gray
 70
    23
177
     3
291
     0
 70
    58
 90
        2
176
     1
 90
        2
176
     1
 90
        3
176
     1
 90
        0
176
     1
 40
0.6
176
     1
 40
30.0
176
     1
 62
     7
420
 16777215
176
     1
 90
        2
176
     1
 90
        2
176
     1
 62
     7
176
     1
 62
     7
176
     1
 90
        1
176
     1
 90
        1
176
     1
 40
40.0
176
     1
 90
        8
176
     1
 62
     7
176
     1
 40
1.0
176
     1
 90
        1
176
     1
 90
        6
176
     1
 90
        2
176
     1
 62
     7
176
     1
 90
        3
176
     1
 90
        0
176
     1
 90
        0
176
     1
290
     0
176
     1
 90
        1
176
     1
 40
0.0
176
     1
 90
        0
176
     1
290
     0
176
     1
290
     1
176
     1
290
     1
176
     1
290
     0
176
     1
290
     0
176
     1
290
     0
176
     1
290
     0
176
     1
290
     0
176
     1
290
     0
176
     1
 90
       50
176
     1
 40
0.0
176
     1
 40
1.0
176
     1
 90
        0
176
     1
 62
    18
420
        0
176
     1
 90
       50
176
     1
 90
        3
176
     1
 62
     5
420
      255
176
     1
290
     0
176
     1
 90
       50
176
     1
 90
       50
176
     1
 90
       50
176
     1
290
     0
176
     1
 90
       50
176
     1
 62
   256
176
     0
 40
1.0
176
     0
 90
        2
176
     1
  1
strokes_ogs.tif
176
     1
290
     0
176
     1
 40
1.0
176
     1
 40
1.0
176
     1
  0
VISUALSTYLE
  5
3F
102
{ACAD_REACTORS
330
2A
102
}
330
2A
100
AcDbVisualStyle
  2
Sketchy
 70
    24
177
     3
291
     0
 70
    58
 90
        1
176
     1
 90
        2
176
     1
 90
        2
176
     1
 90
        0
176
     1
 40
0.6
176
     1
 40
30.0
176
     1
 62
     7
420
 16777215
176
     1
 90
        2
176
     1
 90
        2
176
     1
 62
     7
176
     1
 62
     7
176
     1
 90
        1
176
     1
 90
        1
176
     1
 40
40.0
176
     1
 90
       11
176
     1
 62
     7
176
     1
 40
1.0
176
     1
 90
        1
176
     1
 90
        6
176
     1
 90
        2
176
     1
 62
     7
176
     1
 90
        6
176
     1
 90
        0
176
     1
 90
        0
176
     1
290
     0
176
     1
 90
        1
176
     1
 40
0.0
176
     1
 90
        0
176
     1
290
     0
176
     1
290
     1
176
     1
290
     1
176
     1
290
     0
176
     1
290
     0
176
     1
290
     0
176
     1
290
     0
176
     1
290
     0
176
     1
290
     0
176
     1
 90
       50
176
     1
 40
0.0
176
     1
 40
1.0
176
     1
 90
        0
176
     1
 62
    18
420
        0
176
     1
 90
       50
176
     1
 90
        3
176
     1
 62
     5
420
      255
176
     1
290
     0
176
     1
 90
       50
176
     1
 90
       50
176
     1
 90
       50
176
     1
290
     0
176
     1
 90
       50
176
     1
 62
   256
176
     0
 40
1.0
176
     0
 90
        2
176
     1
  1
strokes_ogs.tif
176
     1
290
     0
176
     1
 40
1.0
176
     1
 40
1.0
176
     1
  0
VISUALSTYLE
  5
37
102
{ACAD_REACTORS
330
2A
102
}
330
2A
100
AcDbVisualStyle
  2
Thicken
 70
    13
177
     3
291
     1
 70
    58
 90
        2
176
     1
 90
        2
176
     1
 90
        0
176
     1
 90
        0
176
     1
 40
0.6
176
     1
 40
30.0
176
     1
 62
     7
420
 16777215
176
     1
 90
        1
176
     1
 90
        4
176
     1
 62
     7
176
     1
 62
   257
176
     1
 90
        1
176
     1
 90
        1
176
     1
 40
1.0
176
     1
 90
       12
176
     1
 62
     7
176
     1
 40
1.0
176
     1
 90
        1
176
     1
 90
        6
176
     1
 90
        2
176
     1
 62
     7
176
     1
 90
        5
176
     1
 90
        0
176
     1
 90
        0
176
     1
290
     0
176
     1
 90
        1
176
     1
 40
0.0
176
     1
 90
        0
176
     1
290
     0
176
     1
290
     1
176
     1
290
     1
176
     1
290
     0
176
     1
290
     0
176
     1
290
     0
176
     1
290
     0
176
     1
290
     0
176
     1
290
     0
176
     1
 90
       50
176
     1
 40
0.0
176
     1
 40
1.0
176
     1
 90
        0
176
     1
 62
    18
420
        0
176
     1
 90
       50
176
     1
 90
        3
176
     1
 62
     5
420
      255
176
     1
290
     0
176
     1
 90
       50
176
     1
 90
       50
176
     1
 90
       50
176
     1
290
     0
176
     1
 90
       50
176
     1
 62
   256
176
     0
 40
1.0
176
     0
 90
        2
176
     1
  1
strokes_ogs.tif
176
     1
290
     0
176
     1
 40
1.0
176
     1
 40
1.0
176
     1
  0
VISUALSTYLE
  5
30
102
{ACAD_REACTORS
330
2A
102
}
330
2A
100
AcDbVisualStyle
  2
Wireframe
 70
     5
177
     3
291
     0
 70
    58
 90
        0
176
     1
 90
        2
176
     1
 90
        0
176
     1
 90
        0
176
     1
 40
0.6
176
     1
 40
30.0
176
     1
 62
     7
420
 16777215
176
     1
 90
        1
176
     1
 90
        4
176
     1
 62
     7
176
     1
 62
   257
176
     1
 90
        1
176
     1
 90
        1
176
     1
 40
1.0
176
     1
 90
        0
176
     1
 62
   257
176
     1
 40
1.0
176
     1
 90
        1
176
     1
 90
        6
176
     1
 90
        2
176
     1
 62
     7
176
     1
 90
        3
176
     1
 90
        0
176
     1
 90
        0
176
     1
290
     0
176
     1
 90
        1
176
     1
 40
0.0
176
     1
 90
        0
176
     1
290
     0
176
     1
290
     1
176
     1
290
     1
176
     1
290
     0
176
     1
290
     0
176
     1
290
     0
176
     1
290
     0
176
     1
290
     0
176
     1
290
     0
176
     1
 90
       50
176
     1
 40
0.0
176
     1
 40
1.0
176
     1
 90
        0
176
     1
 62
    18
420
        0
176
     1
 90
       50
176
     1
 90
        3
176
     1
 62
     5
420
      255
176
     1
290
     0
176
     1
 90
       50
176
     1
 90
       50
176
     1
 90
       50
176
     1
290
     0
176
     1
 90
       50
176
     1
 62
   256
176
     0
 40
1.0
176
     0
 90
        2
176
     1
  1
strokes_ogs.tif
176
     1
290
     0
176
     1
 40
1.0
176
     1
 40
1.0
176
     1
  0
VISUALSTYLE
  5
40
102
{ACAD_REACTORS
330
2A
102
}
330
2A
100
AcDbVisualStyle
  2
X-Ray
 70
    25
177
     3
291
     0
 70
    58
 90
        2
176
     1
 90
        2
176
     1
 90
        1
176
     1
 90
        1
176
     1
 40
0.5
176
     1
 40
30.0
176
     1
 62
     7
420
 16777215
176
     1
 90
        1
176
     1
 90
        0
176
     1
 62
     7
176
     1
 62
   257
176
     1
 90
        1
176
     1
 90
        1
176
     1
 40
1.0
176
     1
 90
        8
176
     1
 62
     7
176
     1
 40
1.0
176
     1
 90
        1
176
     1
 90
        6
176
     1
 90
        2
176
     1
 62
     7
176
     1
 90
        3
176
     1
 90
        0
176
     1
 90
        0
176
     1
290
     0
176
     1
 90
       13
176
     1
 40
0.0
176
     1
 90
        0
176
     1
290
     0
176
     1
290
     1
176
     1
290
     1
176
     1
290
     0
176
     1
290
     0
176
     1
290
     0
176
     1
290
     0
176
     1
290
     0
176
     1
290
     0
176
     1
 90
       50
176
     1
 40
0.0
176
     1
 40
1.0
176
     1
 90
        0
176
     1
 62
    18
420
        0
176
     1
 90
       50
176
     1
 90
        3
176
     1
 62
     5
420
      255
176
     1
290
     0
176
     1
 90
       50
176
     1
 90
       50
176
     1
 90
       50
176
     1
290
     0
176
     1
 90
       50
176
     1
 62
   256
176
     0
 40
1.0
176
     0
 90
        2
176
     1
  1
strokes_ogs.tif
176
     1
290
     0
176
     1
 40
1.0
176
     1
 40
1.0
176
     1
  0
DICTIONARYVAR
  5
422
102
{ACAD_REACTORS
330
421
102
}
330
421
100
DictionaryVariables
280
     0
  1
1:1
  0
DICTIONARYVAR
  5
427
102
{ACAD_REACTORS
330
421
102
}
330
421
100
DictionaryVariables
280
     0
  1
Standard
  0
DICTIONARYVAR
  5
426
102
{ACAD_REACTORS
330
421
102
}
330
421
100
DictionaryVariables
280
     0
  1
Standard
  0
DICTIONARYVAR
  5
42A
102
{ACAD_REACTORS
330
421
102
}
330
421
100
DictionaryVariables
280
     0
  1
0
  0
DICTIONARY
  5
423
330
6A
100
AcDbDictionary
280
     1
281
     1
  3
ACAD_ROUNDTRIP_2008_TABLESTYLE_CELLSTYLEMAP
360
424
  0
CELLSTYLEMAP
  5
424
102
{ACAD_REACTORS
330
423
102
}
330
423
100
AcDbCellStyleMap
 90
        3
300
CELLSTYLE
  1
TABLEFORMAT_BEGIN
 90
        5
170
     1
 91
        0
 92
    32768
 62
   257
 93
        1
300
CONTENTFORMAT
  1
CONTENTFORMAT_BEGIN
 90
        0
 91
        0
 92
        4
 93
        0
300

 40
0.0
140
1.0
 94
        5
 62
     0
340
11
144
0.25
309
CONTENTFORMAT_END
171
     1
301
MARGIN
  1
CELLMARGIN_BEGIN
 40
0.06
 40
0.06
 40
0.06
 40
0.06
 40
0.06
 40
0.06
309
CELLMARGIN_END
 94
        6
 95
        1
302
GRIDFORMAT
  1
GRIDFORMAT_BEGIN
 90
        0
 91
        1
 62
     0
 92
       -2
340
14
 93
        0
 40
0.045
309
GRIDFORMAT_END
 95
        2
302
GRIDFORMAT
  1
GRIDFORMAT_BEGIN
 90
        0
 91
        1
 62
     0
 92
       -2
340
14
 93
        0
 40
0.045
309
GRIDFORMAT_END
 95
        4
302
GRIDFORMAT
  1
GRIDFORMAT_BEGIN
 90
        0
 91
        1
 62
     0
 92
       -2
340
14
 93
        0
 40
0.045
309
GRIDFORMAT_END
 95
        8
302
GRIDFORMAT
  1
GRIDFORMAT_BEGIN
 90
        0
 91
        1
 62
     0
 92
       -2
340
14
 93
        0
 40
0.045
309
GRIDFORMAT_END
 95
       16
302
GRIDFORMAT
  1
GRIDFORMAT_BEGIN
 90
        0
 91
        1
 62
     0
 92
       -2
340
14
 93
        0
 40
0.045
309
GRIDFORMAT_END
 95
       32
302
GRIDFORMAT
  1
GRIDFORMAT_BEGIN
 90
        0
 91
        1
 62
     0
 92
       -2
340
14
 93
        0
 40
0.045
309
GRIDFORMAT_END
309
TABLEFORMAT_END
  1
CELLSTYLE_BEGIN
 90
        1
 91
        1
300
_TITLE
309
CELLSTYLE_END
300
CELLSTYLE
  1
TABLEFORMAT_BEGIN
 90
        5
170
     1
 91
        0
 92
        0
 62
   257
 93
        1
300
CONTENTFORMAT
  1
CONTENTFORMAT_BEGIN
 90
        0
 91
        0
 92
        4
 93
        0
300

 40
0.0
140
1.0
 94
        5
 62
     0
340
11
144
0.18
309
CONTENTFORMAT_END
171
     1
301
MARGIN
  1
CELLMARGIN_BEGIN
 40
0.06
 40
0.06
 40
0.06
 40
0.06
 40
0.06
 40
0.06
309
CELLMARGIN_END
 94
        6
 95
        1
302
GRIDFORMAT
  1
GRIDFORMAT_BEGIN
 90
        0
 91
        1
 62
     0
 92
       -2
340
14
 93
        0
 40
0.045
309
GRIDFORMAT_END
 95
        2
302
GRIDFORMAT
  1
GRIDFORMAT_BEGIN
 90
        0
 91
        1
 62
     0
 92
       -2
340
14
 93
        0
 40
0.045
309
GRIDFORMAT_END
 95
        4
302
GRIDFORMAT
  1
GRIDFORMAT_BEGIN
 90
        0
 91
        1
 62
     0
 92
       -2
340
14
 93
        0
 40
0.045
309
GRIDFORMAT_END
 95
        8
302
GRIDFORMAT
  1
GRIDFORMAT_BEGIN
 90
        0
 91
        1
 62
     0
 92
       -2
340
14
 93
        0
 40
0.045
309
GRIDFORMAT_END
 95
       16
302
GRIDFORMAT
  1
GRIDFORMAT_BEGIN
 90
        0
 91
        1
 62
     0
 92
       -2
340
14
 93
        0
 40
0.045
309
GRIDFORMAT_END
 95
       32
302
GRIDFORMAT
  1
GRIDFORMAT_BEGIN
 90
        0
 91
        1
 62
     0
 92
       -2
340
14
 93
        0
 40
0.045
309
GRIDFORMAT_END
309
TABLEFORMAT_END
  1
CELLSTYLE_BEGIN
 90
        2
 91
        1
300
_HEADER
309
CELLSTYLE_END
300
CELLSTYLE
  1
TABLEFORMAT_BEGIN
 90
        5
170
     1
 91
        0
 92
        0
 62
   257
 93
        1
300
CONTENTFORMAT
  1
CONTENTFORMAT_BEGIN
 90
        0
 91
        0
 92
        4
 93
        0
300

 40
0.0
140
1.0
 94
        2
 62
     0
340
11
144
0.18
309
CONTENTFORMAT_END
171
     1
301
MARGIN
  1
CELLMARGIN_BEGIN
 40
0.06
 40
0.06
 40
0.06
 40
0.06
 40
0.06
 40
0.06
309
CELLMARGIN_END
 94
        6
 95
        1
302
GRIDFORMAT
  1
GRIDFORMAT_BEGIN
 90
        0
 91
        1
 62
     0
 92
       -2
340
14
 93
        0
 40
0.045
309
GRIDFORMAT_END
 95
        2
302
GRIDFORMAT
  1
GRIDFORMAT_BEGIN
 90
        0
 91
        1
 62
     0
 92
       -2
340
14
 93
        0
 40
0.045
309
GRIDFORMAT_END
 95
        4
302
GRIDFORMAT
  1
GRIDFORMAT_BEGIN
 90
        0
 91
        1
 62
     0
 92
       -2
340
14
 93
        0
 40
0.045
309
GRIDFORMAT_END
 95
        8
302
GRIDFORMAT
  1
GRIDFORMAT_BEGIN
 90
        0
 91
        1
 62
     0
 92
       -2
340
14
 93
        0
 40
0.045
309
GRIDFORMAT_END
 95
       16
302
GRIDFORMAT
  1
GRIDFORMAT_BEGIN
 90
        0
 91
        1
 62
     0
 92
       -2
340
14
 93
        0
 40
0.045
309
GRIDFORMAT_END
 95
       32
302
GRIDFORMAT
  1
GRIDFORMAT_BEGIN
 90
        0
 91
        1
 62
     0
 92
       -2
340
14
 93
        0
 40
0.045
309
GRIDFORMAT_END
309
TABLEFORMAT_END
  1
CELLSTYLE_BEGIN
 90
        3
 91
        2
300
_DATA
309
CELLSTYLE_END
  0
ENDSEC
  0
EOF
