  0
SECTION
  2
HEADER
  9
$ACADVER
  1
AC1027
  9
$ACADMAINTVER
 70
   105
  9
$DWGCODEPAGE
  3
ANSI_1252
  9
$REQUIREDVERSIONS
160
                 0
  9
$INSBASE
 10
0.0
 20
0.0
 30
0.0
  9
$EXTMIN
 10
3553.917814353686
 20
-4163.934195933248
 30
0.0
  9
$EXTMAX
 10
4538.917814353676
 20
-2808.934195933248
 30
0.0
  9
$LIMMIN
 10
0.0
 20
0.0
  9
$LIMMAX
 10
12.0
 20
9.0
  9
$ORTHOMODE
 70
     0
  9
$REGENMODE
 70
     1
  9
$FILLMODE
 70
     1
  9
$QTEXTMODE
 70
     0
  9
$MIRRTEXT
 70
     1
  9
$LTSCALE
 40
5.0
  9
$ATTMODE
 70
     1
  9
$TEXTSIZE
 40
0.2
  9
$TRACEWID
 40
0.05
  9
$TEXTSTYLE
  7
Standard
  9
$CLAYER
  8
0
  9
$CELTYPE
  6
ByLayer
  9
$CECOLOR
 62
   256
  9
$CELTSCALE
 40
1.0
  9
$DISPSILH
 70
     0
  9
$DIMSCALE
 40
1.0
  9
$DIMASZ
 40
0.18
  9
$DIMEXO
 40
0.0625
  9
$DIMDLI
 40
0.38
  9
$DIMRND
 40
0.0
  9
$DIMDLE
 40
0.0
  9
$DIMEXE
 40
0.18
  9
$DIMTP
 40
0.0
  9
$DIMTM
 40
0.0
  9
$DIMTXT
 40
0.18
  9
$DIMCEN
 40
0.09
  9
$DIMTSZ
 40
0.0
  9
$DIMTOL
 70
     0
  9
$DIMLIM
 70
     0
  9
$DIMTIH
 70
     1
  9
$DIMTOH
 70
     1
  9
$DIMSE1
 70
     0
  9
$DIMSE2
 70
     0
  9
$DIMTAD
 70
     0
  9
$DIMZIN
 70
     0
  9
$DIMBLK
  1

  9
$DIMASO
 70
     1
  9
$DIMSHO
 70
     1
  9
$DIMPOST
  1

  9
$DIMAPOST
  1

  9
$DIMALT
 70
     0
  9
$DIMALTD
 70
     2
  9
$DIMALTF
 40
25.4
  9
$DIMLFAC
 40
1.0
  9
$DIMTOFL
 70
     1
  9
$DIMTVP
 40
0.0
  9
$DIMTIX
 70
     0
  9
$DIMSOXD
 70
     1
  9
$DIMSAH
 70
     0
  9
$DIMBLK1
  1

  9
$DIMBLK2
  1

  9
$DIMSTYLE
  2
Standard
  9
$DIMCLRD
 70
     0
  9
$DIMCLRE
 70
     0
  9
$DIMCLRT
 70
     0
  9
$DIMTFAC
 40
1.0
  9
$DIMGAP
 40
0.09
  9
$DIMJUST
 70
     0
  9
$DIMSD1
 70
     0
  9
$DIMSD2
 70
     0
  9
$DIMTOLJ
 70
     1
  9
$DIMTZIN
 70
     0
  9
$DIMALTZ
 70
     0
  9
$DIMALTTZ
 70
     0
  9
$DIMUPT
 70
     0
  9
$DIMDEC
 70
     4
  9
$DIMTDEC
 70
     4
  9
$DIMALTU
 70
     2
  9
$DIMALTTD
 70
     2
  9
$DIMTXSTY
  7
Standard
  9
$DIMAUNIT
 70
     0
  9
$DIMADEC
 70
     0
  9
$DIMALTRND
 40
0.0
  9
$DIMAZIN
 70
     0
  9
$DIMDSEP
 70
    46
  9
$DIMATFIT
 70
     3
  9
$DIMFRAC
 70
     0
  9
$DIMLDRBLK
  1

  9
$DIMLUNIT
 70
     2
  9
$DIMLWD
 70
    -2
  9
$DIMLWE
 70
    -2
  9
$DIMTMOVE
 70
     2
  9
$DIMFXL
 40
1.0
  9
$DIMFXLON
 70
     0
  9
$DIMJOGANG
 40
0.7853981633974483
  9
$DIMTFILL
 70
     0
  9
$DIMTFILLCLR
 70
     0
  9
$DIMARCSYM
 70
     0
  9
$DIMLTYPE
  6

  9
$DIMLTEX1
  6

  9
$DIMLTEX2
  6

  9
$DIMTXTDIRECTION
 70
     0
  9
$LUNITS
 70
     2
  9
$LUPREC
 70
     4
  9
$SKETCHINC
 40
0.1
  9
$FILLETRAD
 40
0.5
  9
$AUNITS
 70
     0
  9
$AUPREC
 70
     0
  9
$MENU
  1
.
  9
$ELEVATION
 40
0.0
  9
$PELEVATION
 40
0.0
  9
$THICKNESS
 40
0.0
  9
$LIMCHECK
 70
     0
  9
$CHAMFERA
 40
0.0
  9
$CHAMFERB
 40
0.0
  9
$CHAMFERC
 40
0.0
  9
$CHAMFERD
 40
0.0
  9
$SKPOLY
 70
     0
  9
$TDCREATE
 40
2459184.490773264
  9
$TDUCREATE
 40
2459184.449106597
  9
$TDUPDATE
 40
2459184.490775255
  9
$TDUUPDATE
 40
2459184.449108588
  9
$TDINDWG
 40
0.0000000116
  9
$TDUSRTIMER
 40
0.0000000116
  9
$USRTIMER
 70
     1
  9
$ANGBASE
 50
0.0
  9
$ANGDIR
 70
     0
  9
$PDMODE
 70
     0
  9
$PDSIZE
 40
0.0
  9
$PLINEWID
 40
0.0
  9
$SPLFRAME
 70
     0
  9
$SPLINETYPE
 70
     6
  9
$SPLINESEGS
 70
     8
  9
$HANDSEED
  5
434
  9
$SURFTAB1
 70
     6
  9
$SURFTAB2
 70
     6
  9
$SURFTYPE
 70
     6
  9
$SURFU
 70
     6
  9
$SURFV
 70
     6
  9
$UCSBASE
  2

  9
$UCSNAME
  2

  9
$UCSORG
 10
0.0
 20
0.0
 30
0.0
  9
$UCSXDIR
 10
1.0
 20
0.0
 30
0.0
  9
$UCSYDIR
 10
0.0
 20
1.0
 30
0.0
  9
$UCSORTHOREF
  2

  9
$UCSORTHOVIEW
 70
     0
  9
$UCSORGTOP
 10
0.0
 20
0.0
 30
0.0
  9
$UCSORGBOTTOM
 10
0.0
 20
0.0
 30
0.0
  9
$UCSORGLEFT
 10
0.0
 20
0.0
 30
0.0
  9
$UCSORGRIGHT
 10
0.0
 20
0.0
 30
0.0
  9
$UCSORGFRONT
 10
0.0
 20
0.0
 30
0.0
  9
$UCSORGBACK
 10
0.0
 20
0.0
 30
0.0
  9
$PUCSBASE
  2

  9
$PUCSNAME
  2

  9
$PUCSORG
 10
0.0
 20
0.0
 30
0.0
  9
$PUCSXDIR
 10
1.0
 20
0.0
 30
0.0
  9
$PUCSYDIR
 10
0.0
 20
1.0
 30
0.0
  9
$PUCSORTHOREF
  2

  9
$PUCSORTHOVIEW
 70
     0
  9
$PUCSORGTOP
 10
0.0
 20
0.0
 30
0.0
  9
$PUCSORGBOTTOM
 10
0.0
 20
0.0
 30
0.0
  9
$PUCSORGLEFT
 10
0.0
 20
0.0
 30
0.0
  9
$PUCSORGRIGHT
 10
0.0
 20
0.0
 30
0.0
  9
$PUCSORGFRONT
 10
0.0
 20
0.0
 30
0.0
  9
$PUCSORGBACK
 10
0.0
 20
0.0
 30
0.0
  9
$USERI1
 70
     0
  9
$USERI2
 70
     0
  9
$USERI3
 70
     0
  9
$USERI4
 70
     0
  9
$USERI5
 70
     0
  9
$USERR1
 40
0.0
  9
$USERR2
 40
0.0
  9
$USERR3
 40
0.0
  9
$USERR4
 40
0.0
  9
$USERR5
 40
0.0
  9
$WORLDVIEW
 70
     1
  9
$SHADEDGE
 70
     3
  9
$SHADEDIF
 70
    70
  9
$TILEMODE
 70
     1
  9
$MAXACTVP
 70
    64
  9
$PINSBASE
 10
0.0
 20
0.0
 30
0.0
  9
$PLIMCHECK
 70
     0
  9
$PEXTMIN
 10
0.0
 20
0.0
 30
0.0
  9
$PEXTMAX
 10
197.5999999999982
 20
271.5999999999982
 30
0.0
  9
$PLIMMIN
 10
-20.0
 20
-7.5
  9
$PLIMMAX
 10
277.0
 20
202.5
  9
$UNITMODE
 70
     0
  9
$VISRETAIN
 70
     1
  9
$PLINEGEN
 70
     0
  9
$PSLTSCALE
 70
     0
  9
$TREEDEPTH
 70
  3020
  9
$CMLSTYLE
  2
Standard
  9
$CMLJUST
 70
     0
  9
$CMLSCALE
 40
1.0
  9
$PROXYGRAPHICS
 70
     1
  9
$MEASUREMENT
 70
     1
  9
$CELWEIGHT
370
    -1
  9
$ENDCAPS
280
     0
  9
$JOINSTYLE
280
     0
  9
$LWDISPLAY
290
     0
  9
$INSUNITS
 70
     4
  9
$HYPERLINKBASE
  1

  9
$STYLESHEET
  1

  9
$XEDIT
290
     1
  9
$CEPSNTYPE
380
     0
  9
$PSTYLEMODE
290
     0
  9
$FINGERPRINTGUID
  2
{E2454E3F-D289-4AF5-B5A1-D5A2FC10CEE3}
  9
$VERSIONGUID
  2
{FAEB1C32-E019-11D5-929B-00C0DF256EC4}
  9
$EXTNAMES
290
     1
  9
$PSVPSCALE
 40
0.0
  9
$OLESTARTUP
290
     0
  9
$SORTENTS
280
   127
  9
$INDEXCTL
280
     0
  9
$HIDETEXT
280
     1
  9
$XCLIPFRAME
280
     2
  9
$HALOGAP
280
     0
  9
$OBSCOLOR
 70
   257
  9
$OBSLTYPE
280
     0
  9
$INTERSECTIONDISPLAY
280
     0
  9
$INTERSECTIONCOLOR
 70
   257
  9
$DIMASSOC
280
     2
  9
$PROJECTNAME
  1

  9
$CAMERADISPLAY
290
     0
  9
$LENSLENGTH
 40
50.0
  9
$CAMERAHEIGHT
 40
0.0
  9
$STEPSPERSEC
 40
2.0
  9
$STEPSIZE
 40
6.0
  9
$3DDWFPREC
 40
2.0
  9
$PSOLWIDTH
 40
0.25
  9
$PSOLHEIGHT
 40
4.0
  9
$LOFTANG1
 40
1.570796326794897
  9
$LOFTANG2
 40
1.570796326794897
  9
$LOFTMAG1
 40
0.0
  9
$LOFTMAG2
 40
0.0
  9
$LOFTPARAM
 70
     7
  9
$LOFTNORMALS
280
     1
  9
$LATITUDE
 40
37.795
  9
$LONGITUDE
 40
-122.394
  9
$NORTHDIRECTION
 40
0.0
  9
$TIMEZONE
 70
 -8000
  9
$LIGHTGLYPHDISPLAY
280
     1
  9
$TILEMODELIGHTSYNCH
280
     1
  9
$CMATERIAL
347
44
  9
$SOLIDHIST
280
     0
  9
$SHOWHIST
280
     1
  9
$DWFFRAME
280
     2
  9
$DGNFRAME
280
     2
  9
$REALWORLDSCALE
290
     1
  9
$INTERFERECOLOR
 62
   256
  9
$CSHADOW
280
     0
  9
$SHADOWPLANELOCATION
 40
0.0
  0
ENDSEC
  0
SECTION
  2
CLASSES
  0
CLASS
  1
ACDBDICTIONARYWDFLT
  2
AcDbDictionaryWithDefault
  3
ObjectDBX Classes
 90
        0
 91
        3
280
     0
281
     0
  0
CLASS
  1
VISUALSTYLE
  2
AcDbVisualStyle
  3
ObjectDBX Classes
 90
     4095
 91
        3
280
     0
281
     0
  0
CLASS
  1
MATERIAL
  2
AcDbMaterial
  3
ObjectDBX Classes
 90
     1153
 91
        3
280
     0
281
     0
  0
CLASS
  1
SCALE
  2
AcDbScale
  3
ObjectDBX Classes
 90
     1153
 91
        3
280
     0
281
     0
  0
CLASS
  1
TABLESTYLE
  2
AcDbTableStyle
  3
ObjectDBX Classes
 90
     4095
 91
        3
280
     0
281
     0
  0
CLASS
  1
MLEADERSTYLE
  2
AcDbMLeaderStyle
  3
ACDB_MLEADERSTYLE_CLASS
 90
     4095
 91
        3
280
     0
281
     0
  0
CLASS
  1
SUN
  2
AcDbSun
  3
SCENEOE
 90
     1153
 91
        3
280
     0
281
     0
  0
CLASS
  1
RASTERVARIABLES
  2
AcDbRasterVariables
  3
ISM
 90
        0
 91
        3
280
     0
281
     0
  0
CLASS
  1
PLOTSETTINGS
  2
AcDbPlotSettings
  3
ObjectDBX Classes
 90
        0
 91
        3
280
     0
281
     0
  0
CLASS
  1
IMAGEDEF
  2
AcDbRasterImageDef
  3
ISM
 90
        0
 91
        3
280
     0
281
     0
  0
CLASS
  1
IMAGE
  2
AcDbRasterImage
  3
ISM
 90
      127
 91
        4
280
     0
281
     1
  0
CLASS
  1
IMAGEDEF_REACTOR
  2
AcDbRasterImageDefReactor
  3
ISM
 90
        1
 91
        3
280
     0
281
     0
  0
CLASS
  1
DICTIONARYVAR
  2
AcDbDictionaryVar
  3
ObjectDBX Classes
 90
        0
 91
        3
280
     0
281
     0
  0
CLASS
  1
CELLSTYLEMAP
  2
AcDbCellStyleMap
  3
ObjectDBX Classes
 90
     1152
 91
        3
280
     0
281
     0
  0
ENDSEC
  0
SECTION
  2
TABLES
  0
TABLE
  2
VPORT
  5
8
330
0
100
AcDbSymbolTable
 70
     1
  0
VPORT
  5
29
330
8
100
AcDbSymbolTableRecord
100
AcDbViewportTableRecord
  2
*Active
 70
     0
 10
0.0
 20
0.0
 11
1.0
 21
1.0
 12
10.42990654205607
 22
4.5
 13
0.0
 23
0.0
 14
0.5
 24
0.5
 15
0.5
 25
0.5
 16
0.0
 26
0.0
 36
1.0
 17
0.0
 27
0.0
 37
0.0
 40
9.0
 41
1.972972972850329
 42
50.0
 43
0.0
 44
0.0
 50
0.0
 51
0.0
 71
     0
 72
   100
 73
     1
 74
     3
 75
     0
 76
     0
 77
     0
 78
     0
281
     0
 65
     1
110
0.0
120
0.0
130
0.0
111
1.0
121
0.0
131
0.0
112
0.0
122
1.0
132
0.0
 79
     0
146
0.0
348
2F
 60
     3
 61
     5
292
     1
282
     1
141
0.0
142
0.0
 63
   250
361
6D
  0
ENDTAB
  0
TABLE
  2
LTYPE
  5
5
330
0
100
AcDbSymbolTable
 70
     3
  0
LTYPE
  5
14
330
5
100
AcDbSymbolTableRecord
100
AcDbLinetypeTableRecord
  2
ByBlock
 70
     0
  3

 72
    65
 73
     0
 40
0.0
  0
LTYPE
  5
15
330
5
100
AcDbSymbolTableRecord
100
AcDbLinetypeTableRecord
  2
ByLayer
 70
     0
  3

 72
    65
 73
     0
 40
0.0
  0
LTYPE
  5
16
330
5
100
AcDbSymbolTableRecord
100
AcDbLinetypeTableRecord
  2
Continuous
 70
     0
  3
Solid line
 72
    65
 73
     0
 40
0.0
  0
LTYPE
  5
182
330
5
100
AcDbSymbolTableRecord
100
AcDbLinetypeTableRecord
  2
CADWORK_3
 70
     0
  3

 72
    65
 73
     2
 40
4.0
 49
2.0
 74
     0
 49
-2.0
 74
     0
  0
LTYPE
  5
3C3
330
5
100
AcDbSymbolTableRecord
100
AcDbLinetypeTableRecord
  2
CADWORK_22
 70
     0
  3

 72
    65
 73
     0
 40
0.0
  0
ENDTAB
  0
TABLE
  2
LAYER
  5
2
330
0
100
AcDbSymbolTable
 70
    19
  0
LAYER
  5
10
330
2
100
AcDbSymbolTableRecord
100
AcDbLayerTableRecord
  2
0
 70
     0
 62
     7
  6
Continuous
370
    -3
390
F
347
46
348
0
  0
LAYER
  5
70
330
2
100
AcDbSymbolTableRecord
100
AcDbLayerTableRecord
  2
Standard
 70
     0
 62
     7
  6
Continuous
370
    -3
390
F
347
46
348
0
  0
LAYER
  5
71
330
2
100
AcDbSymbolTableRecord
100
AcDbLayerTableRecord
  2
Ech.1_1
 70
     0
 62
     7
  6
Continuous
370
    -3
390
F
347
46
348
0
  0
LAYER
  5
72
330
2
100
AcDbSymbolTableRecord
100
AcDbLayerTableRecord
  2
Ech.1_2
 70
     0
 62
     7
  6
Continuous
370
    -3
390
F
347
46
348
0
  0
LAYER
  5
73
330
2
100
AcDbSymbolTableRecord
100
AcDbLayerTableRecord
  2
Ech.1_5
 70
     0
 62
     7
  6
Continuous
370
    -3
390
F
347
46
348
0
  0
LAYER
  5
74
330
2
100
AcDbSymbolTableRecord
100
AcDbLayerTableRecord
  2
Ech.1_10
 70
     0
 62
     7
  6
Continuous
370
    -3
390
F
347
46
348
0
  0
LAYER
  5
75
330
2
100
AcDbSymbolTableRecord
100
AcDbLayerTableRecord
  2
Ech.1_20
 70
     0
 62
     7
  6
Continuous
370
    -3
390
F
347
46
348
0
  0
LAYER
  5
76
330
2
100
AcDbSymbolTableRecord
100
AcDbLayerTableRecord
  2
Ech.1_25
 70
     0
 62
     7
  6
Continuous
370
    -3
390
F
347
46
348
0
  0
LAYER
  5
77
330
2
100
AcDbSymbolTableRecord
100
AcDbLayerTableRecord
  2
Ech.1_33
 70
     0
 62
     7
  6
Continuous
370
    -3
390
F
347
46
348
0
  0
LAYER
  5
78
330
2
100
AcDbSymbolTableRecord
100
AcDbLayerTableRecord
  2
Ech.1_50
 70
     0
 62
     7
  6
Continuous
370
    -3
390
F
347
46
348
0
  0
LAYER
  5
79
330
2
100
AcDbSymbolTableRecord
100
AcDbLayerTableRecord
  2
Ech.1_75
 70
     0
 62
     7
  6
Continuous
370
    -3
390
F
347
46
348
0
  0
LAYER
  5
7A
330
2
100
AcDbSymbolTableRecord
100
AcDbLayerTableRecord
  2
Ech.1_100
 70
     0
 62
     7
  6
Continuous
370
    -3
390
F
347
46
348
0
  0
LAYER
  5
7B
330
2
100
AcDbSymbolTableRecord
100
AcDbLayerTableRecord
  2
Ech.1_200
 70
     0
 62
     7
  6
Continuous
370
    -3
390
F
347
46
348
0
  0
LAYER
  5
7C
330
2
100
AcDbSymbolTableRecord
100
AcDbLayerTableRecord
  2
Ech.1_500
 70
     0
 62
     7
  6
Continuous
370
    -3
390
F
347
46
348
0
  0
LAYER
  5
7D
330
2
100
AcDbSymbolTableRecord
100
AcDbLayerTableRecord
  2
Ech.1_1000
 70
     0
 62
     7
  6
Continuous
370
    -3
390
F
347
46
348
0
  0
LAYER
  5
7E
330
2
100
AcDbSymbolTableRecord
100
AcDbLayerTableRecord
  2
Cadres traceur
 70
     0
 62
     7
  6
Continuous
370
    -3
390
F
347
46
348
0
  0
LAYER
  5
7F
330
2
100
AcDbSymbolTableRecord
100
AcDbLayerTableRecord
  2
Cadres laser
 70
     0
 62
     7
  6
Continuous
370
    -3
390
F
347
46
348
0
  0
LAYER
  5
80
330
2
100
AcDbSymbolTableRecord
100
AcDbLayerTableRecord
  2
Légende d_aide
 70
     0
 62
     7
  6
Continuous
370
    -3
390
F
347
46
348
0
  0
LAYER
  5
3CA
330
2
100
AcDbSymbolTableRecord
100
AcDbLayerTableRecord
  2
Defpoints
 70
     0
 62
     7
  6
Continuous
290
     0
370
    -3
390
F
347
46
348
0
  0
ENDTAB
  0
TABLE
  2
STYLE
  5
3
330
0
100
AcDbSymbolTable
 70
     9
  0
STYLE
  5
11
330
3
100
AcDbSymbolTableRecord
100
AcDbTextStyleTableRecord
  2
Standard
 70
     0
 40
0.0
 41
1.0
 50
0.0
 71
     0
 42
0.2
  3
txt
  4

  0
STYLE
  5
81
330
3
100
AcDbSymbolTableRecord
100
AcDbTextStyleTableRecord
  2
CwStyleShx
 70
     0
 40
1.0
 41
1.0
 50
0.0
 71
     0
 42
0.2
  3

  4

  0
STYLE
  5
82
330
3
100
AcDbSymbolTableRecord
100
AcDbTextStyleTableRecord
  2
CwStyleShx16
 70
     0
 40
1.0
 41
1.0
 50
0.0
 71
     0
 42
0.2
  3

  4

  0
STYLE
  5
83
330
3
100
AcDbSymbolTableRecord
100
AcDbTextStyleTableRecord
  2
MONOTXT
 70
     0
 40
0.0
 41
1.0
 50
0.0
 71
     0
 42
0.2
  3
MONOTXT
  4

  0
STYLE
  5
84
330
3
100
AcDbSymbolTableRecord
100
AcDbTextStyleTableRecord
  2
SYMAP
 70
     0
 40
1.0
 41
1.0
 50
0.0
 71
     0
 42
0.2
  3
SYMAP
  4

  0
STYLE
  5
85
330
3
100
AcDbSymbolTableRecord
100
AcDbTextStyleTableRecord
  2
CwStyleTtf
 70
     0
 40
1.0
 41
1.0
 50
0.0
 71
     0
 42
0.2
  3
arial.ttf
  4

  0
STYLE
  5
3C7
330
3
100
AcDbSymbolTableRecord
100
AcDbTextStyleTableRecord
  2
arial-z
 70
     0
 40
0.0
 41
1.0
 50
0.0
 71
     0
 42
0.2
  3
arial.ttf
  4

1001
ACAD
1000
Arial
1071
        0
  0
STYLE
  5
40C
330
3
100
AcDbSymbolTableRecord
100
AcDbTextStyleTableRecord
  2
arial-
 70
     0
 40
1.0
 41
1.0
 50
0.0
 71
     0
 42
0.2
  3

  4

1001
ACAD
1000
Arial
1071
        0
  0
STYLE
  5
40F
330
3
100
AcDbSymbolTableRecord
100
AcDbTextStyleTableRecord
  2
tahoma-b
 70
     0
 40
1.0
 41
1.0
 50
0.0
 71
     0
 42
0.2
  3
tahomabd.ttf
  4

1001
ACAD
1000
Tahoma
1071
 33554432
  0
ENDTAB
  0
TABLE
  2
VIEW
  5
6
330
0
100
AcDbSymbolTable
 70
     0
  0
ENDTAB
  0
TABLE
  2
UCS
  5
7
330
0
100
AcDbSymbolTable
 70
     0
  0
ENDTAB
  0
TABLE
  2
APPID
  5
9
330
0
100
AcDbSymbolTable
 70
     3
  0
APPID
  5
12
330
9
100
AcDbSymbolTableRecord
100
AcDbRegAppTableRecord
  2
ACAD
 70
     0
  0
APPID
  5
6E
330
9
100
AcDbSymbolTableRecord
100
AcDbRegAppTableRecord
  2
Cadwork
 70
     0
  0
APPID
  5
232
330
9
100
AcDbSymbolTableRecord
100
AcDbRegAppTableRecord
  2
PLOTTRANSPARENCY
 70
     0
  0
ENDTAB
  0
TABLE
  2
DIMSTYLE
  5
A
330
0
100
AcDbSymbolTable
 70
     1
100
AcDbDimStyleTable
  0
DIMSTYLE
105
27
102
{ACAD_REACTORS
330
3C8
330
3D7
330
3E5
330
3F3
102
}
330
A
100
AcDbSymbolTableRecord
100
AcDbDimStyleTableRecord
  2
Standard
 70
     0
178
     0
340
11
  0
ENDTAB
  0
TABLE
  2
BLOCK_RECORD
  5
1
330
0
100
AcDbSymbolTable
 70
    73
  0
BLOCK_RECORD
  5
1F
330
1
100
AcDbSymbolTableRecord
100
AcDbBlockTableRecord
  2
*Model_Space
340
22
 70
     0
280
     1
281
     0
  0
BLOCK_RECORD
  5
22D
330
1
100
AcDbSymbolTableRecord
100
AcDbBlockTableRecord
  2
*Paper_Space
340
22E
 70
     0
280
     1
281
     0
  0
BLOCK_RECORD
  5
86
330
1
100
AcDbSymbolTableRecord
100
AcDbBlockTableRecord
  2
CDWK_PTTYP1
340
0
 70
     0
280
     1
281
     1
  0
BLOCK_RECORD
  5
8D
330
1
100
AcDbSymbolTableRecord
100
AcDbBlockTableRecord
  2
CDWK_PTTYP2
340
0
 70
     0
280
     1
281
     1
  0
BLOCK_RECORD
  5
92
330
1
100
AcDbSymbolTableRecord
100
AcDbBlockTableRecord
  2
CDWK_PTTYP4
340
0
 70
     0
280
     1
281
     1
  0
BLOCK_RECORD
  5
96
330
1
100
AcDbSymbolTableRecord
100
AcDbBlockTableRecord
  2
CDWK_PTTYP5
340
0
 70
     0
280
     1
281
     1
  0
BLOCK_RECORD
  5
9F
330
1
100
AcDbSymbolTableRecord
100
AcDbBlockTableRecord
  2
CDWK_PTTYP6
340
0
 70
     0
280
     1
281
     1
  0
BLOCK_RECORD
  5
A7
330
1
100
AcDbSymbolTableRecord
100
AcDbBlockTableRecord
  2
CDWK_PTTYP7
340
0
 70
     0
280
     1
281
     1
  0
BLOCK_RECORD
  5
B0
330
1
100
AcDbSymbolTableRecord
100
AcDbBlockTableRecord
  2
CDWK_PTTYP8
340
0
 70
     0
280
     1
281
     1
  0
BLOCK_RECORD
  5
B4
330
1
100
AcDbSymbolTableRecord
100
AcDbBlockTableRecord
  2
CDWK_PTTYP9
340
0
 70
     0
280
     1
281
     1
  0
BLOCK_RECORD
  5
B9
330
1
100
AcDbSymbolTableRecord
100
AcDbBlockTableRecord
  2
CDWK_PTTYP10
340
0
 70
     0
280
     1
281
     1
  0
BLOCK_RECORD
  5
BD
330
1
100
AcDbSymbolTableRecord
100
AcDbBlockTableRecord
  2
CDWK_PTTYP11
340
0
 70
     0
280
     1
281
     1
  0
BLOCK_RECORD
  5
C2
330
1
100
AcDbSymbolTableRecord
100
AcDbBlockTableRecord
  2
CDWK_PTTYP12
340
0
 70
     0
280
     1
281
     1
  0
BLOCK_RECORD
  5
C7
330
1
100
AcDbSymbolTableRecord
100
AcDbBlockTableRecord
  2
CDWK_PTTYP13
340
0
 70
     0
280
     1
281
     1
  0
BLOCK_RECORD
  5
CD
330
1
100
AcDbSymbolTableRecord
100
AcDbBlockTableRecord
  2
CDWK_PTTYP16
340
0
 70
     0
280
     1
281
     1
  0
BLOCK_RECORD
  5
D4
330
1
100
AcDbSymbolTableRecord
100
AcDbBlockTableRecord
  2
CDWK_PTTYP17
340
0
 70
     0
280
     1
281
     1
  0
BLOCK_RECORD
  5
D9
330
1
100
AcDbSymbolTableRecord
100
AcDbBlockTableRecord
  2
CDWK_PTTYP18
340
0
 70
     0
280
     1
281
     1
  0
BLOCK_RECORD
  5
DE
330
1
100
AcDbSymbolTableRecord
100
AcDbBlockTableRecord
  2
CDWK_PTTYP19
340
0
 70
     0
280
     1
281
     1
  0
BLOCK_RECORD
  5
E4
330
1
100
AcDbSymbolTableRecord
100
AcDbBlockTableRecord
  2
CDWK_PTTYP20
340
0
 70
     0
280
     1
281
     1
  0
BLOCK_RECORD
  5
E9
330
1
100
AcDbSymbolTableRecord
100
AcDbBlockTableRecord
  2
CDWK_PTTYP21
340
0
 70
     0
280
     1
281
     1
  0
BLOCK_RECORD
  5
EE
330
1
100
AcDbSymbolTableRecord
100
AcDbBlockTableRecord
  2
CDWK_PTTYP25
340
0
 70
     0
280
     1
281
     1
  0
BLOCK_RECORD
  5
F5
330
1
100
AcDbSymbolTableRecord
100
AcDbBlockTableRecord
  2
CDWK_PTTYP26
340
0
 70
     0
280
     1
281
     1
  0
BLOCK_RECORD
  5
FC
330
1
100
AcDbSymbolTableRecord
100
AcDbBlockTableRecord
  2
CDWK_PTTYP27
340
0
 70
     0
280
     1
281
     1
  0
BLOCK_RECORD
  5
104
330
1
100
AcDbSymbolTableRecord
100
AcDbBlockTableRecord
  2
CDWK_PTTYP28
340
0
 70
     0
280
     1
281
     1
  0
BLOCK_RECORD
  5
10B
330
1
100
AcDbSymbolTableRecord
100
AcDbBlockTableRecord
  2
CDWK_PTTYP29
340
0
 70
     0
280
     1
281
     1
  0
BLOCK_RECORD
  5
111
330
1
100
AcDbSymbolTableRecord
100
AcDbBlockTableRecord
  2
CDWK_PTTYP30
340
0
 70
     0
280
     1
281
     1
  0
BLOCK_RECORD
  5
118
330
1
100
AcDbSymbolTableRecord
100
AcDbBlockTableRecord
  2
CDWK_PTTYP31
340
0
 70
     0
280
     1
281
     1
  0
BLOCK_RECORD
  5
120
330
1
100
AcDbSymbolTableRecord
100
AcDbBlockTableRecord
  2
CDWK_PTTYP32
340
0
 70
     0
280
     1
281
     1
  0
BLOCK_RECORD
  5
129
330
1
100
AcDbSymbolTableRecord
100
AcDbBlockTableRecord
  2
CDWK_PTTYP33
340
0
 70
     0
280
     1
281
     1
  0
BLOCK_RECORD
  5
12F
330
1
100
AcDbSymbolTableRecord
100
AcDbBlockTableRecord
  2
CDWK_PTTYP34
340
0
 70
     0
280
     1
281
     1
  0
BLOCK_RECORD
  5
135
330
1
100
AcDbSymbolTableRecord
100
AcDbBlockTableRecord
  2
CDWK_PTTYP35
340
0
 70
     0
280
     1
281
     1
  0
BLOCK_RECORD
  5
13B
330
1
100
AcDbSymbolTableRecord
100
AcDbBlockTableRecord
  2
CDWK_PTTYP36
340
0
 70
     0
280
     1
281
     1
  0
BLOCK_RECORD
  5
143
330
1
100
AcDbSymbolTableRecord
100
AcDbBlockTableRecord
  2
CDWK_PTTYP37
340
0
 70
     0
280
     1
281
     1
  0
BLOCK_RECORD
  5
148
330
1
100
AcDbSymbolTableRecord
100
AcDbBlockTableRecord
  2
CDWK_PTTYP38
340
0
 70
     0
280
     1
281
     1
  0
BLOCK_RECORD
  5
14E
330
1
100
AcDbSymbolTableRecord
100
AcDbBlockTableRecord
  2
CDWK_PTTYP41
340
0
 70
     0
280
     1
281
     1
  0
BLOCK_RECORD
  5
158
330
1
100
AcDbSymbolTableRecord
100
AcDbBlockTableRecord
  2
CDWK_PTTYP42
340
0
 70
     0
280
     1
281
     1
  0
BLOCK_RECORD
  5
161
330
1
100
AcDbSymbolTableRecord
100
AcDbBlockTableRecord
  2
CDWK_PTTYP43
340
0
 70
     0
280
     1
281
     1
  0
BLOCK_RECORD
  5
167
330
1
100
AcDbSymbolTableRecord
100
AcDbBlockTableRecord
  2
CDWK_PTTYP44
340
0
 70
     0
280
     1
281
     1
  0
BLOCK_RECORD
  5
170
330
1
100
AcDbSymbolTableRecord
100
AcDbBlockTableRecord
  2
CDWK_PTTYP45
340
0
 70
     0
280
     1
281
     1
  0
BLOCK_RECORD
  5
175
330
1
100
AcDbSymbolTableRecord
100
AcDbBlockTableRecord
  2
CDWK_PTTYP46
340
0
 70
     0
280
     1
281
     1
  0
BLOCK_RECORD
  5
17A
330
1
100
AcDbSymbolTableRecord
100
AcDbBlockTableRecord
  2
CDWK_PTTYP47
340
0
 70
     0
280
     1
281
     1
  0
BLOCK_RECORD
  5
183
330
1
100
AcDbSymbolTableRecord
100
AcDbBlockTableRecord
  2
CDWK_PTTYP48
340
0
 70
     0
280
     1
281
     1
  0
BLOCK_RECORD
  5
188
330
1
100
AcDbSymbolTableRecord
100
AcDbBlockTableRecord
  2
CDWK_PTTYP49
340
0
 70
     0
280
     1
281
     1
  0
BLOCK_RECORD
  5
18F
330
1
100
AcDbSymbolTableRecord
100
AcDbBlockTableRecord
  2
CDWK_PTTYP50
340
0
 70
     0
280
     1
281
     1
  0
BLOCK_RECORD
  5
199
330
1
100
AcDbSymbolTableRecord
100
AcDbBlockTableRecord
  2
CDWK_PTTYP51
340
0
 70
     0
280
     1
281
     1
  0
BLOCK_RECORD
  5
19E
330
1
100
AcDbSymbolTableRecord
100
AcDbBlockTableRecord
  2
CDWK_PTTYP52
340
0
 70
     0
280
     1
281
     1
  0
BLOCK_RECORD
  5
1A4
330
1
100
AcDbSymbolTableRecord
100
AcDbBlockTableRecord
  2
cw-dimension-symbol1
340
0
 70
     0
280
     1
281
     0
  0
BLOCK_RECORD
  5
1AB
330
1
100
AcDbSymbolTableRecord
100
AcDbBlockTableRecord
  2
cw-dimension-symbol2
340
0
102
{BLKREFS
331
3D2
331
3D1
331
3E0
331
3DF
331
3EE
331
3ED
331
3FC
331
3FB
102
}
 70
     0
280
     1
281
     0
  0
BLOCK_RECORD
  5
1B0
330
1
100
AcDbSymbolTableRecord
100
AcDbBlockTableRecord
  2
cw-dimension-symbol3
340
0
 70
     0
280
     1
281
     0
  0
BLOCK_RECORD
  5
1B5
330
1
100
AcDbSymbolTableRecord
100
AcDbBlockTableRecord
  2
cw-dimension-symbol5
340
0
 70
     0
280
     1
281
     0
  0
BLOCK_RECORD
  5
1BC
330
1
100
AcDbSymbolTableRecord
100
AcDbBlockTableRecord
  2
cw-dimension-symbol6
340
0
 70
     0
280
     1
281
     0
  0
BLOCK_RECORD
  5
1C2
330
1
100
AcDbSymbolTableRecord
100
AcDbBlockTableRecord
  2
cw-dimension-symbol11
340
0
 70
     0
280
     1
281
     0
  0
BLOCK_RECORD
  5
1C8
330
1
100
AcDbSymbolTableRecord
100
AcDbBlockTableRecord
  2
cw-dimension-symbol13
340
0
 70
     0
280
     1
281
     0
  0
BLOCK_RECORD
  5
1CE
330
1
100
AcDbSymbolTableRecord
100
AcDbBlockTableRecord
  2
cw-dimension-symbol15
340
0
 70
     0
280
     1
281
     0
  0
BLOCK_RECORD
  5
1D5
330
1
100
AcDbSymbolTableRecord
100
AcDbBlockTableRecord
  2
cw-dimension-symbol16
340
0
 70
     0
280
     1
281
     0
  0
BLOCK_RECORD
  5
1DC
330
1
100
AcDbSymbolTableRecord
100
AcDbBlockTableRecord
  2
cw-dimension-symbol17
340
0
 70
     0
280
     1
281
     0
  0
BLOCK_RECORD
  5
1E3
330
1
100
AcDbSymbolTableRecord
100
AcDbBlockTableRecord
  2
cw-dimension-symbol18
340
0
 70
     0
280
     1
281
     0
  0
BLOCK_RECORD
  5
1EA
330
1
100
AcDbSymbolTableRecord
100
AcDbBlockTableRecord
  2
cw-dimension-symbol19
340
0
 70
     0
280
     1
281
     0
  0
BLOCK_RECORD
  5
1ED
330
1
100
AcDbSymbolTableRecord
100
AcDbBlockTableRecord
  2
cw-dimension-symbol20
340
0
 70
     0
280
     1
281
     0
  0
BLOCK_RECORD
  5
1F4
330
1
100
AcDbSymbolTableRecord
100
AcDbBlockTableRecord
  2
cw-dimension-symbol21
340
0
 70
     0
280
     1
281
     0
  0
BLOCK_RECORD
  5
1FB
330
1
100
AcDbSymbolTableRecord
100
AcDbBlockTableRecord
  2
cw-line-extremity0
340
0
 70
     0
280
     1
281
     0
  0
BLOCK_RECORD
  5
1FF
330
1
100
AcDbSymbolTableRecord
100
AcDbBlockTableRecord
  2
cw-line-extremity2
340
0
 70
     0
280
     1
281
     0
  0
BLOCK_RECORD
  5
204
330
1
100
AcDbSymbolTableRecord
100
AcDbBlockTableRecord
  2
cw-line-extremity3
340
0
 70
     0
280
     1
281
     0
  0
BLOCK_RECORD
  5
209
330
1
100
AcDbSymbolTableRecord
100
AcDbBlockTableRecord
  2
cw-line-extremity301
340
0
 70
     0
280
     1
281
     0
  0
BLOCK_RECORD
  5
20B
330
1
100
AcDbSymbolTableRecord
100
AcDbBlockTableRecord
  2
cw-line-extremity4
340
0
102
{BLKREFS
331
3B5
331
3B7
331
3B9
331
3BB
331
3BD
102
}
 70
     0
280
     1
281
     0
  0
BLOCK_RECORD
  5
20D
330
1
100
AcDbSymbolTableRecord
100
AcDbBlockTableRecord
  2
cw-line-extremity5
340
0
 70
     0
280
     1
281
     0
  0
BLOCK_RECORD
  5
20F
330
1
100
AcDbSymbolTableRecord
100
AcDbBlockTableRecord
  2
cw-line-extremity6
340
0
 70
     0
280
     1
281
     0
  0
BLOCK_RECORD
  5
211
330
1
100
AcDbSymbolTableRecord
100
AcDbBlockTableRecord
  2
cw-line-extremity9
340
0
 70
     0
280
     1
281
     0
  0
BLOCK_RECORD
  5
213
330
1
100
AcDbSymbolTableRecord
100
AcDbBlockTableRecord
  2
cw-line-extremity10
340
0
 70
     0
280
     1
281
     0
  0
BLOCK_RECORD
  5
215
330
1
100
AcDbSymbolTableRecord
100
AcDbBlockTableRecord
  2
cw-line-extremity1
340
0
 70
     0
280
     1
281
     0
  0
BLOCK_RECORD
  5
1B
330
1
100
AcDbSymbolTableRecord
100
AcDbBlockTableRecord
  2
*Paper_Space69
340
1E
 70
     0
280
     1
281
     0
  0
BLOCK_RECORD
  5
3CB
330
1
100
AcDbSymbolTableRecord
100
AcDbBlockTableRecord
  2
*D70
340
0
 70
     0
280
     1
281
     0
  0
BLOCK_RECORD
  5
3D9
330
1
100
AcDbSymbolTableRecord
100
AcDbBlockTableRecord
  2
*D71
340
0
 70
     0
280
     1
281
     0
  0
BLOCK_RECORD
  5
3E7
330
1
100
AcDbSymbolTableRecord
100
AcDbBlockTableRecord
  2
*D72
340
0
 70
     0
280
     1
281
     0
  0
BLOCK_RECORD
  5
3F5
330
1
100
AcDbSymbolTableRecord
100
AcDbBlockTableRecord
  2
*D73
340
0
 70
     0
280
     1
281
     0
  0
ENDTAB
  0
ENDSEC
  0
SECTION
  2
BLOCKS
  0
BLOCK
  5
20
330
1F
100
AcDbEntity
  8
0
100
AcDbBlockBegin
  2
*Model_Space
 70
     0
 10
0.0
 20
0.0
 30
0.0
  3
*Model_Space
  1

  0
ENDBLK
  5
21
330
1F
100
AcDbEntity
  8
0
100
AcDbBlockEnd
  0
BLOCK
  5
22F
330
22D
100
AcDbEntity
 67
     1
  8
0
100
AcDbBlockBegin
  2
*Paper_Space
 70
     0
 10
0.0
 20
0.0
 30
0.0
  3
*Paper_Space
  1

  0
ENDBLK
  5
230
330
22D
100
AcDbEntity
 67
     1
  8
0
100
AcDbBlockEnd
  0
BLOCK
  5
8B
330
86
100
AcDbEntity
  8
0
100
AcDbBlockBegin
  2
CDWK_PTTYP1
 70
     0
 10
0.0
 20
0.0
 30
0.0
  3
CDWK_PTTYP1
  1

  0
LINE
  5
87
330
86
100
AcDbEntity
  8
0
 62
     0
370
    -2
100
AcDbLine
 10
-0.5
 20
0.5
 30
0.0
 11
0.5
 21
0.5
 31
0.0
  0
LINE
  5
88
330
86
100
AcDbEntity
  8
0
 62
     0
370
    -2
100
AcDbLine
 10
0.5
 20
0.5
 30
0.0
 11
0.5
 21
-0.5
 31
0.0
  0
LINE
  5
89
330
86
100
AcDbEntity
  8
0
 62
     0
370
    -2
100
AcDbLine
 10
0.5
 20
-0.5
 30
0.0
 11
-0.5
 21
-0.5
 31
0.0
  0
LINE
  5
8A
330
86
100
AcDbEntity
  8
0
 62
     0
370
    -2
100
AcDbLine
 10
-0.5
 20
-0.5
 30
0.0
 11
-0.5
 21
0.5
 31
0.0
  0
ENDBLK
  5
8C
330
86
100
AcDbEntity
  8
0
100
AcDbBlockEnd
  0
BLOCK
  5
90
330
8D
100
AcDbEntity
  8
0
100
AcDbBlockBegin
  2
CDWK_PTTYP2
 70
     0
 10
0.0
 20
0.0
 30
0.0
  3
CDWK_PTTYP2
  1

  0
LINE
  5
8E
330
8D
100
AcDbEntity
  8
0
 62
     0
370
    -2
100
AcDbLine
 10
0.0
 20
0.5
 30
0.0
 11
0.0
 21
-0.5
 31
0.0
  0
LINE
  5
8F
330
8D
100
AcDbEntity
  8
0
 62
     0
370
    -2
100
AcDbLine
 10
0.5
 20
0.0
 30
0.0
 11
-0.5
 21
0.0
 31
0.0
  0
ENDBLK
  5
91
330
8D
100
AcDbEntity
  8
0
100
AcDbBlockEnd
  0
BLOCK
  5
94
330
92
100
AcDbEntity
  8
0
100
AcDbBlockBegin
  2
CDWK_PTTYP4
 70
     0
 10
0.0
 20
0.0
 30
0.0
  3
CDWK_PTTYP4
  1

  0
HATCH
  5
93
330
92
100
AcDbEntity
  8
0
 62
     0
370
    -2
100
AcDbHatch
 10
0.0
 20
0.0
 30
0.0
210
0.0
220
0.0
230
1.0
  2
SOLID
 70
     1
 71
     1
 91
        1
 92
        1
 93
        1
 72
     2
 10
0.0
 20
0.0
 40
0.5
 50
0.0
 51
360.0
 73
     1
 97
        0
 75
     0
 76
     1
 98
        0
  0
ENDBLK
  5
95
330
92
100
AcDbEntity
  8
0
100
AcDbBlockEnd
  0
BLOCK
  5
9D
330
96
100
AcDbEntity
  8
0
100
AcDbBlockBegin
  2
CDWK_PTTYP5
 70
     0
 10
0.0
 20
0.0
 30
0.0
  3
CDWK_PTTYP5
  1

  0
LINE
  5
97
330
96
100
AcDbEntity
  8
0
 62
     0
370
    -2
100
AcDbLine
 10
-0.5
 20
0.5
 30
0.0
 11
0.5
 21
0.5
 31
0.0
  0
LINE
  5
98
330
96
100
AcDbEntity
  8
0
 62
     0
370
    -2
100
AcDbLine
 10
0.5
 20
0.5
 30
0.0
 11
0.5
 21
-0.5
 31
0.0
  0
LINE
  5
99
330
96
100
AcDbEntity
  8
0
 62
     0
370
    -2
100
AcDbLine
 10
0.5
 20
-0.5
 30
0.0
 11
-0.5
 21
-0.5
 31
0.0
  0
LINE
  5
9A
330
96
100
AcDbEntity
  8
0
 62
     0
370
    -2
100
AcDbLine
 10
-0.5
 20
-0.5
 30
0.0
 11
-0.5
 21
0.5
 31
0.0
  0
HATCH
  5
9B
330
96
100
AcDbEntity
  8
0
 62
     0
370
    -2
100
AcDbHatch
 10
0.0
 20
0.0
 30
0.0
210
0.0
220
0.0
230
1.0
  2
SOLID
 70
     1
 71
     1
 91
        1
 92
        3
 72
     0
 73
     1
 93
        4
 10
-0.5
 20
0.0
 10
0.0
 20
0.0
 10
0.0
 20
-0.5
 10
-0.5
 20
-0.5
 97
        0
 75
     0
 76
     1
 98
        0
  0
HATCH
  5
9C
330
96
100
AcDbEntity
  8
0
 62
     0
370
    -2
100
AcDbHatch
 10
0.0
 20
0.0
 30
0.0
210
0.0
220
0.0
230
1.0
  2
SOLID
 70
     1
 71
     1
 91
        1
 92
        3
 72
     0
 73
     1
 93
        4
 10
0.0
 20
0.0
 10
0.5
 20
0.0
 10
0.5
 20
0.5
 10
0.0
 20
0.5
 97
        0
 75
     0
 76
     1
 98
        0
  0
ENDBLK
  5
9E
330
96
100
AcDbEntity
  8
0
100
AcDbBlockEnd
  0
BLOCK
  5
A5
330
9F
100
AcDbEntity
  8
0
100
AcDbBlockBegin
  2
CDWK_PTTYP6
 70
     0
 10
0.0
 20
0.0
 30
0.0
  3
CDWK_PTTYP6
  1

  0
LINE
  5
A0
330
9F
100
AcDbEntity
  8
0
 62
     0
370
    -2
100
AcDbLine
 10
-0.5
 20
0.5
 30
0.0
 11
0.5
 21
0.5
 31
0.0
  0
LINE
  5
A1
330
9F
100
AcDbEntity
  8
0
 62
     0
370
    -2
100
AcDbLine
 10
0.5
 20
0.5
 30
0.0
 11
0.5
 21
-0.5
 31
0.0
  0
LINE
  5
A2
330
9F
100
AcDbEntity
  8
0
 62
     0
370
    -2
100
AcDbLine
 10
0.5
 20
-0.5
 30
0.0
 11
-0.5
 21
-0.5
 31
0.0
  0
LINE
  5
A3
330
9F
100
AcDbEntity
  8
0
 62
     0
370
    -2
100
AcDbLine
 10
-0.5
 20
-0.5
 30
0.0
 11
-0.5
 21
0.5
 31
0.0
  0
HATCH
  5
A4
330
9F
100
AcDbEntity
  8
0
 62
     0
370
    -2
100
AcDbHatch
 10
0.0
 20
0.0
 30
0.0
210
0.0
220
0.0
230
1.0
  2
SOLID
 70
     1
 71
     1
 91
        1
 92
        3
 72
     0
 73
     1
 93
        3
 10
-0.5
 20
-0.5
 10
-0.5
 20
0.5
 10
0.5
 20
0.5
 97
        0
 75
     0
 76
     1
 98
        0
  0
ENDBLK
  5
A6
330
9F
100
AcDbEntity
  8
0
100
AcDbBlockEnd
  0
BLOCK
  5
AE
330
A7
100
AcDbEntity
  8
0
100
AcDbBlockBegin
  2
CDWK_PTTYP7
 70
     0
 10
0.0
 20
0.0
 30
0.0
  3
CDWK_PTTYP7
  1

  0
LINE
  5
A8
330
A7
100
AcDbEntity
  8
0
 62
     0
370
    -2
100
AcDbLine
 10
-0.5
 20
0.5
 30
0.0
 11
0.5
 21
0.5
 31
0.0
  0
LINE
  5
A9
330
A7
100
AcDbEntity
  8
0
 62
     0
370
    -2
100
AcDbLine
 10
0.5
 20
0.5
 30
0.0
 11
0.5
 21
-0.5
 31
0.0
  0
LINE
  5
AA
330
A7
100
AcDbEntity
  8
0
 62
     0
370
    -2
100
AcDbLine
 10
0.5
 20
-0.5
 30
0.0
 11
-0.5
 21
-0.5
 31
0.0
  0
LINE
  5
AB
330
A7
100
AcDbEntity
  8
0
 62
     0
370
    -2
100
AcDbLine
 10
-0.5
 20
-0.5
 30
0.0
 11
-0.5
 21
0.5
 31
0.0
  0
LINE
  5
AC
330
A7
100
AcDbEntity
  8
0
 62
     0
370
    -2
100
AcDbLine
 10
0.0
 20
0.5
 30
0.0
 11
0.0
 21
-0.5
 31
0.0
  0
LINE
  5
AD
330
A7
100
AcDbEntity
  8
0
 62
     0
370
    -2
100
AcDbLine
 10
0.5
 20
0.0
 30
0.0
 11
-0.5
 21
0.0
 31
0.0
  0
ENDBLK
  5
AF
330
A7
100
AcDbEntity
  8
0
100
AcDbBlockEnd
  0
BLOCK
  5
B2
330
B0
100
AcDbEntity
  8
0
100
AcDbBlockBegin
  2
CDWK_PTTYP8
 70
     0
 10
0.0
 20
0.0
 30
0.0
  3
CDWK_PTTYP8
  1

  0
HATCH
  5
B1
330
B0
100
AcDbEntity
  8
0
 62
     0
370
    -2
100
AcDbHatch
 10
0.0
 20
0.0
 30
0.0
210
0.0
220
0.0
230
1.0
  2
SOLID
 70
     1
 71
     1
 91
        1
 92
        3
 72
     0
 73
     1
 93
        4
 10
0.5
 20
0.5
 10
0.5
 20
-0.5
 10
-0.5
 20
-0.5
 10
-0.5
 20
0.5
 97
        0
 75
     0
 76
     1
 98
        0
  0
ENDBLK
  5
B3
330
B0
100
AcDbEntity
  8
0
100
AcDbBlockEnd
  0
BLOCK
  5
B7
330
B4
100
AcDbEntity
  8
0
100
AcDbBlockBegin
  2
CDWK_PTTYP9
 70
     0
 10
0.0
 20
0.0
 30
0.0
  3
CDWK_PTTYP9
  1

  0
CIRCLE
  5
B5
330
B4
100
AcDbEntity
  8
0
 62
     0
370
    -2
100
AcDbCircle
 10
0.0
 20
0.0
 30
0.0
 40
0.1666666666666667
  0
CIRCLE
  5
B6
330
B4
100
AcDbEntity
  8
0
 62
     0
370
    -2
100
AcDbCircle
 10
0.0
 20
0.0
 30
0.0
 40
0.5
  0
ENDBLK
  5
B8
330
B4
100
AcDbEntity
  8
0
100
AcDbBlockEnd
  0
BLOCK
  5
BB
330
B9
100
AcDbEntity
  8
0
100
AcDbBlockBegin
  2
CDWK_PTTYP10
 70
     0
 10
0.0
 20
0.0
 30
0.0
  3
CDWK_PTTYP10
  1

  0
CIRCLE
  5
BA
330
B9
100
AcDbEntity
  8
0
 62
     0
370
    -2
100
AcDbCircle
 10
0.0
 20
0.0
 30
0.0
 40
0.5
  0
ENDBLK
  5
BC
330
B9
100
AcDbEntity
  8
0
100
AcDbBlockEnd
  0
BLOCK
  5
C0
330
BD
100
AcDbEntity
  8
0
100
AcDbBlockBegin
  2
CDWK_PTTYP11
 70
     0
 10
0.0
 20
0.0
 30
0.0
  3
CDWK_PTTYP11
  1

  0
CIRCLE
  5
BE
330
BD
100
AcDbEntity
  8
0
 62
     0
370
    -2
100
AcDbCircle
 10
0.0
 20
0.0
 30
0.0
 40
0.25
  0
CIRCLE
  5
BF
330
BD
100
AcDbEntity
  8
0
 62
     0
370
    -2
100
AcDbCircle
 10
0.0
 20
0.0
 30
0.0
 40
0.5
  0
ENDBLK
  5
C1
330
BD
100
AcDbEntity
  8
0
100
AcDbBlockEnd
  0
BLOCK
  5
C5
330
C2
100
AcDbEntity
  8
0
100
AcDbBlockBegin
  2
CDWK_PTTYP12
 70
     0
 10
0.0
 20
0.0
 30
0.0
  3
CDWK_PTTYP12
  1

  0
CIRCLE
  5
C3
330
C2
100
AcDbEntity
  8
0
 62
     0
370
    -2
100
AcDbCircle
 10
0.25
 20
0.0
 30
0.0
 40
0.25
  0
CIRCLE
  5
C4
330
C2
100
AcDbEntity
  8
0
 62
     0
370
    -2
100
AcDbCircle
 10
0.0
 20
0.0
 30
0.0
 40
0.5
  0
ENDBLK
  5
C6
330
C2
100
AcDbEntity
  8
0
100
AcDbBlockEnd
  0
BLOCK
  5
CB
330
C7
100
AcDbEntity
  8
0
100
AcDbBlockBegin
  2
CDWK_PTTYP13
 70
     0
 10
0.0
 20
0.0
 30
0.0
  3
CDWK_PTTYP13
  1

  0
CIRCLE
  5
C8
330
C7
100
AcDbEntity
  8
0
 62
     0
370
    -2
100
AcDbCircle
 10
-0.25
 20
0.0
 30
0.0
 40
0.25
  0
CIRCLE
  5
C9
330
C7
100
AcDbEntity
  8
0
 62
     0
370
    -2
100
AcDbCircle
 10
0.25
 20
0.0
 30
0.0
 40
0.25
  0
CIRCLE
  5
CA
330
C7
100
AcDbEntity
  8
0
 62
     0
370
    -2
100
AcDbCircle
 10
0.0
 20
0.0
 30
0.0
 40
0.5
  0
ENDBLK
  5
CC
330
C7
100
AcDbEntity
  8
0
100
AcDbBlockEnd
  0
BLOCK
  5
D2
330
CD
100
AcDbEntity
  8
0
100
AcDbBlockBegin
  2
CDWK_PTTYP16
 70
     0
 10
0.0
 20
0.0
 30
0.0
  3
CDWK_PTTYP16
  1

  0
LINE
  5
CE
330
CD
100
AcDbEntity
  8
0
 62
     0
370
    -2
100
AcDbLine
 10
-0.5
 20
-0.289
 30
0.0
 11
0.5
 21
-0.289
 31
0.0
  0
LINE
  5
CF
330
CD
100
AcDbEntity
  8
0
 62
     0
370
    -2
100
AcDbLine
 10
0.5
 20
-0.289
 30
0.0
 11
0.0
 21
0.577
 31
0.0
  0
LINE
  5
D0
330
CD
100
AcDbEntity
  8
0
 62
     0
370
    -2
100
AcDbLine
 10
0.0
 20
0.577
 30
0.0
 11
-0.5
 21
-0.289
 31
0.0
  0
CIRCLE
  5
D1
330
CD
100
AcDbEntity
  8
0
 62
     0
370
    -2
100
AcDbCircle
 10
0.0
 20
0.0
 30
0.0
 40
0.289
  0
ENDBLK
  5
D3
330
CD
100
AcDbEntity
  8
0
100
AcDbBlockEnd
  0
BLOCK
  5
D7
330
D4
100
AcDbEntity
  8
0
100
AcDbBlockBegin
  2
CDWK_PTTYP17
 70
     0
 10
0.0
 20
0.0
 30
0.0
  3
CDWK_PTTYP17
  1

  0
CIRCLE
  5
D5
330
D4
100
AcDbEntity
  8
0
 62
     0
370
    -2
100
AcDbCircle
 10
0.0
 20
0.0
 30
0.0
 40
0.5
  0
HATCH
  5
D6
330
D4
100
AcDbEntity
  8
0
 62
     0
370
    -2
100
AcDbHatch
 10
0.0
 20
0.0
 30
0.0
210
0.0
220
0.0
230
1.0
  2
SOLID
 70
     1
 71
     1
 91
        1
 92
        1
 93
        1
 72
     2
 10
0.0
 20
0.0
 40
0.25
 50
0.0
 51
360.0
 73
     1
 97
        0
 75
     0
 76
     1
 98
        0
  0
ENDBLK
  5
D8
330
D4
100
AcDbEntity
  8
0
100
AcDbBlockEnd
  0
BLOCK
  5
DC
330
D9
100
AcDbEntity
  8
0
100
AcDbBlockBegin
  2
CDWK_PTTYP18
 70
     0
 10
0.0
 20
0.0
 30
0.0
  3
CDWK_PTTYP18
  1

  0
CIRCLE
  5
DA
330
D9
100
AcDbEntity
  8
0
 62
     0
370
    -2
100
AcDbCircle
 10
0.0
 20
0.0
 30
0.0
 40
0.5
  0
CIRCLE
  5
DB
330
D9
100
AcDbEntity
  8
0
 62
     0
370
    -2
100
AcDbCircle
 10
0.0
 20
0.0
 30
0.0
 40
0.208
  0
ENDBLK
  5
DD
330
D9
100
AcDbEntity
  8
0
100
AcDbBlockEnd
  0
BLOCK
  5
E2
330
DE
100
AcDbEntity
  8
0
100
AcDbBlockBegin
  2
CDWK_PTTYP19
 70
     0
 10
0.0
 20
0.0
 30
0.0
  3
CDWK_PTTYP19
  1

  0
CIRCLE
  5
DF
330
DE
100
AcDbEntity
  8
0
 62
     0
370
    -2
100
AcDbCircle
 10
0.0
 20
0.0
 30
0.0
 40
0.25
  0
CIRCLE
  5
E0
330
DE
100
AcDbEntity
  8
0
 62
     0
370
    -2
100
AcDbCircle
 10
0.0
 20
0.0
 30
0.0
 40
0.35
  0
LINE
  5
E1
330
DE
100
AcDbEntity
  8
0
 62
     0
370
    -2
100
AcDbLine
 10
-0.25
 20
0.0
 30
0.0
 11
0.25
 21
0.0
 31
0.0
  0
ENDBLK
  5
E3
330
DE
100
AcDbEntity
  8
0
100
AcDbBlockEnd
  0
BLOCK
  5
E7
330
E4
100
AcDbEntity
  8
0
100
AcDbBlockBegin
  2
CDWK_PTTYP20
 70
     0
 10
0.0
 20
0.0
 30
0.0
  3
CDWK_PTTYP20
  1

  0
CIRCLE
  5
E5
330
E4
100
AcDbEntity
  8
0
 62
     0
370
    -2
100
AcDbCircle
 10
0.0
 20
0.0
 30
0.0
 40
0.3333333333333333
  0
CIRCLE
  5
E6
330
E4
100
AcDbEntity
  8
0
 62
     0
370
    -2
100
AcDbCircle
 10
0.0
 20
0.0
 30
0.0
 40
0.5
  0
ENDBLK
  5
E8
330
E4
100
AcDbEntity
  8
0
100
AcDbBlockEnd
  0
BLOCK
  5
EC
330
E9
100
AcDbEntity
  8
0
100
AcDbBlockBegin
  2
CDWK_PTTYP21
 70
     0
 10
0.0
 20
0.0
 30
0.0
  3
CDWK_PTTYP21
  1

  0
CIRCLE
  5
EA
330
E9
100
AcDbEntity
  8
0
 62
     0
370
    -2
100
AcDbCircle
 10
0.0
 20
0.0
 30
0.0
 40
0.5
  0
LINE
  5
EB
330
E9
100
AcDbEntity
  8
0
 62
     0
370
    -2
100
AcDbLine
 10
-0.5
 20
0.0
 30
0.0
 11
0.5
 21
0.0
 31
0.0
  0
ENDBLK
  5
ED
330
E9
100
AcDbEntity
  8
0
100
AcDbBlockEnd
  0
BLOCK
  5
F3
330
EE
100
AcDbEntity
  8
0
100
AcDbBlockBegin
  2
CDWK_PTTYP25
 70
     0
 10
0.0
 20
0.0
 30
0.0
  3
CDWK_PTTYP25
  1

  0
LINE
  5
EF
330
EE
100
AcDbEntity
  8
0
 62
     0
370
    -2
100
AcDbLine
 10
0.0
 20
0.5
 30
0.0
 11
-0.4330127018922193
 21
-0.25
 31
0.0
  0
LINE
  5
F0
330
EE
100
AcDbEntity
  8
0
 62
     0
370
    -2
100
AcDbLine
 10
-0.4330127018922193
 20
-0.25
 30
0.0
 11
0.4330127018922193
 21
-0.25
 31
0.0
  0
LINE
  5
F1
330
EE
100
AcDbEntity
  8
0
 62
     0
370
    -2
100
AcDbLine
 10
0.4330127018922193
 20
-0.25
 30
0.0
 11
0.0
 21
0.5
 31
0.0
  0
CIRCLE
  5
F2
330
EE
100
AcDbEntity
  8
0
 62
     0
370
    -2
100
AcDbCircle
 10
0.0
 20
0.0
 30
0.0
 40
0.5
  0
ENDBLK
  5
F4
330
EE
100
AcDbEntity
  8
0
100
AcDbBlockEnd
  0
BLOCK
  5
FA
330
F5
100
AcDbEntity
  8
0
100
AcDbBlockBegin
  2
CDWK_PTTYP26
 70
     0
 10
0.0
 20
0.0
 30
0.0
  3
CDWK_PTTYP26
  1

  0
LINE
  5
F6
330
F5
100
AcDbEntity
  8
0
 62
     0
370
    -2
100
AcDbLine
 10
-0.5
 20
-0.289
 30
0.0
 11
0.5
 21
-0.289
 31
0.0
  0
LINE
  5
F7
330
F5
100
AcDbEntity
  8
0
 62
     0
370
    -2
100
AcDbLine
 10
0.5
 20
-0.289
 30
0.0
 11
0.0
 21
0.577
 31
0.0
  0
LINE
  5
F8
330
F5
100
AcDbEntity
  8
0
 62
     0
370
    -2
100
AcDbLine
 10
0.0
 20
0.577
 30
0.0
 11
-0.5
 21
-0.289
 31
0.0
  0
CIRCLE
  5
F9
330
F5
100
AcDbEntity
  8
0
 62
     0
370
    -2
100
AcDbCircle
 10
0.0
 20
0.0
 30
0.0
 40
0.125
  0
ENDBLK
  5
FB
330
F5
100
AcDbEntity
  8
0
100
AcDbBlockEnd
  0
BLOCK
  5
102
330
FC
100
AcDbEntity
  8
0
100
AcDbBlockBegin
  2
CDWK_PTTYP27
 70
     0
 10
0.0
 20
0.0
 30
0.0
  3
CDWK_PTTYP27
  1

  0
LINE
  5
FD
330
FC
100
AcDbEntity
  8
0
 62
     0
370
    -2
100
AcDbLine
 10
0.0
 20
0.5
 30
0.0
 11
-0.4330127018922193
 21
-0.25
 31
0.0
  0
LINE
  5
FE
330
FC
100
AcDbEntity
  8
0
 62
     0
370
    -2
100
AcDbLine
 10
-0.4330127018922193
 20
-0.25
 30
0.0
 11
0.4330127018922193
 21
-0.25
 31
0.0
  0
LINE
  5
FF
330
FC
100
AcDbEntity
  8
0
 62
     0
370
    -2
100
AcDbLine
 10
0.4330127018922193
 20
-0.25
 30
0.0
 11
0.0
 21
0.5
 31
0.0
  0
CIRCLE
  5
100
330
FC
100
AcDbEntity
  8
0
 62
     0
370
    -2
100
AcDbCircle
 10
0.0
 20
0.0
 30
0.0
 40
0.125
  0
CIRCLE
  5
101
330
FC
100
AcDbEntity
  8
0
 62
     0
370
    -2
100
AcDbCircle
 10
0.0
 20
0.0
 30
0.0
 40
0.5
  0
ENDBLK
  5
103
330
FC
100
AcDbEntity
  8
0
100
AcDbBlockEnd
  0
BLOCK
  5
109
330
104
100
AcDbEntity
  8
0
100
AcDbBlockBegin
  2
CDWK_PTTYP28
 70
     0
 10
0.0
 20
0.0
 30
0.0
  3
CDWK_PTTYP28
  1

  0
LINE
  5
105
330
104
100
AcDbEntity
  8
0
 62
     0
370
    -2
100
AcDbLine
 10
-0.5
 20
0.5
 30
0.0
 11
0.5
 21
0.5
 31
0.0
  0
LINE
  5
106
330
104
100
AcDbEntity
  8
0
 62
     0
370
    -2
100
AcDbLine
 10
0.5
 20
0.5
 30
0.0
 11
-0.5
 21
-0.5
 31
0.0
  0
LINE
  5
107
330
104
100
AcDbEntity
  8
0
 62
     0
370
    -2
100
AcDbLine
 10
0.5
 20
-0.5
 30
0.0
 11
-0.5
 21
-0.5
 31
0.0
  0
LINE
  5
108
330
104
100
AcDbEntity
  8
0
 62
     0
370
    -2
100
AcDbLine
 10
-0.5
 20
0.5
 30
0.0
 11
0.5
 21
-0.5
 31
0.0
  0
ENDBLK
  5
10A
330
104
100
AcDbEntity
  8
0
100
AcDbBlockEnd
  0
BLOCK
  5
10F
330
10B
100
AcDbEntity
  8
0
100
AcDbBlockBegin
  2
CDWK_PTTYP29
 70
     0
 10
0.0
 20
0.0
 30
0.0
  3
CDWK_PTTYP29
  1

  0
CIRCLE
  5
10C
330
10B
100
AcDbEntity
  8
0
 62
     0
370
    -2
100
AcDbCircle
 10
0.0
 20
0.0
 30
0.0
 40
0.2
  0
CIRCLE
  5
10D
330
10B
100
AcDbEntity
  8
0
 62
     0
370
    -2
100
AcDbCircle
 10
0.0
 20
0.0
 30
0.0
 40
0.35
  0
CIRCLE
  5
10E
330
10B
100
AcDbEntity
  8
0
 62
     0
370
    -2
100
AcDbCircle
 10
0.0
 20
0.0
 30
0.0
 40
0.5
  0
ENDBLK
  5
110
330
10B
100
AcDbEntity
  8
0
100
AcDbBlockEnd
  0
BLOCK
  5
116
330
111
100
AcDbEntity
  8
0
100
AcDbBlockBegin
  2
CDWK_PTTYP30
 70
     0
 10
0.0
 20
0.0
 30
0.0
  3
CDWK_PTTYP30
  1

  0
LINE
  5
112
330
111
100
AcDbEntity
  8
0
 62
     0
370
    -2
100
AcDbLine
 10
-0.5
 20
0.5
 30
0.0
 11
-0.1
 21
0.1
 31
0.0
  0
LINE
  5
113
330
111
100
AcDbEntity
  8
0
 62
     0
370
    -2
100
AcDbLine
 10
0.5
 20
0.5
 30
0.0
 11
0.1
 21
0.1
 31
0.0
  0
LINE
  5
114
330
111
100
AcDbEntity
  8
0
 62
     0
370
    -2
100
AcDbLine
 10
0.5
 20
-0.5
 30
0.0
 11
0.1
 21
-0.1
 31
0.0
  0
LINE
  5
115
330
111
100
AcDbEntity
  8
0
 62
     0
370
    -2
100
AcDbLine
 10
-0.5
 20
-0.5
 30
0.0
 11
-0.1
 21
-0.1
 31
0.0
  0
ENDBLK
  5
117
330
111
100
AcDbEntity
  8
0
100
AcDbBlockEnd
  0
BLOCK
  5
11E
330
118
100
AcDbEntity
  8
0
100
AcDbBlockBegin
  2
CDWK_PTTYP31
 70
     0
 10
0.0
 20
0.0
 30
0.0
  3
CDWK_PTTYP31
  1

  0
LINE
  5
119
330
118
100
AcDbEntity
  8
0
 62
     0
370
    -2
100
AcDbLine
 10
-0.5
 20
0.0
 30
0.0
 11
-0.1
 21
0.0
 31
0.0
  0
LINE
  5
11A
330
118
100
AcDbEntity
  8
0
 62
     0
370
    -2
100
AcDbLine
 10
0.1
 20
0.0
 30
0.0
 11
0.5
 21
0.0
 31
0.0
  0
LINE
  5
11B
330
118
100
AcDbEntity
  8
0
 62
     0
370
    -2
100
AcDbLine
 10
0.0
 20
0.5
 30
0.0
 11
0.0
 21
0.1
 31
0.0
  0
LINE
  5
11C
330
118
100
AcDbEntity
  8
0
 62
     0
370
    -2
100
AcDbLine
 10
0.0
 20
-0.1
 30
0.0
 11
0.0
 21
-0.5
 31
0.0
  0
CIRCLE
  5
11D
330
118
100
AcDbEntity
  8
0
 62
     0
370
    -2
100
AcDbCircle
 10
0.0
 20
0.0
 30
0.0
 40
0.1
  0
ENDBLK
  5
11F
330
118
100
AcDbEntity
  8
0
100
AcDbBlockEnd
  0
BLOCK
  5
127
330
120
100
AcDbEntity
  8
0
100
AcDbBlockBegin
  2
CDWK_PTTYP32
 70
     0
 10
0.0
 20
0.0
 30
0.0
  3
CDWK_PTTYP32
  1

  0
CIRCLE
  5
121
330
120
100
AcDbEntity
  8
0
 62
     0
370
    -2
100
AcDbCircle
 10
0.0
 20
0.0
 30
0.0
 40
0.2
  0
CIRCLE
  5
122
330
120
100
AcDbEntity
  8
0
 62
     0
370
    -2
100
AcDbCircle
 10
0.0
 20
0.0
 30
0.0
 40
0.5
  0
LINE
  5
123
330
120
100
AcDbEntity
  8
0
 62
     0
370
    -2
100
AcDbLine
 10
0.1414213562373095
 20
0.1414213562373095
 30
0.0
 11
0.3535533905932738
 21
0.3535533905932738
 31
0.0
  0
LINE
  5
124
330
120
100
AcDbEntity
  8
0
 62
     0
370
    -2
100
AcDbLine
 10
-0.1414213562373095
 20
0.1414213562373095
 30
0.0
 11
-0.3535533905932738
 21
0.3535533905932738
 31
0.0
  0
LINE
  5
125
330
120
100
AcDbEntity
  8
0
 62
     0
370
    -2
100
AcDbLine
 10
0.1414213562373095
 20
-0.1414213562373095
 30
0.0
 11
0.3535533905932738
 21
-0.3535533905932738
 31
0.0
  0
LINE
  5
126
330
120
100
AcDbEntity
  8
0
 62
     0
370
    -2
100
AcDbLine
 10
-0.1414213562373095
 20
-0.1414213562373095
 30
0.0
 11
-0.3535533905932738
 21
-0.3535533905932738
 31
0.0
  0
ENDBLK
  5
128
330
120
100
AcDbEntity
  8
0
100
AcDbBlockEnd
  0
BLOCK
  5
12D
330
129
100
AcDbEntity
  8
0
100
AcDbBlockBegin
  2
CDWK_PTTYP33
 70
     0
 10
0.0
 20
0.0
 30
0.0
  3
CDWK_PTTYP33
  1

  0
LINE
  5
12A
330
129
100
AcDbEntity
  8
0
 62
     0
370
    -2
100
AcDbLine
 10
0.0
 20
-0.5
 30
0.0
 11
0.0
 21
0.5
 31
0.0
  0
LINE
  5
12B
330
129
100
AcDbEntity
  8
0
 62
     0
370
    -2
100
AcDbLine
 10
0.5
 20
0.0
 30
0.0
 11
-0.5
 21
0.0
 31
0.0
  0
CIRCLE
  5
12C
330
129
100
AcDbEntity
  8
0
 62
     0
370
    -2
100
AcDbCircle
 10
0.0
 20
0.0
 30
0.0
 40
0.5
  0
ENDBLK
  5
12E
330
129
100
AcDbEntity
  8
0
100
AcDbBlockEnd
  0
BLOCK
  5
133
330
12F
100
AcDbEntity
  8
0
100
AcDbBlockBegin
  2
CDWK_PTTYP34
 70
     0
 10
0.0
 20
0.0
 30
0.0
  3
CDWK_PTTYP34
  1

  0
CIRCLE
  5
130
330
12F
100
AcDbEntity
  8
0
 62
     0
370
    -2
100
AcDbCircle
 10
0.0
 20
0.0
 30
0.0
 40
0.5
  0
LINE
  5
131
330
12F
100
AcDbEntity
  8
0
 62
     0
370
    -2
100
AcDbLine
 10
-0.4
 20
-0.3
 30
0.0
 11
0.3
 21
0.4
 31
0.0
  0
LINE
  5
132
330
12F
100
AcDbEntity
  8
0
 62
     0
370
    -2
100
AcDbLine
 10
-0.3
 20
-0.4
 30
0.0
 11
0.4
 21
0.3
 31
0.0
  0
ENDBLK
  5
134
330
12F
100
AcDbEntity
  8
0
100
AcDbBlockEnd
  0
BLOCK
  5
139
330
135
100
AcDbEntity
  8
0
100
AcDbBlockBegin
  2
CDWK_PTTYP35
 70
     0
 10
0.0
 20
0.0
 30
0.0
  3
CDWK_PTTYP35
  1

  0
LINE
  5
136
330
135
100
AcDbEntity
  8
0
 62
     0
370
    -2
100
AcDbLine
 10
0.0
 20
0.2
 30
0.0
 11
0.0
 21
0.5
 31
0.0
  0
LINE
  5
137
330
135
100
AcDbEntity
  8
0
 62
     0
370
    -2
100
AcDbLine
 10
0.0
 20
-0.2
 30
0.0
 11
0.0
 21
-0.5
 31
0.0
  0
CIRCLE
  5
138
330
135
100
AcDbEntity
  8
0
 62
     0
370
    -2
100
AcDbCircle
 10
0.0
 20
0.0
 30
0.0
 40
0.2
  0
ENDBLK
  5
13A
330
135
100
AcDbEntity
  8
0
100
AcDbBlockEnd
  0
BLOCK
  5
141
330
13B
100
AcDbEntity
  8
0
100
AcDbBlockBegin
  2
CDWK_PTTYP36
 70
     0
 10
0.0
 20
0.0
 30
0.0
  3
CDWK_PTTYP36
  1

  0
LINE
  5
13C
330
13B
100
AcDbEntity
  8
0
 62
     0
370
    -2
100
AcDbLine
 10
-0.5
 20
0.2
 30
0.0
 11
0.5
 21
0.2
 31
0.0
  0
LINE
  5
13D
330
13B
100
AcDbEntity
  8
0
 62
     0
370
    -2
100
AcDbLine
 10
0.5
 20
0.2
 30
0.0
 11
0.5
 21
-0.2
 31
0.0
  0
LINE
  5
13E
330
13B
100
AcDbEntity
  8
0
 62
     0
370
    -2
100
AcDbLine
 10
0.5
 20
-0.2
 30
0.0
 11
-0.5
 21
-0.2
 31
0.0
  0
LINE
  5
13F
330
13B
100
AcDbEntity
  8
0
 62
     0
370
    -2
100
AcDbLine
 10
-0.5
 20
-0.2
 30
0.0
 11
-0.5
 21
0.2
 31
0.0
  0
HATCH
  5
140
330
13B
100
AcDbEntity
  8
0
 62
     0
370
    -2
100
AcDbHatch
 10
0.0
 20
0.0
 30
0.0
210
0.0
220
0.0
230
1.0
  2
SOLID
 70
     1
 71
     1
 91
        1
 92
        3
 72
     0
 73
     1
 93
        3
 10
-0.5
 20
-0.2
 10
0.5
 20
-0.2
 10
0.5
 20
0.2
 97
        0
 75
     0
 76
     1
 98
        0
  0
ENDBLK
  5
142
330
13B
100
AcDbEntity
  8
0
100
AcDbBlockEnd
  0
BLOCK
  5
146
330
143
100
AcDbEntity
  8
0
100
AcDbBlockBegin
  2
CDWK_PTTYP37
 70
     0
 10
0.0
 20
0.0
 30
0.0
  3
CDWK_PTTYP37
  1

  0
HATCH
  5
144
330
143
100
AcDbEntity
  8
0
 62
     0
370
    -2
100
AcDbHatch
 10
0.0
 20
0.0
 30
0.0
210
0.0
220
0.0
230
1.0
  2
SOLID
 70
     1
 71
     1
 91
        1
 92
        3
 72
     0
 73
     1
 93
      202
 10
-0.3535533905932738
 20
-0.3535533905932738
 10
-0.3485533905932738
 20
-0.3535533905932737
 10
-0.3435533905932738
 20
-0.3584836591895546
 10
-0.3385533905932738
 20
-0.3632782236961988
 10
-0.3335533905932738
 20
-0.367942389128785
 10
-0.3285533905932738
 20
-0.372481054046687
 10
-0.3235533905932738
 20
-0.3768987523588579
 10
-0.3185533905932738
 20
-0.3811996897107819
 10
-0.3135533905932738
 20
-0.3853877752881235
 10
-0.3085533905932737
 20
-0.3894666497242888
 10
-0.3035533905932737
 20
-0.3934397096803965
 10
-0.2985533905932737
 20
-0.3973101295704999
 10
-0.2935533905932737
 20
-0.4010808808273714
 10
-0.2885533905932737
 20
-0.4047547490409382
 10
-0.2835533905932737
 20
-0.4083343492496384
 10
-0.2785533905932737
 20
-0.4118221396222626
 10
-0.2735533905932737
 20
-0.4152204337324827
 10
-0.2685533905932737
 20
-0.4185314115988474
 10
-0.2635533905932737
 20
-0.4217571296384408
 10
-0.2585533905932737
 20
-0.4248995296617653
 10
-0.2535533905932737
 20
-0.4279604470190231
 10
-0.2485533905932737
 20
-0.4309416179932669
 10
-0.2435533905932737
 20
-0.4338446865234004
 10
-0.2385533905932737
 20
-0.4366712103293738
 10
-0.2335533905932737
 20
-0.439422666502825
 10
-0.2285533905932737
 20
-0.4421004566186126
 10
-0.2235533905932737
 20
-0.4447059114159811
 10
-0.2185533905932737
 20
-0.4472402950923041
 10
-0.2135533905932737
 20
-0.4497048092473372
 10
-0.2085533905932737
 20
-0.4521005965115692
 10
-0.2035533905932737
 20
-0.4544287438884664
 10
-0.1985533905932736
 20
-0.456690285837111
 10
-0.1935533905932736
 20
-0.45888620711884
 10
-0.1885533905932736
 20
-0.4610174454289638
 10
-0.1835533905932736
 20
-0.4630848938324164
 10
-0.1785533905932736
 20
-0.4650894030202291
 10
-0.1735533905932736
 20
-0.4670317834019928
 10
-0.1685533905932736
 20
-0.46891280704794
 10
-0.1635533905932736
 20
-0.4707332094929264
 10
-0.1585533905932736
 20
-0.4724936914133818
 10
-0.1535533905932736
 20
-0.4741949201872336
 10
-0.1485533905932736
 20
-0.4758375313458466
 10
-0.1435533905932736
 20
-0.4774221299261716
 10
-0.1385533905932736
 20
-0.4789492917305286
 10
-0.1335533905932736
 20
-0.4804195645007682
 10
-0.1285533905932736
 20
-0.4818334690129366
 10
-0.1235533905932736
 20
-0.4831915000980183
 10
-0.1185533905932736
 20
-0.4844941275938295
 10
-0.1135533905932736
 20
-0.4857417972326848
 10
-0.1085533905932736
 20
-0.4869349314690531
 10
-0.1035533905932736
 20
-0.4880739302510473
 10
-0.0985533905932736
 20
-0.489159171739258
 10
-0.0935533905932736
 20
-0.4901910129761353
 10
-0.0885533905932736
 20
-0.4911697905088447
 10
-0.0835533905932735
 20
-0.4920958209682695
 10
-0.0785533905932735
 20
-0.4929694016065986
 10
-0.0735533905932735
 20
-0.4937908107957261
 10
-0.0685533905932735
 20
-0.494560308488493
 10
-0.0635533905932735
 20
-0.4952781366446192
 10
-0.0585533905932735
 20
-0.4959445196230107
 10
-0.0535533905932735
 20
-0.4965596645419678
 10
-0.0485533905932735
 20
-0.4971237616086806
 10
-0.0435533905932735
 20
-0.4976369844192622
 10
-0.0385533905932735
 20
-0.4980994902304456
 10
-0.0335533905932735
 20
-0.4985114202039533
 10
-0.0285533905932735
 20
-0.4988728996244386
 10
-0.0235533905932735
 20
-0.4991840380917923
 10
-0.0185533905932735
 20
-0.49944492968851
 10
-0.0135533905932735
 20
-0.4996556531227215
 10
-0.0085533905932735
 20
-0.4998162718473921
 10
-0.0035533905932735
 20
-0.4999268341561182
 10
0.0014466094067265
 20
-0.499987373255857
 10
0.0064466094067265
 20
-0.4999979073168451
 10
0.0114466094067265
 20
-0.4999584394998819
 10
0.0164466094067265
 20
-0.4998689579610739
 10
0.0214466094067265
 20
-0.4997294358340547
 10
0.0264466094067265
 20
-0.4995398311896213
 10
0.0314466094067265
 20
-0.4993000869726422
 10
0.0364466094067265
 20
-0.4990101309160174
 10
0.0414466094067265
 20
-0.4986698754313855
 10
0.0464466094067265
 20
-0.498279217476192
 10
0.0514466094067265
 20
-0.4978380383966446
 10
0.0564466094067265
 20
-0.497346203745994
 10
0.0614466094067265
 20
-0.4968035630774849
 10
0.0664466094067264
 20
-0.4962099497112257
 10
0.0714466094067265
 20
-0.4955651804741228
 10
0.0764466094067265
 20
-0.4948690554119167
 10
0.0814466094067265
 20
-0.4941213574722463
 10
0.0864466094067265
 20
-0.4933218521575424
 10
0.0914466094067265
 20
-0.4924702871464235
 10
0.0964466094067265
 20
-0.4915663918821278
 10
0.1014466094067265
 20
-0.4906098771263643
 10
0.1064466094067265
 20
-0.4896004344768079
 10
0.1114466094067265
 20
-0.4885377358462822
 10
0.1164466094067265
 20
-0.4874214329014929
 10
0.1214466094067265
 20
-0.4862511564589613
 10
0.1264466094067265
 20
-0.4850265158355881
 10
0.1314466094067265
 20
-0.4837470981510305
 10
0.1364466094067265
 20
-0.482412467578809
 10
0.1414466094067265
 20
-0.4810221645427664
 10
0.1464466094067265
 20
-0.4795757048551781
 10
0.1514466094067265
 20
-0.4780725787924608
 10
0.1564466094067265
 20
-0.4765122501040308
 10
0.1614466094067265
 20
-0.4748941549494363
 10
0.1664466094067265
 20
-0.4732177007584056
 10
0.1714466094067265
 20
-0.4714822650079264
 10
0.1764466094067265
 20
-0.4696871939098801
 10
0.1814466094067266
 20
-0.4678318010021017
 10
0.1864466094067266
 20
-0.4659153656350076
 10
0.1914466094067266
 20
-0.4639371313451162
 10
0.1964466094067266
 20
-0.4618963041058764
 10
0.2014466094067266
 20
-0.4597920504451997
 10
0.2064466094067266
 20
-0.4576234954179405
 10
0.2114466094067266
 20
-0.4553897204202862
 10
0.2164466094067266
 20
-0.4530897608315588
 10
0.2214466094067266
 20
-0.45072260346729
 10
0.2264466094067266
 20
-0.4482871838255748
 10
0.2314466094067266
 20
-0.4457823831065977
 10
0.2364466094067266
 20
-0.4432070249828292
 10
0.2414466094067266
 20
-0.4405598720946596
 10
0.2464466094067266
 20
-0.4378396222431172
 10
0.2514466094067266
 20
-0.4350449042477435
 10
0.2564466094067266
 20
-0.4321742734336012
 10
0.2614466094067266
 20
-0.4292262067066663
 10
0.2664466094067266
 20
-0.4261990971714118
 10
0.2714466094067266
 20
-0.4230912482380831
 10
0.2764466094067266
 20
-0.4199008671598476
 10
0.2814466094067266
 20
-0.4166260579314797
 10
0.2864466094067266
 20
-0.4132648134712868
 10
0.2914466094067266
 20
-0.4098150069963156
 10
0.2964466094067266
 20
-0.4062743824871597
 10
0.3014466094067266
 20
-0.4026405441224911
 10
0.3064466094067266
 20
-0.3989109445442534
 10
0.3114466094067266
 20
-0.3950828717916294
 10
0.3164466094067266
 20
-0.391153434714632
 10
0.3214466094067266
 20
-0.3871195466454601
 10
0.3264466094067267
 20
-0.3829779070663467
 10
0.3314466094067267
 20
-0.3787249809648844
 10
0.3364466094067267
 20
-0.3743569755097196
 10
0.3414466094067267
 20
-0.3698698136084067
 10
0.3464466094067267
 20
-0.3652591038217257
 10
0.3514466094067267
 20
-0.3605201060004601
 10
0.3564466094067267
 20
-0.3556476918757041
 10
0.3614466094067267
 20
-0.3506362996645505
 10
0.3664466094067267
 20
-0.34547988153926
 10
0.3714466094067267
 20
-0.3401718425359658
 10
0.3764466094067267
 20
-0.334704969129899
 10
0.3814466094067267
 20
-0.3290713452523318
 10
0.3864466094067267
 20
-0.3232622529342269
 10
0.3914466094067267
 20
-0.3172680539828188
 10
0.3964466094067267
 20
-0.3110780480586465
 10
0.4014466094067267
 20
-0.304680301118911
 10
0.4064466094067267
 20
-0.2980614362775617
 10
0.4114466094067267
 20
-0.291206376478565
 10
0.4164466094067267
 20
-0.2840980246459106
 10
0.4214466094067267
 20
-0.276716861635935
 10
0.4264466094067267
 20
-0.2690404345439063
 10
0.4314466094067267
 20
-0.2610426963649944
 10
0.4364466094067267
 20
-0.2526931404518915
 10
0.4414466094067268
 20
-0.2439556458403291
 10
0.4464466094067268
 20
-0.2347869056044327
 10
0.4514466094067268
 20
-0.2251342376211081
 10
0.4564466094067268
 20
-0.2149324518428296
 10
0.4614466094067268
 20
-0.2040992228331676
 10
0.4664466094067268
 20
-0.1925279893081412
 10
0.4714466094067268
 20
-0.1800765408735088
 10
0.4764466094067268
 20
-0.1665475742210051
 10
0.4814466094067268
 20
-0.1516529867323223
 10
0.4864466094067268
 20
-0.1349413290684758
 10
0.4914466094067268
 20
-0.1156274024472547
 10
0.4964466094067268
 20
-0.0920881648347501
 10
0.5
 20
0.0
 10
0.495
 20
0.0
 10
0.49
 20
0.0705336798983295
 10
0.485
 20
0.0994987437106621
 10
0.48
 20
0.1215524578114322
 10
0.475
 20
0.14
 10
0.47
 20
0.15612494995996
 10
0.465
 20
0.1705872210923199
 10
0.46
 20
0.1837797594948911
 10
0.455
 20
0.1959591794226544
 10
0.45
 20
0.2073041244162789
 10
0.445
 20
0.2179449471770338
 10
0.4399999999999999
 20
0.2279802623035601
 10
0.4349999999999999
 20
0.2374868417407584
 10
0.4299999999999999
 20
0.2465258607124211
 10
0.4249999999999999
 20
0.2551470164434615
 10
0.4199999999999999
 20
0.2633913438213186
 10
0.4149999999999999
 20
0.2712931993250108
 10
0.4099999999999999
 20
0.2788816953476869
 10
0.4049999999999999
 20
0.2861817604250838
 10
0.3999999999999999
 20
0.2932149382279151
 10
0.3949999999999999
 20
0.3000000000000002
 10
0.3899999999999999
 20
0.3065534211193868
 10
0.3849999999999999
 20
0.3128897569432404
 10
0.3799999999999999
 20
0.3190219428189855
 10
0.3749999999999999
 20
0.3249615361854385
 10
0.3699999999999999
 20
0.330718913883074
 10
0.3649999999999999
 20
0.3363034344160049
 10
0.3599999999999999
 20
0.3417235724968357
 10
0.3549999999999999
 20
0.3469870314579496
 10
0.3535533905932738
 20
0.3535533905932738
 97
        0
 75
     0
 76
     1
 98
        0
  0
CIRCLE
  5
145
330
143
100
AcDbEntity
  8
0
 62
     0
370
    -2
100
AcDbCircle
 10
0.0
 20
0.0
 30
0.0
 40
0.5
  0
ENDBLK
  5
147
330
143
100
AcDbEntity
  8
0
100
AcDbBlockEnd
  0
BLOCK
  5
14C
330
148
100
AcDbEntity
  8
0
100
AcDbBlockBegin
  2
CDWK_PTTYP38
 70
     0
 10
0.0
 20
0.0
 30
0.0
  3
CDWK_PTTYP38
  1

  0
HATCH
  5
149
330
148
100
AcDbEntity
  8
0
 62
     0
370
    -2
100
AcDbHatch
 10
0.0
 20
0.0
 30
0.0
210
0.0
220
0.0
230
1.0
  2
SOLID
 70
     1
 71
     1
 91
        1
 92
        3
 72
     0
 73
     1
 93
      102
 10
0.0
 20
0.0
 10
0.0
 20
0.5
 10
0.005
 20
0.5
 10
0.01
 20
0.4999749993749688
 10
0.015
 20
0.4998999899979995
 10
0.02
 20
0.4997749493522059
 10
0.025
 20
0.4995998398718718
 10
0.03
 20
0.4993746088859545
 10
0.035
 20
0.4990991885387112
 10
0.04
 20
0.4987734956871706
 10
0.045
 20
0.4983974317750845
 10
0.05
 20
0.4979708826829135
 10
0.055
 20
0.49749371855331
 10
0.06
 20
0.4969657935914704
 10
0.065
 20
0.4963869458396343
 10
0.07
 20
0.4957569969249047
 10
0.075
 20
0.4950757517794626
 10
0.08
 20
0.4943429983321297
 10
0.085
 20
0.4935585071701227
 10
0.09
 20
0.4927220311697053
 10
0.095
 20
0.4918333050943175
 10
0.1
 20
0.4908920451586071
 10
0.105
 20
0.4898979485566356
 10
0.11
 20
0.4888506929523574
 10
0.115
 20
0.4877499359302879
 10
0.12
 20
0.4865953144040744
 10
0.125
 20
0.4853864439804639
 10
0.13
 20
0.4841229182759271
 10
0.135
 20
0.4828043081829325
 10
0.14
 20
0.4814301610825811
 10
0.145
 20
0.48
 10
0.15
 20
0.478513322698543
 10
0.1550000000000001
 20
0.4769696007084728
 10
0.1600000000000001
 20
0.4753682782853731
 10
0.1650000000000001
 20
0.4737087712930804
 10
0.1700000000000001
 20
0.4719904660054056
 10
0.1750000000000001
 20
0.4702127178203498
 10
0.1800000000000001
 20
0.4683748498798799
 10
0.1850000000000001
 20
0.466476151587624
 10
0.1900000000000001
 20
0.4645158770160606
 10
0.1950000000000001
 20
0.4624932431938871
 10
0.2000000000000001
 20
0.460407428263272
 10
0.2050000000000001
 20
0.4582575694955839
 10
0.2100000000000001
 20
0.4560427611529427
 10
0.2150000000000001
 20
0.4537620521815371
 10
0.2200000000000001
 20
0.4514144437210665
 10
0.2250000000000001
 20
0.4489988864128729
 10
0.2300000000000001
 20
0.4465142774872937
 10
0.2350000000000001
 20
0.4439594576084622
 10
0.2400000000000001
 20
0.4413332074521472
 10
0.2450000000000001
 20
0.4386342439892261
 10
0.2500000000000001
 20
0.4358612164439502
 10
0.2550000000000001
 20
0.4330127018922192
 10
0.2600000000000001
 20
0.4300872004605577
 10
0.2650000000000001
 20
0.4270831300812524
 10
0.2700000000000001
 20
0.423998820753077
 10
0.2750000000000001
 20
0.4208325082500162
 10
0.2800000000000001
 20
0.4175823272122516
 10
0.2850000000000001
 20
0.4142463035441595
 10
0.2900000000000001
 20
0.4108223460329293
 10
0.2950000000000002
 20
0.4073082370883259
 10
0.3000000000000002
 20
0.403701622488689
 10
0.3050000000000002
 20
0.3999999999999999
 10
0.3100000000000002
 20
0.3962007067131506
 10
0.3150000000000002
 20
0.3923009049186605
 10
0.3200000000000002
 20
0.3882975663070783
 10
0.3250000000000002
 20
0.3841874542459708
 10
0.3300000000000002
 20
0.3799671038392664
 10
0.3350000000000002
 20
0.3756327994198588
 10
0.3400000000000002
 20
0.3711805490593491
 10
0.3450000000000002
 20
0.366606055596467
 10
0.3500000000000002
 20
0.3619046835839512
 10
0.3550000000000002
 20
0.3570714214271423
 10
0.3600000000000002
 20
0.3521008378291649
 10
0.3650000000000002
 20
0.3469870314579492
 10
0.3700000000000002
 20
0.3417235724968353
 10
0.3750000000000002
 20
0.3363034344160045
 10
0.3800000000000002
 20
0.3307189138830736
 10
0.3850000000000002
 20
0.3249615361854382
 10
0.3900000000000002
 20
0.3190219428189851
 10
0.3950000000000002
 20
0.31288975694324
 10
0.4000000000000002
 20
0.3065534211193863
 10
0.4050000000000002
 20
0.2999999999999997
 10
0.4100000000000003
 20
0.2932149382279147
 10
0.4150000000000003
 20
0.2861817604250834
 10
0.4200000000000003
 20
0.2788816953476864
 10
0.4250000000000003
 20
0.2712931993250103
 10
0.4300000000000003
 20
0.263391343821318
 10
0.4350000000000003
 20
0.255147016443461
 10
0.4400000000000003
 20
0.2465258607124206
 10
0.4450000000000003
 20
0.2374868417407578
 10
0.4500000000000003
 20
0.2279802623035594
 10
0.4550000000000003
 20
0.2179449471770331
 10
0.4600000000000003
 20
0.2073041244162782
 10
0.4650000000000003
 20
0.1959591794226536
 10
0.4700000000000003
 20
0.1837797594948903
 10
0.4750000000000003
 20
0.170587221092319
 10
0.4800000000000003
 20
0.156124949959959
 10
0.4850000000000003
 20
0.1399999999999989
 10
0.4900000000000003
 20
0.1215524578114309
 10
0.4950000000000003
 20
0.0994987437106604
 10
0.5
 20
0.0
 97
        0
 75
     0
 76
     1
 98
        0
  0
HATCH
  5
14A
330
148
100
AcDbEntity
  8
0
 62
     0
370
    -2
100
AcDbHatch
 10
0.0
 20
0.0
 30
0.0
210
0.0
220
0.0
230
1.0
  2
SOLID
 70
     1
 71
     1
 91
        1
 92
        3
 72
     0
 73
     1
 93
      102
 10
0.0
 20
0.0
 10
-0.5
 20
0.0
 10
-0.495
 20
0.0
 10
-0.49
 20
-0.0705336798983295
 10
-0.485
 20
-0.0994987437106621
 10
-0.48
 20
-0.1215524578114322
 10
-0.475
 20
-0.14
 10
-0.47
 20
-0.15612494995996
 10
-0.465
 20
-0.1705872210923199
 10
-0.46
 20
-0.1837797594948911
 10
-0.455
 20
-0.1959591794226544
 10
-0.45
 20
-0.2073041244162789
 10
-0.445
 20
-0.2179449471770338
 10
-0.4399999999999999
 20
-0.2279802623035601
 10
-0.4349999999999999
 20
-0.2374868417407584
 10
-0.4299999999999999
 20
-0.2465258607124211
 10
-0.4249999999999999
 20
-0.2551470164434615
 10
-0.4199999999999999
 20
-0.2633913438213186
 10
-0.4149999999999999
 20
-0.2712931993250108
 10
-0.4099999999999999
 20
-0.2788816953476869
 10
-0.4049999999999999
 20
-0.2861817604250838
 10
-0.3999999999999999
 20
-0.2932149382279151
 10
-0.3949999999999999
 20
-0.3000000000000002
 10
-0.3899999999999999
 20
-0.3065534211193868
 10
-0.3849999999999999
 20
-0.3128897569432404
 10
-0.3799999999999999
 20
-0.3190219428189855
 10
-0.3749999999999999
 20
-0.3249615361854385
 10
-0.3699999999999999
 20
-0.330718913883074
 10
-0.3649999999999999
 20
-0.3363034344160049
 10
-0.3599999999999999
 20
-0.3417235724968357
 10
-0.3549999999999999
 20
-0.3469870314579496
 10
-0.3499999999999999
 20
-0.3521008378291652
 10
-0.3449999999999999
 20
-0.3570714214271427
 10
-0.3399999999999999
 20
-0.3619046835839516
 10
-0.3349999999999999
 20
-0.3666060555964674
 10
-0.3299999999999998
 20
-0.3711805490593494
 10
-0.3249999999999998
 20
-0.3756327994198591
 10
-0.3199999999999998
 20
-0.3799671038392667
 10
-0.3149999999999998
 20
-0.3841874542459711
 10
-0.3099999999999998
 20
-0.3882975663070786
 10
-0.3049999999999998
 20
-0.3923009049186608
 10
-0.2999999999999998
 20
-0.3962007067131507
 10
-0.2949999999999998
 20
-0.4000000000000001
 10
-0.2899999999999998
 20
-0.4037016224886891
 10
-0.2849999999999998
 20
-0.4073082370883261
 10
-0.2799999999999998
 20
-0.4108223460329296
 10
-0.2749999999999998
 20
-0.4142463035441597
 10
-0.2699999999999998
 20
-0.4175823272122518
 10
-0.2649999999999998
 20
-0.4208325082500164
 10
-0.2599999999999998
 20
-0.4239988207530773
 10
-0.2549999999999998
 20
-0.4270831300812526
 10
-0.2499999999999998
 20
-0.4300872004605579
 10
-0.2449999999999998
 20
-0.4330127018922195
 10
-0.2399999999999998
 20
-0.4358612164439503
 10
-0.2349999999999998
 20
-0.4386342439892263
 10
-0.2299999999999998
 20
-0.4413332074521473
 10
-0.2249999999999998
 20
-0.4439594576084624
 10
-0.2199999999999998
 20
-0.4465142774872939
 10
-0.2149999999999997
 20
-0.4489988864128731
 10
-0.2099999999999997
 20
-0.4514144437210667
 10
-0.2049999999999997
 20
-0.4537620521815372
 10
-0.1999999999999997
 20
-0.4560427611529429
 10
-0.1949999999999997
 20
-0.4582575694955841
 10
-0.1899999999999997
 20
-0.4604074282632722
 10
-0.1849999999999997
 20
-0.4624932431938872
 10
-0.1799999999999997
 20
-0.4645158770160608
 10
-0.1749999999999997
 20
-0.4664761515876241
 10
-0.1699999999999997
 20
-0.46837484987988
 10
-0.1649999999999997
 20
-0.47021271782035
 10
-0.1599999999999997
 20
-0.4719904660054058
 10
-0.1549999999999997
 20
-0.4737087712930805
 10
-0.1499999999999997
 20
-0.4753682782853733
 10
-0.1449999999999997
 20
-0.4769696007084729
 10
-0.1399999999999997
 20
-0.4785133226985431
 10
-0.1349999999999997
 20
-0.4800000000000001
 10
-0.1299999999999997
 20
-0.4814301610825812
 10
-0.1249999999999997
 20
-0.4828043081829325
 10
-0.1199999999999997
 20
-0.4841229182759272
 10
-0.1149999999999997
 20
-0.485386443980464
 10
-0.1099999999999997
 20
-0.4865953144040744
 10
-0.1049999999999996
 20
-0.487749935930288
 10
-0.0999999999999996
 20
-0.4888506929523574
 10
-0.0949999999999996
 20
-0.4898979485566357
 10
-0.0899999999999996
 20
-0.4908920451586072
 10
-0.0849999999999996
 20
-0.4918333050943176
 10
-0.0799999999999996
 20
-0.4927220311697053
 10
-0.0749999999999996
 20
-0.4935585071701227
 10
-0.0699999999999996
 20
-0.4943429983321298
 10
-0.0649999999999996
 20
-0.4950757517794626
 10
-0.0599999999999996
 20
-0.4957569969249048
 10
-0.0549999999999996
 20
-0.4963869458396343
 10
-0.0499999999999996
 20
-0.4969657935914705
 10
-0.0449999999999996
 20
-0.49749371855331
 10
-0.0399999999999996
 20
-0.4979708826829135
 10
-0.0349999999999996
 20
-0.4983974317750846
 10
-0.0299999999999996
 20
-0.4987734956871706
 10
-0.0249999999999996
 20
-0.4990991885387112
 10
-0.0199999999999996
 20
-0.4993746088859545
 10
-0.0149999999999996
 20
-0.4995998398718719
 10
-0.0099999999999996
 20
-0.499774949352206
 10
-0.0049999999999996
 20
-0.4998999899979995
 10
0.0
 20
-0.5
 97
        0
 75
     0
 76
     1
 98
        0
  0
CIRCLE
  5
14B
330
148
100
AcDbEntity
  8
0
 62
     0
370
    -2
100
AcDbCircle
 10
0.0
 20
0.0
 30
0.0
 40
0.5
  0
ENDBLK
  5
14D
330
148
100
AcDbEntity
  8
0
100
AcDbBlockEnd
  0
BLOCK
  5
156
330
14E
100
AcDbEntity
  8
0
100
AcDbBlockBegin
  2
CDWK_PTTYP41
 70
     0
 10
0.0
 20
0.0
 30
0.0
  3
CDWK_PTTYP41
  1

  0
LINE
  5
14F
330
14E
100
AcDbEntity
  8
0
 62
     0
370
    -2
100
AcDbLine
 10
-0.5
 20
0.5
 30
0.0
 11
0.5
 21
0.5
 31
0.0
  0
LINE
  5
150
330
14E
100
AcDbEntity
  8
0
 62
     0
370
    -2
100
AcDbLine
 10
0.5
 20
0.5
 30
0.0
 11
0.5
 21
-0.5
 31
0.0
  0
LINE
  5
151
330
14E
100
AcDbEntity
  8
0
 62
     0
370
    -2
100
AcDbLine
 10
0.5
 20
-0.5
 30
0.0
 11
-0.5
 21
-0.5
 31
0.0
  0
LINE
  5
152
330
14E
100
AcDbEntity
  8
0
 62
     0
370
    -2
100
AcDbLine
 10
-0.5
 20
-0.5
 30
0.0
 11
-0.5
 21
0.5
 31
0.0
  0
LINE
  5
153
330
14E
100
AcDbEntity
  8
0
 62
     0
370
    -2
100
AcDbLine
 10
-0.375
 20
0.25
 30
0.0
 11
0.375
 21
0.25
 31
0.0
  0
LINE
  5
154
330
14E
100
AcDbEntity
  8
0
 62
     0
370
    -2
100
AcDbLine
 10
-0.375
 20
0.0
 30
0.0
 11
0.375
 21
0.0
 31
0.0
  0
LINE
  5
155
330
14E
100
AcDbEntity
  8
0
 62
     0
370
    -2
100
AcDbLine
 10
-0.375
 20
-0.25
 30
0.0
 11
0.375
 21
-0.25
 31
0.0
  0
ENDBLK
  5
157
330
14E
100
AcDbEntity
  8
0
100
AcDbBlockEnd
  0
BLOCK
  5
15F
330
158
100
AcDbEntity
  8
0
100
AcDbBlockBegin
  2
CDWK_PTTYP42
 70
     0
 10
0.0
 20
0.0
 30
0.0
  3
CDWK_PTTYP42
  1

  0
LINE
  5
159
330
158
100
AcDbEntity
  8
0
 62
     0
370
    -2
100
AcDbLine
 10
-0.5
 20
0.5
 30
0.0
 11
0.5
 21
0.5
 31
0.0
  0
LINE
  5
15A
330
158
100
AcDbEntity
  8
0
 62
     0
370
    -2
100
AcDbLine
 10
0.5
 20
0.5
 30
0.0
 11
0.5
 21
-0.5
 31
0.0
  0
LINE
  5
15B
330
158
100
AcDbEntity
  8
0
 62
     0
370
    -2
100
AcDbLine
 10
0.5
 20
-0.5
 30
0.0
 11
-0.5
 21
-0.5
 31
0.0
  0
LINE
  5
15C
330
158
100
AcDbEntity
  8
0
 62
     0
370
    -2
100
AcDbLine
 10
-0.5
 20
-0.5
 30
0.0
 11
-0.5
 21
0.5
 31
0.0
  0
LINE
  5
15D
330
158
100
AcDbEntity
  8
0
 62
     0
370
    -2
100
AcDbLine
 10
-0.375
 20
0.125
 30
0.0
 11
0.375
 21
0.125
 31
0.0
  0
LINE
  5
15E
330
158
100
AcDbEntity
  8
0
 62
     0
370
    -2
100
AcDbLine
 10
-0.375
 20
-0.125
 30
0.0
 11
0.375
 21
-0.125
 31
0.0
  0
ENDBLK
  5
160
330
158
100
AcDbEntity
  8
0
100
AcDbBlockEnd
  0
BLOCK
  5
165
330
161
100
AcDbEntity
  8
0
100
AcDbBlockBegin
  2
CDWK_PTTYP43
 70
     0
 10
0.0
 20
0.0
 30
0.0
  3
CDWK_PTTYP43
  1

  0
CIRCLE
  5
162
330
161
100
AcDbEntity
  8
0
 62
     0
370
    -2
100
AcDbCircle
 10
0.0
 20
0.0
 30
0.0
 40
0.5
  0
LINE
  5
163
330
161
100
AcDbEntity
  8
0
 62
     0
370
    -2
100
AcDbLine
 10
-0.375
 20
0.166
 30
0.0
 11
0.375
 21
0.166
 31
0.0
  0
LINE
  5
164
330
161
100
AcDbEntity
  8
0
 62
     0
370
    -2
100
AcDbLine
 10
-0.375
 20
-0.166
 30
0.0
 11
0.375
 21
-0.166
 31
0.0
  0
ENDBLK
  5
166
330
161
100
AcDbEntity
  8
0
100
AcDbBlockEnd
  0
BLOCK
  5
16E
330
167
100
AcDbEntity
  8
0
100
AcDbBlockBegin
  2
CDWK_PTTYP44
 70
     0
 10
0.0
 20
0.0
 30
0.0
  3
CDWK_PTTYP44
  1

  0
CIRCLE
  5
168
330
167
100
AcDbEntity
  8
0
 62
     0
370
    -2
100
AcDbCircle
 10
0.0
 20
0.0
 30
0.0
 40
0.5
  0
LINE
  5
169
330
167
100
AcDbEntity
  8
0
 62
     0
370
    -2
100
AcDbLine
 10
-0.375
 20
0.333
 30
0.0
 11
0.375
 21
0.333
 31
0.0
  0
LINE
  5
16A
330
167
100
AcDbEntity
  8
0
 62
     0
370
    -2
100
AcDbLine
 10
-0.375
 20
0.166
 30
0.0
 11
0.375
 21
0.166
 31
0.0
  0
LINE
  5
16B
330
167
100
AcDbEntity
  8
0
 62
     0
370
    -2
100
AcDbLine
 10
-0.375
 20
0.0
 30
0.0
 11
0.375
 21
0.0
 31
0.0
  0
LINE
  5
16C
330
167
100
AcDbEntity
  8
0
 62
     0
370
    -2
100
AcDbLine
 10
-0.375
 20
-0.166
 30
0.0
 11
0.375
 21
-0.166
 31
0.0
  0
LINE
  5
16D
330
167
100
AcDbEntity
  8
0
 62
     0
370
    -2
100
AcDbLine
 10
-0.375
 20
-0.333
 30
0.0
 11
0.375
 21
-0.333
 31
0.0
  0
ENDBLK
  5
16F
330
167
100
AcDbEntity
  8
0
100
AcDbBlockEnd
  0
BLOCK
  5
173
330
170
100
AcDbEntity
  8
0
100
AcDbBlockBegin
  2
CDWK_PTTYP45
 70
     0
 10
0.0
 20
0.0
 30
0.0
  3
CDWK_PTTYP45
  1

  0
ELLIPSE
  5
171
330
170
100
AcDbEntity
  8
0
 62
     0
370
    -2
100
AcDbEllipse
 10
0.0
 20
0.0
 30
0.0
 11
0.5
 21
0.0
 31
0.0
210
0.0
220
0.0
230
1.0
 40
0.82
 41
0.0
 42
6.283185307179586
  0
CIRCLE
  5
172
330
170
100
AcDbEntity
  8
0
 62
     0
370
    -2
100
AcDbCircle
 10
-0.235
 20
0.0
 30
0.0
 40
0.26
  0
ENDBLK
  5
174
330
170
100
AcDbEntity
  8
0
100
AcDbBlockEnd
  0
BLOCK
  5
178
330
175
100
AcDbEntity
  8
0
100
AcDbBlockBegin
  2
CDWK_PTTYP46
 70
     0
 10
0.0
 20
0.0
 30
0.0
  3
CDWK_PTTYP46
  1

  0
ELLIPSE
  5
176
330
175
100
AcDbEntity
  8
0
 62
     0
370
    -2
100
AcDbEllipse
 10
0.0
 20
0.0
 30
0.0
 11
0.5
 21
0.0
 31
0.0
210
0.0
220
0.0
230
1.0
 40
0.82
 41
0.0
 42
6.283185307179586
  0
CIRCLE
  5
177
330
175
100
AcDbEntity
  8
0
 62
     0
370
    -2
100
AcDbCircle
 10
0.0
 20
0.15
 30
0.0
 40
0.26
  0
ENDBLK
  5
179
330
175
100
AcDbEntity
  8
0
100
AcDbBlockEnd
  0
BLOCK
  5
180
330
17A
100
AcDbEntity
  8
0
100
AcDbBlockBegin
  2
CDWK_PTTYP47
 70
     0
 10
0.0
 20
0.0
 30
0.0
  3
CDWK_PTTYP47
  1

  0
LINE
  5
17B
330
17A
100
AcDbEntity
  8
0
 62
     0
370
    -2
100
AcDbLine
 10
-0.5
 20
0.166
 30
0.0
 11
0.5
 21
0.166
 31
0.0
  0
LINE
  5
17C
330
17A
100
AcDbEntity
  8
0
 62
     0
370
    -2
100
AcDbLine
 10
0.5
 20
0.166
 30
0.0
 11
0.5
 21
-0.166
 31
0.0
  0
LINE
  5
17D
330
17A
100
AcDbEntity
  8
0
 62
     0
370
    -2
100
AcDbLine
 10
0.5
 20
-0.166
 30
0.0
 11
-0.5
 21
-0.166
 31
0.0
  0
LINE
  5
17E
330
17A
100
AcDbEntity
  8
0
 62
     0
370
    -2
100
AcDbLine
 10
-0.5
 20
-0.166
 30
0.0
 11
-0.5
 21
0.166
 31
0.0
  0
CIRCLE
  5
17F
330
17A
100
AcDbEntity
  8
0
 62
     0
370
    -2
100
AcDbCircle
 10
0.0
 20
-0.313
 30
0.0
 40
0.4
  0
ENDBLK
  5
181
330
17A
100
AcDbEntity
  8
0
100
AcDbBlockEnd
  0
BLOCK
  5
186
330
183
100
AcDbEntity
  8
0
100
AcDbBlockBegin
  2
CDWK_PTTYP48
 70
     0
 10
0.0
 20
0.0
 30
0.0
  3
CDWK_PTTYP48
  1

  0
CIRCLE
  5
184
330
183
100
AcDbEntity
  8
0
  6
CADWORK_3
 62
     0
 48
0.1
370
    -2
100
AcDbCircle
 10
0.0
 20
0.0
 30
0.0
 40
0.5
  0
CIRCLE
  5
185
330
183
100
AcDbEntity
  8
0
 62
     0
370
    -2
100
AcDbCircle
 10
0.0
 20
0.0
 30
0.0
 40
0.25
  0
ENDBLK
  5
187
330
183
100
AcDbEntity
  8
0
100
AcDbBlockEnd
  0
BLOCK
  5
18D
330
188
100
AcDbEntity
  8
0
100
AcDbBlockBegin
  2
CDWK_PTTYP49
 70
     0
 10
0.0
 20
0.0
 30
0.0
  3
CDWK_PTTYP49
  1

  0
LINE
  5
189
330
188
100
AcDbEntity
  8
0
 62
     0
370
    -2
100
AcDbLine
 10
-0.5
 20
0.166
 30
0.0
 11
0.5
 21
0.166
 31
0.0
  0
LINE
  5
18A
330
188
100
AcDbEntity
  8
0
 62
     0
370
    -2
100
AcDbLine
 10
0.5
 20
0.166
 30
0.0
 11
0.5
 21
-0.166
 31
0.0
  0
LINE
  5
18B
330
188
100
AcDbEntity
  8
0
 62
     0
370
    -2
100
AcDbLine
 10
0.5
 20
-0.166
 30
0.0
 11
-0.5
 21
-0.166
 31
0.0
  0
LINE
  5
18C
330
188
100
AcDbEntity
  8
0
 62
     0
370
    -2
100
AcDbLine
 10
-0.5
 20
-0.166
 30
0.0
 11
-0.5
 21
0.166
 31
0.0
  0
ENDBLK
  5
18E
330
188
100
AcDbEntity
  8
0
100
AcDbBlockEnd
  0
BLOCK
  5
197
330
18F
100
AcDbEntity
  8
0
100
AcDbBlockBegin
  2
CDWK_PTTYP50
 70
     0
 10
0.0
 20
0.0
 30
0.0
  3
CDWK_PTTYP50
  1

  0
LINE
  5
190
330
18F
100
AcDbEntity
  8
0
 62
     0
370
    -2
100
AcDbLine
 10
-0.5
 20
0.166
 30
0.0
 11
0.5
 21
0.166
 31
0.0
  0
LINE
  5
191
330
18F
100
AcDbEntity
  8
0
 62
     0
370
    -2
100
AcDbLine
 10
0.5
 20
0.166
 30
0.0
 11
0.5
 21
-0.166
 31
0.0
  0
LINE
  5
192
330
18F
100
AcDbEntity
  8
0
 62
     0
370
    -2
100
AcDbLine
 10
0.5
 20
-0.166
 30
0.0
 11
-0.5
 21
-0.166
 31
0.0
  0
LINE
  5
193
330
18F
100
AcDbEntity
  8
0
 62
     0
370
    -2
100
AcDbLine
 10
-0.5
 20
-0.166
 30
0.0
 11
-0.5
 21
0.166
 31
0.0
  0
LINE
  5
194
330
18F
100
AcDbEntity
  8
0
 62
     0
370
    -2
100
AcDbLine
 10
-0.25
 20
-0.166
 30
0.0
 11
-0.25
 21
0.166
 31
0.0
  0
LINE
  5
195
330
18F
100
AcDbEntity
  8
0
 62
     0
370
    -2
100
AcDbLine
 10
0.0
 20
-0.166
 30
0.0
 11
0.0
 21
0.166
 31
0.0
  0
LINE
  5
196
330
18F
100
AcDbEntity
  8
0
 62
     0
370
    -2
100
AcDbLine
 10
0.25
 20
-0.166
 30
0.0
 11
0.25
 21
0.166
 31
0.0
  0
ENDBLK
  5
198
330
18F
100
AcDbEntity
  8
0
100
AcDbBlockEnd
  0
BLOCK
  5
19C
330
199
100
AcDbEntity
  8
0
100
AcDbBlockBegin
  2
CDWK_PTTYP51
 70
     0
 10
0.0
 20
0.0
 30
0.0
  3
CDWK_PTTYP51
  1

  0
SPLINE
  5
19A
330
199
100
AcDbEntity
  8
0
 62
     0
370
    -2
100
AcDbSpline
210
0.0
220
0.0
230
1.0
 70
  1064
 71
     3
 72
    12
 73
     8
 74
     6
 42
0.000000001
 43
0.0000000001
 44
0.0000000001
 40
0.0
 40
0.0
 40
0.0
 40
0.0
 40
0.1690118339052032
 40
0.5175774661755118
 40
0.8011704844252565
 40
0.9154070810132151
 40
0.975822310881188
 40
0.975822310881188
 40
0.975822310881188
 40
0.975822310881188
 10
-0.5
 20
-0.077
 30
0.0
 10
-0.443824324006723
 20
-0.0900581618560981
 30
0.0
 10
-0.2717933876546281
 20
-0.1300471387828842
 30
0.0
 10
-0.0276699186086479
 20
-0.0006977790990417
 30
0.0
 10
0.2303349729129116
 20
0.0817803270207037
 30
0.0
 10
0.3686157174766292
 20
0.0066250198607167
 30
0.0
 10
0.4216533294581816
 20
-0.0168719667726145
 30
0.0
 10
0.44
 20
-0.025
 30
0.0
 11
-0.5
 21
-0.077
 31
0.0
 11
-0.333
 21
-0.103
 31
0.0
 11
0.0
 21
0.0
 31
0.0
 11
0.28
 21
0.045
 31
0.0
 11
0.385
 21
0.0
 31
0.0
 11
0.44
 21
-0.025
 31
0.0
  0
HATCH
  5
19B
330
199
100
AcDbEntity
  8
0
 62
     0
370
    -2
100
AcDbHatch
 10
0.0
 20
0.0
 30
0.0
210
0.0
220
0.0
230
1.0
  2
SOLID
 70
     1
 71
     1
 91
        1
 92
        3
 72
     0
 73
     1
 93
        3
 10
0.365
 20
-0.05
 10
0.5
 20
-0.042
 10
0.395
 20
0.045
 97
        0
 75
     0
 76
     1
 98
        0
  0
ENDBLK
  5
19D
330
199
100
AcDbEntity
  8
0
100
AcDbBlockEnd
  0
BLOCK
  5
1A2
330
19E
100
AcDbEntity
  8
0
100
AcDbBlockBegin
  2
CDWK_PTTYP52
 70
     0
 10
0.0
 20
0.0
 30
0.0
  3
CDWK_PTTYP52
  1

  0
LINE
  5
19F
330
19E
100
AcDbEntity
  8
0
 62
     0
370
    -2
100
AcDbLine
 10
-0.5
 20
-0.289
 30
0.0
 11
0.5
 21
-0.289
 31
0.0
  0
LINE
  5
1A0
330
19E
100
AcDbEntity
  8
0
 62
     0
370
    -2
100
AcDbLine
 10
0.5
 20
-0.289
 30
0.0
 11
0.0
 21
0.577
 31
0.0
  0
LINE
  5
1A1
330
19E
100
AcDbEntity
  8
0
 62
     0
370
    -2
100
AcDbLine
 10
0.0
 20
0.577
 30
0.0
 11
-0.5
 21
-0.289
 31
0.0
  0
ENDBLK
  5
1A3
330
19E
100
AcDbEntity
  8
0
100
AcDbBlockEnd
  0
BLOCK
  5
1A9
330
1A4
100
AcDbEntity
  8
0
100
AcDbBlockBegin
  2
cw-dimension-symbol1
 70
     0
 10
0.0
 20
0.0
 30
0.0
  3
cw-dimension-symbol1
  1

  0
LINE
  5
1A5
330
1A4
100
AcDbEntity
  8
0
 62
     0
370
    -2
100
AcDbLine
 10
0.0
 20
0.0
 30
0.0
 11
-1.0
 21
0.25
 31
0.0
  0
LINE
  5
1A6
330
1A4
100
AcDbEntity
  8
0
 62
     0
370
    -2
100
AcDbLine
 10
0.0
 20
0.0
 30
0.0
 11
-1.0
 21
-0.25
 31
0.0
  0
LINE
  5
1A7
330
1A4
100
AcDbEntity
  8
0
 62
     0
370
    -2
100
AcDbLine
 10
-1.0
 20
0.25
 30
0.0
 11
-1.0
 21
-0.25
 31
0.0
  0
LINE
  5
1A8
330
1A4
100
AcDbEntity
  8
0
 62
     0
370
    -2
100
AcDbLine
 10
0.0
 20
0.0
 30
0.0
 11
-1.0
 21
0.0
 31
0.0
  0
ENDBLK
  5
1AA
330
1A4
100
AcDbEntity
  8
0
100
AcDbBlockEnd
  0
BLOCK
  5
1AE
330
1AB
100
AcDbEntity
  8
0
100
AcDbBlockBegin
  2
cw-dimension-symbol2
 70
     0
 10
0.0
 20
0.0
 30
0.0
  3
cw-dimension-symbol2
  1

  0
LINE
  5
1AC
330
1AB
100
AcDbEntity
  8
0
 62
     0
370
    -2
100
AcDbLine
 10
-1.0
 20
0.0
 30
0.0
 11
1.0
 21
0.0
 31
0.0
  0
LINE
  5
1AD
330
1AB
100
AcDbEntity
  8
0
 62
     0
370
    -2
100
AcDbLine
 10
-0.5
 20
-0.5
 30
0.0
 11
0.5
 21
0.5
 31
0.0
  0
ENDBLK
  5
1AF
330
1AB
100
AcDbEntity
  8
0
100
AcDbBlockEnd
  0
BLOCK
  5
1B3
330
1B0
100
AcDbEntity
  8
0
100
AcDbBlockBegin
  2
cw-dimension-symbol3
 70
     0
 10
0.0
 20
0.0
 30
0.0
  3
cw-dimension-symbol3
  1

  0
LINE
  5
1B1
330
1B0
100
AcDbEntity
  8
0
 62
     0
370
    -2
100
AcDbLine
 10
-1.0
 20
0.0
 30
0.0
 11
1.0
 21
0.0
 31
0.0
  0
CIRCLE
  5
1B2
330
1B0
100
AcDbEntity
  8
0
 62
     0
370
    -2
100
AcDbCircle
 10
0.0
 20
0.0
 30
0.0
 40
0.25
  0
ENDBLK
  5
1B4
330
1B0
100
AcDbEntity
  8
0
100
AcDbBlockEnd
  0
BLOCK
  5
1BA
330
1B5
100
AcDbEntity
  8
0
100
AcDbBlockBegin
  2
cw-dimension-symbol5
 70
     0
 10
0.0
 20
0.0
 30
0.0
  3
cw-dimension-symbol5
  1

  0
HATCH
  5
1B6
330
1B5
100
AcDbEntity
  8
0
 62
     0
370
    -2
100
AcDbHatch
 10
0.0
 20
0.0
 30
0.0
210
0.0
220
0.0
230
1.0
  2
SOLID
 70
     1
 71
     1
 91
        1
 92
        3
 72
     0
 73
     1
 93
        3
 10
0.0
 20
0.0
 10
-1.0
 20
0.25
 10
-1.0
 20
-0.25
 97
        0
 75
     0
 76
     1
 98
        0
  0
LINE
  5
1B7
330
1B5
100
AcDbEntity
  8
0
 62
     0
370
    -2
100
AcDbLine
 10
0.0
 20
0.0
 30
0.0
 11
-1.0
 21
0.25
 31
0.0
  0
LINE
  5
1B8
330
1B5
100
AcDbEntity
  8
0
 62
     0
370
    -2
100
AcDbLine
 10
-1.0
 20
0.25
 30
0.0
 11
-1.0
 21
-0.25
 31
0.0
  0
LINE
  5
1B9
330
1B5
100
AcDbEntity
  8
0
 62
     0
370
    -2
100
AcDbLine
 10
-1.0
 20
-0.25
 30
0.0
 11
0.0
 21
0.0
 31
0.0
  0
ENDBLK
  5
1BB
330
1B5
100
AcDbEntity
  8
0
100
AcDbBlockEnd
  0
BLOCK
  5
1C0
330
1BC
100
AcDbEntity
  8
0
100
AcDbBlockBegin
  2
cw-dimension-symbol6
 70
     0
 10
0.0
 20
0.0
 30
0.0
  3
cw-dimension-symbol6
  1

  0
LINE
  5
1BD
330
1BC
100
AcDbEntity
  8
0
 62
     0
370
    -2
100
AcDbLine
 10
0.0
 20
0.0
 30
0.0
 11
-1.0
 21
0.25
 31
0.0
  0
LINE
  5
1BE
330
1BC
100
AcDbEntity
  8
0
 62
     0
370
    -2
100
AcDbLine
 10
0.0
 20
0.0
 30
0.0
 11
-1.0
 21
-0.25
 31
0.0
  0
LINE
  5
1BF
330
1BC
100
AcDbEntity
  8
0
 62
     0
370
    -2
100
AcDbLine
 10
0.0
 20
0.0
 30
0.0
 11
-1.0
 21
0.0
 31
0.0
  0
ENDBLK
  5
1C1
330
1BC
100
AcDbEntity
  8
0
100
AcDbBlockEnd
  0
BLOCK
  5
1C6
330
1C2
100
AcDbEntity
  8
0
100
AcDbBlockBegin
  2
cw-dimension-symbol11
 70
     0
 10
0.0
 20
0.0
 30
0.0
  3
cw-dimension-symbol11
  1

  0
LINE
  5
1C3
330
1C2
100
AcDbEntity
  8
0
 62
     0
370
    -2
100
AcDbLine
 10
-1.0
 20
1.0
 30
0.0
 11
1.0
 21
1.0
 31
0.0
  0
LINE
  5
1C4
330
1C2
100
AcDbEntity
  8
0
 62
     0
370
    -2
100
AcDbLine
 10
0.0
 20
0.0
 30
0.0
 11
-1.0
 21
1.0
 31
0.0
  0
LINE
  5
1C5
330
1C2
100
AcDbEntity
  8
0
 62
     0
370
    -2
100
AcDbLine
 10
0.0
 20
0.0
 30
0.0
 11
1.0
 21
1.0
 31
0.0
  0
ENDBLK
  5
1C7
330
1C2
100
AcDbEntity
  8
0
100
AcDbBlockEnd
  0
BLOCK
  5
1CC
330
1C8
100
AcDbEntity
  8
0
100
AcDbBlockBegin
  2
cw-dimension-symbol13
 70
     0
 10
0.0
 20
0.0
 30
0.0
  3
cw-dimension-symbol13
  1

  0
LINE
  5
1C9
330
1C8
100
AcDbEntity
  8
0
 62
     0
370
    -2
100
AcDbLine
 10
-1.0
 20
-1.0
 30
0.0
 11
1.0
 21
-1.0
 31
0.0
  0
LINE
  5
1CA
330
1C8
100
AcDbEntity
  8
0
 62
     0
370
    -2
100
AcDbLine
 10
0.0
 20
0.0
 30
0.0
 11
-1.0
 21
-1.0
 31
0.0
  0
LINE
  5
1CB
330
1C8
100
AcDbEntity
  8
0
 62
     0
370
    -2
100
AcDbLine
 10
0.0
 20
0.0
 30
0.0
 11
1.0
 21
-1.0
 31
0.0
  0
ENDBLK
  5
1CD
330
1C8
100
AcDbEntity
  8
0
100
AcDbBlockEnd
  0
BLOCK
  5
1D3
330
1CE
100
AcDbEntity
  8
0
100
AcDbBlockBegin
  2
cw-dimension-symbol15
 70
     0
 10
0.0
 20
0.0
 30
0.0
  3
cw-dimension-symbol15
  1

  0
HATCH
  5
1CF
330
1CE
100
AcDbEntity
  8
0
 62
     0
370
    -2
100
AcDbHatch
 10
0.0
 20
0.0
 30
0.0
210
0.0
220
0.0
230
1.0
  2
SOLID
 70
     1
 71
     1
 91
        1
 92
        3
 72
     0
 73
     1
 93
        3
 10
0.0
 20
0.0
 10
-1.0
 20
1.0
 10
1.0
 20
1.0
 97
        0
 75
     0
 76
     1
 98
        0
  0
LINE
  5
1D0
330
1CE
100
AcDbEntity
  8
0
 62
     0
370
    -2
100
AcDbLine
 10
0.0
 20
0.0
 30
0.0
 11
-1.0
 21
1.0
 31
0.0
  0
LINE
  5
1D1
330
1CE
100
AcDbEntity
  8
0
 62
     0
370
    -2
100
AcDbLine
 10
-1.0
 20
1.0
 30
0.0
 11
1.0
 21
1.0
 31
0.0
  0
LINE
  5
1D2
330
1CE
100
AcDbEntity
  8
0
 62
     0
370
    -2
100
AcDbLine
 10
1.0
 20
1.0
 30
0.0
 11
0.0
 21
0.0
 31
0.0
  0
ENDBLK
  5
1D4
330
1CE
100
AcDbEntity
  8
0
100
AcDbBlockEnd
  0
BLOCK
  5
1DA
330
1D5
100
AcDbEntity
  8
0
100
AcDbBlockBegin
  2
cw-dimension-symbol16
 70
     0
 10
0.0
 20
0.0
 30
0.0
  3
cw-dimension-symbol16
  1

  0
HATCH
  5
1D6
330
1D5
100
AcDbEntity
  8
0
 62
     0
370
    -2
100
AcDbHatch
 10
0.0
 20
0.0
 30
0.0
210
0.0
220
0.0
230
1.0
  2
SOLID
 70
     1
 71
     1
 91
        1
 92
        3
 72
     0
 73
     1
 93
        3
 10
0.0
 20
0.0
 10
-1.0
 20
-1.0
 10
1.0
 20
-1.0
 97
        0
 75
     0
 76
     1
 98
        0
  0
LINE
  5
1D7
330
1D5
100
AcDbEntity
  8
0
 62
     0
370
    -2
100
AcDbLine
 10
0.0
 20
0.0
 30
0.0
 11
-1.0
 21
-1.0
 31
0.0
  0
LINE
  5
1D8
330
1D5
100
AcDbEntity
  8
0
 62
     0
370
    -2
100
AcDbLine
 10
-1.0
 20
-1.0
 30
0.0
 11
1.0
 21
-1.0
 31
0.0
  0
LINE
  5
1D9
330
1D5
100
AcDbEntity
  8
0
 62
     0
370
    -2
100
AcDbLine
 10
1.0
 20
-1.0
 30
0.0
 11
0.0
 21
0.0
 31
0.0
  0
ENDBLK
  5
1DB
330
1D5
100
AcDbEntity
  8
0
100
AcDbBlockEnd
  0
BLOCK
  5
1E1
330
1DC
100
AcDbEntity
  8
0
100
AcDbBlockBegin
  2
cw-dimension-symbol17
 70
     0
 10
0.0
 20
0.0
 30
0.0
  3
cw-dimension-symbol17
  1

  0
LINE
  5
1DD
330
1DC
100
AcDbEntity
  8
0
 62
     0
370
    -2
100
AcDbLine
 10
0.0
 20
0.0
 30
0.0
 11
1.0
 21
1.0
 31
0.0
  0
LINE
  5
1DE
330
1DC
100
AcDbEntity
  8
0
 62
     0
370
    -2
100
AcDbLine
 10
1.0
 20
1.0
 30
0.0
 11
-1.0
 21
1.0
 31
0.0
  0
LINE
  5
1DF
330
1DC
100
AcDbEntity
  8
0
 62
     0
370
    -2
100
AcDbLine
 10
-1.0
 20
1.0
 30
0.0
 11
0.0
 21
0.0
 31
0.0
  0
HATCH
  5
1E0
330
1DC
100
AcDbEntity
  8
0
 62
     0
370
    -2
100
AcDbHatch
 10
0.0
 20
0.0
 30
0.0
210
0.0
220
0.0
230
1.0
  2
SOLID
 70
     1
 71
     1
 91
        1
 92
        3
 72
     0
 73
     1
 93
        3
 10
0.0
 20
0.0
 10
-1.0
 20
1.0
 10
0.0
 20
1.0
 97
        0
 75
     0
 76
     1
 98
        0
  0
ENDBLK
  5
1E2
330
1DC
100
AcDbEntity
  8
0
100
AcDbBlockEnd
  0
BLOCK
  5
1E8
330
1E3
100
AcDbEntity
  8
0
100
AcDbBlockBegin
  2
cw-dimension-symbol18
 70
     0
 10
0.0
 20
0.0
 30
0.0
  3
cw-dimension-symbol18
  1

  0
LINE
  5
1E4
330
1E3
100
AcDbEntity
  8
0
 62
     0
370
    -2
100
AcDbLine
 10
0.0
 20
0.0
 30
0.0
 11
1.0
 21
-1.0
 31
0.0
  0
LINE
  5
1E5
330
1E3
100
AcDbEntity
  8
0
 62
     0
370
    -2
100
AcDbLine
 10
1.0
 20
-1.0
 30
0.0
 11
-1.0
 21
-1.0
 31
0.0
  0
LINE
  5
1E6
330
1E3
100
AcDbEntity
  8
0
 62
     0
370
    -2
100
AcDbLine
 10
-1.0
 20
-1.0
 30
0.0
 11
0.0
 21
0.0
 31
0.0
  0
HATCH
  5
1E7
330
1E3
100
AcDbEntity
  8
0
 62
     0
370
    -2
100
AcDbHatch
 10
0.0
 20
0.0
 30
0.0
210
0.0
220
0.0
230
1.0
  2
SOLID
 70
     1
 71
     1
 91
        1
 92
        3
 72
     0
 73
     1
 93
        3
 10
0.0
 20
0.0
 10
-1.0
 20
-1.0
 10
0.0
 20
-1.0
 97
        0
 75
     0
 76
     1
 98
        0
  0
ENDBLK
  5
1E9
330
1E3
100
AcDbEntity
  8
0
100
AcDbBlockEnd
  0
BLOCK
  5
1EB
330
1EA
100
AcDbEntity
  8
0
100
AcDbBlockBegin
  2
cw-dimension-symbol19
 70
     0
 10
0.0
 20
0.0
 30
0.0
  3
cw-dimension-symbol19
  1

  0
ENDBLK
  5
1EC
330
1EA
100
AcDbEntity
  8
0
100
AcDbBlockEnd
  0
BLOCK
  5
1F2
330
1ED
100
AcDbEntity
  8
0
100
AcDbBlockBegin
  2
cw-dimension-symbol20
 70
     0
 10
0.0
 20
0.0
 30
0.0
  3
cw-dimension-symbol20
  1

  0
LINE
  5
1EE
330
1ED
100
AcDbEntity
  8
0
 62
     0
370
    -2
100
AcDbLine
 10
0.0
 20
0.0
 30
0.0
 11
0.0
 21
2.0
 31
0.0
  0
LINE
  5
1EF
330
1ED
100
AcDbEntity
  8
0
 62
     0
370
    -2
100
AcDbLine
 10
0.0
 20
0.0
 30
0.0
 11
-1.0
 21
0.33
 31
0.0
  0
LINE
  5
1F0
330
1ED
100
AcDbEntity
  8
0
 62
     0
370
    -2
100
AcDbLine
 10
0.0
 20
0.0
 30
0.0
 11
1.0
 21
0.33
 31
0.0
  0
LINE
  5
1F1
330
1ED
100
AcDbEntity
  8
0
 62
     0
370
    -2
100
AcDbLine
 10
0.0
 20
2.0
 30
0.0
 11
4.15
 21
2.0
 31
0.0
  0
ENDBLK
  5
1F3
330
1ED
100
AcDbEntity
  8
0
100
AcDbBlockEnd
  0
BLOCK
  5
1F9
330
1F4
100
AcDbEntity
  8
0
100
AcDbBlockBegin
  2
cw-dimension-symbol21
 70
     0
 10
0.0
 20
0.0
 30
0.0
  3
cw-dimension-symbol21
  1

  0
LINE
  5
1F5
330
1F4
100
AcDbEntity
  8
0
 62
     0
370
    -2
100
AcDbLine
 10
0.0
 20
0.0
 30
0.0
 11
0.0
 21
-2.0
 31
0.0
  0
LINE
  5
1F6
330
1F4
100
AcDbEntity
  8
0
 62
     0
370
    -2
100
AcDbLine
 10
0.0
 20
0.0
 30
0.0
 11
-1.0
 21
-0.33
 31
0.0
  0
LINE
  5
1F7
330
1F4
100
AcDbEntity
  8
0
 62
     0
370
    -2
100
AcDbLine
 10
0.0
 20
0.0
 30
0.0
 11
1.0
 21
-0.33
 31
0.0
  0
LINE
  5
1F8
330
1F4
100
AcDbEntity
  8
0
 62
     0
370
    -2
100
AcDbLine
 10
0.0
 20
-2.0
 30
0.0
 11
4.15
 21
-2.0
 31
0.0
  0
ENDBLK
  5
1FA
330
1F4
100
AcDbEntity
  8
0
100
AcDbBlockEnd
  0
BLOCK
  5
22B
330
1FB
100
AcDbEntity
  8
0
100
AcDbBlockBegin
  2
cw-line-extremity0
 70
     0
 10
0.0
 20
0.0
 30
0.0
  3
cw-line-extremity0
  1

  0
LINE
  5
1FC
330
1FB
100
AcDbEntity
  8
0
 62
     0
370
    -2
100
AcDbLine
 10
0.0
 20
0.0
 30
0.0
 11
10.0
 21
2.5
 31
0.0
  0
LINE
  5
1FD
330
1FB
100
AcDbEntity
  8
0
 62
     0
370
    -2
100
AcDbLine
 10
0.0
 20
0.0
 30
0.0
 11
10.0
 21
-2.5
 31
0.0
  0
LINE
  5
1FE
330
1FB
100
AcDbEntity
  8
0
 62
     0
370
    -2
100
AcDbLine
 10
10.0
 20
2.5
 30
0.0
 11
10.0
 21
-2.5
 31
0.0
  0
ENDBLK
  5
22C
330
1FB
100
AcDbEntity
  8
0
100
AcDbBlockEnd
  0
BLOCK
  5
229
330
1FF
100
AcDbEntity
  8
0
100
AcDbBlockBegin
  2
cw-line-extremity2
 70
     0
 10
0.0
 20
0.0
 30
0.0
  3
cw-line-extremity2
  1

  0
HATCH
  5
200
330
1FF
100
AcDbEntity
  8
0
 62
     0
370
     0
100
AcDbHatch
 10
0.0
 20
0.0
 30
0.0
210
0.0
220
0.0
230
1.0
  2
SOLID
 70
     1
 71
     1
 91
        1
 92
        3
 72
     0
 73
     1
 93
        3
 10
0.0
 20
0.0
 10
10.0
 20
2.5
 10
10.0
 20
-2.5
 97
        0
 75
     0
 76
     1
 98
        0
  0
LINE
  5
201
330
1FF
100
AcDbEntity
  8
0
 62
     0
370
    -2
100
AcDbLine
 10
0.0
 20
0.0
 30
0.0
 11
10.0
 21
2.5
 31
0.0
  0
LINE
  5
202
330
1FF
100
AcDbEntity
  8
0
 62
     0
370
    -2
100
AcDbLine
 10
10.0
 20
2.5
 30
0.0
 11
10.0
 21
-2.5
 31
0.0
  0
LINE
  5
203
330
1FF
100
AcDbEntity
  8
0
 62
     0
370
    -2
100
AcDbLine
 10
10.0
 20
-2.5
 30
0.0
 11
0.0
 21
0.0
 31
0.0
  0
ENDBLK
  5
22A
330
1FF
100
AcDbEntity
  8
0
100
AcDbBlockEnd
  0
BLOCK
  5
227
330
204
100
AcDbEntity
  8
0
100
AcDbBlockBegin
  2
cw-line-extremity3
 70
     0
 10
0.0
 20
0.0
 30
0.0
  3
cw-line-extremity3
  1

  0
HATCH
  5
205
330
204
100
AcDbEntity
  8
0
 62
     0
370
     0
100
AcDbHatch
 10
0.0
 20
0.0
 30
0.0
210
0.0
220
0.0
230
1.0
  2
SOLID
 70
     1
 71
     1
 91
        1
 92
        3
 72
     0
 73
     1
 93
        3
 10
0.0
 20
0.0
 10
10.0
 20
2.5
 10
10.0
 20
-2.5
 97
        0
 75
     0
 76
     1
 98
        0
  0
LINE
  5
206
330
204
100
AcDbEntity
  8
0
 62
     0
370
    -2
100
AcDbLine
 10
0.0
 20
0.0
 30
0.0
 11
10.0
 21
2.5
 31
0.0
  0
LINE
  5
207
330
204
100
AcDbEntity
  8
0
 62
     0
370
    -2
100
AcDbLine
 10
10.0
 20
2.5
 30
0.0
 11
10.0
 21
-2.5
 31
0.0
  0
LINE
  5
208
330
204
100
AcDbEntity
  8
0
 62
     0
370
    -2
100
AcDbLine
 10
10.0
 20
-2.5
 30
0.0
 11
0.0
 21
0.0
 31
0.0
  0
ENDBLK
  5
228
330
204
100
AcDbEntity
  8
0
100
AcDbBlockEnd
  0
BLOCK
  5
225
330
209
100
AcDbEntity
  8
0
100
AcDbBlockBegin
  2
cw-line-extremity301
 70
     0
 10
0.0
 20
0.0
 30
0.0
  3
cw-line-extremity301
  1

  0
LINE
  5
20A
330
209
100
AcDbEntity
  8
0
 62
     0
370
    -2
100
AcDbLine
 10
0.0
 20
6.66665
 30
0.0
 11
0.0
 21
-6.66665
 31
0.0
  0
ENDBLK
  5
226
330
209
100
AcDbEntity
  8
0
100
AcDbBlockEnd
  0
BLOCK
  5
223
330
20B
100
AcDbEntity
  8
0
100
AcDbBlockBegin
  2
cw-line-extremity4
 70
     0
 10
0.0
 20
0.0
 30
0.0
  3
cw-line-extremity4
  1

  0
HATCH
  5
20C
330
20B
100
AcDbEntity
  8
0
 62
     0
370
     5
100
AcDbHatch
 10
0.0
 20
0.0
 30
0.0
210
0.0
220
0.0
230
1.0
  2
SOLID
 70
     1
 71
     1
 91
        1
 92
        1
 93
        1
 72
     2
 10
0.0
 20
0.0
 40
2.5
 50
0.0
 51
360.0
 73
     1
 97
        0
 75
     0
 76
     1
 98
        0
  0
ENDBLK
  5
224
330
20B
100
AcDbEntity
  8
0
100
AcDbBlockEnd
  0
BLOCK
  5
221
330
20D
100
AcDbEntity
  8
0
100
AcDbBlockBegin
  2
cw-line-extremity5
 70
     0
 10
0.0
 20
0.0
 30
0.0
  3
cw-line-extremity5
  1

  0
LINE
  5
20E
330
20D
100
AcDbEntity
  8
0
 62
     0
370
    -2
100
AcDbLine
 10
0.0
 20
0.0
 30
0.0
 11
-2.5
 21
0.0
 31
0.0
  0
ENDBLK
  5
222
330
20D
100
AcDbEntity
  8
0
100
AcDbBlockEnd
  0
BLOCK
  5
21F
330
20F
100
AcDbEntity
  8
0
100
AcDbBlockBegin
  2
cw-line-extremity6
 70
     0
 10
0.0
 20
0.0
 30
0.0
  3
cw-line-extremity6
  1

  0
LINE
  5
210
330
20F
100
AcDbEntity
  8
0
 62
     0
370
    18
100
AcDbLine
 10
0.0
 20
2.5
 30
0.0
 11
0.0
 21
-2.5
 31
0.0
  0
ENDBLK
  5
220
330
20F
100
AcDbEntity
  8
0
100
AcDbBlockEnd
  0
BLOCK
  5
21D
330
211
100
AcDbEntity
  8
0
100
AcDbBlockBegin
  2
cw-line-extremity9
 70
     0
 10
0.0
 20
0.0
 30
0.0
  3
cw-line-extremity9
  1

  0
LINE
  5
212
330
211
100
AcDbEntity
  8
0
 62
     0
370
    18
100
AcDbLine
 10
-2.5
 20
-2.5
 30
0.0
 11
2.5
 21
2.5
 31
0.0
  0
ENDBLK
  5
21E
330
211
100
AcDbEntity
  8
0
100
AcDbBlockEnd
  0
BLOCK
  5
21B
330
213
100
AcDbEntity
  8
0
100
AcDbBlockBegin
  2
cw-line-extremity10
 70
     0
 10
0.0
 20
0.0
 30
0.0
  3
cw-line-extremity10
  1

  0
CIRCLE
  5
214
330
213
100
AcDbEntity
  8
0
 62
     0
370
    -2
100
AcDbCircle
 10
0.0
 20
0.0
 30
0.0
 40
2.5
  0
ENDBLK
  5
21C
330
213
100
AcDbEntity
  8
0
100
AcDbBlockEnd
  0
BLOCK
  5
219
330
215
100
AcDbEntity
  8
0
100
AcDbBlockBegin
  2
cw-line-extremity1
 70
     0
 10
0.0
 20
0.0
 30
0.0
  3
cw-line-extremity1
  1

  0
LINE
  5
216
330
215
100
AcDbEntity
  8
0
 62
     0
370
    -2
100
AcDbLine
 10
0.0
 20
0.0
 30
0.0
 11
0.0
 21
2.5
 31
0.0
  0
LINE
  5
217
330
215
100
AcDbEntity
  8
0
 62
     0
370
    -2
100
AcDbLine
 10
0.0
 20
2.5
 30
0.0
 11
1.25
 21
3.75
 31
0.0
  0
LINE
  5
218
330
215
100
AcDbEntity
  8
0
 62
     0
370
    -2
100
AcDbLine
 10
1.25
 20
3.75
 30
0.0
 11
3.75
 21
3.75
 31
0.0
  0
ENDBLK
  5
21A
330
215
100
AcDbEntity
  8
0
100
AcDbBlockEnd
  0
BLOCK
  5
1C
330
1B
100
AcDbEntity
  8
0
100
AcDbBlockBegin
  2
*Paper_Space69
 70
     0
 10
0.0
 20
0.0
 30
0.0
  3
*Paper_Space69
  1

  0
ENDBLK
  5
1D
330
1B
100
AcDbEntity
  8
0
100
AcDbBlockEnd
  0
BLOCK
  5
3CC
330
3CB
100
AcDbEntity
  8
0
100
AcDbBlockBegin
  2
*D70
 70
     1
 10
0.0
 20
0.0
 30
0.0
  3
*D70
  1

  0
LINE
  5
3CE
330
3CB
100
AcDbEntity
  8
Ech.1_2
 62
     0
370
    -2
100
AcDbLine
 10
3977.973597020832
 20
-3451.571928678027
 30
0.0
 11
3972.973597020832
 21
-3451.571928678027
 31
0.0
  0
LINE
  5
3CF
330
3CB
100
AcDbEntity
  8
Ech.1_2
 62
     0
370
    -2
100
AcDbLine
 10
3977.973597020832
 20
-3439.071928678027
 30
0.0
 11
3972.973597020832
 21
-3439.071928678027
 31
0.0
  0
LINE
  5
3D0
330
3CB
100
AcDbEntity
  8
Ech.1_2
 62
     0
370
    -2
100
AcDbLine
 10
3977.973597020832
 20
-3446.571928678027
 30
0.0
 11
3977.973597020832
 21
-3444.071928678027
 31
0.0
  0
INSERT
  5
3D1
330
3CB
100
AcDbEntity
  8
Ech.1_2
 62
     0
370
    -2
100
AcDbBlockReference
  2
cw-dimension-symbol2
 10
3977.973597020832
 20
-3451.571928678027
 30
0.0
 41
5.0
 42
5.0
 43
5.0
 50
270.0
  0
INSERT
  5
3D2
330
3CB
100
AcDbEntity
  8
Ech.1_2
 62
     0
370
    -2
100
AcDbBlockReference
  2
cw-dimension-symbol2
 10
3977.973597020832
 20
-3439.071928678027
 30
0.0
 41
5.0
 42
5.0
 43
5.0
 50
90.0
  0
MTEXT
  5
3D3
330
3CB
100
AcDbEntity
  8
Ech.1_2
 62
   190
370
    20
100
AcDbMText
 10
3966.723597020832
 20
-3445.321928678027
 30
0.0
 40
12.5
 41
0.0
 46
0.0
 71
     5
 72
     1
  1
\A1;5 mm mini
  7
arial-z
 11
6.123233995736766E-17
 21
1.0
 31
0.0
 73
     1
 44
1.0
  0
POINT
  5
3D4
330
3CB
100
AcDbEntity
  8
Defpoints
 62
     0
100
AcDbPoint
 10
3977.973597020832
 20
-3451.571928678027
 30
0.0
  0
POINT
  5
3D5
330
3CB
100
AcDbEntity
  8
Defpoints
 62
     0
100
AcDbPoint
 10
3977.973597020832
 20
-3439.071928678027
 30
0.0
  0
POINT
  5
3D6
330
3CB
100
AcDbEntity
  8
Defpoints
 62
     0
100
AcDbPoint
 10
3977.973597020832
 20
-3439.071928678027
 30
0.0
  0
ENDBLK
  5
3CD
330
3CB
100
AcDbEntity
  8
0
100
AcDbBlockEnd
  0
BLOCK
  5
3DA
330
3D9
100
AcDbEntity
  8
0
100
AcDbBlockBegin
  2
*D71
 70
     1
 10
0.0
 20
0.0
 30
0.0
  3
*D71
  1

  0
LINE
  5
3DC
330
3D9
100
AcDbEntity
  8
Ech.1_2
 62
     0
370
    -2
100
AcDbLine
 10
4039.426196341506
 20
-3401.536169617671
 30
0.0
 11
4034.426196341506
 21
-3401.536169617671
 31
0.0
  0
LINE
  5
3DD
330
3D9
100
AcDbEntity
  8
Ech.1_2
 62
     0
370
    -2
100
AcDbLine
 10
4039.426196341506
 20
-3389.036169617671
 30
0.0
 11
4034.426196341506
 21
-3389.036169617671
 31
0.0
  0
LINE
  5
3DE
330
3D9
100
AcDbEntity
  8
Ech.1_2
 62
     0
370
    -2
100
AcDbLine
 10
4039.426196341506
 20
-3396.536169617671
 30
0.0
 11
4039.426196341506
 21
-3394.036169617671
 31
0.0
  0
INSERT
  5
3DF
330
3D9
100
AcDbEntity
  8
Ech.1_2
 62
     0
370
    -2
100
AcDbBlockReference
  2
cw-dimension-symbol2
 10
4039.426196341506
 20
-3401.536169617671
 30
0.0
 41
5.0
 42
5.0
 43
5.0
 50
270.0
  0
INSERT
  5
3E0
330
3D9
100
AcDbEntity
  8
Ech.1_2
 62
     0
370
    -2
100
AcDbBlockReference
  2
cw-dimension-symbol2
 10
4039.426196341506
 20
-3389.036169617671
 30
0.0
 41
5.0
 42
5.0
 43
5.0
 50
90.0
  0
MTEXT
  5
3E1
330
3D9
100
AcDbEntity
  8
Ech.1_2
 62
   190
370
    20
100
AcDbMText
 10
4028.176196341506
 20
-3395.286169617671
 30
0.0
 40
12.5
 41
0.0
 46
0.0
 71
     5
 72
     1
  1
\A1;5 mm mini
  7
arial-z
 11
6.123233995736766E-17
 21
1.0
 31
0.0
 73
     1
 44
1.0
  0
POINT
  5
3E2
330
3D9
100
AcDbEntity
  8
Defpoints
 62
     0
100
AcDbPoint
 10
4039.426196341506
 20
-3401.536169617671
 30
0.0
  0
POINT
  5
3E3
330
3D9
100
AcDbEntity
  8
Defpoints
 62
     0
100
AcDbPoint
 10
4039.426196341506
 20
-3389.036169617671
 30
0.0
  0
POINT
  5
3E4
330
3D9
100
AcDbEntity
  8
Defpoints
 62
     0
100
AcDbPoint
 10
4039.426196341506
 20
-3389.036169617671
 30
0.0
  0
ENDBLK
  5
3DB
330
3D9
100
AcDbEntity
  8
0
100
AcDbBlockEnd
  0
BLOCK
  5
3E8
330
3E7
100
AcDbEntity
  8
0
100
AcDbBlockBegin
  2
*D72
 70
     1
 10
0.0
 20
0.0
 30
0.0
  3
*D72
  1

  0
LINE
  5
3EA
330
3E7
100
AcDbEntity
  8
Ech.1_2
 62
     0
370
    -2
100
AcDbLine
 10
4015.412202343218
 20
-3466.571928677972
 30
0.0
 11
4015.412202343218
 21
-3638.481808035876
 31
0.0
  0
LINE
  5
3EB
330
3E7
100
AcDbEntity
  8
Ech.1_2
 62
     0
370
    -2
100
AcDbLine
 10
4090.414403348259
 20
-3534.145173507272
 30
0.0
 11
4090.414403348259
 21
-3638.481808035876
 31
0.0
  0
LINE
  5
3EC
330
3E7
100
AcDbEntity
  8
Ech.1_2
 62
     0
370
    -2
100
AcDbLine
 10
4020.412202343218
 20
-3633.481808035876
 30
0.0
 11
4085.414403348259
 21
-3633.481808035876
 31
0.0
  0
INSERT
  5
3ED
330
3E7
100
AcDbEntity
  8
Ech.1_2
 62
     0
370
    -2
100
AcDbBlockReference
  2
cw-dimension-symbol2
 10
4015.412202343218
 20
-3633.481808035876
 30
0.0
 41
5.0
 42
5.0
 43
5.0
 50
180.0
  0
INSERT
  5
3EE
330
3E7
100
AcDbEntity
  8
Ech.1_2
 62
     0
370
    -2
100
AcDbBlockReference
  2
cw-dimension-symbol2
 10
4090.414403348259
 20
-3633.481808035876
 30
0.0
 41
5.0
 42
5.0
 43
5.0
  0
MTEXT
  5
3EF
330
3E7
100
AcDbEntity
  8
Ech.1_2
 62
   190
370
    20
100
AcDbMText
 10
4052.913302845736
 20
-3622.231808035876
 30
0.0
 40
12.5
 41
0.0
 46
0.0
 71
     5
 72
     1
  1
\A1;30 mm mini
  7
arial-z
 73
     1
 44
1.0
  0
POINT
  5
3F0
330
3E7
100
AcDbEntity
  8
Defpoints
 62
     0
100
AcDbPoint
 10
4015.412202343218
 20
-3466.571928677972
 30
0.0
  0
POINT
  5
3F1
330
3E7
100
AcDbEntity
  8
Defpoints
 62
     0
100
AcDbPoint
 10
4090.414403348259
 20
-3534.145173507272
 30
0.0
  0
POINT
  5
3F2
330
3E7
100
AcDbEntity
  8
Defpoints
 62
     0
100
AcDbPoint
 10
4090.414403348259
 20
-3633.481808035876
 30
0.0
  0
ENDBLK
  5
3E9
330
3E7
100
AcDbEntity
  8
0
100
AcDbBlockEnd
  0
BLOCK
  5
3F6
330
3F5
100
AcDbEntity
  8
0
100
AcDbBlockBegin
  2
*D73
 70
     1
 10
0.0
 20
0.0
 30
0.0
  3
*D73
  1

  0
LINE
  5
3F8
330
3F5
100
AcDbEntity
  8
Ech.1_2
 62
     0
370
    -2
100
AcDbLine
 10
4067.947961403484
 20
-3389.036169617671
 30
0.0
 11
4106.774580848873
 21
-3389.036169617671
 31
0.0
  0
LINE
  5
3F9
330
3F5
100
AcDbEntity
  8
Ech.1_2
 62
     0
370
    -2
100
AcDbLine
 10
3950.412202341608
 20
-3314.036169617671
 30
0.0
 11
4106.774580848873
 21
-3314.036169617671
 31
0.0
  0
LINE
  5
3FA
330
3F5
100
AcDbEntity
  8
Ech.1_2
 62
     0
370
    -2
100
AcDbLine
 10
4101.774580848873
 20
-3384.036169617671
 30
0.0
 11
4101.774580848873
 21
-3319.036169617671
 31
0.0
  0
INSERT
  5
3FB
330
3F5
100
AcDbEntity
  8
Ech.1_2
 62
     0
370
    -2
100
AcDbBlockReference
  2
cw-dimension-symbol2
 10
4101.774580848873
 20
-3389.036169617671
 30
0.0
 41
5.0
 42
5.0
 43
5.0
 50
270.0
  0
INSERT
  5
3FC
330
3F5
100
AcDbEntity
  8
Ech.1_2
 62
     0
370
    -2
100
AcDbBlockReference
  2
cw-dimension-symbol2
 10
4101.774580848873
 20
-3314.036169617671
 30
0.0
 41
5.0
 42
5.0
 43
5.0
 50
90.0
  0
MTEXT
  5
3FD
330
3F5
100
AcDbEntity
  8
Ech.1_2
 62
   190
370
    20
100
AcDbMText
 10
4090.524580848876
 20
-3351.536169617671
 30
0.0
 40
12.5
 41
0.0
 46
0.0
 71
     5
 72
     1
  1
\A1;30 mm mini
  7
arial-z
 11
6.123233995736766E-17
 21
1.0
 31
0.0
 73
     1
 44
1.0
  0
POINT
  5
3FE
330
3F5
100
AcDbEntity
  8
Defpoints
 62
     0
100
AcDbPoint
 10
4067.947961403484
 20
-3389.036169617671
 30
0.0
  0
POINT
  5
3FF
330
3F5
100
AcDbEntity
  8
Defpoints
 62
     0
100
AcDbPoint
 10
3950.412202341608
 20
-3314.036169617671
 30
0.0
  0
POINT
  5
400
330
3F5
100
AcDbEntity
  8
Defpoints
 62
     0
100
AcDbPoint
 10
4101.774580848873
 20
-3314.036169617671
 30
0.0
  0
ENDBLK
  5
3F7
330
3F5
100
AcDbEntity
  8
0
100
AcDbBlockEnd
  0
ENDSEC
  0
SECTION
  2
ENTITIES
  0
HATCH
  5
236
330
1F
100
AcDbEntity
  8
Ech.1_2
 62
    35
420
  9529928
440
 33554687
370
    20
100
AcDbHatch
 10
0.0
 20
0.0
 30
0.0
210
0.0
220
0.0
230
1.0
  2
SOLID
 70
     1
 71
     1
 91
        1
 92
        3
 72
     0
 73
     1
 93
        4
 10
4242.903932991244
 20
-3519.071928677909
 10
4242.903932991244
 20
-3451.571928677918
 10
3942.912202342864
 20
-3451.571928678027
 10
3942.912202342864
 20
-3519.071928678018
 97
        0
 75
     0
 76
     1
 98
        0
  0
LWPOLYLINE
  5
237
330
1F
100
AcDbEntity
  8
Ech.1_2
 62
   190
370
    20
100
AcDbPolyline
 90
        5
 70
     0
 43
0.0
 10
4242.903932991244
 20
-3519.071928677909
 10
4242.903932991244
 20
-3451.571928677918
 10
3942.912202342864
 20
-3451.571928678027
 10
3942.912202342864
 20
-3519.071928678018
 10
4242.903932991244
 20
-3519.071928677909
  0
HATCH
  5
238
330
1F
100
AcDbEntity
  8
Ech.1_2
 62
    35
420
  9529928
440
 33554687
370
    20
100
AcDbHatch
 10
0.0
 20
0.0
 30
0.0
210
0.0
220
0.0
230
1.0
  2
SOLID
 70
     1
 71
     1
 91
        1
 92
        3
 72
     0
 73
     1
 93
        4
 10
3935.412202343218
 20
-3211.645171747264
 10
3935.412202343218
 20
-3439.071928678027
 10
4002.912202343218
 20
-3439.071928678027
 10
4002.912202343218
 20
-3211.645171747264
 97
        0
 75
     0
 76
     1
 98
        0
  0
LWPOLYLINE
  5
239
330
1F
100
AcDbEntity
  8
Ech.1_2
 62
   190
370
    20
100
AcDbPolyline
 90
        5
 70
     0
 43
0.0
 10
3935.412202343218
 20
-3211.645171747264
 10
3935.412202343218
 20
-3439.071928678027
 10
4002.912202343218
 20
-3439.071928678027
 10
4002.912202343218
 20
-3211.645171747264
 10
3935.412202343218
 20
-3211.645171747264
  0
LWPOLYLINE
  5
23A
330
1F
100
AcDbEntity
  8
Ech.1_2
 62
     7
370
    20
100
AcDbPolyline
 90
        5
 70
     0
 43
0.0
 10
3942.912202342864
 20
-3519.071928678018
 10
4242.903932991244
 20
-3519.071928677927
 10
4242.903932991235
 20
-3451.571928677918
 10
3942.912202342854
 20
-3451.571928678018
 10
3942.912202342864
 20
-3519.071928678018
  0
LWPOLYLINE
  5
23B
330
1F
100
AcDbEntity
  8
Ech.1_2
 62
     7
370
    20
100
AcDbPolyline
 90
        5
 70
     0
 43
0.0
 10
4002.912202343218
 20
-3439.071928678027
 10
4002.912202343127
 20
-3211.645171747264
 10
3935.412202342345
 20
-3211.645171747282
 10
3935.412202342445
 20
-3439.071928678036
 10
4002.912202343218
 20
-3439.071928678027
  0
LWPOLYLINE
  5
23C
330
1F
100
AcDbEntity
  8
Ech.1_2
 62
   190
370
    20
100
AcDbPolyline
 90
        6
 70
     0
 43
0.0
 10
3645.399699186642
 20
-3605.506238041312
 10
3645.399699186587
 20
-3510.509347756092
 10
3627.422350779202
 20
-3494.023844600183
 10
3663.378050791002
 20
-3508.133784617989
 10
3645.399699186578
 20
-3491.6474305365
 10
3645.399699186569
 20
-3230.506238041348
  0
LWPOLYLINE
  5
23D
330
1F
100
AcDbEntity
  8
Ech.1_2
 62
   190
370
    20
100
AcDbPolyline
 90
        6
 70
     0
 43
0.0
 10
4242.903932991271
 20
-3809.375218739265
 10
3963.014234907037
 20
-3809.375218739319
 10
3946.528731751127
 20
-3827.352567146704
 10
3960.638671768934
 20
-3791.396867134904
 10
3944.152317687444
 20
-3809.375218739328
 10
3867.903932991189
 20
-3809.375218739337
  0
HATCH
  5
23E
330
1F
100
AcDbEntity
  8
Ech.1_2
 62
    21
420
 16756102
440
 33554687
370
     5
100
AcDbHatch
 10
0.0
 20
0.0
 30
0.0
210
0.0
220
0.0
230
1.0
  2
SOLID
 70
     1
 71
     1
 91
        1
 92
        3
 72
     0
 73
     1
 93
       24
 10
3663.378050791002
 20
-3508.133784617989
 10
3645.400702383617
 20
-3491.648281462071
 10
3645.400702383617
 20
-3211.645171747282
 10
3794.042082256879
 20
-3211.645171747282
 10
3810.527585412779
 20
-3193.667823339897
 10
3796.417645394972
 20
-3229.623523351697
 10
3812.903999476462
 20
-3211.645171747282
 10
3867.90070238379
 20
-3211.645171747118
 10
3867.90070238379
 20
-3319.055946713765
 10
3867.929981660868
 20
-3319.055946713129
 10
3867.903932991189
 20
-3586.645164870565
 10
4242.903932991262
 20
-3586.645153280801
 10
4242.903932991262
 20
-3641.760149106835
 10
4260.882284595677
 20
-3658.246503188343
 10
4224.926584583877
 20
-3644.136563170546
 10
4242.903932991253
 20
-3660.622066326446
 10
4242.903932991262
 20
-3809.375218739265
 10
3963.014234907046
 20
-3809.375218739265
 10
3946.528731751127
 20
-3827.352567146704
 10
3960.638671768934
 20
-3791.396867134913
 10
3944.152317687453
 20
-3809.375218739328
 10
3645.400702383636
 20
-3809.375225616036
 10
3645.400702383636
 20
-3510.510198681673
 10
3627.422350779202
 20
-3494.023844600183
 97
        0
 75
     0
 76
     1
 98
        0
  0
LWPOLYLINE
  5
23F
330
1F
100
AcDbEntity
  8
Ech.1_2
 62
   190
370
    20
100
AcDbPolyline
 90
       25
 70
     0
 43
0.0
 10
3663.378050791002
 20
-3508.133784617989
 10
3645.400702383617
 20
-3491.648281462071
 10
3645.400702383617
 20
-3211.645171747282
 10
3794.042082256879
 20
-3211.645171747282
 10
3810.527585412779
 20
-3193.667823339897
 10
3796.417645394972
 20
-3229.623523351697
 10
3812.903999476462
 20
-3211.645171747282
 10
3867.90070238379
 20
-3211.645171747118
 10
3867.90070238379
 20
-3319.055946713765
 10
3867.929981660868
 20
-3319.055946713129
 10
3867.903932991189
 20
-3586.645164870565
 10
4242.903932991262
 20
-3586.645153280801
 10
4242.903932991262
 20
-3641.760149106835
 10
4260.882284595677
 20
-3658.246503188343
 10
4224.926584583877
 20
-3644.136563170546
 10
4242.903932991253
 20
-3660.622066326446
 10
4242.903932991262
 20
-3809.375218739265
 10
3963.014234907046
 20
-3809.375218739265
 10
3946.528731751127
 20
-3827.352567146704
 10
3960.638671768934
 20
-3791.396867134913
 10
3944.152317687453
 20
-3809.375218739328
 10
3645.400702383636
 20
-3809.375225616036
 10
3645.400702383636
 20
-3510.510198681673
 10
3627.422350779202
 20
-3494.023844600183
 10
3663.378050791002
 20
-3508.133784617989
  0
HATCH
  5
240
330
1F
100
AcDbEntity
  8
Ech.1_2
 62
    35
420
  9529928
440
 33554687
370
    20
100
AcDbHatch
 10
0.0
 20
0.0
 30
0.0
210
0.0
220
0.0
230
1.0
  2
SOLID
 70
     1
 71
     1
 91
        1
 92
        3
 72
     0
 73
     1
 93
        4
 10
3867.905608156666
 20
-3314.036169618107
 10
3867.905608157921
 20
-3519.138570724895
 10
3935.412202342864
 20
-3519.138570724458
 10
3935.412202341608
 20
-3314.036169617671
 97
        0
 75
     0
 76
     1
 98
        0
  0
LWPOLYLINE
  5
241
330
1F
100
AcDbEntity
  8
Ech.1_2
 62
   190
370
    20
100
AcDbPolyline
 90
        5
 70
     0
 43
0.0
 10
3867.905608156666
 20
-3314.036169618107
 10
3867.905608157921
 20
-3519.138570724895
 10
3935.412202342864
 20
-3519.138570724458
 10
3935.412202341608
 20
-3314.036169617671
 10
3867.905608156666
 20
-3314.036169618107
  0
LWPOLYLINE
  5
242
330
1F
100
AcDbEntity
  8
Ech.1_2
 62
     5
370
    20
100
AcDbPolyline
 90
        5
 70
     0
 43
0.0
 10
3867.905608156666
 20
-3314.036169618107
 10
3935.412202341608
 20
-3314.036169617671
 10
3935.412202342864
 20
-3519.138570724458
 10
3867.905608157921
 20
-3519.138570724895
 10
3867.905608156666
 20
-3314.036169618107
  0
LWPOLYLINE
  5
243
330
1F
100
AcDbEntity
  8
Ech.1_2
 62
   190
370
    20
100
AcDbPolyline
 90
        4
 70
     0
 43
0.0
 10
3935.412202342864
 20
-3519.138570724458
 10
3867.905608156666
 20
-3314.036169618107
 10
3935.412202341663
 20
-3314.036169617671
 10
3867.905608157921
 20
-3519.138570724895
  0
HATCH
  5
244
330
1F
100
AcDbEntity
  8
Ech.1_2
 62
    35
420
  9529928
440
 33554687
370
    20
100
AcDbHatch
 10
0.0
 20
0.0
 30
0.0
210
0.0
220
0.0
230
1.0
  2
SOLID
 70
     1
 71
     1
 91
        1
 92
        3
 72
     0
 73
     1
 93
        4
 10
3867.903932991189
 20
-3586.645164870565
 10
4090.412202343214
 20
-3586.651767653525
 10
4090.414403348259
 20
-3519.145173507272
 10
3867.906133996235
 20
-3519.138570724458
 97
        0
 75
     0
 76
     1
 98
        0
  0
LWPOLYLINE
  5
245
330
1F
100
AcDbEntity
  8
Ech.1_2
 62
   190
370
    20
100
AcDbPolyline
 90
        5
 70
     0
 43
0.0
 10
3867.903932991189
 20
-3586.645164870565
 10
4090.412202343214
 20
-3586.651767653525
 10
4090.414403348259
 20
-3519.145173507272
 10
3867.906133996235
 20
-3519.138570724458
 10
3867.903932991189
 20
-3586.645164870565
  0
LWPOLYLINE
  5
246
330
1F
100
AcDbEntity
  8
Ech.1_2
 62
     5
370
    20
100
AcDbPolyline
 90
        5
 70
     0
 43
0.0
 10
3867.903932991189
 20
-3586.645164870565
 10
3867.906133996235
 20
-3519.138570724458
 10
4090.414403348259
 20
-3519.145173507272
 10
4090.412202343214
 20
-3586.651767653525
 10
3867.903932991189
 20
-3586.645164870565
  0
LWPOLYLINE
  5
247
330
1F
100
AcDbEntity
  8
Ech.1_2
 62
   190
370
    20
100
AcDbPolyline
 90
        4
 70
     0
 43
0.0
 10
4090.414403348259
 20
-3519.145173507272
 10
3867.903932991189
 20
-3586.645164870565
 10
3867.906133996235
 20
-3519.138570724313
 10
4090.412202343214
 20
-3586.651767653525
  0
LWPOLYLINE
  5
248
330
1F
100
AcDbEntity
  8
Ech.1_2
 62
   190
370
    20
100
AcDbPolyline
 90
        6
 70
     0
 43
0.0
 10
4280.403932991271
 20
-3809.375218739301
 10
3963.014234907037
 20
-3809.375218739319
 10
3946.528731751127
 20
-3827.352567146704
 10
3960.638671768934
 20
-3791.396867134904
 10
3944.152317687444
 20
-3809.375218739328
 10
3607.900702383636
 20
-3809.375218739337
  0
LWPOLYLINE
  5
249
330
1F
100
AcDbEntity
  8
Ech.1_2
 62
   190
370
    20
100
AcDbPolyline
 90
        6
 70
     0
 43
0.0
 10
3645.39969918656
 20
-3174.257732452265
 10
3645.399699186578
 20
-3491.6474305365
 10
3663.377047593963
 20
-3508.132933692418
 10
3627.421347582163
 20
-3494.022993674612
 10
3645.399699186587
 20
-3510.509347756092
 10
3645.399699186596
 20
-3846.76096305991
  0
LWPOLYLINE
  5
24A
330
1F
100
AcDbEntity
  8
Ech.1_2
 62
   190
370
    20
100
AcDbPolyline
 90
        6
 70
     0
 43
0.0
 10
4242.90393299128
 20
-3846.875218739265
 10
4242.903932991262
 20
-3660.622066326446
 10
4224.926584583877
 20
-3644.136563170528
 10
4260.882284595677
 20
-3658.246503188334
 10
4242.903932991253
 20
-3641.760149106854
 10
4242.903932991244
 20
-3364.036169617671
  0
LWPOLYLINE
  5
24B
330
1F
100
AcDbEntity
  8
Ech.1_2
 62
   190
370
    20
100
AcDbPolyline
 90
        6
 70
     0
 43
0.0
 10
3607.900702383563
 20
-3211.645171747318
 10
3794.042082256879
 20
-3211.645171747282
 10
3810.527585412788
 20
-3193.667823339897
 10
3796.417645394981
 20
-3229.623523351697
 10
3812.903999476462
 20
-3211.645171747282
 10
4090.447961403484
 20
-3211.645171747318
  0
LWPOLYLINE
  5
24C
330
1F
100
AcDbEntity
  8
Ech.1_2
 62
     7
370
    20
100
AcDbPolyline
 90
        3
 70
     0
 43
0.0
 10
4242.903932991248
 20
-3586.645164870565
 10
3867.903932991189
 20
-3586.645164870565
 10
3867.903932991189
 20
-3211.645171747282
  0
LWPOLYLINE
  5
24D
330
1F
100
AcDbEntity
  8
Ech.1_2
 62
   190
370
    20
100
AcDbPolyline
 90
        5
 70
     0
 43
0.0
 10
3553.917814353686
 20
-4026.521123868192
 10
4538.917814353676
 20
-4026.521123868192
 10
4538.917814353676
 20
-4163.934195933248
 10
3553.917814353686
 20
-4163.934195933248
 10
3553.917814353686
 20
-4026.521123868192
  0
LWPOLYLINE
  5
24E
330
1F
100
AcDbEntity
  8
Ech.1_2
 62
   190
370
    20
100
AcDbPolyline
 90
        5
 70
     0
 43
0.0
 10
4538.917814353676
 20
-2904.451158939014
 10
3553.917814353686
 20
-2904.451158939014
 10
3553.917814353686
 20
-2808.934195933366
 10
4538.917814353676
 20
-2808.934195933366
 10
4538.917814353676
 20
-2904.451158939014
  0
LWPOLYLINE
  5
24F
330
1F
100
AcDbEntity
  8
Ech.1_2
 62
   190
370
    20
100
AcDbPolyline
 90
        5
 70
     0
 43
0.0
 10
4538.917814353676
 20
-4048.52112386819
 10
3553.917814353686
 20
-4048.52112386819
 10
3553.917814353686
 20
-4026.521123868192
 10
4538.917814353676
 20
-4026.521123868192
 10
4538.917814353676
 20
-4048.52112386819
  0
LWPOLYLINE
  5
250
330
1F
100
AcDbEntity
  8
Ech.1_2
 62
   190
370
    20
100
AcDbPolyline
 90
        5
 70
     0
 43
0.0
 10
4538.917814353676
 20
-4105.392269098534
 10
3553.917814353686
 20
-4105.392269098534
 10
3553.917814353686
 20
-4081.665240787793
 10
4538.917814353676
 20
-4081.665240787793
 10
4538.917814353676
 20
-4105.392269098534
  0
LINE
  5
251
330
1F
100
AcDbEntity
  8
Ech.1_2
 62
   190
370
    20
100
AcDbLine
 10
3742.122376316643
 20
-4026.521123868192
 30
0.0
 11
3742.122376316643
 21
-4048.52112386819
 31
0.0
  0
LINE
  5
252
330
1F
100
AcDbEntity
  8
Ech.1_2
 62
   190
370
    20
100
AcDbLine
 10
4399.120478947184
 20
-4026.521123868192
 30
0.0
 11
4399.120478947184
 21
-4048.52112386819
 31
0.0
  0
LINE
  5
253
330
1F
100
AcDbEntity
  8
Ech.1_2
 62
   190
370
    20
100
AcDbLine
 10
3898.277594311999
 20
-4026.521123868192
 30
0.0
 11
3898.277594311999
 21
-4048.52112386819
 31
0.0
  0
IMAGE
  5
256
330
1F
100
AcDbEntity
  8
Ech.1_2
160
                 8
310
0800000000000000
100
AcDbRasterImage
 90
        0
 10
3744.982063094571
 20
-4158.8986484522
 30
0.0
 11
0.2834008097165992
 21
0.0
 31
0.0
 12
0.0
 22
0.2807017543859649
 32
0.0
 13
247.0
 23
171.0
340
255
 70
     3
280
     0
281
    50
282
    50
283
     0
360
257
 71
     1
 91
        2
 14
-0.5
 24
-0.5
 14
246.5
 24
170.5
290
     0
  0
IMAGE
  5
259
330
1F
100
AcDbEntity
  8
Ech.1_2
160
                 8
310
0800000000000000
100
AcDbRasterImage
 90
        0
 10
4006.059734336545
 20
-4161.453260755984
 30
0.0
 11
0.4
 21
0.0
 31
0.0
 12
0.0
 22
0.3984962406015037
 32
0.0
 13
200.0
 23
133.0
340
258
 70
     3
280
     0
281
    50
282
    50
283
     0
360
25A
 71
     1
 91
        2
 14
-0.5
 24
-0.5
 14
199.5
 24
132.5
290
     0
  0
IMAGE
  5
25C
330
1F
100
AcDbEntity
  8
Ech.1_2
160
                 8
310
0800000000000000
100
AcDbRasterImage
 90
        0
 10
4249.434400715686
 20
-4162.658238670933
 30
0.0
 11
0.09502262443438914
 21
0.0
 31
0.0
 12
0.0
 22
0.09482758620689655
 32
0.0
 13
1326.0
 23
580.0
340
25B
 70
     3
280
     0
281
    50
282
    50
283
     0
360
25D
 71
     1
 91
        2
 14
-0.5
 24
-0.5
 14
1325.5
 24
579.5
290
     0
  0
LINE
  5
25E
330
1F
100
AcDbEntity
  8
Ech.1_2
 62
   190
370
    20
100
AcDbLine
 10
4538.917814353676
 20
-2838.934195933257
 30
0.0
 11
3553.917814353686
 21
-2838.934195933257
 31
0.0
  0
LWPOLYLINE
  5
25F
330
1F
100
AcDbEntity
  8
Ech.1_2
 62
   190
370
    20
100
AcDbPolyline
 90
        5
 70
     0
 43
0.0
 10
4538.917814353676
 20
-4163.934195933248
 10
4538.917814353676
 20
-2808.934195933248
 10
3553.917814353686
 20
-2808.934195933248
 10
3553.917814353686
 20
-4163.934195933248
 10
4538.917814353676
 20
-4163.934195933248
  0
HATCH
  5
260
330
1F
100
AcDbEntity
  8
Ech.1_2
 62
    17
420
  8405056
440
 33554687
370
    20
100
AcDbHatch
 10
0.0
 20
0.0
 30
0.0
210
0.0
220
0.0
230
1.0
  2
SOLID
 70
     1
 71
     1
 91
        1
 92
        3
 72
     0
 73
     1
 93
       10
 10
4153.671253066427
 20
-3451.571928677972
 10
4163.6712530657
 20
-3441.571928678691
 10
4173.6712530657
 20
-3451.571928677972
 10
4242.903932991244
 20
-3451.571928677972
 10
4242.903932991244
 20
-3401.536169617671
 10
4015.412202343218
 20
-3401.536169617671
 10
4015.412202343218
 20
-3451.571928677972
 10
4063.671253066072
 20
-3451.571928677972
 10
4073.671253065345
 20
-3441.571928678691
 10
4083.671253065345
 20
-3451.571928677972
 97
        0
 75
     0
 76
     1
 98
        0
  0
LWPOLYLINE
  5
261
330
1F
100
AcDbEntity
  8
Ech.1_2
 62
     7
370
    50
100
AcDbPolyline
 90
       11
 70
     0
 43
0.0
 10
4153.671253066427
 20
-3451.571928677972
 10
4163.6712530657
 20
-3441.571928678691
 10
4173.6712530657
 20
-3451.571928677972
 10
4242.903932991244
 20
-3451.571928677972
 10
4242.903932991244
 20
-3401.536169617671
 10
4015.412202343218
 20
-3401.536169617671
 10
4015.412202343218
 20
-3451.571928677972
 10
4063.671253066072
 20
-3451.571928677972
 10
4073.671253065345
 20
-3441.571928678691
 10
4083.671253065345
 20
-3451.571928677972
 10
4153.671253066427
 20
-3451.571928677972
  0
LWPOLYLINE
  5
262
330
1F
100
AcDbEntity
  8
Ech.1_2
 62
     7
370
    20
100
AcDbPolyline
 90
        8
 70
     0
 43
0.0
 10
4015.412202343218
 20
-3451.571928677972
 10
4063.671253066072
 20
-3451.571928677972
 10
4073.671253065345
 20
-3441.571928678691
 10
4083.671253065345
 20
-3451.571928677972
 10
4153.671253066427
 20
-3451.571928677972
 10
4163.6712530657
 20
-3441.571928678691
 10
4173.6712530657
 20
-3451.571928677972
 10
4242.903932991244
 20
-3451.571928677972
  0
LINE
  5
263
330
1F
100
AcDbEntity
  8
Ech.1_2
 62
     7
370
    20
100
AcDbLine
 10
4242.903932991244
 20
-3401.536169617671
 30
0.0
 11
4015.412202343218
 21
-3401.536169617671
 31
0.0
  0
LINE
  5
264
330
1F
100
AcDbEntity
  8
Ech.1_2
 62
   190
370
     9
100
AcDbLine
 10
4226.728355509917
 20
-3399.558041176456
 30
0.0
 11
4214.134605509976
 21
-3399.558041176456
 31
0.0
  0
LINE
  5
265
330
1F
100
AcDbEntity
  8
Ech.1_2
 62
   190
370
     9
100
AcDbLine
 10
4214.134605509976
 20
-3400.321928678709
 30
0.0
 11
4214.134605509976
 21
-3399.558041176456
 31
0.0
  0
HATCH
  5
266
330
1F
100
AcDbEntity
  8
Ech.1_2
 62
   252
440
 33554687
370
     5
100
AcDbHatch
 10
0.0
 20
0.0
 30
0.0
210
0.0
220
0.0
230
1.0
  2
SOLID
 70
     1
 71
     1
 91
        1
 92
        3
 72
     0
 73
     1
 93
        4
 10
4217.606828009816
 20
-3499.835816181699
 10
4217.606828009816
 20
-3501.919151178995
 10
4223.256133009932
 20
-3501.919151178995
 10
4223.256133009932
 20
-3499.835816181699
 97
        0
 75
     0
 76
     1
 98
        0
  0
LWPOLYLINE
  5
267
330
1F
100
AcDbEntity
  8
Ech.1_2
 62
     7
370
     9
100
AcDbPolyline
 90
        5
 70
     0
 43
0.0
 10
4217.606828009816
 20
-3499.835816181699
 10
4217.606828009816
 20
-3501.919151178995
 10
4223.256133009932
 20
-3501.919151178995
 10
4223.256133009932
 20
-3499.835816181699
 10
4217.606828009816
 20
-3499.835816181699
  0
LINE
  5
268
330
1F
100
AcDbEntity
  8
Ech.1_2
 62
   190
370
     9
100
AcDbLine
 10
4223.256133009932
 20
-3507.416861175257
 30
0.0
 11
4223.256133009932
 21
-3401.710818676906
 31
0.0
  0
LINE
  5
269
330
1F
100
AcDbEntity
  8
Ech.1_2
 62
   190
370
     9
100
AcDbLine
 10
4217.606828009816
 20
-3507.416861175257
 30
0.0
 11
4217.606828009816
 21
-3401.710818676906
 31
0.0
  0
ARC
  5
26A
330
1F
100
AcDbEntity
  8
Ech.1_2
 62
   190
370
     9
100
AcDbCircle
 10
4220.431480509874
 20
-3430.966049653542
 30
0.0
 40
32.03300847708561
100
AcDbArc
 50
78.66327935031337
 51
101.3367206496866
  0
LINE
  5
26B
330
1F
100
AcDbEntity
  8
Ech.1_2
 62
   190
370
     9
100
AcDbLine
 10
4226.728355509917
 20
-3400.321928678713
 30
0.0
 11
4224.645023010039
 21
-3400.321928678709
 31
0.0
  0
ARC
  5
26C
330
1F
100
AcDbEntity
  8
Ech.1_2
 62
   190
370
     9
100
AcDbCircle
 10
4224.645022984679
 20
-3401.710818653456
 30
0.0
 40
1.388889974747184
100
AcDbArc
 50
89.99999895381126
 51
180.0000009673982
  0
LINE
  5
26D
330
1F
100
AcDbEntity
  8
Ech.1_2
 62
   190
370
     9
100
AcDbLine
 10
4224.645023010039
 20
-3400.321928678709
 30
0.0
 11
4216.217938009872
 21
-3400.321928678709
 31
0.0
  0
ARC
  5
26E
330
1F
100
AcDbEntity
  8
Ech.1_2
 62
   190
370
     9
100
AcDbCircle
 10
4216.217938035348
 20
-3401.710818653177
 30
0.0
 40
1.388889974467715
100
AcDbArc
 50
359.9999990210835
 51
90.00000105095368
  0
LINE
  5
26F
330
1F
100
AcDbEntity
  8
Ech.1_2
 62
   190
370
     9
100
AcDbLine
 10
4214.134605509976
 20
-3400.321928678709
 30
0.0
 11
4216.217938009872
 21
-3400.321928678709
 31
0.0
  0
LINE
  5
270
330
1F
100
AcDbEntity
  8
Ech.1_2
 62
   190
370
     9
100
AcDbLine
 10
4223.256133009932
 20
-3426.919151178995
 30
0.0
 11
4217.606828009816
 21
-3426.919151178995
 31
0.0
  0
LINE
  5
271
330
1F
100
AcDbEntity
  8
Ech.1_2
 62
   190
370
     9
100
AcDbLine
 10
4223.256133009932
 20
-3429.002483680347
 30
0.0
 11
4217.606828009816
 21
-3429.002483680347
 31
0.0
  0
LINE
  5
272
330
1F
100
AcDbEntity
  8
Ech.1_2
 62
   190
370
     9
100
AcDbLine
 10
4223.256133009932
 20
-3420.669151178995
 30
0.0
 11
4217.606828009816
 21
-3420.669151178995
 31
0.0
  0
LINE
  5
273
330
1F
100
AcDbEntity
  8
Ech.1_2
 62
   190
370
     9
100
AcDbLine
 10
4223.256133009932
 20
-3422.752483680347
 30
0.0
 11
4217.606828009816
 21
-3422.752483680347
 31
0.0
  0
LINE
  5
274
330
1F
100
AcDbEntity
  8
Ech.1_2
 62
   190
370
     9
100
AcDbLine
 10
4223.256133009932
 20
-3424.835816181699
 30
0.0
 11
4217.606828009816
 21
-3424.835816181699
 31
0.0
  0
LINE
  5
275
330
1F
100
AcDbEntity
  8
Ech.1_2
 62
   190
370
     9
100
AcDbLine
 10
4223.256133009932
 20
-3414.419151178995
 30
0.0
 11
4217.606828009816
 21
-3414.419151178995
 31
0.0
  0
LINE
  5
276
330
1F
100
AcDbEntity
  8
Ech.1_2
 62
   190
370
     9
100
AcDbLine
 10
4223.256133009932
 20
-3416.502483680347
 30
0.0
 11
4217.606828009816
 21
-3416.502483680347
 31
0.0
  0
LINE
  5
277
330
1F
100
AcDbEntity
  8
Ech.1_2
 62
   190
370
     9
100
AcDbLine
 10
4223.256133009932
 20
-3418.585816181699
 30
0.0
 11
4217.606828009816
 21
-3418.585816181699
 31
0.0
  0
LINE
  5
278
330
1F
100
AcDbEntity
  8
Ech.1_2
 62
   190
370
     9
100
AcDbLine
 10
4223.256133009932
 20
-3412.335816181699
 30
0.0
 11
4217.606828009816
 21
-3412.335816181699
 31
0.0
  0
LINE
  5
279
330
1F
100
AcDbEntity
  8
Ech.1_2
 62
   190
370
     9
100
AcDbLine
 10
4223.256133009932
 20
-3410.252483680347
 30
0.0
 11
4217.606828009816
 21
-3410.252483680347
 31
0.0
  0
LINE
  5
27A
330
1F
100
AcDbEntity
  8
Ech.1_2
 62
   190
370
     9
100
AcDbLine
 10
4223.256133009932
 20
-3408.169151178995
 30
0.0
 11
4217.606828009816
 21
-3408.169151178995
 31
0.0
  0
LINE
  5
27B
330
1F
100
AcDbEntity
  8
Ech.1_2
 62
   190
370
     9
100
AcDbLine
 10
4223.256133009932
 20
-3406.085816181699
 30
0.0
 11
4217.606828009834
 21
-3406.085816181699
 31
0.0
  0
LINE
  5
27C
330
1F
100
AcDbEntity
  8
Ech.1_2
 62
   190
370
     9
100
AcDbLine
 10
4223.256133009932
 20
-3493.585816181699
 30
0.0
 11
4217.606828009816
 21
-3493.585816181699
 31
0.0
  0
LINE
  5
27D
330
1F
100
AcDbEntity
  8
Ech.1_2
 62
   190
370
     9
100
AcDbLine
 10
4223.256133009932
 20
-3491.502483680347
 30
0.0
 11
4217.606828009816
 21
-3491.502483680347
 31
0.0
  0
LINE
  5
27E
330
1F
100
AcDbEntity
  8
Ech.1_2
 62
   190
370
     9
100
AcDbLine
 10
4223.256133009932
 20
-3495.669151178995
 30
0.0
 11
4217.606828009816
 21
-3495.669151178995
 31
0.0
  0
LINE
  5
27F
330
1F
100
AcDbEntity
  8
Ech.1_2
 62
   190
370
     9
100
AcDbLine
 10
4223.256133009932
 20
-3485.252483680347
 30
0.0
 11
4217.606828009816
 21
-3485.252483680347
 31
0.0
  0
LINE
  5
280
330
1F
100
AcDbEntity
  8
Ech.1_2
 62
   190
370
     9
100
AcDbLine
 10
4223.256133009932
 20
-3487.335816181699
 30
0.0
 11
4217.606828009816
 21
-3487.335816181699
 31
0.0
  0
LINE
  5
281
330
1F
100
AcDbEntity
  8
Ech.1_2
 62
   190
370
     9
100
AcDbLine
 10
4223.256133009932
 20
-3489.419151178995
 30
0.0
 11
4217.606828009816
 21
-3489.419151178995
 31
0.0
  0
LINE
  5
282
330
1F
100
AcDbEntity
  8
Ech.1_2
 62
   190
370
     9
100
AcDbLine
 10
4223.256133009932
 20
-3479.002483680347
 30
0.0
 11
4217.606828009816
 21
-3479.002483680347
 31
0.0
  0
LINE
  5
283
330
1F
100
AcDbEntity
  8
Ech.1_2
 62
   190
370
     9
100
AcDbLine
 10
4223.256133009932
 20
-3481.085816181699
 30
0.0
 11
4217.606828009816
 21
-3481.085816181699
 31
0.0
  0
LINE
  5
284
330
1F
100
AcDbEntity
  8
Ech.1_2
 62
   190
370
     9
100
AcDbLine
 10
4223.256133009932
 20
-3483.169151178995
 30
0.0
 11
4217.606828009816
 21
-3483.169151178995
 31
0.0
  0
LINE
  5
285
330
1F
100
AcDbEntity
  8
Ech.1_2
 62
   190
370
     9
100
AcDbLine
 10
4223.256133009932
 20
-3472.752483680347
 30
0.0
 11
4217.606828009816
 21
-3472.752483680347
 31
0.0
  0
LINE
  5
286
330
1F
100
AcDbEntity
  8
Ech.1_2
 62
   190
370
     9
100
AcDbLine
 10
4223.256133009932
 20
-3474.835816181699
 30
0.0
 11
4217.606828009816
 21
-3474.835816181699
 31
0.0
  0
LINE
  5
287
330
1F
100
AcDbEntity
  8
Ech.1_2
 62
   190
370
     9
100
AcDbLine
 10
4223.256133009932
 20
-3476.919151178995
 30
0.0
 11
4217.606828009816
 21
-3476.919151178995
 31
0.0
  0
LINE
  5
288
330
1F
100
AcDbEntity
  8
Ech.1_2
 62
   190
370
     9
100
AcDbLine
 10
4223.256133009932
 20
-3470.669151178995
 30
0.0
 11
4217.606828009816
 21
-3470.669151178995
 31
0.0
  0
LINE
  5
289
330
1F
100
AcDbEntity
  8
Ech.1_2
 62
   190
370
     9
100
AcDbLine
 10
4223.256133009932
 20
-3437.335816181699
 30
0.0
 11
4217.606828009816
 21
-3437.335816181699
 31
0.0
  0
LINE
  5
28A
330
1F
100
AcDbEntity
  8
Ech.1_2
 62
   190
370
     9
100
AcDbLine
 10
4223.256133009932
 20
-3439.419151178995
 30
0.0
 11
4217.606828009816
 21
-3439.419151178995
 31
0.0
  0
LINE
  5
28B
330
1F
100
AcDbEntity
  8
Ech.1_2
 62
   190
370
     9
100
AcDbLine
 10
4223.256133009932
 20
-3441.502483680347
 30
0.0
 11
4217.606828009816
 21
-3441.502483680347
 31
0.0
  0
LINE
  5
28C
330
1F
100
AcDbEntity
  8
Ech.1_2
 62
   190
370
     9
100
AcDbLine
 10
4223.256133009932
 20
-3443.585816181699
 30
0.0
 11
4217.606828009816
 21
-3443.585816181699
 31
0.0
  0
LINE
  5
28D
330
1F
100
AcDbEntity
  8
Ech.1_2
 62
   190
370
     9
100
AcDbLine
 10
4223.256133009932
 20
-3449.835816181699
 30
0.0
 11
4217.606828009816
 21
-3449.835816181699
 31
0.0
  0
LINE
  5
28E
330
1F
100
AcDbEntity
  8
Ech.1_2
 62
   190
370
     9
100
AcDbLine
 10
4223.256133009932
 20
-3447.752483680347
 30
0.0
 11
4217.606828009816
 21
-3447.752483680347
 31
0.0
  0
LINE
  5
28F
330
1F
100
AcDbEntity
  8
Ech.1_2
 62
   190
370
     9
100
AcDbLine
 10
4223.256133009932
 20
-3445.669151178995
 30
0.0
 11
4217.606828009816
 21
-3445.669151178995
 31
0.0
  0
LINE
  5
290
330
1F
100
AcDbEntity
  8
Ech.1_2
 62
   190
370
     9
100
AcDbLine
 10
4223.256133009932
 20
-3456.085816181699
 30
0.0
 11
4217.606828009816
 21
-3456.085816181699
 31
0.0
  0
LINE
  5
291
330
1F
100
AcDbEntity
  8
Ech.1_2
 62
   190
370
     9
100
AcDbLine
 10
4223.256133009932
 20
-3454.002483680347
 30
0.0
 11
4217.606828009816
 21
-3454.002483680347
 31
0.0
  0
LINE
  5
292
330
1F
100
AcDbEntity
  8
Ech.1_2
 62
   190
370
     9
100
AcDbLine
 10
4223.256133009932
 20
-3451.919151178995
 30
0.0
 11
4217.606828009816
 21
-3451.919151178995
 31
0.0
  0
LINE
  5
293
330
1F
100
AcDbEntity
  8
Ech.1_2
 62
   190
370
     9
100
AcDbLine
 10
4223.256133009932
 20
-3462.335816181699
 30
0.0
 11
4217.606828009816
 21
-3462.335816181699
 31
0.0
  0
LINE
  5
294
330
1F
100
AcDbEntity
  8
Ech.1_2
 62
   190
370
     9
100
AcDbLine
 10
4223.256133009932
 20
-3460.252483680347
 30
0.0
 11
4217.606828009816
 21
-3460.252483680347
 31
0.0
  0
LINE
  5
295
330
1F
100
AcDbEntity
  8
Ech.1_2
 62
   190
370
     9
100
AcDbLine
 10
4223.256133009932
 20
-3458.169151178995
 30
0.0
 11
4217.606828009816
 21
-3458.169151178995
 31
0.0
  0
LINE
  5
296
330
1F
100
AcDbEntity
  8
Ech.1_2
 62
   190
370
     9
100
AcDbLine
 10
4223.256133009932
 20
-3468.585816181699
 30
0.0
 11
4217.606828009816
 21
-3468.585816181699
 31
0.0
  0
LINE
  5
297
330
1F
100
AcDbEntity
  8
Ech.1_2
 62
   190
370
     9
100
AcDbLine
 10
4223.256133009932
 20
-3466.502483680347
 30
0.0
 11
4217.606828009816
 21
-3466.502483680347
 31
0.0
  0
LINE
  5
298
330
1F
100
AcDbEntity
  8
Ech.1_2
 62
   190
370
     9
100
AcDbLine
 10
4223.256133009932
 20
-3464.419151178995
 30
0.0
 11
4217.606828009816
 21
-3464.419151178995
 31
0.0
  0
LINE
  5
299
330
1F
100
AcDbEntity
  8
Ech.1_2
 62
   190
370
     9
100
AcDbLine
 10
4223.256133009932
 20
-3433.169151178995
 30
0.0
 11
4217.606828009816
 21
-3433.169151178995
 31
0.0
  0
LINE
  5
29A
330
1F
100
AcDbEntity
  8
Ech.1_2
 62
   190
370
     9
100
AcDbLine
 10
4223.256133009932
 20
-3435.252483680347
 30
0.0
 11
4217.606828009816
 21
-3435.252483680347
 31
0.0
  0
LINE
  5
29B
330
1F
100
AcDbEntity
  8
Ech.1_2
 62
   190
370
     9
100
AcDbLine
 10
4223.256133009932
 20
-3437.335816181699
 30
0.0
 11
4217.606828009816
 21
-3437.335816181699
 31
0.0
  0
LINE
  5
29C
330
1F
100
AcDbEntity
  8
Ech.1_2
 62
   190
370
     9
100
AcDbLine
 10
4223.256133009932
 20
-3431.085816181699
 30
0.0
 11
4217.606828009816
 21
-3431.085816181699
 31
0.0
  0
LINE
  5
29D
330
1F
100
AcDbEntity
  8
Ech.1_2
 62
   190
370
     9
100
AcDbLine
 10
4220.431480509947
 20
-3514.071928678709
 30
0.0
 11
4223.256133009932
 21
-3507.416861175257
 31
0.0
  0
ARC
  5
29E
330
1F
100
AcDbEntity
  8
Ech.1_2
 62
   190
370
     9
100
AcDbCircle
 10
4220.431480509956
 20
-3510.94023865175
 30
0.0
 40
4.515844991663882
100
AcDbArc
 50
51.28123991419466
 51
128.7187600858053
  0
LINE
  5
29F
330
1F
100
AcDbEntity
  8
Ech.1_2
 62
   190
370
     9
100
AcDbLine
 10
4220.431480509947
 20
-3514.071928678709
 30
0.0
 11
4217.606828009816
 21
-3507.416861175257
 31
0.0
  0
HATCH
  5
2A0
330
1F
100
AcDbEntity
  8
Ech.1_2
 62
   252
440
 33554687
370
     5
100
AcDbHatch
 10
0.0
 20
0.0
 30
0.0
210
0.0
220
0.0
230
1.0
  2
SOLID
 70
     1
 71
     1
 91
        1
 92
        3
 72
     0
 73
     1
 93
        4
 10
4217.606828009834
 20
-3406.085816181699
 10
4217.606828009816
 20
-3408.169151178995
 10
4223.256133009932
 20
-3408.169151178995
 10
4223.256133009932
 20
-3406.085816181699
 97
        0
 75
     0
 76
     1
 98
        0
  0
LWPOLYLINE
  5
2A1
330
1F
100
AcDbEntity
  8
Ech.1_2
 62
     7
370
     9
100
AcDbPolyline
 90
        5
 70
     0
 43
0.0
 10
4217.606828009834
 20
-3406.085816181699
 10
4217.606828009816
 20
-3408.169151178995
 10
4223.256133009932
 20
-3408.169151178995
 10
4223.256133009932
 20
-3406.085816181699
 10
4217.606828009834
 20
-3406.085816181699
  0
HATCH
  5
2A2
330
1F
100
AcDbEntity
  8
Ech.1_2
 62
   252
440
 33554687
370
     5
100
AcDbHatch
 10
0.0
 20
0.0
 30
0.0
210
0.0
220
0.0
230
1.0
  2
SOLID
 70
     1
 71
     1
 91
        1
 92
        3
 72
     0
 73
     1
 93
        4
 10
4217.606828009816
 20
-3408.169151178995
 10
4217.606828009816
 20
-3410.252486176291
 10
4223.256133009932
 20
-3410.252486176291
 10
4223.256133009932
 20
-3408.169151178995
 97
        0
 75
     0
 76
     1
 98
        0
  0
LWPOLYLINE
  5
2A3
330
1F
100
AcDbEntity
  8
Ech.1_2
 62
     7
370
     9
100
AcDbPolyline
 90
        5
 70
     0
 43
0.0
 10
4217.606828009816
 20
-3408.169151178995
 10
4217.606828009816
 20
-3410.252486176291
 10
4223.256133009932
 20
-3410.252486176291
 10
4223.256133009932
 20
-3408.169151178995
 10
4217.606828009816
 20
-3408.169151178995
  0
HATCH
  5
2A4
330
1F
100
AcDbEntity
  8
Ech.1_2
 62
   252
440
 33554687
370
     5
100
AcDbHatch
 10
0.0
 20
0.0
 30
0.0
210
0.0
220
0.0
230
1.0
  2
SOLID
 70
     1
 71
     1
 91
        1
 92
        3
 72
     0
 73
     1
 93
        4
 10
4217.606828009816
 20
-3410.252486176291
 10
4217.606828009816
 20
-3412.335821173588
 10
4223.256133009932
 20
-3412.335821173588
 10
4223.256133009932
 20
-3410.252486176291
 97
        0
 75
     0
 76
     1
 98
        0
  0
LWPOLYLINE
  5
2A5
330
1F
100
AcDbEntity
  8
Ech.1_2
 62
     7
370
     9
100
AcDbPolyline
 90
        5
 70
     0
 43
0.0
 10
4217.606828009816
 20
-3410.252486176291
 10
4217.606828009816
 20
-3412.335821173588
 10
4223.256133009932
 20
-3412.335821173588
 10
4223.256133009932
 20
-3410.252486176291
 10
4217.606828009816
 20
-3410.252486176291
  0
HATCH
  5
2A6
330
1F
100
AcDbEntity
  8
Ech.1_2
 62
   252
440
 33554687
370
     5
100
AcDbHatch
 10
0.0
 20
0.0
 30
0.0
210
0.0
220
0.0
230
1.0
  2
SOLID
 70
     1
 71
     1
 91
        1
 92
        3
 72
     0
 73
     1
 93
        4
 10
4217.606828009816
 20
-3412.335821173588
 10
4217.606828009816
 20
-3414.419156170884
 10
4223.256133009932
 20
-3414.419156170884
 10
4223.256133009932
 20
-3412.335821173588
 97
        0
 75
     0
 76
     1
 98
        0
  0
LWPOLYLINE
  5
2A7
330
1F
100
AcDbEntity
  8
Ech.1_2
 62
     7
370
     9
100
AcDbPolyline
 90
        5
 70
     0
 43
0.0
 10
4217.606828009816
 20
-3412.335821173588
 10
4217.606828009816
 20
-3414.419156170884
 10
4223.256133009932
 20
-3414.419156170884
 10
4223.256133009932
 20
-3412.335821173588
 10
4217.606828009816
 20
-3412.335821173588
  0
HATCH
  5
2A8
330
1F
100
AcDbEntity
  8
Ech.1_2
 62
   252
440
 33554687
370
     5
100
AcDbHatch
 10
0.0
 20
0.0
 30
0.0
210
0.0
220
0.0
230
1.0
  2
SOLID
 70
     1
 71
     1
 91
        1
 92
        3
 72
     0
 73
     1
 93
        4
 10
4217.606828009816
 20
-3414.419151178995
 10
4217.606828009816
 20
-3416.502486176291
 10
4223.256133009932
 20
-3416.502486176291
 10
4223.256133009932
 20
-3414.419151178995
 97
        0
 75
     0
 76
     1
 98
        0
  0
LWPOLYLINE
  5
2A9
330
1F
100
AcDbEntity
  8
Ech.1_2
 62
     7
370
     9
100
AcDbPolyline
 90
        5
 70
     0
 43
0.0
 10
4217.606828009816
 20
-3414.419151178995
 10
4217.606828009816
 20
-3416.502486176291
 10
4223.256133009932
 20
-3416.502486176291
 10
4223.256133009932
 20
-3414.419151178995
 10
4217.606828009816
 20
-3414.419151178995
  0
HATCH
  5
2AA
330
1F
100
AcDbEntity
  8
Ech.1_2
 62
   252
440
 33554687
370
     5
100
AcDbHatch
 10
0.0
 20
0.0
 30
0.0
210
0.0
220
0.0
230
1.0
  2
SOLID
 70
     1
 71
     1
 91
        1
 92
        3
 72
     0
 73
     1
 93
        4
 10
4217.606828009816
 20
-3416.502483680347
 10
4217.606828009816
 20
-3418.585818677643
 10
4223.25613300995
 20
-3418.585818677643
 10
4223.256133009932
 20
-3416.502483680347
 97
        0
 75
     0
 76
     1
 98
        0
  0
LWPOLYLINE
  5
2AB
330
1F
100
AcDbEntity
  8
Ech.1_2
 62
     7
370
     9
100
AcDbPolyline
 90
        5
 70
     0
 43
0.0
 10
4217.606828009816
 20
-3416.502483680347
 10
4217.606828009816
 20
-3418.585818677643
 10
4223.25613300995
 20
-3418.585818677643
 10
4223.256133009932
 20
-3416.502483680347
 10
4217.606828009816
 20
-3416.502483680347
  0
HATCH
  5
2AC
330
1F
100
AcDbEntity
  8
Ech.1_2
 62
   252
440
 33554687
370
     5
100
AcDbHatch
 10
0.0
 20
0.0
 30
0.0
210
0.0
220
0.0
230
1.0
  2
SOLID
 70
     1
 71
     1
 91
        1
 92
        3
 72
     0
 73
     1
 93
        4
 10
4217.606828009816
 20
-3418.585818677643
 10
4217.606828009816
 20
-3420.669153674939
 10
4223.256133009932
 20
-3420.669153674939
 10
4223.25613300995
 20
-3418.585818677643
 97
        0
 75
     0
 76
     1
 98
        0
  0
LWPOLYLINE
  5
2AD
330
1F
100
AcDbEntity
  8
Ech.1_2
 62
     7
370
     9
100
AcDbPolyline
 90
        5
 70
     0
 43
0.0
 10
4217.606828009816
 20
-3418.585818677643
 10
4217.606828009816
 20
-3420.669153674939
 10
4223.256133009932
 20
-3420.669153674939
 10
4223.25613300995
 20
-3418.585818677643
 10
4217.606828009816
 20
-3418.585818677643
  0
HATCH
  5
2AE
330
1F
100
AcDbEntity
  8
Ech.1_2
 62
   252
440
 33554687
370
     5
100
AcDbHatch
 10
0.0
 20
0.0
 30
0.0
210
0.0
220
0.0
230
1.0
  2
SOLID
 70
     1
 71
     1
 91
        1
 92
        3
 72
     0
 73
     1
 93
        4
 10
4217.606828009816
 20
-3420.669151178995
 10
4217.606828009816
 20
-3422.752486176291
 10
4223.256133009932
 20
-3422.752486176291
 10
4223.256133009932
 20
-3420.669151178995
 97
        0
 75
     0
 76
     1
 98
        0
  0
LWPOLYLINE
  5
2AF
330
1F
100
AcDbEntity
  8
Ech.1_2
 62
     7
370
     9
100
AcDbPolyline
 90
        5
 70
     0
 43
0.0
 10
4217.606828009816
 20
-3420.669151178995
 10
4217.606828009816
 20
-3422.752486176291
 10
4223.256133009932
 20
-3422.752486176291
 10
4223.256133009932
 20
-3420.669151178995
 10
4217.606828009816
 20
-3420.669151178995
  0
HATCH
  5
2B0
330
1F
100
AcDbEntity
  8
Ech.1_2
 62
   252
440
 33554687
370
     5
100
AcDbHatch
 10
0.0
 20
0.0
 30
0.0
210
0.0
220
0.0
230
1.0
  2
SOLID
 70
     1
 71
     1
 91
        1
 92
        3
 72
     0
 73
     1
 93
        4
 10
4217.606828009816
 20
-3422.752486176291
 10
4217.606828009816
 20
-3424.835821173588
 10
4223.256133009932
 20
-3424.835821173588
 10
4223.256133009932
 20
-3422.752486176291
 97
        0
 75
     0
 76
     1
 98
        0
  0
LWPOLYLINE
  5
2B1
330
1F
100
AcDbEntity
  8
Ech.1_2
 62
     7
370
     9
100
AcDbPolyline
 90
        5
 70
     0
 43
0.0
 10
4217.606828009816
 20
-3422.752486176291
 10
4217.606828009816
 20
-3424.835821173588
 10
4223.256133009932
 20
-3424.835821173588
 10
4223.256133009932
 20
-3422.752486176291
 10
4217.606828009816
 20
-3422.752486176291
  0
HATCH
  5
2B2
330
1F
100
AcDbEntity
  8
Ech.1_2
 62
   252
440
 33554687
370
     5
100
AcDbHatch
 10
0.0
 20
0.0
 30
0.0
210
0.0
220
0.0
230
1.0
  2
SOLID
 70
     1
 71
     1
 91
        1
 92
        3
 72
     0
 73
     1
 93
        4
 10
4217.606828009816
 20
-3424.835816181699
 10
4217.606828009816
 20
-3426.919151178995
 10
4223.256133009932
 20
-3426.919151178995
 10
4223.256133009932
 20
-3424.835816181699
 97
        0
 75
     0
 76
     1
 98
        0
  0
LWPOLYLINE
  5
2B3
330
1F
100
AcDbEntity
  8
Ech.1_2
 62
     7
370
     9
100
AcDbPolyline
 90
        5
 70
     0
 43
0.0
 10
4217.606828009816
 20
-3424.835816181699
 10
4217.606828009816
 20
-3426.919151178995
 10
4223.256133009932
 20
-3426.919151178995
 10
4223.256133009932
 20
-3424.835816181699
 10
4217.606828009816
 20
-3424.835816181699
  0
HATCH
  5
2B4
330
1F
100
AcDbEntity
  8
Ech.1_2
 62
   252
440
 33554687
370
     5
100
AcDbHatch
 10
0.0
 20
0.0
 30
0.0
210
0.0
220
0.0
230
1.0
  2
SOLID
 70
     1
 71
     1
 91
        1
 92
        3
 72
     0
 73
     1
 93
        4
 10
4217.606828009816
 20
-3426.919151178995
 10
4217.606828009816
 20
-3429.002486176291
 10
4223.256133009932
 20
-3429.002486176291
 10
4223.256133009932
 20
-3426.919151178995
 97
        0
 75
     0
 76
     1
 98
        0
  0
LWPOLYLINE
  5
2B5
330
1F
100
AcDbEntity
  8
Ech.1_2
 62
     7
370
     9
100
AcDbPolyline
 90
        5
 70
     0
 43
0.0
 10
4217.606828009816
 20
-3426.919151178995
 10
4217.606828009816
 20
-3429.002486176291
 10
4223.256133009932
 20
-3429.002486176291
 10
4223.256133009932
 20
-3426.919151178995
 10
4217.606828009816
 20
-3426.919151178995
  0
HATCH
  5
2B6
330
1F
100
AcDbEntity
  8
Ech.1_2
 62
   252
440
 33554687
370
     5
100
AcDbHatch
 10
0.0
 20
0.0
 30
0.0
210
0.0
220
0.0
230
1.0
  2
SOLID
 70
     1
 71
     1
 91
        1
 92
        3
 72
     0
 73
     1
 93
        4
 10
4217.606828009816
 20
-3429.002486176291
 10
4217.606828009816
 20
-3431.085821173588
 10
4223.256133009932
 20
-3431.085821173592
 10
4223.256133009932
 20
-3429.002486176291
 97
        0
 75
     0
 76
     1
 98
        0
  0
LWPOLYLINE
  5
2B7
330
1F
100
AcDbEntity
  8
Ech.1_2
 62
     7
370
     9
100
AcDbPolyline
 90
        5
 70
     0
 43
0.0
 10
4217.606828009816
 20
-3429.002486176291
 10
4217.606828009816
 20
-3431.085821173588
 10
4223.256133009932
 20
-3431.085821173592
 10
4223.256133009932
 20
-3429.002486176291
 10
4217.606828009816
 20
-3429.002486176291
  0
HATCH
  5
2B8
330
1F
100
AcDbEntity
  8
Ech.1_2
 62
   252
440
 33554687
370
     5
100
AcDbHatch
 10
0.0
 20
0.0
 30
0.0
210
0.0
220
0.0
230
1.0
  2
SOLID
 70
     1
 71
     1
 91
        1
 92
        3
 72
     0
 73
     1
 93
        4
 10
4217.606828009816
 20
-3431.085821173588
 10
4217.606828009816
 20
-3433.169156170884
 10
4223.256133009932
 20
-3433.169156170884
 10
4223.256133009932
 20
-3431.085821173592
 97
        0
 75
     0
 76
     1
 98
        0
  0
LWPOLYLINE
  5
2B9
330
1F
100
AcDbEntity
  8
Ech.1_2
 62
     7
370
     9
100
AcDbPolyline
 90
        5
 70
     0
 43
0.0
 10
4217.606828009816
 20
-3431.085821173588
 10
4217.606828009816
 20
-3433.169156170884
 10
4223.256133009932
 20
-3433.169156170884
 10
4223.256133009932
 20
-3431.085821173592
 10
4217.606828009816
 20
-3431.085821173588
  0
HATCH
  5
2BA
330
1F
100
AcDbEntity
  8
Ech.1_2
 62
   252
440
 33554687
370
     5
100
AcDbHatch
 10
0.0
 20
0.0
 30
0.0
210
0.0
220
0.0
230
1.0
  2
SOLID
 70
     1
 71
     1
 91
        1
 92
        3
 72
     0
 73
     1
 93
        4
 10
4217.606828009816
 20
-3433.169156170884
 10
4217.606828009816
 20
-3435.25249116818
 10
4223.256133009932
 20
-3435.25249116818
 10
4223.256133009932
 20
-3433.169156170884
 97
        0
 75
     0
 76
     1
 98
        0
  0
LWPOLYLINE
  5
2BB
330
1F
100
AcDbEntity
  8
Ech.1_2
 62
     7
370
     9
100
AcDbPolyline
 90
        5
 70
     0
 43
0.0
 10
4217.606828009816
 20
-3433.169156170884
 10
4217.606828009816
 20
-3435.25249116818
 10
4223.256133009932
 20
-3435.25249116818
 10
4223.256133009932
 20
-3433.169156170884
 10
4217.606828009816
 20
-3433.169156170884
  0
HATCH
  5
2BC
330
1F
100
AcDbEntity
  8
Ech.1_2
 62
   252
440
 33554687
370
     5
100
AcDbHatch
 10
0.0
 20
0.0
 30
0.0
210
0.0
220
0.0
230
1.0
  2
SOLID
 70
     1
 71
     1
 91
        1
 92
        3
 72
     0
 73
     1
 93
        4
 10
4217.606828009816
 20
-3435.252486176291
 10
4217.606828009816
 20
-3437.335821173588
 10
4223.256133009932
 20
-3437.335821173588
 10
4223.256133009932
 20
-3435.252486176291
 97
        0
 75
     0
 76
     1
 98
        0
  0
LWPOLYLINE
  5
2BD
330
1F
100
AcDbEntity
  8
Ech.1_2
 62
     7
370
     9
100
AcDbPolyline
 90
        5
 70
     0
 43
0.0
 10
4217.606828009816
 20
-3435.252486176291
 10
4217.606828009816
 20
-3437.335821173588
 10
4223.256133009932
 20
-3437.335821173588
 10
4223.256133009932
 20
-3435.252486176291
 10
4217.606828009816
 20
-3435.252486176291
  0
HATCH
  5
2BE
330
1F
100
AcDbEntity
  8
Ech.1_2
 62
   252
440
 33554687
370
     5
100
AcDbHatch
 10
0.0
 20
0.0
 30
0.0
210
0.0
220
0.0
230
1.0
  2
SOLID
 70
     1
 71
     1
 91
        1
 92
        3
 72
     0
 73
     1
 93
        4
 10
4217.606828009816
 20
-3437.335818677643
 10
4217.606828009816
 20
-3439.419153674939
 10
4223.256133009932
 20
-3439.419153674939
 10
4223.256133009932
 20
-3437.335818677643
 97
        0
 75
     0
 76
     1
 98
        0
  0
LWPOLYLINE
  5
2BF
330
1F
100
AcDbEntity
  8
Ech.1_2
 62
     7
370
     9
100
AcDbPolyline
 90
        5
 70
     0
 43
0.0
 10
4217.606828009816
 20
-3437.335818677643
 10
4217.606828009816
 20
-3439.419153674939
 10
4223.256133009932
 20
-3439.419153674939
 10
4223.256133009932
 20
-3437.335818677643
 10
4217.606828009816
 20
-3437.335818677643
  0
HATCH
  5
2C0
330
1F
100
AcDbEntity
  8
Ech.1_2
 62
   252
440
 33554687
370
     5
100
AcDbHatch
 10
0.0
 20
0.0
 30
0.0
210
0.0
220
0.0
230
1.0
  2
SOLID
 70
     1
 71
     1
 91
        1
 92
        3
 72
     0
 73
     1
 93
        4
 10
4217.606828009816
 20
-3439.419153674939
 10
4217.606828009816
 20
-3441.502488672236
 10
4223.256133009932
 20
-3441.502488672236
 10
4223.256133009932
 20
-3439.419153674939
 97
        0
 75
     0
 76
     1
 98
        0
  0
LWPOLYLINE
  5
2C1
330
1F
100
AcDbEntity
  8
Ech.1_2
 62
     7
370
     9
100
AcDbPolyline
 90
        5
 70
     0
 43
0.0
 10
4217.606828009816
 20
-3439.419153674939
 10
4217.606828009816
 20
-3441.502488672236
 10
4223.256133009932
 20
-3441.502488672236
 10
4223.256133009932
 20
-3439.419153674939
 10
4217.606828009816
 20
-3439.419153674939
  0
HATCH
  5
2C2
330
1F
100
AcDbEntity
  8
Ech.1_2
 62
   252
440
 33554687
370
     5
100
AcDbHatch
 10
0.0
 20
0.0
 30
0.0
210
0.0
220
0.0
230
1.0
  2
SOLID
 70
     1
 71
     1
 91
        1
 92
        3
 72
     0
 73
     1
 93
        4
 10
4217.606828009816
 20
-3441.502486176291
 10
4217.606828009816
 20
-3443.585821173588
 10
4223.256133009932
 20
-3443.585821173588
 10
4223.256133009932
 20
-3441.502486176291
 97
        0
 75
     0
 76
     1
 98
        0
  0
LWPOLYLINE
  5
2C3
330
1F
100
AcDbEntity
  8
Ech.1_2
 62
     7
370
     9
100
AcDbPolyline
 90
        5
 70
     0
 43
0.0
 10
4217.606828009816
 20
-3441.502486176291
 10
4217.606828009816
 20
-3443.585821173588
 10
4223.256133009932
 20
-3443.585821173588
 10
4223.256133009932
 20
-3441.502486176291
 10
4217.606828009816
 20
-3441.502486176291
  0
HATCH
  5
2C4
330
1F
100
AcDbEntity
  8
Ech.1_2
 62
   252
440
 33554687
370
     5
100
AcDbHatch
 10
0.0
 20
0.0
 30
0.0
210
0.0
220
0.0
230
1.0
  2
SOLID
 70
     1
 71
     1
 91
        1
 92
        3
 72
     0
 73
     1
 93
        4
 10
4217.606828009816
 20
-3443.585821173588
 10
4217.606828009816
 20
-3445.669156170884
 10
4223.256133009932
 20
-3445.669156170884
 10
4223.256133009932
 20
-3443.585821173588
 97
        0
 75
     0
 76
     1
 98
        0
  0
LWPOLYLINE
  5
2C5
330
1F
100
AcDbEntity
  8
Ech.1_2
 62
     7
370
     9
100
AcDbPolyline
 90
        5
 70
     0
 43
0.0
 10
4217.606828009816
 20
-3443.585821173588
 10
4217.606828009816
 20
-3445.669156170884
 10
4223.256133009932
 20
-3445.669156170884
 10
4223.256133009932
 20
-3443.585821173588
 10
4217.606828009816
 20
-3443.585821173588
  0
HATCH
  5
2C6
330
1F
100
AcDbEntity
  8
Ech.1_2
 62
   252
440
 33554687
370
     5
100
AcDbHatch
 10
0.0
 20
0.0
 30
0.0
210
0.0
220
0.0
230
1.0
  2
SOLID
 70
     1
 71
     1
 91
        1
 92
        3
 72
     0
 73
     1
 93
        4
 10
4217.606828009816
 20
-3445.669151178995
 10
4217.606828009816
 20
-3447.752486176291
 10
4223.256133009932
 20
-3447.752486176291
 10
4223.256133009932
 20
-3445.669151178995
 97
        0
 75
     0
 76
     1
 98
        0
  0
LWPOLYLINE
  5
2C7
330
1F
100
AcDbEntity
  8
Ech.1_2
 62
     7
370
     9
100
AcDbPolyline
 90
        5
 70
     0
 43
0.0
 10
4217.606828009816
 20
-3445.669151178995
 10
4217.606828009816
 20
-3447.752486176291
 10
4223.256133009932
 20
-3447.752486176291
 10
4223.256133009932
 20
-3445.669151178995
 10
4217.606828009816
 20
-3445.669151178995
  0
HATCH
  5
2C8
330
1F
100
AcDbEntity
  8
Ech.1_2
 62
   252
440
 33554687
370
     5
100
AcDbHatch
 10
0.0
 20
0.0
 30
0.0
210
0.0
220
0.0
230
1.0
  2
SOLID
 70
     1
 71
     1
 91
        1
 92
        3
 72
     0
 73
     1
 93
        4
 10
4217.606828009816
 20
-3447.752486176291
 10
4217.606828009816
 20
-3449.835821173588
 10
4223.256133009932
 20
-3449.835821173588
 10
4223.256133009932
 20
-3447.752486176291
 97
        0
 75
     0
 76
     1
 98
        0
  0
LWPOLYLINE
  5
2C9
330
1F
100
AcDbEntity
  8
Ech.1_2
 62
     7
370
     9
100
AcDbPolyline
 90
        5
 70
     0
 43
0.0
 10
4217.606828009816
 20
-3447.752486176291
 10
4217.606828009816
 20
-3449.835821173588
 10
4223.256133009932
 20
-3449.835821173588
 10
4223.256133009932
 20
-3447.752486176291
 10
4217.606828009816
 20
-3447.752486176291
  0
HATCH
  5
2CA
330
1F
100
AcDbEntity
  8
Ech.1_2
 62
   252
440
 33554687
370
     5
100
AcDbHatch
 10
0.0
 20
0.0
 30
0.0
210
0.0
220
0.0
230
1.0
  2
SOLID
 70
     1
 71
     1
 91
        1
 92
        3
 72
     0
 73
     1
 93
        4
 10
4217.606828009816
 20
-3449.835821173588
 10
4217.606828009816
 20
-3451.919156170884
 10
4223.256133009932
 20
-3451.919156170884
 10
4223.256133009932
 20
-3449.835821173588
 97
        0
 75
     0
 76
     1
 98
        0
  0
LWPOLYLINE
  5
2CB
330
1F
100
AcDbEntity
  8
Ech.1_2
 62
     7
370
     9
100
AcDbPolyline
 90
        5
 70
     0
 43
0.0
 10
4217.606828009816
 20
-3449.835821173588
 10
4217.606828009816
 20
-3451.919156170884
 10
4223.256133009932
 20
-3451.919156170884
 10
4223.256133009932
 20
-3449.835821173588
 10
4217.606828009816
 20
-3449.835821173588
  0
HATCH
  5
2CC
330
1F
100
AcDbEntity
  8
Ech.1_2
 62
   252
440
 33554687
370
     5
100
AcDbHatch
 10
0.0
 20
0.0
 30
0.0
210
0.0
220
0.0
230
1.0
  2
SOLID
 70
     1
 71
     1
 91
        1
 92
        3
 72
     0
 73
     1
 93
        4
 10
4217.606828009816
 20
-3451.919156170884
 10
4217.606828009816
 20
-3454.002491168185
 10
4223.256133009932
 20
-3454.00249116818
 10
4223.256133009932
 20
-3451.919156170884
 97
        0
 75
     0
 76
     1
 98
        0
  0
LWPOLYLINE
  5
2CD
330
1F
100
AcDbEntity
  8
Ech.1_2
 62
     7
370
     9
100
AcDbPolyline
 90
        5
 70
     0
 43
0.0
 10
4217.606828009816
 20
-3451.919156170884
 10
4217.606828009816
 20
-3454.002491168185
 10
4223.256133009932
 20
-3454.00249116818
 10
4223.256133009932
 20
-3451.919156170884
 10
4217.606828009816
 20
-3451.919156170884
  0
HATCH
  5
2CE
330
1F
100
AcDbEntity
  8
Ech.1_2
 62
   252
440
 33554687
370
     5
100
AcDbHatch
 10
0.0
 20
0.0
 30
0.0
210
0.0
220
0.0
230
1.0
  2
SOLID
 70
     1
 71
     1
 91
        1
 92
        3
 72
     0
 73
     1
 93
        4
 10
4217.606828009816
 20
-3454.002491168185
 10
4217.606828009816
 20
-3456.085826165477
 10
4223.256133009932
 20
-3456.085826165477
 10
4223.256133009932
 20
-3454.00249116818
 97
        0
 75
     0
 76
     1
 98
        0
  0
LWPOLYLINE
  5
2CF
330
1F
100
AcDbEntity
  8
Ech.1_2
 62
     7
370
     9
100
AcDbPolyline
 90
        5
 70
     0
 43
0.0
 10
4217.606828009816
 20
-3454.002491168185
 10
4217.606828009816
 20
-3456.085826165477
 10
4223.256133009932
 20
-3456.085826165477
 10
4223.256133009932
 20
-3454.00249116818
 10
4217.606828009816
 20
-3454.002491168185
  0
HATCH
  5
2D0
330
1F
100
AcDbEntity
  8
Ech.1_2
 62
   252
440
 33554687
370
     5
100
AcDbHatch
 10
0.0
 20
0.0
 30
0.0
210
0.0
220
0.0
230
1.0
  2
SOLID
 70
     1
 71
     1
 91
        1
 92
        3
 72
     0
 73
     1
 93
        4
 10
4217.606828009816
 20
-3456.085821173588
 10
4217.606828009816
 20
-3458.169156170884
 10
4223.256133009932
 20
-3458.169156170884
 10
4223.256133009932
 20
-3456.085821173588
 97
        0
 75
     0
 76
     1
 98
        0
  0
LWPOLYLINE
  5
2D1
330
1F
100
AcDbEntity
  8
Ech.1_2
 62
     7
370
     9
100
AcDbPolyline
 90
        5
 70
     0
 43
0.0
 10
4217.606828009816
 20
-3456.085821173588
 10
4217.606828009816
 20
-3458.169156170884
 10
4223.256133009932
 20
-3458.169156170884
 10
4223.256133009932
 20
-3456.085821173588
 10
4217.606828009816
 20
-3456.085821173588
  0
HATCH
  5
2D2
330
1F
100
AcDbEntity
  8
Ech.1_2
 62
   252
440
 33554687
370
     5
100
AcDbHatch
 10
0.0
 20
0.0
 30
0.0
210
0.0
220
0.0
230
1.0
  2
SOLID
 70
     1
 71
     1
 91
        1
 92
        3
 72
     0
 73
     1
 93
        4
 10
4217.606828009816
 20
-3458.169153674939
 10
4217.606828009816
 20
-3460.252488672236
 10
4223.256133009932
 20
-3460.252488672236
 10
4223.256133009932
 20
-3458.169153674939
 97
        0
 75
     0
 76
     1
 98
        0
  0
LWPOLYLINE
  5
2D3
330
1F
100
AcDbEntity
  8
Ech.1_2
 62
     7
370
     9
100
AcDbPolyline
 90
        5
 70
     0
 43
0.0
 10
4217.606828009816
 20
-3458.169153674939
 10
4217.606828009816
 20
-3460.252488672236
 10
4223.256133009932
 20
-3460.252488672236
 10
4223.256133009932
 20
-3458.169153674939
 10
4217.606828009816
 20
-3458.169153674939
  0
HATCH
  5
2D4
330
1F
100
AcDbEntity
  8
Ech.1_2
 62
   252
440
 33554687
370
     5
100
AcDbHatch
 10
0.0
 20
0.0
 30
0.0
210
0.0
220
0.0
230
1.0
  2
SOLID
 70
     1
 71
     1
 91
        1
 92
        3
 72
     0
 73
     1
 93
        4
 10
4217.606828009816
 20
-3460.252488672236
 10
4217.606828009816
 20
-3462.335823669532
 10
4223.256133009932
 20
-3462.335823669532
 10
4223.256133009932
 20
-3460.252488672236
 97
        0
 75
     0
 76
     1
 98
        0
  0
LWPOLYLINE
  5
2D5
330
1F
100
AcDbEntity
  8
Ech.1_2
 62
     7
370
     9
100
AcDbPolyline
 90
        5
 70
     0
 43
0.0
 10
4217.606828009816
 20
-3460.252488672236
 10
4217.606828009816
 20
-3462.335823669532
 10
4223.256133009932
 20
-3462.335823669532
 10
4223.256133009932
 20
-3460.252488672236
 10
4217.606828009816
 20
-3460.252488672236
  0
HATCH
  5
2D6
330
1F
100
AcDbEntity
  8
Ech.1_2
 62
   252
440
 33554687
370
     5
100
AcDbHatch
 10
0.0
 20
0.0
 30
0.0
210
0.0
220
0.0
230
1.0
  2
SOLID
 70
     1
 71
     1
 91
        1
 92
        3
 72
     0
 73
     1
 93
        4
 10
4217.606828009816
 20
-3462.335821173588
 10
4217.606828009816
 20
-3464.419156170884
 10
4223.256133009932
 20
-3464.419156170884
 10
4223.256133009932
 20
-3462.335821173588
 97
        0
 75
     0
 76
     1
 98
        0
  0
LWPOLYLINE
  5
2D7
330
1F
100
AcDbEntity
  8
Ech.1_2
 62
     7
370
     9
100
AcDbPolyline
 90
        5
 70
     0
 43
0.0
 10
4217.606828009816
 20
-3462.335821173588
 10
4217.606828009816
 20
-3464.419156170884
 10
4223.256133009932
 20
-3464.419156170884
 10
4223.256133009932
 20
-3462.335821173588
 10
4217.606828009816
 20
-3462.335821173588
  0
HATCH
  5
2D8
330
1F
100
AcDbEntity
  8
Ech.1_2
 62
   252
440
 33554687
370
     5
100
AcDbHatch
 10
0.0
 20
0.0
 30
0.0
210
0.0
220
0.0
230
1.0
  2
SOLID
 70
     1
 71
     1
 91
        1
 92
        3
 72
     0
 73
     1
 93
        4
 10
4217.606828009816
 20
-3464.419156170884
 10
4217.606828009816
 20
-3466.50249116818
 10
4223.256133009932
 20
-3466.50249116818
 10
4223.256133009932
 20
-3464.419156170884
 97
        0
 75
     0
 76
     1
 98
        0
  0
LWPOLYLINE
  5
2D9
330
1F
100
AcDbEntity
  8
Ech.1_2
 62
     7
370
     9
100
AcDbPolyline
 90
        5
 70
     0
 43
0.0
 10
4217.606828009816
 20
-3464.419156170884
 10
4217.606828009816
 20
-3466.50249116818
 10
4223.256133009932
 20
-3466.50249116818
 10
4223.256133009932
 20
-3464.419156170884
 10
4217.606828009816
 20
-3464.419156170884
  0
HATCH
  5
2DA
330
1F
100
AcDbEntity
  8
Ech.1_2
 62
   252
440
 33554687
370
     5
100
AcDbHatch
 10
0.0
 20
0.0
 30
0.0
210
0.0
220
0.0
230
1.0
  2
SOLID
 70
     1
 71
     1
 91
        1
 92
        3
 72
     0
 73
     1
 93
        4
 10
4217.606828009816
 20
-3466.502486176291
 10
4217.606828009816
 20
-3468.585821173588
 10
4223.256133009932
 20
-3468.585821173588
 10
4223.256133009932
 20
-3466.502486176291
 97
        0
 75
     0
 76
     1
 98
        0
  0
LWPOLYLINE
  5
2DB
330
1F
100
AcDbEntity
  8
Ech.1_2
 62
     7
370
     9
100
AcDbPolyline
 90
        5
 70
     0
 43
0.0
 10
4217.606828009816
 20
-3466.502486176291
 10
4217.606828009816
 20
-3468.585821173588
 10
4223.256133009932
 20
-3468.585821173588
 10
4223.256133009932
 20
-3466.502486176291
 10
4217.606828009816
 20
-3466.502486176291
  0
HATCH
  5
2DC
330
1F
100
AcDbEntity
  8
Ech.1_2
 62
   252
440
 33554687
370
     5
100
AcDbHatch
 10
0.0
 20
0.0
 30
0.0
210
0.0
220
0.0
230
1.0
  2
SOLID
 70
     1
 71
     1
 91
        1
 92
        3
 72
     0
 73
     1
 93
        4
 10
4217.606828009816
 20
-3468.585816181699
 10
4217.606828009816
 20
-3470.669151178995
 10
4223.256133009932
 20
-3470.669151178995
 10
4223.256133009932
 20
-3468.585816181699
 97
        0
 75
     0
 76
     1
 98
        0
  0
LWPOLYLINE
  5
2DD
330
1F
100
AcDbEntity
  8
Ech.1_2
 62
     7
370
     9
100
AcDbPolyline
 90
        5
 70
     0
 43
0.0
 10
4217.606828009816
 20
-3468.585816181699
 10
4217.606828009816
 20
-3470.669151178995
 10
4223.256133009932
 20
-3470.669151178995
 10
4223.256133009932
 20
-3468.585816181699
 10
4217.606828009816
 20
-3468.585816181699
  0
HATCH
  5
2DE
330
1F
100
AcDbEntity
  8
Ech.1_2
 62
   252
440
 33554687
370
     5
100
AcDbHatch
 10
0.0
 20
0.0
 30
0.0
210
0.0
220
0.0
230
1.0
  2
SOLID
 70
     1
 71
     1
 91
        1
 92
        3
 72
     0
 73
     1
 93
        4
 10
4217.606828009816
 20
-3470.669151178995
 10
4217.606828009816
 20
-3472.752486176291
 10
4223.256133009932
 20
-3472.752486176291
 10
4223.256133009932
 20
-3470.669151178995
 97
        0
 75
     0
 76
     1
 98
        0
  0
LWPOLYLINE
  5
2DF
330
1F
100
AcDbEntity
  8
Ech.1_2
 62
     7
370
     9
100
AcDbPolyline
 90
        5
 70
     0
 43
0.0
 10
4217.606828009816
 20
-3470.669151178995
 10
4217.606828009816
 20
-3472.752486176291
 10
4223.256133009932
 20
-3472.752486176291
 10
4223.256133009932
 20
-3470.669151178995
 10
4217.606828009816
 20
-3470.669151178995
  0
HATCH
  5
2E0
330
1F
100
AcDbEntity
  8
Ech.1_2
 62
   252
440
 33554687
370
     5
100
AcDbHatch
 10
0.0
 20
0.0
 30
0.0
210
0.0
220
0.0
230
1.0
  2
SOLID
 70
     1
 71
     1
 91
        1
 92
        3
 72
     0
 73
     1
 93
        4
 10
4217.606828009816
 20
-3472.752486176291
 10
4217.606828009816
 20
-3474.835821173588
 10
4223.256133009932
 20
-3474.835821173588
 10
4223.256133009932
 20
-3472.752486176291
 97
        0
 75
     0
 76
     1
 98
        0
  0
LWPOLYLINE
  5
2E1
330
1F
100
AcDbEntity
  8
Ech.1_2
 62
     7
370
     9
100
AcDbPolyline
 90
        5
 70
     0
 43
0.0
 10
4217.606828009816
 20
-3472.752486176291
 10
4217.606828009816
 20
-3474.835821173588
 10
4223.256133009932
 20
-3474.835821173588
 10
4223.256133009932
 20
-3472.752486176291
 10
4217.606828009816
 20
-3472.752486176291
  0
HATCH
  5
2E2
330
1F
100
AcDbEntity
  8
Ech.1_2
 62
   252
440
 33554687
370
     5
100
AcDbHatch
 10
0.0
 20
0.0
 30
0.0
210
0.0
220
0.0
230
1.0
  2
SOLID
 70
     1
 71
     1
 91
        1
 92
        3
 72
     0
 73
     1
 93
        4
 10
4217.606828009816
 20
-3474.835821173588
 10
4217.606828009816
 20
-3476.919156170884
 10
4223.256133009932
 20
-3476.919156170884
 10
4223.256133009932
 20
-3474.835821173588
 97
        0
 75
     0
 76
     1
 98
        0
  0
LWPOLYLINE
  5
2E3
330
1F
100
AcDbEntity
  8
Ech.1_2
 62
     7
370
     9
100
AcDbPolyline
 90
        5
 70
     0
 43
0.0
 10
4217.606828009816
 20
-3474.835821173588
 10
4217.606828009816
 20
-3476.919156170884
 10
4223.256133009932
 20
-3476.919156170884
 10
4223.256133009932
 20
-3474.835821173588
 10
4217.606828009816
 20
-3474.835821173588
  0
HATCH
  5
2E4
330
1F
100
AcDbEntity
  8
Ech.1_2
 62
   252
440
 33554687
370
     5
100
AcDbHatch
 10
0.0
 20
0.0
 30
0.0
210
0.0
220
0.0
230
1.0
  2
SOLID
 70
     1
 71
     1
 91
        1
 92
        3
 72
     0
 73
     1
 93
        4
 10
4217.606828009816
 20
-3476.919151178995
 10
4217.606828009816
 20
-3479.002486176291
 10
4223.256133009932
 20
-3479.002486176291
 10
4223.256133009932
 20
-3476.919151178995
 97
        0
 75
     0
 76
     1
 98
        0
  0
LWPOLYLINE
  5
2E5
330
1F
100
AcDbEntity
  8
Ech.1_2
 62
     7
370
     9
100
AcDbPolyline
 90
        5
 70
     0
 43
0.0
 10
4217.606828009816
 20
-3476.919151178995
 10
4217.606828009816
 20
-3479.002486176291
 10
4223.256133009932
 20
-3479.002486176291
 10
4223.256133009932
 20
-3476.919151178995
 10
4217.606828009816
 20
-3476.919151178995
  0
HATCH
  5
2E6
330
1F
100
AcDbEntity
  8
Ech.1_2
 62
   252
440
 33554687
370
     5
100
AcDbHatch
 10
0.0
 20
0.0
 30
0.0
210
0.0
220
0.0
230
1.0
  2
SOLID
 70
     1
 71
     1
 91
        1
 92
        3
 72
     0
 73
     1
 93
        4
 10
4217.606828009816
 20
-3479.002483680347
 10
4217.606828009816
 20
-3481.085818677643
 10
4223.256133009932
 20
-3481.085818677643
 10
4223.256133009932
 20
-3479.002483680347
 97
        0
 75
     0
 76
     1
 98
        0
  0
LWPOLYLINE
  5
2E7
330
1F
100
AcDbEntity
  8
Ech.1_2
 62
     7
370
     9
100
AcDbPolyline
 90
        5
 70
     0
 43
0.0
 10
4217.606828009816
 20
-3479.002483680347
 10
4217.606828009816
 20
-3481.085818677643
 10
4223.256133009932
 20
-3481.085818677643
 10
4223.256133009932
 20
-3479.002483680347
 10
4217.606828009816
 20
-3479.002483680347
  0
HATCH
  5
2E8
330
1F
100
AcDbEntity
  8
Ech.1_2
 62
   252
440
 33554687
370
     5
100
AcDbHatch
 10
0.0
 20
0.0
 30
0.0
210
0.0
220
0.0
230
1.0
  2
SOLID
 70
     1
 71
     1
 91
        1
 92
        3
 72
     0
 73
     1
 93
        4
 10
4217.606828009816
 20
-3481.085818677643
 10
4217.606828009816
 20
-3483.169153674939
 10
4223.256133009932
 20
-3483.169153674939
 10
4223.256133009932
 20
-3481.085818677643
 97
        0
 75
     0
 76
     1
 98
        0
  0
LWPOLYLINE
  5
2E9
330
1F
100
AcDbEntity
  8
Ech.1_2
 62
     7
370
     9
100
AcDbPolyline
 90
        5
 70
     0
 43
0.0
 10
4217.606828009816
 20
-3481.085818677643
 10
4217.606828009816
 20
-3483.169153674939
 10
4223.256133009932
 20
-3483.169153674939
 10
4223.256133009932
 20
-3481.085818677643
 10
4217.606828009816
 20
-3481.085818677643
  0
HATCH
  5
2EA
330
1F
100
AcDbEntity
  8
Ech.1_2
 62
   252
440
 33554687
370
     5
100
AcDbHatch
 10
0.0
 20
0.0
 30
0.0
210
0.0
220
0.0
230
1.0
  2
SOLID
 70
     1
 71
     1
 91
        1
 92
        3
 72
     0
 73
     1
 93
        4
 10
4217.606828009816
 20
-3483.169151178995
 10
4217.606828009816
 20
-3485.252486176291
 10
4223.256133009932
 20
-3485.252486176291
 10
4223.256133009932
 20
-3483.169151178995
 97
        0
 75
     0
 76
     1
 98
        0
  0
LWPOLYLINE
  5
2EB
330
1F
100
AcDbEntity
  8
Ech.1_2
 62
     7
370
     9
100
AcDbPolyline
 90
        5
 70
     0
 43
0.0
 10
4217.606828009816
 20
-3483.169151178995
 10
4217.606828009816
 20
-3485.252486176291
 10
4223.256133009932
 20
-3485.252486176291
 10
4223.256133009932
 20
-3483.169151178995
 10
4217.606828009816
 20
-3483.169151178995
  0
HATCH
  5
2EC
330
1F
100
AcDbEntity
  8
Ech.1_2
 62
   252
440
 33554687
370
     5
100
AcDbHatch
 10
0.0
 20
0.0
 30
0.0
210
0.0
220
0.0
230
1.0
  2
SOLID
 70
     1
 71
     1
 91
        1
 92
        3
 72
     0
 73
     1
 93
        4
 10
4217.606828009816
 20
-3485.252486176291
 10
4217.606828009816
 20
-3487.335821173588
 10
4223.256133009932
 20
-3487.335821173588
 10
4223.256133009932
 20
-3485.252486176291
 97
        0
 75
     0
 76
     1
 98
        0
  0
LWPOLYLINE
  5
2ED
330
1F
100
AcDbEntity
  8
Ech.1_2
 62
     7
370
     9
100
AcDbPolyline
 90
        5
 70
     0
 43
0.0
 10
4217.606828009816
 20
-3485.252486176291
 10
4217.606828009816
 20
-3487.335821173588
 10
4223.256133009932
 20
-3487.335821173588
 10
4223.256133009932
 20
-3485.252486176291
 10
4217.606828009816
 20
-3485.252486176291
  0
HATCH
  5
2EE
330
1F
100
AcDbEntity
  8
Ech.1_2
 62
   252
440
 33554687
370
     5
100
AcDbHatch
 10
0.0
 20
0.0
 30
0.0
210
0.0
220
0.0
230
1.0
  2
SOLID
 70
     1
 71
     1
 91
        1
 92
        3
 72
     0
 73
     1
 93
        4
 10
4217.606828009816
 20
-3487.335816181699
 10
4217.606828009816
 20
-3489.419151178995
 10
4223.256133009932
 20
-3489.419151178995
 10
4223.256133009932
 20
-3487.335816181699
 97
        0
 75
     0
 76
     1
 98
        0
  0
LWPOLYLINE
  5
2EF
330
1F
100
AcDbEntity
  8
Ech.1_2
 62
     7
370
     9
100
AcDbPolyline
 90
        5
 70
     0
 43
0.0
 10
4217.606828009816
 20
-3487.335816181699
 10
4217.606828009816
 20
-3489.419151178995
 10
4223.256133009932
 20
-3489.419151178995
 10
4223.256133009932
 20
-3487.335816181699
 10
4217.606828009816
 20
-3487.335816181699
  0
HATCH
  5
2F0
330
1F
100
AcDbEntity
  8
Ech.1_2
 62
   252
440
 33554687
370
     5
100
AcDbHatch
 10
0.0
 20
0.0
 30
0.0
210
0.0
220
0.0
230
1.0
  2
SOLID
 70
     1
 71
     1
 91
        1
 92
        3
 72
     0
 73
     1
 93
        4
 10
4217.606828009816
 20
-3489.419151178995
 10
4217.606828009816
 20
-3491.502486176291
 10
4223.256133009932
 20
-3491.502486176291
 10
4223.256133009932
 20
-3489.419151178995
 97
        0
 75
     0
 76
     1
 98
        0
  0
LWPOLYLINE
  5
2F1
330
1F
100
AcDbEntity
  8
Ech.1_2
 62
     7
370
     9
100
AcDbPolyline
 90
        5
 70
     0
 43
0.0
 10
4217.606828009816
 20
-3489.419151178995
 10
4217.606828009816
 20
-3491.502486176291
 10
4223.256133009932
 20
-3491.502486176291
 10
4223.256133009932
 20
-3489.419151178995
 10
4217.606828009816
 20
-3489.419151178995
  0
HATCH
  5
2F2
330
1F
100
AcDbEntity
  8
Ech.1_2
 62
   252
440
 33554687
370
     5
100
AcDbHatch
 10
0.0
 20
0.0
 30
0.0
210
0.0
220
0.0
230
1.0
  2
SOLID
 70
     1
 71
     1
 91
        1
 92
        3
 72
     0
 73
     1
 93
        4
 10
4217.606828009816
 20
-3491.502486176291
 10
4217.606828009816
 20
-3493.585821173588
 10
4223.256133009932
 20
-3493.585821173588
 10
4223.256133009932
 20
-3491.502486176291
 97
        0
 75
     0
 76
     1
 98
        0
  0
LWPOLYLINE
  5
2F3
330
1F
100
AcDbEntity
  8
Ech.1_2
 62
     7
370
     9
100
AcDbPolyline
 90
        5
 70
     0
 43
0.0
 10
4217.606828009816
 20
-3491.502486176291
 10
4217.606828009816
 20
-3493.585821173588
 10
4223.256133009932
 20
-3493.585821173588
 10
4223.256133009932
 20
-3491.502486176291
 10
4217.606828009816
 20
-3491.502486176291
  0
HATCH
  5
2F4
330
1F
100
AcDbEntity
  8
Ech.1_2
 62
   252
440
 33554687
370
     5
100
AcDbHatch
 10
0.0
 20
0.0
 30
0.0
210
0.0
220
0.0
230
1.0
  2
SOLID
 70
     1
 71
     1
 91
        1
 92
        3
 72
     0
 73
     1
 93
        4
 10
4217.606828009816
 20
-3493.585821173588
 10
4217.606828009816
 20
-3495.669156170884
 10
4223.256133009932
 20
-3495.669156170884
 10
4223.256133009932
 20
-3493.585821173588
 97
        0
 75
     0
 76
     1
 98
        0
  0
LWPOLYLINE
  5
2F5
330
1F
100
AcDbEntity
  8
Ech.1_2
 62
     7
370
     9
100
AcDbPolyline
 90
        5
 70
     0
 43
0.0
 10
4217.606828009816
 20
-3493.585821173588
 10
4217.606828009816
 20
-3495.669156170884
 10
4223.256133009932
 20
-3495.669156170884
 10
4223.256133009932
 20
-3493.585821173588
 10
4217.606828009816
 20
-3493.585821173588
  0
HATCH
  5
2F6
330
1F
100
AcDbEntity
  8
Ech.1_2
 62
   252
440
 33554687
370
     5
100
AcDbHatch
 10
0.0
 20
0.0
 30
0.0
210
0.0
220
0.0
230
1.0
  2
SOLID
 70
     1
 71
     1
 91
        1
 92
        3
 72
     1
 73
     1
 93
        4
 10
4223.256133009932
 20
-3507.416861175257
 42
0.0
 10
4223.256133009932
 20
-3504.002481184402
 42
0.0
 10
4217.606828009816
 20
-3504.002481184402
 42
0.0
 10
4217.606828009816
 20
-3507.416861175257
 42
-0.3513591548518968
 97
        0
 75
     0
 76
     1
 98
        0
  0
LWPOLYLINE
  5
2F7
330
1F
100
AcDbEntity
  8
Ech.1_2
 62
     7
370
     9
100
AcDbPolyline
 90
        5
 70
     0
 43
0.0
 10
4223.256133009932
 20
-3507.416861175257
 10
4223.256133009932
 20
-3504.002481184402
 10
4217.606828009816
 20
-3504.002481184402
 10
4217.606828009816
 20
-3507.416861175257
 42
-0.3513591548518972
 10
4223.256133009932
 20
-3507.416861175257
  0
HATCH
  5
2F8
330
1F
100
AcDbEntity
  8
Ech.1_2
 62
   252
440
 33554687
370
     5
100
AcDbHatch
 10
0.0
 20
0.0
 30
0.0
210
0.0
220
0.0
230
1.0
  2
SOLID
 70
     1
 71
     1
 91
        1
 92
        3
 72
     1
 73
     1
 93
        3
 10
4220.431480509947
 20
-3514.071928678709
 42
0.0
 10
4223.256133009932
 20
-3507.416861175257
 42
0.3513591548518968
 10
4217.606828009816
 20
-3507.416861175257
 42
0.0
 97
        0
 75
     0
 76
     1
 98
        0
  0
LWPOLYLINE
  5
2F9
330
1F
100
AcDbEntity
  8
Ech.1_2
 62
     7
370
     9
100
AcDbPolyline
 90
        4
 70
     0
 43
0.0
 10
4220.431480509947
 20
-3514.071928678709
 10
4223.256133009932
 20
-3507.416861175257
 42
0.3513591548518956
 10
4217.606828009816
 20
-3507.416861175257
 10
4220.431480509947
 20
-3514.071928678709
  0
HATCH
  5
2FA
330
1F
100
AcDbEntity
  8
Ech.1_2
 62
   252
440
 33554687
370
     5
100
AcDbHatch
 10
0.0
 20
0.0
 30
0.0
210
0.0
220
0.0
230
1.0
  2
SOLID
 70
     1
 71
     1
 91
        1
 92
        3
 72
     1
 73
     1
 93
        6
 10
4217.606828009834
 20
-3406.085816181699
 42
0.0
 10
4217.606828009816
 20
-3401.710818676906
 42
0.4142135727494552
 10
4216.217938009872
 20
-3400.321928678709
 42
0.0
 10
4224.645023010039
 20
-3400.321928678709
 42
0.4142135726667631
 10
4223.256133009932
 20
-3401.710818676906
 42
0.0
 10
4223.256133009932
 20
-3406.085816181699
 42
0.0
 97
        0
 75
     0
 76
     1
 98
        0
  0
LWPOLYLINE
  5
2FB
330
1F
100
AcDbEntity
  8
Ech.1_2
 62
     7
370
     9
100
AcDbPolyline
 90
        7
 70
     0
 43
0.0
 10
4217.606828009834
 20
-3406.085816181699
 10
4217.606828009816
 20
-3401.710818676906
 42
0.4142135727497837
 10
4216.217938009872
 20
-3400.321928678709
 10
4224.645023010039
 20
-3400.321928678709
 42
0.414213572666436
 10
4223.256133009932
 20
-3401.710818676906
 10
4223.256133009932
 20
-3406.085816181699
 10
4217.606828009834
 20
-3406.085816181699
  0
HATCH
  5
2FC
330
1F
100
AcDbEntity
  8
Ech.1_2
 62
   252
440
 33554687
370
     5
100
AcDbHatch
 10
0.0
 20
0.0
 30
0.0
210
0.0
220
0.0
230
1.0
  2
SOLID
 70
     1
 71
     1
 91
        1
 92
        1
 93
        2
 72
     1
 10
4214.13460544391
 20
-3399.558041176456
 11
4226.728355575838
 21
-3399.558041176456
 72
     2
 10
4220.431480509874
 20
-3430.966049653517
 40
32.03300847706128
 50
78.66327935030459
 51
101.3367206496954
 73
     1
 97
        0
 75
     0
 76
     1
 98
        0
  0
LWPOLYLINE
  5
2FD
330
1F
100
AcDbEntity
  8
Ech.1_2
 62
     7
370
     9
100
AcDbPolyline
 90
        3
 70
     0
 43
0.0
 10
4214.13460544391
 20
-3399.558041176456
 10
4226.728355575838
 20
-3399.558041176456
 42
0.0992555820868614
 10
4214.13460544391
 20
-3399.558041176456
  0
HATCH
  5
2FE
330
1F
100
AcDbEntity
  8
Ech.1_2
 62
   252
440
 33554687
370
     5
100
AcDbHatch
 10
0.0
 20
0.0
 30
0.0
210
0.0
220
0.0
230
1.0
  2
SOLID
 70
     1
 71
     1
 91
        1
 92
        3
 72
     0
 73
     1
 93
        6
 10
4214.134605509976
 20
-3400.321928678709
 10
4216.217938009872
 20
-3400.321928678709
 10
4224.645023010039
 20
-3400.321928678709
 10
4226.728355509917
 20
-3400.321928678713
 10
4226.728355575838
 20
-3399.558041176456
 10
4214.13460544391
 20
-3399.558041176456
 97
        0
 75
     0
 76
     1
 98
        0
  0
LWPOLYLINE
  5
2FF
330
1F
100
AcDbEntity
  8
Ech.1_2
 62
     7
370
     9
100
AcDbPolyline
 90
        7
 70
     0
 43
0.0
 10
4214.134605509976
 20
-3400.321928678709
 10
4216.217938009872
 20
-3400.321928678709
 10
4224.645023010039
 20
-3400.321928678709
 10
4226.728355509917
 20
-3400.321928678713
 10
4226.728355575838
 20
-3399.558041176456
 10
4214.13460544391
 20
-3399.558041176456
 10
4214.134605509976
 20
-3400.321928678709
  0
HATCH
  5
300
330
1F
100
AcDbEntity
  8
Ech.1_2
 62
   252
440
 33554687
370
     5
100
AcDbHatch
 10
0.0
 20
0.0
 30
0.0
210
0.0
220
0.0
230
1.0
  2
SOLID
 70
     1
 71
     1
 91
        1
 92
        3
 72
     0
 73
     1
 93
        4
 10
4217.606828009816
 20
-3495.669156170884
 10
4217.606828009816
 20
-3497.75249116818
 10
4223.256133009932
 20
-3497.75249116818
 10
4223.256133009932
 20
-3495.669156170884
 97
        0
 75
     0
 76
     1
 98
        0
  0
LWPOLYLINE
  5
301
330
1F
100
AcDbEntity
  8
Ech.1_2
 62
     7
370
     9
100
AcDbPolyline
 90
        5
 70
     0
 43
0.0
 10
4217.606828009816
 20
-3495.669156170884
 10
4217.606828009816
 20
-3497.75249116818
 10
4223.256133009932
 20
-3497.75249116818
 10
4223.256133009932
 20
-3495.669156170884
 10
4217.606828009816
 20
-3495.669156170884
  0
LINE
  5
302
330
1F
100
AcDbEntity
  8
Ech.1_2
 62
   190
370
     9
100
AcDbLine
 10
4223.256133009932
 20
-3499.835816181699
 30
0.0
 11
4217.606828009816
 21
-3499.835816181699
 31
0.0
  0
LINE
  5
303
330
1F
100
AcDbEntity
  8
Ech.1_2
 62
   190
370
     9
100
AcDbLine
 10
4223.256133009932
 20
-3501.919151178995
 30
0.0
 11
4217.606828009816
 21
-3501.919151178995
 31
0.0
  0
LINE
  5
304
330
1F
100
AcDbEntity
  8
Ech.1_2
 62
   190
370
     9
100
AcDbLine
 10
4223.256133009932
 20
-3504.002481184402
 30
0.0
 11
4217.606828009816
 21
-3504.002481184402
 31
0.0
  0
LINE
  5
305
330
1F
100
AcDbEntity
  8
Ech.1_2
 62
   190
370
     9
100
AcDbLine
 10
4223.256133009932
 20
-3497.752486176291
 30
0.0
 11
4217.606828009816
 21
-3497.752486176291
 31
0.0
  0
HATCH
  5
306
330
1F
100
AcDbEntity
  8
Ech.1_2
 62
   252
440
 33554687
370
     5
100
AcDbHatch
 10
0.0
 20
0.0
 30
0.0
210
0.0
220
0.0
230
1.0
  2
SOLID
 70
     1
 71
     1
 91
        1
 92
        3
 72
     0
 73
     1
 93
        4
 10
4217.606828009816
 20
-3497.752481184402
 10
4217.606828009816
 20
-3499.835816181699
 10
4223.256133009932
 20
-3499.835816181699
 10
4223.256133009932
 20
-3497.752481184402
 97
        0
 75
     0
 76
     1
 98
        0
  0
LWPOLYLINE
  5
307
330
1F
100
AcDbEntity
  8
Ech.1_2
 62
     7
370
     9
100
AcDbPolyline
 90
        5
 70
     0
 43
0.0
 10
4217.606828009816
 20
-3497.752481184402
 10
4217.606828009816
 20
-3499.835816181699
 10
4223.256133009932
 20
-3499.835816181699
 10
4223.256133009932
 20
-3497.752481184402
 10
4217.606828009816
 20
-3497.752481184402
  0
HATCH
  5
308
330
1F
100
AcDbEntity
  8
Ech.1_2
 62
   252
440
 33554687
370
     5
100
AcDbHatch
 10
0.0
 20
0.0
 30
0.0
210
0.0
220
0.0
230
1.0
  2
SOLID
 70
     1
 71
     1
 91
        1
 92
        3
 72
     0
 73
     1
 93
        4
 10
4217.606828009816
 20
-3501.919146187106
 10
4217.606828009816
 20
-3504.002481184402
 10
4223.256133009932
 20
-3504.002481184402
 10
4223.256133009932
 20
-3501.919146187106
 97
        0
 75
     0
 76
     1
 98
        0
  0
LWPOLYLINE
  5
309
330
1F
100
AcDbEntity
  8
Ech.1_2
 62
     7
370
     9
100
AcDbPolyline
 90
        5
 70
     0
 43
0.0
 10
4217.606828009816
 20
-3501.919146187106
 10
4217.606828009816
 20
-3504.002481184402
 10
4223.256133009932
 20
-3504.002481184402
 10
4223.256133009932
 20
-3501.919146187106
 10
4217.606828009816
 20
-3501.919146187106
  0
HATCH
  5
30A
330
1F
100
AcDbEntity
  8
Ech.1_2
 62
    17
420
  8405056
440
 33554687
370
    20
100
AcDbHatch
 10
0.0
 20
0.0
 30
0.0
210
0.0
220
0.0
230
1.0
  2
SOLID
 70
     1
 71
     1
 91
        1
 92
        3
 72
     0
 73
     1
 93
       10
 10
4012.912202342463
 20
-3270.730280972798
 10
4002.912202343182
 20
-3280.730280972798
 10
4002.912202343182
 20
-3351.554222504815
 10
4012.912202342445
 20
-3360.730280972434
 10
4002.912202343182
 20
-3370.730280971707
 10
4002.912202343182
 20
-3389.036169617671
 10
4052.947961403484
 20
-3389.036169617671
 10
4052.947961403484
 20
-3211.645171747318
 10
4002.912202343182
 20
-3211.645171747318
 10
4002.912202343182
 20
-3260.730280973526
 97
        0
 75
     0
 76
     1
 98
        0
  0
LWPOLYLINE
  5
30B
330
1F
100
AcDbEntity
  8
Ech.1_2
 62
     7
370
    50
100
AcDbPolyline
 90
       11
 70
     0
 43
0.0
 10
4012.912202342463
 20
-3270.730280972798
 10
4002.912202343182
 20
-3280.730280972798
 10
4002.912202343182
 20
-3351.554222504815
 10
4012.912202342445
 20
-3360.730280972434
 10
4002.912202343182
 20
-3370.730280971707
 10
4002.912202343182
 20
-3389.036169617671
 10
4052.947961403484
 20
-3389.036169617671
 10
4052.947961403484
 20
-3211.645171747318
 10
4002.912202343182
 20
-3211.645171747318
 10
4002.912202343182
 20
-3260.730280973526
 10
4012.912202342463
 20
-3270.730280972798
  0
LWPOLYLINE
  5
30C
330
1F
100
AcDbEntity
  8
Ech.1_2
 62
     7
370
    20
100
AcDbPolyline
 90
        8
 70
     0
 43
0.0
 10
4002.912202343182
 20
-3211.645171747318
 10
4002.912202343182
 20
-3260.730280973526
 10
4012.912202342463
 20
-3270.730280972798
 10
4002.912202343182
 20
-3280.730280972798
 10
4002.912202343182
 20
-3351.554222504815
 10
4012.912202342445
 20
-3360.730280972434
 10
4002.912202343182
 20
-3370.730280971707
 10
4002.912202343182
 20
-3389.036169617671
  0
LINE
  5
30D
330
1F
100
AcDbEntity
  8
Ech.1_2
 62
     7
370
    20
100
AcDbLine
 10
4052.947961403484
 20
-3389.036169617671
 30
0.0
 11
4052.947961403484
 21
-3211.645171747318
 31
0.0
  0
LINE
  5
30E
330
1F
100
AcDbEntity
  8
Ech.1_2
 62
   190
370
     9
100
AcDbLine
 10
4054.926089844698
 20
-3333.787383417016
 30
0.0
 11
4054.926089844698
 21
-3321.193633417074
 31
0.0
  0
LINE
  5
30F
330
1F
100
AcDbEntity
  8
Ech.1_2
 62
   190
370
     9
100
AcDbLine
 10
4054.162202342445
 20
-3321.193633417074
 30
0.0
 11
4054.926089844698
 21
-3321.193633417074
 31
0.0
  0
HATCH
  5
310
330
1F
100
AcDbEntity
  8
Ech.1_2
 62
   252
440
 33554687
370
     5
100
AcDbHatch
 10
0.0
 20
0.0
 30
0.0
210
0.0
220
0.0
230
1.0
  2
SOLID
 70
     1
 71
     1
 91
        1
 92
        3
 72
     0
 73
     1
 93
        4
 10
3954.64831483946
 20
-3324.665855916915
 10
3952.564979842164
 20
-3324.665855916915
 10
3952.564979842164
 20
-3330.31516091703
 10
3954.64831483946
 20
-3330.31516091703
 97
        0
 75
     0
 76
     1
 98
        0
  0
LWPOLYLINE
  5
311
330
1F
100
AcDbEntity
  8
Ech.1_2
 62
     7
370
     9
100
AcDbPolyline
 90
        5
 70
     0
 43
0.0
 10
3954.64831483946
 20
-3324.665855916915
 10
3952.564979842164
 20
-3324.665855916915
 10
3952.564979842164
 20
-3330.31516091703
 10
3954.64831483946
 20
-3330.31516091703
 10
3954.64831483946
 20
-3324.665855916915
  0
LINE
  5
312
330
1F
100
AcDbEntity
  8
Ech.1_2
 62
   190
370
     9
100
AcDbLine
 10
3947.067269845902
 20
-3330.31516091703
 30
0.0
 11
4052.773312344248
 21
-3330.31516091703
 31
0.0
  0
LINE
  5
313
330
1F
100
AcDbEntity
  8
Ech.1_2
 62
   190
370
     9
100
AcDbLine
 10
3947.067269845902
 20
-3324.665855916915
 30
0.0
 11
4052.773312344248
 21
-3324.665855916915
 31
0.0
  0
ARC
  5
314
330
1F
100
AcDbEntity
  8
Ech.1_2
 62
   190
370
     9
100
AcDbCircle
 10
4023.518081367612
 20
-3327.490508416972
 30
0.0
 40
32.03300847708562
100
AcDbArc
 50
348.6632793503134
 51
11.33672064968662
  0
LINE
  5
315
330
1F
100
AcDbEntity
  8
Ech.1_2
 62
   190
370
     9
100
AcDbLine
 10
4054.162202342441
 20
-3333.787383417016
 30
0.0
 11
4054.162202342445
 21
-3331.704050917137
 31
0.0
  0
ARC
  5
316
330
1F
100
AcDbEntity
  8
Ech.1_2
 62
   190
370
     9
100
AcDbCircle
 10
4052.773312367698
 20
-3331.704050891777
 30
0.0
 40
1.388889974747184
100
AcDbArc
 50
359.9999989538113
 51
90.00000096739817
  0
LINE
  5
317
330
1F
100
AcDbEntity
  8
Ech.1_2
 62
   190
370
     9
100
AcDbLine
 10
4054.162202342445
 20
-3331.704050917137
 30
0.0
 11
4054.162202342445
 21
-3323.276965916971
 31
0.0
  0
ARC
  5
318
330
1F
100
AcDbEntity
  8
Ech.1_2
 62
   190
370
     9
100
AcDbCircle
 10
4052.773312367977
 20
-3323.276965942447
 30
0.0
 40
1.388889974467716
100
AcDbArc
 50
269.9999990210834
 51
0.0000010509536827
  0
LINE
  5
319
330
1F
100
AcDbEntity
  8
Ech.1_2
 62
   190
370
     9
100
AcDbLine
 10
4054.162202342445
 20
-3321.193633417074
 30
0.0
 11
4054.162202342445
 21
-3323.276965916971
 31
0.0
  0
LINE
  5
31A
330
1F
100
AcDbEntity
  8
Ech.1_2
 62
   190
370
     9
100
AcDbLine
 10
4027.564979842159
 20
-3330.31516091703
 30
0.0
 11
4027.564979842159
 21
-3324.665855916915
 31
0.0
  0
LINE
  5
31B
330
1F
100
AcDbEntity
  8
Ech.1_2
 62
   190
370
     9
100
AcDbLine
 10
4025.481647340807
 20
-3330.31516091703
 30
0.0
 11
4025.481647340807
 21
-3324.665855916915
 31
0.0
  0
LINE
  5
31C
330
1F
100
AcDbEntity
  8
Ech.1_2
 62
   190
370
     9
100
AcDbLine
 10
4033.814979842159
 20
-3330.31516091703
 30
0.0
 11
4033.814979842159
 21
-3324.665855916915
 31
0.0
  0
LINE
  5
31D
330
1F
100
AcDbEntity
  8
Ech.1_2
 62
   190
370
     9
100
AcDbLine
 10
4031.731647340807
 20
-3330.31516091703
 30
0.0
 11
4031.731647340807
 21
-3324.665855916915
 31
0.0
  0
LINE
  5
31E
330
1F
100
AcDbEntity
  8
Ech.1_2
 62
   190
370
     9
100
AcDbLine
 10
4029.648314839455
 20
-3330.31516091703
 30
0.0
 11
4029.648314839455
 21
-3324.665855916915
 31
0.0
  0
LINE
  5
31F
330
1F
100
AcDbEntity
  8
Ech.1_2
 62
   190
370
     9
100
AcDbLine
 10
4040.064979842159
 20
-3330.31516091703
 30
0.0
 11
4040.064979842159
 21
-3324.665855916915
 31
0.0
  0
LINE
  5
320
330
1F
100
AcDbEntity
  8
Ech.1_2
 62
   190
370
     9
100
AcDbLine
 10
4037.981647340807
 20
-3330.31516091703
 30
0.0
 11
4037.981647340807
 21
-3324.665855916915
 31
0.0
  0
LINE
  5
321
330
1F
100
AcDbEntity
  8
Ech.1_2
 62
   190
370
     9
100
AcDbLine
 10
4035.898314839455
 20
-3330.31516091703
 30
0.0
 11
4035.898314839455
 21
-3324.665855916915
 31
0.0
  0
LINE
  5
322
330
1F
100
AcDbEntity
  8
Ech.1_2
 62
   190
370
     9
100
AcDbLine
 10
4042.148314839455
 20
-3330.31516091703
 30
0.0
 11
4042.148314839455
 21
-3324.665855916915
 31
0.0
  0
LINE
  5
323
330
1F
100
AcDbEntity
  8
Ech.1_2
 62
   190
370
     9
100
AcDbLine
 10
4044.231647340807
 20
-3330.31516091703
 30
0.0
 11
4044.231647340807
 21
-3324.665855916915
 31
0.0
  0
LINE
  5
324
330
1F
100
AcDbEntity
  8
Ech.1_2
 62
   190
370
     9
100
AcDbLine
 10
4046.314979842159
 20
-3330.31516091703
 30
0.0
 11
4046.314979842159
 21
-3324.665855916915
 31
0.0
  0
LINE
  5
325
330
1F
100
AcDbEntity
  8
Ech.1_2
 62
   190
370
     9
100
AcDbLine
 10
4048.398314839455
 20
-3330.31516091703
 30
0.0
 11
4048.398314839455
 21
-3324.665855916933
 31
0.0
  0
LINE
  5
326
330
1F
100
AcDbEntity
  8
Ech.1_2
 62
   190
370
     9
100
AcDbLine
 10
3960.89831483946
 20
-3330.31516091703
 30
0.0
 11
3960.89831483946
 21
-3324.665855916915
 31
0.0
  0
LINE
  5
327
330
1F
100
AcDbEntity
  8
Ech.1_2
 62
   190
370
     9
100
AcDbLine
 10
3962.981647340812
 20
-3330.31516091703
 30
0.0
 11
3962.981647340812
 21
-3324.665855916915
 31
0.0
  0
LINE
  5
328
330
1F
100
AcDbEntity
  8
Ech.1_2
 62
   190
370
     9
100
AcDbLine
 10
3958.814979842164
 20
-3330.31516091703
 30
0.0
 11
3958.814979842164
 21
-3324.665855916915
 31
0.0
  0
LINE
  5
329
330
1F
100
AcDbEntity
  8
Ech.1_2
 62
   190
370
     9
100
AcDbLine
 10
3969.231647340812
 20
-3330.31516091703
 30
0.0
 11
3969.231647340812
 21
-3324.665855916915
 31
0.0
  0
LINE
  5
32A
330
1F
100
AcDbEntity
  8
Ech.1_2
 62
   190
370
     9
100
AcDbLine
 10
3967.14831483946
 20
-3330.31516091703
 30
0.0
 11
3967.14831483946
 21
-3324.665855916915
 31
0.0
  0
LINE
  5
32B
330
1F
100
AcDbEntity
  8
Ech.1_2
 62
   190
370
     9
100
AcDbLine
 10
3965.064979842164
 20
-3330.31516091703
 30
0.0
 11
3965.064979842164
 21
-3324.665855916915
 31
0.0
  0
LINE
  5
32C
330
1F
100
AcDbEntity
  8
Ech.1_2
 62
   190
370
     9
100
AcDbLine
 10
3975.481647340812
 20
-3330.31516091703
 30
0.0
 11
3975.481647340812
 21
-3324.665855916915
 31
0.0
  0
LINE
  5
32D
330
1F
100
AcDbEntity
  8
Ech.1_2
 62
   190
370
     9
100
AcDbLine
 10
3973.39831483946
 20
-3330.31516091703
 30
0.0
 11
3973.39831483946
 21
-3324.665855916915
 31
0.0
  0
LINE
  5
32E
330
1F
100
AcDbEntity
  8
Ech.1_2
 62
   190
370
     9
100
AcDbLine
 10
3971.314979842164
 20
-3330.31516091703
 30
0.0
 11
3971.314979842164
 21
-3324.665855916915
 31
0.0
  0
LINE
  5
32F
330
1F
100
AcDbEntity
  8
Ech.1_2
 62
   190
370
     9
100
AcDbLine
 10
3981.731647340812
 20
-3330.31516091703
 30
0.0
 11
3981.731647340812
 21
-3324.665855916915
 31
0.0
  0
LINE
  5
330
330
1F
100
AcDbEntity
  8
Ech.1_2
 62
   190
370
     9
100
AcDbLine
 10
3979.64831483946
 20
-3330.31516091703
 30
0.0
 11
3979.64831483946
 21
-3324.665855916915
 31
0.0
  0
LINE
  5
331
330
1F
100
AcDbEntity
  8
Ech.1_2
 62
   190
370
     9
100
AcDbLine
 10
3977.564979842164
 20
-3330.31516091703
 30
0.0
 11
3977.564979842164
 21
-3324.665855916915
 31
0.0
  0
LINE
  5
332
330
1F
100
AcDbEntity
  8
Ech.1_2
 62
   190
370
     9
100
AcDbLine
 10
3983.814979842164
 20
-3330.31516091703
 30
0.0
 11
3983.814979842164
 21
-3324.665855916915
 31
0.0
  0
LINE
  5
333
330
1F
100
AcDbEntity
  8
Ech.1_2
 62
   190
370
     9
100
AcDbLine
 10
4017.148314839455
 20
-3330.31516091703
 30
0.0
 11
4017.148314839455
 21
-3324.665855916915
 31
0.0
  0
LINE
  5
334
330
1F
100
AcDbEntity
  8
Ech.1_2
 62
   190
370
     9
100
AcDbLine
 10
4015.064979842159
 20
-3330.31516091703
 30
0.0
 11
4015.064979842159
 21
-3324.665855916915
 31
0.0
  0
LINE
  5
335
330
1F
100
AcDbEntity
  8
Ech.1_2
 62
   190
370
     9
100
AcDbLine
 10
4012.981647340807
 20
-3330.31516091703
 30
0.0
 11
4012.981647340807
 21
-3324.665855916915
 31
0.0
  0
LINE
  5
336
330
1F
100
AcDbEntity
  8
Ech.1_2
 62
   190
370
     9
100
AcDbLine
 10
4010.898314839455
 20
-3330.31516091703
 30
0.0
 11
4010.898314839455
 21
-3324.665855916915
 31
0.0
  0
LINE
  5
337
330
1F
100
AcDbEntity
  8
Ech.1_2
 62
   190
370
     9
100
AcDbLine
 10
4004.648314839455
 20
-3330.31516091703
 30
0.0
 11
4004.648314839455
 21
-3324.665855916915
 31
0.0
  0
LINE
  5
338
330
1F
100
AcDbEntity
  8
Ech.1_2
 62
   190
370
     9
100
AcDbLine
 10
4006.731647340807
 20
-3330.31516091703
 30
0.0
 11
4006.731647340807
 21
-3324.665855916915
 31
0.0
  0
LINE
  5
339
330
1F
100
AcDbEntity
  8
Ech.1_2
 62
   190
370
     9
100
AcDbLine
 10
4008.814979842159
 20
-3330.31516091703
 30
0.0
 11
4008.814979842159
 21
-3324.665855916915
 31
0.0
  0
LINE
  5
33A
330
1F
100
AcDbEntity
  8
Ech.1_2
 62
   190
370
     9
100
AcDbLine
 10
3998.39831483946
 20
-3330.31516091703
 30
0.0
 11
3998.39831483946
 21
-3324.665855916915
 31
0.0
  0
LINE
  5
33B
330
1F
100
AcDbEntity
  8
Ech.1_2
 62
   190
370
     9
100
AcDbLine
 10
4000.481647340812
 20
-3330.31516091703
 30
0.0
 11
4000.481647340812
 21
-3324.665855916915
 31
0.0
  0
LINE
  5
33C
330
1F
100
AcDbEntity
  8
Ech.1_2
 62
   190
370
     9
100
AcDbLine
 10
4002.564979842159
 20
-3330.31516091703
 30
0.0
 11
4002.564979842159
 21
-3324.665855916915
 31
0.0
  0
LINE
  5
33D
330
1F
100
AcDbEntity
  8
Ech.1_2
 62
   190
370
     9
100
AcDbLine
 10
3992.14831483946
 20
-3330.31516091703
 30
0.0
 11
3992.14831483946
 21
-3324.665855916915
 31
0.0
  0
LINE
  5
33E
330
1F
100
AcDbEntity
  8
Ech.1_2
 62
   190
370
     9
100
AcDbLine
 10
3994.231647340812
 20
-3330.31516091703
 30
0.0
 11
3994.231647340812
 21
-3324.665855916915
 31
0.0
  0
LINE
  5
33F
330
1F
100
AcDbEntity
  8
Ech.1_2
 62
   190
370
     9
100
AcDbLine
 10
3996.314979842164
 20
-3330.31516091703
 30
0.0
 11
3996.314979842164
 21
-3324.665855916915
 31
0.0
  0
LINE
  5
340
330
1F
100
AcDbEntity
  8
Ech.1_2
 62
   190
370
     9
100
AcDbLine
 10
3985.89831483946
 20
-3330.31516091703
 30
0.0
 11
3985.89831483946
 21
-3324.665855916915
 31
0.0
  0
LINE
  5
341
330
1F
100
AcDbEntity
  8
Ech.1_2
 62
   190
370
     9
100
AcDbLine
 10
3987.981647340812
 20
-3330.31516091703
 30
0.0
 11
3987.981647340812
 21
-3324.665855916915
 31
0.0
  0
LINE
  5
342
330
1F
100
AcDbEntity
  8
Ech.1_2
 62
   190
370
     9
100
AcDbLine
 10
3990.064979842164
 20
-3330.31516091703
 30
0.0
 11
3990.064979842164
 21
-3324.665855916915
 31
0.0
  0
LINE
  5
343
330
1F
100
AcDbEntity
  8
Ech.1_2
 62
   190
370
     9
100
AcDbLine
 10
4021.314979842159
 20
-3330.31516091703
 30
0.0
 11
4021.314979842159
 21
-3324.665855916915
 31
0.0
  0
LINE
  5
344
330
1F
100
AcDbEntity
  8
Ech.1_2
 62
   190
370
     9
100
AcDbLine
 10
4019.231647340807
 20
-3330.31516091703
 30
0.0
 11
4019.231647340807
 21
-3324.665855916915
 31
0.0
  0
LINE
  5
345
330
1F
100
AcDbEntity
  8
Ech.1_2
 62
   190
370
     9
100
AcDbLine
 10
4017.148314839455
 20
-3330.31516091703
 30
0.0
 11
4017.148314839455
 21
-3324.665855916915
 31
0.0
  0
LINE
  5
346
330
1F
100
AcDbEntity
  8
Ech.1_2
 62
   190
370
     9
100
AcDbLine
 10
4023.398314839455
 20
-3330.31516091703
 30
0.0
 11
4023.398314839455
 21
-3324.665855916915
 31
0.0
  0
LINE
  5
347
330
1F
100
AcDbEntity
  8
Ech.1_2
 62
   190
370
     9
100
AcDbLine
 10
3940.412202342445
 20
-3327.490508417045
 30
0.0
 11
3947.067269845902
 21
-3330.31516091703
 31
0.0
  0
ARC
  5
348
330
1F
100
AcDbEntity
  8
Ech.1_2
 62
   190
370
     9
100
AcDbCircle
 10
3943.543892369409
 20
-3327.490508417054
 30
0.0
 40
4.515844991663882
100
AcDbArc
 50
321.2812399141947
 51
38.71876008580534
  0
LINE
  5
349
330
1F
100
AcDbEntity
  8
Ech.1_2
 62
   190
370
     9
100
AcDbLine
 10
3940.412202342445
 20
-3327.490508417045
 30
0.0
 11
3947.067269845902
 21
-3324.665855916915
 31
0.0
  0
HATCH
  5
34A
330
1F
100
AcDbEntity
  8
Ech.1_2
 62
   252
440
 33554687
370
     5
100
AcDbHatch
 10
0.0
 20
0.0
 30
0.0
210
0.0
220
0.0
230
1.0
  2
SOLID
 70
     1
 71
     1
 91
        1
 92
        3
 72
     0
 73
     1
 93
        4
 10
4048.398314839455
 20
-3324.665855916933
 10
4046.314979842159
 20
-3324.665855916915
 10
4046.314979842159
 20
-3330.31516091703
 10
4048.398314839455
 20
-3330.31516091703
 97
        0
 75
     0
 76
     1
 98
        0
  0
LWPOLYLINE
  5
34B
330
1F
100
AcDbEntity
  8
Ech.1_2
 62
     7
370
     9
100
AcDbPolyline
 90
        5
 70
     0
 43
0.0
 10
4048.398314839455
 20
-3324.665855916933
 10
4046.314979842159
 20
-3324.665855916915
 10
4046.314979842159
 20
-3330.31516091703
 10
4048.398314839455
 20
-3330.31516091703
 10
4048.398314839455
 20
-3324.665855916933
  0
HATCH
  5
34C
330
1F
100
AcDbEntity
  8
Ech.1_2
 62
   252
440
 33554687
370
     5
100
AcDbHatch
 10
0.0
 20
0.0
 30
0.0
210
0.0
220
0.0
230
1.0
  2
SOLID
 70
     1
 71
     1
 91
        1
 92
        3
 72
     0
 73
     1
 93
        4
 10
4046.314979842159
 20
-3324.665855916915
 10
4044.231644844863
 20
-3324.665855916915
 10
4044.231644844863
 20
-3330.31516091703
 10
4046.314979842159
 20
-3330.31516091703
 97
        0
 75
     0
 76
     1
 98
        0
  0
LWPOLYLINE
  5
34D
330
1F
100
AcDbEntity
  8
Ech.1_2
 62
     7
370
     9
100
AcDbPolyline
 90
        5
 70
     0
 43
0.0
 10
4046.314979842159
 20
-3324.665855916915
 10
4044.231644844863
 20
-3324.665855916915
 10
4044.231644844863
 20
-3330.31516091703
 10
4046.314979842159
 20
-3330.31516091703
 10
4046.314979842159
 20
-3324.665855916915
  0
HATCH
  5
34E
330
1F
100
AcDbEntity
  8
Ech.1_2
 62
   252
440
 33554687
370
     5
100
AcDbHatch
 10
0.0
 20
0.0
 30
0.0
210
0.0
220
0.0
230
1.0
  2
SOLID
 70
     1
 71
     1
 91
        1
 92
        3
 72
     0
 73
     1
 93
        4
 10
4044.231644844863
 20
-3324.665855916915
 10
4042.148309847566
 20
-3324.665855916915
 10
4042.148309847566
 20
-3330.31516091703
 10
4044.231644844863
 20
-3330.31516091703
 97
        0
 75
     0
 76
     1
 98
        0
  0
LWPOLYLINE
  5
34F
330
1F
100
AcDbEntity
  8
Ech.1_2
 62
     7
370
     9
100
AcDbPolyline
 90
        5
 70
     0
 43
0.0
 10
4044.231644844863
 20
-3324.665855916915
 10
4042.148309847566
 20
-3324.665855916915
 10
4042.148309847566
 20
-3330.31516091703
 10
4044.231644844863
 20
-3330.31516091703
 10
4044.231644844863
 20
-3324.665855916915
  0
HATCH
  5
350
330
1F
100
AcDbEntity
  8
Ech.1_2
 62
   252
440
 33554687
370
     5
100
AcDbHatch
 10
0.0
 20
0.0
 30
0.0
210
0.0
220
0.0
230
1.0
  2
SOLID
 70
     1
 71
     1
 91
        1
 92
        3
 72
     0
 73
     1
 93
        4
 10
4042.148309847566
 20
-3324.665855916915
 10
4040.06497485027
 20
-3324.665855916915
 10
4040.06497485027
 20
-3330.31516091703
 10
4042.148309847566
 20
-3330.31516091703
 97
        0
 75
     0
 76
     1
 98
        0
  0
LWPOLYLINE
  5
351
330
1F
100
AcDbEntity
  8
Ech.1_2
 62
     7
370
     9
100
AcDbPolyline
 90
        5
 70
     0
 43
0.0
 10
4042.148309847566
 20
-3324.665855916915
 10
4040.06497485027
 20
-3324.665855916915
 10
4040.06497485027
 20
-3330.31516091703
 10
4042.148309847566
 20
-3330.31516091703
 10
4042.148309847566
 20
-3324.665855916915
  0
HATCH
  5
352
330
1F
100
AcDbEntity
  8
Ech.1_2
 62
   252
440
 33554687
370
     5
100
AcDbHatch
 10
0.0
 20
0.0
 30
0.0
210
0.0
220
0.0
230
1.0
  2
SOLID
 70
     1
 71
     1
 91
        1
 92
        3
 72
     0
 73
     1
 93
        4
 10
4040.064979842159
 20
-3324.665855916915
 10
4037.981644844863
 20
-3324.665855916915
 10
4037.981644844863
 20
-3330.31516091703
 10
4040.064979842159
 20
-3330.31516091703
 97
        0
 75
     0
 76
     1
 98
        0
  0
LWPOLYLINE
  5
353
330
1F
100
AcDbEntity
  8
Ech.1_2
 62
     7
370
     9
100
AcDbPolyline
 90
        5
 70
     0
 43
0.0
 10
4040.064979842159
 20
-3324.665855916915
 10
4037.981644844863
 20
-3324.665855916915
 10
4037.981644844863
 20
-3330.31516091703
 10
4040.064979842159
 20
-3330.31516091703
 10
4040.064979842159
 20
-3324.665855916915
  0
HATCH
  5
354
330
1F
100
AcDbEntity
  8
Ech.1_2
 62
   252
440
 33554687
370
     5
100
AcDbHatch
 10
0.0
 20
0.0
 30
0.0
210
0.0
220
0.0
230
1.0
  2
SOLID
 70
     1
 71
     1
 91
        1
 92
        3
 72
     0
 73
     1
 93
        4
 10
4037.981647340807
 20
-3324.665855916915
 10
4035.898312343511
 20
-3324.665855916915
 10
4035.898312343511
 20
-3330.315160917048
 10
4037.981647340807
 20
-3330.31516091703
 97
        0
 75
     0
 76
     1
 98
        0
  0
LWPOLYLINE
  5
355
330
1F
100
AcDbEntity
  8
Ech.1_2
 62
     7
370
     9
100
AcDbPolyline
 90
        5
 70
     0
 43
0.0
 10
4037.981647340807
 20
-3324.665855916915
 10
4035.898312343511
 20
-3324.665855916915
 10
4035.898312343511
 20
-3330.315160917048
 10
4037.981647340807
 20
-3330.31516091703
 10
4037.981647340807
 20
-3324.665855916915
  0
HATCH
  5
356
330
1F
100
AcDbEntity
  8
Ech.1_2
 62
   252
440
 33554687
370
     5
100
AcDbHatch
 10
0.0
 20
0.0
 30
0.0
210
0.0
220
0.0
230
1.0
  2
SOLID
 70
     1
 71
     1
 91
        1
 92
        3
 72
     0
 73
     1
 93
        4
 10
4035.898312343511
 20
-3324.665855916915
 10
4033.814977346215
 20
-3324.665855916915
 10
4033.814977346215
 20
-3330.31516091703
 10
4035.898312343511
 20
-3330.315160917048
 97
        0
 75
     0
 76
     1
 98
        0
  0
LWPOLYLINE
  5
357
330
1F
100
AcDbEntity
  8
Ech.1_2
 62
     7
370
     9
100
AcDbPolyline
 90
        5
 70
     0
 43
0.0
 10
4035.898312343511
 20
-3324.665855916915
 10
4033.814977346215
 20
-3324.665855916915
 10
4033.814977346215
 20
-3330.31516091703
 10
4035.898312343511
 20
-3330.315160917048
 10
4035.898312343511
 20
-3324.665855916915
  0
HATCH
  5
358
330
1F
100
AcDbEntity
  8
Ech.1_2
 62
   252
440
 33554687
370
     5
100
AcDbHatch
 10
0.0
 20
0.0
 30
0.0
210
0.0
220
0.0
230
1.0
  2
SOLID
 70
     1
 71
     1
 91
        1
 92
        3
 72
     0
 73
     1
 93
        4
 10
4033.814979842159
 20
-3324.665855916915
 10
4031.731644844863
 20
-3324.665855916915
 10
4031.731644844863
 20
-3330.31516091703
 10
4033.814979842159
 20
-3330.31516091703
 97
        0
 75
     0
 76
     1
 98
        0
  0
LWPOLYLINE
  5
359
330
1F
100
AcDbEntity
  8
Ech.1_2
 62
     7
370
     9
100
AcDbPolyline
 90
        5
 70
     0
 43
0.0
 10
4033.814979842159
 20
-3324.665855916915
 10
4031.731644844863
 20
-3324.665855916915
 10
4031.731644844863
 20
-3330.31516091703
 10
4033.814979842159
 20
-3330.31516091703
 10
4033.814979842159
 20
-3324.665855916915
  0
HATCH
  5
35A
330
1F
100
AcDbEntity
  8
Ech.1_2
 62
   252
440
 33554687
370
     5
100
AcDbHatch
 10
0.0
 20
0.0
 30
0.0
210
0.0
220
0.0
230
1.0
  2
SOLID
 70
     1
 71
     1
 91
        1
 92
        3
 72
     0
 73
     1
 93
        4
 10
4031.731644844863
 20
-3324.665855916915
 10
4029.648309847566
 20
-3324.665855916915
 10
4029.648309847566
 20
-3330.31516091703
 10
4031.731644844863
 20
-3330.31516091703
 97
        0
 75
     0
 76
     1
 98
        0
  0
LWPOLYLINE
  5
35B
330
1F
100
AcDbEntity
  8
Ech.1_2
 62
     7
370
     9
100
AcDbPolyline
 90
        5
 70
     0
 43
0.0
 10
4031.731644844863
 20
-3324.665855916915
 10
4029.648309847566
 20
-3324.665855916915
 10
4029.648309847566
 20
-3330.31516091703
 10
4031.731644844863
 20
-3330.31516091703
 10
4031.731644844863
 20
-3324.665855916915
  0
HATCH
  5
35C
330
1F
100
AcDbEntity
  8
Ech.1_2
 62
   252
440
 33554687
370
     5
100
AcDbHatch
 10
0.0
 20
0.0
 30
0.0
210
0.0
220
0.0
230
1.0
  2
SOLID
 70
     1
 71
     1
 91
        1
 92
        3
 72
     0
 73
     1
 93
        4
 10
4029.648314839455
 20
-3324.665855916915
 10
4027.564979842159
 20
-3324.665855916915
 10
4027.564979842159
 20
-3330.31516091703
 10
4029.648314839455
 20
-3330.31516091703
 97
        0
 75
     0
 76
     1
 98
        0
  0
LWPOLYLINE
  5
35D
330
1F
100
AcDbEntity
  8
Ech.1_2
 62
     7
370
     9
100
AcDbPolyline
 90
        5
 70
     0
 43
0.0
 10
4029.648314839455
 20
-3324.665855916915
 10
4027.564979842159
 20
-3324.665855916915
 10
4027.564979842159
 20
-3330.31516091703
 10
4029.648314839455
 20
-3330.31516091703
 10
4029.648314839455
 20
-3324.665855916915
  0
HATCH
  5
35E
330
1F
100
AcDbEntity
  8
Ech.1_2
 62
   252
440
 33554687
370
     5
100
AcDbHatch
 10
0.0
 20
0.0
 30
0.0
210
0.0
220
0.0
230
1.0
  2
SOLID
 70
     1
 71
     1
 91
        1
 92
        3
 72
     0
 73
     1
 93
        4
 10
4027.564979842159
 20
-3324.665855916915
 10
4025.481644844863
 20
-3324.665855916915
 10
4025.481644844863
 20
-3330.31516091703
 10
4027.564979842159
 20
-3330.31516091703
 97
        0
 75
     0
 76
     1
 98
        0
  0
LWPOLYLINE
  5
35F
330
1F
100
AcDbEntity
  8
Ech.1_2
 62
     7
370
     9
100
AcDbPolyline
 90
        5
 70
     0
 43
0.0
 10
4027.564979842159
 20
-3324.665855916915
 10
4025.481644844863
 20
-3324.665855916915
 10
4025.481644844863
 20
-3330.31516091703
 10
4027.564979842159
 20
-3330.31516091703
 10
4027.564979842159
 20
-3324.665855916915
  0
HATCH
  5
360
330
1F
100
AcDbEntity
  8
Ech.1_2
 62
   252
440
 33554687
370
     5
100
AcDbHatch
 10
0.0
 20
0.0
 30
0.0
210
0.0
220
0.0
230
1.0
  2
SOLID
 70
     1
 71
     1
 91
        1
 92
        3
 72
     0
 73
     1
 93
        4
 10
4025.481644844863
 20
-3324.665855916915
 10
4023.398309847566
 20
-3324.665855916915
 10
4023.398309847566
 20
-3330.31516091703
 10
4025.481644844863
 20
-3330.31516091703
 97
        0
 75
     0
 76
     1
 98
        0
  0
LWPOLYLINE
  5
361
330
1F
100
AcDbEntity
  8
Ech.1_2
 62
     7
370
     9
100
AcDbPolyline
 90
        5
 70
     0
 43
0.0
 10
4025.481644844863
 20
-3324.665855916915
 10
4023.398309847566
 20
-3324.665855916915
 10
4023.398309847566
 20
-3330.31516091703
 10
4025.481644844863
 20
-3330.31516091703
 10
4025.481644844863
 20
-3324.665855916915
  0
HATCH
  5
362
330
1F
100
AcDbEntity
  8
Ech.1_2
 62
   252
440
 33554687
370
     5
100
AcDbHatch
 10
0.0
 20
0.0
 30
0.0
210
0.0
220
0.0
230
1.0
  2
SOLID
 70
     1
 71
     1
 91
        1
 92
        3
 72
     0
 73
     1
 93
        4
 10
4023.398309847566
 20
-3324.665855916915
 10
4021.31497485027
 20
-3324.665855916915
 10
4021.31497485027
 20
-3330.31516091703
 10
4023.398309847566
 20
-3330.31516091703
 97
        0
 75
     0
 76
     1
 98
        0
  0
LWPOLYLINE
  5
363
330
1F
100
AcDbEntity
  8
Ech.1_2
 62
     7
370
     9
100
AcDbPolyline
 90
        5
 70
     0
 43
0.0
 10
4023.398309847566
 20
-3324.665855916915
 10
4021.31497485027
 20
-3324.665855916915
 10
4021.31497485027
 20
-3330.31516091703
 10
4023.398309847566
 20
-3330.31516091703
 10
4023.398309847566
 20
-3324.665855916915
  0
HATCH
  5
364
330
1F
100
AcDbEntity
  8
Ech.1_2
 62
   252
440
 33554687
370
     5
100
AcDbHatch
 10
0.0
 20
0.0
 30
0.0
210
0.0
220
0.0
230
1.0
  2
SOLID
 70
     1
 71
     1
 91
        1
 92
        3
 72
     0
 73
     1
 93
        4
 10
4021.31497485027
 20
-3324.665855916915
 10
4019.231639852974
 20
-3324.665855916915
 10
4019.231639852974
 20
-3330.31516091703
 10
4021.31497485027
 20
-3330.31516091703
 97
        0
 75
     0
 76
     1
 98
        0
  0
LWPOLYLINE
  5
365
330
1F
100
AcDbEntity
  8
Ech.1_2
 62
     7
370
     9
100
AcDbPolyline
 90
        5
 70
     0
 43
0.0
 10
4021.31497485027
 20
-3324.665855916915
 10
4019.231639852974
 20
-3324.665855916915
 10
4019.231639852974
 20
-3330.31516091703
 10
4021.31497485027
 20
-3330.31516091703
 10
4021.31497485027
 20
-3324.665855916915
  0
HATCH
  5
366
330
1F
100
AcDbEntity
  8
Ech.1_2
 62
   252
440
 33554687
370
     5
100
AcDbHatch
 10
0.0
 20
0.0
 30
0.0
210
0.0
220
0.0
230
1.0
  2
SOLID
 70
     1
 71
     1
 91
        1
 92
        3
 72
     0
 73
     1
 93
        4
 10
4019.231644844863
 20
-3324.665855916915
 10
4017.148309847566
 20
-3324.665855916915
 10
4017.148309847566
 20
-3330.31516091703
 10
4019.231644844863
 20
-3330.31516091703
 97
        0
 75
     0
 76
     1
 98
        0
  0
LWPOLYLINE
  5
367
330
1F
100
AcDbEntity
  8
Ech.1_2
 62
     7
370
     9
100
AcDbPolyline
 90
        5
 70
     0
 43
0.0
 10
4019.231644844863
 20
-3324.665855916915
 10
4017.148309847566
 20
-3324.665855916915
 10
4017.148309847566
 20
-3330.31516091703
 10
4019.231644844863
 20
-3330.31516091703
 10
4019.231644844863
 20
-3324.665855916915
  0
HATCH
  5
368
330
1F
100
AcDbEntity
  8
Ech.1_2
 62
   252
440
 33554687
370
     5
100
AcDbHatch
 10
0.0
 20
0.0
 30
0.0
210
0.0
220
0.0
230
1.0
  2
SOLID
 70
     1
 71
     1
 91
        1
 92
        3
 72
     0
 73
     1
 93
        4
 10
4017.148312343511
 20
-3324.665855916915
 10
4015.064977346215
 20
-3324.665855916915
 10
4015.064977346215
 20
-3330.31516091703
 10
4017.148312343511
 20
-3330.31516091703
 97
        0
 75
     0
 76
     1
 98
        0
  0
LWPOLYLINE
  5
369
330
1F
100
AcDbEntity
  8
Ech.1_2
 62
     7
370
     9
100
AcDbPolyline
 90
        5
 70
     0
 43
0.0
 10
4017.148312343511
 20
-3324.665855916915
 10
4015.064977346215
 20
-3324.665855916915
 10
4015.064977346215
 20
-3330.31516091703
 10
4017.148312343511
 20
-3330.31516091703
 10
4017.148312343511
 20
-3324.665855916915
  0
HATCH
  5
36A
330
1F
100
AcDbEntity
  8
Ech.1_2
 62
   252
440
 33554687
370
     5
100
AcDbHatch
 10
0.0
 20
0.0
 30
0.0
210
0.0
220
0.0
230
1.0
  2
SOLID
 70
     1
 71
     1
 91
        1
 92
        3
 72
     0
 73
     1
 93
        4
 10
4015.064977346215
 20
-3324.665855916915
 10
4012.981642348918
 20
-3324.665855916915
 10
4012.981642348918
 20
-3330.31516091703
 10
4015.064977346215
 20
-3330.31516091703
 97
        0
 75
     0
 76
     1
 98
        0
  0
LWPOLYLINE
  5
36B
330
1F
100
AcDbEntity
  8
Ech.1_2
 62
     7
370
     9
100
AcDbPolyline
 90
        5
 70
     0
 43
0.0
 10
4015.064977346215
 20
-3324.665855916915
 10
4012.981642348918
 20
-3324.665855916915
 10
4012.981642348918
 20
-3330.31516091703
 10
4015.064977346215
 20
-3330.31516091703
 10
4015.064977346215
 20
-3324.665855916915
  0
HATCH
  5
36C
330
1F
100
AcDbEntity
  8
Ech.1_2
 62
   252
440
 33554687
370
     5
100
AcDbHatch
 10
0.0
 20
0.0
 30
0.0
210
0.0
220
0.0
230
1.0
  2
SOLID
 70
     1
 71
     1
 91
        1
 92
        3
 72
     0
 73
     1
 93
        4
 10
4012.981644844863
 20
-3324.665855916915
 10
4010.898309847566
 20
-3324.665855916915
 10
4010.898309847566
 20
-3330.31516091703
 10
4012.981644844863
 20
-3330.31516091703
 97
        0
 75
     0
 76
     1
 98
        0
  0
LWPOLYLINE
  5
36D
330
1F
100
AcDbEntity
  8
Ech.1_2
 62
     7
370
     9
100
AcDbPolyline
 90
        5
 70
     0
 43
0.0
 10
4012.981644844863
 20
-3324.665855916915
 10
4010.898309847566
 20
-3324.665855916915
 10
4010.898309847566
 20
-3330.31516091703
 10
4012.981644844863
 20
-3330.31516091703
 10
4012.981644844863
 20
-3324.665855916915
  0
HATCH
  5
36E
330
1F
100
AcDbEntity
  8
Ech.1_2
 62
   252
440
 33554687
370
     5
100
AcDbHatch
 10
0.0
 20
0.0
 30
0.0
210
0.0
220
0.0
230
1.0
  2
SOLID
 70
     1
 71
     1
 91
        1
 92
        3
 72
     0
 73
     1
 93
        4
 10
4010.898309847566
 20
-3324.665855916915
 10
4008.81497485027
 20
-3324.665855916915
 10
4008.81497485027
 20
-3330.31516091703
 10
4010.898309847566
 20
-3330.31516091703
 97
        0
 75
     0
 76
     1
 98
        0
  0
LWPOLYLINE
  5
36F
330
1F
100
AcDbEntity
  8
Ech.1_2
 62
     7
370
     9
100
AcDbPolyline
 90
        5
 70
     0
 43
0.0
 10
4010.898309847566
 20
-3324.665855916915
 10
4008.81497485027
 20
-3324.665855916915
 10
4008.81497485027
 20
-3330.31516091703
 10
4010.898309847566
 20
-3330.31516091703
 10
4010.898309847566
 20
-3324.665855916915
  0
HATCH
  5
370
330
1F
100
AcDbEntity
  8
Ech.1_2
 62
   252
440
 33554687
370
     5
100
AcDbHatch
 10
0.0
 20
0.0
 30
0.0
210
0.0
220
0.0
230
1.0
  2
SOLID
 70
     1
 71
     1
 91
        1
 92
        3
 72
     0
 73
     1
 93
        4
 10
4008.814979842159
 20
-3324.665855916915
 10
4006.731644844863
 20
-3324.665855916915
 10
4006.731644844863
 20
-3330.31516091703
 10
4008.814979842159
 20
-3330.31516091703
 97
        0
 75
     0
 76
     1
 98
        0
  0
LWPOLYLINE
  5
371
330
1F
100
AcDbEntity
  8
Ech.1_2
 62
     7
370
     9
100
AcDbPolyline
 90
        5
 70
     0
 43
0.0
 10
4008.814979842159
 20
-3324.665855916915
 10
4006.731644844863
 20
-3324.665855916915
 10
4006.731644844863
 20
-3330.31516091703
 10
4008.814979842159
 20
-3330.31516091703
 10
4008.814979842159
 20
-3324.665855916915
  0
HATCH
  5
372
330
1F
100
AcDbEntity
  8
Ech.1_2
 62
   252
440
 33554687
370
     5
100
AcDbHatch
 10
0.0
 20
0.0
 30
0.0
210
0.0
220
0.0
230
1.0
  2
SOLID
 70
     1
 71
     1
 91
        1
 92
        3
 72
     0
 73
     1
 93
        4
 10
4006.731644844863
 20
-3324.665855916915
 10
4004.648309847566
 20
-3324.665855916915
 10
4004.648309847566
 20
-3330.31516091703
 10
4006.731644844863
 20
-3330.31516091703
 97
        0
 75
     0
 76
     1
 98
        0
  0
LWPOLYLINE
  5
373
330
1F
100
AcDbEntity
  8
Ech.1_2
 62
     7
370
     9
100
AcDbPolyline
 90
        5
 70
     0
 43
0.0
 10
4006.731644844863
 20
-3324.665855916915
 10
4004.648309847566
 20
-3324.665855916915
 10
4004.648309847566
 20
-3330.31516091703
 10
4006.731644844863
 20
-3330.31516091703
 10
4006.731644844863
 20
-3324.665855916915
  0
HATCH
  5
374
330
1F
100
AcDbEntity
  8
Ech.1_2
 62
   252
440
 33554687
370
     5
100
AcDbHatch
 10
0.0
 20
0.0
 30
0.0
210
0.0
220
0.0
230
1.0
  2
SOLID
 70
     1
 71
     1
 91
        1
 92
        3
 72
     0
 73
     1
 93
        4
 10
4004.648309847566
 20
-3324.665855916915
 10
4002.56497485027
 20
-3324.665855916915
 10
4002.56497485027
 20
-3330.31516091703
 10
4004.648309847566
 20
-3330.31516091703
 97
        0
 75
     0
 76
     1
 98
        0
  0
LWPOLYLINE
  5
375
330
1F
100
AcDbEntity
  8
Ech.1_2
 62
     7
370
     9
100
AcDbPolyline
 90
        5
 70
     0
 43
0.0
 10
4004.648309847566
 20
-3324.665855916915
 10
4002.56497485027
 20
-3324.665855916915
 10
4002.56497485027
 20
-3330.31516091703
 10
4004.648309847566
 20
-3330.31516091703
 10
4004.648309847566
 20
-3324.665855916915
  0
HATCH
  5
376
330
1F
100
AcDbEntity
  8
Ech.1_2
 62
   252
440
 33554687
370
     5
100
AcDbHatch
 10
0.0
 20
0.0
 30
0.0
210
0.0
220
0.0
230
1.0
  2
SOLID
 70
     1
 71
     1
 91
        1
 92
        3
 72
     0
 73
     1
 93
        4
 10
4002.56497485027
 20
-3324.665855916915
 10
4000.481639852974
 20
-3324.665855916915
 10
4000.481639852978
 20
-3330.31516091703
 10
4002.56497485027
 20
-3330.31516091703
 97
        0
 75
     0
 76
     1
 98
        0
  0
LWPOLYLINE
  5
377
330
1F
100
AcDbEntity
  8
Ech.1_2
 62
     7
370
     9
100
AcDbPolyline
 90
        5
 70
     0
 43
0.0
 10
4002.56497485027
 20
-3324.665855916915
 10
4000.481639852974
 20
-3324.665855916915
 10
4000.481639852978
 20
-3330.31516091703
 10
4002.56497485027
 20
-3330.31516091703
 10
4002.56497485027
 20
-3324.665855916915
  0
HATCH
  5
378
330
1F
100
AcDbEntity
  8
Ech.1_2
 62
   252
440
 33554687
370
     5
100
AcDbHatch
 10
0.0
 20
0.0
 30
0.0
210
0.0
220
0.0
230
1.0
  2
SOLID
 70
     1
 71
     1
 91
        1
 92
        3
 72
     0
 73
     1
 93
        4
 10
4000.481639852974
 20
-3324.665855916915
 10
3998.398304855682
 20
-3324.665855916915
 10
3998.398304855682
 20
-3330.31516091703
 10
4000.481639852978
 20
-3330.31516091703
 97
        0
 75
     0
 76
     1
 98
        0
  0
LWPOLYLINE
  5
379
330
1F
100
AcDbEntity
  8
Ech.1_2
 62
     7
370
     9
100
AcDbPolyline
 90
        5
 70
     0
 43
0.0
 10
4000.481639852974
 20
-3324.665855916915
 10
3998.398304855682
 20
-3324.665855916915
 10
3998.398304855682
 20
-3330.31516091703
 10
4000.481639852978
 20
-3330.31516091703
 10
4000.481639852974
 20
-3324.665855916915
  0
HATCH
  5
37A
330
1F
100
AcDbEntity
  8
Ech.1_2
 62
   252
440
 33554687
370
     5
100
AcDbHatch
 10
0.0
 20
0.0
 30
0.0
210
0.0
220
0.0
230
1.0
  2
SOLID
 70
     1
 71
     1
 91
        1
 92
        3
 72
     0
 73
     1
 93
        4
 10
3998.398309847571
 20
-3324.665855916915
 10
3996.314974850275
 20
-3324.665855916915
 10
3996.314974850275
 20
-3330.31516091703
 10
3998.398309847571
 20
-3330.31516091703
 97
        0
 75
     0
 76
     1
 98
        0
  0
LWPOLYLINE
  5
37B
330
1F
100
AcDbEntity
  8
Ech.1_2
 62
     7
370
     9
100
AcDbPolyline
 90
        5
 70
     0
 43
0.0
 10
3998.398309847571
 20
-3324.665855916915
 10
3996.314974850275
 20
-3324.665855916915
 10
3996.314974850275
 20
-3330.31516091703
 10
3998.398309847571
 20
-3330.31516091703
 10
3998.398309847571
 20
-3324.665855916915
  0
HATCH
  5
37C
330
1F
100
AcDbEntity
  8
Ech.1_2
 62
   252
440
 33554687
370
     5
100
AcDbHatch
 10
0.0
 20
0.0
 30
0.0
210
0.0
220
0.0
230
1.0
  2
SOLID
 70
     1
 71
     1
 91
        1
 92
        3
 72
     0
 73
     1
 93
        4
 10
3996.314977346219
 20
-3324.665855916915
 10
3994.231642348923
 20
-3324.665855916915
 10
3994.231642348923
 20
-3330.31516091703
 10
3996.314977346219
 20
-3330.31516091703
 97
        0
 75
     0
 76
     1
 98
        0
  0
LWPOLYLINE
  5
37D
330
1F
100
AcDbEntity
  8
Ech.1_2
 62
     7
370
     9
100
AcDbPolyline
 90
        5
 70
     0
 43
0.0
 10
3996.314977346219
 20
-3324.665855916915
 10
3994.231642348923
 20
-3324.665855916915
 10
3994.231642348923
 20
-3330.31516091703
 10
3996.314977346219
 20
-3330.31516091703
 10
3996.314977346219
 20
-3324.665855916915
  0
HATCH
  5
37E
330
1F
100
AcDbEntity
  8
Ech.1_2
 62
   252
440
 33554687
370
     5
100
AcDbHatch
 10
0.0
 20
0.0
 30
0.0
210
0.0
220
0.0
230
1.0
  2
SOLID
 70
     1
 71
     1
 91
        1
 92
        3
 72
     0
 73
     1
 93
        4
 10
3994.231642348923
 20
-3324.665855916915
 10
3992.148307351626
 20
-3324.665855916915
 10
3992.148307351626
 20
-3330.31516091703
 10
3994.231642348923
 20
-3330.31516091703
 97
        0
 75
     0
 76
     1
 98
        0
  0
LWPOLYLINE
  5
37F
330
1F
100
AcDbEntity
  8
Ech.1_2
 62
     7
370
     9
100
AcDbPolyline
 90
        5
 70
     0
 43
0.0
 10
3994.231642348923
 20
-3324.665855916915
 10
3992.148307351626
 20
-3324.665855916915
 10
3992.148307351626
 20
-3330.31516091703
 10
3994.231642348923
 20
-3330.31516091703
 10
3994.231642348923
 20
-3324.665855916915
  0
HATCH
  5
380
330
1F
100
AcDbEntity
  8
Ech.1_2
 62
   252
440
 33554687
370
     5
100
AcDbHatch
 10
0.0
 20
0.0
 30
0.0
210
0.0
220
0.0
230
1.0
  2
SOLID
 70
     1
 71
     1
 91
        1
 92
        3
 72
     0
 73
     1
 93
        4
 10
3992.148309847571
 20
-3324.665855916915
 10
3990.064974850275
 20
-3324.665855916915
 10
3990.064974850275
 20
-3330.31516091703
 10
3992.148309847571
 20
-3330.31516091703
 97
        0
 75
     0
 76
     1
 98
        0
  0
LWPOLYLINE
  5
381
330
1F
100
AcDbEntity
  8
Ech.1_2
 62
     7
370
     9
100
AcDbPolyline
 90
        5
 70
     0
 43
0.0
 10
3992.148309847571
 20
-3324.665855916915
 10
3990.064974850275
 20
-3324.665855916915
 10
3990.064974850275
 20
-3330.31516091703
 10
3992.148309847571
 20
-3330.31516091703
 10
3992.148309847571
 20
-3324.665855916915
  0
HATCH
  5
382
330
1F
100
AcDbEntity
  8
Ech.1_2
 62
   252
440
 33554687
370
     5
100
AcDbHatch
 10
0.0
 20
0.0
 30
0.0
210
0.0
220
0.0
230
1.0
  2
SOLID
 70
     1
 71
     1
 91
        1
 92
        3
 72
     0
 73
     1
 93
        4
 10
3990.064974850275
 20
-3324.665855916915
 10
3987.981639852978
 20
-3324.665855916915
 10
3987.981639852978
 20
-3330.31516091703
 10
3990.064974850275
 20
-3330.31516091703
 97
        0
 75
     0
 76
     1
 98
        0
  0
LWPOLYLINE
  5
383
330
1F
100
AcDbEntity
  8
Ech.1_2
 62
     7
370
     9
100
AcDbPolyline
 90
        5
 70
     0
 43
0.0
 10
3990.064974850275
 20
-3324.665855916915
 10
3987.981639852978
 20
-3324.665855916915
 10
3987.981639852978
 20
-3330.31516091703
 10
3990.064974850275
 20
-3330.31516091703
 10
3990.064974850275
 20
-3324.665855916915
  0
HATCH
  5
384
330
1F
100
AcDbEntity
  8
Ech.1_2
 62
   252
440
 33554687
370
     5
100
AcDbHatch
 10
0.0
 20
0.0
 30
0.0
210
0.0
220
0.0
230
1.0
  2
SOLID
 70
     1
 71
     1
 91
        1
 92
        3
 72
     0
 73
     1
 93
        4
 10
3987.981644844867
 20
-3324.665855916915
 10
3985.898309847571
 20
-3324.665855916915
 10
3985.898309847571
 20
-3330.31516091703
 10
3987.981644844867
 20
-3330.31516091703
 97
        0
 75
     0
 76
     1
 98
        0
  0
LWPOLYLINE
  5
385
330
1F
100
AcDbEntity
  8
Ech.1_2
 62
     7
370
     9
100
AcDbPolyline
 90
        5
 70
     0
 43
0.0
 10
3987.981644844867
 20
-3324.665855916915
 10
3985.898309847571
 20
-3324.665855916915
 10
3985.898309847571
 20
-3330.31516091703
 10
3987.981644844867
 20
-3330.31516091703
 10
3987.981644844867
 20
-3324.665855916915
  0
HATCH
  5
386
330
1F
100
AcDbEntity
  8
Ech.1_2
 62
   252
440
 33554687
370
     5
100
AcDbHatch
 10
0.0
 20
0.0
 30
0.0
210
0.0
220
0.0
230
1.0
  2
SOLID
 70
     1
 71
     1
 91
        1
 92
        3
 72
     0
 73
     1
 93
        4
 10
3985.89831483946
 20
-3324.665855916915
 10
3983.814979842164
 20
-3324.665855916915
 10
3983.814979842164
 20
-3330.31516091703
 10
3985.89831483946
 20
-3330.31516091703
 97
        0
 75
     0
 76
     1
 98
        0
  0
LWPOLYLINE
  5
387
330
1F
100
AcDbEntity
  8
Ech.1_2
 62
     7
370
     9
100
AcDbPolyline
 90
        5
 70
     0
 43
0.0
 10
3985.89831483946
 20
-3324.665855916915
 10
3983.814979842164
 20
-3324.665855916915
 10
3983.814979842164
 20
-3330.31516091703
 10
3985.89831483946
 20
-3330.31516091703
 10
3985.89831483946
 20
-3324.665855916915
  0
HATCH
  5
388
330
1F
100
AcDbEntity
  8
Ech.1_2
 62
   252
440
 33554687
370
     5
100
AcDbHatch
 10
0.0
 20
0.0
 30
0.0
210
0.0
220
0.0
230
1.0
  2
SOLID
 70
     1
 71
     1
 91
        1
 92
        3
 72
     0
 73
     1
 93
        4
 10
3983.814979842164
 20
-3324.665855916915
 10
3981.731644844867
 20
-3324.665855916915
 10
3981.731644844867
 20
-3330.31516091703
 10
3983.814979842164
 20
-3330.31516091703
 97
        0
 75
     0
 76
     1
 98
        0
  0
LWPOLYLINE
  5
389
330
1F
100
AcDbEntity
  8
Ech.1_2
 62
     7
370
     9
100
AcDbPolyline
 90
        5
 70
     0
 43
0.0
 10
3983.814979842164
 20
-3324.665855916915
 10
3981.731644844867
 20
-3324.665855916915
 10
3981.731644844867
 20
-3330.31516091703
 10
3983.814979842164
 20
-3330.31516091703
 10
3983.814979842164
 20
-3324.665855916915
  0
HATCH
  5
38A
330
1F
100
AcDbEntity
  8
Ech.1_2
 62
   252
440
 33554687
370
     5
100
AcDbHatch
 10
0.0
 20
0.0
 30
0.0
210
0.0
220
0.0
230
1.0
  2
SOLID
 70
     1
 71
     1
 91
        1
 92
        3
 72
     0
 73
     1
 93
        4
 10
3981.731644844867
 20
-3324.665855916915
 10
3979.648309847571
 20
-3324.665855916915
 10
3979.648309847571
 20
-3330.31516091703
 10
3981.731644844867
 20
-3330.31516091703
 97
        0
 75
     0
 76
     1
 98
        0
  0
LWPOLYLINE
  5
38B
330
1F
100
AcDbEntity
  8
Ech.1_2
 62
     7
370
     9
100
AcDbPolyline
 90
        5
 70
     0
 43
0.0
 10
3981.731644844867
 20
-3324.665855916915
 10
3979.648309847571
 20
-3324.665855916915
 10
3979.648309847571
 20
-3330.31516091703
 10
3981.731644844867
 20
-3330.31516091703
 10
3981.731644844867
 20
-3324.665855916915
  0
HATCH
  5
38C
330
1F
100
AcDbEntity
  8
Ech.1_2
 62
   252
440
 33554687
370
     5
100
AcDbHatch
 10
0.0
 20
0.0
 30
0.0
210
0.0
220
0.0
230
1.0
  2
SOLID
 70
     1
 71
     1
 91
        1
 92
        3
 72
     0
 73
     1
 93
        4
 10
3979.648309847571
 20
-3324.665855916915
 10
3977.564974850275
 20
-3324.665855916915
 10
3977.564974850275
 20
-3330.31516091703
 10
3979.648309847571
 20
-3330.31516091703
 97
        0
 75
     0
 76
     1
 98
        0
  0
LWPOLYLINE
  5
38D
330
1F
100
AcDbEntity
  8
Ech.1_2
 62
     7
370
     9
100
AcDbPolyline
 90
        5
 70
     0
 43
0.0
 10
3979.648309847571
 20
-3324.665855916915
 10
3977.564974850275
 20
-3324.665855916915
 10
3977.564974850275
 20
-3330.31516091703
 10
3979.648309847571
 20
-3330.31516091703
 10
3979.648309847571
 20
-3324.665855916915
  0
HATCH
  5
38E
330
1F
100
AcDbEntity
  8
Ech.1_2
 62
   252
440
 33554687
370
     5
100
AcDbHatch
 10
0.0
 20
0.0
 30
0.0
210
0.0
220
0.0
230
1.0
  2
SOLID
 70
     1
 71
     1
 91
        1
 92
        3
 72
     0
 73
     1
 93
        4
 10
3977.564979842164
 20
-3324.665855916915
 10
3975.481644844867
 20
-3324.665855916915
 10
3975.481644844867
 20
-3330.31516091703
 10
3977.564979842164
 20
-3330.31516091703
 97
        0
 75
     0
 76
     1
 98
        0
  0
LWPOLYLINE
  5
38F
330
1F
100
AcDbEntity
  8
Ech.1_2
 62
     7
370
     9
100
AcDbPolyline
 90
        5
 70
     0
 43
0.0
 10
3977.564979842164
 20
-3324.665855916915
 10
3975.481644844867
 20
-3324.665855916915
 10
3975.481644844867
 20
-3330.31516091703
 10
3977.564979842164
 20
-3330.31516091703
 10
3977.564979842164
 20
-3324.665855916915
  0
HATCH
  5
390
330
1F
100
AcDbEntity
  8
Ech.1_2
 62
   252
440
 33554687
370
     5
100
AcDbHatch
 10
0.0
 20
0.0
 30
0.0
210
0.0
220
0.0
230
1.0
  2
SOLID
 70
     1
 71
     1
 91
        1
 92
        3
 72
     0
 73
     1
 93
        4
 10
3975.481647340812
 20
-3324.665855916915
 10
3973.398312343515
 20
-3324.665855916915
 10
3973.398312343515
 20
-3330.31516091703
 10
3975.481647340812
 20
-3330.31516091703
 97
        0
 75
     0
 76
     1
 98
        0
  0
LWPOLYLINE
  5
391
330
1F
100
AcDbEntity
  8
Ech.1_2
 62
     7
370
     9
100
AcDbPolyline
 90
        5
 70
     0
 43
0.0
 10
3975.481647340812
 20
-3324.665855916915
 10
3973.398312343515
 20
-3324.665855916915
 10
3973.398312343515
 20
-3330.31516091703
 10
3975.481647340812
 20
-3330.31516091703
 10
3975.481647340812
 20
-3324.665855916915
  0
HATCH
  5
392
330
1F
100
AcDbEntity
  8
Ech.1_2
 62
   252
440
 33554687
370
     5
100
AcDbHatch
 10
0.0
 20
0.0
 30
0.0
210
0.0
220
0.0
230
1.0
  2
SOLID
 70
     1
 71
     1
 91
        1
 92
        3
 72
     0
 73
     1
 93
        4
 10
3973.398312343515
 20
-3324.665855916915
 10
3971.314977346219
 20
-3324.665855916915
 10
3971.314977346219
 20
-3330.31516091703
 10
3973.398312343515
 20
-3330.31516091703
 97
        0
 75
     0
 76
     1
 98
        0
  0
LWPOLYLINE
  5
393
330
1F
100
AcDbEntity
  8
Ech.1_2
 62
     7
370
     9
100
AcDbPolyline
 90
        5
 70
     0
 43
0.0
 10
3973.398312343515
 20
-3324.665855916915
 10
3971.314977346219
 20
-3324.665855916915
 10
3971.314977346219
 20
-3330.31516091703
 10
3973.398312343515
 20
-3330.31516091703
 10
3973.398312343515
 20
-3324.665855916915
  0
HATCH
  5
394
330
1F
100
AcDbEntity
  8
Ech.1_2
 62
   252
440
 33554687
370
     5
100
AcDbHatch
 10
0.0
 20
0.0
 30
0.0
210
0.0
220
0.0
230
1.0
  2
SOLID
 70
     1
 71
     1
 91
        1
 92
        3
 72
     0
 73
     1
 93
        4
 10
3971.314979842164
 20
-3324.665855916915
 10
3969.231644844867
 20
-3324.665855916915
 10
3969.231644844867
 20
-3330.31516091703
 10
3971.314979842164
 20
-3330.31516091703
 97
        0
 75
     0
 76
     1
 98
        0
  0
LWPOLYLINE
  5
395
330
1F
100
AcDbEntity
  8
Ech.1_2
 62
     7
370
     9
100
AcDbPolyline
 90
        5
 70
     0
 43
0.0
 10
3971.314979842164
 20
-3324.665855916915
 10
3969.231644844867
 20
-3324.665855916915
 10
3969.231644844867
 20
-3330.31516091703
 10
3971.314979842164
 20
-3330.31516091703
 10
3971.314979842164
 20
-3324.665855916915
  0
HATCH
  5
396
330
1F
100
AcDbEntity
  8
Ech.1_2
 62
   252
440
 33554687
370
     5
100
AcDbHatch
 10
0.0
 20
0.0
 30
0.0
210
0.0
220
0.0
230
1.0
  2
SOLID
 70
     1
 71
     1
 91
        1
 92
        3
 72
     0
 73
     1
 93
        4
 10
3969.231644844867
 20
-3324.665855916915
 10
3967.148309847571
 20
-3324.665855916915
 10
3967.148309847571
 20
-3330.31516091703
 10
3969.231644844867
 20
-3330.31516091703
 97
        0
 75
     0
 76
     1
 98
        0
  0
LWPOLYLINE
  5
397
330
1F
100
AcDbEntity
  8
Ech.1_2
 62
     7
370
     9
100
AcDbPolyline
 90
        5
 70
     0
 43
0.0
 10
3969.231644844867
 20
-3324.665855916915
 10
3967.148309847571
 20
-3324.665855916915
 10
3967.148309847571
 20
-3330.31516091703
 10
3969.231644844867
 20
-3330.31516091703
 10
3969.231644844867
 20
-3324.665855916915
  0
HATCH
  5
398
330
1F
100
AcDbEntity
  8
Ech.1_2
 62
   252
440
 33554687
370
     5
100
AcDbHatch
 10
0.0
 20
0.0
 30
0.0
210
0.0
220
0.0
230
1.0
  2
SOLID
 70
     1
 71
     1
 91
        1
 92
        3
 72
     0
 73
     1
 93
        4
 10
3967.14831483946
 20
-3324.665855916915
 10
3965.064979842164
 20
-3324.665855916915
 10
3965.064979842164
 20
-3330.31516091703
 10
3967.14831483946
 20
-3330.31516091703
 97
        0
 75
     0
 76
     1
 98
        0
  0
LWPOLYLINE
  5
399
330
1F
100
AcDbEntity
  8
Ech.1_2
 62
     7
370
     9
100
AcDbPolyline
 90
        5
 70
     0
 43
0.0
 10
3967.14831483946
 20
-3324.665855916915
 10
3965.064979842164
 20
-3324.665855916915
 10
3965.064979842164
 20
-3330.31516091703
 10
3967.14831483946
 20
-3330.31516091703
 10
3967.14831483946
 20
-3324.665855916915
  0
HATCH
  5
39A
330
1F
100
AcDbEntity
  8
Ech.1_2
 62
   252
440
 33554687
370
     5
100
AcDbHatch
 10
0.0
 20
0.0
 30
0.0
210
0.0
220
0.0
230
1.0
  2
SOLID
 70
     1
 71
     1
 91
        1
 92
        3
 72
     0
 73
     1
 93
        4
 10
3965.064979842164
 20
-3324.665855916915
 10
3962.981644844867
 20
-3324.665855916915
 10
3962.981644844867
 20
-3330.31516091703
 10
3965.064979842164
 20
-3330.31516091703
 97
        0
 75
     0
 76
     1
 98
        0
  0
LWPOLYLINE
  5
39B
330
1F
100
AcDbEntity
  8
Ech.1_2
 62
     7
370
     9
100
AcDbPolyline
 90
        5
 70
     0
 43
0.0
 10
3965.064979842164
 20
-3324.665855916915
 10
3962.981644844867
 20
-3324.665855916915
 10
3962.981644844867
 20
-3330.31516091703
 10
3965.064979842164
 20
-3330.31516091703
 10
3965.064979842164
 20
-3324.665855916915
  0
HATCH
  5
39C
330
1F
100
AcDbEntity
  8
Ech.1_2
 62
   252
440
 33554687
370
     5
100
AcDbHatch
 10
0.0
 20
0.0
 30
0.0
210
0.0
220
0.0
230
1.0
  2
SOLID
 70
     1
 71
     1
 91
        1
 92
        3
 72
     0
 73
     1
 93
        4
 10
3962.981644844867
 20
-3324.665855916915
 10
3960.898309847571
 20
-3324.665855916915
 10
3960.898309847571
 20
-3330.31516091703
 10
3962.981644844867
 20
-3330.31516091703
 97
        0
 75
     0
 76
     1
 98
        0
  0
LWPOLYLINE
  5
39D
330
1F
100
AcDbEntity
  8
Ech.1_2
 62
     7
370
     9
100
AcDbPolyline
 90
        5
 70
     0
 43
0.0
 10
3962.981644844867
 20
-3324.665855916915
 10
3960.898309847571
 20
-3324.665855916915
 10
3960.898309847571
 20
-3330.31516091703
 10
3962.981644844867
 20
-3330.31516091703
 10
3962.981644844867
 20
-3324.665855916915
  0
HATCH
  5
39E
330
1F
100
AcDbEntity
  8
Ech.1_2
 62
   252
440
 33554687
370
     5
100
AcDbHatch
 10
0.0
 20
0.0
 30
0.0
210
0.0
220
0.0
230
1.0
  2
SOLID
 70
     1
 71
     1
 91
        1
 92
        3
 72
     0
 73
     1
 93
        4
 10
3960.898309847571
 20
-3324.665855916915
 10
3958.814974850275
 20
-3324.665855916915
 10
3958.814974850275
 20
-3330.31516091703
 10
3960.898309847571
 20
-3330.31516091703
 97
        0
 75
     0
 76
     1
 98
        0
  0
LWPOLYLINE
  5
39F
330
1F
100
AcDbEntity
  8
Ech.1_2
 62
     7
370
     9
100
AcDbPolyline
 90
        5
 70
     0
 43
0.0
 10
3960.898309847571
 20
-3324.665855916915
 10
3958.814974850275
 20
-3324.665855916915
 10
3958.814974850275
 20
-3330.31516091703
 10
3960.898309847571
 20
-3330.31516091703
 10
3960.898309847571
 20
-3324.665855916915
  0
HATCH
  5
3A0
330
1F
100
AcDbEntity
  8
Ech.1_2
 62
   252
440
 33554687
370
     5
100
AcDbHatch
 10
0.0
 20
0.0
 30
0.0
210
0.0
220
0.0
230
1.0
  2
SOLID
 70
     1
 71
     1
 91
        1
 92
        3
 72
     1
 73
     1
 93
        4
 10
3947.067269845902
 20
-3330.31516091703
 42
0.0
 10
3950.481649836756
 20
-3330.31516091703
 42
0.0
 10
3950.481649836756
 20
-3324.665855916915
 42
0.0
 10
3947.067269845902
 20
-3324.665855916915
 42
-0.3513591548518968
 97
        0
 75
     0
 76
     1
 98
        0
  0
LWPOLYLINE
  5
3A1
330
1F
100
AcDbEntity
  8
Ech.1_2
 62
     7
370
     9
100
AcDbPolyline
 90
        5
 70
     0
 43
0.0
 10
3947.067269845902
 20
-3330.31516091703
 10
3950.481649836756
 20
-3330.31516091703
 10
3950.481649836756
 20
-3324.665855916915
 10
3947.067269845902
 20
-3324.665855916915
 42
-0.3513591548518972
 10
3947.067269845902
 20
-3330.31516091703
  0
HATCH
  5
3A2
330
1F
100
AcDbEntity
  8
Ech.1_2
 62
   252
440
 33554687
370
     5
100
AcDbHatch
 10
0.0
 20
0.0
 30
0.0
210
0.0
220
0.0
230
1.0
  2
SOLID
 70
     1
 71
     1
 91
        1
 92
        3
 72
     1
 73
     1
 93
        3
 10
3940.412202342445
 20
-3327.490508417045
 42
0.0
 10
3947.067269845902
 20
-3330.31516091703
 42
0.3513591548518968
 10
3947.067269845902
 20
-3324.665855916915
 42
0.0
 97
        0
 75
     0
 76
     1
 98
        0
  0
LWPOLYLINE
  5
3A3
330
1F
100
AcDbEntity
  8
Ech.1_2
 62
     7
370
     9
100
AcDbPolyline
 90
        4
 70
     0
 43
0.0
 10
3940.412202342445
 20
-3327.490508417045
 10
3947.067269845902
 20
-3330.31516091703
 42
0.3513591548518956
 10
3947.067269845902
 20
-3324.665855916915
 10
3940.412202342445
 20
-3327.490508417045
  0
HATCH
  5
3A4
330
1F
100
AcDbEntity
  8
Ech.1_2
 62
   252
440
 33554687
370
     5
100
AcDbHatch
 10
0.0
 20
0.0
 30
0.0
210
0.0
220
0.0
230
1.0
  2
SOLID
 70
     1
 71
     1
 91
        1
 92
        3
 72
     1
 73
     1
 93
        6
 10
4048.398314839455
 20
-3324.665855916933
 42
0.0
 10
4052.773312344248
 20
-3324.665855916915
 42
0.4142135727494552
 10
4054.162202342445
 20
-3323.276965916971
 42
0.0
 10
4054.162202342445
 20
-3331.704050917137
 42
0.4142135726664357
 10
4052.773312344248
 20
-3330.31516091703
 42
0.0
 10
4048.398314839455
 20
-3330.31516091703
 42
0.0
 97
        0
 75
     0
 76
     1
 98
        0
  0
LWPOLYLINE
  5
3A5
330
1F
100
AcDbEntity
  8
Ech.1_2
 62
     7
370
     9
100
AcDbPolyline
 90
        7
 70
     0
 43
0.0
 10
4048.398314839455
 20
-3324.665855916933
 10
4052.773312344248
 20
-3324.665855916915
 42
0.4142135727497837
 10
4054.162202342445
 20
-3323.276965916971
 10
4054.162202342445
 20
-3331.704050917137
 42
0.414213572666436
 10
4052.773312344248
 20
-3330.31516091703
 10
4048.398314839455
 20
-3330.31516091703
 10
4048.398314839455
 20
-3324.665855916933
  0
HATCH
  5
3A6
330
1F
100
AcDbEntity
  8
Ech.1_2
 62
   252
440
 33554687
370
     5
100
AcDbHatch
 10
0.0
 20
0.0
 30
0.0
210
0.0
220
0.0
230
1.0
  2
SOLID
 70
     1
 71
     1
 91
        1
 92
        1
 93
        2
 72
     1
 10
4054.926089844698
 20
-3321.193633351008
 11
4054.926089844698
 21
-3333.787383482936
 72
     2
 10
4023.518081367637
 20
-3327.490508416972
 40
32.03300847706128
 50
348.6632793503045
 51
371.3367206496953
 73
     1
 97
        0
 75
     0
 76
     1
 98
        0
  0
LWPOLYLINE
  5
3A7
330
1F
100
AcDbEntity
  8
Ech.1_2
 62
     7
370
     9
100
AcDbPolyline
 90
        3
 70
     0
 43
0.0
 10
4054.926089844698
 20
-3321.193633351008
 10
4054.926089844698
 20
-3333.787383482936
 42
0.0992555820868614
 10
4054.926089844698
 20
-3321.193633351008
  0
HATCH
  5
3A8
330
1F
100
AcDbEntity
  8
Ech.1_2
 62
   252
440
 33554687
370
     5
100
AcDbHatch
 10
0.0
 20
0.0
 30
0.0
210
0.0
220
0.0
230
1.0
  2
SOLID
 70
     1
 71
     1
 91
        1
 92
        3
 72
     0
 73
     1
 93
        6
 10
4054.162202342445
 20
-3321.193633417074
 10
4054.162202342445
 20
-3323.276965916971
 10
4054.162202342445
 20
-3331.704050917137
 10
4054.162202342441
 20
-3333.787383417016
 10
4054.926089844698
 20
-3333.787383482936
 10
4054.926089844698
 20
-3321.193633351008
 97
        0
 75
     0
 76
     1
 98
        0
  0
LWPOLYLINE
  5
3A9
330
1F
100
AcDbEntity
  8
Ech.1_2
 62
     7
370
     9
100
AcDbPolyline
 90
        7
 70
     0
 43
0.0
 10
4054.162202342445
 20
-3321.193633417074
 10
4054.162202342445
 20
-3323.276965916971
 10
4054.162202342445
 20
-3331.704050917137
 10
4054.162202342441
 20
-3333.787383417016
 10
4054.926089844698
 20
-3333.787383482936
 10
4054.926089844698
 20
-3321.193633351008
 10
4054.162202342445
 20
-3321.193633417074
  0
HATCH
  5
3AA
330
1F
100
AcDbEntity
  8
Ech.1_2
 62
   252
440
 33554687
370
     5
100
AcDbHatch
 10
0.0
 20
0.0
 30
0.0
210
0.0
220
0.0
230
1.0
  2
SOLID
 70
     1
 71
     1
 91
        1
 92
        3
 72
     0
 73
     1
 93
        4
 10
3958.814974850275
 20
-3324.665855916915
 10
3956.731639852978
 20
-3324.665855916915
 10
3956.731639852978
 20
-3330.31516091703
 10
3958.814974850275
 20
-3330.31516091703
 97
        0
 75
     0
 76
     1
 98
        0
  0
LWPOLYLINE
  5
3AB
330
1F
100
AcDbEntity
  8
Ech.1_2
 62
     7
370
     9
100
AcDbPolyline
 90
        5
 70
     0
 43
0.0
 10
3958.814974850275
 20
-3324.665855916915
 10
3956.731639852978
 20
-3324.665855916915
 10
3956.731639852978
 20
-3330.31516091703
 10
3958.814974850275
 20
-3330.31516091703
 10
3958.814974850275
 20
-3324.665855916915
  0
LINE
  5
3AC
330
1F
100
AcDbEntity
  8
Ech.1_2
 62
   190
370
     9
100
AcDbLine
 10
3954.64831483946
 20
-3330.31516091703
 30
0.0
 11
3954.64831483946
 21
-3324.665855916915
 31
0.0
  0
LINE
  5
3AD
330
1F
100
AcDbEntity
  8
Ech.1_2
 62
   190
370
     9
100
AcDbLine
 10
3952.564979842164
 20
-3330.31516091703
 30
0.0
 11
3952.564979842164
 21
-3324.665855916915
 31
0.0
  0
LINE
  5
3AE
330
1F
100
AcDbEntity
  8
Ech.1_2
 62
   190
370
     9
100
AcDbLine
 10
3950.481649836756
 20
-3330.31516091703
 30
0.0
 11
3950.481649836756
 21
-3324.665855916915
 31
0.0
  0
LINE
  5
3AF
330
1F
100
AcDbEntity
  8
Ech.1_2
 62
   190
370
     9
100
AcDbLine
 10
3956.731644844867
 20
-3330.31516091703
 30
0.0
 11
3956.731644844867
 21
-3324.665855916915
 31
0.0
  0
HATCH
  5
3B0
330
1F
100
AcDbEntity
  8
Ech.1_2
 62
   252
440
 33554687
370
     5
100
AcDbHatch
 10
0.0
 20
0.0
 30
0.0
210
0.0
220
0.0
230
1.0
  2
SOLID
 70
     1
 71
     1
 91
        1
 92
        3
 72
     0
 73
     1
 93
        4
 10
3956.731649836756
 20
-3324.665855916915
 10
3954.64831483946
 20
-3324.665855916915
 10
3954.64831483946
 20
-3330.31516091703
 10
3956.731649836756
 20
-3330.31516091703
 97
        0
 75
     0
 76
     1
 98
        0
  0
LWPOLYLINE
  5
3B1
330
1F
100
AcDbEntity
  8
Ech.1_2
 62
     7
370
     9
100
AcDbPolyline
 90
        5
 70
     0
 43
0.0
 10
3956.731649836756
 20
-3324.665855916915
 10
3954.64831483946
 20
-3324.665855916915
 10
3954.64831483946
 20
-3330.31516091703
 10
3956.731649836756
 20
-3330.31516091703
 10
3956.731649836756
 20
-3324.665855916915
  0
HATCH
  5
3B2
330
1F
100
AcDbEntity
  8
Ech.1_2
 62
   252
440
 33554687
370
     5
100
AcDbHatch
 10
0.0
 20
0.0
 30
0.0
210
0.0
220
0.0
230
1.0
  2
SOLID
 70
     1
 71
     1
 91
        1
 92
        3
 72
     0
 73
     1
 93
        4
 10
3952.564984834053
 20
-3324.665855916915
 10
3950.481649836756
 20
-3324.665855916915
 10
3950.481649836756
 20
-3330.31516091703
 10
3952.564984834053
 20
-3330.31516091703
 97
        0
 75
     0
 76
     1
 98
        0
  0
LWPOLYLINE
  5
3B3
330
1F
100
AcDbEntity
  8
Ech.1_2
 62
     7
370
     9
100
AcDbPolyline
 90
        5
 70
     0
 43
0.0
 10
3952.564984834053
 20
-3324.665855916915
 10
3950.481649836756
 20
-3324.665855916915
 10
3950.481649836756
 20
-3330.31516091703
 10
3952.564984834053
 20
-3330.31516091703
 10
3952.564984834053
 20
-3324.665855916915
  0
LWPOLYLINE
  5
3B4
330
1F
100
AcDbEntity
  8
Ech.1_2
 62
   190
370
    20
100
AcDbPolyline
 90
        3
 70
     0
 43
0.0
 10
3903.314146469452
 20
-3382.250297723676
 10
4021.482713713663
 20
-3123.542991873519
 10
4246.21574578458
 20
-3123.542991873519
  0
INSERT
  5
3B5
330
1F
100
AcDbEntity
  8
Ech.1_2
 62
   190
370
    20
100
AcDbBlockReference
  2
cw-line-extremity4
 10
3903.314146469452
 20
-3382.250297723676
 30
0.0
 50
65.45071573908909
  0
LWPOLYLINE
  5
3B6
330
1F
100
AcDbEntity
  8
Ech.1_2
 62
   190
370
    20
100
AcDbPolyline
 90
        3
 70
     0
 43
0.0
 10
4166.75940856619
 20
-3680.375231208004
 10
4166.75940856619
 20
-3311.634614175355
 10
4246.21574578458
 20
-3311.634614175355
  0
INSERT
  5
3B7
330
1F
100
AcDbEntity
  8
Ech.1_2
 62
   190
370
    20
100
AcDbBlockReference
  2
cw-line-extremity4
 10
4166.75940856619
 20
-3680.375231208004
 30
0.0
 50
90.0
  0
LWPOLYLINE
  5
3B8
330
1F
100
AcDbEntity
  8
Ech.1_2
 62
   190
370
    20
100
AcDbPolyline
 90
        3
 70
     0
 43
0.0
 10
4142.287886307381
 20
-3425.745685494812
 10
4142.287886307381
 20
-3251.232096200738
 10
4246.21574578458
 20
-3251.232096200738
  0
INSERT
  5
3B9
330
1F
100
AcDbEntity
  8
Ech.1_2
 62
   190
370
    20
100
AcDbBlockReference
  2
cw-line-extremity4
 10
4142.287886307381
 20
-3425.745685494812
 30
0.0
 50
90.0
  0
LWPOLYLINE
  5
3BA
330
1F
100
AcDbEntity
  8
Ech.1_2
 62
   190
370
    20
100
AcDbPolyline
 90
        3
 70
     0
 43
0.0
 10
4118.671253065886
 20
-3451.571928678004
 10
4118.671253065886
 20
-3184.833776729783
 10
4246.21574578458
 20
-3184.833776729783
  0
INSERT
  5
3BB
330
1F
100
AcDbEntity
  8
Ech.1_2
 62
   190
370
    20
100
AcDbBlockReference
  2
cw-line-extremity4
 10
4118.671253065886
 20
-3451.571928678004
 30
0.0
 50
90.0
  0
LWPOLYLINE
  5
3BC
330
1F
100
AcDbEntity
  8
Ech.1_2
 62
   190
370
    20
100
AcDbPolyline
 90
        3
 70
     0
 43
0.0
 10
3973.08807892467
 20
-3290.728646061634
 10
4021.482713713663
 20
-3123.542991873519
 10
4246.21574578458
 20
-3123.542991873519
  0
INSERT
  5
3BD
330
1F
100
AcDbEntity
  8
Ech.1_2
 62
   190
370
    20
100
AcDbBlockReference
  2
cw-line-extremity4
 10
3973.08807892467
 20
-3290.728646061634
 30
0.0
 50
73.85604461826362
  0
LWPOLYLINE
  5
3BE
330
1F
100
AcDbEntity
  8
Ech.1_2
 62
   154
420
    21156
370
    20
100
AcDbPolyline
 90
      194
 70
     0
 43
0.0
 10
3765.921902156074
 20
-3011.131437833419
 10
3766.848653209932
 20
-3013.806634305016
 10
3767.756528299919
 20
-3016.485378774415
 10
3768.197488619752
 20
-3017.827190257602
 10
3768.626651462165
 20
-3019.171219239414
 10
3769.041657331675
 20
-3020.517909219578
 10
3769.440146732798
 20
-3021.867703697816
 10
3769.81976017005
 20
-3023.221046173856
 10
3770.178138147947
 20
-3024.578380147421
 10
3770.512921171005
 20
-3025.940149118238
 10
3770.821749743742
 20
-3027.306796586031
 10
3771.102264370672
 20
-3028.678766050524
 10
3771.352105556311
 20
-3030.056501011444
 10
3771.568913805177
 20
-3031.440444968515
 10
3771.750329621784
 20
-3032.831041421463
 10
3771.89399351065
 20
-3034.228733870013
 10
3771.950931139841
 20
-3034.930379686302
 10
3771.99754597629
 20
-3035.633965813889
 10
3772.033543083062
 20
-3036.339547690239
 10
3772.05862752322
 20
-3037.047180752817
 10
3772.072504359831
 20
-3037.756920439089
 10
3772.074878655957
 20
-3038.468822186522
 10
3772.065524037956
 20
-3039.182926685803
 10
3772.045078820638
 20
-3039.899088648113
 10
3771.975848381075
 20
-3041.336492225112
 10
3771.877108441483
 20
-3042.778835072948
 10
3771.758791609714
 20
-3044.223916872823
 10
3771.503157701037
 20
-3047.113496053475
 10
3771.385705839828
 20
-3048.553592796648
 10
3771.288407517839
 20
-3049.987627216651
 10
3771.221195342919
 20
-3051.413398994682
 10
3771.201975500562
 20
-3052.122498793332
 10
3771.194001922916
 20
-3052.828707811938
 10
3771.198516185962
 20
-3053.531751010651
 10
3771.216759865681
 20
-3054.231353349619
 10
3771.249974538054
 20
-3054.927239788992
 10
3771.299401779063
 20
-3055.619135288922
 10
3771.366283164688
 20
-3056.306764809555
 10
3771.45186027091
 20
-3056.989853311044
 10
3771.557374673711
 20
-3057.668125753537
 10
3771.684067949073
 20
-3058.341307097186
 10
3771.833181672976
 20
-3059.009122302138
 10
3772.005957421401
 20
-3059.671296328544
 10
3772.20363677033
 20
-3060.327554136555
 10
3772.427461295743
 20
-3060.977620686318
 10
3772.678672573622
 20
-3061.621220937984
 10
3772.958505236771
 20
-3062.258079159671
 10
3773.267492120478
 20
-3062.887849670662
 10
3773.604871771496
 20
-3063.510057787266
 10
3773.969743191498
 20
-3064.124214917193
 10
3774.361205382156
 20
-3064.729832468161
 10
3774.77835734514
 20
-3065.32642184788
 10
3775.220298082126
 20
-3065.913494464066
 10
3775.686126594783
 20
-3066.490561724433
 10
3776.174941884784
 20
-3067.057135036693
 10
3776.685842953802
 20
-3067.612725808563
 10
3777.217928803508
 20
-3068.156845447755
 10
3777.770298435575
 20
-3068.689005361982
 10
3778.342050851675
 20
-3069.208716958959
 10
3778.93228505348
 20
-3069.7154916464
 10
3779.540100042662
 20
-3070.208840832019
 10
3780.164594820894
 20
-3070.68827592353
 10
3780.804868389846
 20
-3071.153308328645
 10
3781.460019751192
 20
-3071.603449455079
 10
3782.129147906604
 20
-3072.038210710547
 10
3782.811351857754
 20
-3072.457103502762
 10
3783.505730606314
 20
-3072.859639239438
 10
3784.211383153955
 20
-3073.245329328287
 10
3784.927408502351
 20
-3073.613685177027
 10
3785.652905653173
 20
-3073.964218193369
 10
3786.386973608095
 20
-3074.296439785027
 10
3787.128711368787
 20
-3074.609861359715
 10
3787.877217936922
 20
-3074.903994325146
 10
3788.631592314172
 20
-3075.178350089037
 10
3789.390933502208
 20
-3075.432440059098
 10
3790.154340502705
 20
-3075.665775643046
 10
3790.920912317332
 20
-3075.877868248594
 10
3791.689747947764
 20
-3076.068229283454
 10
3792.459946395671
 20
-3076.236370155342
 10
3793.230606662726
 20
-3076.381802271971
 10
3794.000827750601
 20
-3076.504037041056
 10
3794.769708660968
 20
-3076.602585870309
 10
3795.536348395499
 20
-3076.676960167444
 10
3796.299845955868
 20
-3076.726671340177
 10
3797.059300343744
 20
-3076.751230796221
 10
3797.813810560802
 20
-3076.750149943289
 10
3798.562475608712
 20
-3076.722940189095
 10
3799.304394489149
 20
-3076.669112941353
 10
3800.038666203781
 20
-3076.588179607777
 10
3800.764389754283
 20
-3076.479651596082
 10
3801.480664142327
 20
-3076.343040313979
 10
3802.186588369584
 20
-3076.177857169185
 10
3802.881261437727
 20
-3075.983613569413
 10
3803.563782348429
 20
-3075.759820922375
 10
3804.23325010336
 20
-3075.505990635787
 10
3804.888763704193
 20
-3075.221634117362
 10
3805.529449818215
 20
-3074.906317512266
 10
3806.154842165399
 20
-3074.560412334633
 10
3806.76478432033
 20
-3074.18490315754
 10
3807.359127628829
 20
-3073.780789929737
 10
3807.937723436713
 20
-3073.349072599972
 10
3808.500423089797
 20
-3072.890751116993
 10
3809.047077933903
 20
-3072.406825429552
 10
3809.577539314848
 20
-3071.898295486392
 10
3810.091658578448
 20
-3071.366161236268
 10
3810.589287070524
 20
-3070.811422627925
 10
3811.070276136891
 20
-3070.235079610112
 10
3811.534477123369
 20
-3069.638132131579
 10
3811.981741375773
 20
-3069.021580141074
 10
3812.411920239925
 20
-3068.386423587346
 10
3812.824865061642
 20
-3067.733662419145
 10
3813.220427186739
 20
-3067.064296585217
 10
3813.598457961038
 20
-3066.379326034313
 10
3813.958808730354
 20
-3065.679750715181
 10
3814.301330840506
 20
-3064.96657057657
 10
3814.625875637312
 20
-3064.240785567229
 10
3814.932294466589
 20
-3063.503395635906
 10
3815.220438674156
 20
-3062.755400731351
 10
3815.490159605832
 20
-3061.99780080231
 10
3815.741308607433
 20
-3061.231595797536
 10
3815.973737024777
 20
-3060.457785665774
 10
3816.187296203684
 20
-3059.677370355776
 10
3816.38183748997
 20
-3058.891349816288
 10
3816.557212229453
 20
-3058.10072399606
 10
3816.713271767953
 20
-3057.306492843841
 10
3816.849867451285
 20
-3056.509656308379
 10
3816.966850625269
 20
-3055.711214338423
 10
3817.064072635722
 20
-3054.912166882722
 10
3817.141384828463
 20
-3054.113513890025
 10
3817.19863854931
 20
-3053.316255309081
 10
3817.235685144079
 20
-3052.521391088638
 10
3817.25237595859
 20
-3051.729921177445
 10
3817.24856233866
 20
-3050.942845524251
 10
3817.224095630108
 20
-3050.161164077805
 10
3817.17882717875
 20
-3049.385876786855
 10
3817.112608330405
 20
-3048.61798360015
 10
3817.025290430891
 20
-3047.85848446644
 10
3816.916724826027
 20
-3047.108379334471
 10
3816.78676286163
 20
-3046.368668152995
 10
3816.635255883517
 20
-3045.640350870759
 10
3816.462055237507
 20
-3044.924427436511
 10
3816.267012269418
 20
-3044.221897799002
 10
3816.049978325069
 20
-3043.53376190698
 10
3815.810804750275
 20
-3042.861019709192
 10
3815.549342890858
 20
-3042.20467115439
 10
3815.265444092632
 20
-3041.56571619132
 10
3814.958959701416
 20
-3040.945154768731
 10
3814.629766018427
 20
-3040.343939771679
 10
3814.278178888504
 20
-3039.762195144407
 10
3813.904889894618
 20
-3039.199336221934
 10
3813.510602715538
 20
-3038.654755527653
 10
3813.096021030042
 20
-3038.127845584951
 10
3812.661848516902
 20
-3037.617998917217
 10
3812.208788854894
 20
-3037.124608047843
 10
3811.737545722792
 20
-3036.647065500216
 10
3811.248822799367
 20
-3036.184763797726
 10
3810.743323763397
 20
-3035.737095463763
 10
3810.221752293654
 20
-3035.303453021715
 10
3809.684812068913
 20
-3034.883228994972
 10
3809.133206767947
 20
-3034.475815906923
 10
3808.567640069532
 20
-3034.080606280958
 10
3807.98881565244
 20
-3033.696992640466
 10
3807.397437195445
 20
-3033.324367508836
 10
3806.794208377324
 20
-3032.962123409457
 10
3806.179832876849
 20
-3032.609652865719
 10
3805.555014372795
 20
-3032.266348401012
 10
3804.920456543934
 20
-3031.931602538723
 10
3804.276863069043
 20
-3031.604807802244
 10
3803.624937626893
 20
-3031.285356714963
 10
3802.29890555592
 20
-3030.666055581552
 10
3800.947989761207
 20
-3030.068839325605
 10
3799.577819672949
 20
-3029.488848134237
 10
3798.194024721336
 20
-3028.921222194562
 10
3795.408077948822
 20
-3027.803626818751
 10
3794.017184988305
 20
-3027.243937756843
 10
3792.635184885207
 20
-3026.677174695086
 10
3791.26770706972
 20
-3026.098477820595
 10
3789.919864813674
 20
-3025.503430663509
 10
3788.592631024192
 20
-3024.891173030409
 10
3787.284987335725
 20
-3024.262555088324
 10
3785.995902690324
 20
-3023.618437906146
 10
3784.724346030044
 20
-3022.959682552772
 10
3783.469286296935
 20
-3022.287150097095
 10
3782.229692433049
 20
-3021.601701608008
 10
3781.004533380439
 20
-3020.904198154406
 10
3779.792778081154
 20
-3020.195500805181
 10
3778.593395477248
 20
-3019.47647062923
 10
3777.405354510772
 20
-3018.747968695445
 10
3776.227624123779
 20
-3018.01085607272
 10
3775.059173258319
 20
-3017.26599382995
 10
3772.745985860209
 20
-3015.756464759848
 10
3770.457543852853
 20
-3014.226270036291
 10
3768.185598772671
 20
-3012.682298210431
 10
3765.921902156074
 20
-3011.131437833419
  0
LWPOLYLINE
  5
3BF
330
1F
100
AcDbEntity
  8
Ech.1_2
 62
   154
420
    21156
370
    20
100
AcDbPolyline
 90
       95
 70
     0
 43
0.0
 10
3809.810810079257
 20
-3040.343300739041
 10
3809.763869923207
 20
-3041.680286847021
 10
3809.716433022177
 20
-3043.040762630617
 10
3809.692373059489
 20
-3043.737149674402
 10
3809.66800263119
 20
-3044.448217765447
 10
3809.643259644156
 20
-3045.176903113204
 10
3809.618082005265
 20
-3045.926141927126
 10
3809.592407621396
 20
-3046.698870416665
 10
3809.566174399425
 20
-3047.498024791272
 10
3809.53932024623
 20
-3048.3265412604
 10
3809.511783068689
 20
-3049.187356033501
 10
3809.483500773679
 20
-3050.083405320027
 10
3809.454411268079
 20
-3051.01762532943
 10
3809.439544407206
 20
-3051.499966920664
 10
3809.424452458765
 20
-3051.992952271162
 10
3809.393827160008
 20
-3053.01046374464
 10
3809.36427510125
 20
-3054.060454237808
 10
3809.338088907634
 20
-3055.129339081097
 10
3809.317561932757
 20
-3056.203528494068
 10
3809.304987530216
 20
-3057.269432696276
 10
3809.302659053608
 20
-3058.313461907279
 10
3809.306053710528
 20
-3058.823026584691
 10
3809.31286985653
 20
-3059.322026346635
 10
3809.323394160813
 20
-3059.808762470556
 10
3809.337913292578
 20
-3060.2815362339
 10
3809.356713921024
 20
-3060.738648914111
 10
3809.38008271535
 20
-3061.178401788632
 10
3809.408306344756
 20
-3061.59909613491
 10
3809.441671478443
 20
-3061.999033230389
 10
3809.480464785608
 20
-3062.376514352513
 10
3809.524972935453
 20
-3062.729840778727
 10
3809.575482597176
 20
-3063.057313786477
 10
3809.632280439977
 20
-3063.357234653204
 10
3809.695653133056
 20
-3063.627904656356
 10
3809.765887345613
 20
-3063.867625073377
 10
3809.843269746846
 20
-3064.074697181711
 10
3809.928087005957
 20
-3064.247422258803
 10
3810.020625792144
 20
-3064.384101582099
 10
3810.121172774605
 20
-3064.48303642904
 10
3810.174538923565
 20
-3064.517818823082
 10
3810.230014622543
 20
-3064.542528077075
 10
3810.28763570519
 20
-3064.556951850703
 10
3810.347438005156
 20
-3064.560877803646
 10
3810.409455626344
 20
-3064.554099158436
 10
3810.473662221542
 20
-3064.536603547926
 10
3810.539956633617
 20
-3064.508619193102
 10
3810.608233062977
 20
-3064.470389245057
 10
3810.750308775186
 20
-3064.364165173677
 10
3810.899042961441
 20
-3064.21987654253
 10
3811.05358922501
 20
-3064.039468560359
 10
3811.213101169164
 20
-3063.824886435907
 10
3811.376732397173
 20
-3063.57807537792
 10
3811.543636512308
 20
-3063.30098059514
 10
3811.712967117837
 20
-3062.995547296311
 10
3811.883877817032
 20
-3062.663720690176
 10
3812.055522213163
 20
-3062.307445985481
 10
3812.227053909497
 20
-3061.928668390967
 10
3812.397626509308
 20
-3061.52933311538
 10
3812.566393615864
 20
-3061.111385367461
 10
3812.732508832436
 20
-3060.676770355956
 10
3812.895125762293
 20
-3060.227433289607
 10
3813.053398008705
 20
-3059.765319377159
 10
3813.206479174943
 20
-3059.292373827357
 10
3813.493682679974
 20
-3058.321768650656
 10
3813.74996510355
 20
-3057.331179429459
 10
3813.864394917965
 20
-3056.833253824032
 10
3813.968555271827
 20
-3056.336167833711
 10
3814.061599768403
 20
-3055.841866667241
 10
3814.142682010965
 20
-3055.352295533365
 10
3814.21095716776
 20
-3054.869396807519
 10
3814.265916191128
 20
-3054.394504946192
 10
3814.30780119052
 20
-3053.927594476519
 10
3814.3369562192
 20
-3053.468455361878
 10
3814.353725330428
 20
-3053.016877565648
 10
3814.358452577468
 20
-3052.572651051205
 10
3814.351482013583
 20
-3052.135565781927
 10
3814.333157692035
 20
-3051.705411721192
 10
3814.303823666085
 20
-3051.281978832377
 10
3814.263823988998
 20
-3050.865057078858
 10
3814.213502714035
 20
-3050.454436424015
 10
3814.153203894459
 20
-3050.049906831224
 10
3814.083271583533
 20
-3049.651258263864
 10
3814.004049834518
 20
-3049.258280685311
 10
3813.915882700679
 20
-3048.870764058942
 10
3813.819114235275
 20
-3048.488498348137
 10
3813.60114952283
 20
-3047.738879526722
 10
3813.352908123283
 20
-3047.007743928088
 10
3813.077142462735
 20
-3046.293411259254
 10
3812.776604967285
 20
-3045.594201227239
 10
3812.454048063035
 20
-3044.908433539065
 10
3812.112224176083
 20
-3044.23442790175
 10
3811.75388573253
 20
-3043.570504022316
 10
3811.381785158477
 20
-3042.914981607781
 10
3810.607307323267
 20
-3041.622420001491
 10
3809.810810079257
 20
-3040.343300739041
  0
LWPOLYLINE
  5
3C0
330
1F
100
AcDbEntity
  8
Ech.1_2
 62
   154
420
    21156
370
    20
100
AcDbPolyline
 90
      171
 70
     0
 43
0.0
 10
3734.963495640673
 20
-3026.197379088026
 10
3735.796927811516
 20
-3029.094594344909
 10
3736.196492009474
 20
-3030.546378397824
 10
3736.575473942474
 20
-3032.001974160105
 10
3736.92701285553
 20
-3033.462652201543
 10
3737.244247993659
 20
-3034.929683091927
 10
3737.387857661192
 20
-3035.665977908531
 10
3737.520318601873
 20
-3036.404337401043
 10
3737.640773221329
 20
-3037.144920390686
 10
3737.748363925186
 20
-3037.887885698683
 10
3737.842233119073
 20
-3038.633392146258
 10
3737.921523208615
 20
-3039.381598554636
 10
3737.985376599439
 20
-3040.132663745038
 10
3738.032935697172
 20
-3040.88674653869
 10
3738.063342907439
 20
-3041.644005756813
 10
3738.075740635871
 20
-3042.404600220634
 10
3738.06927128809
 20
-3043.168688751374
 10
3738.043077269725
 20
-3043.936430170257
 10
3737.997059126772
 20
-3044.707818580699
 10
3737.935333240671
 20
-3045.481932130164
 10
3737.787052750573
 20
-3047.033380798044
 10
3737.642831776754
 20
-3048.580866966726
 10
3737.586180285999
 20
-3049.350027392196
 10
3737.547267687374
 20
-3050.114481126859
 10
3737.531668651902
 20
-3050.872989482048
 10
3737.544957850602
 20
-3051.624313769093
 10
3737.592709954495
 20
-3052.367215299324
 10
3737.631251680582
 20
-3052.735120440427
 10
3737.6804996346
 20
-3053.100455384074
 10
3737.741150650427
 20
-3053.463065294185
 10
3737.81390156194
 20
-3053.822795334673
 10
3737.899449203016
 20
-3054.179490669457
 10
3737.998490407533
 20
-3054.532996462453
 10
3738.111722009369
 20
-3054.883157877576
 10
3738.239840842401
 20
-3055.229820078744
 10
3738.383543740507
 20
-3055.572828229871
 10
3738.543478905343
 20
-3055.912021555693
 10
3738.71961573435
 20
-3056.247156382328
 10
3738.911425002152
 20
-3056.577928141854
 10
3739.11836596587
 20
-3056.904030859773
 10
3739.339897882624
 20
-3057.225158561589
 10
3739.575480009533
 20
-3057.541005272807
 10
3739.82457160372
 20
-3057.851265018931
 10
3740.086631922303
 20
-3058.155631825466
 10
3740.361120222403
 20
-3058.453799717915
 10
3740.64749576114
 20
-3058.745462721783
 10
3740.945217795635
 20
-3059.030314862574
 10
3741.253745583007
 20
-3059.308050165792
 10
3741.572538380376
 20
-3059.578362656942
 10
3741.901055444865
 20
-3059.840946361527
 10
3742.23875603359
 20
-3060.095495305052
 10
3742.585099403675
 20
-3060.341703513022
 10
3742.93954481224
 20
-3060.579265010941
 10
3743.301551516401
 20
-3060.807873824311
 10
3743.670578773284
 20
-3061.027223978639
 10
3744.046085840005
 20
-3061.237009499428
 10
3744.427531973685
 20
-3061.436924412182
 10
3744.814376431447
 20
-3061.626662742407
 10
3745.206078470407
 20
-3061.805918515603
 10
3745.602097347688
 20
-3061.97438575728
 10
3746.001892320411
 20
-3062.131758492939
 10
3746.404922645694
 20
-3062.277730748084
 10
3746.810647580658
 20
-3062.41199654822
 10
3747.218526382423
 20
-3062.53424991885
 10
3747.62801830811
 20
-3062.644184885481
 10
3748.038582614839
 20
-3062.741495473615
 10
3748.44967855973
 20
-3062.825875708757
 10
3748.860765399902
 20
-3062.89701961641
 10
3749.271302392479
 20
-3062.954621222081
 10
3749.680748794576
 20
-3062.998374551271
 10
3750.088563863318
 20
-3063.027973629487
 10
3750.494206855822
 20
-3063.043112482232
 10
3750.897137029211
 20
-3063.04348513501
 10
3751.296813640601
 20
-3063.028785613325
 10
3751.692695947118
 20
-3062.998707942682
 10
3752.084243205877
 20
-3062.952946148585
 10
3752.470914674001
 20
-3062.891194256537
 10
3752.85216960861
 20
-3062.813146292046
 10
3753.227467266823
 20
-3062.718496280612
 10
3753.596266905762
 20
-3062.606938247741
 10
3753.958027782545
 20
-3062.478166218938
 10
3754.312209154295
 20
-3062.331874219706
 10
3754.658271336909
 20
-3062.167758538252
 10
3754.995810704785
 20
-3061.985806231296
 10
3755.324692263545
 20
-3061.786578443226
 10
3755.644812503808
 20
-3061.570703604525
 10
3755.956067916192
 20
-3061.338810145674
 10
3756.258354991314
 20
-3061.091526497154
 10
3756.551570219789
 20
-3060.829481089444
 10
3756.835610092238
 20
-3060.553302353027
 10
3757.110371099276
 20
-3060.263618718381
 10
3757.37574973152
 20
-3059.961058615988
 10
3757.631642479589
 20
-3059.64625047633
 10
3757.877945834099
 20
-3059.319822729887
 10
3758.114556285668
 20
-3058.982403807138
 10
3758.341370324912
 20
-3058.634622138567
 10
3758.558284442449
 20
-3058.277106154651
 10
3758.765195128897
 20
-3057.910484285873
 10
3758.961998874873
 20
-3057.535384962714
 10
3759.148592170994
 20
-3057.152436615654
 10
3759.324871507877
 20
-3056.762267675173
 10
3759.490733376139
 20
-3056.365506571753
 10
3759.646074266398
 20
-3055.962781735876
 10
3759.790790669271
 20
-3055.554721598018
 10
3759.924779075376
 20
-3055.141954588665
 10
3760.047935975329
 20
-3054.725109138294
 10
3760.160157859749
 20
-3054.304813677388
 10
3760.261341219251
 20
-3053.881696636427
 10
3760.351382544453
 20
-3053.456386445891
 10
3760.430178325974
 20
-3053.029511536261
 10
3760.497625054431
 20
-3052.601700338019
 10
3760.553619220437
 20
-3052.173581281644
 10
3760.598057314616
 20
-3051.74578279762
 10
3760.63083582758
 20
-3051.318933316422
 10
3760.651851249948
 20
-3050.893661268535
 10
3760.661000072338
 20
-3050.47059508444
 10
3760.658178785367
 20
-3050.050363194615
 10
3760.643283879652
 20
-3049.633594029543
 10
3760.616211845811
 20
-3049.220916019705
 10
3760.576859174458
 20
-3048.812957595579
 10
3760.525122356215
 20
-3048.410347187648
 10
3760.460897881695
 20
-3048.013713226391
 10
3760.384082241519
 20
-3047.623684142291
 10
3760.294571926302
 20
-3047.240888365828
 10
3760.192263426663
 20
-3046.865954327482
 10
3760.077053233218
 20
-3046.499510457734
 10
3759.948837836584
 20
-3046.142185187065
 10
3759.807513727378
 20
-3045.794606945955
 10
3759.652977396218
 20
-3045.457404164885
 10
3759.485125333722
 20
-3045.131205274336
 10
3759.303873313737
 20
-3044.816603417047
 10
3759.109447138655
 20
-3044.513624392662
 10
3758.902322765703
 20
-3044.221836224846
 10
3758.682983287488
 20
-3043.940793879744
 10
3758.451911796613
 20
-3043.670052323497
 10
3758.209591385683
 20
-3043.409166522245
 10
3757.956505147302
 20
-3043.157691442132
 10
3757.693136174074
 20
-3042.915182049299
 10
3757.419967558603
 20
-3042.681193309889
 10
3757.137482393493
 20
-3042.455280190042
 10
3756.846163771349
 20
-3042.236997655903
 10
3756.546494784774
 20
-3042.025900673611
 10
3756.238958526374
 20
-3041.821544209309
 10
3755.602216564513
 20
-3041.431272699243
 10
3754.939802626599
 20
-3041.062622854842
 10
3754.255581453466
 20
-3040.71203440524
 10
3753.553417785947
 20
-3040.375947079573
 10
3752.837176364877
 20
-3040.050800606977
 10
3751.377919225415
 20
-3039.419089137538
 10
3749.908727961752
 20
-3038.788417830011
 10
3749.18006888543
 20
-3038.464571559802
 10
3748.460520500559
 20
-3038.130304517477
 10
3747.753947547972
 20
-3037.782056432173
 10
3747.064036722488
 20
-3037.416434467148
 10
3746.39192653633
 20
-3037.032442091572
 10
3745.73685154899
 20
-3036.630873248027
 10
3745.098000560525
 20
-3036.212564911177
 10
3744.47456237099
 20
-3035.77835405569
 10
3743.865725780443
 20
-3035.329077656229
 10
3743.270679588939
 20
-3034.86557268746
 10
3742.688612596534
 20
-3034.388676124049
 10
3742.118713603284
 20
-3033.899224940657
 10
3741.560171409247
 20
-3033.398056111955
 10
3741.012174814478
 20
-3032.886006612604
 10
3740.473912619034
 20
-3032.363913417271
 10
3739.944573622971
 20
-3031.832613500622
 10
3739.423346626346
 20
-3031.29294383732
 10
3738.909420429213
 20
-3030.745741402032
 10
3737.900225633654
 20
-3029.632086114156
 10
3736.910499636742
 20
-3028.498343434314
 10
3734.963495640673
 20
-3026.197379088026
  0
LWPOLYLINE
  5
3C1
330
1F
100
AcDbEntity
  8
Ech.1_2
 62
   154
420
    21156
370
    20
100
AcDbPolyline
 90
       70
 70
     0
 43
0.0
 10
3756.907948193216
 20
-3044.830831899872
 10
3756.800029708072
 20
-3045.509100471685
 10
3756.692142931877
 20
-3046.19869961773
 10
3756.584319573582
 20
-3046.910959912239
 10
3756.476591342136
 20
-3047.657211929446
 10
3756.422772808027
 20
-3048.046625638508
 10
3756.368989946488
 20
-3048.448786243582
 10
3756.315246721135
 20
-3048.865110066446
 10
3756.261547095588
 20
-3049.297013428879
 10
3756.207895033464
 20
-3049.74591265266
 10
3756.154294498386
 20
-3050.21322405957
 10
3756.100749453969
 20
-3050.700363971386
 10
3756.047387821866
 20
-3051.208148969278
 10
3755.995387142631
 20
-3051.732317310335
 10
3755.94645323595
 20
-3052.266051302377
 10
3755.864625081815
 20
-3053.334867754661
 10
3755.835150505144
 20
-3053.856275972526
 10
3755.815582042595
 20
-3054.359901356617
 10
3755.807629529557
 20
-3054.838906785749
 10
3755.813002801424
 20
-3055.28645513873
 10
3755.821220930258
 20
-3055.496296311293
 10
3755.833411693588
 20
-3055.695709294373
 10
3755.84978882084
 20
-3055.88383944782
 10
3755.870566041439
 20
-3056.059832131487
 10
3755.895957084807
 20
-3056.222832705225
 10
3755.92617568037
 20
-3056.371986528884
 10
3755.961435557552
 20
-3056.506438962318
 10
3756.001950445774
 20
-3056.625335365374
 10
3756.047934074462
 20
-3056.727821097908
 10
3756.09960017304
 20
-3056.813041519768
 10
3756.157162470933
 20
-3056.880141990808
 10
3756.220834697564
 20
-3056.928267870877
 10
3756.290830582355
 20
-3056.956564519828
 10
3756.367345244287
 20
-3056.96422030996
 10
3756.45020013111
 20
-3056.951287242143
 10
3756.538870939539
 20
-3056.918616416717
 10
3756.63282035044
 20
-3056.867089016248
 10
3756.731511044674
 20
-3056.797586223301
 10
3756.834405703106
 20
-3056.71098922044
 10
3756.940967006596
 20
-3056.608179190229
 10
3757.05065763601
 20
-3056.490037315234
 10
3757.162940272209
 20
-3056.357444778019
 10
3757.277277596056
 20
-3056.211282761149
 10
3757.393132288415
 20
-3056.052432447189
 10
3757.509967030149
 20
-3055.881775018704
 10
3757.627244502121
 20
-3055.700191658258
 10
3757.860978360231
 20
-3055.307771871741
 10
3758.090035309648
 20
-3054.88222254816
 10
3758.310116797276
 20
-3054.430593148031
 10
3758.516924270022
 20
-3053.959933131872
 10
3758.706159174787
 20
-3053.477291960201
 10
3758.873522958479
 20
-3052.989719093537
 10
3759.014717068
 20
-3052.504263992398
 10
3759.125457100116
 20
-3052.027957870082
 10
3759.203330567701
 20
-3051.5654179759
 10
3759.249649798094
 20
-3051.116458155852
 10
3759.266167804473
 20
-3050.680323961372
 10
3759.254637600014
 20
-3050.256260943901
 10
3759.216812197894
 20
-3049.843514654873
 10
3759.154444611292
 20
-3049.441330645726
 10
3759.069287853383
 20
-3049.048954467898
 10
3758.963094937348
 20
-3048.665631672825
 10
3758.837618876361
 20
-3048.290607811944
 10
3758.6946126836
 20
-3047.923128436693
 10
3758.535829372244
 20
-3047.562439098508
 10
3758.363021955469
 20
-3047.207785348827
 10
3758.177943446452
 20
-3046.858412739087
 10
3757.777985204405
 20
-3046.172493145176
 10
3757.34997875152
 20
-3045.498644728272
 10
3756.907948193216
 20
-3044.830831899872
  0
CIRCLE
  5
3C2
330
1F
100
AcDbEntity
  8
Ech.1_2
 62
   154
420
    21156
370
    50
100
AcDbCircle
 10
3768.007596286357
 20
-3041.754459302006
 30
0.0
 40
74.99236516096516
  0
LWPOLYLINE
  5
3C4
330
1F
100
AcDbEntity
  8
Ech.1_2
  6
CADWORK_22
 62
   106
 48
0.6
370
    35
100
AcDbPolyline
 90
        3
 70
   128
 43
0.0
 10
4157.914403348609
 20
-3451.571928678004
 10
4002.912202343218
 20
-3451.571928678004
 10
4002.912202341963
 20
-3246.462924788402
  0
LWPOLYLINE
  5
3C5
330
1F
100
AcDbEntity
  8
Ech.1_2
  6
CADWORK_22
 62
   106
 48
0.6
370
    35
100
AcDbPolyline
 90
        2
 70
   128
 43
0.0
 10
4002.912202341963
 20
-3246.462924788402
 10
3993.566202983843
 20
-3236.664094537055
  0
LWPOLYLINE
  5
3C6
330
1F
100
AcDbEntity
  8
Ech.1_2
  6
CADWORK_22
 62
   106
 48
0.6
370
    35
100
AcDbPolyline
 90
        2
 70
   128
 43
0.0
 10
4167.260402706729
 20
-3461.370758929352
 10
4157.914403348609
 20
-3451.571928678004
  0
DIMENSION
  5
3C8
102
{ACAD_REACTORS
330
3C9
102
}
330
1F
100
AcDbEntity
  8
Ech.1_2
 62
   190
370
    20
100
AcDbDimension
280
     0
  2
*D70
 10
3977.973597020832
 20
-3439.071928678027
 30
0.0
 11
3966.723597020832
 21
-3445.321928678027
 31
0.0
 70
   161
  1
5 mm mini
 71
     5
 42
12.5
 73
     0
 74
     0
 75
     0
 53
90.0
  3
Standard
100
AcDbAlignedDimension
 13
3977.973597020832
 23
-3451.571928678027
 33
0.0
 14
3977.973597020832
 24
-3439.071928678027
 34
0.0
1001
ACAD
1000
DSTYLE
1002
{
1070
   178
1070
   190
1070
   271
1070
     0
1070
   147
1040
0.0
1070
   140
1040
12.5
1070
   340
1005
3C7
1070
   144
1040
1.0
1070
    42
1040
0.0
1070
    44
1040
5.0
1070
    41
1040
5.0
1070
   342
1005
1AB
1070
   175
1070
     1
1070
   279
1070
     2
1070
   172
1070
     1
1002
}
  0
DIMENSION
  5
3D7
102
{ACAD_REACTORS
330
3D8
102
}
330
1F
100
AcDbEntity
  8
Ech.1_2
 62
   190
370
    20
100
AcDbDimension
280
     0
  2
*D71
 10
4039.426196341506
 20
-3389.036169617671
 30
0.0
 11
4028.176196341506
 21
-3395.286169617671
 31
0.0
 70
   161
  1
5 mm mini
 71
     5
 42
12.5
 73
     0
 74
     0
 75
     0
 53
90.0
  3
Standard
100
AcDbAlignedDimension
 13
4039.426196341506
 23
-3401.536169617671
 33
0.0
 14
4039.426196341506
 24
-3389.036169617671
 34
0.0
1001
ACAD
1000
DSTYLE
1002
{
1070
   178
1070
   190
1070
   271
1070
     0
1070
   147
1040
0.0
1070
   140
1040
12.5
1070
   340
1005
3C7
1070
   144
1040
1.0
1070
    42
1040
0.0
1070
    44
1040
5.0
1070
    41
1040
5.0
1070
   342
1005
1AB
1070
   175
1070
     1
1070
   279
1070
     2
1070
   172
1070
     1
1002
}
  0
DIMENSION
  5
3E5
102
{ACAD_REACTORS
330
3E6
102
}
330
1F
100
AcDbEntity
  8
Ech.1_2
 62
   190
370
    20
100
AcDbDimension
280
     0
  2
*D72
 10
4090.414403348259
 20
-3633.481808035876
 30
0.0
 11
4052.913302845736
 21
-3622.231808035876
 31
0.0
 70
   160
  1
30 mm mini
 71
     5
 42
75.00220100504067
 73
     0
 74
     0
 75
     0
  3
Standard
100
AcDbAlignedDimension
 13
4015.412202343218
 23
-3466.571928677972
 33
0.0
 14
4090.414403348259
 24
-3534.145173507272
 34
0.0
 50
180.0
100
AcDbRotatedDimension
1001
ACAD
1000
DSTYLE
1002
{
1070
   178
1070
   190
1070
   271
1070
     0
1070
   147
1040
0.0
1070
   140
1040
12.5
1070
   340
1005
3C7
1070
   144
1040
1.0
1070
    42
1040
0.0
1070
    44
1040
5.0
1070
    41
1040
5.0
1070
   342
1005
1AB
1070
   175
1070
     1
1070
   279
1070
     2
1070
   172
1070
     1
1002
}
  0
DIMENSION
  5
3F3
102
{ACAD_REACTORS
330
3F4
102
}
330
1F
100
AcDbEntity
  8
Ech.1_2
 62
   190
370
    20
100
AcDbDimension
280
     0
  2
*D73
 10
4101.774580848873
 20
-3314.036169617671
 30
0.0
 11
4090.524580848876
 21
-3351.536169617671
 31
0.0
 70
   160
  1
30 mm mini
 71
     5
 42
75.00000000000001
 73
     0
 74
     0
 75
     0
 53
90.0
  3
Standard
100
AcDbAlignedDimension
 13
4067.947961403484
 23
-3389.036169617671
 33
0.0
 14
3950.412202341608
 24
-3314.036169617671
 34
0.0
 50
-90.0
100
AcDbRotatedDimension
1001
ACAD
1000
DSTYLE
1002
{
1070
   178
1070
   190
1070
   271
1070
     0
1070
   147
1040
0.0
1070
   140
1040
12.5
1070
   340
1005
3C7
1070
   144
1040
1.0
1070
    42
1040
0.0
1070
    44
1040
5.0
1070
    41
1040
5.0
1070
   342
1005
1AB
1070
   175
1070
     1
1070
   279
1070
     2
1070
   172
1070
     1
1002
}
  0
MTEXT
  5
401
330
1F
100
AcDbEntity
  8
Ech.1_2
 62
     4
420
    65535
100
AcDbMText
 10
4253.09074578458
 20
-3305.061190471124
 30
0.0
 40
13.75
 41
126.5781115172013
 46
0.0
 71
     1
 72
     1
  1
{\fArial|b0|i0;\W1.000000;\H13.750000;\c16711848;Paroi support}
 73
     1
 44
1.07999975538982
  0
MTEXT
  5
402
330
1F
100
AcDbEntity
  8
Ech.1_2
 62
     4
420
    65535
100
AcDbMText
 10
4253.09074578458
 20
-3178.167174898199
 30
0.0
 40
13.75
 41
280.5455571133552
 46
0.0
 71
     1
 72
     1
  1
{\fArial|b0|i0;\W1.000000;\H13.750000;\c16711848;Bande EPDM}
 73
     1
 44
1.07999975538982
  0
MTEXT
  5
403
330
1F
100
AcDbEntity
  8
Ech.1_2
 62
     4
420
    65535
100
AcDbMText
 10
4148.699036629591
 20
-4030.210056663323
 30
0.0
 40
12.5
 41
488.3428846351853
 46
0.0
 71
     2
 72
     1
  1
{\fArial|b0|i0;\W1.000000;\H12.500000;\c16711848;Vue en coupe horizontale}
 73
     1
 44
1.07999975538982
  0
MTEXT
  5
404
330
1F
100
AcDbEntity
  8
Ech.1_2
 62
     4
420
    65535
100
AcDbMText
 10
4469.01914665043
 20
-4030.042880170672
 30
0.0
 40
12.5
 41
127.2973354064925
 46
0.0
 71
     2
 72
     1
  1
{\fArial|b0|i0;\W1.000000;\H12.500000;\c16711848;Ech 1/2 }
 73
     1
 44
1.07999975538982
  0
MTEXT
  5
405
330
1F
100
AcDbEntity
  8
Ech.1_2
 62
     4
420
    65535
100
AcDbMText
 10
3820.199985314321
 20
-4029.77112386819
 30
0.0
 40
12.5
 41
143.655217995356
 46
0.0
 71
     2
 72
     1
  1
{\fArial|b0|i0;\W1.000000;\H12.500000;\c16711848;BLEVT70-04}
 73
     1
 44
1.07999975538982
  0
MTEXT
  5
406
330
1F
100
AcDbEntity
  8
Ech.1_2
 62
   200
420
 11010303
100
AcDbMText
 10
4046.417814353681
 20
-4051.540241205025
 30
0.0
 40
6.25
 41
978.7499999999909
 46
0.0
 71
     2
 72
     1
  3
{\fArial|b0|i1;\W1.000000;\H6.250000;\c16711848; Il est rappelé à l'utilisateur qui consulte le site et utilise les informations qu'il contient, qu'il doit les utiliser sous sa seule responsabilité en vérifiant leur pertinence, leur cohérence et leur
  1
 non obsolescence.}
 73
     1
 44
1.07999975538982
  0
MTEXT
  5
407
330
1F
100
AcDbEntity
  8
Ech.1_2
 62
   200
420
 11010303
100
AcDbMText
 10
4046.417814353681
 20
-4085.704769098534
 30
0.0
 40
8.125
 41
976.8749999999909
 46
0.0
 71
     2
 72
     1
  1
{\fArial|b0|i1;\W1.000000;\H8.125000;\c16711848;www.catalogue-bois-construction.fr}
 73
     1
 44
1.07999975538982
  0
MTEXT
  5
408
330
1F
100
AcDbEntity
  8
Ech.1_2
 62
     4
420
    65535
100
AcDbMText
 10
4046.417814353681
 20
-2880.469168356299
 30
0.0
 40
16.25
 41
968.7499999999909
 46
0.0
 71
     2
 72
     1
  1
{\fArial|b0|i0;\W1.000000;\H16.250000;\c16711848;Détail d'angle rentrant sans profil - Compatible niveau étanchéité Ee1}
 73
     1
 44
1.07999975538982
  0
MTEXT
  5
409
330
1F
100
AcDbEntity
  8
Ech.1_2
 62
     4
420
    65535
100
AcDbMText
 10
4253.09074578458
 20
-3219.607096856389
 30
0.0
 40
13.75
 41
278.7353099467782
 46
0.0
 71
     1
 72
     1
  1
{\fArial|b0|i0;\W1.000000;\H13.750000;\c16711848;Bardage bois en lames à emboitement en pose verticale - épaisseur 20-22 mm}
 73
     1
 44
1.07999975538982
  0
MTEXT
  5
40A
330
1F
100
AcDbEntity
  8
Ech.1_2
 62
     4
420
    65535
100
AcDbMText
 10
4253.09074578458
 20
-3104.292992201345
 30
0.0
 40
13.75
 41
213.6893346751731
 46
0.0
 71
     1
 72
     1
  1
{\fArial|b0|i0;\W1.000000;\H13.750000;\c16711848;Double-tasseautage bois support de bardage}
 73
     1
 44
1.07999975538982
  0
MTEXT
  5
40B
330
1F
100
AcDbEntity
  8
Ech.1_2
 62
   200
420
 11010303
100
AcDbMText
 10
4046.417814353722
 20
-2816.434195933284
 30
0.0
 40
15.0
 41
970.0
 46
0.0
 71
     2
 72
     1
  1
{\fArial|b1|i0;\W1.000000;\H15.000000;\c16711848;BARDAGES EN LAMES : lames à emboitement - pose verticale (épaisseur 20-22 mm)}
 73
     1
 44
1.07999975538982
1001
ACAD
1000
ACAD_MTEXT_TEXT_BORDERS_BEGIN
1070
    80
1070
    16
1070
    46
1040
1.5
1070
    81
1070
     1
1070
     5
1005
429
1000
ACAD_MTEXT_TEXT_BORDERS_END
  0
TEXT
  5
40D
330
1F
100
AcDbEntity
  8
Ech.1_2
 62
   190
100
AcDbText
 10
3605.73994505598
 20
-4042.202023217901
 30
0.0
 40
12.5
  1
15/10/2020
  7
arial-
100
AcDbText
  0
TEXT
  5
40E
330
1F
100
AcDbEntity
  8
Ech.1_2
 62
   190
100
AcDbText
 10
3912.722602943163
 20
-2864.567663723951
 30
0.0
 40
16.5
  1
avec exigences feu façade
  7
arial-
100
AcDbText
  0
TEXT
  5
410
330
1F
100
AcDbEntity
  8
Ech.1_2
 62
   154
420
    21156
100
AcDbText
 10
3746.613158929081
 20
-2993.625642033458
 30
0.0
 40
15.0
  1
m
 50
8.975659904334776
 41
0.8
  7
tahoma-b
100
AcDbText
  0
TEXT
  5
411
330
1F
100
AcDbEntity
  8
Ech.1_2
 62
   154
420
    21156
100
AcDbText
 10
3729.484462885262
 20
-2999.243633888636
 30
0.0
 40
15.0
  1
C
 50
20.66888961046597
 41
0.8
  7
tahoma-b
100
AcDbText
  0
TEXT
  5
412
330
1F
100
AcDbEntity
  8
Ech.1_2
 62
   154
420
    21156
100
AcDbText
 10
3738.365435548017
 20
-2995.8933035478
 30
0.0
 40
15.0
  1
o
 50
15.37326472333388
 41
0.8
  7
tahoma-b
100
AcDbText
  0
TEXT
  5
413
330
1F
100
AcDbEntity
  8
Ech.1_2
 62
   154
420
    21156
100
AcDbText
 10
3759.693015143253
 20
-2991.559691849925
 30
0.0
 40
15.0
  1
p
 50
2.547444553670623
 41
0.8
  7
tahoma-b
100
AcDbText
  0
TEXT
  5
414
330
1F
100
AcDbEntity
  8
Ech.1_2
 62
   154
420
    21156
100
AcDbText
 10
3768.342489874317
 20
-2991.174871397225
 30
0.0
 40
15.0
  1
a
 50
357.5885357786519
 41
0.8
  7
tahoma-b
100
AcDbText
  0
TEXT
  5
415
330
1F
100
AcDbEntity
  8
Ech.1_2
 62
   154
420
    21156
100
AcDbText
 10
3776.576222603203
 20
-2991.52161742777
 30
0.0
 40
15.0
  1
t
 50
353.609164414799
 41
0.8
  7
tahoma-b
100
AcDbText
  0
TEXT
  5
416
330
1F
100
AcDbEntity
  8
Ech.1_2
 62
   154
420
    21156
100
AcDbText
 10
3781.864236717715
 20
-2992.113906807226
 30
0.0
 40
15.0
  1
i
 50
350.9766571715348
 41
0.8
  7
tahoma-b
100
AcDbText
  0
TEXT
  5
417
330
1F
100
AcDbEntity
  8
Ech.1_2
 62
   154
420
    21156
100
AcDbText
 10
3785.47100294461
 20
-2992.686668846109
 30
0.0
 40
15.0
  1
b
 50
347.3646125171736
 41
0.8
  7
tahoma-b
100
AcDbText
  0
TEXT
  5
418
330
1F
100
AcDbEntity
  8
Ech.1_2
 62
   154
420
    21156
100
AcDbText
 10
3793.919352352482
 20
-2994.580578080113
 30
0.0
 40
15.0
  1
l
 50
343.7525678627924
 41
0.8000000000000002
  7
tahoma-b
100
AcDbText
  0
TEXT
  5
419
330
1F
100
AcDbEntity
  8
Ech.1_2
 62
   154
420
    21156
100
AcDbText
 10
3797.425462752258
 20
-2995.602345584612
 30
0.0
 40
15.0
  1
e
 50
340.2629653357294
 41
0.8000000000000003
  7
tahoma-b
100
AcDbText
  0
TEXT
  5
41A
330
1F
100
AcDbEntity
  8
Ech.1_2
 62
   154
420
    21156
100
AcDbText
 10
3714.320638927043
 20
-3124.246824462971
 30
0.0
 40
15.0
  1
s
 50
329.3124952401124
 41
0.8
  7
tahoma-b
100
AcDbText
  0
TEXT
  5
41B
330
1F
100
AcDbEntity
  8
Ech.1_2
 62
   154
420
    21156
100
AcDbText
 10
3721.318000625965
 20
-3128.399490073652
 30
0.0
 40
15.0
  1
u
 50
334.627616379372
 41
0.7999999999999999
  7
tahoma-b
100
AcDbText
  0
TEXT
  5
41C
330
1F
100
AcDbEntity
  8
Ech.1_2
 62
   154
420
    21156
100
AcDbText
 10
3730.459386743055
 20
-3132.734741014274
 30
0.0
 40
15.0
  1
r
 50
339.5478999136592
 41
0.7999999999999999
  7
tahoma-b
100
AcDbText
  0
TEXT
  5
41D
330
1F
100
AcDbEntity
  8
Ech.1_2
 62
   154
420
    21156
100
AcDbText
 10
3740.63169080247
 20
-3136.294606854717
 30
0.0
 40
15.0
  1
p
 50
346.7359685598469
 41
0.8
  7
tahoma-b
100
AcDbText
  0
TEXT
  5
41E
330
1F
100
AcDbEntity
  8
Ech.1_2
 62
   154
420
    21156
100
AcDbText
 10
3750.276207258626
 20
-3138.568082018537
 30
0.0
 40
15.0
  1
a
 50
352.3548109071335
 41
0.8
  7
tahoma-b
100
AcDbText
  0
TEXT
  5
41F
330
1F
100
AcDbEntity
  8
Ech.1_2
 62
   154
420
    21156
100
AcDbText
 10
3759.580500962652
 20
-3139.817009568433
 30
0.0
 40
15.0
  1
r
 50
357.0624896304607
 41
0.8000000000000002
  7
tahoma-b
100
AcDbText
  0
TEXT
  5
420
330
1F
100
AcDbEntity
  8
Ech.1_2
 62
   154
420
    21156
100
AcDbText
 10
3766.352857152383
 20
-3140.164527581373
 30
0.0
 40
15.0
  1
o
 50
1.86128475094112
 41
0.8
  7
tahoma-b
100
AcDbText
  0
TEXT
  5
421
330
1F
100
AcDbEntity
  8
Ech.1_2
 62
   154
420
    21156
100
AcDbText
 10
3776.04815660588
 20
-3139.849459633815
 30
0.0
 40
15.0
  1
i
 50
6.083009645686047
 41
0.8
  7
tahoma-b
100
AcDbText
  0
TEXT
  5
422
330
1F
100
AcDbEntity
  8
Ech.1_2
 62
   154
420
    21156
100
AcDbText
 10
3784.774945811237
 20
-3138.739693694979
 30
0.0
 40
15.0
  1
b
 50
12.69400806611029
 41
0.7999999999999999
  7
tahoma-b
100
AcDbText
  0
TEXT
  5
423
330
1F
100
AcDbEntity
  8
Ech.1_2
 62
   154
420
    21156
100
AcDbText
 10
3794.441602914117
 20
-3136.562280677426
 30
0.0
 40
15.0
  1
o
 50
18.40396681042054
 41
0.7999999999999999
  7
tahoma-b
100
AcDbText
  0
TEXT
  5
424
330
1F
100
AcDbEntity
  8
Ech.1_2
 62
   154
420
    21156
100
AcDbText
 10
3803.645884353468
 20
-3133.499715985909
 30
0.0
 40
15.0
  1
i
 50
22.62569170506785
 41
0.8
  7
tahoma-b
100
AcDbText
  0
TEXT
  5
425
330
1F
100
AcDbEntity
  8
Ech.1_2
 62
   154
420
    21156
100
AcDbText
 10
3808.07602693742
 20
-3131.653294475273
 30
0.0
 40
15.0
  1
s
 50
26.39183478793657
 41
0.8
  7
tahoma-b
100
AcDbText
  0
TEXT
  5
426
330
1F
100
AcDbEntity
  8
Ech.1_2
 62
   154
420
    21156
100
AcDbText
 10
3743.746727260173
 20
-3102.099416429764
 30
0.0
 40
25.0
  1
E
 50
345.2222144970985
 41
0.8
  7
tahoma-b
100
AcDbText
  0
TEXT
  5
427
330
1F
100
AcDbEntity
  8
Ech.1_2
 62
   154
420
    21156
100
AcDbText
 10
3759.345379747579
 20
-3106.214288818464
 30
0.0
 40
25.0
  1
e
 50
359.2406769519127
 41
0.8
  7
tahoma-b
100
AcDbText
  0
TEXT
  5
428
330
1F
100
AcDbEntity
  8
Ech.1_2
 62
   154
420
    21156
100
AcDbText
 10
3774.958438367344
 20
-3106.421215916362
 30
0.0
 40
25.0
  1
1
 50
13.48894999979745
 41
0.8
  7
tahoma-b
100
AcDbText
  0
LWPOLYLINE
  5
429
330
1F
100
AcDbEntity
  8
Ech.1_2
 62
   200
420
 11010303
100
AcDbPolyline
 90
        4
 70
     1
 43
0.0
 10
3553.917814353722
 20
-2808.934195933284
 10
4538.917814353722
 20
-2808.934195933284
 10
4538.917814353722
 20
-2843.674195933284
 10
3553.917814353722
 20
-2843.674195933284
  0
VIEWPORT
  5
233
330
22D
100
AcDbEntity
 67
     1
  8
0
100
AcDbViewport
 10
98.79999999999909
 20
135.7999999999991
 30
0.0
 40
209.0607999999981
 41
287.3527999999981
 68
     1
 69
     1
 12
128.5
 22
97.5
 13
0.0
 23
0.0
 14
10.0
 24
10.0
 15
10.0
 25
10.0
 16
0.0
 26
0.0
 36
1.0
 17
0.0
 27
0.0
 37
0.0
 42
50.0
 43
0.0
 44
0.0
 45
222.18
 50
0.0
 51
0.0
 72
   100
 90
   557152
  1

281
     0
 71
     1
 74
     0
110
0.0
120
0.0
130
0.0
111
1.0
121
0.0
131
0.0
112
0.0
122
1.0
132
0.0
 79
     0
146
0.0
170
     0
 61
     5
348
2F
292
     1
282
     1
141
0.0
142
0.0
 63
   256
361
234
  0
VIEWPORT
  5
235
330
22D
100
AcDbEntity
 67
     1
  8
0
 60
     1
100
AcDbViewport
 10
98.79999999999909
 20
135.7999999999991
 30
0.0
 40
197.5999999999982
 41
271.5999999999982
 68
     2
 69
     2
 12
4046.417814353681
 22
-3486.434195933252
 13
0.0
 23
0.0
 14
10.0
 24
10.0
 15
10.0
 25
10.0
 16
0.0
 26
0.0
 36
1.0
 17
0.0
 27
0.0
 37
0.0
 42
50.0
 43
0.0
 44
0.0
 45
1357.999999999991
 50
0.0
 51
0.0
 72
   100
 90
   557152
  1

281
     0
 71
     1
 74
     0
110
0.0
120
0.0
130
0.0
111
1.0
121
0.0
131
0.0
112
0.0
122
1.0
132
0.0
 79
     0
146
0.0
170
     0
 61
     5
348
2F
292
     1
282
     1
141
0.0
142
0.0
 63
   256
  0
ENDSEC
  0
SECTION
  2
OBJECTS
  0
DICTIONARY
  5
C
330
0
100
AcDbDictionary
281
     1
  3
ACAD_DETAILVIEWSTYLE
350
431
  3
ACAD_GROUP
350
D
  3
ACAD_IMAGE_DICT
350
254
  3
ACAD_IMAGE_VARS
350
6F
  3
ACAD_LAYOUT
350
1A
  3
ACAD_MATERIAL
350
43
  3
ACAD_MLEADERSTYLE
350
6B
  3
ACAD_MLINESTYLE
350
17
  3
ACAD_PLOTSETTINGS
350
19
  3
ACAD_PLOTSTYLENAME
350
E
  3
ACAD_SCALELIST
350
47
  3
ACAD_SECTIONVIEWSTYLE
350
432
  3
ACAD_TABLESTYLE
350
69
  3
ACAD_VISUALSTYLE
350
2A
  3
ACDB_RECOMPOSE_DATA
350
42E
  3
AcDbVariableDictionary
350
42A
  0
SUN
  5
6D
330
29
100
AcDbSun
 90
        1
290
     0
 63
     7
421
 16777215
 40
1.0
291
     1
 91
  2455826
 92
 54000000
292
     0
 70
     2
 71
   256
280
     1
  0
IMAGEDEF_REACTOR
  5
257
330
256
100
AcDbRasterImageDefReactor
 90
        2
330
256
  0
IMAGEDEF_REACTOR
  5
25A
330
259
100
AcDbRasterImageDefReactor
 90
        2
330
259
  0
IMAGEDEF_REACTOR
  5
25D
330
25C
100
AcDbRasterImageDefReactor
 90
        2
330
25C
  0
SUN
  5
234
330
233
100
AcDbSun
 90
        1
290
     0
 63
     7
421
 16777215
 40
1.0
291
     1
 91
  2455826
 92
 54000000
292
     0
 70
     2
 71
   256
280
     1
  0
DICTIONARY
  5
431
102
{ACAD_REACTORS
330
C
102
}
330
C
100
AcDbDictionary
281
     1
  0
DICTIONARY
  5
D
102
{ACAD_REACTORS
330
C
102
}
330
C
100
AcDbDictionary
281
     1
  3
DIM29
350
3C9
  3
DIM34
350
3D8
  3
DIM35
350
3E6
  3
DIM36
350
3F4
  0
DICTIONARY
  5
254
102
{ACAD_REACTORS
330
C
102
}
330
C
100
AcDbDictionary
281
     1
  3
C:\Users\MAIFFR~1\AppData\Local\Temp\EXE_LOGO_FBF_soutien_Q_L.jpg1
350
258
  3
C:\Users\MAIFFR~1\AppData\Local\Temp\fcba.jpg0
350
255
  3
C:\Users\MAIFFR~1\AppData\Local\Temp\logo_codifab_baseline_soutien.jpg2
350
25B
  0
RASTERVARIABLES
  5
6F
102
{ACAD_REACTORS
330
C
102
}
330
C
100
AcDbRasterVariables
 90
        0
 70
     0
 71
     1
 72
     1
  0
DICTIONARY
  5
1A
102
{ACAD_REACTORS
330
C
102
}
330
C
100
AcDbDictionary
281
     1
  3
CompleteLayout
350
1E
  3
Model
350
22
  3
PrintFrame_74
350
22E
  0
DICTIONARY
  5
43
102
{ACAD_REACTORS
330
C
102
}
330
C
100
AcDbDictionary
281
     1
  3
ByBlock
350
45
  3
ByLayer
350
44
  3
Global
350
46
  0
DICTIONARY
  5
6B
102
{ACAD_REACTORS
330
C
102
}
330
C
100
AcDbDictionary
281
     1
  3
Standard
350
6C
  0
DICTIONARY
  5
17
102
{ACAD_REACTORS
330
C
102
}
330
C
100
AcDbDictionary
281
     1
  3
Standard
350
18
  0
DICTIONARY
  5
19
102
{ACAD_REACTORS
330
C
102
}
330
C
100
AcDbDictionary
281
     1
  3
PlotSettings_
350
231
  0
ACDBDICTIONARYWDFLT
  5
E
102
{ACAD_REACTORS
330
C
102
}
330
C
100
AcDbDictionary
281
     1
  3
Normal
350
F
100
AcDbDictionaryWithDefault
340
F
  0
DICTIONARY
  5
47
102
{ACAD_REACTORS
330
C
102
}
330
C
100
AcDbDictionary
281
     1
  3
A0
350
48
  3
A1
350
49
  3
A2
350
4A
  3
A3
350
4B
  3
A4
350
4C
  3
A5
350
4D
  3
A6
350
4E
  3
A7
350
4F
  3
A8
350
50
  3
A9
350
51
  3
B0
350
52
  3
B1
350
53
  3
B2
350
54
  3
B3
350
55
  3
B4
350
56
  3
B5
350
57
  3
B6
350
58
  3
B7
350
59
  3
B8
350
5A
  3
B9
350
5B
  3
C0
350
5C
  3
C1
350
5D
  3
C2
350
5E
  3
C3
350
5F
  3
C4
350
60
  3
C5
350
61
  3
C6
350
62
  3
C7
350
63
  3
C8
350
64
  3
C9
350
65
  3
D0
350
66
  3
D1
350
67
  3
D2
350
68
  0
DICTIONARY
  5
432
102
{ACAD_REACTORS
330
C
102
}
330
C
100
AcDbDictionary
281
     1
  0
DICTIONARY
  5
69
102
{ACAD_REACTORS
330
C
102
}
330
C
100
AcDbDictionary
281
     1
  3
Standard
350
6A
  0
DICTIONARY
  5
2A
102
{ACAD_REACTORS
330
C
102
}
330
C
100
AcDbDictionary
281
     1
  3
2dWireframe
350
2F
  3
Basic
350
32
  3
Brighten
350
36
  3
ColorChange
350
3A
  3
Conceptual
350
34
  3
Dim
350
35
  3
EdgeColorOff
350
3D
  3
Facepattern
350
39
  3
Flat
350
2B
  3
FlatWithEdges
350
2C
  3
Gouraud
350
2D
  3
GouraudWithEdges
350
2E
  3
Hidden
350
31
  3
JitterOff
350
3B
  3
Linepattern
350
38
  3
OverhangOff
350
3C
  3
Realistic
350
33
  3
Shaded
350
42
  3
Shaded with edges
350
41
  3
Shades of Gray
350
3E
  3
Sketchy
350
3F
  3
Thicken
350
37
  3
Wireframe
350
30
  3
X-Ray
350
40
  0
XRECORD
  5
42E
102
{ACAD_REACTORS
330
C
102
}
330
C
100
AcDbXrecord
280
     1
 90
        1
330
6A
  0
DICTIONARY
  5
42A
102
{ACAD_REACTORS
330
C
102
}
330
C
100
AcDbDictionary
281
     1
  3
CANNOSCALE
350
42B
  3
CMLEADERSTYLE
350
430
  3
CTABLESTYLE
350
42F
  3
WIPEOUTFRAME
350
433
  0
GROUP
  5
3C9
102
{ACAD_REACTORS
330
D
102
}
330
D
100
AcDbGroup
300

 70
     0
 71
     1
340
3C8
  0
GROUP
  5
3D8
102
{ACAD_REACTORS
330
D
102
}
330
D
100
AcDbGroup
300

 70
     0
 71
     1
340
3D7
  0
GROUP
  5
3E6
102
{ACAD_REACTORS
330
D
102
}
330
D
100
AcDbGroup
300

 70
     0
 71
     1
340
3E5
  0
GROUP
  5
3F4
102
{ACAD_REACTORS
330
D
102
}
330
D
100
AcDbGroup
300

 70
     0
 71
     1
340
3F3
  0
IMAGEDEF
  5
258
102
{ACAD_REACTORS
330
254
330
25A
102
}
330
254
100
AcDbRasterImageDef
 90
        0
  1
EXE_LOGO_FBF_soutien_Q_L.jpg
 10
200.0
 20
133.0
 11
0.3527336860670194
 21
0.3527336860670194
280
     1
281
     3
  0
IMAGEDEF
  5
255
102
{ACAD_REACTORS
330
254
330
257
102
}
330
254
100
AcDbRasterImageDef
 90
        0
  1
fcba.jpg
 10
247.0
 20
171.0
 11
0.3527336860670194
 21
0.3527336860670194
280
     1
281
     3
  0
IMAGEDEF
  5
25B
102
{ACAD_REACTORS
330
254
330
25D
102
}
330
254
100
AcDbRasterImageDef
 90
        0
  1
logo_codifab_baseline_soutien.jpg
 10
1326.0
 20
580.0
 11
0.08466683600033867
 21
0.08466683600033867
280
     1
281
     3
  0
LAYOUT
  5
1E
102
{ACAD_REACTORS
330
1A
102
}
330
1A
100
AcDbPlotSettings
  1

  2
none_device
  4

  6

 40
0.0
 41
0.0
 42
0.0
 43
0.0
 44
0.0
 45
0.0
 46
0.0
 47
0.0
 48
0.0
 49
0.0
140
0.0
141
0.0
142
1.0
143
1.0
 70
   688
 72
     0
 73
     0
 74
     5
  7

 75
    16
 76
     0
 77
     2
 78
   300
147
1.0
148
0.0
149
0.0
100
AcDbLayout
  1
CompleteLayout
 70
     1
 71
     1
 10
0.0
 20
0.0
 11
12.0
 21
9.0
 12
0.0
 22
0.0
 32
0.0
 14
1.000000000000000E+20
 24
1.000000000000000E+20
 34
1.000000000000000E+20
 15
-1.000000000000000E+20
 25
-1.000000000000000E+20
 35
-1.000000000000000E+20
146
0.0
 13
0.0
 23
0.0
 33
0.0
 16
1.0
 26
0.0
 36
0.0
 17
0.0
 27
1.0
 37
0.0
 76
     0
330
1B
  0
LAYOUT
  5
22
102
{ACAD_REACTORS
330
1A
102
}
330
1A
100
AcDbPlotSettings
  1

  2
none_device
  4
Letter_(8.50_x_11.00_Inches)
  6

 40
6.35
 41
6.35
 42
6.35000508
 43
6.35000508
 44
215.9
 45
279.4
 46
0.0
 47
0.0
 48
0.0
 49
0.0
140
0.0
141
0.0
142
1.0
143
1.0
 70
  1712
 72
     0
 73
     0
 74
     0
  7

 75
     0
 76
     0
 77
     2
 78
   300
147
1.0
148
0.0
149
0.0
100
AcDbLayout
  1
Model
 70
     1
 71
     0
 10
0.0
 20
0.0
 11
12.0
 21
9.0
 12
0.0
 22
0.0
 32
0.0
 14
3553.917814353686
 24
-4163.934195933248
 34
0.0
 15
4538.917814353676
 25
-2808.934195933248
 35
0.0
146
0.0
 13
0.0
 23
0.0
 33
0.0
 16
1.0
 26
0.0
 36
0.0
 17
0.0
 27
1.0
 37
0.0
 76
     0
330
1F
331
29
  0
LAYOUT
  5
22E
102
{ACAD_REACTORS
330
1A
102
}
330
1A
100
AcDbPlotSettings
  1
PlotSettings_
  2
Custom Device
  4
Custom_210.000000x297.000000_12.700000_12.700000_6.200000_6.200000
  6

 40
6.2
 41
12.7
 42
6.2
 43
12.7
 44
209.9999999999982
 45
296.9999999999982
 46
0.0
 47
0.0
 48
0.0
 49
0.0
140
0.0
141
0.0
142
1.0
143
1.0
 70
   752
 72
     1
 73
     0
 74
     5
  7

 75
    16
 76
     0
 77
     2
 78
   300
147
1.0
148
0.0
149
0.0
100
AcDbLayout
  1
PrintFrame_74
 70
     0
 71
     2
 10
-20.0
 20
-7.5
 11
277.0
 21
202.5
 12
0.0
 22
0.0
 32
0.0
 14
0.0
 24
0.0
 34
0.0
 15
197.5999999999982
 25
271.5999999999982
 35
0.0
146
0.0
 13
0.0
 23
0.0
 33
0.0
 16
1.0
 26
0.0
 36
0.0
 17
0.0
 27
1.0
 37
0.0
 76
     0
330
22D
331
233
1001
PLOTTRANSPARENCY
1071
        1
1000
layout-user-created
1070
     1
1000
layout-line-weight-scale
1042
1.0
  0
MATERIAL
  5
45
102
{ACAD_REACTORS
330
43
102
}
330
43
100
AcDbMaterial
  1
ByBlock
 72
     1
 94
      127
  0
MATERIAL
  5
44
102
{ACAD_REACTORS
330
43
102
}
330
43
100
AcDbMaterial
  1
ByLayer
 72
     1
 94
      127
  0
MATERIAL
  5
46
102
{ACAD_REACTORS
330
43
102
}
330
43
100
AcDbMaterial
  1
Global
 72
     1
 94
      127
  0
MLEADERSTYLE
  5
6C
102
{ACAD_REACTORS
330
6B
102
}
330
6B
100
AcDbMLeaderStyle
179
     2
170
     2
171
     1
172
     0
 90
        2
 40
0.0
 41
0.0
173
     1
 91
-1056964608
340
14
 92
       -2
290
     1
 42
0.09
291
     1
 43
0.36
  3
Standard
341
0
 44
0.18
300

342
11
174
     1
178
     6
175
     1
176
     0
 93
-1056964608
 45
0.18
292
     0
297
     0
 46
0.18
343
0
 94
-1056964608
 47
1.0
 49
1.0
140
1.0
293
     1
141
0.0
294
     1
177
     0
142
1.0
295
     0
296
     0
143
0.125
271
     0
272
     9
273
     9
298
     0
  0
MLINESTYLE
  5
18
102
{ACAD_REACTORS
330
17
102
}
330
17
100
AcDbMlineStyle
  2
Standard
 70
     0
  3

 62
   256
 51
90.0
 52
90.0
 71
     2
 49
0.5
 62
   256
  6
BYLAYER
 49
-0.5
 62
   256
  6
BYLAYER
  0
PLOTSETTINGS
  5
231
102
{ACAD_REACTORS
330
19
102
}
330
19
100
AcDbPlotSettings
  1
PlotSettings_
  2
Custom Device
  4
Custom_210.000000x297.000000_12.700000_12.700000_6.200000_6.200000
  6

 40
6.2
 41
12.7
 42
6.2
 43
12.7
 44
209.9999999999982
 45
296.9999999999982
 46
0.0
 47
0.0
 48
0.0
 49
0.0
140
0.0
141
0.0
142
1.0
143
1.0
 70
   752
 72
     1
 73
     0
 74
     5
  7

 75
    16
 76
     0
 77
     2
 78
   300
147
1.0
148
0.0
149
0.0
1001
PLOTTRANSPARENCY
1071
        1
1000
layout-user-created
1070
     1
1000
layout-line-weight-scale
1042
1.0
  0
ACDBPLACEHOLDER
  5
F
102
{ACAD_REACTORS
330
E
102
}
330
E
  0
SCALE
  5
48
102
{ACAD_REACTORS
330
47
102
}
330
47
100
AcDbScale
 70
     0
300
1:1
140
1.0
141
1.0
290
     1
  0
SCALE
  5
49
102
{ACAD_REACTORS
330
47
102
}
330
47
100
AcDbScale
 70
     0
300
1:2
140
1.0
141
2.0
290
     0
  0
SCALE
  5
4A
102
{ACAD_REACTORS
330
47
102
}
330
47
100
AcDbScale
 70
     0
300
1:4
140
1.0
141
4.0
290
     0
  0
SCALE
  5
4B
102
{ACAD_REACTORS
330
47
102
}
330
47
100
AcDbScale
 70
     0
300
1:5
140
1.0
141
5.0
290
     0
  0
SCALE
  5
4C
102
{ACAD_REACTORS
330
47
102
}
330
47
100
AcDbScale
 70
     0
300
1:8
140
1.0
141
8.0
290
     0
  0
SCALE
  5
4D
102
{ACAD_REACTORS
330
47
102
}
330
47
100
AcDbScale
 70
     0
300
1:10
140
1.0
141
10.0
290
     0
  0
SCALE
  5
4E
102
{ACAD_REACTORS
330
47
102
}
330
47
100
AcDbScale
 70
     0
300
1:16
140
1.0
141
16.0
290
     0
  0
SCALE
  5
4F
102
{ACAD_REACTORS
330
47
102
}
330
47
100
AcDbScale
 70
     0
300
1:20
140
1.0
141
20.0
290
     0
  0
SCALE
  5
50
102
{ACAD_REACTORS
330
47
102
}
330
47
100
AcDbScale
 70
     0
300
1:30
140
1.0
141
30.0
290
     0
  0
SCALE
  5
51
102
{ACAD_REACTORS
330
47
102
}
330
47
100
AcDbScale
 70
     0
300
1:40
140
1.0
141
40.0
290
     0
  0
SCALE
  5
52
102
{ACAD_REACTORS
330
47
102
}
330
47
100
AcDbScale
 70
     0
300
1:50
140
1.0
141
50.0
290
     0
  0
SCALE
  5
53
102
{ACAD_REACTORS
330
47
102
}
330
47
100
AcDbScale
 70
     0
300
1:100
140
1.0
141
100.0
290
     0
  0
SCALE
  5
54
102
{ACAD_REACTORS
330
47
102
}
330
47
100
AcDbScale
 70
     0
300
2:1
140
2.0
141
1.0
290
     0
  0
SCALE
  5
55
102
{ACAD_REACTORS
330
47
102
}
330
47
100
AcDbScale
 70
     0
300
4:1
140
4.0
141
1.0
290
     0
  0
SCALE
  5
56
102
{ACAD_REACTORS
330
47
102
}
330
47
100
AcDbScale
 70
     0
300
8:1
140
8.0
141
1.0
290
     0
  0
SCALE
  5
57
102
{ACAD_REACTORS
330
47
102
}
330
47
100
AcDbScale
 70
     0
300
10:1
140
10.0
141
1.0
290
     0
  0
SCALE
  5
58
102
{ACAD_REACTORS
330
47
102
}
330
47
100
AcDbScale
 70
     0
300
100:1
140
100.0
141
1.0
290
     0
  0
SCALE
  5
59
102
{ACAD_REACTORS
330
47
102
}
330
47
100
AcDbScale
 70
     0
300
1/128" = 1'-0"
140
0.0078125
141
12.0
290
     0
  0
SCALE
  5
5A
102
{ACAD_REACTORS
330
47
102
}
330
47
100
AcDbScale
 70
     0
300
1/64" = 1'-0"
140
0.015625
141
12.0
290
     0
  0
SCALE
  5
5B
102
{ACAD_REACTORS
330
47
102
}
330
47
100
AcDbScale
 70
     0
300
1/32" = 1'-0"
140
0.03125
141
12.0
290
     0
  0
SCALE
  5
5C
102
{ACAD_REACTORS
330
47
102
}
330
47
100
AcDbScale
 70
     0
300
1/16" = 1'-0"
140
0.0625
141
12.0
290
     0
  0
SCALE
  5
5D
102
{ACAD_REACTORS
330
47
102
}
330
47
100
AcDbScale
 70
     0
300
3/32" = 1'-0"
140
0.09375
141
12.0
290
     0
  0
SCALE
  5
5E
102
{ACAD_REACTORS
330
47
102
}
330
47
100
AcDbScale
 70
     0
300
1/8" = 1'-0"
140
0.125
141
12.0
290
     0
  0
SCALE
  5
5F
102
{ACAD_REACTORS
330
47
102
}
330
47
100
AcDbScale
 70
     0
300
3/16" = 1'-0"
140
0.1875
141
12.0
290
     0
  0
SCALE
  5
60
102
{ACAD_REACTORS
330
47
102
}
330
47
100
AcDbScale
 70
     0
300
1/4" = 1'-0"
140
0.25
141
12.0
290
     0
  0
SCALE
  5
61
102
{ACAD_REACTORS
330
47
102
}
330
47
100
AcDbScale
 70
     0
300
3/8" = 1'-0"
140
0.375
141
12.0
290
     0
  0
SCALE
  5
62
102
{ACAD_REACTORS
330
47
102
}
330
47
100
AcDbScale
 70
     0
300
1/2" = 1'-0"
140
0.5
141
12.0
290
     0
  0
SCALE
  5
63
102
{ACAD_REACTORS
330
47
102
}
330
47
100
AcDbScale
 70
     0
300
3/4" = 1'-0"
140
0.75
141
12.0
290
     0
  0
SCALE
  5
64
102
{ACAD_REACTORS
330
47
102
}
330
47
100
AcDbScale
 70
     0
300
1" = 1'-0"
140
1.0
141
12.0
290
     0
  0
SCALE
  5
65
102
{ACAD_REACTORS
330
47
102
}
330
47
100
AcDbScale
 70
     0
300
1-1/2" = 1'-0"
140
1.5
141
12.0
290
     0
  0
SCALE
  5
66
102
{ACAD_REACTORS
330
47
102
}
330
47
100
AcDbScale
 70
     0
300
3" = 1'-0"
140
3.0
141
12.0
290
     0
  0
SCALE
  5
67
102
{ACAD_REACTORS
330
47
102
}
330
47
100
AcDbScale
 70
     0
300
6" = 1'-0"
140
6.0
141
12.0
290
     0
  0
SCALE
  5
68
102
{ACAD_REACTORS
330
47
102
}
330
47
100
AcDbScale
 70
     0
300
1'-0" = 1'-0"
140
12.0
141
12.0
290
     0
  0
TABLESTYLE
  5
6A
102
{ACAD_REACTORS
330
69
102
}
102
{ACAD_XDICTIONARY
360
42C
102
}
330
69
100
AcDbTableStyle
  3
Standard
 70
     0
 71
     0
 40
0.06
 41
0.06
280
     0
281
     0
  7
Standard
140
0.18
170
     2
 62
     0
 63
   257
283
     0
 90
        4
 91
        0
  1

274
    -2
284
     1
 64
     0
275
    -2
285
     1
 65
     0
276
    -2
286
     1
 66
     0
277
    -2
287
     1
 67
     0
278
    -2
288
     1
 68
     0
279
    -2
289
     1
 69
     0
  7
Standard
140
0.25
170
     5
 62
     0
 63
   257
283
     0
 90
        4
 91
        0
  1

274
    -2
284
     1
 64
     0
275
    -2
285
     1
 65
     0
276
    -2
286
     1
 66
     0
277
    -2
287
     1
 67
     0
278
    -2
288
     1
 68
     0
279
    -2
289
     1
 69
     0
  7
Standard
140
0.18
170
     5
 62
     0
 63
   257
283
     0
 90
        4
 91
        0
  1

274
    -2
284
     1
 64
     0
275
    -2
285
     1
 65
     0
276
    -2
286
     1
 66
     0
277
    -2
287
     1
 67
     0
278
    -2
288
     1
 68
     0
279
    -2
289
     1
 69
     0
  0
VISUALSTYLE
  5
2F
102
{ACAD_REACTORS
330
2A
102
}
330
2A
100
AcDbVisualStyle
  2
2dWireframe
 70
     4
177
     3
291
     0
 70
    58
 90
        0
176
     1
 90
        2
176
     1
 90
        0
176
     1
 90
        0
176
     1
 40
0.6
176
     1
 40
30.0
176
     1
 62
     7
420
 16777215
176
     1
 90
        1
176
     1
 90
        4
176
     1
 62
     7
176
     1
 62
   257
176
     1
 90
        1
176
     1
 90
        1
176
     1
 40
1.0
176
     1
 90
        0
176
     1
 62
   257
176
     1
 40
1.0
176
     1
 90
        1
176
     1
 90
        6
176
     1
 90
        2
176
     1
 62
     7
176
     1
 90
        5
176
     1
 90
        0
176
     1
 90
        0
176
     1
290
     0
176
     1
 90
        1
176
     1
 40
0.0
176
     1
 90
        0
176
     1
290
     1
176
     1
290
     1
176
     1
290
     0
176
     1
290
     0
176
     1
290
     0
176
     1
290
     0
176
     1
290
     0
176
     1
290
     0
176
     1
290
     0
176
     1
 90
       50
176
     1
 40
0.0
176
     1
 40
1.0
176
     1
 90
        0
176
     1
 62
    18
420
        0
176
     1
 90
       50
176
     1
 90
        3
176
     1
 62
     5
420
      255
176
     1
290
     0
176
     1
 90
       50
176
     1
 90
       50
176
     1
 90
       50
176
     1
290
     0
176
     1
 90
       50
176
     1
 62
   256
176
     0
 40
1.0
176
     0
 90
        2
176
     1
  1
strokes_ogs.tif
176
     1
290
     0
176
     1
 40
1.0
176
     1
 40
1.0
176
     1
  0
VISUALSTYLE
  5
32
102
{ACAD_REACTORS
330
2A
102
}
330
2A
100
AcDbVisualStyle
  2
Basic
 70
     7
177
     3
291
     1
 70
    58
 90
        1
176
     1
 90
        0
176
     1
 90
        1
176
     1
 90
        0
176
     1
 40
0.6
176
     1
 40
30.0
176
     1
 62
     7
420
 16777215
176
     1
 90
        0
176
     1
 90
        4
176
     1
 62
     7
176
     1
 62
   257
176
     1
 90
        1
176
     1
 90
        1
176
     1
 40
1.0
176
     1
 90
        8
176
     1
 62
     7
176
     1
 40
1.0
176
     1
 90
        1
176
     1
 90
        6
176
     1
 90
        2
176
     1
 62
     7
176
     1
 90
        5
176
     1
 90
        0
176
     1
 90
        0
176
     1
290
     0
176
     1
 90
        1
176
     1
 40
0.0
176
     1
 90
        0
176
     1
290
     0
176
     1
290
     1
176
     1
290
     1
176
     1
290
     0
176
     1
290
     0
176
     1
290
     0
176
     1
290
     0
176
     1
290
     0
176
     1
290
     0
176
     1
 90
       50
176
     1
 40
0.0
176
     1
 40
1.0
176
     1
 90
        0
176
     1
 62
    18
420
        0
176
     1
 90
       50
176
     1
 90
        3
176
     1
 62
     5
420
      255
176
     1
290
     0
176
     1
 90
       50
176
     1
 90
       50
176
     1
 90
       50
176
     1
290
     0
176
     1
 90
       50
176
     1
 62
   256
176
     0
 40
1.0
176
     0
 90
        2
176
     1
  1
strokes_ogs.tif
176
     1
290
     0
176
     1
 40
1.0
176
     1
 40
1.0
176
     1
  0
VISUALSTYLE
  5
36
102
{ACAD_REACTORS
330
2A
102
}
330
2A
100
AcDbVisualStyle
  2
Brighten
 70
    12
177
     3
291
     1
 70
    58
 90
        2
176
     1
 90
        2
176
     1
 90
        0
176
     1
 90
        0
176
     1
 40
0.6
176
     1
 40
30.0
176
     1
 62
     7
420
 16777215
176
     1
 90
        1
176
     1
 90
        4
176
     1
 62
     7
176
     1
 62
   257
176
     1
 90
        1
176
     1
 90
        1
176
     1
 40
1.0
176
     1
 90
        8
176
     1
 62
     7
176
     1
 40
1.0
176
     1
 90
        1
176
     1
 90
        6
176
     1
 90
        2
176
     1
 62
     7
176
     1
 90
        5
176
     1
 90
        0
176
     1
 90
        0
176
     1
290
     0
176
     1
 90
        1
176
     1
 40
50.0
176
     1
 90
        0
176
     1
290
     0
176
     1
290
     1
176
     1
290
     1
176
     1
290
     0
176
     1
290
     0
176
     1
290
     0
176
     1
290
     0
176
     1
290
     0
176
     1
290
     0
176
     1
 90
       50
176
     1
 40
0.0
176
     1
 40
1.0
176
     1
 90
        0
176
     1
 62
    18
420
        0
176
     1
 90
       50
176
     1
 90
        3
176
     1
 62
     5
420
      255
176
     1
290
     0
176
     1
 90
       50
176
     1
 90
       50
176
     1
 90
       50
176
     1
290
     0
176
     1
 90
       50
176
     1
 62
   256
176
     0
 40
1.0
176
     0
 90
        2
176
     1
  1
strokes_ogs.tif
176
     1
290
     0
176
     1
 40
1.0
176
     1
 40
1.0
176
     1
  0
VISUALSTYLE
  5
3A
102
{ACAD_REACTORS
330
2A
102
}
330
2A
100
AcDbVisualStyle
  2
ColorChange
 70
    16
177
     3
291
     1
 70
    58
 90
        2
176
     1
 90
        2
176
     1
 90
        3
176
     1
 90
        0
176
     1
 40
0.6
176
     1
 40
30.0
176
     1
 62
     8
420
  8421504
176
     1
 90
        1
176
     1
 90
        4
176
     1
 62
     7
176
     1
 62
   257
176
     1
 90
        1
176
     1
 90
        1
176
     1
 40
1.0
176
     1
 90
        8
176
     1
 62
     8
420
  8421504
176
     1
 40
1.0
176
     1
 90
        1
176
     1
 90
        6
176
     1
 90
        2
176
     1
 62
     7
176
     1
 90
        5
176
     1
 90
        0
176
     1
 90
        0
176
     1
290
     0
176
     1
 90
        1
176
     1
 40
0.0
176
     1
 90
        0
176
     1
290
     0
176
     1
290
     1
176
     1
290
     1
176
     1
290
     0
176
     1
290
     0
176
     1
290
     0
176
     1
290
     0
176
     1
290
     0
176
     1
290
     0
176
     1
 90
       50
176
     1
 40
0.0
176
     1
 40
1.0
176
     1
 90
        0
176
     1
 62
    18
420
        0
176
     1
 90
       50
176
     1
 90
        3
176
     1
 62
     5
420
      255
176
     1
290
     0
176
     1
 90
       50
176
     1
 90
       50
176
     1
 90
       50
176
     1
290
     0
176
     1
 90
       50
176
     1
 62
   256
176
     0
 40
1.0
176
     0
 90
        2
176
     1
  1
strokes_ogs.tif
176
     1
290
     0
176
     1
 40
1.0
176
     1
 40
1.0
176
     1
  0
VISUALSTYLE
  5
34
102
{ACAD_REACTORS
330
2A
102
}
330
2A
100
AcDbVisualStyle
  2
Conceptual
 70
     9
177
     3
291
     0
 70
    58
 90
        3
176
     1
 90
        2
176
     1
 90
        0
176
     1
 90
        0
176
     1
 40
0.6
176
     1
 40
30.0
176
     1
 62
     7
420
 16777215
176
     1
 90
        2
176
     1
 90
        2
176
     1
 62
     7
176
     1
 62
   257
176
     1
 90
        1
176
     1
 90
        1
176
     1
 40
179.0
176
     1
 90
        8
176
     1
 62
     7
176
     1
 40
1.0
176
     1
 90
        1
176
     1
 90
        6
176
     1
 90
        2
176
     1
 62
     7
176
     1
 90
        3
176
     1
 90
        0
176
     1
 90
        0
176
     1
290
     0
176
     1
 90
        1
176
     1
 40
0.0
176
     1
 90
        0
176
     1
290
     0
176
     1
290
     1
176
     1
290
     1
176
     1
290
     0
176
     1
290
     0
176
     1
290
     0
176
     1
290
     0
176
     1
290
     0
176
     1
290
     0
176
     1
 90
       50
176
     1
 40
0.0
176
     1
 40
1.0
176
     1
 90
        0
176
     1
 62
    18
420
        0
176
     1
 90
       50
176
     1
 90
        3
176
     1
 62
     5
420
      255
176
     1
290
     0
176
     1
 90
       50
176
     1
 90
       50
176
     1
 90
       50
176
     1
290
     0
176
     1
 90
       50
176
     1
 62
   256
176
     0
 40
1.0
176
     0
 90
        2
176
     1
  1
strokes_ogs.tif
176
     1
290
     0
176
     1
 40
1.0
176
     1
 40
1.0
176
     1
  0
VISUALSTYLE
  5
35
102
{ACAD_REACTORS
330
2A
102
}
330
2A
100
AcDbVisualStyle
  2
Dim
 70
    11
177
     3
291
     1
 70
    58
 90
        2
176
     1
 90
        2
176
     1
 90
        0
176
     1
 90
        0
176
     1
 40
0.6
176
     1
 40
30.0
176
     1
 62
     7
420
 16777215
176
     1
 90
        1
176
     1
 90
        4
176
     1
 62
     7
176
     1
 62
   257
176
     1
 90
        1
176
     1
 90
        1
176
     1
 40
1.0
176
     1
 90
        8
176
     1
 62
     7
176
     1
 40
1.0
176
     1
 90
        1
176
     1
 90
        6
176
     1
 90
        2
176
     1
 62
     7
176
     1
 90
        5
176
     1
 90
        0
176
     1
 90
        0
176
     1
290
     0
176
     1
 90
        1
176
     1
 40
-50.0
176
     1
 90
        0
176
     1
290
     0
176
     1
290
     1
176
     1
290
     1
176
     1
290
     0
176
     1
290
     0
176
     1
290
     0
176
     1
290
     0
176
     1
290
     0
176
     1
290
     0
176
     1
 90
       50
176
     1
 40
0.0
176
     1
 40
1.0
176
     1
 90
        0
176
     1
 62
    18
420
        0
176
     1
 90
       50
176
     1
 90
        3
176
     1
 62
     5
420
      255
176
     1
290
     0
176
     1
 90
       50
176
     1
 90
       50
176
     1
 90
       50
176
     1
290
     0
176
     1
 90
       50
176
     1
 62
   256
176
     0
 40
1.0
176
     0
 90
        2
176
     1
  1
strokes_ogs.tif
176
     1
290
     0
176
     1
 40
1.0
176
     1
 40
1.0
176
     1
  0
VISUALSTYLE
  5
3D
102
{ACAD_REACTORS
330
2A
102
}
330
2A
100
AcDbVisualStyle
  2
EdgeColorOff
 70
    22
177
     3
291
     1
 70
    58
 90
        2
176
     0
 90
        2
176
     0
 90
        0
176
     0
 90
        0
176
     0
 40
0.6
176
     0
 40
30.0
176
     0
 62
     7
420
 16777215
176
     0
 90
        1
176
     0
 90
        4
176
     0
 62
     7
176
     0
 62
   257
176
     0
 90
        1
176
     0
 90
        1
176
     0
 40
1.0
176
     0
 90
        8
176
     2
 62
     7
176
     0
 40
1.0
176
     0
 90
        1
176
     0
 90
        6
176
     0
 90
        2
176
     0
 62
     7
176
     0
 90
        5
176
     0
 90
        0
176
     0
 90
        0
176
     0
290
     0
176
     0
 90
        1
176
     0
 40
0.0
176
     0
 90
        0
176
     0
290
     0
176
     0
290
     1
176
     0
290
     1
176
     0
290
     0
176
     0
290
     0
176
     0
290
     0
176
     0
290
     0
176
     0
290
     0
176
     0
290
     0
176
     0
 90
       50
176
     0
 40
0.0
176
     0
 40
1.0
176
     0
 90
        0
176
     0
 62
    18
420
        0
176
     0
 90
       50
176
     0
 90
        3
176
     0
 62
     5
420
      255
176
     0
290
     0
176
     0
 90
       50
176
     0
 90
       50
176
     0
 90
       50
176
     0
290
     0
176
     0
 90
       50
176
     0
 62
   256
176
     0
 40
1.0
176
     0
 90
        2
176
     0
  1
strokes_ogs.tif
176
     0
290
     0
176
     0
 40
1.0
176
     0
 40
1.0
176
     0
  0
VISUALSTYLE
  5
39
102
{ACAD_REACTORS
330
2A
102
}
330
2A
100
AcDbVisualStyle
  2
Facepattern
 70
    15
177
     3
291
     1
 70
    58
 90
        2
176
     1
 90
        2
176
     1
 90
        0
176
     1
 90
        0
176
     1
 40
0.6
176
     1
 40
30.0
176
     1
 62
     7
420
 16777215
176
     1
 90
        1
176
     1
 90
        4
176
     1
 62
     7
176
     1
 62
   257
176
     1
 90
        1
176
     1
 90
        1
176
     1
 40
1.0
176
     1
 90
        8
176
     1
 62
     7
176
     1
 40
1.0
176
     1
 90
        1
176
     1
 90
        6
176
     1
 90
        2
176
     1
 62
     7
176
     1
 90
        5
176
     1
 90
        0
176
     1
 90
        0
176
     1
290
     0
176
     1
 90
        1
176
     1
 40
0.0
176
     1
 90
        0
176
     1
290
     0
176
     1
290
     1
176
     1
290
     1
176
     1
290
     0
176
     1
290
     0
176
     1
290
     0
176
     1
290
     0
176
     1
290
     0
176
     1
290
     0
176
     1
 90
       50
176
     1
 40
0.0
176
     1
 40
1.0
176
     1
 90
        0
176
     1
 62
    18
420
        0
176
     1
 90
       50
176
     1
 90
        3
176
     1
 62
     5
420
      255
176
     1
290
     0
176
     1
 90
       50
176
     1
 90
       50
176
     1
 90
       50
176
     1
290
     0
176
     1
 90
       50
176
     1
 62
   256
176
     0
 40
1.0
176
     0
 90
        2
176
     1
  1
strokes_ogs.tif
176
     1
290
     0
176
     1
 40
1.0
176
     1
 40
1.0
176
     1
  0
VISUALSTYLE
  5
2B
102
{ACAD_REACTORS
330
2A
102
}
330
2A
100
AcDbVisualStyle
  2
Flat
 70
     0
177
     3
291
     1
 70
    58
 90
        2
176
     1
 90
        1
176
     1
 90
        1
176
     1
 90
        2
176
     1
 40
0.6
176
     1
 40
30.0
176
     1
 62
     7
420
 16777215
176
     1
 90
        0
176
     1
 90
        0
176
     1
 62
     7
176
     1
 62
   257
176
     1
 90
        1
176
     1
 90
        1
176
     1
 40
1.0
176
     1
 90
        8
176
     1
 62
     7
176
     1
 40
1.0
176
     1
 90
        1
176
     1
 90
        6
176
     1
 90
        2
176
     1
 62
     7
176
     1
 90
        5
176
     1
 90
        0
176
     1
 90
        0
176
     1
290
     0
176
     1
 90
       13
176
     1
 40
0.0
176
     1
 90
        0
176
     1
290
     0
176
     1
290
     1
176
     1
290
     1
176
     1
290
     0
176
     1
290
     0
176
     1
290
     0
176
     1
290
     0
176
     1
290
     0
176
     1
290
     0
176
     1
 90
       50
176
     1
 40
0.0
176
     1
 40
1.0
176
     1
 90
        0
176
     1
 62
    18
420
        0
176
     1
 90
       50
176
     1
 90
        3
176
     1
 62
     5
420
      255
176
     1
290
     0
176
     1
 90
       50
176
     1
 90
       50
176
     1
 90
       50
176
     1
290
     0
176
     1
 90
       50
176
     1
 62
   256
176
     0
 40
1.0
176
     0
 90
        2
176
     1
  1
strokes_ogs.tif
176
     1
290
     0
176
     1
 40
1.0
176
     1
 40
1.0
176
     1
  0
VISUALSTYLE
  5
2C
102
{ACAD_REACTORS
330
2A
102
}
330
2A
100
AcDbVisualStyle
  2
FlatWithEdges
 70
     1
177
     3
291
     1
 70
    58
 90
        2
176
     1
 90
        1
176
     1
 90
        1
176
     1
 90
        2
176
     1
 40
0.6
176
     1
 40
30.0
176
     1
 62
     7
420
 16777215
176
     1
 90
        1
176
     1
 90
        0
176
     1
 62
     7
176
     1
 62
   257
176
     1
 90
        1
176
     1
 90
        1
176
     1
 40
1.0
176
     1
 90
        0
176
     1
 62
   257
176
     1
 40
1.0
176
     1
 90
        1
176
     1
 90
        6
176
     1
 90
        2
176
     1
 62
     7
176
     1
 90
        5
176
     1
 90
        0
176
     1
 90
        0
176
     1
290
     0
176
     1
 90
       13
176
     1
 40
0.0
176
     1
 90
        0
176
     1
290
     0
176
     1
290
     1
176
     1
290
     1
176
     1
290
     0
176
     1
290
     0
176
     1
290
     0
176
     1
290
     0
176
     1
290
     0
176
     1
290
     0
176
     1
 90
       50
176
     1
 40
0.0
176
     1
 40
1.0
176
     1
 90
        0
176
     1
 62
    18
420
        0
176
     1
 90
       50
176
     1
 90
        3
176
     1
 62
     5
420
      255
176
     1
290
     0
176
     1
 90
       50
176
     1
 90
       50
176
     1
 90
       50
176
     1
290
     0
176
     1
 90
       50
176
     1
 62
   256
176
     0
 40
1.0
176
     0
 90
        2
176
     1
  1
strokes_ogs.tif
176
     1
290
     0
176
     1
 40
1.0
176
     1
 40
1.0
176
     1
  0
VISUALSTYLE
  5
2D
102
{ACAD_REACTORS
330
2A
102
}
330
2A
100
AcDbVisualStyle
  2
Gouraud
 70
     2
177
     3
291
     1
 70
    58
 90
        2
176
     1
 90
        2
176
     1
 90
        1
176
     1
 90
        2
176
     1
 40
0.6
176
     1
 40
30.0
176
     1
 62
     7
420
 16777215
176
     1
 90
        0
176
     1
 90
        0
176
     1
 62
     7
176
     1
 62
   257
176
     1
 90
        1
176
     1
 90
        1
176
     1
 40
1.0
176
     1
 90
        0
176
     1
 62
     7
176
     1
 40
1.0
176
     1
 90
        1
176
     1
 90
        6
176
     1
 90
        2
176
     1
 62
     7
176
     1
 90
        5
176
     1
 90
        0
176
     1
 90
        0
176
     1
290
     0
176
     1
 90
       13
176
     1
 40
0.0
176
     1
 90
        0
176
     1
290
     0
176
     1
290
     1
176
     1
290
     1
176
     1
290
     0
176
     1
290
     0
176
     1
290
     0
176
     1
290
     0
176
     1
290
     0
176
     1
290
     0
176
     1
 90
       50
176
     1
 40
0.0
176
     1
 40
1.0
176
     1
 90
        0
176
     1
 62
    18
420
        0
176
     1
 90
       50
176
     1
 90
        3
176
     1
 62
     5
420
      255
176
     1
290
     0
176
     1
 90
       50
176
     1
 90
       50
176
     1
 90
       50
176
     1
290
     0
176
     1
 90
       50
176
     1
 62
   256
176
     0
 40
1.0
176
     0
 90
        2
176
     1
  1
strokes_ogs.tif
176
     1
290
     0
176
     1
 40
1.0
176
     1
 40
1.0
176
     1
  0
VISUALSTYLE
  5
2E
102
{ACAD_REACTORS
330
2A
102
}
330
2A
100
AcDbVisualStyle
  2
GouraudWithEdges
 70
     3
177
     3
291
     1
 70
    58
 90
        2
176
     1
 90
        2
176
     1
 90
        1
176
     1
 90
        2
176
     1
 40
0.6
176
     1
 40
30.0
176
     1
 62
     7
420
 16777215
176
     1
 90
        1
176
     1
 90
        0
176
     1
 62
     7
176
     1
 62
   257
176
     1
 90
        1
176
     1
 90
        1
176
     1
 40
1.0
176
     1
 90
        0
176
     1
 62
   257
176
     1
 40
1.0
176
     1
 90
        1
176
     1
 90
        6
176
     1
 90
        2
176
     1
 62
     7
176
     1
 90
        5
176
     1
 90
        0
176
     1
 90
        0
176
     1
290
     0
176
     1
 90
       13
176
     1
 40
0.0
176
     1
 90
        0
176
     1
290
     0
176
     1
290
     1
176
     1
290
     1
176
     1
290
     0
176
     1
290
     0
176
     1
290
     0
176
     1
290
     0
176
     1
290
     0
176
     1
290
     0
176
     1
 90
       50
176
     1
 40
0.0
176
     1
 40
1.0
176
     1
 90
        0
176
     1
 62
    18
420
        0
176
     1
 90
       50
176
     1
 90
        3
176
     1
 62
     5
420
      255
176
     1
290
     0
176
     1
 90
       50
176
     1
 90
       50
176
     1
 90
       50
176
     1
290
     0
176
     1
 90
       50
176
     1
 62
   256
176
     0
 40
1.0
176
     0
 90
        2
176
     1
  1
strokes_ogs.tif
176
     1
290
     0
176
     1
 40
1.0
176
     1
 40
1.0
176
     1
  0
VISUALSTYLE
  5
31
102
{ACAD_REACTORS
330
2A
102
}
330
2A
100
AcDbVisualStyle
  2
Hidden
 70
     6
177
     3
291
     0
 70
    58
 90
        1
176
     1
 90
        2
176
     1
 90
        2
176
     1
 90
        0
176
     1
 40
0.6
176
     1
 40
30.0
176
     1
 62
     7
420
 16777215
176
     1
 90
        2
176
     1
 90
        2
176
     1
 62
     7
176
     1
 62
   257
176
     1
 90
        2
176
     1
 90
        1
176
     1
 40
40.0
176
     1
 90
        0
176
     1
 62
   257
176
     1
 40
1.0
176
     1
 90
        1
176
     1
 90
        6
176
     1
 90
        2
176
     1
 62
     7
176
     1
 90
        3
176
     1
 90
        0
176
     1
 90
        0
176
     1
290
     0
176
     1
 90
        1
176
     1
 40
0.0
176
     1
 90
        0
176
     1
290
     0
176
     1
290
     1
176
     1
290
     1
176
     1
290
     0
176
     1
290
     0
176
     1
290
     0
176
     1
290
     0
176
     1
290
     0
176
     1
290
     0
176
     1
 90
       50
176
     1
 40
0.0
176
     1
 40
1.0
176
     1
 90
        0
176
     1
 62
    18
420
        0
176
     1
 90
       50
176
     1
 90
        3
176
     1
 62
     5
420
      255
176
     1
290
     0
176
     1
 90
       50
176
     1
 90
       50
176
     1
 90
       50
176
     1
290
     0
176
     1
 90
       50
176
     1
 62
   256
176
     0
 40
1.0
176
     0
 90
        2
176
     1
  1
strokes_ogs.tif
176
     1
290
     0
176
     1
 40
1.0
176
     1
 40
1.0
176
     1
  0
VISUALSTYLE
  5
3B
102
{ACAD_REACTORS
330
2A
102
}
330
2A
100
AcDbVisualStyle
  2
JitterOff
 70
    20
177
     3
291
     1
 70
    58
 90
        2
176
     0
 90
        2
176
     0
 90
        0
176
     0
 90
        0
176
     0
 40
0.6
176
     0
 40
30.0
176
     0
 62
     7
420
 16777215
176
     0
 90
        1
176
     0
 90
        4
176
     0
 62
     7
176
     0
 62
   257
176
     0
 90
        1
176
     0
 90
        1
176
     0
 40
1.0
176
     0
 90
       10
176
     2
 62
     7
176
     0
 40
1.0
176
     0
 90
        1
176
     0
 90
        6
176
     0
 90
        2
176
     0
 62
     7
176
     0
 90
        5
176
     0
 90
        0
176
     0
 90
        0
176
     0
290
     0
176
     0
 90
        1
176
     0
 40
0.0
176
     0
 90
        0
176
     0
290
     0
176
     0
290
     1
176
     0
290
     1
176
     0
290
     0
176
     0
290
     0
176
     0
290
     0
176
     0
290
     0
176
     0
290
     0
176
     0
290
     0
176
     0
 90
       50
176
     0
 40
0.0
176
     0
 40
1.0
176
     0
 90
        0
176
     0
 62
    18
420
        0
176
     0
 90
       50
176
     0
 90
        3
176
     0
 62
     5
420
      255
176
     0
290
     0
176
     0
 90
       50
176
     0
 90
       50
176
     0
 90
       50
176
     0
290
     0
176
     0
 90
       50
176
     0
 62
   256
176
     0
 40
1.0
176
     0
 90
        2
176
     0
  1
strokes_ogs.tif
176
     0
290
     0
176
     0
 40
1.0
176
     0
 40
1.0
176
     0
  0
VISUALSTYLE
  5
38
102
{ACAD_REACTORS
330
2A
102
}
330
2A
100
AcDbVisualStyle
  2
Linepattern
 70
    14
177
     3
291
     1
 70
    58
 90
        2
176
     1
 90
        2
176
     1
 90
        0
176
     1
 90
        0
176
     1
 40
0.6
176
     1
 40
30.0
176
     1
 62
     7
420
 16777215
176
     1
 90
        1
176
     1
 90
        4
176
     1
 62
     7
176
     1
 62
   257
176
     1
 90
        7
176
     1
 90
        7
176
     1
 40
1.0
176
     1
 90
        8
176
     1
 62
     7
176
     1
 40
1.0
176
     1
 90
        1
176
     1
 90
        6
176
     1
 90
        2
176
     1
 62
     7
176
     1
 90
        5
176
     1
 90
        0
176
     1
 90
        0
176
     1
290
     0
176
     1
 90
        1
176
     1
 40
0.0
176
     1
 90
        0
176
     1
290
     0
176
     1
290
     1
176
     1
290
     1
176
     1
290
     0
176
     1
290
     0
176
     1
290
     0
176
     1
290
     0
176
     1
290
     0
176
     1
290
     0
176
     1
 90
       50
176
     1
 40
0.0
176
     1
 40
1.0
176
     1
 90
        0
176
     1
 62
    18
420
        0
176
     1
 90
       50
176
     1
 90
        3
176
     1
 62
     5
420
      255
176
     1
290
     0
176
     1
 90
       50
176
     1
 90
       50
176
     1
 90
       50
176
     1
290
     0
176
     1
 90
       50
176
     1
 62
   256
176
     0
 40
1.0
176
     0
 90
        2
176
     1
  1
strokes_ogs.tif
176
     1
290
     0
176
     1
 40
1.0
176
     1
 40
1.0
176
     1
  0
VISUALSTYLE
  5
3C
102
{ACAD_REACTORS
330
2A
102
}
330
2A
100
AcDbVisualStyle
  2
OverhangOff
 70
    21
177
     3
291
     1
 70
    58
 90
        2
176
     0
 90
        2
176
     0
 90
        0
176
     0
 90
        0
176
     0
 40
0.6
176
     0
 40
30.0
176
     0
 62
     7
420
 16777215
176
     0
 90
        1
176
     0
 90
        4
176
     0
 62
     7
176
     0
 62
   257
176
     0
 90
        1
176
     0
 90
        1
176
     0
 40
1.0
176
     0
 90
        9
176
     2
 62
     7
176
     0
 40
1.0
176
     0
 90
        1
176
     0
 90
        6
176
     0
 90
        2
176
     0
 62
     7
176
     0
 90
        5
176
     0
 90
        0
176
     0
 90
        0
176
     0
290
     0
176
     0
 90
        1
176
     0
 40
0.0
176
     0
 90
        0
176
     0
290
     0
176
     0
290
     1
176
     0
290
     1
176
     0
290
     0
176
     0
290
     0
176
     0
290
     0
176
     0
290
     0
176
     0
290
     0
176
     0
290
     0
176
     0
 90
       50
176
     0
 40
0.0
176
     0
 40
1.0
176
     0
 90
        0
176
     0
 62
    18
420
        0
176
     0
 90
       50
176
     0
 90
        3
176
     0
 62
     5
420
      255
176
     0
290
     0
176
     0
 90
       50
176
     0
 90
       50
176
     0
 90
       50
176
     0
290
     0
176
     0
 90
       50
176
     0
 62
   256
176
     0
 40
1.0
176
     0
 90
        2
176
     0
  1
strokes_ogs.tif
176
     0
290
     0
176
     0
 40
1.0
176
     0
 40
1.0
176
     0
  0
VISUALSTYLE
  5
33
102
{ACAD_REACTORS
330
2A
102
}
330
2A
100
AcDbVisualStyle
  2
Realistic
 70
     8
177
     3
291
     0
 70
    58
 90
        2
176
     1
 90
        3
176
     1
 90
        0
176
     1
 90
        2
176
     1
 40
0.6
176
     1
 40
30.0
176
     1
 62
     7
420
 16777215
176
     1
 90
        0
176
     1
 90
        0
176
     1
 62
     7
176
     1
 62
   257
176
     1
 90
        1
176
     1
 90
        1
176
     1
 40
1.0
176
     1
 90
        8
176
     1
 62
   257
176
     1
 40
1.0
176
     1
 90
        1
176
     1
 90
        6
176
     1
 90
        2
176
     1
 62
     7
176
     1
 90
        3
176
     1
 90
        0
176
     1
 90
        0
176
     1
290
     0
176
     1
 90
       13
176
     1
 40
0.0
176
     1
 90
        0
176
     1
290
     0
176
     1
290
     1
176
     1
290
     1
176
     1
290
     0
176
     1
290
     0
176
     1
290
     0
176
     1
290
     0
176
     1
290
     0
176
     1
290
     0
176
     1
 90
       50
176
     1
 40
0.0
176
     1
 40
1.0
176
     1
 90
        0
176
     1
 62
    18
420
        0
176
     1
 90
       50
176
     1
 90
        3
176
     1
 62
     5
420
      255
176
     1
290
     0
176
     1
 90
       50
176
     1
 90
       50
176
     1
 90
       50
176
     1
290
     0
176
     1
 90
       50
176
     1
 62
   256
176
     0
 40
1.0
176
     0
 90
        2
176
     1
  1
strokes_ogs.tif
176
     1
290
     0
176
     1
 40
1.0
176
     1
 40
1.0
176
     1
  0
VISUALSTYLE
  5
42
102
{ACAD_REACTORS
330
2A
102
}
330
2A
100
AcDbVisualStyle
  2
Shaded
 70
    27
177
     3
291
     0
 70
    58
 90
        2
176
     1
 90
        2
176
     1
 90
        1
176
     1
 90
        2
176
     1
 40
0.6
176
     1
 40
30.0
176
     1
 62
     7
420
 16777215
176
     1
 90
        0
176
     1
 90
        4
176
     1
 62
     7
176
     1
 62
   257
176
     1
 90
        1
176
     1
 90
        1
176
     1
 40
1.0
176
     1
 90
        8
176
     1
 62
   257
176
     1
 40
1.0
176
     1
 90
        1
176
     1
 90
        6
176
     1
 90
        2
176
     1
 62
     8
420
  7895160
176
     1
 90
        3
176
     1
 90
        0
176
     1
 90
        0
176
     1
290
     0
176
     1
 90
        5
176
     1
 40
0.0
176
     1
 90
        0
176
     1
290
     0
176
     1
290
     1
176
     1
290
     1
176
     1
290
     0
176
     1
290
     0
176
     1
290
     0
176
     1
290
     0
176
     1
290
     0
176
     1
290
     0
176
     1
 90
       50
176
     1
 40
0.0
176
     1
 40
1.0
176
     1
 90
        0
176
     1
 62
    18
420
        0
176
     1
 90
       50
176
     1
 90
        3
176
     1
 62
     5
420
      255
176
     1
290
     0
176
     1
 90
       50
176
     1
 90
       50
176
     1
 90
       50
176
     1
290
     0
176
     1
 90
       50
176
     1
 62
   256
176
     0
 40
1.0
176
     0
 90
        2
176
     1
  1
strokes_ogs.tif
176
     1
290
     0
176
     1
 40
1.0
176
     1
 40
1.0
176
     1
  0
VISUALSTYLE
  5
41
102
{ACAD_REACTORS
330
2A
102
}
330
2A
100
AcDbVisualStyle
  2
Shaded with edges
 70
    26
177
     3
291
     0
 70
    58
 90
        2
176
     1
 90
        2
176
     1
 90
        1
176
     1
 90
        2
176
     1
 40
0.6
176
     1
 40
30.0
176
     1
 62
     7
420
 16777215
176
     1
 90
        1
176
     1
 90
       10
176
     1
 62
     7
176
     1
 62
   257
176
     1
 90
        2
176
     1
 90
        1
176
     1
 40
1.0
176
     1
 90
        8
176
     1
 62
   257
176
     1
 40
1.0
176
     1
 90
        1
176
     1
 90
        6
176
     1
 90
        2
176
     1
 62
     7
176
     1
 90
        3
176
     1
 90
        0
176
     1
 90
        0
176
     1
290
     0
176
     1
 90
        5
176
     1
 40
0.0
176
     1
 90
        0
176
     1
290
     0
176
     1
290
     1
176
     1
290
     1
176
     1
290
     0
176
     1
290
     0
176
     1
290
     0
176
     1
290
     0
176
     1
290
     0
176
     1
290
     0
176
     1
 90
       50
176
     1
 40
0.0
176
     1
 40
1.0
176
     1
 90
        0
176
     1
 62
    18
420
        0
176
     1
 90
       50
176
     1
 90
        3
176
     1
 62
     5
420
      255
176
     1
290
     0
176
     1
 90
       50
176
     1
 90
       50
176
     1
 90
       50
176
     1
290
     0
176
     1
 90
       50
176
     1
 62
   256
176
     0
 40
1.0
176
     0
 90
        2
176
     1
  1
strokes_ogs.tif
176
     1
290
     0
176
     1
 40
1.0
176
     1
 40
1.0
176
     1
  0
VISUALSTYLE
  5
3E
102
{ACAD_REACTORS
330
2A
102
}
330
2A
100
AcDbVisualStyle
  2
Shades of Gray
 70
    23
177
     3
291
     0
 70
    58
 90
        2
176
     1
 90
        2
176
     1
 90
        3
176
     1
 90
        0
176
     1
 40
0.6
176
     1
 40
30.0
176
     1
 62
     7
420
 16777215
176
     1
 90
        2
176
     1
 90
        2
176
     1
 62
     7
176
     1
 62
     7
176
     1
 90
        1
176
     1
 90
        1
176
     1
 40
40.0
176
     1
 90
        8
176
     1
 62
     7
176
     1
 40
1.0
176
     1
 90
        1
176
     1
 90
        6
176
     1
 90
        2
176
     1
 62
     7
176
     1
 90
        3
176
     1
 90
        0
176
     1
 90
        0
176
     1
290
     0
176
     1
 90
        1
176
     1
 40
0.0
176
     1
 90
        0
176
     1
290
     0
176
     1
290
     1
176
     1
290
     1
176
     1
290
     0
176
     1
290
     0
176
     1
290
     0
176
     1
290
     0
176
     1
290
     0
176
     1
290
     0
176
     1
 90
       50
176
     1
 40
0.0
176
     1
 40
1.0
176
     1
 90
        0
176
     1
 62
    18
420
        0
176
     1
 90
       50
176
     1
 90
        3
176
     1
 62
     5
420
      255
176
     1
290
     0
176
     1
 90
       50
176
     1
 90
       50
176
     1
 90
       50
176
     1
290
     0
176
     1
 90
       50
176
     1
 62
   256
176
     0
 40
1.0
176
     0
 90
        2
176
     1
  1
strokes_ogs.tif
176
     1
290
     0
176
     1
 40
1.0
176
     1
 40
1.0
176
     1
  0
VISUALSTYLE
  5
3F
102
{ACAD_REACTORS
330
2A
102
}
330
2A
100
AcDbVisualStyle
  2
Sketchy
 70
    24
177
     3
291
     0
 70
    58
 90
        1
176
     1
 90
        2
176
     1
 90
        2
176
     1
 90
        0
176
     1
 40
0.6
176
     1
 40
30.0
176
     1
 62
     7
420
 16777215
176
     1
 90
        2
176
     1
 90
        2
176
     1
 62
     7
176
     1
 62
     7
176
     1
 90
        1
176
     1
 90
        1
176
     1
 40
40.0
176
     1
 90
       11
176
     1
 62
     7
176
     1
 40
1.0
176
     1
 90
        1
176
     1
 90
        6
176
     1
 90
        2
176
     1
 62
     7
176
     1
 90
        6
176
     1
 90
        0
176
     1
 90
        0
176
     1
290
     0
176
     1
 90
        1
176
     1
 40
0.0
176
     1
 90
        0
176
     1
290
     0
176
     1
290
     1
176
     1
290
     1
176
     1
290
     0
176
     1
290
     0
176
     1
290
     0
176
     1
290
     0
176
     1
290
     0
176
     1
290
     0
176
     1
 90
       50
176
     1
 40
0.0
176
     1
 40
1.0
176
     1
 90
        0
176
     1
 62
    18
420
        0
176
     1
 90
       50
176
     1
 90
        3
176
     1
 62
     5
420
      255
176
     1
290
     0
176
     1
 90
       50
176
     1
 90
       50
176
     1
 90
       50
176
     1
290
     0
176
     1
 90
       50
176
     1
 62
   256
176
     0
 40
1.0
176
     0
 90
        2
176
     1
  1
strokes_ogs.tif
176
     1
290
     0
176
     1
 40
1.0
176
     1
 40
1.0
176
     1
  0
VISUALSTYLE
  5
37
102
{ACAD_REACTORS
330
2A
102
}
330
2A
100
AcDbVisualStyle
  2
Thicken
 70
    13
177
     3
291
     1
 70
    58
 90
        2
176
     1
 90
        2
176
     1
 90
        0
176
     1
 90
        0
176
     1
 40
0.6
176
     1
 40
30.0
176
     1
 62
     7
420
 16777215
176
     1
 90
        1
176
     1
 90
        4
176
     1
 62
     7
176
     1
 62
   257
176
     1
 90
        1
176
     1
 90
        1
176
     1
 40
1.0
176
     1
 90
       12
176
     1
 62
     7
176
     1
 40
1.0
176
     1
 90
        1
176
     1
 90
        6
176
     1
 90
        2
176
     1
 62
     7
176
     1
 90
        5
176
     1
 90
        0
176
     1
 90
        0
176
     1
290
     0
176
     1
 90
        1
176
     1
 40
0.0
176
     1
 90
        0
176
     1
290
     0
176
     1
290
     1
176
     1
290
     1
176
     1
290
     0
176
     1
290
     0
176
     1
290
     0
176
     1
290
     0
176
     1
290
     0
176
     1
290
     0
176
     1
 90
       50
176
     1
 40
0.0
176
     1
 40
1.0
176
     1
 90
        0
176
     1
 62
    18
420
        0
176
     1
 90
       50
176
     1
 90
        3
176
     1
 62
     5
420
      255
176
     1
290
     0
176
     1
 90
       50
176
     1
 90
       50
176
     1
 90
       50
176
     1
290
     0
176
     1
 90
       50
176
     1
 62
   256
176
     0
 40
1.0
176
     0
 90
        2
176
     1
  1
strokes_ogs.tif
176
     1
290
     0
176
     1
 40
1.0
176
     1
 40
1.0
176
     1
  0
VISUALSTYLE
  5
30
102
{ACAD_REACTORS
330
2A
102
}
330
2A
100
AcDbVisualStyle
  2
Wireframe
 70
     5
177
     3
291
     0
 70
    58
 90
        0
176
     1
 90
        2
176
     1
 90
        0
176
     1
 90
        0
176
     1
 40
0.6
176
     1
 40
30.0
176
     1
 62
     7
420
 16777215
176
     1
 90
        1
176
     1
 90
        4
176
     1
 62
     7
176
     1
 62
   257
176
     1
 90
        1
176
     1
 90
        1
176
     1
 40
1.0
176
     1
 90
        0
176
     1
 62
   257
176
     1
 40
1.0
176
     1
 90
        1
176
     1
 90
        6
176
     1
 90
        2
176
     1
 62
     7
176
     1
 90
        3
176
     1
 90
        0
176
     1
 90
        0
176
     1
290
     0
176
     1
 90
        1
176
     1
 40
0.0
176
     1
 90
        0
176
     1
290
     0
176
     1
290
     1
176
     1
290
     1
176
     1
290
     0
176
     1
290
     0
176
     1
290
     0
176
     1
290
     0
176
     1
290
     0
176
     1
290
     0
176
     1
 90
       50
176
     1
 40
0.0
176
     1
 40
1.0
176
     1
 90
        0
176
     1
 62
    18
420
        0
176
     1
 90
       50
176
     1
 90
        3
176
     1
 62
     5
420
      255
176
     1
290
     0
176
     1
 90
       50
176
     1
 90
       50
176
     1
 90
       50
176
     1
290
     0
176
     1
 90
       50
176
     1
 62
   256
176
     0
 40
1.0
176
     0
 90
        2
176
     1
  1
strokes_ogs.tif
176
     1
290
     0
176
     1
 40
1.0
176
     1
 40
1.0
176
     1
  0
VISUALSTYLE
  5
40
102
{ACAD_REACTORS
330
2A
102
}
330
2A
100
AcDbVisualStyle
  2
X-Ray
 70
    25
177
     3
291
     0
 70
    58
 90
        2
176
     1
 90
        2
176
     1
 90
        1
176
     1
 90
        1
176
     1
 40
0.5
176
     1
 40
30.0
176
     1
 62
     7
420
 16777215
176
     1
 90
        1
176
     1
 90
        0
176
     1
 62
     7
176
     1
 62
   257
176
     1
 90
        1
176
     1
 90
        1
176
     1
 40
1.0
176
     1
 90
        8
176
     1
 62
     7
176
     1
 40
1.0
176
     1
 90
        1
176
     1
 90
        6
176
     1
 90
        2
176
     1
 62
     7
176
     1
 90
        3
176
     1
 90
        0
176
     1
 90
        0
176
     1
290
     0
176
     1
 90
       13
176
     1
 40
0.0
176
     1
 90
        0
176
     1
290
     0
176
     1
290
     1
176
     1
290
     1
176
     1
290
     0
176
     1
290
     0
176
     1
290
     0
176
     1
290
     0
176
     1
290
     0
176
     1
290
     0
176
     1
 90
       50
176
     1
 40
0.0
176
     1
 40
1.0
176
     1
 90
        0
176
     1
 62
    18
420
        0
176
     1
 90
       50
176
     1
 90
        3
176
     1
 62
     5
420
      255
176
     1
290
     0
176
     1
 90
       50
176
     1
 90
       50
176
     1
 90
       50
176
     1
290
     0
176
     1
 90
       50
176
     1
 62
   256
176
     0
 40
1.0
176
     0
 90
        2
176
     1
  1
strokes_ogs.tif
176
     1
290
     0
176
     1
 40
1.0
176
     1
 40
1.0
176
     1
  0
DICTIONARYVAR
  5
42B
102
{ACAD_REACTORS
330
42A
102
}
330
42A
100
DictionaryVariables
280
     0
  1
1:1
  0
DICTIONARYVAR
  5
430
102
{ACAD_REACTORS
330
42A
102
}
330
42A
100
DictionaryVariables
280
     0
  1
Standard
  0
DICTIONARYVAR
  5
42F
102
{ACAD_REACTORS
330
42A
102
}
330
42A
100
DictionaryVariables
280
     0
  1
Standard
  0
DICTIONARYVAR
  5
433
102
{ACAD_REACTORS
330
42A
102
}
330
42A
100
DictionaryVariables
280
     0
  1
0
  0
DICTIONARY
  5
42C
330
6A
100
AcDbDictionary
280
     1
281
     1
  3
ACAD_ROUNDTRIP_2008_TABLESTYLE_CELLSTYLEMAP
360
42D
  0
CELLSTYLEMAP
  5
42D
102
{ACAD_REACTORS
330
42C
102
}
330
42C
100
AcDbCellStyleMap
 90
        3
300
CELLSTYLE
  1
TABLEFORMAT_BEGIN
 90
        5
170
     1
 91
        0
 92
    32768
 62
   257
 93
        1
300
CONTENTFORMAT
  1
CONTENTFORMAT_BEGIN
 90
        0
 91
        0
 92
        4
 93
        0
300

 40
0.0
140
1.0
 94
        5
 62
     0
340
11
144
0.25
309
CONTENTFORMAT_END
171
     1
301
MARGIN
  1
CELLMARGIN_BEGIN
 40
0.06
 40
0.06
 40
0.06
 40
0.06
 40
0.06
 40
0.06
309
CELLMARGIN_END
 94
        6
 95
        1
302
GRIDFORMAT
  1
GRIDFORMAT_BEGIN
 90
        0
 91
        1
 62
     0
 92
       -2
340
14
 93
        0
 40
0.045
309
GRIDFORMAT_END
 95
        2
302
GRIDFORMAT
  1
GRIDFORMAT_BEGIN
 90
        0
 91
        1
 62
     0
 92
       -2
340
14
 93
        0
 40
0.045
309
GRIDFORMAT_END
 95
        4
302
GRIDFORMAT
  1
GRIDFORMAT_BEGIN
 90
        0
 91
        1
 62
     0
 92
       -2
340
14
 93
        0
 40
0.045
309
GRIDFORMAT_END
 95
        8
302
GRIDFORMAT
  1
GRIDFORMAT_BEGIN
 90
        0
 91
        1
 62
     0
 92
       -2
340
14
 93
        0
 40
0.045
309
GRIDFORMAT_END
 95
       16
302
GRIDFORMAT
  1
GRIDFORMAT_BEGIN
 90
        0
 91
        1
 62
     0
 92
       -2
340
14
 93
        0
 40
0.045
309
GRIDFORMAT_END
 95
       32
302
GRIDFORMAT
  1
GRIDFORMAT_BEGIN
 90
        0
 91
        1
 62
     0
 92
       -2
340
14
 93
        0
 40
0.045
309
GRIDFORMAT_END
309
TABLEFORMAT_END
  1
CELLSTYLE_BEGIN
 90
        1
 91
        1
300
_TITLE
309
CELLSTYLE_END
300
CELLSTYLE
  1
TABLEFORMAT_BEGIN
 90
        5
170
     1
 91
        0
 92
        0
 62
   257
 93
        1
300
CONTENTFORMAT
  1
CONTENTFORMAT_BEGIN
 90
        0
 91
        0
 92
        4
 93
        0
300

 40
0.0
140
1.0
 94
        5
 62
     0
340
11
144
0.18
309
CONTENTFORMAT_END
171
     1
301
MARGIN
  1
CELLMARGIN_BEGIN
 40
0.06
 40
0.06
 40
0.06
 40
0.06
 40
0.06
 40
0.06
309
CELLMARGIN_END
 94
        6
 95
        1
302
GRIDFORMAT
  1
GRIDFORMAT_BEGIN
 90
        0
 91
        1
 62
     0
 92
       -2
340
14
 93
        0
 40
0.045
309
GRIDFORMAT_END
 95
        2
302
GRIDFORMAT
  1
GRIDFORMAT_BEGIN
 90
        0
 91
        1
 62
     0
 92
       -2
340
14
 93
        0
 40
0.045
309
GRIDFORMAT_END
 95
        4
302
GRIDFORMAT
  1
GRIDFORMAT_BEGIN
 90
        0
 91
        1
 62
     0
 92
       -2
340
14
 93
        0
 40
0.045
309
GRIDFORMAT_END
 95
        8
302
GRIDFORMAT
  1
GRIDFORMAT_BEGIN
 90
        0
 91
        1
 62
     0
 92
       -2
340
14
 93
        0
 40
0.045
309
GRIDFORMAT_END
 95
       16
302
GRIDFORMAT
  1
GRIDFORMAT_BEGIN
 90
        0
 91
        1
 62
     0
 92
       -2
340
14
 93
        0
 40
0.045
309
GRIDFORMAT_END
 95
       32
302
GRIDFORMAT
  1
GRIDFORMAT_BEGIN
 90
        0
 91
        1
 62
     0
 92
       -2
340
14
 93
        0
 40
0.045
309
GRIDFORMAT_END
309
TABLEFORMAT_END
  1
CELLSTYLE_BEGIN
 90
        2
 91
        1
300
_HEADER
309
CELLSTYLE_END
300
CELLSTYLE
  1
TABLEFORMAT_BEGIN
 90
        5
170
     1
 91
        0
 92
        0
 62
   257
 93
        1
300
CONTENTFORMAT
  1
CONTENTFORMAT_BEGIN
 90
        0
 91
        0
 92
        4
 93
        0
300

 40
0.0
140
1.0
 94
        2
 62
     0
340
11
144
0.18
309
CONTENTFORMAT_END
171
     1
301
MARGIN
  1
CELLMARGIN_BEGIN
 40
0.06
 40
0.06
 40
0.06
 40
0.06
 40
0.06
 40
0.06
309
CELLMARGIN_END
 94
        6
 95
        1
302
GRIDFORMAT
  1
GRIDFORMAT_BEGIN
 90
        0
 91
        1
 62
     0
 92
       -2
340
14
 93
        0
 40
0.045
309
GRIDFORMAT_END
 95
        2
302
GRIDFORMAT
  1
GRIDFORMAT_BEGIN
 90
        0
 91
        1
 62
     0
 92
       -2
340
14
 93
        0
 40
0.045
309
GRIDFORMAT_END
 95
        4
302
GRIDFORMAT
  1
GRIDFORMAT_BEGIN
 90
        0
 91
        1
 62
     0
 92
       -2
340
14
 93
        0
 40
0.045
309
GRIDFORMAT_END
 95
        8
302
GRIDFORMAT
  1
GRIDFORMAT_BEGIN
 90
        0
 91
        1
 62
     0
 92
       -2
340
14
 93
        0
 40
0.045
309
GRIDFORMAT_END
 95
       16
302
GRIDFORMAT
  1
GRIDFORMAT_BEGIN
 90
        0
 91
        1
 62
     0
 92
       -2
340
14
 93
        0
 40
0.045
309
GRIDFORMAT_END
 95
       32
302
GRIDFORMAT
  1
GRIDFORMAT_BEGIN
 90
        0
 91
        1
 62
     0
 92
       -2
340
14
 93
        0
 40
0.045
309
GRIDFORMAT_END
309
TABLEFORMAT_END
  1
CELLSTYLE_BEGIN
 90
        3
 91
        2
300
_DATA
309
CELLSTYLE_END
  0
ENDSEC
  0
EOF
