  0
SECTION
  2
HEADER
  9
$ACADVER
  1
AC1027
  9
$ACADMAINTVER
 70
   105
  9
$DWGCODEPAGE
  3
ANSI_1252
  9
$REQUIREDVERSIONS
160
                 0
  9
$INSBASE
 10
0.0
 20
0.0
 30
0.0
  9
$EXTMIN
 10
2369.567125741475
 20
-1665.573678373299
 30
0.0
  9
$EXTMAX
 10
2763.567125741475
 20
-1123.573678373299
 30
0.0
  9
$LIMMIN
 10
0.0
 20
0.0
  9
$LIMMAX
 10
12.0
 20
9.0
  9
$ORTHOMODE
 70
     0
  9
$REGENMODE
 70
     1
  9
$FILLMODE
 70
     1
  9
$QTEXTMODE
 70
     0
  9
$MIRRTEXT
 70
     1
  9
$LTSCALE
 40
2.0
  9
$ATTMODE
 70
     1
  9
$TEXTSIZE
 40
0.2
  9
$TRACEWID
 40
0.05
  9
$TEXTSTYLE
  7
Standard
  9
$CLAYER
  8
0
  9
$CELTYPE
  6
ByLayer
  9
$CECOLOR
 62
   256
  9
$CELTSCALE
 40
1.0
  9
$DISPSILH
 70
     0
  9
$DIMSCALE
 40
1.0
  9
$DIMASZ
 40
0.18
  9
$DIMEXO
 40
0.0625
  9
$DIMDLI
 40
0.38
  9
$DIMRND
 40
0.0
  9
$DIMDLE
 40
0.0
  9
$DIMEXE
 40
0.18
  9
$DIMTP
 40
0.0
  9
$DIMTM
 40
0.0
  9
$DIMTXT
 40
0.18
  9
$DIMCEN
 40
0.09
  9
$DIMTSZ
 40
0.0
  9
$DIMTOL
 70
     0
  9
$DIMLIM
 70
     0
  9
$DIMTIH
 70
     1
  9
$DIMTOH
 70
     1
  9
$DIMSE1
 70
     0
  9
$DIMSE2
 70
     0
  9
$DIMTAD
 70
     0
  9
$DIMZIN
 70
     0
  9
$DIMBLK
  1

  9
$DIMASO
 70
     1
  9
$DIMSHO
 70
     1
  9
$DIMPOST
  1

  9
$DIMAPOST
  1

  9
$DIMALT
 70
     0
  9
$DIMALTD
 70
     2
  9
$DIMALTF
 40
25.4
  9
$DIMLFAC
 40
1.0
  9
$DIMTOFL
 70
     1
  9
$DIMTVP
 40
0.0
  9
$DIMTIX
 70
     0
  9
$DIMSOXD
 70
     1
  9
$DIMSAH
 70
     0
  9
$DIMBLK1
  1

  9
$DIMBLK2
  1

  9
$DIMSTYLE
  2
Standard
  9
$DIMCLRD
 70
     0
  9
$DIMCLRE
 70
     0
  9
$DIMCLRT
 70
     0
  9
$DIMTFAC
 40
1.0
  9
$DIMGAP
 40
0.09
  9
$DIMJUST
 70
     0
  9
$DIMSD1
 70
     0
  9
$DIMSD2
 70
     0
  9
$DIMTOLJ
 70
     1
  9
$DIMTZIN
 70
     0
  9
$DIMALTZ
 70
     0
  9
$DIMALTTZ
 70
     0
  9
$DIMUPT
 70
     0
  9
$DIMDEC
 70
     4
  9
$DIMTDEC
 70
     4
  9
$DIMALTU
 70
     2
  9
$DIMALTTD
 70
     2
  9
$DIMTXSTY
  7
Standard
  9
$DIMAUNIT
 70
     0
  9
$DIMADEC
 70
     0
  9
$DIMALTRND
 40
0.0
  9
$DIMAZIN
 70
     0
  9
$DIMDSEP
 70
    46
  9
$DIMATFIT
 70
     3
  9
$DIMFRAC
 70
     0
  9
$DIMLDRBLK
  1

  9
$DIMLUNIT
 70
     2
  9
$DIMLWD
 70
    -2
  9
$DIMLWE
 70
    -2
  9
$DIMTMOVE
 70
     2
  9
$DIMFXL
 40
1.0
  9
$DIMFXLON
 70
     0
  9
$DIMJOGANG
 40
0.7853981633974483
  9
$DIMTFILL
 70
     0
  9
$DIMTFILLCLR
 70
     0
  9
$DIMARCSYM
 70
     0
  9
$DIMLTYPE
  6

  9
$DIMLTEX1
  6

  9
$DIMLTEX2
  6

  9
$DIMTXTDIRECTION
 70
     0
  9
$LUNITS
 70
     2
  9
$LUPREC
 70
     4
  9
$SKETCHINC
 40
0.1
  9
$FILLETRAD
 40
0.5
  9
$AUNITS
 70
     0
  9
$AUPREC
 70
     0
  9
$MENU
  1
.
  9
$ELEVATION
 40
0.0
  9
$PELEVATION
 40
0.0
  9
$THICKNESS
 40
0.0
  9
$LIMCHECK
 70
     0
  9
$CHAMFERA
 40
0.0
  9
$CHAMFERB
 40
0.0
  9
$CHAMFERC
 40
0.0
  9
$CHAMFERD
 40
0.0
  9
$SKPOLY
 70
     0
  9
$TDCREATE
 40
2459184.528968507
  9
$TDUCREATE
 40
2459184.48730184
  9
$TDUPDATE
 40
2459184.528970636
  9
$TDUUPDATE
 40
2459184.48730397
  9
$TDINDWG
 40
0.0000000116
  9
$TDUSRTIMER
 40
0.0000000116
  9
$USRTIMER
 70
     1
  9
$ANGBASE
 50
0.0
  9
$ANGDIR
 70
     0
  9
$PDMODE
 70
     0
  9
$PDSIZE
 40
0.0
  9
$PLINEWID
 40
0.0
  9
$SPLFRAME
 70
     0
  9
$SPLINETYPE
 70
     6
  9
$SPLINESEGS
 70
     8
  9
$HANDSEED
  5
436
  9
$SURFTAB1
 70
     6
  9
$SURFTAB2
 70
     6
  9
$SURFTYPE
 70
     6
  9
$SURFU
 70
     6
  9
$SURFV
 70
     6
  9
$UCSBASE
  2

  9
$UCSNAME
  2

  9
$UCSORG
 10
0.0
 20
0.0
 30
0.0
  9
$UCSXDIR
 10
1.0
 20
0.0
 30
0.0
  9
$UCSYDIR
 10
0.0
 20
1.0
 30
0.0
  9
$UCSORTHOREF
  2

  9
$UCSORTHOVIEW
 70
     0
  9
$UCSORGTOP
 10
0.0
 20
0.0
 30
0.0
  9
$UCSORGBOTTOM
 10
0.0
 20
0.0
 30
0.0
  9
$UCSORGLEFT
 10
0.0
 20
0.0
 30
0.0
  9
$UCSORGRIGHT
 10
0.0
 20
0.0
 30
0.0
  9
$UCSORGFRONT
 10
0.0
 20
0.0
 30
0.0
  9
$UCSORGBACK
 10
0.0
 20
0.0
 30
0.0
  9
$PUCSBASE
  2

  9
$PUCSNAME
  2

  9
$PUCSORG
 10
0.0
 20
0.0
 30
0.0
  9
$PUCSXDIR
 10
1.0
 20
0.0
 30
0.0
  9
$PUCSYDIR
 10
0.0
 20
1.0
 30
0.0
  9
$PUCSORTHOREF
  2

  9
$PUCSORTHOVIEW
 70
     0
  9
$PUCSORGTOP
 10
0.0
 20
0.0
 30
0.0
  9
$PUCSORGBOTTOM
 10
0.0
 20
0.0
 30
0.0
  9
$PUCSORGLEFT
 10
0.0
 20
0.0
 30
0.0
  9
$PUCSORGRIGHT
 10
0.0
 20
0.0
 30
0.0
  9
$PUCSORGFRONT
 10
0.0
 20
0.0
 30
0.0
  9
$PUCSORGBACK
 10
0.0
 20
0.0
 30
0.0
  9
$USERI1
 70
     0
  9
$USERI2
 70
     0
  9
$USERI3
 70
     0
  9
$USERI4
 70
     0
  9
$USERI5
 70
     0
  9
$USERR1
 40
0.0
  9
$USERR2
 40
0.0
  9
$USERR3
 40
0.0
  9
$USERR4
 40
0.0
  9
$USERR5
 40
0.0
  9
$WORLDVIEW
 70
     1
  9
$SHADEDGE
 70
     3
  9
$SHADEDIF
 70
    70
  9
$TILEMODE
 70
     1
  9
$MAXACTVP
 70
    64
  9
$PINSBASE
 10
0.0
 20
0.0
 30
0.0
  9
$PLIMCHECK
 70
     0
  9
$PEXTMIN
 10
0.0
 20
0.0
 30
0.0
  9
$PEXTMAX
 10
197.6
 20
271.5999999999982
 30
0.0
  9
$PLIMMIN
 10
-20.0
 20
-7.5
  9
$PLIMMAX
 10
277.0
 20
202.5
  9
$UNITMODE
 70
     0
  9
$VISRETAIN
 70
     1
  9
$PLINEGEN
 70
     0
  9
$PSLTSCALE
 70
     0
  9
$TREEDEPTH
 70
  3020
  9
$CMLSTYLE
  2
Standard
  9
$CMLJUST
 70
     0
  9
$CMLSCALE
 40
1.0
  9
$PROXYGRAPHICS
 70
     1
  9
$MEASUREMENT
 70
     1
  9
$CELWEIGHT
370
    -1
  9
$ENDCAPS
280
     0
  9
$JOINSTYLE
280
     0
  9
$LWDISPLAY
290
     0
  9
$INSUNITS
 70
     4
  9
$HYPERLINKBASE
  1

  9
$STYLESHEET
  1

  9
$XEDIT
290
     1
  9
$CEPSNTYPE
380
     0
  9
$PSTYLEMODE
290
     0
  9
$FINGERPRINTGUID
  2
{8574A9A5-86B4-410A-A63B-55FFDCBB74B1}
  9
$VERSIONGUID
  2
{FAEB1C32-E019-11D5-929B-00C0DF256EC4}
  9
$EXTNAMES
290
     1
  9
$PSVPSCALE
 40
0.0
  9
$OLESTARTUP
290
     0
  9
$SORTENTS
280
   127
  9
$INDEXCTL
280
     0
  9
$HIDETEXT
280
     1
  9
$XCLIPFRAME
280
     2
  9
$HALOGAP
280
     0
  9
$OBSCOLOR
 70
   257
  9
$OBSLTYPE
280
     0
  9
$INTERSECTIONDISPLAY
280
     0
  9
$INTERSECTIONCOLOR
 70
   257
  9
$DIMASSOC
280
     2
  9
$PROJECTNAME
  1

  9
$CAMERADISPLAY
290
     0
  9
$LENSLENGTH
 40
50.0
  9
$CAMERAHEIGHT
 40
0.0
  9
$STEPSPERSEC
 40
2.0
  9
$STEPSIZE
 40
6.0
  9
$3DDWFPREC
 40
2.0
  9
$PSOLWIDTH
 40
0.25
  9
$PSOLHEIGHT
 40
4.0
  9
$LOFTANG1
 40
1.570796326794897
  9
$LOFTANG2
 40
1.570796326794897
  9
$LOFTMAG1
 40
0.0
  9
$LOFTMAG2
 40
0.0
  9
$LOFTPARAM
 70
     7
  9
$LOFTNORMALS
280
     1
  9
$LATITUDE
 40
37.795
  9
$LONGITUDE
 40
-122.394
  9
$NORTHDIRECTION
 40
0.0
  9
$TIMEZONE
 70
 -8000
  9
$LIGHTGLYPHDISPLAY
280
     1
  9
$TILEMODELIGHTSYNCH
280
     1
  9
$CMATERIAL
347
44
  9
$SOLIDHIST
280
     0
  9
$SHOWHIST
280
     1
  9
$DWFFRAME
280
     2
  9
$DGNFRAME
280
     2
  9
$REALWORLDSCALE
290
     1
  9
$INTERFERECOLOR
 62
   256
  9
$CSHADOW
280
     0
  9
$SHADOWPLANELOCATION
 40
0.0
  0
ENDSEC
  0
SECTION
  2
CLASSES
  0
CLASS
  1
ACDBDICTIONARYWDFLT
  2
AcDbDictionaryWithDefault
  3
ObjectDBX Classes
 90
        0
 91
        3
280
     0
281
     0
  0
CLASS
  1
VISUALSTYLE
  2
AcDbVisualStyle
  3
ObjectDBX Classes
 90
     4095
 91
        3
280
     0
281
     0
  0
CLASS
  1
MATERIAL
  2
AcDbMaterial
  3
ObjectDBX Classes
 90
     1153
 91
        3
280
     0
281
     0
  0
CLASS
  1
SCALE
  2
AcDbScale
  3
ObjectDBX Classes
 90
     1153
 91
        3
280
     0
281
     0
  0
CLASS
  1
TABLESTYLE
  2
AcDbTableStyle
  3
ObjectDBX Classes
 90
     4095
 91
        3
280
     0
281
     0
  0
CLASS
  1
MLEADERSTYLE
  2
AcDbMLeaderStyle
  3
ACDB_MLEADERSTYLE_CLASS
 90
     4095
 91
        3
280
     0
281
     0
  0
CLASS
  1
SUN
  2
AcDbSun
  3
SCENEOE
 90
     1153
 91
        3
280
     0
281
     0
  0
CLASS
  1
RASTERVARIABLES
  2
AcDbRasterVariables
  3
ISM
 90
        0
 91
        3
280
     0
281
     0
  0
CLASS
  1
PLOTSETTINGS
  2
AcDbPlotSettings
  3
ObjectDBX Classes
 90
        0
 91
        3
280
     0
281
     0
  0
CLASS
  1
IMAGEDEF
  2
AcDbRasterImageDef
  3
ISM
 90
        0
 91
        3
280
     0
281
     0
  0
CLASS
  1
IMAGE
  2
AcDbRasterImage
  3
ISM
 90
      127
 91
        4
280
     0
281
     1
  0
CLASS
  1
IMAGEDEF_REACTOR
  2
AcDbRasterImageDefReactor
  3
ISM
 90
        1
 91
        3
280
     0
281
     0
  0
CLASS
  1
DICTIONARYVAR
  2
AcDbDictionaryVar
  3
ObjectDBX Classes
 90
        0
 91
        3
280
     0
281
     0
  0
CLASS
  1
CELLSTYLEMAP
  2
AcDbCellStyleMap
  3
ObjectDBX Classes
 90
     1152
 91
        3
280
     0
281
     0
  0
ENDSEC
  0
SECTION
  2
TABLES
  0
TABLE
  2
VPORT
  5
8
330
0
100
AcDbSymbolTable
 70
     1
  0
VPORT
  5
29
330
8
100
AcDbSymbolTableRecord
100
AcDbViewportTableRecord
  2
*Active
 70
     0
 10
0.0
 20
0.0
 11
1.0
 21
1.0
 12
10.42990654205607
 22
4.5
 13
0.0
 23
0.0
 14
0.5
 24
0.5
 15
0.5
 25
0.5
 16
0.0
 26
0.0
 36
1.0
 17
0.0
 27
0.0
 37
0.0
 40
9.0
 41
1.972972972850329
 42
50.0
 43
0.0
 44
0.0
 50
0.0
 51
0.0
 71
     0
 72
   100
 73
     1
 74
     3
 75
     0
 76
     0
 77
     0
 78
     0
281
     0
 65
     1
110
0.0
120
0.0
130
0.0
111
1.0
121
0.0
131
0.0
112
0.0
122
1.0
132
0.0
 79
     0
146
0.0
348
2F
 60
     3
 61
     5
292
     1
282
     1
141
0.0
142
0.0
 63
   250
361
6D
  0
ENDTAB
  0
TABLE
  2
LTYPE
  5
5
330
0
100
AcDbSymbolTable
 70
     2
  0
LTYPE
  5
14
330
5
100
AcDbSymbolTableRecord
100
AcDbLinetypeTableRecord
  2
ByBlock
 70
     0
  3

 72
    65
 73
     0
 40
0.0
  0
LTYPE
  5
15
330
5
100
AcDbSymbolTableRecord
100
AcDbLinetypeTableRecord
  2
ByLayer
 70
     0
  3

 72
    65
 73
     0
 40
0.0
  0
LTYPE
  5
16
330
5
100
AcDbSymbolTableRecord
100
AcDbLinetypeTableRecord
  2
Continuous
 70
     0
  3
Solid line
 72
    65
 73
     0
 40
0.0
  0
LTYPE
  5
182
330
5
100
AcDbSymbolTableRecord
100
AcDbLinetypeTableRecord
  2
CADWORK_3
 70
     0
  3

 72
    65
 73
     2
 40
4.0
 49
2.0
 74
     0
 49
-2.0
 74
     0
  0
ENDTAB
  0
TABLE
  2
LAYER
  5
2
330
0
100
AcDbSymbolTable
 70
    19
  0
LAYER
  5
10
330
2
100
AcDbSymbolTableRecord
100
AcDbLayerTableRecord
  2
0
 70
     0
 62
     7
  6
Continuous
370
    -3
390
F
347
46
348
0
  0
LAYER
  5
70
330
2
100
AcDbSymbolTableRecord
100
AcDbLayerTableRecord
  2
Standard
 70
     0
 62
     7
  6
Continuous
370
    -3
390
F
347
46
348
0
  0
LAYER
  5
71
330
2
100
AcDbSymbolTableRecord
100
AcDbLayerTableRecord
  2
Ech.1_1
 70
     0
 62
     7
  6
Continuous
370
    -3
390
F
347
46
348
0
  0
LAYER
  5
72
330
2
100
AcDbSymbolTableRecord
100
AcDbLayerTableRecord
  2
Ech.1_2
 70
     0
 62
     7
  6
Continuous
370
    -3
390
F
347
46
348
0
  0
LAYER
  5
73
330
2
100
AcDbSymbolTableRecord
100
AcDbLayerTableRecord
  2
Ech.1_5
 70
     0
 62
     7
  6
Continuous
370
    -3
390
F
347
46
348
0
  0
LAYER
  5
74
330
2
100
AcDbSymbolTableRecord
100
AcDbLayerTableRecord
  2
Ech.1_10
 70
     0
 62
     7
  6
Continuous
370
    -3
390
F
347
46
348
0
  0
LAYER
  5
75
330
2
100
AcDbSymbolTableRecord
100
AcDbLayerTableRecord
  2
Ech.1_20
 70
     0
 62
     7
  6
Continuous
370
    -3
390
F
347
46
348
0
  0
LAYER
  5
76
330
2
100
AcDbSymbolTableRecord
100
AcDbLayerTableRecord
  2
Ech.1_25
 70
     0
 62
     7
  6
Continuous
370
    -3
390
F
347
46
348
0
  0
LAYER
  5
77
330
2
100
AcDbSymbolTableRecord
100
AcDbLayerTableRecord
  2
Ech.1_33
 70
     0
 62
     7
  6
Continuous
370
    -3
390
F
347
46
348
0
  0
LAYER
  5
78
330
2
100
AcDbSymbolTableRecord
100
AcDbLayerTableRecord
  2
Ech.1_50
 70
     0
 62
     7
  6
Continuous
370
    -3
390
F
347
46
348
0
  0
LAYER
  5
79
330
2
100
AcDbSymbolTableRecord
100
AcDbLayerTableRecord
  2
Ech.1_75
 70
     0
 62
     7
  6
Continuous
370
    -3
390
F
347
46
348
0
  0
LAYER
  5
7A
330
2
100
AcDbSymbolTableRecord
100
AcDbLayerTableRecord
  2
Ech.1_100
 70
     0
 62
     7
  6
Continuous
370
    -3
390
F
347
46
348
0
  0
LAYER
  5
7B
330
2
100
AcDbSymbolTableRecord
100
AcDbLayerTableRecord
  2
Ech.1_200
 70
     0
 62
     7
  6
Continuous
370
    -3
390
F
347
46
348
0
  0
LAYER
  5
7C
330
2
100
AcDbSymbolTableRecord
100
AcDbLayerTableRecord
  2
Ech.1_500
 70
     0
 62
     7
  6
Continuous
370
    -3
390
F
347
46
348
0
  0
LAYER
  5
7D
330
2
100
AcDbSymbolTableRecord
100
AcDbLayerTableRecord
  2
Ech.1_1000
 70
     0
 62
     7
  6
Continuous
370
    -3
390
F
347
46
348
0
  0
LAYER
  5
7E
330
2
100
AcDbSymbolTableRecord
100
AcDbLayerTableRecord
  2
Cadres traceur
 70
     0
 62
     7
  6
Continuous
370
    -3
390
F
347
46
348
0
  0
LAYER
  5
7F
330
2
100
AcDbSymbolTableRecord
100
AcDbLayerTableRecord
  2
Cadres laser
 70
     0
 62
     7
  6
Continuous
370
    -3
390
F
347
46
348
0
  0
LAYER
  5
80
330
2
100
AcDbSymbolTableRecord
100
AcDbLayerTableRecord
  2
Légende d_aide
 70
     0
 62
     7
  6
Continuous
370
    -3
390
F
347
46
348
0
  0
LAYER
  5
3CC
330
2
100
AcDbSymbolTableRecord
100
AcDbLayerTableRecord
  2
Defpoints
 70
     0
 62
     7
  6
Continuous
290
     0
370
    -3
390
F
347
46
348
0
  0
ENDTAB
  0
TABLE
  2
STYLE
  5
3
330
0
100
AcDbSymbolTable
 70
    10
  0
STYLE
  5
11
330
3
100
AcDbSymbolTableRecord
100
AcDbTextStyleTableRecord
  2
Standard
 70
     0
 40
0.0
 41
1.0
 50
0.0
 71
     0
 42
0.2
  3
txt
  4

  0
STYLE
  5
81
330
3
100
AcDbSymbolTableRecord
100
AcDbTextStyleTableRecord
  2
CwStyleShx
 70
     0
 40
1.0
 41
1.0
 50
0.0
 71
     0
 42
0.2
  3

  4

  0
STYLE
  5
82
330
3
100
AcDbSymbolTableRecord
100
AcDbTextStyleTableRecord
  2
CwStyleShx16
 70
     0
 40
1.0
 41
1.0
 50
0.0
 71
     0
 42
0.2
  3

  4

  0
STYLE
  5
83
330
3
100
AcDbSymbolTableRecord
100
AcDbTextStyleTableRecord
  2
MONOTXT
 70
     0
 40
0.0
 41
1.0
 50
0.0
 71
     0
 42
0.2
  3
MONOTXT
  4

  0
STYLE
  5
84
330
3
100
AcDbSymbolTableRecord
100
AcDbTextStyleTableRecord
  2
SYMAP
 70
     0
 40
1.0
 41
1.0
 50
0.0
 71
     0
 42
0.2
  3
SYMAP
  4

  0
STYLE
  5
85
330
3
100
AcDbSymbolTableRecord
100
AcDbTextStyleTableRecord
  2
CwStyleTtf
 70
     0
 40
1.0
 41
1.0
 50
0.0
 71
     0
 42
0.2
  3
arial.ttf
  4

  0
STYLE
  5
3C9
330
3
100
AcDbSymbolTableRecord
100
AcDbTextStyleTableRecord
  2
arial-z
 70
     0
 40
0.0
 41
1.0
 50
0.0
 71
     0
 42
0.2
  3
arial.ttf
  4

1001
ACAD
1000
Arial
1071
        0
  0
STYLE
  5
40D
330
3
100
AcDbSymbolTableRecord
100
AcDbTextStyleTableRecord
  2
arial-
 70
     0
 40
1.0
 41
1.0
 50
0.0
 71
     0
 42
0.2
  3

  4

1001
ACAD
1000
Arial
1071
        0
  0
STYLE
  5
410
330
3
100
AcDbSymbolTableRecord
100
AcDbTextStyleTableRecord
  2
arial-b
 70
     0
 40
1.0
 41
1.0
 50
0.0
 71
     0
 42
0.2
  3
arialbd.ttf
  4

1001
ACAD
1000
Arial
1071
 33554432
  0
STYLE
  5
412
330
3
100
AcDbSymbolTableRecord
100
AcDbTextStyleTableRecord
  2
tahoma-b
 70
     0
 40
1.0
 41
1.0
 50
0.0
 71
     0
 42
0.2
  3
tahomabd.ttf
  4

1001
ACAD
1000
Tahoma
1071
 33554432
  0
ENDTAB
  0
TABLE
  2
VIEW
  5
6
330
0
100
AcDbSymbolTable
 70
     0
  0
ENDTAB
  0
TABLE
  2
UCS
  5
7
330
0
100
AcDbSymbolTable
 70
     0
  0
ENDTAB
  0
TABLE
  2
APPID
  5
9
330
0
100
AcDbSymbolTable
 70
     3
  0
APPID
  5
12
330
9
100
AcDbSymbolTableRecord
100
AcDbRegAppTableRecord
  2
ACAD
 70
     0
  0
APPID
  5
6E
330
9
100
AcDbSymbolTableRecord
100
AcDbRegAppTableRecord
  2
Cadwork
 70
     0
  0
APPID
  5
232
330
9
100
AcDbSymbolTableRecord
100
AcDbRegAppTableRecord
  2
PLOTTRANSPARENCY
 70
     0
  0
ENDTAB
  0
TABLE
  2
DIMSTYLE
  5
A
330
0
100
AcDbSymbolTable
 70
     1
100
AcDbDimStyleTable
  0
DIMSTYLE
105
27
102
{ACAD_REACTORS
330
3CA
330
3D9
330
3E7
330
3F5
102
}
330
A
100
AcDbSymbolTableRecord
100
AcDbDimStyleTableRecord
  2
Standard
 70
     0
178
     0
340
11
  0
ENDTAB
  0
TABLE
  2
BLOCK_RECORD
  5
1
330
0
100
AcDbSymbolTable
 70
    73
  0
BLOCK_RECORD
  5
1F
330
1
100
AcDbSymbolTableRecord
100
AcDbBlockTableRecord
  2
*Model_Space
340
22
 70
     0
280
     1
281
     0
  0
BLOCK_RECORD
  5
22D
330
1
100
AcDbSymbolTableRecord
100
AcDbBlockTableRecord
  2
*Paper_Space
340
22E
 70
     0
280
     1
281
     0
  0
BLOCK_RECORD
  5
86
330
1
100
AcDbSymbolTableRecord
100
AcDbBlockTableRecord
  2
CDWK_PTTYP1
340
0
 70
     0
280
     1
281
     1
  0
BLOCK_RECORD
  5
8D
330
1
100
AcDbSymbolTableRecord
100
AcDbBlockTableRecord
  2
CDWK_PTTYP2
340
0
 70
     0
280
     1
281
     1
  0
BLOCK_RECORD
  5
92
330
1
100
AcDbSymbolTableRecord
100
AcDbBlockTableRecord
  2
CDWK_PTTYP4
340
0
 70
     0
280
     1
281
     1
  0
BLOCK_RECORD
  5
96
330
1
100
AcDbSymbolTableRecord
100
AcDbBlockTableRecord
  2
CDWK_PTTYP5
340
0
 70
     0
280
     1
281
     1
  0
BLOCK_RECORD
  5
9F
330
1
100
AcDbSymbolTableRecord
100
AcDbBlockTableRecord
  2
CDWK_PTTYP6
340
0
 70
     0
280
     1
281
     1
  0
BLOCK_RECORD
  5
A7
330
1
100
AcDbSymbolTableRecord
100
AcDbBlockTableRecord
  2
CDWK_PTTYP7
340
0
 70
     0
280
     1
281
     1
  0
BLOCK_RECORD
  5
B0
330
1
100
AcDbSymbolTableRecord
100
AcDbBlockTableRecord
  2
CDWK_PTTYP8
340
0
 70
     0
280
     1
281
     1
  0
BLOCK_RECORD
  5
B4
330
1
100
AcDbSymbolTableRecord
100
AcDbBlockTableRecord
  2
CDWK_PTTYP9
340
0
 70
     0
280
     1
281
     1
  0
BLOCK_RECORD
  5
B9
330
1
100
AcDbSymbolTableRecord
100
AcDbBlockTableRecord
  2
CDWK_PTTYP10
340
0
 70
     0
280
     1
281
     1
  0
BLOCK_RECORD
  5
BD
330
1
100
AcDbSymbolTableRecord
100
AcDbBlockTableRecord
  2
CDWK_PTTYP11
340
0
 70
     0
280
     1
281
     1
  0
BLOCK_RECORD
  5
C2
330
1
100
AcDbSymbolTableRecord
100
AcDbBlockTableRecord
  2
CDWK_PTTYP12
340
0
 70
     0
280
     1
281
     1
  0
BLOCK_RECORD
  5
C7
330
1
100
AcDbSymbolTableRecord
100
AcDbBlockTableRecord
  2
CDWK_PTTYP13
340
0
 70
     0
280
     1
281
     1
  0
BLOCK_RECORD
  5
CD
330
1
100
AcDbSymbolTableRecord
100
AcDbBlockTableRecord
  2
CDWK_PTTYP16
340
0
 70
     0
280
     1
281
     1
  0
BLOCK_RECORD
  5
D4
330
1
100
AcDbSymbolTableRecord
100
AcDbBlockTableRecord
  2
CDWK_PTTYP17
340
0
 70
     0
280
     1
281
     1
  0
BLOCK_RECORD
  5
D9
330
1
100
AcDbSymbolTableRecord
100
AcDbBlockTableRecord
  2
CDWK_PTTYP18
340
0
 70
     0
280
     1
281
     1
  0
BLOCK_RECORD
  5
DE
330
1
100
AcDbSymbolTableRecord
100
AcDbBlockTableRecord
  2
CDWK_PTTYP19
340
0
 70
     0
280
     1
281
     1
  0
BLOCK_RECORD
  5
E4
330
1
100
AcDbSymbolTableRecord
100
AcDbBlockTableRecord
  2
CDWK_PTTYP20
340
0
 70
     0
280
     1
281
     1
  0
BLOCK_RECORD
  5
E9
330
1
100
AcDbSymbolTableRecord
100
AcDbBlockTableRecord
  2
CDWK_PTTYP21
340
0
 70
     0
280
     1
281
     1
  0
BLOCK_RECORD
  5
EE
330
1
100
AcDbSymbolTableRecord
100
AcDbBlockTableRecord
  2
CDWK_PTTYP25
340
0
 70
     0
280
     1
281
     1
  0
BLOCK_RECORD
  5
F5
330
1
100
AcDbSymbolTableRecord
100
AcDbBlockTableRecord
  2
CDWK_PTTYP26
340
0
 70
     0
280
     1
281
     1
  0
BLOCK_RECORD
  5
FC
330
1
100
AcDbSymbolTableRecord
100
AcDbBlockTableRecord
  2
CDWK_PTTYP27
340
0
 70
     0
280
     1
281
     1
  0
BLOCK_RECORD
  5
104
330
1
100
AcDbSymbolTableRecord
100
AcDbBlockTableRecord
  2
CDWK_PTTYP28
340
0
 70
     0
280
     1
281
     1
  0
BLOCK_RECORD
  5
10B
330
1
100
AcDbSymbolTableRecord
100
AcDbBlockTableRecord
  2
CDWK_PTTYP29
340
0
 70
     0
280
     1
281
     1
  0
BLOCK_RECORD
  5
111
330
1
100
AcDbSymbolTableRecord
100
AcDbBlockTableRecord
  2
CDWK_PTTYP30
340
0
 70
     0
280
     1
281
     1
  0
BLOCK_RECORD
  5
118
330
1
100
AcDbSymbolTableRecord
100
AcDbBlockTableRecord
  2
CDWK_PTTYP31
340
0
 70
     0
280
     1
281
     1
  0
BLOCK_RECORD
  5
120
330
1
100
AcDbSymbolTableRecord
100
AcDbBlockTableRecord
  2
CDWK_PTTYP32
340
0
 70
     0
280
     1
281
     1
  0
BLOCK_RECORD
  5
129
330
1
100
AcDbSymbolTableRecord
100
AcDbBlockTableRecord
  2
CDWK_PTTYP33
340
0
 70
     0
280
     1
281
     1
  0
BLOCK_RECORD
  5
12F
330
1
100
AcDbSymbolTableRecord
100
AcDbBlockTableRecord
  2
CDWK_PTTYP34
340
0
 70
     0
280
     1
281
     1
  0
BLOCK_RECORD
  5
135
330
1
100
AcDbSymbolTableRecord
100
AcDbBlockTableRecord
  2
CDWK_PTTYP35
340
0
 70
     0
280
     1
281
     1
  0
BLOCK_RECORD
  5
13B
330
1
100
AcDbSymbolTableRecord
100
AcDbBlockTableRecord
  2
CDWK_PTTYP36
340
0
 70
     0
280
     1
281
     1
  0
BLOCK_RECORD
  5
143
330
1
100
AcDbSymbolTableRecord
100
AcDbBlockTableRecord
  2
CDWK_PTTYP37
340
0
 70
     0
280
     1
281
     1
  0
BLOCK_RECORD
  5
148
330
1
100
AcDbSymbolTableRecord
100
AcDbBlockTableRecord
  2
CDWK_PTTYP38
340
0
 70
     0
280
     1
281
     1
  0
BLOCK_RECORD
  5
14E
330
1
100
AcDbSymbolTableRecord
100
AcDbBlockTableRecord
  2
CDWK_PTTYP41
340
0
 70
     0
280
     1
281
     1
  0
BLOCK_RECORD
  5
158
330
1
100
AcDbSymbolTableRecord
100
AcDbBlockTableRecord
  2
CDWK_PTTYP42
340
0
 70
     0
280
     1
281
     1
  0
BLOCK_RECORD
  5
161
330
1
100
AcDbSymbolTableRecord
100
AcDbBlockTableRecord
  2
CDWK_PTTYP43
340
0
 70
     0
280
     1
281
     1
  0
BLOCK_RECORD
  5
167
330
1
100
AcDbSymbolTableRecord
100
AcDbBlockTableRecord
  2
CDWK_PTTYP44
340
0
 70
     0
280
     1
281
     1
  0
BLOCK_RECORD
  5
170
330
1
100
AcDbSymbolTableRecord
100
AcDbBlockTableRecord
  2
CDWK_PTTYP45
340
0
 70
     0
280
     1
281
     1
  0
BLOCK_RECORD
  5
175
330
1
100
AcDbSymbolTableRecord
100
AcDbBlockTableRecord
  2
CDWK_PTTYP46
340
0
 70
     0
280
     1
281
     1
  0
BLOCK_RECORD
  5
17A
330
1
100
AcDbSymbolTableRecord
100
AcDbBlockTableRecord
  2
CDWK_PTTYP47
340
0
 70
     0
280
     1
281
     1
  0
BLOCK_RECORD
  5
183
330
1
100
AcDbSymbolTableRecord
100
AcDbBlockTableRecord
  2
CDWK_PTTYP48
340
0
 70
     0
280
     1
281
     1
  0
BLOCK_RECORD
  5
188
330
1
100
AcDbSymbolTableRecord
100
AcDbBlockTableRecord
  2
CDWK_PTTYP49
340
0
 70
     0
280
     1
281
     1
  0
BLOCK_RECORD
  5
18F
330
1
100
AcDbSymbolTableRecord
100
AcDbBlockTableRecord
  2
CDWK_PTTYP50
340
0
 70
     0
280
     1
281
     1
  0
BLOCK_RECORD
  5
199
330
1
100
AcDbSymbolTableRecord
100
AcDbBlockTableRecord
  2
CDWK_PTTYP51
340
0
 70
     0
280
     1
281
     1
  0
BLOCK_RECORD
  5
19E
330
1
100
AcDbSymbolTableRecord
100
AcDbBlockTableRecord
  2
CDWK_PTTYP52
340
0
 70
     0
280
     1
281
     1
  0
BLOCK_RECORD
  5
1A4
330
1
100
AcDbSymbolTableRecord
100
AcDbBlockTableRecord
  2
cw-dimension-symbol1
340
0
 70
     0
280
     1
281
     0
  0
BLOCK_RECORD
  5
1AB
330
1
100
AcDbSymbolTableRecord
100
AcDbBlockTableRecord
  2
cw-dimension-symbol2
340
0
102
{BLKREFS
331
3D4
331
3D3
331
3E2
331
3E1
331
3F0
331
3EF
331
3FE
331
3FD
102
}
 70
     0
280
     1
281
     0
  0
BLOCK_RECORD
  5
1B0
330
1
100
AcDbSymbolTableRecord
100
AcDbBlockTableRecord
  2
cw-dimension-symbol3
340
0
 70
     0
280
     1
281
     0
  0
BLOCK_RECORD
  5
1B5
330
1
100
AcDbSymbolTableRecord
100
AcDbBlockTableRecord
  2
cw-dimension-symbol5
340
0
 70
     0
280
     1
281
     0
  0
BLOCK_RECORD
  5
1BC
330
1
100
AcDbSymbolTableRecord
100
AcDbBlockTableRecord
  2
cw-dimension-symbol6
340
0
 70
     0
280
     1
281
     0
  0
BLOCK_RECORD
  5
1C2
330
1
100
AcDbSymbolTableRecord
100
AcDbBlockTableRecord
  2
cw-dimension-symbol11
340
0
 70
     0
280
     1
281
     0
  0
BLOCK_RECORD
  5
1C8
330
1
100
AcDbSymbolTableRecord
100
AcDbBlockTableRecord
  2
cw-dimension-symbol13
340
0
 70
     0
280
     1
281
     0
  0
BLOCK_RECORD
  5
1CE
330
1
100
AcDbSymbolTableRecord
100
AcDbBlockTableRecord
  2
cw-dimension-symbol15
340
0
 70
     0
280
     1
281
     0
  0
BLOCK_RECORD
  5
1D5
330
1
100
AcDbSymbolTableRecord
100
AcDbBlockTableRecord
  2
cw-dimension-symbol16
340
0
 70
     0
280
     1
281
     0
  0
BLOCK_RECORD
  5
1DC
330
1
100
AcDbSymbolTableRecord
100
AcDbBlockTableRecord
  2
cw-dimension-symbol17
340
0
 70
     0
280
     1
281
     0
  0
BLOCK_RECORD
  5
1E3
330
1
100
AcDbSymbolTableRecord
100
AcDbBlockTableRecord
  2
cw-dimension-symbol18
340
0
 70
     0
280
     1
281
     0
  0
BLOCK_RECORD
  5
1EA
330
1
100
AcDbSymbolTableRecord
100
AcDbBlockTableRecord
  2
cw-dimension-symbol19
340
0
 70
     0
280
     1
281
     0
  0
BLOCK_RECORD
  5
1ED
330
1
100
AcDbSymbolTableRecord
100
AcDbBlockTableRecord
  2
cw-dimension-symbol20
340
0
 70
     0
280
     1
281
     0
  0
BLOCK_RECORD
  5
1F4
330
1
100
AcDbSymbolTableRecord
100
AcDbBlockTableRecord
  2
cw-dimension-symbol21
340
0
 70
     0
280
     1
281
     0
  0
BLOCK_RECORD
  5
1FB
330
1
100
AcDbSymbolTableRecord
100
AcDbBlockTableRecord
  2
cw-line-extremity0
340
0
 70
     0
280
     1
281
     0
  0
BLOCK_RECORD
  5
1FF
330
1
100
AcDbSymbolTableRecord
100
AcDbBlockTableRecord
  2
cw-line-extremity2
340
0
 70
     0
280
     1
281
     0
  0
BLOCK_RECORD
  5
204
330
1
100
AcDbSymbolTableRecord
100
AcDbBlockTableRecord
  2
cw-line-extremity3
340
0
 70
     0
280
     1
281
     0
  0
BLOCK_RECORD
  5
209
330
1
100
AcDbSymbolTableRecord
100
AcDbBlockTableRecord
  2
cw-line-extremity301
340
0
 70
     0
280
     1
281
     0
  0
BLOCK_RECORD
  5
20B
330
1
100
AcDbSymbolTableRecord
100
AcDbBlockTableRecord
  2
cw-line-extremity4
340
0
102
{BLKREFS
331
3B5
331
3B7
331
3B9
331
3C6
331
3C8
102
}
 70
     0
280
     1
281
     0
  0
BLOCK_RECORD
  5
20D
330
1
100
AcDbSymbolTableRecord
100
AcDbBlockTableRecord
  2
cw-line-extremity5
340
0
 70
     0
280
     1
281
     0
  0
BLOCK_RECORD
  5
20F
330
1
100
AcDbSymbolTableRecord
100
AcDbBlockTableRecord
  2
cw-line-extremity6
340
0
 70
     0
280
     1
281
     0
  0
BLOCK_RECORD
  5
211
330
1
100
AcDbSymbolTableRecord
100
AcDbBlockTableRecord
  2
cw-line-extremity9
340
0
 70
     0
280
     1
281
     0
  0
BLOCK_RECORD
  5
213
330
1
100
AcDbSymbolTableRecord
100
AcDbBlockTableRecord
  2
cw-line-extremity10
340
0
 70
     0
280
     1
281
     0
  0
BLOCK_RECORD
  5
215
330
1
100
AcDbSymbolTableRecord
100
AcDbBlockTableRecord
  2
cw-line-extremity1
340
0
 70
     0
280
     1
281
     0
  0
BLOCK_RECORD
  5
1B
330
1
100
AcDbSymbolTableRecord
100
AcDbBlockTableRecord
  2
*Paper_Space69
340
1E
 70
     0
280
     1
281
     0
  0
BLOCK_RECORD
  5
3CD
330
1
100
AcDbSymbolTableRecord
100
AcDbBlockTableRecord
  2
*D70
340
0
 70
     0
280
     1
281
     0
  0
BLOCK_RECORD
  5
3DB
330
1
100
AcDbSymbolTableRecord
100
AcDbBlockTableRecord
  2
*D71
340
0
 70
     0
280
     1
281
     0
  0
BLOCK_RECORD
  5
3E9
330
1
100
AcDbSymbolTableRecord
100
AcDbBlockTableRecord
  2
*D72
340
0
 70
     0
280
     1
281
     0
  0
BLOCK_RECORD
  5
3F7
330
1
100
AcDbSymbolTableRecord
100
AcDbBlockTableRecord
  2
*D73
340
0
 70
     0
280
     1
281
     0
  0
ENDTAB
  0
ENDSEC
  0
SECTION
  2
BLOCKS
  0
BLOCK
  5
20
330
1F
100
AcDbEntity
  8
0
100
AcDbBlockBegin
  2
*Model_Space
 70
     0
 10
0.0
 20
0.0
 30
0.0
  3
*Model_Space
  1

  0
ENDBLK
  5
21
330
1F
100
AcDbEntity
  8
0
100
AcDbBlockEnd
  0
BLOCK
  5
22F
330
22D
100
AcDbEntity
 67
     1
  8
0
100
AcDbBlockBegin
  2
*Paper_Space
 70
     0
 10
0.0
 20
0.0
 30
0.0
  3
*Paper_Space
  1

  0
ENDBLK
  5
230
330
22D
100
AcDbEntity
 67
     1
  8
0
100
AcDbBlockEnd
  0
BLOCK
  5
8B
330
86
100
AcDbEntity
  8
0
100
AcDbBlockBegin
  2
CDWK_PTTYP1
 70
     0
 10
0.0
 20
0.0
 30
0.0
  3
CDWK_PTTYP1
  1

  0
LINE
  5
87
330
86
100
AcDbEntity
  8
0
 62
     0
370
    -2
100
AcDbLine
 10
-0.5
 20
0.5
 30
0.0
 11
0.5
 21
0.5
 31
0.0
  0
LINE
  5
88
330
86
100
AcDbEntity
  8
0
 62
     0
370
    -2
100
AcDbLine
 10
0.5
 20
0.5
 30
0.0
 11
0.5
 21
-0.5
 31
0.0
  0
LINE
  5
89
330
86
100
AcDbEntity
  8
0
 62
     0
370
    -2
100
AcDbLine
 10
0.5
 20
-0.5
 30
0.0
 11
-0.5
 21
-0.5
 31
0.0
  0
LINE
  5
8A
330
86
100
AcDbEntity
  8
0
 62
     0
370
    -2
100
AcDbLine
 10
-0.5
 20
-0.5
 30
0.0
 11
-0.5
 21
0.5
 31
0.0
  0
ENDBLK
  5
8C
330
86
100
AcDbEntity
  8
0
100
AcDbBlockEnd
  0
BLOCK
  5
90
330
8D
100
AcDbEntity
  8
0
100
AcDbBlockBegin
  2
CDWK_PTTYP2
 70
     0
 10
0.0
 20
0.0
 30
0.0
  3
CDWK_PTTYP2
  1

  0
LINE
  5
8E
330
8D
100
AcDbEntity
  8
0
 62
     0
370
    -2
100
AcDbLine
 10
0.0
 20
0.5
 30
0.0
 11
0.0
 21
-0.5
 31
0.0
  0
LINE
  5
8F
330
8D
100
AcDbEntity
  8
0
 62
     0
370
    -2
100
AcDbLine
 10
0.5
 20
0.0
 30
0.0
 11
-0.5
 21
0.0
 31
0.0
  0
ENDBLK
  5
91
330
8D
100
AcDbEntity
  8
0
100
AcDbBlockEnd
  0
BLOCK
  5
94
330
92
100
AcDbEntity
  8
0
100
AcDbBlockBegin
  2
CDWK_PTTYP4
 70
     0
 10
0.0
 20
0.0
 30
0.0
  3
CDWK_PTTYP4
  1

  0
HATCH
  5
93
330
92
100
AcDbEntity
  8
0
 62
     0
370
    -2
100
AcDbHatch
 10
0.0
 20
0.0
 30
0.0
210
0.0
220
0.0
230
1.0
  2
SOLID
 70
     1
 71
     1
 91
        1
 92
        1
 93
        1
 72
     2
 10
0.0
 20
0.0
 40
0.5
 50
0.0
 51
360.0
 73
     1
 97
        0
 75
     0
 76
     1
 98
        0
  0
ENDBLK
  5
95
330
92
100
AcDbEntity
  8
0
100
AcDbBlockEnd
  0
BLOCK
  5
9D
330
96
100
AcDbEntity
  8
0
100
AcDbBlockBegin
  2
CDWK_PTTYP5
 70
     0
 10
0.0
 20
0.0
 30
0.0
  3
CDWK_PTTYP5
  1

  0
LINE
  5
97
330
96
100
AcDbEntity
  8
0
 62
     0
370
    -2
100
AcDbLine
 10
-0.5
 20
0.5
 30
0.0
 11
0.5
 21
0.5
 31
0.0
  0
LINE
  5
98
330
96
100
AcDbEntity
  8
0
 62
     0
370
    -2
100
AcDbLine
 10
0.5
 20
0.5
 30
0.0
 11
0.5
 21
-0.5
 31
0.0
  0
LINE
  5
99
330
96
100
AcDbEntity
  8
0
 62
     0
370
    -2
100
AcDbLine
 10
0.5
 20
-0.5
 30
0.0
 11
-0.5
 21
-0.5
 31
0.0
  0
LINE
  5
9A
330
96
100
AcDbEntity
  8
0
 62
     0
370
    -2
100
AcDbLine
 10
-0.5
 20
-0.5
 30
0.0
 11
-0.5
 21
0.5
 31
0.0
  0
HATCH
  5
9B
330
96
100
AcDbEntity
  8
0
 62
     0
370
    -2
100
AcDbHatch
 10
0.0
 20
0.0
 30
0.0
210
0.0
220
0.0
230
1.0
  2
SOLID
 70
     1
 71
     1
 91
        1
 92
        3
 72
     0
 73
     1
 93
        4
 10
-0.5
 20
0.0
 10
0.0
 20
0.0
 10
0.0
 20
-0.5
 10
-0.5
 20
-0.5
 97
        0
 75
     0
 76
     1
 98
        0
  0
HATCH
  5
9C
330
96
100
AcDbEntity
  8
0
 62
     0
370
    -2
100
AcDbHatch
 10
0.0
 20
0.0
 30
0.0
210
0.0
220
0.0
230
1.0
  2
SOLID
 70
     1
 71
     1
 91
        1
 92
        3
 72
     0
 73
     1
 93
        4
 10
0.0
 20
0.0
 10
0.5
 20
0.0
 10
0.5
 20
0.5
 10
0.0
 20
0.5
 97
        0
 75
     0
 76
     1
 98
        0
  0
ENDBLK
  5
9E
330
96
100
AcDbEntity
  8
0
100
AcDbBlockEnd
  0
BLOCK
  5
A5
330
9F
100
AcDbEntity
  8
0
100
AcDbBlockBegin
  2
CDWK_PTTYP6
 70
     0
 10
0.0
 20
0.0
 30
0.0
  3
CDWK_PTTYP6
  1

  0
LINE
  5
A0
330
9F
100
AcDbEntity
  8
0
 62
     0
370
    -2
100
AcDbLine
 10
-0.5
 20
0.5
 30
0.0
 11
0.5
 21
0.5
 31
0.0
  0
LINE
  5
A1
330
9F
100
AcDbEntity
  8
0
 62
     0
370
    -2
100
AcDbLine
 10
0.5
 20
0.5
 30
0.0
 11
0.5
 21
-0.5
 31
0.0
  0
LINE
  5
A2
330
9F
100
AcDbEntity
  8
0
 62
     0
370
    -2
100
AcDbLine
 10
0.5
 20
-0.5
 30
0.0
 11
-0.5
 21
-0.5
 31
0.0
  0
LINE
  5
A3
330
9F
100
AcDbEntity
  8
0
 62
     0
370
    -2
100
AcDbLine
 10
-0.5
 20
-0.5
 30
0.0
 11
-0.5
 21
0.5
 31
0.0
  0
HATCH
  5
A4
330
9F
100
AcDbEntity
  8
0
 62
     0
370
    -2
100
AcDbHatch
 10
0.0
 20
0.0
 30
0.0
210
0.0
220
0.0
230
1.0
  2
SOLID
 70
     1
 71
     1
 91
        1
 92
        3
 72
     0
 73
     1
 93
        3
 10
-0.5
 20
-0.5
 10
-0.5
 20
0.5
 10
0.5
 20
0.5
 97
        0
 75
     0
 76
     1
 98
        0
  0
ENDBLK
  5
A6
330
9F
100
AcDbEntity
  8
0
100
AcDbBlockEnd
  0
BLOCK
  5
AE
330
A7
100
AcDbEntity
  8
0
100
AcDbBlockBegin
  2
CDWK_PTTYP7
 70
     0
 10
0.0
 20
0.0
 30
0.0
  3
CDWK_PTTYP7
  1

  0
LINE
  5
A8
330
A7
100
AcDbEntity
  8
0
 62
     0
370
    -2
100
AcDbLine
 10
-0.5
 20
0.5
 30
0.0
 11
0.5
 21
0.5
 31
0.0
  0
LINE
  5
A9
330
A7
100
AcDbEntity
  8
0
 62
     0
370
    -2
100
AcDbLine
 10
0.5
 20
0.5
 30
0.0
 11
0.5
 21
-0.5
 31
0.0
  0
LINE
  5
AA
330
A7
100
AcDbEntity
  8
0
 62
     0
370
    -2
100
AcDbLine
 10
0.5
 20
-0.5
 30
0.0
 11
-0.5
 21
-0.5
 31
0.0
  0
LINE
  5
AB
330
A7
100
AcDbEntity
  8
0
 62
     0
370
    -2
100
AcDbLine
 10
-0.5
 20
-0.5
 30
0.0
 11
-0.5
 21
0.5
 31
0.0
  0
LINE
  5
AC
330
A7
100
AcDbEntity
  8
0
 62
     0
370
    -2
100
AcDbLine
 10
0.0
 20
0.5
 30
0.0
 11
0.0
 21
-0.5
 31
0.0
  0
LINE
  5
AD
330
A7
100
AcDbEntity
  8
0
 62
     0
370
    -2
100
AcDbLine
 10
0.5
 20
0.0
 30
0.0
 11
-0.5
 21
0.0
 31
0.0
  0
ENDBLK
  5
AF
330
A7
100
AcDbEntity
  8
0
100
AcDbBlockEnd
  0
BLOCK
  5
B2
330
B0
100
AcDbEntity
  8
0
100
AcDbBlockBegin
  2
CDWK_PTTYP8
 70
     0
 10
0.0
 20
0.0
 30
0.0
  3
CDWK_PTTYP8
  1

  0
HATCH
  5
B1
330
B0
100
AcDbEntity
  8
0
 62
     0
370
    -2
100
AcDbHatch
 10
0.0
 20
0.0
 30
0.0
210
0.0
220
0.0
230
1.0
  2
SOLID
 70
     1
 71
     1
 91
        1
 92
        3
 72
     0
 73
     1
 93
        4
 10
0.5
 20
0.5
 10
0.5
 20
-0.5
 10
-0.5
 20
-0.5
 10
-0.5
 20
0.5
 97
        0
 75
     0
 76
     1
 98
        0
  0
ENDBLK
  5
B3
330
B0
100
AcDbEntity
  8
0
100
AcDbBlockEnd
  0
BLOCK
  5
B7
330
B4
100
AcDbEntity
  8
0
100
AcDbBlockBegin
  2
CDWK_PTTYP9
 70
     0
 10
0.0
 20
0.0
 30
0.0
  3
CDWK_PTTYP9
  1

  0
CIRCLE
  5
B5
330
B4
100
AcDbEntity
  8
0
 62
     0
370
    -2
100
AcDbCircle
 10
0.0
 20
0.0
 30
0.0
 40
0.1666666666666667
  0
CIRCLE
  5
B6
330
B4
100
AcDbEntity
  8
0
 62
     0
370
    -2
100
AcDbCircle
 10
0.0
 20
0.0
 30
0.0
 40
0.5
  0
ENDBLK
  5
B8
330
B4
100
AcDbEntity
  8
0
100
AcDbBlockEnd
  0
BLOCK
  5
BB
330
B9
100
AcDbEntity
  8
0
100
AcDbBlockBegin
  2
CDWK_PTTYP10
 70
     0
 10
0.0
 20
0.0
 30
0.0
  3
CDWK_PTTYP10
  1

  0
CIRCLE
  5
BA
330
B9
100
AcDbEntity
  8
0
 62
     0
370
    -2
100
AcDbCircle
 10
0.0
 20
0.0
 30
0.0
 40
0.5
  0
ENDBLK
  5
BC
330
B9
100
AcDbEntity
  8
0
100
AcDbBlockEnd
  0
BLOCK
  5
C0
330
BD
100
AcDbEntity
  8
0
100
AcDbBlockBegin
  2
CDWK_PTTYP11
 70
     0
 10
0.0
 20
0.0
 30
0.0
  3
CDWK_PTTYP11
  1

  0
CIRCLE
  5
BE
330
BD
100
AcDbEntity
  8
0
 62
     0
370
    -2
100
AcDbCircle
 10
0.0
 20
0.0
 30
0.0
 40
0.25
  0
CIRCLE
  5
BF
330
BD
100
AcDbEntity
  8
0
 62
     0
370
    -2
100
AcDbCircle
 10
0.0
 20
0.0
 30
0.0
 40
0.5
  0
ENDBLK
  5
C1
330
BD
100
AcDbEntity
  8
0
100
AcDbBlockEnd
  0
BLOCK
  5
C5
330
C2
100
AcDbEntity
  8
0
100
AcDbBlockBegin
  2
CDWK_PTTYP12
 70
     0
 10
0.0
 20
0.0
 30
0.0
  3
CDWK_PTTYP12
  1

  0
CIRCLE
  5
C3
330
C2
100
AcDbEntity
  8
0
 62
     0
370
    -2
100
AcDbCircle
 10
0.25
 20
0.0
 30
0.0
 40
0.25
  0
CIRCLE
  5
C4
330
C2
100
AcDbEntity
  8
0
 62
     0
370
    -2
100
AcDbCircle
 10
0.0
 20
0.0
 30
0.0
 40
0.5
  0
ENDBLK
  5
C6
330
C2
100
AcDbEntity
  8
0
100
AcDbBlockEnd
  0
BLOCK
  5
CB
330
C7
100
AcDbEntity
  8
0
100
AcDbBlockBegin
  2
CDWK_PTTYP13
 70
     0
 10
0.0
 20
0.0
 30
0.0
  3
CDWK_PTTYP13
  1

  0
CIRCLE
  5
C8
330
C7
100
AcDbEntity
  8
0
 62
     0
370
    -2
100
AcDbCircle
 10
-0.25
 20
0.0
 30
0.0
 40
0.25
  0
CIRCLE
  5
C9
330
C7
100
AcDbEntity
  8
0
 62
     0
370
    -2
100
AcDbCircle
 10
0.25
 20
0.0
 30
0.0
 40
0.25
  0
CIRCLE
  5
CA
330
C7
100
AcDbEntity
  8
0
 62
     0
370
    -2
100
AcDbCircle
 10
0.0
 20
0.0
 30
0.0
 40
0.5
  0
ENDBLK
  5
CC
330
C7
100
AcDbEntity
  8
0
100
AcDbBlockEnd
  0
BLOCK
  5
D2
330
CD
100
AcDbEntity
  8
0
100
AcDbBlockBegin
  2
CDWK_PTTYP16
 70
     0
 10
0.0
 20
0.0
 30
0.0
  3
CDWK_PTTYP16
  1

  0
LINE
  5
CE
330
CD
100
AcDbEntity
  8
0
 62
     0
370
    -2
100
AcDbLine
 10
-0.5
 20
-0.289
 30
0.0
 11
0.5
 21
-0.289
 31
0.0
  0
LINE
  5
CF
330
CD
100
AcDbEntity
  8
0
 62
     0
370
    -2
100
AcDbLine
 10
0.5
 20
-0.289
 30
0.0
 11
0.0
 21
0.577
 31
0.0
  0
LINE
  5
D0
330
CD
100
AcDbEntity
  8
0
 62
     0
370
    -2
100
AcDbLine
 10
0.0
 20
0.577
 30
0.0
 11
-0.5
 21
-0.289
 31
0.0
  0
CIRCLE
  5
D1
330
CD
100
AcDbEntity
  8
0
 62
     0
370
    -2
100
AcDbCircle
 10
0.0
 20
0.0
 30
0.0
 40
0.289
  0
ENDBLK
  5
D3
330
CD
100
AcDbEntity
  8
0
100
AcDbBlockEnd
  0
BLOCK
  5
D7
330
D4
100
AcDbEntity
  8
0
100
AcDbBlockBegin
  2
CDWK_PTTYP17
 70
     0
 10
0.0
 20
0.0
 30
0.0
  3
CDWK_PTTYP17
  1

  0
CIRCLE
  5
D5
330
D4
100
AcDbEntity
  8
0
 62
     0
370
    -2
100
AcDbCircle
 10
0.0
 20
0.0
 30
0.0
 40
0.5
  0
HATCH
  5
D6
330
D4
100
AcDbEntity
  8
0
 62
     0
370
    -2
100
AcDbHatch
 10
0.0
 20
0.0
 30
0.0
210
0.0
220
0.0
230
1.0
  2
SOLID
 70
     1
 71
     1
 91
        1
 92
        1
 93
        1
 72
     2
 10
0.0
 20
0.0
 40
0.25
 50
0.0
 51
360.0
 73
     1
 97
        0
 75
     0
 76
     1
 98
        0
  0
ENDBLK
  5
D8
330
D4
100
AcDbEntity
  8
0
100
AcDbBlockEnd
  0
BLOCK
  5
DC
330
D9
100
AcDbEntity
  8
0
100
AcDbBlockBegin
  2
CDWK_PTTYP18
 70
     0
 10
0.0
 20
0.0
 30
0.0
  3
CDWK_PTTYP18
  1

  0
CIRCLE
  5
DA
330
D9
100
AcDbEntity
  8
0
 62
     0
370
    -2
100
AcDbCircle
 10
0.0
 20
0.0
 30
0.0
 40
0.5
  0
CIRCLE
  5
DB
330
D9
100
AcDbEntity
  8
0
 62
     0
370
    -2
100
AcDbCircle
 10
0.0
 20
0.0
 30
0.0
 40
0.208
  0
ENDBLK
  5
DD
330
D9
100
AcDbEntity
  8
0
100
AcDbBlockEnd
  0
BLOCK
  5
E2
330
DE
100
AcDbEntity
  8
0
100
AcDbBlockBegin
  2
CDWK_PTTYP19
 70
     0
 10
0.0
 20
0.0
 30
0.0
  3
CDWK_PTTYP19
  1

  0
CIRCLE
  5
DF
330
DE
100
AcDbEntity
  8
0
 62
     0
370
    -2
100
AcDbCircle
 10
0.0
 20
0.0
 30
0.0
 40
0.25
  0
CIRCLE
  5
E0
330
DE
100
AcDbEntity
  8
0
 62
     0
370
    -2
100
AcDbCircle
 10
0.0
 20
0.0
 30
0.0
 40
0.35
  0
LINE
  5
E1
330
DE
100
AcDbEntity
  8
0
 62
     0
370
    -2
100
AcDbLine
 10
-0.25
 20
0.0
 30
0.0
 11
0.25
 21
0.0
 31
0.0
  0
ENDBLK
  5
E3
330
DE
100
AcDbEntity
  8
0
100
AcDbBlockEnd
  0
BLOCK
  5
E7
330
E4
100
AcDbEntity
  8
0
100
AcDbBlockBegin
  2
CDWK_PTTYP20
 70
     0
 10
0.0
 20
0.0
 30
0.0
  3
CDWK_PTTYP20
  1

  0
CIRCLE
  5
E5
330
E4
100
AcDbEntity
  8
0
 62
     0
370
    -2
100
AcDbCircle
 10
0.0
 20
0.0
 30
0.0
 40
0.3333333333333333
  0
CIRCLE
  5
E6
330
E4
100
AcDbEntity
  8
0
 62
     0
370
    -2
100
AcDbCircle
 10
0.0
 20
0.0
 30
0.0
 40
0.5
  0
ENDBLK
  5
E8
330
E4
100
AcDbEntity
  8
0
100
AcDbBlockEnd
  0
BLOCK
  5
EC
330
E9
100
AcDbEntity
  8
0
100
AcDbBlockBegin
  2
CDWK_PTTYP21
 70
     0
 10
0.0
 20
0.0
 30
0.0
  3
CDWK_PTTYP21
  1

  0
CIRCLE
  5
EA
330
E9
100
AcDbEntity
  8
0
 62
     0
370
    -2
100
AcDbCircle
 10
0.0
 20
0.0
 30
0.0
 40
0.5
  0
LINE
  5
EB
330
E9
100
AcDbEntity
  8
0
 62
     0
370
    -2
100
AcDbLine
 10
-0.5
 20
0.0
 30
0.0
 11
0.5
 21
0.0
 31
0.0
  0
ENDBLK
  5
ED
330
E9
100
AcDbEntity
  8
0
100
AcDbBlockEnd
  0
BLOCK
  5
F3
330
EE
100
AcDbEntity
  8
0
100
AcDbBlockBegin
  2
CDWK_PTTYP25
 70
     0
 10
0.0
 20
0.0
 30
0.0
  3
CDWK_PTTYP25
  1

  0
LINE
  5
EF
330
EE
100
AcDbEntity
  8
0
 62
     0
370
    -2
100
AcDbLine
 10
0.0
 20
0.5
 30
0.0
 11
-0.4330127018922193
 21
-0.25
 31
0.0
  0
LINE
  5
F0
330
EE
100
AcDbEntity
  8
0
 62
     0
370
    -2
100
AcDbLine
 10
-0.4330127018922193
 20
-0.25
 30
0.0
 11
0.4330127018922193
 21
-0.25
 31
0.0
  0
LINE
  5
F1
330
EE
100
AcDbEntity
  8
0
 62
     0
370
    -2
100
AcDbLine
 10
0.4330127018922193
 20
-0.25
 30
0.0
 11
0.0
 21
0.5
 31
0.0
  0
CIRCLE
  5
F2
330
EE
100
AcDbEntity
  8
0
 62
     0
370
    -2
100
AcDbCircle
 10
0.0
 20
0.0
 30
0.0
 40
0.5
  0
ENDBLK
  5
F4
330
EE
100
AcDbEntity
  8
0
100
AcDbBlockEnd
  0
BLOCK
  5
FA
330
F5
100
AcDbEntity
  8
0
100
AcDbBlockBegin
  2
CDWK_PTTYP26
 70
     0
 10
0.0
 20
0.0
 30
0.0
  3
CDWK_PTTYP26
  1

  0
LINE
  5
F6
330
F5
100
AcDbEntity
  8
0
 62
     0
370
    -2
100
AcDbLine
 10
-0.5
 20
-0.289
 30
0.0
 11
0.5
 21
-0.289
 31
0.0
  0
LINE
  5
F7
330
F5
100
AcDbEntity
  8
0
 62
     0
370
    -2
100
AcDbLine
 10
0.5
 20
-0.289
 30
0.0
 11
0.0
 21
0.577
 31
0.0
  0
LINE
  5
F8
330
F5
100
AcDbEntity
  8
0
 62
     0
370
    -2
100
AcDbLine
 10
0.0
 20
0.577
 30
0.0
 11
-0.5
 21
-0.289
 31
0.0
  0
CIRCLE
  5
F9
330
F5
100
AcDbEntity
  8
0
 62
     0
370
    -2
100
AcDbCircle
 10
0.0
 20
0.0
 30
0.0
 40
0.125
  0
ENDBLK
  5
FB
330
F5
100
AcDbEntity
  8
0
100
AcDbBlockEnd
  0
BLOCK
  5
102
330
FC
100
AcDbEntity
  8
0
100
AcDbBlockBegin
  2
CDWK_PTTYP27
 70
     0
 10
0.0
 20
0.0
 30
0.0
  3
CDWK_PTTYP27
  1

  0
LINE
  5
FD
330
FC
100
AcDbEntity
  8
0
 62
     0
370
    -2
100
AcDbLine
 10
0.0
 20
0.5
 30
0.0
 11
-0.4330127018922193
 21
-0.25
 31
0.0
  0
LINE
  5
FE
330
FC
100
AcDbEntity
  8
0
 62
     0
370
    -2
100
AcDbLine
 10
-0.4330127018922193
 20
-0.25
 30
0.0
 11
0.4330127018922193
 21
-0.25
 31
0.0
  0
LINE
  5
FF
330
FC
100
AcDbEntity
  8
0
 62
     0
370
    -2
100
AcDbLine
 10
0.4330127018922193
 20
-0.25
 30
0.0
 11
0.0
 21
0.5
 31
0.0
  0
CIRCLE
  5
100
330
FC
100
AcDbEntity
  8
0
 62
     0
370
    -2
100
AcDbCircle
 10
0.0
 20
0.0
 30
0.0
 40
0.125
  0
CIRCLE
  5
101
330
FC
100
AcDbEntity
  8
0
 62
     0
370
    -2
100
AcDbCircle
 10
0.0
 20
0.0
 30
0.0
 40
0.5
  0
ENDBLK
  5
103
330
FC
100
AcDbEntity
  8
0
100
AcDbBlockEnd
  0
BLOCK
  5
109
330
104
100
AcDbEntity
  8
0
100
AcDbBlockBegin
  2
CDWK_PTTYP28
 70
     0
 10
0.0
 20
0.0
 30
0.0
  3
CDWK_PTTYP28
  1

  0
LINE
  5
105
330
104
100
AcDbEntity
  8
0
 62
     0
370
    -2
100
AcDbLine
 10
-0.5
 20
0.5
 30
0.0
 11
0.5
 21
0.5
 31
0.0
  0
LINE
  5
106
330
104
100
AcDbEntity
  8
0
 62
     0
370
    -2
100
AcDbLine
 10
0.5
 20
0.5
 30
0.0
 11
-0.5
 21
-0.5
 31
0.0
  0
LINE
  5
107
330
104
100
AcDbEntity
  8
0
 62
     0
370
    -2
100
AcDbLine
 10
0.5
 20
-0.5
 30
0.0
 11
-0.5
 21
-0.5
 31
0.0
  0
LINE
  5
108
330
104
100
AcDbEntity
  8
0
 62
     0
370
    -2
100
AcDbLine
 10
-0.5
 20
0.5
 30
0.0
 11
0.5
 21
-0.5
 31
0.0
  0
ENDBLK
  5
10A
330
104
100
AcDbEntity
  8
0
100
AcDbBlockEnd
  0
BLOCK
  5
10F
330
10B
100
AcDbEntity
  8
0
100
AcDbBlockBegin
  2
CDWK_PTTYP29
 70
     0
 10
0.0
 20
0.0
 30
0.0
  3
CDWK_PTTYP29
  1

  0
CIRCLE
  5
10C
330
10B
100
AcDbEntity
  8
0
 62
     0
370
    -2
100
AcDbCircle
 10
0.0
 20
0.0
 30
0.0
 40
0.2
  0
CIRCLE
  5
10D
330
10B
100
AcDbEntity
  8
0
 62
     0
370
    -2
100
AcDbCircle
 10
0.0
 20
0.0
 30
0.0
 40
0.35
  0
CIRCLE
  5
10E
330
10B
100
AcDbEntity
  8
0
 62
     0
370
    -2
100
AcDbCircle
 10
0.0
 20
0.0
 30
0.0
 40
0.5
  0
ENDBLK
  5
110
330
10B
100
AcDbEntity
  8
0
100
AcDbBlockEnd
  0
BLOCK
  5
116
330
111
100
AcDbEntity
  8
0
100
AcDbBlockBegin
  2
CDWK_PTTYP30
 70
     0
 10
0.0
 20
0.0
 30
0.0
  3
CDWK_PTTYP30
  1

  0
LINE
  5
112
330
111
100
AcDbEntity
  8
0
 62
     0
370
    -2
100
AcDbLine
 10
-0.5
 20
0.5
 30
0.0
 11
-0.1
 21
0.1
 31
0.0
  0
LINE
  5
113
330
111
100
AcDbEntity
  8
0
 62
     0
370
    -2
100
AcDbLine
 10
0.5
 20
0.5
 30
0.0
 11
0.1
 21
0.1
 31
0.0
  0
LINE
  5
114
330
111
100
AcDbEntity
  8
0
 62
     0
370
    -2
100
AcDbLine
 10
0.5
 20
-0.5
 30
0.0
 11
0.1
 21
-0.1
 31
0.0
  0
LINE
  5
115
330
111
100
AcDbEntity
  8
0
 62
     0
370
    -2
100
AcDbLine
 10
-0.5
 20
-0.5
 30
0.0
 11
-0.1
 21
-0.1
 31
0.0
  0
ENDBLK
  5
117
330
111
100
AcDbEntity
  8
0
100
AcDbBlockEnd
  0
BLOCK
  5
11E
330
118
100
AcDbEntity
  8
0
100
AcDbBlockBegin
  2
CDWK_PTTYP31
 70
     0
 10
0.0
 20
0.0
 30
0.0
  3
CDWK_PTTYP31
  1

  0
LINE
  5
119
330
118
100
AcDbEntity
  8
0
 62
     0
370
    -2
100
AcDbLine
 10
-0.5
 20
0.0
 30
0.0
 11
-0.1
 21
0.0
 31
0.0
  0
LINE
  5
11A
330
118
100
AcDbEntity
  8
0
 62
     0
370
    -2
100
AcDbLine
 10
0.1
 20
0.0
 30
0.0
 11
0.5
 21
0.0
 31
0.0
  0
LINE
  5
11B
330
118
100
AcDbEntity
  8
0
 62
     0
370
    -2
100
AcDbLine
 10
0.0
 20
0.5
 30
0.0
 11
0.0
 21
0.1
 31
0.0
  0
LINE
  5
11C
330
118
100
AcDbEntity
  8
0
 62
     0
370
    -2
100
AcDbLine
 10
0.0
 20
-0.1
 30
0.0
 11
0.0
 21
-0.5
 31
0.0
  0
CIRCLE
  5
11D
330
118
100
AcDbEntity
  8
0
 62
     0
370
    -2
100
AcDbCircle
 10
0.0
 20
0.0
 30
0.0
 40
0.1
  0
ENDBLK
  5
11F
330
118
100
AcDbEntity
  8
0
100
AcDbBlockEnd
  0
BLOCK
  5
127
330
120
100
AcDbEntity
  8
0
100
AcDbBlockBegin
  2
CDWK_PTTYP32
 70
     0
 10
0.0
 20
0.0
 30
0.0
  3
CDWK_PTTYP32
  1

  0
CIRCLE
  5
121
330
120
100
AcDbEntity
  8
0
 62
     0
370
    -2
100
AcDbCircle
 10
0.0
 20
0.0
 30
0.0
 40
0.2
  0
CIRCLE
  5
122
330
120
100
AcDbEntity
  8
0
 62
     0
370
    -2
100
AcDbCircle
 10
0.0
 20
0.0
 30
0.0
 40
0.5
  0
LINE
  5
123
330
120
100
AcDbEntity
  8
0
 62
     0
370
    -2
100
AcDbLine
 10
0.1414213562373095
 20
0.1414213562373095
 30
0.0
 11
0.3535533905932738
 21
0.3535533905932738
 31
0.0
  0
LINE
  5
124
330
120
100
AcDbEntity
  8
0
 62
     0
370
    -2
100
AcDbLine
 10
-0.1414213562373095
 20
0.1414213562373095
 30
0.0
 11
-0.3535533905932738
 21
0.3535533905932738
 31
0.0
  0
LINE
  5
125
330
120
100
AcDbEntity
  8
0
 62
     0
370
    -2
100
AcDbLine
 10
0.1414213562373095
 20
-0.1414213562373095
 30
0.0
 11
0.3535533905932738
 21
-0.3535533905932738
 31
0.0
  0
LINE
  5
126
330
120
100
AcDbEntity
  8
0
 62
     0
370
    -2
100
AcDbLine
 10
-0.1414213562373095
 20
-0.1414213562373095
 30
0.0
 11
-0.3535533905932738
 21
-0.3535533905932738
 31
0.0
  0
ENDBLK
  5
128
330
120
100
AcDbEntity
  8
0
100
AcDbBlockEnd
  0
BLOCK
  5
12D
330
129
100
AcDbEntity
  8
0
100
AcDbBlockBegin
  2
CDWK_PTTYP33
 70
     0
 10
0.0
 20
0.0
 30
0.0
  3
CDWK_PTTYP33
  1

  0
LINE
  5
12A
330
129
100
AcDbEntity
  8
0
 62
     0
370
    -2
100
AcDbLine
 10
0.0
 20
-0.5
 30
0.0
 11
0.0
 21
0.5
 31
0.0
  0
LINE
  5
12B
330
129
100
AcDbEntity
  8
0
 62
     0
370
    -2
100
AcDbLine
 10
0.5
 20
0.0
 30
0.0
 11
-0.5
 21
0.0
 31
0.0
  0
CIRCLE
  5
12C
330
129
100
AcDbEntity
  8
0
 62
     0
370
    -2
100
AcDbCircle
 10
0.0
 20
0.0
 30
0.0
 40
0.5
  0
ENDBLK
  5
12E
330
129
100
AcDbEntity
  8
0
100
AcDbBlockEnd
  0
BLOCK
  5
133
330
12F
100
AcDbEntity
  8
0
100
AcDbBlockBegin
  2
CDWK_PTTYP34
 70
     0
 10
0.0
 20
0.0
 30
0.0
  3
CDWK_PTTYP34
  1

  0
CIRCLE
  5
130
330
12F
100
AcDbEntity
  8
0
 62
     0
370
    -2
100
AcDbCircle
 10
0.0
 20
0.0
 30
0.0
 40
0.5
  0
LINE
  5
131
330
12F
100
AcDbEntity
  8
0
 62
     0
370
    -2
100
AcDbLine
 10
-0.4
 20
-0.3
 30
0.0
 11
0.3
 21
0.4
 31
0.0
  0
LINE
  5
132
330
12F
100
AcDbEntity
  8
0
 62
     0
370
    -2
100
AcDbLine
 10
-0.3
 20
-0.4
 30
0.0
 11
0.4
 21
0.3
 31
0.0
  0
ENDBLK
  5
134
330
12F
100
AcDbEntity
  8
0
100
AcDbBlockEnd
  0
BLOCK
  5
139
330
135
100
AcDbEntity
  8
0
100
AcDbBlockBegin
  2
CDWK_PTTYP35
 70
     0
 10
0.0
 20
0.0
 30
0.0
  3
CDWK_PTTYP35
  1

  0
LINE
  5
136
330
135
100
AcDbEntity
  8
0
 62
     0
370
    -2
100
AcDbLine
 10
0.0
 20
0.2
 30
0.0
 11
0.0
 21
0.5
 31
0.0
  0
LINE
  5
137
330
135
100
AcDbEntity
  8
0
 62
     0
370
    -2
100
AcDbLine
 10
0.0
 20
-0.2
 30
0.0
 11
0.0
 21
-0.5
 31
0.0
  0
CIRCLE
  5
138
330
135
100
AcDbEntity
  8
0
 62
     0
370
    -2
100
AcDbCircle
 10
0.0
 20
0.0
 30
0.0
 40
0.2
  0
ENDBLK
  5
13A
330
135
100
AcDbEntity
  8
0
100
AcDbBlockEnd
  0
BLOCK
  5
141
330
13B
100
AcDbEntity
  8
0
100
AcDbBlockBegin
  2
CDWK_PTTYP36
 70
     0
 10
0.0
 20
0.0
 30
0.0
  3
CDWK_PTTYP36
  1

  0
LINE
  5
13C
330
13B
100
AcDbEntity
  8
0
 62
     0
370
    -2
100
AcDbLine
 10
-0.5
 20
0.2
 30
0.0
 11
0.5
 21
0.2
 31
0.0
  0
LINE
  5
13D
330
13B
100
AcDbEntity
  8
0
 62
     0
370
    -2
100
AcDbLine
 10
0.5
 20
0.2
 30
0.0
 11
0.5
 21
-0.2
 31
0.0
  0
LINE
  5
13E
330
13B
100
AcDbEntity
  8
0
 62
     0
370
    -2
100
AcDbLine
 10
0.5
 20
-0.2
 30
0.0
 11
-0.5
 21
-0.2
 31
0.0
  0
LINE
  5
13F
330
13B
100
AcDbEntity
  8
0
 62
     0
370
    -2
100
AcDbLine
 10
-0.5
 20
-0.2
 30
0.0
 11
-0.5
 21
0.2
 31
0.0
  0
HATCH
  5
140
330
13B
100
AcDbEntity
  8
0
 62
     0
370
    -2
100
AcDbHatch
 10
0.0
 20
0.0
 30
0.0
210
0.0
220
0.0
230
1.0
  2
SOLID
 70
     1
 71
     1
 91
        1
 92
        3
 72
     0
 73
     1
 93
        3
 10
-0.5
 20
-0.2
 10
0.5
 20
-0.2
 10
0.5
 20
0.2
 97
        0
 75
     0
 76
     1
 98
        0
  0
ENDBLK
  5
142
330
13B
100
AcDbEntity
  8
0
100
AcDbBlockEnd
  0
BLOCK
  5
146
330
143
100
AcDbEntity
  8
0
100
AcDbBlockBegin
  2
CDWK_PTTYP37
 70
     0
 10
0.0
 20
0.0
 30
0.0
  3
CDWK_PTTYP37
  1

  0
HATCH
  5
144
330
143
100
AcDbEntity
  8
0
 62
     0
370
    -2
100
AcDbHatch
 10
0.0
 20
0.0
 30
0.0
210
0.0
220
0.0
230
1.0
  2
SOLID
 70
     1
 71
     1
 91
        1
 92
        3
 72
     0
 73
     1
 93
      202
 10
-0.3535533905932738
 20
-0.3535533905932738
 10
-0.3485533905932738
 20
-0.3535533905932737
 10
-0.3435533905932738
 20
-0.3584836591895546
 10
-0.3385533905932738
 20
-0.3632782236961988
 10
-0.3335533905932738
 20
-0.367942389128785
 10
-0.3285533905932738
 20
-0.372481054046687
 10
-0.3235533905932738
 20
-0.3768987523588579
 10
-0.3185533905932738
 20
-0.3811996897107819
 10
-0.3135533905932738
 20
-0.3853877752881235
 10
-0.3085533905932737
 20
-0.3894666497242888
 10
-0.3035533905932737
 20
-0.3934397096803965
 10
-0.2985533905932737
 20
-0.3973101295704999
 10
-0.2935533905932737
 20
-0.4010808808273714
 10
-0.2885533905932737
 20
-0.4047547490409382
 10
-0.2835533905932737
 20
-0.4083343492496384
 10
-0.2785533905932737
 20
-0.4118221396222626
 10
-0.2735533905932737
 20
-0.4152204337324827
 10
-0.2685533905932737
 20
-0.4185314115988474
 10
-0.2635533905932737
 20
-0.4217571296384408
 10
-0.2585533905932737
 20
-0.4248995296617653
 10
-0.2535533905932737
 20
-0.4279604470190231
 10
-0.2485533905932737
 20
-0.4309416179932669
 10
-0.2435533905932737
 20
-0.4338446865234004
 10
-0.2385533905932737
 20
-0.4366712103293738
 10
-0.2335533905932737
 20
-0.439422666502825
 10
-0.2285533905932737
 20
-0.4421004566186126
 10
-0.2235533905932737
 20
-0.4447059114159811
 10
-0.2185533905932737
 20
-0.4472402950923041
 10
-0.2135533905932737
 20
-0.4497048092473372
 10
-0.2085533905932737
 20
-0.4521005965115692
 10
-0.2035533905932737
 20
-0.4544287438884664
 10
-0.1985533905932736
 20
-0.456690285837111
 10
-0.1935533905932736
 20
-0.45888620711884
 10
-0.1885533905932736
 20
-0.4610174454289638
 10
-0.1835533905932736
 20
-0.4630848938324164
 10
-0.1785533905932736
 20
-0.4650894030202291
 10
-0.1735533905932736
 20
-0.4670317834019928
 10
-0.1685533905932736
 20
-0.46891280704794
 10
-0.1635533905932736
 20
-0.4707332094929264
 10
-0.1585533905932736
 20
-0.4724936914133818
 10
-0.1535533905932736
 20
-0.4741949201872336
 10
-0.1485533905932736
 20
-0.4758375313458466
 10
-0.1435533905932736
 20
-0.4774221299261716
 10
-0.1385533905932736
 20
-0.4789492917305286
 10
-0.1335533905932736
 20
-0.4804195645007682
 10
-0.1285533905932736
 20
-0.4818334690129366
 10
-0.1235533905932736
 20
-0.4831915000980183
 10
-0.1185533905932736
 20
-0.4844941275938295
 10
-0.1135533905932736
 20
-0.4857417972326848
 10
-0.1085533905932736
 20
-0.4869349314690531
 10
-0.1035533905932736
 20
-0.4880739302510473
 10
-0.0985533905932736
 20
-0.489159171739258
 10
-0.0935533905932736
 20
-0.4901910129761353
 10
-0.0885533905932736
 20
-0.4911697905088447
 10
-0.0835533905932735
 20
-0.4920958209682695
 10
-0.0785533905932735
 20
-0.4929694016065986
 10
-0.0735533905932735
 20
-0.4937908107957261
 10
-0.0685533905932735
 20
-0.494560308488493
 10
-0.0635533905932735
 20
-0.4952781366446192
 10
-0.0585533905932735
 20
-0.4959445196230107
 10
-0.0535533905932735
 20
-0.4965596645419678
 10
-0.0485533905932735
 20
-0.4971237616086806
 10
-0.0435533905932735
 20
-0.4976369844192622
 10
-0.0385533905932735
 20
-0.4980994902304456
 10
-0.0335533905932735
 20
-0.4985114202039533
 10
-0.0285533905932735
 20
-0.4988728996244386
 10
-0.0235533905932735
 20
-0.4991840380917923
 10
-0.0185533905932735
 20
-0.49944492968851
 10
-0.0135533905932735
 20
-0.4996556531227215
 10
-0.0085533905932735
 20
-0.4998162718473921
 10
-0.0035533905932735
 20
-0.4999268341561182
 10
0.0014466094067265
 20
-0.499987373255857
 10
0.0064466094067265
 20
-0.4999979073168451
 10
0.0114466094067265
 20
-0.4999584394998819
 10
0.0164466094067265
 20
-0.4998689579610739
 10
0.0214466094067265
 20
-0.4997294358340547
 10
0.0264466094067265
 20
-0.4995398311896213
 10
0.0314466094067265
 20
-0.4993000869726422
 10
0.0364466094067265
 20
-0.4990101309160174
 10
0.0414466094067265
 20
-0.4986698754313855
 10
0.0464466094067265
 20
-0.498279217476192
 10
0.0514466094067265
 20
-0.4978380383966446
 10
0.0564466094067265
 20
-0.497346203745994
 10
0.0614466094067265
 20
-0.4968035630774849
 10
0.0664466094067264
 20
-0.4962099497112257
 10
0.0714466094067265
 20
-0.4955651804741228
 10
0.0764466094067265
 20
-0.4948690554119167
 10
0.0814466094067265
 20
-0.4941213574722463
 10
0.0864466094067265
 20
-0.4933218521575424
 10
0.0914466094067265
 20
-0.4924702871464235
 10
0.0964466094067265
 20
-0.4915663918821278
 10
0.1014466094067265
 20
-0.4906098771263643
 10
0.1064466094067265
 20
-0.4896004344768079
 10
0.1114466094067265
 20
-0.4885377358462822
 10
0.1164466094067265
 20
-0.4874214329014929
 10
0.1214466094067265
 20
-0.4862511564589613
 10
0.1264466094067265
 20
-0.4850265158355881
 10
0.1314466094067265
 20
-0.4837470981510305
 10
0.1364466094067265
 20
-0.482412467578809
 10
0.1414466094067265
 20
-0.4810221645427664
 10
0.1464466094067265
 20
-0.4795757048551781
 10
0.1514466094067265
 20
-0.4780725787924608
 10
0.1564466094067265
 20
-0.4765122501040308
 10
0.1614466094067265
 20
-0.4748941549494363
 10
0.1664466094067265
 20
-0.4732177007584056
 10
0.1714466094067265
 20
-0.4714822650079264
 10
0.1764466094067265
 20
-0.4696871939098801
 10
0.1814466094067266
 20
-0.4678318010021017
 10
0.1864466094067266
 20
-0.4659153656350076
 10
0.1914466094067266
 20
-0.4639371313451162
 10
0.1964466094067266
 20
-0.4618963041058764
 10
0.2014466094067266
 20
-0.4597920504451997
 10
0.2064466094067266
 20
-0.4576234954179405
 10
0.2114466094067266
 20
-0.4553897204202862
 10
0.2164466094067266
 20
-0.4530897608315588
 10
0.2214466094067266
 20
-0.45072260346729
 10
0.2264466094067266
 20
-0.4482871838255748
 10
0.2314466094067266
 20
-0.4457823831065977
 10
0.2364466094067266
 20
-0.4432070249828292
 10
0.2414466094067266
 20
-0.4405598720946596
 10
0.2464466094067266
 20
-0.4378396222431172
 10
0.2514466094067266
 20
-0.4350449042477435
 10
0.2564466094067266
 20
-0.4321742734336012
 10
0.2614466094067266
 20
-0.4292262067066663
 10
0.2664466094067266
 20
-0.4261990971714118
 10
0.2714466094067266
 20
-0.4230912482380831
 10
0.2764466094067266
 20
-0.4199008671598476
 10
0.2814466094067266
 20
-0.4166260579314797
 10
0.2864466094067266
 20
-0.4132648134712868
 10
0.2914466094067266
 20
-0.4098150069963156
 10
0.2964466094067266
 20
-0.4062743824871597
 10
0.3014466094067266
 20
-0.4026405441224911
 10
0.3064466094067266
 20
-0.3989109445442534
 10
0.3114466094067266
 20
-0.3950828717916294
 10
0.3164466094067266
 20
-0.391153434714632
 10
0.3214466094067266
 20
-0.3871195466454601
 10
0.3264466094067267
 20
-0.3829779070663467
 10
0.3314466094067267
 20
-0.3787249809648844
 10
0.3364466094067267
 20
-0.3743569755097196
 10
0.3414466094067267
 20
-0.3698698136084067
 10
0.3464466094067267
 20
-0.3652591038217257
 10
0.3514466094067267
 20
-0.3605201060004601
 10
0.3564466094067267
 20
-0.3556476918757041
 10
0.3614466094067267
 20
-0.3506362996645505
 10
0.3664466094067267
 20
-0.34547988153926
 10
0.3714466094067267
 20
-0.3401718425359658
 10
0.3764466094067267
 20
-0.334704969129899
 10
0.3814466094067267
 20
-0.3290713452523318
 10
0.3864466094067267
 20
-0.3232622529342269
 10
0.3914466094067267
 20
-0.3172680539828188
 10
0.3964466094067267
 20
-0.3110780480586465
 10
0.4014466094067267
 20
-0.304680301118911
 10
0.4064466094067267
 20
-0.2980614362775617
 10
0.4114466094067267
 20
-0.291206376478565
 10
0.4164466094067267
 20
-0.2840980246459106
 10
0.4214466094067267
 20
-0.276716861635935
 10
0.4264466094067267
 20
-0.2690404345439063
 10
0.4314466094067267
 20
-0.2610426963649944
 10
0.4364466094067267
 20
-0.2526931404518915
 10
0.4414466094067268
 20
-0.2439556458403291
 10
0.4464466094067268
 20
-0.2347869056044327
 10
0.4514466094067268
 20
-0.2251342376211081
 10
0.4564466094067268
 20
-0.2149324518428296
 10
0.4614466094067268
 20
-0.2040992228331676
 10
0.4664466094067268
 20
-0.1925279893081412
 10
0.4714466094067268
 20
-0.1800765408735088
 10
0.4764466094067268
 20
-0.1665475742210051
 10
0.4814466094067268
 20
-0.1516529867323223
 10
0.4864466094067268
 20
-0.1349413290684758
 10
0.4914466094067268
 20
-0.1156274024472547
 10
0.4964466094067268
 20
-0.0920881648347501
 10
0.5
 20
0.0
 10
0.495
 20
0.0
 10
0.49
 20
0.0705336798983295
 10
0.485
 20
0.0994987437106621
 10
0.48
 20
0.1215524578114322
 10
0.475
 20
0.14
 10
0.47
 20
0.15612494995996
 10
0.465
 20
0.1705872210923199
 10
0.46
 20
0.1837797594948911
 10
0.455
 20
0.1959591794226544
 10
0.45
 20
0.2073041244162789
 10
0.445
 20
0.2179449471770338
 10
0.4399999999999999
 20
0.2279802623035601
 10
0.4349999999999999
 20
0.2374868417407584
 10
0.4299999999999999
 20
0.2465258607124211
 10
0.4249999999999999
 20
0.2551470164434615
 10
0.4199999999999999
 20
0.2633913438213186
 10
0.4149999999999999
 20
0.2712931993250108
 10
0.4099999999999999
 20
0.2788816953476869
 10
0.4049999999999999
 20
0.2861817604250838
 10
0.3999999999999999
 20
0.2932149382279151
 10
0.3949999999999999
 20
0.3000000000000002
 10
0.3899999999999999
 20
0.3065534211193868
 10
0.3849999999999999
 20
0.3128897569432404
 10
0.3799999999999999
 20
0.3190219428189855
 10
0.3749999999999999
 20
0.3249615361854385
 10
0.3699999999999999
 20
0.330718913883074
 10
0.3649999999999999
 20
0.3363034344160049
 10
0.3599999999999999
 20
0.3417235724968357
 10
0.3549999999999999
 20
0.3469870314579496
 10
0.3535533905932738
 20
0.3535533905932738
 97
        0
 75
     0
 76
     1
 98
        0
  0
CIRCLE
  5
145
330
143
100
AcDbEntity
  8
0
 62
     0
370
    -2
100
AcDbCircle
 10
0.0
 20
0.0
 30
0.0
 40
0.5
  0
ENDBLK
  5
147
330
143
100
AcDbEntity
  8
0
100
AcDbBlockEnd
  0
BLOCK
  5
14C
330
148
100
AcDbEntity
  8
0
100
AcDbBlockBegin
  2
CDWK_PTTYP38
 70
     0
 10
0.0
 20
0.0
 30
0.0
  3
CDWK_PTTYP38
  1

  0
HATCH
  5
149
330
148
100
AcDbEntity
  8
0
 62
     0
370
    -2
100
AcDbHatch
 10
0.0
 20
0.0
 30
0.0
210
0.0
220
0.0
230
1.0
  2
SOLID
 70
     1
 71
     1
 91
        1
 92
        3
 72
     0
 73
     1
 93
      102
 10
0.0
 20
0.0
 10
0.0
 20
0.5
 10
0.005
 20
0.5
 10
0.01
 20
0.4999749993749688
 10
0.015
 20
0.4998999899979995
 10
0.02
 20
0.4997749493522059
 10
0.025
 20
0.4995998398718718
 10
0.03
 20
0.4993746088859545
 10
0.035
 20
0.4990991885387112
 10
0.04
 20
0.4987734956871706
 10
0.045
 20
0.4983974317750845
 10
0.05
 20
0.4979708826829135
 10
0.055
 20
0.49749371855331
 10
0.06
 20
0.4969657935914704
 10
0.065
 20
0.4963869458396343
 10
0.07
 20
0.4957569969249047
 10
0.075
 20
0.4950757517794626
 10
0.08
 20
0.4943429983321297
 10
0.085
 20
0.4935585071701227
 10
0.09
 20
0.4927220311697053
 10
0.095
 20
0.4918333050943175
 10
0.1
 20
0.4908920451586071
 10
0.105
 20
0.4898979485566356
 10
0.11
 20
0.4888506929523574
 10
0.115
 20
0.4877499359302879
 10
0.12
 20
0.4865953144040744
 10
0.125
 20
0.4853864439804639
 10
0.13
 20
0.4841229182759271
 10
0.135
 20
0.4828043081829325
 10
0.14
 20
0.4814301610825811
 10
0.145
 20
0.48
 10
0.15
 20
0.478513322698543
 10
0.1550000000000001
 20
0.4769696007084728
 10
0.1600000000000001
 20
0.4753682782853731
 10
0.1650000000000001
 20
0.4737087712930804
 10
0.1700000000000001
 20
0.4719904660054056
 10
0.1750000000000001
 20
0.4702127178203498
 10
0.1800000000000001
 20
0.4683748498798799
 10
0.1850000000000001
 20
0.466476151587624
 10
0.1900000000000001
 20
0.4645158770160606
 10
0.1950000000000001
 20
0.4624932431938871
 10
0.2000000000000001
 20
0.460407428263272
 10
0.2050000000000001
 20
0.4582575694955839
 10
0.2100000000000001
 20
0.4560427611529427
 10
0.2150000000000001
 20
0.4537620521815371
 10
0.2200000000000001
 20
0.4514144437210665
 10
0.2250000000000001
 20
0.4489988864128729
 10
0.2300000000000001
 20
0.4465142774872937
 10
0.2350000000000001
 20
0.4439594576084622
 10
0.2400000000000001
 20
0.4413332074521472
 10
0.2450000000000001
 20
0.4386342439892261
 10
0.2500000000000001
 20
0.4358612164439502
 10
0.2550000000000001
 20
0.4330127018922192
 10
0.2600000000000001
 20
0.4300872004605577
 10
0.2650000000000001
 20
0.4270831300812524
 10
0.2700000000000001
 20
0.423998820753077
 10
0.2750000000000001
 20
0.4208325082500162
 10
0.2800000000000001
 20
0.4175823272122516
 10
0.2850000000000001
 20
0.4142463035441595
 10
0.2900000000000001
 20
0.4108223460329293
 10
0.2950000000000002
 20
0.4073082370883259
 10
0.3000000000000002
 20
0.403701622488689
 10
0.3050000000000002
 20
0.3999999999999999
 10
0.3100000000000002
 20
0.3962007067131506
 10
0.3150000000000002
 20
0.3923009049186605
 10
0.3200000000000002
 20
0.3882975663070783
 10
0.3250000000000002
 20
0.3841874542459708
 10
0.3300000000000002
 20
0.3799671038392664
 10
0.3350000000000002
 20
0.3756327994198588
 10
0.3400000000000002
 20
0.3711805490593491
 10
0.3450000000000002
 20
0.366606055596467
 10
0.3500000000000002
 20
0.3619046835839512
 10
0.3550000000000002
 20
0.3570714214271423
 10
0.3600000000000002
 20
0.3521008378291649
 10
0.3650000000000002
 20
0.3469870314579492
 10
0.3700000000000002
 20
0.3417235724968353
 10
0.3750000000000002
 20
0.3363034344160045
 10
0.3800000000000002
 20
0.3307189138830736
 10
0.3850000000000002
 20
0.3249615361854382
 10
0.3900000000000002
 20
0.3190219428189851
 10
0.3950000000000002
 20
0.31288975694324
 10
0.4000000000000002
 20
0.3065534211193863
 10
0.4050000000000002
 20
0.2999999999999997
 10
0.4100000000000003
 20
0.2932149382279147
 10
0.4150000000000003
 20
0.2861817604250834
 10
0.4200000000000003
 20
0.2788816953476864
 10
0.4250000000000003
 20
0.2712931993250103
 10
0.4300000000000003
 20
0.263391343821318
 10
0.4350000000000003
 20
0.255147016443461
 10
0.4400000000000003
 20
0.2465258607124206
 10
0.4450000000000003
 20
0.2374868417407578
 10
0.4500000000000003
 20
0.2279802623035594
 10
0.4550000000000003
 20
0.2179449471770331
 10
0.4600000000000003
 20
0.2073041244162782
 10
0.4650000000000003
 20
0.1959591794226536
 10
0.4700000000000003
 20
0.1837797594948903
 10
0.4750000000000003
 20
0.170587221092319
 10
0.4800000000000003
 20
0.156124949959959
 10
0.4850000000000003
 20
0.1399999999999989
 10
0.4900000000000003
 20
0.1215524578114309
 10
0.4950000000000003
 20
0.0994987437106604
 10
0.5
 20
0.0
 97
        0
 75
     0
 76
     1
 98
        0
  0
HATCH
  5
14A
330
148
100
AcDbEntity
  8
0
 62
     0
370
    -2
100
AcDbHatch
 10
0.0
 20
0.0
 30
0.0
210
0.0
220
0.0
230
1.0
  2
SOLID
 70
     1
 71
     1
 91
        1
 92
        3
 72
     0
 73
     1
 93
      102
 10
0.0
 20
0.0
 10
-0.5
 20
0.0
 10
-0.495
 20
0.0
 10
-0.49
 20
-0.0705336798983295
 10
-0.485
 20
-0.0994987437106621
 10
-0.48
 20
-0.1215524578114322
 10
-0.475
 20
-0.14
 10
-0.47
 20
-0.15612494995996
 10
-0.465
 20
-0.1705872210923199
 10
-0.46
 20
-0.1837797594948911
 10
-0.455
 20
-0.1959591794226544
 10
-0.45
 20
-0.2073041244162789
 10
-0.445
 20
-0.2179449471770338
 10
-0.4399999999999999
 20
-0.2279802623035601
 10
-0.4349999999999999
 20
-0.2374868417407584
 10
-0.4299999999999999
 20
-0.2465258607124211
 10
-0.4249999999999999
 20
-0.2551470164434615
 10
-0.4199999999999999
 20
-0.2633913438213186
 10
-0.4149999999999999
 20
-0.2712931993250108
 10
-0.4099999999999999
 20
-0.2788816953476869
 10
-0.4049999999999999
 20
-0.2861817604250838
 10
-0.3999999999999999
 20
-0.2932149382279151
 10
-0.3949999999999999
 20
-0.3000000000000002
 10
-0.3899999999999999
 20
-0.3065534211193868
 10
-0.3849999999999999
 20
-0.3128897569432404
 10
-0.3799999999999999
 20
-0.3190219428189855
 10
-0.3749999999999999
 20
-0.3249615361854385
 10
-0.3699999999999999
 20
-0.330718913883074
 10
-0.3649999999999999
 20
-0.3363034344160049
 10
-0.3599999999999999
 20
-0.3417235724968357
 10
-0.3549999999999999
 20
-0.3469870314579496
 10
-0.3499999999999999
 20
-0.3521008378291652
 10
-0.3449999999999999
 20
-0.3570714214271427
 10
-0.3399999999999999
 20
-0.3619046835839516
 10
-0.3349999999999999
 20
-0.3666060555964674
 10
-0.3299999999999998
 20
-0.3711805490593494
 10
-0.3249999999999998
 20
-0.3756327994198591
 10
-0.3199999999999998
 20
-0.3799671038392667
 10
-0.3149999999999998
 20
-0.3841874542459711
 10
-0.3099999999999998
 20
-0.3882975663070786
 10
-0.3049999999999998
 20
-0.3923009049186608
 10
-0.2999999999999998
 20
-0.3962007067131507
 10
-0.2949999999999998
 20
-0.4000000000000001
 10
-0.2899999999999998
 20
-0.4037016224886891
 10
-0.2849999999999998
 20
-0.4073082370883261
 10
-0.2799999999999998
 20
-0.4108223460329296
 10
-0.2749999999999998
 20
-0.4142463035441597
 10
-0.2699999999999998
 20
-0.4175823272122518
 10
-0.2649999999999998
 20
-0.4208325082500164
 10
-0.2599999999999998
 20
-0.4239988207530773
 10
-0.2549999999999998
 20
-0.4270831300812526
 10
-0.2499999999999998
 20
-0.4300872004605579
 10
-0.2449999999999998
 20
-0.4330127018922195
 10
-0.2399999999999998
 20
-0.4358612164439503
 10
-0.2349999999999998
 20
-0.4386342439892263
 10
-0.2299999999999998
 20
-0.4413332074521473
 10
-0.2249999999999998
 20
-0.4439594576084624
 10
-0.2199999999999998
 20
-0.4465142774872939
 10
-0.2149999999999997
 20
-0.4489988864128731
 10
-0.2099999999999997
 20
-0.4514144437210667
 10
-0.2049999999999997
 20
-0.4537620521815372
 10
-0.1999999999999997
 20
-0.4560427611529429
 10
-0.1949999999999997
 20
-0.4582575694955841
 10
-0.1899999999999997
 20
-0.4604074282632722
 10
-0.1849999999999997
 20
-0.4624932431938872
 10
-0.1799999999999997
 20
-0.4645158770160608
 10
-0.1749999999999997
 20
-0.4664761515876241
 10
-0.1699999999999997
 20
-0.46837484987988
 10
-0.1649999999999997
 20
-0.47021271782035
 10
-0.1599999999999997
 20
-0.4719904660054058
 10
-0.1549999999999997
 20
-0.4737087712930805
 10
-0.1499999999999997
 20
-0.4753682782853733
 10
-0.1449999999999997
 20
-0.4769696007084729
 10
-0.1399999999999997
 20
-0.4785133226985431
 10
-0.1349999999999997
 20
-0.4800000000000001
 10
-0.1299999999999997
 20
-0.4814301610825812
 10
-0.1249999999999997
 20
-0.4828043081829325
 10
-0.1199999999999997
 20
-0.4841229182759272
 10
-0.1149999999999997
 20
-0.485386443980464
 10
-0.1099999999999997
 20
-0.4865953144040744
 10
-0.1049999999999996
 20
-0.487749935930288
 10
-0.0999999999999996
 20
-0.4888506929523574
 10
-0.0949999999999996
 20
-0.4898979485566357
 10
-0.0899999999999996
 20
-0.4908920451586072
 10
-0.0849999999999996
 20
-0.4918333050943176
 10
-0.0799999999999996
 20
-0.4927220311697053
 10
-0.0749999999999996
 20
-0.4935585071701227
 10
-0.0699999999999996
 20
-0.4943429983321298
 10
-0.0649999999999996
 20
-0.4950757517794626
 10
-0.0599999999999996
 20
-0.4957569969249048
 10
-0.0549999999999996
 20
-0.4963869458396343
 10
-0.0499999999999996
 20
-0.4969657935914705
 10
-0.0449999999999996
 20
-0.49749371855331
 10
-0.0399999999999996
 20
-0.4979708826829135
 10
-0.0349999999999996
 20
-0.4983974317750846
 10
-0.0299999999999996
 20
-0.4987734956871706
 10
-0.0249999999999996
 20
-0.4990991885387112
 10
-0.0199999999999996
 20
-0.4993746088859545
 10
-0.0149999999999996
 20
-0.4995998398718719
 10
-0.0099999999999996
 20
-0.499774949352206
 10
-0.0049999999999996
 20
-0.4998999899979995
 10
0.0
 20
-0.5
 97
        0
 75
     0
 76
     1
 98
        0
  0
CIRCLE
  5
14B
330
148
100
AcDbEntity
  8
0
 62
     0
370
    -2
100
AcDbCircle
 10
0.0
 20
0.0
 30
0.0
 40
0.5
  0
ENDBLK
  5
14D
330
148
100
AcDbEntity
  8
0
100
AcDbBlockEnd
  0
BLOCK
  5
156
330
14E
100
AcDbEntity
  8
0
100
AcDbBlockBegin
  2
CDWK_PTTYP41
 70
     0
 10
0.0
 20
0.0
 30
0.0
  3
CDWK_PTTYP41
  1

  0
LINE
  5
14F
330
14E
100
AcDbEntity
  8
0
 62
     0
370
    -2
100
AcDbLine
 10
-0.5
 20
0.5
 30
0.0
 11
0.5
 21
0.5
 31
0.0
  0
LINE
  5
150
330
14E
100
AcDbEntity
  8
0
 62
     0
370
    -2
100
AcDbLine
 10
0.5
 20
0.5
 30
0.0
 11
0.5
 21
-0.5
 31
0.0
  0
LINE
  5
151
330
14E
100
AcDbEntity
  8
0
 62
     0
370
    -2
100
AcDbLine
 10
0.5
 20
-0.5
 30
0.0
 11
-0.5
 21
-0.5
 31
0.0
  0
LINE
  5
152
330
14E
100
AcDbEntity
  8
0
 62
     0
370
    -2
100
AcDbLine
 10
-0.5
 20
-0.5
 30
0.0
 11
-0.5
 21
0.5
 31
0.0
  0
LINE
  5
153
330
14E
100
AcDbEntity
  8
0
 62
     0
370
    -2
100
AcDbLine
 10
-0.375
 20
0.25
 30
0.0
 11
0.375
 21
0.25
 31
0.0
  0
LINE
  5
154
330
14E
100
AcDbEntity
  8
0
 62
     0
370
    -2
100
AcDbLine
 10
-0.375
 20
0.0
 30
0.0
 11
0.375
 21
0.0
 31
0.0
  0
LINE
  5
155
330
14E
100
AcDbEntity
  8
0
 62
     0
370
    -2
100
AcDbLine
 10
-0.375
 20
-0.25
 30
0.0
 11
0.375
 21
-0.25
 31
0.0
  0
ENDBLK
  5
157
330
14E
100
AcDbEntity
  8
0
100
AcDbBlockEnd
  0
BLOCK
  5
15F
330
158
100
AcDbEntity
  8
0
100
AcDbBlockBegin
  2
CDWK_PTTYP42
 70
     0
 10
0.0
 20
0.0
 30
0.0
  3
CDWK_PTTYP42
  1

  0
LINE
  5
159
330
158
100
AcDbEntity
  8
0
 62
     0
370
    -2
100
AcDbLine
 10
-0.5
 20
0.5
 30
0.0
 11
0.5
 21
0.5
 31
0.0
  0
LINE
  5
15A
330
158
100
AcDbEntity
  8
0
 62
     0
370
    -2
100
AcDbLine
 10
0.5
 20
0.5
 30
0.0
 11
0.5
 21
-0.5
 31
0.0
  0
LINE
  5
15B
330
158
100
AcDbEntity
  8
0
 62
     0
370
    -2
100
AcDbLine
 10
0.5
 20
-0.5
 30
0.0
 11
-0.5
 21
-0.5
 31
0.0
  0
LINE
  5
15C
330
158
100
AcDbEntity
  8
0
 62
     0
370
    -2
100
AcDbLine
 10
-0.5
 20
-0.5
 30
0.0
 11
-0.5
 21
0.5
 31
0.0
  0
LINE
  5
15D
330
158
100
AcDbEntity
  8
0
 62
     0
370
    -2
100
AcDbLine
 10
-0.375
 20
0.125
 30
0.0
 11
0.375
 21
0.125
 31
0.0
  0
LINE
  5
15E
330
158
100
AcDbEntity
  8
0
 62
     0
370
    -2
100
AcDbLine
 10
-0.375
 20
-0.125
 30
0.0
 11
0.375
 21
-0.125
 31
0.0
  0
ENDBLK
  5
160
330
158
100
AcDbEntity
  8
0
100
AcDbBlockEnd
  0
BLOCK
  5
165
330
161
100
AcDbEntity
  8
0
100
AcDbBlockBegin
  2
CDWK_PTTYP43
 70
     0
 10
0.0
 20
0.0
 30
0.0
  3
CDWK_PTTYP43
  1

  0
CIRCLE
  5
162
330
161
100
AcDbEntity
  8
0
 62
     0
370
    -2
100
AcDbCircle
 10
0.0
 20
0.0
 30
0.0
 40
0.5
  0
LINE
  5
163
330
161
100
AcDbEntity
  8
0
 62
     0
370
    -2
100
AcDbLine
 10
-0.375
 20
0.166
 30
0.0
 11
0.375
 21
0.166
 31
0.0
  0
LINE
  5
164
330
161
100
AcDbEntity
  8
0
 62
     0
370
    -2
100
AcDbLine
 10
-0.375
 20
-0.166
 30
0.0
 11
0.375
 21
-0.166
 31
0.0
  0
ENDBLK
  5
166
330
161
100
AcDbEntity
  8
0
100
AcDbBlockEnd
  0
BLOCK
  5
16E
330
167
100
AcDbEntity
  8
0
100
AcDbBlockBegin
  2
CDWK_PTTYP44
 70
     0
 10
0.0
 20
0.0
 30
0.0
  3
CDWK_PTTYP44
  1

  0
CIRCLE
  5
168
330
167
100
AcDbEntity
  8
0
 62
     0
370
    -2
100
AcDbCircle
 10
0.0
 20
0.0
 30
0.0
 40
0.5
  0
LINE
  5
169
330
167
100
AcDbEntity
  8
0
 62
     0
370
    -2
100
AcDbLine
 10
-0.375
 20
0.333
 30
0.0
 11
0.375
 21
0.333
 31
0.0
  0
LINE
  5
16A
330
167
100
AcDbEntity
  8
0
 62
     0
370
    -2
100
AcDbLine
 10
-0.375
 20
0.166
 30
0.0
 11
0.375
 21
0.166
 31
0.0
  0
LINE
  5
16B
330
167
100
AcDbEntity
  8
0
 62
     0
370
    -2
100
AcDbLine
 10
-0.375
 20
0.0
 30
0.0
 11
0.375
 21
0.0
 31
0.0
  0
LINE
  5
16C
330
167
100
AcDbEntity
  8
0
 62
     0
370
    -2
100
AcDbLine
 10
-0.375
 20
-0.166
 30
0.0
 11
0.375
 21
-0.166
 31
0.0
  0
LINE
  5
16D
330
167
100
AcDbEntity
  8
0
 62
     0
370
    -2
100
AcDbLine
 10
-0.375
 20
-0.333
 30
0.0
 11
0.375
 21
-0.333
 31
0.0
  0
ENDBLK
  5
16F
330
167
100
AcDbEntity
  8
0
100
AcDbBlockEnd
  0
BLOCK
  5
173
330
170
100
AcDbEntity
  8
0
100
AcDbBlockBegin
  2
CDWK_PTTYP45
 70
     0
 10
0.0
 20
0.0
 30
0.0
  3
CDWK_PTTYP45
  1

  0
ELLIPSE
  5
171
330
170
100
AcDbEntity
  8
0
 62
     0
370
    -2
100
AcDbEllipse
 10
0.0
 20
0.0
 30
0.0
 11
0.5
 21
0.0
 31
0.0
210
0.0
220
0.0
230
1.0
 40
0.82
 41
0.0
 42
6.283185307179586
  0
CIRCLE
  5
172
330
170
100
AcDbEntity
  8
0
 62
     0
370
    -2
100
AcDbCircle
 10
-0.235
 20
0.0
 30
0.0
 40
0.26
  0
ENDBLK
  5
174
330
170
100
AcDbEntity
  8
0
100
AcDbBlockEnd
  0
BLOCK
  5
178
330
175
100
AcDbEntity
  8
0
100
AcDbBlockBegin
  2
CDWK_PTTYP46
 70
     0
 10
0.0
 20
0.0
 30
0.0
  3
CDWK_PTTYP46
  1

  0
ELLIPSE
  5
176
330
175
100
AcDbEntity
  8
0
 62
     0
370
    -2
100
AcDbEllipse
 10
0.0
 20
0.0
 30
0.0
 11
0.5
 21
0.0
 31
0.0
210
0.0
220
0.0
230
1.0
 40
0.82
 41
0.0
 42
6.283185307179586
  0
CIRCLE
  5
177
330
175
100
AcDbEntity
  8
0
 62
     0
370
    -2
100
AcDbCircle
 10
0.0
 20
0.15
 30
0.0
 40
0.26
  0
ENDBLK
  5
179
330
175
100
AcDbEntity
  8
0
100
AcDbBlockEnd
  0
BLOCK
  5
180
330
17A
100
AcDbEntity
  8
0
100
AcDbBlockBegin
  2
CDWK_PTTYP47
 70
     0
 10
0.0
 20
0.0
 30
0.0
  3
CDWK_PTTYP47
  1

  0
LINE
  5
17B
330
17A
100
AcDbEntity
  8
0
 62
     0
370
    -2
100
AcDbLine
 10
-0.5
 20
0.166
 30
0.0
 11
0.5
 21
0.166
 31
0.0
  0
LINE
  5
17C
330
17A
100
AcDbEntity
  8
0
 62
     0
370
    -2
100
AcDbLine
 10
0.5
 20
0.166
 30
0.0
 11
0.5
 21
-0.166
 31
0.0
  0
LINE
  5
17D
330
17A
100
AcDbEntity
  8
0
 62
     0
370
    -2
100
AcDbLine
 10
0.5
 20
-0.166
 30
0.0
 11
-0.5
 21
-0.166
 31
0.0
  0
LINE
  5
17E
330
17A
100
AcDbEntity
  8
0
 62
     0
370
    -2
100
AcDbLine
 10
-0.5
 20
-0.166
 30
0.0
 11
-0.5
 21
0.166
 31
0.0
  0
CIRCLE
  5
17F
330
17A
100
AcDbEntity
  8
0
 62
     0
370
    -2
100
AcDbCircle
 10
0.0
 20
-0.313
 30
0.0
 40
0.4
  0
ENDBLK
  5
181
330
17A
100
AcDbEntity
  8
0
100
AcDbBlockEnd
  0
BLOCK
  5
186
330
183
100
AcDbEntity
  8
0
100
AcDbBlockBegin
  2
CDWK_PTTYP48
 70
     0
 10
0.0
 20
0.0
 30
0.0
  3
CDWK_PTTYP48
  1

  0
CIRCLE
  5
184
330
183
100
AcDbEntity
  8
0
  6
CADWORK_3
 62
     0
 48
0.1
370
    -2
100
AcDbCircle
 10
0.0
 20
0.0
 30
0.0
 40
0.5
  0
CIRCLE
  5
185
330
183
100
AcDbEntity
  8
0
 62
     0
370
    -2
100
AcDbCircle
 10
0.0
 20
0.0
 30
0.0
 40
0.25
  0
ENDBLK
  5
187
330
183
100
AcDbEntity
  8
0
100
AcDbBlockEnd
  0
BLOCK
  5
18D
330
188
100
AcDbEntity
  8
0
100
AcDbBlockBegin
  2
CDWK_PTTYP49
 70
     0
 10
0.0
 20
0.0
 30
0.0
  3
CDWK_PTTYP49
  1

  0
LINE
  5
189
330
188
100
AcDbEntity
  8
0
 62
     0
370
    -2
100
AcDbLine
 10
-0.5
 20
0.166
 30
0.0
 11
0.5
 21
0.166
 31
0.0
  0
LINE
  5
18A
330
188
100
AcDbEntity
  8
0
 62
     0
370
    -2
100
AcDbLine
 10
0.5
 20
0.166
 30
0.0
 11
0.5
 21
-0.166
 31
0.0
  0
LINE
  5
18B
330
188
100
AcDbEntity
  8
0
 62
     0
370
    -2
100
AcDbLine
 10
0.5
 20
-0.166
 30
0.0
 11
-0.5
 21
-0.166
 31
0.0
  0
LINE
  5
18C
330
188
100
AcDbEntity
  8
0
 62
     0
370
    -2
100
AcDbLine
 10
-0.5
 20
-0.166
 30
0.0
 11
-0.5
 21
0.166
 31
0.0
  0
ENDBLK
  5
18E
330
188
100
AcDbEntity
  8
0
100
AcDbBlockEnd
  0
BLOCK
  5
197
330
18F
100
AcDbEntity
  8
0
100
AcDbBlockBegin
  2
CDWK_PTTYP50
 70
     0
 10
0.0
 20
0.0
 30
0.0
  3
CDWK_PTTYP50
  1

  0
LINE
  5
190
330
18F
100
AcDbEntity
  8
0
 62
     0
370
    -2
100
AcDbLine
 10
-0.5
 20
0.166
 30
0.0
 11
0.5
 21
0.166
 31
0.0
  0
LINE
  5
191
330
18F
100
AcDbEntity
  8
0
 62
     0
370
    -2
100
AcDbLine
 10
0.5
 20
0.166
 30
0.0
 11
0.5
 21
-0.166
 31
0.0
  0
LINE
  5
192
330
18F
100
AcDbEntity
  8
0
 62
     0
370
    -2
100
AcDbLine
 10
0.5
 20
-0.166
 30
0.0
 11
-0.5
 21
-0.166
 31
0.0
  0
LINE
  5
193
330
18F
100
AcDbEntity
  8
0
 62
     0
370
    -2
100
AcDbLine
 10
-0.5
 20
-0.166
 30
0.0
 11
-0.5
 21
0.166
 31
0.0
  0
LINE
  5
194
330
18F
100
AcDbEntity
  8
0
 62
     0
370
    -2
100
AcDbLine
 10
-0.25
 20
-0.166
 30
0.0
 11
-0.25
 21
0.166
 31
0.0
  0
LINE
  5
195
330
18F
100
AcDbEntity
  8
0
 62
     0
370
    -2
100
AcDbLine
 10
0.0
 20
-0.166
 30
0.0
 11
0.0
 21
0.166
 31
0.0
  0
LINE
  5
196
330
18F
100
AcDbEntity
  8
0
 62
     0
370
    -2
100
AcDbLine
 10
0.25
 20
-0.166
 30
0.0
 11
0.25
 21
0.166
 31
0.0
  0
ENDBLK
  5
198
330
18F
100
AcDbEntity
  8
0
100
AcDbBlockEnd
  0
BLOCK
  5
19C
330
199
100
AcDbEntity
  8
0
100
AcDbBlockBegin
  2
CDWK_PTTYP51
 70
     0
 10
0.0
 20
0.0
 30
0.0
  3
CDWK_PTTYP51
  1

  0
SPLINE
  5
19A
330
199
100
AcDbEntity
  8
0
 62
     0
370
    -2
100
AcDbSpline
210
0.0
220
0.0
230
1.0
 70
  1064
 71
     3
 72
    12
 73
     8
 74
     6
 42
0.000000001
 43
0.0000000001
 44
0.0000000001
 40
0.0
 40
0.0
 40
0.0
 40
0.0
 40
0.1690118339052032
 40
0.5175774661755118
 40
0.8011704844252565
 40
0.9154070810132151
 40
0.975822310881188
 40
0.975822310881188
 40
0.975822310881188
 40
0.975822310881188
 10
-0.5
 20
-0.077
 30
0.0
 10
-0.443824324006723
 20
-0.0900581618560981
 30
0.0
 10
-0.2717933876546281
 20
-0.1300471387828842
 30
0.0
 10
-0.0276699186086479
 20
-0.0006977790990417
 30
0.0
 10
0.2303349729129116
 20
0.0817803270207037
 30
0.0
 10
0.3686157174766292
 20
0.0066250198607167
 30
0.0
 10
0.4216533294581816
 20
-0.0168719667726145
 30
0.0
 10
0.44
 20
-0.025
 30
0.0
 11
-0.5
 21
-0.077
 31
0.0
 11
-0.333
 21
-0.103
 31
0.0
 11
0.0
 21
0.0
 31
0.0
 11
0.28
 21
0.045
 31
0.0
 11
0.385
 21
0.0
 31
0.0
 11
0.44
 21
-0.025
 31
0.0
  0
HATCH
  5
19B
330
199
100
AcDbEntity
  8
0
 62
     0
370
    -2
100
AcDbHatch
 10
0.0
 20
0.0
 30
0.0
210
0.0
220
0.0
230
1.0
  2
SOLID
 70
     1
 71
     1
 91
        1
 92
        3
 72
     0
 73
     1
 93
        3
 10
0.365
 20
-0.05
 10
0.5
 20
-0.042
 10
0.395
 20
0.045
 97
        0
 75
     0
 76
     1
 98
        0
  0
ENDBLK
  5
19D
330
199
100
AcDbEntity
  8
0
100
AcDbBlockEnd
  0
BLOCK
  5
1A2
330
19E
100
AcDbEntity
  8
0
100
AcDbBlockBegin
  2
CDWK_PTTYP52
 70
     0
 10
0.0
 20
0.0
 30
0.0
  3
CDWK_PTTYP52
  1

  0
LINE
  5
19F
330
19E
100
AcDbEntity
  8
0
 62
     0
370
    -2
100
AcDbLine
 10
-0.5
 20
-0.289
 30
0.0
 11
0.5
 21
-0.289
 31
0.0
  0
LINE
  5
1A0
330
19E
100
AcDbEntity
  8
0
 62
     0
370
    -2
100
AcDbLine
 10
0.5
 20
-0.289
 30
0.0
 11
0.0
 21
0.577
 31
0.0
  0
LINE
  5
1A1
330
19E
100
AcDbEntity
  8
0
 62
     0
370
    -2
100
AcDbLine
 10
0.0
 20
0.577
 30
0.0
 11
-0.5
 21
-0.289
 31
0.0
  0
ENDBLK
  5
1A3
330
19E
100
AcDbEntity
  8
0
100
AcDbBlockEnd
  0
BLOCK
  5
1A9
330
1A4
100
AcDbEntity
  8
0
100
AcDbBlockBegin
  2
cw-dimension-symbol1
 70
     0
 10
0.0
 20
0.0
 30
0.0
  3
cw-dimension-symbol1
  1

  0
LINE
  5
1A5
330
1A4
100
AcDbEntity
  8
0
 62
     0
370
    -2
100
AcDbLine
 10
0.0
 20
0.0
 30
0.0
 11
-1.0
 21
0.25
 31
0.0
  0
LINE
  5
1A6
330
1A4
100
AcDbEntity
  8
0
 62
     0
370
    -2
100
AcDbLine
 10
0.0
 20
0.0
 30
0.0
 11
-1.0
 21
-0.25
 31
0.0
  0
LINE
  5
1A7
330
1A4
100
AcDbEntity
  8
0
 62
     0
370
    -2
100
AcDbLine
 10
-1.0
 20
0.25
 30
0.0
 11
-1.0
 21
-0.25
 31
0.0
  0
LINE
  5
1A8
330
1A4
100
AcDbEntity
  8
0
 62
     0
370
    -2
100
AcDbLine
 10
0.0
 20
0.0
 30
0.0
 11
-1.0
 21
0.0
 31
0.0
  0
ENDBLK
  5
1AA
330
1A4
100
AcDbEntity
  8
0
100
AcDbBlockEnd
  0
BLOCK
  5
1AE
330
1AB
100
AcDbEntity
  8
0
100
AcDbBlockBegin
  2
cw-dimension-symbol2
 70
     0
 10
0.0
 20
0.0
 30
0.0
  3
cw-dimension-symbol2
  1

  0
LINE
  5
1AC
330
1AB
100
AcDbEntity
  8
0
 62
     0
370
    -2
100
AcDbLine
 10
-1.0
 20
0.0
 30
0.0
 11
1.0
 21
0.0
 31
0.0
  0
LINE
  5
1AD
330
1AB
100
AcDbEntity
  8
0
 62
     0
370
    -2
100
AcDbLine
 10
-0.5
 20
-0.5
 30
0.0
 11
0.5
 21
0.5
 31
0.0
  0
ENDBLK
  5
1AF
330
1AB
100
AcDbEntity
  8
0
100
AcDbBlockEnd
  0
BLOCK
  5
1B3
330
1B0
100
AcDbEntity
  8
0
100
AcDbBlockBegin
  2
cw-dimension-symbol3
 70
     0
 10
0.0
 20
0.0
 30
0.0
  3
cw-dimension-symbol3
  1

  0
LINE
  5
1B1
330
1B0
100
AcDbEntity
  8
0
 62
     0
370
    -2
100
AcDbLine
 10
-1.0
 20
0.0
 30
0.0
 11
1.0
 21
0.0
 31
0.0
  0
CIRCLE
  5
1B2
330
1B0
100
AcDbEntity
  8
0
 62
     0
370
    -2
100
AcDbCircle
 10
0.0
 20
0.0
 30
0.0
 40
0.25
  0
ENDBLK
  5
1B4
330
1B0
100
AcDbEntity
  8
0
100
AcDbBlockEnd
  0
BLOCK
  5
1BA
330
1B5
100
AcDbEntity
  8
0
100
AcDbBlockBegin
  2
cw-dimension-symbol5
 70
     0
 10
0.0
 20
0.0
 30
0.0
  3
cw-dimension-symbol5
  1

  0
HATCH
  5
1B6
330
1B5
100
AcDbEntity
  8
0
 62
     0
370
    -2
100
AcDbHatch
 10
0.0
 20
0.0
 30
0.0
210
0.0
220
0.0
230
1.0
  2
SOLID
 70
     1
 71
     1
 91
        1
 92
        3
 72
     0
 73
     1
 93
        3
 10
0.0
 20
0.0
 10
-1.0
 20
0.25
 10
-1.0
 20
-0.25
 97
        0
 75
     0
 76
     1
 98
        0
  0
LINE
  5
1B7
330
1B5
100
AcDbEntity
  8
0
 62
     0
370
    -2
100
AcDbLine
 10
0.0
 20
0.0
 30
0.0
 11
-1.0
 21
0.25
 31
0.0
  0
LINE
  5
1B8
330
1B5
100
AcDbEntity
  8
0
 62
     0
370
    -2
100
AcDbLine
 10
-1.0
 20
0.25
 30
0.0
 11
-1.0
 21
-0.25
 31
0.0
  0
LINE
  5
1B9
330
1B5
100
AcDbEntity
  8
0
 62
     0
370
    -2
100
AcDbLine
 10
-1.0
 20
-0.25
 30
0.0
 11
0.0
 21
0.0
 31
0.0
  0
ENDBLK
  5
1BB
330
1B5
100
AcDbEntity
  8
0
100
AcDbBlockEnd
  0
BLOCK
  5
1C0
330
1BC
100
AcDbEntity
  8
0
100
AcDbBlockBegin
  2
cw-dimension-symbol6
 70
     0
 10
0.0
 20
0.0
 30
0.0
  3
cw-dimension-symbol6
  1

  0
LINE
  5
1BD
330
1BC
100
AcDbEntity
  8
0
 62
     0
370
    -2
100
AcDbLine
 10
0.0
 20
0.0
 30
0.0
 11
-1.0
 21
0.25
 31
0.0
  0
LINE
  5
1BE
330
1BC
100
AcDbEntity
  8
0
 62
     0
370
    -2
100
AcDbLine
 10
0.0
 20
0.0
 30
0.0
 11
-1.0
 21
-0.25
 31
0.0
  0
LINE
  5
1BF
330
1BC
100
AcDbEntity
  8
0
 62
     0
370
    -2
100
AcDbLine
 10
0.0
 20
0.0
 30
0.0
 11
-1.0
 21
0.0
 31
0.0
  0
ENDBLK
  5
1C1
330
1BC
100
AcDbEntity
  8
0
100
AcDbBlockEnd
  0
BLOCK
  5
1C6
330
1C2
100
AcDbEntity
  8
0
100
AcDbBlockBegin
  2
cw-dimension-symbol11
 70
     0
 10
0.0
 20
0.0
 30
0.0
  3
cw-dimension-symbol11
  1

  0
LINE
  5
1C3
330
1C2
100
AcDbEntity
  8
0
 62
     0
370
    -2
100
AcDbLine
 10
-1.0
 20
1.0
 30
0.0
 11
1.0
 21
1.0
 31
0.0
  0
LINE
  5
1C4
330
1C2
100
AcDbEntity
  8
0
 62
     0
370
    -2
100
AcDbLine
 10
0.0
 20
0.0
 30
0.0
 11
-1.0
 21
1.0
 31
0.0
  0
LINE
  5
1C5
330
1C2
100
AcDbEntity
  8
0
 62
     0
370
    -2
100
AcDbLine
 10
0.0
 20
0.0
 30
0.0
 11
1.0
 21
1.0
 31
0.0
  0
ENDBLK
  5
1C7
330
1C2
100
AcDbEntity
  8
0
100
AcDbBlockEnd
  0
BLOCK
  5
1CC
330
1C8
100
AcDbEntity
  8
0
100
AcDbBlockBegin
  2
cw-dimension-symbol13
 70
     0
 10
0.0
 20
0.0
 30
0.0
  3
cw-dimension-symbol13
  1

  0
LINE
  5
1C9
330
1C8
100
AcDbEntity
  8
0
 62
     0
370
    -2
100
AcDbLine
 10
-1.0
 20
-1.0
 30
0.0
 11
1.0
 21
-1.0
 31
0.0
  0
LINE
  5
1CA
330
1C8
100
AcDbEntity
  8
0
 62
     0
370
    -2
100
AcDbLine
 10
0.0
 20
0.0
 30
0.0
 11
-1.0
 21
-1.0
 31
0.0
  0
LINE
  5
1CB
330
1C8
100
AcDbEntity
  8
0
 62
     0
370
    -2
100
AcDbLine
 10
0.0
 20
0.0
 30
0.0
 11
1.0
 21
-1.0
 31
0.0
  0
ENDBLK
  5
1CD
330
1C8
100
AcDbEntity
  8
0
100
AcDbBlockEnd
  0
BLOCK
  5
1D3
330
1CE
100
AcDbEntity
  8
0
100
AcDbBlockBegin
  2
cw-dimension-symbol15
 70
     0
 10
0.0
 20
0.0
 30
0.0
  3
cw-dimension-symbol15
  1

  0
HATCH
  5
1CF
330
1CE
100
AcDbEntity
  8
0
 62
     0
370
    -2
100
AcDbHatch
 10
0.0
 20
0.0
 30
0.0
210
0.0
220
0.0
230
1.0
  2
SOLID
 70
     1
 71
     1
 91
        1
 92
        3
 72
     0
 73
     1
 93
        3
 10
0.0
 20
0.0
 10
-1.0
 20
1.0
 10
1.0
 20
1.0
 97
        0
 75
     0
 76
     1
 98
        0
  0
LINE
  5
1D0
330
1CE
100
AcDbEntity
  8
0
 62
     0
370
    -2
100
AcDbLine
 10
0.0
 20
0.0
 30
0.0
 11
-1.0
 21
1.0
 31
0.0
  0
LINE
  5
1D1
330
1CE
100
AcDbEntity
  8
0
 62
     0
370
    -2
100
AcDbLine
 10
-1.0
 20
1.0
 30
0.0
 11
1.0
 21
1.0
 31
0.0
  0
LINE
  5
1D2
330
1CE
100
AcDbEntity
  8
0
 62
     0
370
    -2
100
AcDbLine
 10
1.0
 20
1.0
 30
0.0
 11
0.0
 21
0.0
 31
0.0
  0
ENDBLK
  5
1D4
330
1CE
100
AcDbEntity
  8
0
100
AcDbBlockEnd
  0
BLOCK
  5
1DA
330
1D5
100
AcDbEntity
  8
0
100
AcDbBlockBegin
  2
cw-dimension-symbol16
 70
     0
 10
0.0
 20
0.0
 30
0.0
  3
cw-dimension-symbol16
  1

  0
HATCH
  5
1D6
330
1D5
100
AcDbEntity
  8
0
 62
     0
370
    -2
100
AcDbHatch
 10
0.0
 20
0.0
 30
0.0
210
0.0
220
0.0
230
1.0
  2
SOLID
 70
     1
 71
     1
 91
        1
 92
        3
 72
     0
 73
     1
 93
        3
 10
0.0
 20
0.0
 10
-1.0
 20
-1.0
 10
1.0
 20
-1.0
 97
        0
 75
     0
 76
     1
 98
        0
  0
LINE
  5
1D7
330
1D5
100
AcDbEntity
  8
0
 62
     0
370
    -2
100
AcDbLine
 10
0.0
 20
0.0
 30
0.0
 11
-1.0
 21
-1.0
 31
0.0
  0
LINE
  5
1D8
330
1D5
100
AcDbEntity
  8
0
 62
     0
370
    -2
100
AcDbLine
 10
-1.0
 20
-1.0
 30
0.0
 11
1.0
 21
-1.0
 31
0.0
  0
LINE
  5
1D9
330
1D5
100
AcDbEntity
  8
0
 62
     0
370
    -2
100
AcDbLine
 10
1.0
 20
-1.0
 30
0.0
 11
0.0
 21
0.0
 31
0.0
  0
ENDBLK
  5
1DB
330
1D5
100
AcDbEntity
  8
0
100
AcDbBlockEnd
  0
BLOCK
  5
1E1
330
1DC
100
AcDbEntity
  8
0
100
AcDbBlockBegin
  2
cw-dimension-symbol17
 70
     0
 10
0.0
 20
0.0
 30
0.0
  3
cw-dimension-symbol17
  1

  0
LINE
  5
1DD
330
1DC
100
AcDbEntity
  8
0
 62
     0
370
    -2
100
AcDbLine
 10
0.0
 20
0.0
 30
0.0
 11
1.0
 21
1.0
 31
0.0
  0
LINE
  5
1DE
330
1DC
100
AcDbEntity
  8
0
 62
     0
370
    -2
100
AcDbLine
 10
1.0
 20
1.0
 30
0.0
 11
-1.0
 21
1.0
 31
0.0
  0
LINE
  5
1DF
330
1DC
100
AcDbEntity
  8
0
 62
     0
370
    -2
100
AcDbLine
 10
-1.0
 20
1.0
 30
0.0
 11
0.0
 21
0.0
 31
0.0
  0
HATCH
  5
1E0
330
1DC
100
AcDbEntity
  8
0
 62
     0
370
    -2
100
AcDbHatch
 10
0.0
 20
0.0
 30
0.0
210
0.0
220
0.0
230
1.0
  2
SOLID
 70
     1
 71
     1
 91
        1
 92
        3
 72
     0
 73
     1
 93
        3
 10
0.0
 20
0.0
 10
-1.0
 20
1.0
 10
0.0
 20
1.0
 97
        0
 75
     0
 76
     1
 98
        0
  0
ENDBLK
  5
1E2
330
1DC
100
AcDbEntity
  8
0
100
AcDbBlockEnd
  0
BLOCK
  5
1E8
330
1E3
100
AcDbEntity
  8
0
100
AcDbBlockBegin
  2
cw-dimension-symbol18
 70
     0
 10
0.0
 20
0.0
 30
0.0
  3
cw-dimension-symbol18
  1

  0
LINE
  5
1E4
330
1E3
100
AcDbEntity
  8
0
 62
     0
370
    -2
100
AcDbLine
 10
0.0
 20
0.0
 30
0.0
 11
1.0
 21
-1.0
 31
0.0
  0
LINE
  5
1E5
330
1E3
100
AcDbEntity
  8
0
 62
     0
370
    -2
100
AcDbLine
 10
1.0
 20
-1.0
 30
0.0
 11
-1.0
 21
-1.0
 31
0.0
  0
LINE
  5
1E6
330
1E3
100
AcDbEntity
  8
0
 62
     0
370
    -2
100
AcDbLine
 10
-1.0
 20
-1.0
 30
0.0
 11
0.0
 21
0.0
 31
0.0
  0
HATCH
  5
1E7
330
1E3
100
AcDbEntity
  8
0
 62
     0
370
    -2
100
AcDbHatch
 10
0.0
 20
0.0
 30
0.0
210
0.0
220
0.0
230
1.0
  2
SOLID
 70
     1
 71
     1
 91
        1
 92
        3
 72
     0
 73
     1
 93
        3
 10
0.0
 20
0.0
 10
-1.0
 20
-1.0
 10
0.0
 20
-1.0
 97
        0
 75
     0
 76
     1
 98
        0
  0
ENDBLK
  5
1E9
330
1E3
100
AcDbEntity
  8
0
100
AcDbBlockEnd
  0
BLOCK
  5
1EB
330
1EA
100
AcDbEntity
  8
0
100
AcDbBlockBegin
  2
cw-dimension-symbol19
 70
     0
 10
0.0
 20
0.0
 30
0.0
  3
cw-dimension-symbol19
  1

  0
ENDBLK
  5
1EC
330
1EA
100
AcDbEntity
  8
0
100
AcDbBlockEnd
  0
BLOCK
  5
1F2
330
1ED
100
AcDbEntity
  8
0
100
AcDbBlockBegin
  2
cw-dimension-symbol20
 70
     0
 10
0.0
 20
0.0
 30
0.0
  3
cw-dimension-symbol20
  1

  0
LINE
  5
1EE
330
1ED
100
AcDbEntity
  8
0
 62
     0
370
    -2
100
AcDbLine
 10
0.0
 20
0.0
 30
0.0
 11
0.0
 21
2.0
 31
0.0
  0
LINE
  5
1EF
330
1ED
100
AcDbEntity
  8
0
 62
     0
370
    -2
100
AcDbLine
 10
0.0
 20
0.0
 30
0.0
 11
-1.0
 21
0.33
 31
0.0
  0
LINE
  5
1F0
330
1ED
100
AcDbEntity
  8
0
 62
     0
370
    -2
100
AcDbLine
 10
0.0
 20
0.0
 30
0.0
 11
1.0
 21
0.33
 31
0.0
  0
LINE
  5
1F1
330
1ED
100
AcDbEntity
  8
0
 62
     0
370
    -2
100
AcDbLine
 10
0.0
 20
2.0
 30
0.0
 11
4.15
 21
2.0
 31
0.0
  0
ENDBLK
  5
1F3
330
1ED
100
AcDbEntity
  8
0
100
AcDbBlockEnd
  0
BLOCK
  5
1F9
330
1F4
100
AcDbEntity
  8
0
100
AcDbBlockBegin
  2
cw-dimension-symbol21
 70
     0
 10
0.0
 20
0.0
 30
0.0
  3
cw-dimension-symbol21
  1

  0
LINE
  5
1F5
330
1F4
100
AcDbEntity
  8
0
 62
     0
370
    -2
100
AcDbLine
 10
0.0
 20
0.0
 30
0.0
 11
0.0
 21
-2.0
 31
0.0
  0
LINE
  5
1F6
330
1F4
100
AcDbEntity
  8
0
 62
     0
370
    -2
100
AcDbLine
 10
0.0
 20
0.0
 30
0.0
 11
-1.0
 21
-0.33
 31
0.0
  0
LINE
  5
1F7
330
1F4
100
AcDbEntity
  8
0
 62
     0
370
    -2
100
AcDbLine
 10
0.0
 20
0.0
 30
0.0
 11
1.0
 21
-0.33
 31
0.0
  0
LINE
  5
1F8
330
1F4
100
AcDbEntity
  8
0
 62
     0
370
    -2
100
AcDbLine
 10
0.0
 20
-2.0
 30
0.0
 11
4.15
 21
-2.0
 31
0.0
  0
ENDBLK
  5
1FA
330
1F4
100
AcDbEntity
  8
0
100
AcDbBlockEnd
  0
BLOCK
  5
22B
330
1FB
100
AcDbEntity
  8
0
100
AcDbBlockBegin
  2
cw-line-extremity0
 70
     0
 10
0.0
 20
0.0
 30
0.0
  3
cw-line-extremity0
  1

  0
LINE
  5
1FC
330
1FB
100
AcDbEntity
  8
0
 62
     0
370
    -2
100
AcDbLine
 10
0.0
 20
0.0
 30
0.0
 11
4.0
 21
1.0
 31
0.0
  0
LINE
  5
1FD
330
1FB
100
AcDbEntity
  8
0
 62
     0
370
    -2
100
AcDbLine
 10
0.0
 20
0.0
 30
0.0
 11
4.0
 21
-1.0
 31
0.0
  0
LINE
  5
1FE
330
1FB
100
AcDbEntity
  8
0
 62
     0
370
    -2
100
AcDbLine
 10
4.0
 20
1.0
 30
0.0
 11
4.0
 21
-1.0
 31
0.0
  0
ENDBLK
  5
22C
330
1FB
100
AcDbEntity
  8
0
100
AcDbBlockEnd
  0
BLOCK
  5
229
330
1FF
100
AcDbEntity
  8
0
100
AcDbBlockBegin
  2
cw-line-extremity2
 70
     0
 10
0.0
 20
0.0
 30
0.0
  3
cw-line-extremity2
  1

  0
HATCH
  5
200
330
1FF
100
AcDbEntity
  8
0
 62
     0
370
     0
100
AcDbHatch
 10
0.0
 20
0.0
 30
0.0
210
0.0
220
0.0
230
1.0
  2
SOLID
 70
     1
 71
     1
 91
        1
 92
        3
 72
     0
 73
     1
 93
        3
 10
0.0
 20
0.0
 10
4.0
 20
1.0
 10
4.0
 20
-1.0
 97
        0
 75
     0
 76
     1
 98
        0
  0
LINE
  5
201
330
1FF
100
AcDbEntity
  8
0
 62
     0
370
    -2
100
AcDbLine
 10
0.0
 20
0.0
 30
0.0
 11
4.0
 21
1.0
 31
0.0
  0
LINE
  5
202
330
1FF
100
AcDbEntity
  8
0
 62
     0
370
    -2
100
AcDbLine
 10
4.0
 20
1.0
 30
0.0
 11
4.0
 21
-1.0
 31
0.0
  0
LINE
  5
203
330
1FF
100
AcDbEntity
  8
0
 62
     0
370
    -2
100
AcDbLine
 10
4.0
 20
-1.0
 30
0.0
 11
0.0
 21
0.0
 31
0.0
  0
ENDBLK
  5
22A
330
1FF
100
AcDbEntity
  8
0
100
AcDbBlockEnd
  0
BLOCK
  5
227
330
204
100
AcDbEntity
  8
0
100
AcDbBlockBegin
  2
cw-line-extremity3
 70
     0
 10
0.0
 20
0.0
 30
0.0
  3
cw-line-extremity3
  1

  0
HATCH
  5
205
330
204
100
AcDbEntity
  8
0
 62
     0
370
     0
100
AcDbHatch
 10
0.0
 20
0.0
 30
0.0
210
0.0
220
0.0
230
1.0
  2
SOLID
 70
     1
 71
     1
 91
        1
 92
        3
 72
     0
 73
     1
 93
        3
 10
0.0
 20
0.0
 10
4.0
 20
1.0
 10
4.0
 20
-1.0
 97
        0
 75
     0
 76
     1
 98
        0
  0
LINE
  5
206
330
204
100
AcDbEntity
  8
0
 62
     0
370
    -2
100
AcDbLine
 10
0.0
 20
0.0
 30
0.0
 11
4.0
 21
1.0
 31
0.0
  0
LINE
  5
207
330
204
100
AcDbEntity
  8
0
 62
     0
370
    -2
100
AcDbLine
 10
4.0
 20
1.0
 30
0.0
 11
4.0
 21
-1.0
 31
0.0
  0
LINE
  5
208
330
204
100
AcDbEntity
  8
0
 62
     0
370
    -2
100
AcDbLine
 10
4.0
 20
-1.0
 30
0.0
 11
0.0
 21
0.0
 31
0.0
  0
ENDBLK
  5
228
330
204
100
AcDbEntity
  8
0
100
AcDbBlockEnd
  0
BLOCK
  5
225
330
209
100
AcDbEntity
  8
0
100
AcDbBlockBegin
  2
cw-line-extremity301
 70
     0
 10
0.0
 20
0.0
 30
0.0
  3
cw-line-extremity301
  1

  0
LINE
  5
20A
330
209
100
AcDbEntity
  8
0
 62
     0
370
    -2
100
AcDbLine
 10
0.0
 20
2.66666
 30
0.0
 11
0.0
 21
-2.66666
 31
0.0
  0
ENDBLK
  5
226
330
209
100
AcDbEntity
  8
0
100
AcDbBlockEnd
  0
BLOCK
  5
223
330
20B
100
AcDbEntity
  8
0
100
AcDbBlockBegin
  2
cw-line-extremity4
 70
     0
 10
0.0
 20
0.0
 30
0.0
  3
cw-line-extremity4
  1

  0
HATCH
  5
20C
330
20B
100
AcDbEntity
  8
0
 62
     0
370
     5
100
AcDbHatch
 10
0.0
 20
0.0
 30
0.0
210
0.0
220
0.0
230
1.0
  2
SOLID
 70
     1
 71
     1
 91
        1
 92
        1
 93
        1
 72
     2
 10
0.0
 20
0.0
 40
1.0
 50
0.0
 51
360.0
 73
     1
 97
        0
 75
     0
 76
     1
 98
        0
  0
ENDBLK
  5
224
330
20B
100
AcDbEntity
  8
0
100
AcDbBlockEnd
  0
BLOCK
  5
221
330
20D
100
AcDbEntity
  8
0
100
AcDbBlockBegin
  2
cw-line-extremity5
 70
     0
 10
0.0
 20
0.0
 30
0.0
  3
cw-line-extremity5
  1

  0
LINE
  5
20E
330
20D
100
AcDbEntity
  8
0
 62
     0
370
    -2
100
AcDbLine
 10
0.0
 20
0.0
 30
0.0
 11
-1.0
 21
0.0
 31
0.0
  0
ENDBLK
  5
222
330
20D
100
AcDbEntity
  8
0
100
AcDbBlockEnd
  0
BLOCK
  5
21F
330
20F
100
AcDbEntity
  8
0
100
AcDbBlockBegin
  2
cw-line-extremity6
 70
     0
 10
0.0
 20
0.0
 30
0.0
  3
cw-line-extremity6
  1

  0
LINE
  5
210
330
20F
100
AcDbEntity
  8
0
 62
     0
370
    18
100
AcDbLine
 10
0.0
 20
1.0
 30
0.0
 11
0.0
 21
-1.0
 31
0.0
  0
ENDBLK
  5
220
330
20F
100
AcDbEntity
  8
0
100
AcDbBlockEnd
  0
BLOCK
  5
21D
330
211
100
AcDbEntity
  8
0
100
AcDbBlockBegin
  2
cw-line-extremity9
 70
     0
 10
0.0
 20
0.0
 30
0.0
  3
cw-line-extremity9
  1

  0
LINE
  5
212
330
211
100
AcDbEntity
  8
0
 62
     0
370
    18
100
AcDbLine
 10
-1.0
 20
-1.0
 30
0.0
 11
1.0
 21
1.0
 31
0.0
  0
ENDBLK
  5
21E
330
211
100
AcDbEntity
  8
0
100
AcDbBlockEnd
  0
BLOCK
  5
21B
330
213
100
AcDbEntity
  8
0
100
AcDbBlockBegin
  2
cw-line-extremity10
 70
     0
 10
0.0
 20
0.0
 30
0.0
  3
cw-line-extremity10
  1

  0
CIRCLE
  5
214
330
213
100
AcDbEntity
  8
0
 62
     0
370
    -2
100
AcDbCircle
 10
0.0
 20
0.0
 30
0.0
 40
1.0
  0
ENDBLK
  5
21C
330
213
100
AcDbEntity
  8
0
100
AcDbBlockEnd
  0
BLOCK
  5
219
330
215
100
AcDbEntity
  8
0
100
AcDbBlockBegin
  2
cw-line-extremity1
 70
     0
 10
0.0
 20
0.0
 30
0.0
  3
cw-line-extremity1
  1

  0
LINE
  5
216
330
215
100
AcDbEntity
  8
0
 62
     0
370
    -2
100
AcDbLine
 10
0.0
 20
0.0
 30
0.0
 11
0.0
 21
1.0
 31
0.0
  0
LINE
  5
217
330
215
100
AcDbEntity
  8
0
 62
     0
370
    -2
100
AcDbLine
 10
0.0
 20
1.0
 30
0.0
 11
0.5
 21
1.5
 31
0.0
  0
LINE
  5
218
330
215
100
AcDbEntity
  8
0
 62
     0
370
    -2
100
AcDbLine
 10
0.5
 20
1.5
 30
0.0
 11
1.5
 21
1.5
 31
0.0
  0
ENDBLK
  5
21A
330
215
100
AcDbEntity
  8
0
100
AcDbBlockEnd
  0
BLOCK
  5
1C
330
1B
100
AcDbEntity
  8
0
100
AcDbBlockBegin
  2
*Paper_Space69
 70
     0
 10
0.0
 20
0.0
 30
0.0
  3
*Paper_Space69
  1

  0
ENDBLK
  5
1D
330
1B
100
AcDbEntity
  8
0
100
AcDbBlockEnd
  0
BLOCK
  5
3CE
330
3CD
100
AcDbEntity
  8
0
100
AcDbBlockBegin
  2
*D70
 70
     1
 10
0.0
 20
0.0
 30
0.0
  3
*D70
  1

  0
LINE
  5
3D0
330
3CD
100
AcDbEntity
  8
Ech.1_2
 62
     0
370
    -2
100
AcDbLine
 10
2537.189037529517
 20
-1380.628771471211
 30
0.0
 11
2535.189037529517
 21
-1380.628771471211
 31
0.0
  0
LINE
  5
3D1
330
3CD
100
AcDbEntity
  8
Ech.1_2
 62
     0
370
    -2
100
AcDbLine
 10
2537.189037529517
 20
-1375.628771471211
 30
0.0
 11
2535.189037529517
 21
-1375.628771471211
 31
0.0
  0
LINE
  5
3D2
330
3CD
100
AcDbEntity
  8
Ech.1_2
 62
     0
370
    -2
100
AcDbLine
 10
2537.189037529517
 20
-1378.628771471211
 30
0.0
 11
2537.189037529517
 21
-1377.628771471211
 31
0.0
  0
INSERT
  5
3D3
330
3CD
100
AcDbEntity
  8
Ech.1_2
 62
     0
370
    -2
100
AcDbBlockReference
  2
cw-dimension-symbol2
 10
2537.189037529517
 20
-1380.628771471211
 30
0.0
 41
2.0
 42
2.0
 43
2.0
 50
270.0
  0
INSERT
  5
3D4
330
3CD
100
AcDbEntity
  8
Ech.1_2
 62
     0
370
    -2
100
AcDbBlockReference
  2
cw-dimension-symbol2
 10
2537.189037529517
 20
-1375.628771471211
 30
0.0
 41
2.0
 42
2.0
 43
2.0
 50
90.0
  0
MTEXT
  5
3D5
330
3CD
100
AcDbEntity
  8
Ech.1_2
 62
   190
370
    20
100
AcDbMText
 10
2532.689037529517
 20
-1378.128771471211
 30
0.0
 40
5.0
 41
0.0
 46
0.0
 71
     5
 72
     1
  1
\A1;5 mm mini
  7
arial-z
 11
6.123233995736766E-17
 21
1.0
 31
0.0
 73
     1
 44
1.0
  0
POINT
  5
3D6
330
3CD
100
AcDbEntity
  8
Defpoints
 62
     0
100
AcDbPoint
 10
2537.189037529517
 20
-1380.628771471211
 30
0.0
  0
POINT
  5
3D7
330
3CD
100
AcDbEntity
  8
Defpoints
 62
     0
100
AcDbPoint
 10
2537.189037529517
 20
-1375.628771471211
 30
0.0
  0
POINT
  5
3D8
330
3CD
100
AcDbEntity
  8
Defpoints
 62
     0
100
AcDbPoint
 10
2537.189037529517
 20
-1375.628771471211
 30
0.0
  0
ENDBLK
  5
3CF
330
3CD
100
AcDbEntity
  8
0
100
AcDbBlockEnd
  0
BLOCK
  5
3DC
330
3DB
100
AcDbEntity
  8
0
100
AcDbBlockBegin
  2
*D71
 70
     1
 10
0.0
 20
0.0
 30
0.0
  3
*D71
  1

  0
LINE
  5
3DE
330
3DB
100
AcDbEntity
  8
Ech.1_2
 62
     0
370
    -2
100
AcDbLine
 10
2561.770077257787
 20
-1360.614467847068
 30
0.0
 11
2559.770077257787
 21
-1360.614467847068
 31
0.0
  0
LINE
  5
3DF
330
3DB
100
AcDbEntity
  8
Ech.1_2
 62
     0
370
    -2
100
AcDbLine
 10
2561.770077257787
 20
-1355.614467847068
 30
0.0
 11
2559.770077257787
 21
-1355.614467847068
 31
0.0
  0
LINE
  5
3E0
330
3DB
100
AcDbEntity
  8
Ech.1_2
 62
     0
370
    -2
100
AcDbLine
 10
2561.770077257787
 20
-1358.614467847068
 30
0.0
 11
2561.770077257787
 21
-1357.614467847068
 31
0.0
  0
INSERT
  5
3E1
330
3DB
100
AcDbEntity
  8
Ech.1_2
 62
     0
370
    -2
100
AcDbBlockReference
  2
cw-dimension-symbol2
 10
2561.770077257787
 20
-1360.614467847068
 30
0.0
 41
2.0
 42
2.0
 43
2.0
 50
270.0
  0
INSERT
  5
3E2
330
3DB
100
AcDbEntity
  8
Ech.1_2
 62
     0
370
    -2
100
AcDbBlockReference
  2
cw-dimension-symbol2
 10
2561.770077257787
 20
-1355.614467847068
 30
0.0
 41
2.0
 42
2.0
 43
2.0
 50
90.0
  0
MTEXT
  5
3E3
330
3DB
100
AcDbEntity
  8
Ech.1_2
 62
   190
370
    20
100
AcDbMText
 10
2557.270077257787
 20
-1358.114467847068
 30
0.0
 40
5.0
 41
0.0
 46
0.0
 71
     5
 72
     1
  1
\A1;5 mm mini
  7
arial-z
 11
6.123233995736766E-17
 21
1.0
 31
0.0
 73
     1
 44
1.0
  0
POINT
  5
3E4
330
3DB
100
AcDbEntity
  8
Defpoints
 62
     0
100
AcDbPoint
 10
2561.770077257787
 20
-1360.614467847068
 30
0.0
  0
POINT
  5
3E5
330
3DB
100
AcDbEntity
  8
Defpoints
 62
     0
100
AcDbPoint
 10
2561.770077257787
 20
-1355.614467847068
 30
0.0
  0
POINT
  5
3E6
330
3DB
100
AcDbEntity
  8
Defpoints
 62
     0
100
AcDbPoint
 10
2561.770077257787
 20
-1355.614467847068
 30
0.0
  0
ENDBLK
  5
3DD
330
3DB
100
AcDbEntity
  8
0
100
AcDbBlockEnd
  0
BLOCK
  5
3EA
330
3E9
100
AcDbEntity
  8
0
100
AcDbBlockBegin
  2
*D72
 70
     1
 10
0.0
 20
0.0
 30
0.0
  3
*D72
  1

  0
LINE
  5
3EC
330
3E9
100
AcDbEntity
  8
Ech.1_2
 62
     0
370
    -2
100
AcDbLine
 10
2552.16447965847
 20
-1354.614467847068
 30
0.0
 11
2552.16447965847
 21
-1337.547981073798
 31
0.0
  0
LINE
  5
3ED
330
3E9
100
AcDbEntity
  8
Ech.1_2
 62
     0
370
    -2
100
AcDbLine
 10
2582.16447965847
 20
-1374.628770438652
 30
0.0
 11
2582.16447965847
 21
-1337.547981073798
 31
0.0
  0
LINE
  5
3EE
330
3E9
100
AcDbEntity
  8
Ech.1_2
 62
     0
370
    -2
100
AcDbLine
 10
2554.16447965847
 20
-1339.547981073798
 30
0.0
 11
2580.16447965847
 21
-1339.547981073798
 31
0.0
  0
INSERT
  5
3EF
330
3E9
100
AcDbEntity
  8
Ech.1_2
 62
     0
370
    -2
100
AcDbBlockReference
  2
cw-dimension-symbol2
 10
2552.16447965847
 20
-1339.547981073798
 30
0.0
 41
2.0
 42
2.0
 43
2.0
 50
180.0
  0
INSERT
  5
3F0
330
3E9
100
AcDbEntity
  8
Ech.1_2
 62
     0
370
    -2
100
AcDbBlockReference
  2
cw-dimension-symbol2
 10
2582.16447965847
 20
-1339.547981073798
 30
0.0
 41
2.0
 42
2.0
 43
2.0
  0
MTEXT
  5
3F1
330
3E9
100
AcDbEntity
  8
Ech.1_2
 62
   190
370
    20
100
AcDbMText
 10
2567.16447965847
 20
-1335.047981073798
 30
0.0
 40
5.0
 41
0.0
 46
0.0
 71
     5
 72
     1
  1
\A1;30 mm mini
  7
arial-z
 73
     1
 44
1.0
  0
POINT
  5
3F2
330
3E9
100
AcDbEntity
  8
Defpoints
 62
     0
100
AcDbPoint
 10
2552.16447965847
 20
-1354.614467847068
 30
0.0
  0
POINT
  5
3F3
330
3E9
100
AcDbEntity
  8
Defpoints
 62
     0
100
AcDbPoint
 10
2582.16447965847
 20
-1374.628770438652
 30
0.0
  0
POINT
  5
3F4
330
3E9
100
AcDbEntity
  8
Defpoints
 62
     0
100
AcDbPoint
 10
2582.16447965847
 20
-1339.547981073798
 30
0.0
  0
ENDBLK
  5
3EB
330
3E9
100
AcDbEntity
  8
0
100
AcDbBlockEnd
  0
BLOCK
  5
3F8
330
3F7
100
AcDbEntity
  8
0
100
AcDbBlockBegin
  2
*D73
 70
     1
 10
0.0
 20
0.0
 30
0.0
  3
*D73
  1

  0
LINE
  5
3FA
330
3F7
100
AcDbEntity
  8
Ech.1_2
 62
     0
370
    -2
100
AcDbLine
 10
2553.164479658458
 20
-1355.614467847068
 30
0.0
 11
2595.04384410527
 21
-1355.614467847068
 31
0.0
  0
LINE
  5
3FB
330
3F7
100
AcDbEntity
  8
Ech.1_2
 62
     0
370
    -2
100
AcDbLine
 10
2553.169379860612
 20
-1325.614467847068
 30
0.0
 11
2595.04384410527
 21
-1325.614467847068
 31
0.0
  0
LINE
  5
3FC
330
3F7
100
AcDbEntity
  8
Ech.1_2
 62
     0
370
    -2
100
AcDbLine
 10
2593.04384410527
 20
-1353.614467847068
 30
0.0
 11
2593.04384410527
 21
-1327.614467847068
 31
0.0
  0
INSERT
  5
3FD
330
3F7
100
AcDbEntity
  8
Ech.1_2
 62
     0
370
    -2
100
AcDbBlockReference
  2
cw-dimension-symbol2
 10
2593.04384410527
 20
-1355.614467847068
 30
0.0
 41
2.0
 42
2.0
 43
2.0
 50
270.0
  0
INSERT
  5
3FE
330
3F7
100
AcDbEntity
  8
Ech.1_2
 62
     0
370
    -2
100
AcDbBlockReference
  2
cw-dimension-symbol2
 10
2593.04384410527
 20
-1325.614467847068
 30
0.0
 41
2.0
 42
2.0
 43
2.0
 50
90.0
  0
MTEXT
  5
3FF
330
3F7
100
AcDbEntity
  8
Ech.1_2
 62
   190
370
    20
100
AcDbMText
 10
2588.54384410527
 20
-1340.614467847068
 30
0.0
 40
5.0
 41
0.0
 46
0.0
 71
     5
 72
     1
  1
\A1;30 mm mini
  7
arial-z
 11
6.123233995736766E-17
 21
1.0
 31
0.0
 73
     1
 44
1.0
  0
POINT
  5
400
330
3F7
100
AcDbEntity
  8
Defpoints
 62
     0
100
AcDbPoint
 10
2553.164479658458
 20
-1355.614467847068
 30
0.0
  0
POINT
  5
401
330
3F7
100
AcDbEntity
  8
Defpoints
 62
     0
100
AcDbPoint
 10
2553.169379860612
 20
-1325.614467847068
 30
0.0
  0
POINT
  5
402
330
3F7
100
AcDbEntity
  8
Defpoints
 62
     0
100
AcDbPoint
 10
2593.04384410527
 20
-1325.614467847068
 30
0.0
  0
ENDBLK
  5
3F9
330
3F7
100
AcDbEntity
  8
0
100
AcDbBlockEnd
  0
ENDSEC
  0
SECTION
  2
ENTITIES
  0
LWPOLYLINE
  5
236
330
1F
100
AcDbEntity
  8
Ech.1_2
 62
   190
370
    20
100
AcDbPolyline
 90
        5
 70
     0
 43
0.0
 10
2369.567125741475
 20
-1610.608449547277
 10
2763.567125741475
 20
-1610.608449547277
 10
2763.567125741475
 20
-1665.573678373299
 10
2369.567125741475
 20
-1665.573678373299
 10
2369.567125741475
 20
-1610.608449547277
  0
LWPOLYLINE
  5
237
330
1F
100
AcDbEntity
  8
Ech.1_2
 62
   190
370
    20
100
AcDbPolyline
 90
        5
 70
     0
 43
0.0
 10
2763.567125741475
 20
-1161.780463575606
 10
2369.567125741475
 20
-1161.780463575606
 10
2369.567125741475
 20
-1123.573678373346
 10
2763.567125741475
 20
-1123.573678373346
 10
2763.567125741475
 20
-1161.780463575606
  0
LWPOLYLINE
  5
238
330
1F
100
AcDbEntity
  8
Ech.1_2
 62
   190
370
    20
100
AcDbPolyline
 90
        5
 70
     0
 43
0.0
 10
2763.567125741475
 20
-1619.408449547276
 10
2369.567125741475
 20
-1619.408449547276
 10
2369.567125741475
 20
-1610.608449547277
 10
2763.567125741475
 20
-1610.608449547277
 10
2763.567125741475
 20
-1619.408449547276
  0
LWPOLYLINE
  5
239
330
1F
100
AcDbEntity
  8
Ech.1_2
 62
   190
370
    20
100
AcDbPolyline
 90
        5
 70
     0
 43
0.0
 10
2763.567125741475
 20
-1642.156907639413
 10
2369.567125741475
 20
-1642.156907639413
 10
2369.567125741475
 20
-1632.666096315117
 10
2763.567125741475
 20
-1632.666096315117
 10
2763.567125741475
 20
-1642.156907639413
  0
LINE
  5
23A
330
1F
100
AcDbEntity
  8
Ech.1_2
 62
   190
370
    20
100
AcDbLine
 10
2444.848950526658
 20
-1610.608449547277
 30
0.0
 11
2444.848950526658
 21
-1619.408449547276
 31
0.0
  0
LINE
  5
23B
330
1F
100
AcDbEntity
  8
Ech.1_2
 62
   190
370
    20
100
AcDbLine
 10
2707.648191578876
 20
-1610.608449547277
 30
0.0
 11
2707.648191578876
 21
-1619.408449547276
 31
0.0
  0
LINE
  5
23C
330
1F
100
AcDbEntity
  8
Ech.1_2
 62
   190
370
    20
100
AcDbLine
 10
2507.311037724798
 20
-1610.608449547277
 30
0.0
 11
2507.311037724798
 21
-1619.408449547276
 31
0.0
  0
IMAGE
  5
23F
330
1F
100
AcDbEntity
  8
Ech.1_2
160
                 8
310
0800000000000000
100
AcDbRasterImage
 90
        0
 10
2445.992825237827
 20
-1663.55945938088
 30
0.0
 11
0.1133603238866397
 21
0.0
 31
0.0
 12
0.0
 22
0.1111111111111111
 32
0.0
 13
247.0
 23
171.0
340
23E
 70
     3
280
     0
281
    50
282
    50
283
     0
360
240
 71
     1
 91
        2
 14
-0.5
 24
-0.5
 14
246.5
 24
170.5
290
     0
  0
IMAGE
  5
242
330
1F
100
AcDbEntity
  8
Ech.1_2
160
                 8
310
0800000000000000
100
AcDbRasterImage
 90
        0
 10
2550.423893734619
 20
-1664.581304302394
 30
0.0
 11
0.16
 21
0.0
 31
0.0
 12
0.0
 22
0.1578947368421053
 32
0.0
 13
200.0
 23
133.0
340
241
 70
     3
280
     0
281
    50
282
    50
283
     0
360
243
 71
     1
 91
        2
 14
-0.5
 24
-0.5
 14
199.5
 24
132.5
290
     0
  0
IMAGE
  5
245
330
1F
100
AcDbEntity
  8
Ech.1_2
160
                 8
310
0800000000000000
100
AcDbRasterImage
 90
        0
 10
2647.773760286276
 20
-1665.063295468373
 30
0.0
 11
0.03770739064856712
 21
0.0
 31
0.0
 12
0.0
 22
0.03793103448275862
 32
0.0
 13
1326.0
 23
580.0
340
244
 70
     3
280
     0
281
    50
282
    50
283
     0
360
246
 71
     1
 91
        2
 14
-0.5
 24
-0.5
 14
1325.5
 24
579.5
290
     0
  0
LWPOLYLINE
  5
247
330
1F
100
AcDbEntity
  8
Ech.1_2
 62
   190
370
    20
100
AcDbPolyline
 90
        5
 70
     0
 43
0.0
 10
2763.567125741475
 20
-1665.573678373299
 10
2763.567125741475
 20
-1123.573678373299
 10
2369.567125741475
 20
-1123.573678373299
 10
2369.567125741475
 20
-1665.573678373299
 10
2763.567125741475
 20
-1665.573678373299
  0
LINE
  5
248
330
1F
100
AcDbEntity
  8
Ech.1_2
 62
   190
370
    20
100
AcDbLine
 10
2763.567125741475
 20
-1135.573678373303
 30
0.0
 11
2369.567125741475
 21
-1135.573678373303
 31
0.0
  0
LWPOLYLINE
  5
249
330
1F
100
AcDbEntity
  8
Ech.1_2
 62
   190
370
    20
100
AcDbPolyline
 90
        6
 70
     0
 43
0.0
 10
2406.159478395839
 20
-1442.202492465845
 10
2406.159478395818
 20
-1404.203736351757
 10
2398.968539032864
 20
-1397.609535089394
 10
2413.350819037584
 20
-1403.253511096516
 10
2406.159478395814
 20
-1396.658969463921
 10
2406.15947839581
 20
-1292.20249246586
  0
LWPOLYLINE
  5
24A
330
1F
100
AcDbEntity
  8
Ech.1_2
 62
   190
370
    20
100
AcDbPolyline
 90
        6
 70
     0
 43
0.0
 10
2645.161171917695
 20
-1523.750084745026
 10
2533.205292683997
 20
-1523.750084745048
 10
2526.611091421634
 20
-1530.941024108002
 10
2532.255067428756
 20
-1516.558744103282
 10
2525.660525796161
 20
-1523.750084745052
 10
2495.161171917659
 20
-1523.750084745056
  0
HATCH
  5
24B
330
1F
100
AcDbEntity
  8
Ech.1_2
 62
   254
420
 15326711
440
 33554687
370
     5
100
AcDbHatch
 10
0.0
 20
0.0
 30
0.0
210
0.0
220
0.0
230
1.0
  2
SOLID
 70
     1
 71
     1
 91
        1
 92
        3
 72
     0
 73
     1
 93
       24
 10
2413.350819037584
 20
-1403.253511096516
 10
2406.15987967463
 20
-1396.659309834149
 10
2406.15987967463
 20
-1284.658065948233
 10
2465.616431623934
 20
-1284.658065948233
 10
2472.210632886294
 20
-1277.467126585279
 10
2466.566656879172
 20
-1291.849406589999
 10
2473.161198511767
 20
-1284.658065948233
 10
2493.159879674699
 20
-1284.658065948168
 10
2493.159879674699
 20
-1334.658061585111
 10
2493.17159138553
 20
-1334.658061584856
 10
2493.161171917659
 20
-1434.658053925736
 10
2645.161171917691
 20
-1434.65804928983
 10
2645.161171917691
 20
-1456.704056892055
 10
2652.352512559457
 20
-1463.298598524658
 10
2637.970232554737
 20
-1457.654622517539
 10
2645.161171917688
 20
-1464.248823779899
 10
2645.161171917691
 20
-1523.750084745026
 10
2533.205292684001
 20
-1523.750084745026
 10
2526.611091421634
 20
-1530.941024108002
 10
2532.255067428756
 20
-1516.558744103286
 10
2525.660525796164
 20
-1523.750084745052
 10
2406.159879674637
 20
-1523.750087495735
 10
2406.159879674637
 20
-1404.20407672199
 10
2398.968539032864
 20
-1397.609535089394
 97
        0
 75
     0
 76
     1
 98
        0
  0
LWPOLYLINE
  5
24C
330
1F
100
AcDbEntity
  8
Ech.1_2
 62
   190
370
    20
100
AcDbPolyline
 90
       25
 70
     0
 43
0.0
 10
2413.350819037584
 20
-1403.253511096516
 10
2406.15987967463
 20
-1396.659309834149
 10
2406.15987967463
 20
-1284.658065948233
 10
2465.616431623934
 20
-1284.658065948233
 10
2472.210632886294
 20
-1277.467126585279
 10
2466.566656879172
 20
-1291.849406589999
 10
2473.161198511767
 20
-1284.658065948233
 10
2493.159879674699
 20
-1284.658065948168
 10
2493.159879674699
 20
-1334.658061585111
 10
2493.17159138553
 20
-1334.658061584856
 10
2493.161171917659
 20
-1434.658053925736
 10
2645.161171917691
 20
-1434.65804928983
 10
2645.161171917691
 20
-1456.704056892055
 10
2652.352512559457
 20
-1463.298598524658
 10
2637.970232554737
 20
-1457.654622517539
 10
2645.161171917688
 20
-1464.248823779899
 10
2645.161171917691
 20
-1523.750084745026
 10
2533.205292684001
 20
-1523.750084745026
 10
2526.611091421634
 20
-1530.941024108002
 10
2532.255067428756
 20
-1516.558744103286
 10
2525.660525796164
 20
-1523.750084745052
 10
2406.159879674637
 20
-1523.750087495735
 10
2406.159879674637
 20
-1404.20407672199
 10
2398.968539032864
 20
-1397.609535089394
 10
2413.350819037584
 20
-1403.253511096516
  0
LWPOLYLINE
  5
24D
330
1F
100
AcDbEntity
  8
Ech.1_2
 62
   190
370
    20
100
AcDbPolyline
 90
        6
 70
     0
 43
0.0
 10
2660.161171917695
 20
-1523.750084745041
 10
2533.205292683997
 20
-1523.750084745048
 10
2526.611091421634
 20
-1530.941024108002
 10
2532.255067428756
 20
-1516.558744103282
 10
2525.660525796161
 20
-1523.750084745052
 10
2391.159879674637
 20
-1523.750084745056
  0
LWPOLYLINE
  5
24E
330
1F
100
AcDbEntity
  8
Ech.1_2
 62
   190
370
    20
100
AcDbPolyline
 90
        6
 70
     0
 43
0.0
 10
2406.159478395807
 20
-1269.703090230227
 10
2406.159478395814
 20
-1396.658969463921
 10
2413.350417758768
 20
-1403.253170726288
 10
2398.968137754048
 20
-1397.609194719165
 10
2406.159478395818
 20
-1404.203736351757
 10
2406.159478395821
 20
-1538.704382473285
  0
LWPOLYLINE
  5
24F
330
1F
100
AcDbEntity
  8
Ech.1_2
 62
   190
370
    20
100
AcDbPolyline
 90
        6
 70
     0
 43
0.0
 10
2645.161171917699
 20
-1538.750084745026
 10
2645.161171917691
 20
-1464.248823779899
 10
2637.970232554737
 20
-1457.654622517532
 10
2652.352512559457
 20
-1463.298598524654
 10
2645.161171917688
 20
-1456.704056892062
 10
2645.161171917684
 20
-1345.614467847068
  0
LWPOLYLINE
  5
250
330
1F
100
AcDbEntity
  8
Ech.1_2
 62
     7
370
    20
100
AcDbPolyline
 90
        3
 70
     0
 43
0.0
 10
2645.161841984513
 20
-1434.658053925736
 10
2493.161841984486
 20
-1434.658053925736
 10
2493.161841984486
 20
-1284.658065948233
  0
CIRCLE
  5
251
330
1F
100
AcDbEntity
  8
Ech.1_2
 62
   154
420
    21156
370
    50
100
AcDbCircle
 10
2433.661543774683
 20
-1219.725810599241
 30
0.0
 40
29.99694606438788
  0
LWPOLYLINE
  5
252
330
1F
100
AcDbEntity
  8
Ech.1_2
 62
   154
420
    21156
370
    20
100
AcDbPolyline
 90
      194
 70
     0
 43
0.0
 10
2433.329832680811
 20
-1210.996285644796
 10
2433.700533102354
 20
-1212.066364233435
 10
2434.06368313835
 20
-1213.137862021194
 10
2434.240067266284
 20
-1213.674586614469
 10
2434.411732403249
 20
-1214.212198207194
 10
2434.577734751053
 20
-1214.75087419926
 10
2434.737130511502
 20
-1215.290791990555
 10
2434.888975886403
 20
-1215.832128980971
 10
2435.032327077563
 20
-1216.375062570397
 10
2435.166240286786
 20
-1216.919770158724
 10
2435.289771715881
 20
-1217.466429145841
 10
2435.401977566652
 20
-1218.015216931638
 10
2435.501914040909
 20
-1218.566310916007
 10
2435.588637340455
 20
-1219.119888498835
 10
2435.661203667099
 20
-1219.676127080015
 10
2435.718669222645
 20
-1220.235204059434
 10
2435.741444274321
 20
-1220.51586238595
 10
2435.760090208901
 20
-1220.797296836985
 10
2435.774489051609
 20
-1221.079529587525
 10
2435.784522827673
 20
-1221.362582812556
 10
2435.790073562318
 20
-1221.646478687065
 10
2435.791023280768
 20
-1221.931239386038
 10
2435.787281433568
 20
-1222.216881185751
 10
2435.779103346641
 20
-1222.503345970675
 10
2435.751411170815
 20
-1223.078307401474
 10
2435.711915194979
 20
-1223.65524454061
 10
2435.664588462271
 20
-1224.23327726056
 10
2435.562334898799
 20
-1225.38910893282
 10
2435.515354154316
 20
-1225.96514763009
 10
2435.47643482552
 20
-1226.538761398091
 10
2435.449549955552
 20
-1227.109070109304
 10
2435.44186201861
 20
-1227.392710028764
 10
2435.438672587551
 20
-1227.675193636207
 10
2435.440478292769
 20
-1227.956410915692
 10
2435.447775764656
 20
-1228.236251851279
 10
2435.461061633606
 20
-1228.514606427028
 10
2435.480832530008
 20
-1228.791364627
 10
2435.507585084259
 20
-1229.066416435254
 10
2435.541815926748
 20
-1229.33965183585
 10
2435.584021687867
 20
-1229.610960812847
 10
2435.634698998012
 20
-1229.880233350306
 10
2435.694344487573
 20
-1230.147359432287
 10
2435.763454786943
 20
-1230.41222904285
 10
2435.842526526515
 20
-1230.674732166054
 10
2435.93205633668
 20
-1230.934758785959
 10
2436.032540847831
 20
-1231.192198886626
 10
2436.144473913091
 20
-1231.446942175301
 10
2436.268068666574
 20
-1231.698850379697
 10
2436.40302052698
 20
-1231.947733626339
 10
2436.548969094981
 20
-1232.19339647831
 10
2436.705553971243
 20
-1232.435643498697
 10
2436.872414756438
 20
-1232.674279250584
 10
2437.049191051232
 20
-1232.909108297059
 10
2437.235522456294
 20
-1233.139935201206
 10
2437.431048572295
 20
-1233.36656452611
 10
2437.635408999902
 20
-1233.588800834858
 10
2437.848243339784
 20
-1233.806448690535
 10
2438.069191192611
 20
-1234.019312656226
 10
2438.297892159051
 20
-1234.227197295017
 10
2438.533985839773
 20
-1234.429907169993
 10
2438.777111835446
 20
-1234.627246844241
 10
2439.026909746738
 20
-1234.819020880845
 10
2439.283019174319
 20
-1235.005033842891
 10
2439.545079718857
 20
-1235.185090293465
 10
2439.812730981022
 20
-1235.358994795652
 10
2440.085612561482
 20
-1235.526551912538
 10
2440.363364060905
 20
-1235.687566207208
 10
2440.645625079963
 20
-1235.841842242748
 10
2440.932035219321
 20
-1235.989184582244
 10
2441.22223407965
 20
-1236.129397788781
 10
2441.515861261619
 20
-1236.262286425444
 10
2441.812556365896
 20
-1236.387655055319
 10
2442.11195899315
 20
-1236.505308241492
 10
2442.41370874405
 20
-1236.615050547048
 10
2442.717445219264
 20
-1236.716686535073
 10
2443.022808019463
 20
-1236.810020768651
 10
2443.329436745315
 20
-1236.89485781087
 10
2443.636970997487
 20
-1236.971002224815
 10
2443.945050376649
 20
-1237.03825857357
 10
2444.253314483472
 20
-1237.096431420222
 10
2444.561402918622
 20
-1237.145325327855
 10
2444.868955282769
 20
-1237.184744859557
 10
2445.175611176581
 20
-1237.214494578411
 10
2445.481010200729
 20
-1237.234379047504
 10
2445.784791955879
 20
-1237.244202829922
 10
2446.086596042703
 20
-1237.243770488749
 10
2446.386062061867
 20
-1237.232886587071
 10
2446.682829614042
 20
-1237.211355687974
 10
2446.976538299894
 20
-1237.178982354544
 10
2447.266827720095
 20
-1237.135571149866
 10
2447.553337475313
 20
-1237.080926637025
 10
2447.835707166216
 20
-1237.014853379107
 10
2448.113576393473
 20
-1236.937155939198
 10
2448.386584757754
 20
-1236.847638880383
 10
2448.654371859727
 20
-1236.746106765748
 10
2448.91657730006
 20
-1236.632364158378
 10
2449.17285174567
 20
-1236.506237516339
 10
2449.423008684542
 20
-1236.367875445286
 10
2449.666985546515
 20
-1236.217671774449
 10
2449.904722869914
 20
-1236.056026483328
 10
2450.136161193068
 20
-1235.883339551422
 10
2450.361241054302
 20
-1235.70001095823
 10
2450.579902991945
 20
-1235.506440683253
 10
2450.792087544323
 20
-1235.30302870599
 10
2450.997735249763
 20
-1235.09017500594
 10
2451.196786646593
 20
-1234.868279562602
 10
2451.38918227314
 20
-1234.637742355477
 10
2451.574862667731
 20
-1234.398963364064
 10
2451.753768368694
 20
-1234.152342567862
 10
2451.925839914355
 20
-1233.898279946371
 10
2452.091017843041
 20
-1233.63717547909
 10
2452.249242693081
 20
-1233.369429145519
 10
2452.400455002799
 20
-1233.095440925157
 10
2452.544595310526
 20
-1232.815610797504
 10
2452.681604154587
 20
-1232.53033874206
 10
2452.811422073309
 20
-1232.240024738323
 10
2452.933989605021
 20
-1231.945068765794
 10
2453.049247288047
 20
-1231.645870803972
 10
2453.157135660718
 20
-1231.342830832356
 10
2453.257595261358
 20
-1231.036348830446
 10
2453.350566628296
 20
-1230.726824777742
 10
2453.435990299859
 20
-1230.414658653742
 10
2453.513806814373
 20
-1230.100250437946
 10
2453.583956710166
 20
-1229.784000109855
 10
2453.646380525567
 20
-1229.466307648968
 10
2453.701018798899
 20
-1229.147573034783
 10
2453.747812068493
 20
-1228.828196246801
 10
2453.786700872674
 20
-1228.50857726452
 10
2453.817625749771
 20
-1228.189116067442
 10
2453.840527238109
 20
-1227.870212635064
 10
2453.855345876017
 20
-1227.552266946887
 10
2453.862022201822
 20
-1227.235678982409
 10
2453.860496753849
 20
-1226.920848721132
 10
2453.850710070429
 20
-1226.608176142553
 10
2453.832602689885
 20
-1226.298061226173
 10
2453.806115150548
 20
-1225.990903951491
 10
2453.771187990742
 20
-1225.687104298007
 10
2453.727761748796
 20
-1225.38706224522
 10
2453.675776963038
 20
-1225.091177772629
 10
2453.615174171792
 20
-1224.799850859735
 10
2453.545893913389
 20
-1224.513481486036
 10
2453.467876726153
 20
-1224.232469631032
 10
2453.381063148413
 20
-1223.957215274223
 10
2453.285393718495
 20
-1223.688118395109
 10
2453.180808974728
 20
-1223.425578973188
 10
2453.067249455438
 20
-1223.16999698796
 10
2452.944655698952
 20
-1222.921772418924
 10
2452.812978225756
 20
-1222.681286420104
 10
2452.672343373787
 20
-1222.448588569194
 10
2452.523027776232
 20
-1222.223445000206
 10
2452.3653129046
 20
-1222.005612722493
 10
2452.199480230402
 20
-1221.794848745413
 10
2452.025811225145
 20
-1221.590910078319
 10
2451.844587360342
 20
-1221.39355373057
 10
2451.656090107501
 20
-1221.202536711519
 10
2451.460600938131
 20
-1221.017616030523
 10
2451.258401323743
 20
-1220.838548696938
 10
2451.049772735846
 20
-1220.665091720119
 10
2450.834996645949
 20
-1220.497002109422
 10
2450.614354525562
 20
-1220.334036874202
 10
2450.388127846196
 20
-1220.175953023816
 10
2450.156598079359
 20
-1220.022507567619
 10
2449.920046696562
 20
-1219.873457514968
 10
2449.678755169313
 20
-1219.728559875216
 10
2449.433004969123
 20
-1219.587571657721
 10
2449.183077567501
 20
-1219.450249871838
 10
2448.929254435956
 20
-1219.316351526923
 10
2448.671817045999
 20
-1219.185633632331
 10
2448.41104686914
 20
-1219.057853197419
 10
2447.88063404075
 20
-1218.810132744055
 10
2447.340267722865
 20
-1218.571246241676
 10
2446.792199687561
 20
-1218.339249765129
 10
2446.238681706915
 20
-1218.11219938926
 10
2445.124302997909
 20
-1217.665161238935
 10
2444.567945813703
 20
-1217.441285614172
 10
2444.015145772463
 20
-1217.214580389469
 10
2443.468154646268
 20
-1216.983101639673
 10
2442.929017743851
 20
-1216.745082776838
 10
2442.398124228057
 20
-1216.500179723598
 10
2441.87506675267
 20
-1216.248732546764
 10
2441.35943289451
 20
-1215.991085673893
 10
2440.850810230399
 20
-1215.727583532543
 10
2440.348786337155
 20
-1215.458570550272
 10
2439.8529487916
 20
-1215.184391154637
 10
2439.362885170556
 20
-1214.905389773195
 10
2438.878183050842
 20
-1214.621910833506
 10
2438.39843000928
 20
-1214.334298763125
 10
2437.92321362269
 20
-1214.042897989611
 10
2437.452121467892
 20
-1213.74805294052
 10
2436.984741121708
 20
-1213.450108043412
 10
2436.059466162465
 20
-1212.84629641537
 10
2435.144089359523
 20
-1212.234218525947
 10
2434.23531132745
 20
-1211.616629795602
 10
2433.329832680811
 20
-1210.996285644796
  0
LWPOLYLINE
  5
253
330
1F
100
AcDbEntity
  8
Ech.1_2
 62
   154
420
    21156
370
    20
100
AcDbPolyline
 90
       95
 70
     0
 43
0.0
 10
2450.885395850088
 20
-1222.681030807049
 10
2450.866619787668
 20
-1223.215825250241
 10
2450.847645027256
 20
-1223.760015563679
 10
2450.838021042181
 20
-1224.038570381193
 10
2450.828272870861
 20
-1224.322997617611
 10
2450.818375676048
 20
-1224.614471756714
 10
2450.808304620491
 20
-1224.914167282283
 10
2450.798034866943
 20
-1225.223258678099
 10
2450.787541578155
 20
-1225.542920427941
 10
2450.776799916877
 20
-1225.874327015593
 10
2450.76578504586
 20
-1226.218652924833
 10
2450.754472127856
 20
-1226.577072639443
 10
2450.742836325616
 20
-1226.950760643205
 10
2450.736889581267
 20
-1227.143697279699
 10
2450.73085280189
 20
-1227.340891419898
 10
2450.718602682388
 20
-1227.747896009289
 10
2450.706781858885
 20
-1228.167892206556
 10
2450.696307381439
 20
-1228.595446143872
 10
2450.688096591487
 20
-1229.02512190906
 10
2450.683066830471
 20
-1229.451483589944
 10
2450.682135439828
 20
-1229.869095274345
 10
2450.683493302595
 20
-1230.07292114531
 10
2450.686219760996
 20
-1230.272521050087
 10
2450.69042948271
 20
-1230.467215499656
 10
2450.696237135416
 20
-1230.656325004994
 10
2450.703757386794
 20
-1230.839170077078
 10
2450.713104904524
 20
-1231.015071226886
 10
2450.724394356287
 20
-1231.183348965397
 10
2450.737740409761
 20
-1231.343323803588
 10
2450.753257732628
 20
-1231.494316252438
 10
2450.771060992565
 20
-1231.635646822924
 10
2450.791264857254
 20
-1231.766636026023
 10
2450.813983994375
 20
-1231.886604372715
 10
2450.839333071606
 20
-1231.994872373975
 10
2450.867426756629
 20
-1232.090760540784
 10
2450.898379717122
 20
-1232.173589384117
 10
2450.932306620766
 20
-1232.242679414954
 10
2450.969322135241
 20
-1232.297351144272
 10
2451.009540928226
 20
-1232.336925083049
 10
2451.03088738781
 20
-1232.350838040665
 10
2451.053077667401
 20
-1232.360721742263
 10
2451.07612610046
 20
-1232.366491251714
 10
2451.100047020447
 20
-1232.368061632891
 10
2451.124854068921
 20
-1232.365350174807
 10
2451.150536707001
 20
-1232.358351930603
 10
2451.177054471831
 20
-1232.347158188673
 10
2451.204365043575
 20
-1232.331866209456
 10
2451.261195328459
 20
-1232.289376580903
 10
2451.32068900296
 20
-1232.231661128444
 10
2451.382507508387
 20
-1232.159497935576
 10
2451.446312286049
 20
-1232.073665085795
 10
2451.511764777253
 20
-1231.9749406626
 10
2451.578526423306
 20
-1231.864102749488
 10
2451.646258665518
 20
-1231.741929429957
 10
2451.714622945197
 20
-1231.609198787503
 10
2451.783280703648
 20
-1231.466688905625
 10
2451.851893382182
 20
-1231.31517786782
 10
2451.920122422106
 20
-1231.155443757584
 10
2451.987629264729
 20
-1230.988264658417
 10
2452.054075351358
 20
-1230.814418653815
 10
2452.119122123301
 20
-1230.634683827276
 10
2452.182431021865
 20
-1230.449838262297
 10
2452.24366348836
 20
-1230.260660042375
 10
2452.358544890374
 20
-1229.872417971696
 10
2452.461057859803
 20
-1229.476182283216
 10
2452.506829785569
 20
-1229.277012041046
 10
2452.548493927113
 20
-1229.078177644917
 10
2452.585711725744
 20
-1228.880457178329
 10
2452.618144622769
 20
-1228.684628724779
 10
2452.645454685487
 20
-1228.491469234441
 10
2452.667438294834
 20
-1228.30151248991
 10
2452.684192294592
 20
-1228.11474830204
 10
2452.695854306063
 20
-1227.931092656184
 10
2452.702561950555
 20
-1227.750461537692
 10
2452.704452849371
 20
-1227.572770931915
 10
2452.701664623817
 20
-1227.397936824203
 10
2452.694334895197
 20
-1227.22587519991
 10
2452.682601284818
 20
-1227.056502044383
 10
2452.666601413983
 20
-1226.889733342976
 10
2452.646472903998
 20
-1226.725485081039
 10
2452.622353376168
 20
-1226.563673243922
 10
2452.594380451797
 20
-1226.404213816978
 10
2452.562691752191
 20
-1226.247022785557
 10
2452.527424898655
 20
-1226.09201613501
 10
2452.488717512494
 20
-1225.939109850687
 10
2452.401531627516
 20
-1225.639262322122
 10
2452.302235067697
 20
-1225.346808082668
 10
2452.191928803479
 20
-1225.061075015134
 10
2452.071713805299
 20
-1224.781391002328
 10
2451.942691043599
 20
-1224.507083927058
 10
2451.805961488818
 20
-1224.237481672133
 10
2451.662626111397
 20
-1223.971912120358
 10
2451.513785881776
 20
-1223.709703154545
 10
2451.203994747692
 20
-1223.192678512029
 10
2450.885395850088
 20
-1222.681030807049
  0
LWPOLYLINE
  5
254
330
1F
100
AcDbEntity
  8
Ech.1_2
 62
   154
420
    21156
370
    20
100
AcDbPolyline
 90
      171
 70
     0
 43
0.0
 10
2420.946470074651
 20
-1217.022662146643
 10
2421.279842942989
 20
-1218.181548249396
 10
2421.439668622172
 20
-1218.762261870562
 10
2421.591261395371
 20
-1219.344500175475
 10
2421.731876960594
 20
-1219.92877139205
 10
2421.858771015845
 20
-1220.515583748203
 10
2421.916214882859
 20
-1220.810101674845
 10
2421.969199259131
 20
-1221.10544547185
 10
2422.017381106914
 20
-1221.401678667707
 10
2422.060417388457
 20
-1221.698864790906
 10
2422.097965066012
 20
-1221.997067369937
 10
2422.129681101828
 20
-1222.296349933287
 10
2422.155222458157
 20
-1222.596776009448
 10
2422.17424609725
 20
-1222.898409126909
 10
2422.186408981358
 20
-1223.201312814158
 10
2422.191368072729
 20
-1223.505550599686
 10
2422.188780333617
 20
-1223.811186011982
 10
2422.178302726271
 20
-1224.118282579536
 10
2422.15989546909
 20
-1224.426837943713
 10
2422.135205114649
 20
-1224.736483363499
 10
2422.075892918609
 20
-1225.357062830651
 10
2422.018204529081
 20
-1225.976057298124
 10
2421.995543932779
 20
-1226.283721468312
 10
2421.97997889333
 20
-1226.589502962177
 10
2421.97373927914
 20
-1226.892906304253
 10
2421.979054958621
 20
-1227.19343601907
 10
2421.998155800177
 20
-1227.490596631163
 10
2422.013572490613
 20
-1227.637758687604
 10
2422.03327167222
 20
-1227.783892665063
 10
2422.057532078551
 20
-1227.928936629107
 10
2422.086632443155
 20
-1228.072828645302
 10
2422.120851499586
 20
-1228.215506779216
 10
2422.160467981393
 20
-1228.356909096414
 10
2422.205760622127
 20
-1228.496973662464
 10
2422.25700815534
 20
-1228.635638542931
 10
2422.314489314582
 20
-1228.772841803382
 10
2422.378463380517
 20
-1228.90851913371
 10
2422.44891811212
 20
-1229.042573064365
 10
2422.52564181924
 20
-1229.174881768175
 10
2422.608418204728
 20
-1229.305322855342
 10
2422.697030971429
 20
-1229.433773936069
 10
2422.791263822193
 20
-1229.560112620556
 10
2422.890900459868
 20
-1229.684216519006
 10
2422.995724587302
 20
-1229.80596324162
 10
2423.105519907341
 20
-1229.925230398599
 10
2423.220070122836
 20
-1230.041895600146
 10
2423.339158936634
 20
-1230.155836456463
 10
2423.462570051583
 20
-1230.26693057775
 10
2423.590087170531
 20
-1230.37505557421
 10
2423.721493996326
 20
-1230.480089056044
 10
2423.856574231816
 20
-1230.581908633454
 10
2423.99511157985
 20
-1230.680391916642
 10
2424.136889743276
 20
-1230.775416515809
 10
2424.281692424941
 20
-1230.866860041157
 10
2424.429303327694
 20
-1230.954600102889
 10
2424.579506154382
 20
-1231.038514311204
 10
2424.732084607855
 20
-1231.118480276306
 10
2424.886822390959
 20
-1231.194375608395
 10
2425.043503206544
 20
-1231.266077917675
 10
2425.201910757457
 20
-1231.333464814345
 10
2425.361828746545
 20
-1231.396413908608
 10
2425.523040876658
 20
-1231.454802810666
 10
2425.685330850644
 20
-1231.508509130721
 10
2425.848482371351
 20
-1231.557410478973
 10
2426.012279141625
 20
-1231.601384465625
 10
2426.176504864316
 20
-1231.640308700879
 10
2426.340943242273
 20
-1231.674060794935
 10
2426.505377978342
 20
-1231.702518357997
 10
2426.669592775373
 20
-1231.725559000265
 10
2426.833371336212
 20
-1231.743060331941
 10
2426.996497363708
 20
-1231.754899963227
 10
2427.15875456071
 20
-1231.760955504325
 10
2427.319926630066
 20
-1231.761104565436
 10
2427.479797274622
 20
-1231.755224756763
 10
2427.638150197229
 20
-1231.743193688505
 10
2427.794769100732
 20
-1231.724888970866
 10
2427.949437687982
 20
-1231.700188214048
 10
2428.101939661825
 20
-1231.668969028251
 10
2428.252058725112
 20
-1231.631109023677
 10
2428.399578580686
 20
-1231.586485810529
 10
2428.5442829314
 20
-1231.534976999008
 10
2428.685955480099
 20
-1231.476460199314
 10
2428.824380353146
 20
-1231.410813926733
 10
2428.959396100296
 20
-1231.33803300395
 10
2429.0909487238
 20
-1231.258341888723
 10
2429.218996819905
 20
-1231.171991953242
 10
2429.343498984859
 20
-1231.079234569702
 10
2429.464413814907
 20
-1230.980321110294
 10
2429.581699906298
 20
-1230.87550294721
 10
2429.695315855277
 20
-1230.765031452643
 10
2429.805220258093
 20
-1230.649157998784
 10
2429.91137171099
 20
-1230.528133957828
 10
2430.013728810218
 20
-1230.402210701964
 10
2430.112250152022
 20
-1230.271639603387
 10
2430.206894332649
 20
-1230.136672034287
 10
2430.297619948347
 20
-1229.997559366859
 10
2430.384385595362
 20
-1229.854552973293
 10
2430.467149869941
 20
-1229.707904225781
 10
2430.545871368332
 20
-1229.557864496518
 10
2430.62050868678
 20
-1229.404685157694
 10
2430.691020421533
 20
-1229.248617581502
 10
2430.757365168838
 20
-1229.089913140133
 10
2430.819501524942
 20
-1228.928823205782
 10
2430.877388086091
 20
-1228.765599150639
 10
2430.930983448533
 20
-1228.600492346898
 10
2430.980246208514
 20
-1228.43375416675
 10
2431.025134962282
 20
-1228.265635982387
 10
2431.065608306083
 20
-1228.096389166003
 10
2431.101624836164
 20
-1227.926265089788
 10
2431.133143148772
 20
-1227.755515125936
 10
2431.160121840155
 20
-1227.58439064664
 10
2431.182519506558
 20
-1227.41314302409
 10
2431.200294744229
 20
-1227.242023630479
 10
2431.213406149415
 20
-1227.071283838001
 10
2431.221812318363
 20
-1226.901175018846
 10
2431.225471847318
 20
-1226.731948545208
 10
2431.224343332529
 20
-1226.563855789278
 10
2431.218385370244
 20
-1226.397148123249
 10
2431.207556556707
 20
-1226.232076919314
 10
2431.191815488167
 20
-1226.068893549663
 10
2431.171120760869
 20
-1225.907849386491
 10
2431.145430971062
 20
-1225.749195801989
 10
2431.114704714991
 20
-1225.593184168349
 10
2431.078900588904
 20
-1225.440065857763
 10
2431.037977189048
 20
-1225.290092242425
 10
2430.99189311167
 20
-1225.143514694525
 10
2430.940606953017
 20
-1225.000584586258
 10
2430.884077309334
 20
-1224.861553289814
 10
2430.822262776871
 20
-1224.726672177386
 10
2430.755121951873
 20
-1224.596192621167
 10
2430.682621143878
 20
-1224.470351878251
 10
2430.604850673845
 20
-1224.349160268496
 10
2430.522000924665
 20
-1224.232445001371
 10
2430.434265133378
 20
-1224.12002806333
 10
2430.341836537028
 20
-1224.01173144083
 10
2430.244908372657
 20
-1223.90737712033
 10
2430.143673877304
 20
-1223.806787088285
 10
2430.038326288013
 20
-1223.709783331152
 10
2429.929058841824
 20
-1223.616187835388
 10
2429.81606477578
 20
-1223.525822587449
 10
2429.699537326922
 20
-1223.438509573793
 10
2429.579669732293
 20
-1223.354070780876
 10
2429.456655228933
 20
-1223.272328195156
 10
2429.201958444188
 20
-1223.116219591129
 10
2428.936992869023
 20
-1222.968759653369
 10
2428.663304399769
 20
-1222.828524273528
 10
2428.382438932762
 20
-1222.694089343261
 10
2428.095942364334
 20
-1222.564030754223
 10
2427.51223950855
 20
-1222.311346166447
 10
2426.924563003085
 20
-1222.059077643436
 10
2426.633099372556
 20
-1221.929539135353
 10
2426.345280018607
 20
-1221.795832318423
 10
2426.062650837572
 20
-1221.656533084302
 10
2425.786686507378
 20
-1221.510284298291
 10
2425.517842432916
 20
-1221.356687348061
 10
2425.255812437979
 20
-1221.196059810643
 10
2425.000272042593
 20
-1221.028736475903
 10
2424.75089676678
 20
-1220.855052133709
 10
2424.507362130561
 20
-1220.675341573924
 10
2424.269343653958
 20
-1220.489939586417
 10
2424.036516856997
 20
-1220.299180961052
 10
2423.808557259697
 20
-1220.103400487696
 10
2423.585140382082
 20
-1219.902932956214
 10
2423.365941744174
 20
-1219.698113156474
 10
2423.150636865998
 20
-1219.489275878341
 10
2422.938901267572
 20
-1219.276755911681
 10
2422.730410468921
 20
-1219.060888046361
 10
2422.524839990068
 20
-1218.842007072246
 10
2422.121162071844
 20
-1218.396544957095
 10
2421.72527167308
 20
-1217.943047885159
 10
2420.946470074651
 20
-1217.022662146643
  0
LWPOLYLINE
  5
255
330
1F
100
AcDbEntity
  8
Ech.1_2
 62
   154
420
    21156
370
    20
100
AcDbPolyline
 90
       70
 70
     0
 43
0.0
 10
2429.724251095668
 20
-1224.476043271381
 10
2429.68108370161
 20
-1224.747350700106
 10
2429.637928991133
 20
-1225.023190358524
 10
2429.594799647814
 20
-1225.308094476328
 10
2429.551708355236
 20
-1225.606595283211
 10
2429.530180941593
 20
-1225.762360766836
 10
2429.508667796977
 20
-1225.923225008865
 10
2429.487170506836
 20
-1226.089754538011
 10
2429.465690656617
 20
-1226.262515882984
 10
2429.444229831768
 20
-1226.442075572497
 10
2429.422789617736
 20
-1226.629000135261
 10
2429.401371599969
 20
-1226.823856099987
 10
2429.380026947128
 20
-1227.026970099144
 10
2429.359226675435
 20
-1227.236637435567
 10
2429.339653112762
 20
-1227.450131032384
 10
2429.306921851108
 20
-1227.877657613298
 10
2429.295132020439
 20
-1228.086220900442
 10
2429.28730463542
 20
-1228.28767105408
 10
2429.284123630205
 20
-1228.479273225732
 10
2429.286272938952
 20
-1228.658292566925
 10
2429.289560190484
 20
-1228.74222903595
 10
2429.294436495817
 20
-1228.821994229182
 10
2429.300987346718
 20
-1228.897246290561
 10
2429.309298234957
 20
-1228.967643364027
 10
2429.319454652305
 20
-1229.032843593523
 10
2429.331542090531
 20
-1229.092505122986
 10
2429.345646041402
 20
-1229.146286096359
 10
2429.361851996691
 20
-1229.193844657582
 10
2429.380245448167
 20
-1229.234838950596
 10
2429.400911887598
 20
-1229.26892711934
 10
2429.423936806756
 20
-1229.295767307756
 10
2429.449405697407
 20
-1229.315017659784
 10
2429.477404051324
 20
-1229.326336319364
 10
2429.508009916097
 20
-1229.329398635417
 10
2429.541151870826
 20
-1229.32422540829
 10
2429.576620194198
 20
-1229.311157078119
 10
2429.614199958558
 20
-1229.290546117932
 10
2429.653676236252
 20
-1229.262745000753
 10
2429.694834099625
 20
-1229.228106199608
 10
2429.737458621021
 20
-1229.186982187524
 10
2429.781334872786
 20
-1229.139725437526
 10
2429.826247927265
 20
-1229.08668842264
 10
2429.871982856805
 20
-1229.028223615892
 10
2429.918324733748
 20
-1228.964683490308
 10
2429.965058630442
 20
-1228.896420518914
 10
2430.011969619231
 20
-1228.823787174735
 10
2430.105463162474
 20
-1228.666819260129
 10
2430.197085942242
 20
-1228.496599530697
 10
2430.285118537293
 20
-1228.315947770645
 10
2430.367841526391
 20
-1228.127683764181
 10
2430.443535488297
 20
-1227.934627295513
 10
2430.510481001774
 20
-1227.739598148847
 10
2430.566958645582
 20
-1227.545416108391
 10
2430.611254658429
 20
-1227.354893659465
 10
2430.642404045463
 20
-1227.169877701792
 10
2430.660931737621
 20
-1226.990293773773
 10
2430.667538940172
 20
-1226.815840095981
 10
2430.662926858388
 20
-1226.646214888993
 10
2430.64779669754
 20
-1226.481116373381
 10
2430.6228496629
 20
-1226.320242769722
 10
2430.588786959736
 20
-1226.163292298591
 10
2430.546309793322
 20
-1226.009963180562
 10
2430.496119368927
 20
-1225.85995363621
 10
2430.438916891823
 20
-1225.712961886109
 10
2430.375403567281
 20
-1225.568686150835
 10
2430.306280600571
 20
-1225.426824650963
 10
2430.232249196963
 20
-1225.287075607067
 10
2430.072265900144
 20
-1225.012707769503
 10
2429.90106331899
 20
-1224.743168402741
 10
2429.724251095668
 20
-1224.476043271381
  0
LWPOLYLINE
  5
256
330
1F
100
AcDbEntity
  8
Ech.1_2
 62
   154
420
    21156
370
    20
100
AcDbPolyline
 90
      170
 70
     0
 43
0.0
 10
2439.697849852419
 20
-1201.951975985947
 10
2439.979478209508
 20
-1202.479716719643
 10
2440.256286043076
 20
-1203.008474530192
 10
2440.523452829599
 20
-1203.539266494446
 10
2440.651914416618
 20
-1203.80574312073
 10
2440.776158045554
 20
-1204.07310968926
 10
2440.895581150969
 20
-1204.341493334643
 10
2441.00958116742
 20
-1204.611021191486
 10
2441.117555529469
 20
-1204.881820394395
 10
2441.218901671675
 20
-1205.154018077977
 10
2441.313017028597
 20
-1205.427741376838
 10
2441.399299034796
 20
-1205.703117425585
 10
2441.47714512483
 20
-1205.980273358825
 10
2441.54595273326
 20
-1206.259336311164
 10
2441.605119294644
 20
-1206.540433417209
 10
2441.654042243545
 20
-1206.823691811567
 10
2441.692119014519
 20
-1207.109238628844
 10
2441.718747042129
 20
-1207.397201003647
 10
2441.733323762908
 20
-1207.687706070138
 10
2441.735768543114
 20
-1207.980763536814
 10
2441.72799165858
 20
-1208.275935190035
 10
2441.712378022497
 20
-1208.572676030502
 10
2441.667180148445
 20
-1209.168685275986
 10
2441.619254226487
 20
-1209.76443127889
 10
2441.60023053052
 20
-1210.060843066132
 10
2441.587679562149
 20
-1210.355554044838
 10
2441.583986234565
 20
-1210.648019215711
 10
2441.591535460958
 20
-1210.937693579452
 10
2441.612712154521
 20
-1211.224032136766
 10
2441.629156086863
 20
-1211.365780175733
 10
2441.649901228443
 20
-1211.506489888356
 10
2441.675245693411
 20
-1211.646093149724
 10
2441.705487595916
 20
-1211.784521834924
 10
2441.740925050105
 20
-1211.921707819044
 10
2441.78185617013
 20
-1212.057582977173
 10
2441.828579070137
 20
-1212.192079184397
 10
2441.881391864276
 20
-1212.325128315806
 10
2441.940555172553
 20
-1212.456659364652
 10
2442.006019681895
 20
-1212.58657750245
 10
2442.077583193011
 20
-1212.714776149739
 10
2442.155042429856
 20
-1212.841148644299
 10
2442.238194116386
 20
-1212.96558832391
 10
2442.326834976559
 20
-1213.087988526351
 10
2442.420761734328
 20
-1213.208242589402
 10
2442.519771113651
 20
-1213.326243850842
 10
2442.623659838483
 20
-1213.44188564845
 10
2442.73222463278
 20
-1213.555061320006
 10
2442.8452622205
 20
-1213.66566420329
 10
2442.962569325596
 20
-1213.773587636081
 10
2443.083942672025
 20
-1213.878724956159
 10
2443.209178983744
 20
-1213.980969501303
 10
2443.338074984707
 20
-1214.080214609293
 10
2443.470427398873
 20
-1214.176353617909
 10
2443.606032950194
 20
-1214.269279864929
 10
2443.744688362629
 20
-1214.358886688133
 10
2443.886190360133
 20
-1214.445067425301
 10
2444.030335666661
 20
-1214.527715414212
 10
2444.176921006172
 20
-1214.606723992646
 10
2444.325743102619
 20
-1214.681986498383
 10
2444.476598679958
 20
-1214.753396269202
 10
2444.629284462147
 20
-1214.820846642881
 10
2444.78359717314
 20
-1214.884230957202
 10
2444.939333536895
 20
-1214.943442549944
 10
2445.096290277365
 20
-1214.998374758885
 10
2445.254264118509
 20
-1215.048920921806
 10
2445.413051784281
 20
-1215.094974376485
 10
2445.572449998638
 20
-1215.136428460704
 10
2445.732255485535
 20
-1215.17317651224
 10
2445.892264968929
 20
-1215.205111868874
 10
2446.052275172776
 20
-1215.232127868385
 10
2446.212082821031
 20
-1215.254117848553
 10
2446.37148463765
 20
-1215.270975147157
 10
2446.53027734659
 20
-1215.282593101976
 10
2446.688257671807
 20
-1215.28886505079
 10
2446.845222337255
 20
-1215.28968433138
 10
2447.000968066893
 20
-1215.284944281523
 10
2447.155291584674
 20
-1215.274538239
 10
2447.307989614556
 20
-1215.258359541591
 10
2447.458858880494
 20
-1215.236301527074
 10
2447.607696106444
 20
-1215.20825753323
 10
2447.754298016362
 20
-1215.174120897837
 10
2447.898461334204
 20
-1215.133784958676
 10
2448.039982783926
 20
-1215.087143053525
 10
2448.178659089484
 20
-1215.034088520164
 10
2448.314286974835
 20
-1214.974514696374
 10
2448.446675377754
 20
-1214.908338041797
 10
2448.575738856542
 20
-1214.83567496526
 10
2448.701446063861
 20
-1214.756744281093
 10
2448.823766090878
 20
-1214.671765633761
 10
2448.942668028763
 20
-1214.580958667731
 10
2449.058120968685
 20
-1214.484543027467
 10
2449.170094001811
 20
-1214.382738357435
 10
2449.278556219313
 20
-1214.275764302101
 10
2449.383476712357
 20
-1214.16384050593
 10
2449.484824572113
 20
-1214.047186613388
 10
2449.58256888975
 20
-1213.92602226894
 10
2449.676678756437
 20
-1213.800567117053
 10
2449.767123263342
 20
-1213.671040802191
 10
2449.853871501635
 20
-1213.53766296882
 10
2449.936892562484
 20
-1213.400653261405
 10
2450.016155537057
 20
-1213.260231324413
 10
2450.091629516525
 20
-1213.116616802309
 10
2450.163283592055
 20
-1212.970029339557
 10
2450.231086854817
 20
-1212.820688580626
 10
2450.295008395979
 20
-1212.668814169978
 10
2450.355017306709
 20
-1212.51462575208
 10
2450.411082678178
 20
-1212.358342971397
 10
2450.463173601554
 20
-1212.200185472396
 10
2450.511259168006
 20
-1212.040372899542
 10
2450.555308468703
 20
-1211.8791248973
 10
2450.595290594812
 20
-1211.716661110135
 10
2450.631174637504
 20
-1211.553201182514
 10
2450.662929687946
 20
-1211.388964758902
 10
2450.690524837309
 20
-1211.224171483764
 10
2450.71392917676
 20
-1211.059041001567
 10
2450.73311179747
 20
-1210.893792956775
 10
2450.748041790605
 20
-1210.728646993854
 10
2450.758688247336
 20
-1210.56382275727
 10
2450.76502025883
 20
-1210.399539891488
 10
2450.767006916259
 20
-1210.236018040975
 10
2450.764617310787
 20
-1210.073476850194
 10
2450.757820533587
 20
-1209.912135963612
 10
2450.746585675827
 20
-1209.752215025695
 10
2450.730881828675
 20
-1209.593933680909
 10
2450.710678083299
 20
-1209.437511573717
 10
2450.68594353087
 20
-1209.283168348587
 10
2450.656647262555
 20
-1209.131123649983
 10
2450.622758369524
 20
-1208.981597122373
 10
2450.584245942946
 20
-1208.83480841022
 10
2450.54107907399
 20
-1208.69097715799
 10
2450.493226853823
 20
-1208.550323010149
 10
2450.440658373614
 20
-1208.413065611163
 10
2450.383342724534
 20
-1208.279424605497
 10
2450.321248997752
 20
-1208.149619637617
 10
2450.254348280747
 20
-1208.02386652455
 10
2450.182687191803
 20
-1207.902236271698
 10
2450.106409282054
 20
-1207.784614039692
 10
2450.025664463044
 20
-1207.670872794646
 10
2449.940602646318
 20
-1207.560885502674
 10
2449.851373743422
 20
-1207.454525129891
 10
2449.758127665901
 20
-1207.351664642411
 10
2449.6610143253
 20
-1207.252177006349
 10
2449.560183633163
 20
-1207.15593518782
 10
2449.455785501038
 20
-1207.062812152938
 10
2449.347969840468
 20
-1206.972680867817
 10
2449.236886562998
 20
-1206.885414298572
 10
2449.122685580174
 20
-1206.800885411318
 10
2448.885530144643
 20
-1206.639532547238
 10
2448.637702826239
 20
-1206.487606004494
 10
2448.380402917319
 20
-1206.344089512002
 10
2448.114829710248
 20
-1206.207966798679
 10
2447.842182497386
 20
-1206.078221593439
 10
2447.563660571093
 20
-1205.953837625199
 10
2447.280463223733
 20
-1205.833798622875
 10
2446.993789747665
 20
-1205.717088315384
 10
2445.836320403545
 20
-1205.263208612058
 10
2445.55025566936
 20
-1205.147897712468
 10
2445.267764375676
 20
-1205.029939968387
 10
2444.989011074746
 20
-1204.909183277687
 10
2444.713826429823
 20
-1204.785754387491
 10
2444.442040504909
 20
-1204.659780545396
 10
2444.173483364
 20
-1204.531388998996
 10
2443.645375690203
 20
-1204.26786178366
 10
2443.128143920429
 20
-1203.996190722246
 10
2442.620428566676
 20
-1203.717393795511
 10
2442.12087014094
 20
-1203.432488984216
 10
2441.628109155218
 20
-1203.142494269122
 10
2441.140786121509
 20
-1202.848427630988
 10
2440.657541551807
 20
-1202.551307050574
 10
2439.697849852419
 20
-1201.951975985947
  0
LWPOLYLINE
  5
257
330
1F
100
AcDbEntity
  8
Ech.1_2
 62
   154
420
    21156
370
    20
100
AcDbPolyline
 90
      167
 70
     0
 43
0.0
 10
2420.133744846144
 20
-1205.360560791873
 10
2420.454108912222
 20
-1205.853297907631
 10
2420.768188154779
 20
-1206.347511754818
 10
2420.920906959888
 20
-1206.595633931269
 10
2421.069697750297
 20
-1206.844679064862
 10
2421.213774923066
 20
-1207.094831747028
 10
2421.352352875253
 20
-1207.346276569194
 10
2421.484646003921
 20
-1207.599198122789
 10
2421.609868706129
 20
-1207.853780999241
 10
2421.727235378937
 20
-1208.110209789979
 10
2421.835960419404
 20
-1208.368669086433
 10
2421.935258224591
 20
-1208.629343480029
 10
2422.024343191558
 20
-1208.892417562197
 10
2422.102429717365
 20
-1209.158075924366
 10
2422.168732199071
 20
-1209.426503157964
 10
2422.222465033737
 20
-1209.69788385442
 10
2422.262842618422
 20
-1209.972402605162
 10
2422.289085128913
 20
-1210.25024262653
 10
2422.301355754627
 20
-1210.531362737847
 10
2422.301797602383
 20
-1210.815250622562
 10
2422.292803444127
 20
-1211.101334554479
 10
2422.276766051807
 20
-1211.389042807396
 10
2422.256078197368
 20
-1211.677803655115
 10
2422.210322189922
 20
-1212.256196230161
 10
2422.190039580808
 20
-1212.544684505089
 10
2422.174677597362
 20
-1212.831938470023
 10
2422.166629011531
 20
-1213.117386398762
 10
2422.16828659526
 20
-1213.400456565108
 10
2422.182043120497
 20
-1213.68057724286
 10
2422.194206227414
 20
-1213.819352859077
 10
2422.210291359188
 20
-1213.95717670582
 10
2422.230597612313
 20
-1214.093977317316
 10
2422.255424083281
 20
-1214.229683227789
 10
2422.285069868586
 20
-1214.364222971465
 10
2422.31983406472
 20
-1214.497525082568
 10
2422.360015768179
 20
-1214.629518095323
 10
2422.405914075453
 20
-1214.760130543956
 10
2422.457827245017
 20
-1214.889290921926
 10
2422.515909653237
 20
-1215.01692072336
 10
2422.580009843959
 20
-1215.142926564771
 10
2422.649937235756
 20
-1215.267213159374
 10
2422.725501247206
 20
-1215.389685220382
 10
2422.806511296883
 20
-1215.510247461008
 10
2422.892776803364
 20
-1215.628804594467
 10
2422.984107185224
 20
-1215.745261333973
 10
2423.080311861038
 20
-1215.859522392738
 10
2423.181200249383
 20
-1215.971492483977
 10
2423.286581768834
 20
-1216.081076320904
 10
2423.396265837966
 20
-1216.188178616732
 10
2423.510061875355
 20
-1216.292704084676
 10
2423.627779299577
 20
-1216.394557437948
 10
2423.749227529207
 20
-1216.493643389762
 10
2423.874215982821
 20
-1216.589866653334
 10
2424.002554078994
 20
-1216.683131941875
 10
2424.134051236303
 20
-1216.7733439686
 10
2424.268516873322
 20
-1216.860407446723
 10
2424.405760408628
 20
-1216.944227089457
 10
2424.545591260795
 20
-1217.024707610016
 10
2424.687818848401
 20
-1217.101753721614
 10
2424.832252590019
 20
-1217.175270137465
 10
2424.978701904226
 20
-1217.245161570782
 10
2425.126976209598
 20
-1217.31133273478
 10
2425.276884924709
 20
-1217.373688342671
 10
2425.428237468137
 20
-1217.432133107671
 10
2425.580843258454
 20
-1217.486571742991
 10
2425.734511714239
 20
-1217.536908961847
 10
2425.889052254067
 20
-1217.583049477452
 10
2426.044274296514
 20
-1217.62489800302
 10
2426.199987260153
 20
-1217.662359251763
 10
2426.356000563562
 20
-1217.695337936898
 10
2426.512123625315
 20
-1217.723738771636
 10
2426.66816586399
 20
-1217.747466469192
 10
2426.82393669816
 20
-1217.76642574278
 10
2426.979245546402
 20
-1217.780521305613
 10
2427.133901827292
 20
-1217.789657870905
 10
2427.287714959404
 20
-1217.79374015187
 10
2427.440494361315
 20
-1217.792672861721
 10
2427.5920494516
 20
-1217.786360713673
 10
2427.742189648835
 20
-1217.774708420938
 10
2427.890724371596
 20
-1217.757620696731
 10
2428.037463038457
 20
-1217.735002254267
 10
2428.182215067995
 20
-1217.706757806757
 10
2428.324789878785
 20
-1217.672792067417
 10
2428.464996889404
 20
-1217.63300974946
 10
2428.602645518425
 20
-1217.587315566099
 10
2428.737545184426
 20
-1217.535614230548
 10
2428.869505305981
 20
-1217.477810456022
 10
2428.998348101049
 20
-1217.413831641657
 10
2429.123998349143
 20
-1217.343786969078
 10
2429.246430111559
 20
-1217.267872968096
 10
2429.365617762589
 20
-1217.186286723271
 10
2429.481535676521
 20
-1217.099225319166
 10
2429.594158227641
 20
-1217.00688584034
 10
2429.703459790241
 20
-1216.909465371356
 10
2429.809414738607
 20
-1216.807160996773
 10
2429.911997447029
 20
-1216.700169801154
 10
2430.011182289796
 20
-1216.588688869058
 10
2430.106943641194
 20
-1216.472915285048
 10
2430.199255875515
 20
-1216.353046133684
 10
2430.288093367045
 20
-1216.229278499526
 10
2430.373430490074
 20
-1216.101809467137
 10
2430.455241618891
 20
-1215.970836121078
 10
2430.533501127783
 20
-1215.836555545908
 10
2430.608183391041
 20
-1215.69916482619
 10
2430.67926278295
 20
-1215.558861046483
 10
2430.746713677801
 20
-1215.41584129135
 10
2430.810510449884
 20
-1215.270302645352
 10
2430.870627473485
 20
-1215.122442193049
 10
2430.927039122893
 20
-1214.972457019002
 10
2430.979719772397
 20
-1214.820544207773
 10
2431.028643796286
 20
-1214.666900843922
 10
2431.073785568849
 20
-1214.511724012011
 10
2431.115119464373
 20
-1214.3552107966
 10
2431.186261121461
 20
-1214.038963553523
 10
2431.241863761861
 20
-1213.719735791181
 10
2431.28172237988
 20
-1213.399104186061
 10
2431.295683616219
 20
-1213.238754653862
 10
2431.305631969828
 20
-1213.078645414652
 10
2431.311541814996
 20
-1212.918973552991
 10
2431.313387526013
 20
-1212.759936153442
 10
2431.311143477166
 20
-1212.601730300564
 10
2431.304784042744
 20
-1212.444553078919
 10
2431.294283597037
 20
-1212.288601573067
 10
2431.279616514331
 20
-1212.134072867571
 10
2431.260757168916
 20
-1211.98116404699
 10
2431.237679935081
 20
-1211.830072195887
 10
2431.210359187114
 20
-1211.680994398821
 10
2431.178769299304
 20
-1211.534127740354
 10
2431.142884645939
 20
-1211.389669305047
 10
2431.102679601308
 20
-1211.247816177462
 10
2431.058128539699
 20
-1211.108765442158
 10
2431.009205835403
 20
-1210.972714183697
 10
2430.955885862706
 20
-1210.839859486641
 10
2430.898142995896
 20
-1210.710398435549
 10
2430.835951609264
 20
-1210.584528114984
 10
2430.769308743885
 20
-1210.462402353608
 10
2430.698313881789
 20
-1210.343979488065
 10
2430.623095431165
 20
-1210.229162654107
 10
2430.54378180193
 20
-1210.117854984194
 10
2430.460501403993
 20
-1210.009959610782
 10
2430.373382647273
 20
-1209.905379666332
 10
2430.28255394168
 20
-1209.804018283301
 10
2430.18814369713
 20
-1209.705778594148
 10
2430.090280323537
 20
-1209.610563731331
 10
2429.989092230812
 20
-1209.518276827309
 10
2429.884707828873
 20
-1209.428821014541
 10
2429.666863737002
 20
-1209.258015192597
 10
2429.437775327234
 20
-1209.097371325169
 10
2429.198469878881
 20
-1208.946114471924
 10
2428.949974671254
 20
-1208.80346969253
 10
2428.693316983664
 20
-1208.668662046655
 10
2428.429524095423
 20
-1208.540916593967
 10
2428.159623285842
 20
-1208.419458394134
 10
2427.884641834232
 20
-1208.303512506823
 10
2427.605607019905
 20
-1208.192303991703
 10
2427.039486420343
 20
-1207.980999316707
 10
2426.469479721647
 20
-1207.779344846489
 10
2425.9037710675
 20
-1207.581164550397
 10
2425.347476808058
 20
-1207.382396417001
 10
2424.800252954656
 20
-1207.182741159159
 10
2424.261192466689
 20
-1206.982287489315
 10
2423.729388303553
 20
-1206.781124119915
 10
2423.203933424643
 20
-1206.579339763403
 10
2422.683920789358
 20
-1206.377023132223
 10
2422.168443357092
 20
-1206.17426293882
 10
2421.147465939202
 20
-1205.767766715125
 10
2420.133744846144
 20
-1205.360560791873
  0
LWPOLYLINE
  5
258
330
1F
100
AcDbEntity
  8
Ech.1_2
 62
   154
420
    21156
370
    20
100
AcDbPolyline
 90
       70
 70
     0
 43
0.0
 10
2429.832103908699
 20
-1210.512503528738
 10
2429.788936514641
 20
-1210.783810957463
 10
2429.745781804163
 20
-1211.059650615881
 10
2429.702652460845
 20
-1211.344554733685
 10
2429.659561168266
 20
-1211.643055540567
 10
2429.638033754622
 20
-1211.798821024192
 10
2429.616520610007
 20
-1211.959685266221
 10
2429.595023319866
 20
-1212.126214795367
 10
2429.573543469647
 20
-1212.29897614034
 10
2429.552082644797
 20
-1212.478535829852
 10
2429.530642430766
 20
-1212.665460392616
 10
2429.509224412998
 20
-1212.860316357342
 10
2429.487879760157
 20
-1213.063430356498
 10
2429.467079488464
 20
-1213.273097692921
 10
2429.447505925791
 20
-1213.486591289738
 10
2429.414774664137
 20
-1213.914117870651
 10
2429.402984833469
 20
-1214.122681157797
 10
2429.395157448449
 20
-1214.324131311433
 10
2429.391976443234
 20
-1214.515733483086
 10
2429.39412575198
 20
-1214.694752824278
 10
2429.397413003514
 20
-1214.778689293304
 10
2429.402289308846
 20
-1214.858454486535
 10
2429.408840159747
 20
-1214.933706547914
 10
2429.417151047987
 20
-1215.004103621381
 10
2429.427307465335
 20
-1215.069303850876
 10
2429.43939490356
 20
-1215.12896538034
 10
2429.453498854432
 20
-1215.182746353713
 10
2429.469704809721
 20
-1215.230304914936
 10
2429.488098261197
 20
-1215.271299207949
 10
2429.508764700628
 20
-1215.305387376693
 10
2429.531789619785
 20
-1215.332227565109
 10
2429.557258510437
 20
-1215.351477917137
 10
2429.585256864354
 20
-1215.362796576718
 10
2429.615862729126
 20
-1215.36585889277
 10
2429.649004683855
 20
-1215.360685665644
 10
2429.684473007228
 20
-1215.347617335473
 10
2429.722052771588
 20
-1215.327006375286
 10
2429.761529049282
 20
-1215.299205258107
 10
2429.802686912654
 20
-1215.264566456962
 10
2429.84531143405
 20
-1215.223442444878
 10
2429.889187685816
 20
-1215.17618569488
 10
2429.934100740295
 20
-1215.123148679994
 10
2429.979835669834
 20
-1215.064683873246
 10
2430.026177546778
 20
-1215.001143747663
 10
2430.072911443472
 20
-1214.932880776268
 10
2430.11982243226
 20
-1214.86024743209
 10
2430.213315975504
 20
-1214.703279517484
 10
2430.304938755271
 20
-1214.533059788051
 10
2430.392971350323
 20
-1214.352408028
 10
2430.475694339421
 20
-1214.164144021537
 10
2430.551388301327
 20
-1213.971087552868
 10
2430.618333814804
 20
-1213.776058406203
 10
2430.674811458612
 20
-1213.581876365747
 10
2430.719107471459
 20
-1213.391353916821
 10
2430.750256858493
 20
-1213.206337959148
 10
2430.76878455065
 20
-1213.026754031129
 10
2430.775391753201
 20
-1212.852300353337
 10
2430.770779671418
 20
-1212.682675146348
 10
2430.75564951057
 20
-1212.517576630737
 10
2430.730702475929
 20
-1212.356703027079
 10
2430.696639772766
 20
-1212.199752555948
 10
2430.654162606352
 20
-1212.046423437919
 10
2430.603972181957
 20
-1211.896413893566
 10
2430.546769704853
 20
-1211.749422143466
 10
2430.483256380311
 20
-1211.605146408192
 10
2430.414133413601
 20
-1211.46328490832
 10
2430.340102009995
 20
-1211.323535864424
 10
2430.180118713175
 20
-1211.04916802686
 10
2430.008916132021
 20
-1210.779628660098
 10
2429.832103908699
 20
-1210.512503528738
  0
LWPOLYLINE
  5
259
330
1F
100
AcDbEntity
  8
Ech.1_2
 62
   154
420
    21156
370
    20
100
AcDbPolyline
 90
       70
 70
     0
 43
0.0
 10
2448.264514321584
 20
-1207.547843102493
 10
2448.221346927526
 20
-1207.819150531219
 10
2448.178192217048
 20
-1208.094990189637
 10
2448.13506287373
 20
-1208.379894307441
 10
2448.091971581151
 20
-1208.678395114324
 10
2448.070444167509
 20
-1208.834160597949
 10
2448.048931022893
 20
-1208.995024839979
 10
2448.027433732751
 20
-1209.161554369124
 10
2448.005953882533
 20
-1209.334315714098
 10
2447.984493057683
 20
-1209.513875403611
 10
2447.963052843651
 20
-1209.700799966374
 10
2447.941634825884
 20
-1209.895655931101
 10
2447.920290173043
 20
-1210.098769930258
 10
2447.89948990135
 20
-1210.308437266681
 10
2447.879916338677
 20
-1210.521930863498
 10
2447.847185077023
 20
-1210.949457444412
 10
2447.835395246354
 20
-1211.158020731558
 10
2447.827567861335
 20
-1211.359470885195
 10
2447.824386856119
 20
-1211.551073056848
 10
2447.826536164866
 20
-1211.73009239804
 10
2447.829823416399
 20
-1211.814028867066
 10
2447.834699721732
 20
-1211.893794060298
 10
2447.841250572634
 20
-1211.969046121677
 10
2447.849561460872
 20
-1212.039443195143
 10
2447.85971787822
 20
-1212.104643424638
 10
2447.871805316445
 20
-1212.164304954102
 10
2447.885909267317
 20
-1212.218085927475
 10
2447.902115222606
 20
-1212.265644488698
 10
2447.920508674082
 20
-1212.306638781711
 10
2447.941175113514
 20
-1212.340726950456
 10
2447.96420003267
 20
-1212.367567138871
 10
2447.989668923322
 20
-1212.386817490899
 10
2448.01766727724
 20
-1212.398136150479
 10
2448.048273142012
 20
-1212.401198466532
 10
2448.081415096741
 20
-1212.396025239405
 10
2448.116883420113
 20
-1212.382956909235
 10
2448.154463184474
 20
-1212.362345949047
 10
2448.193939462168
 20
-1212.334544831868
 10
2448.235097325541
 20
-1212.299906030724
 10
2448.277721846937
 20
-1212.258782018639
 10
2448.321598098702
 20
-1212.211525268641
 10
2448.366511153182
 20
-1212.158488253755
 10
2448.412246082721
 20
-1212.100023447007
 10
2448.458587959665
 20
-1212.036483321423
 10
2448.505321856359
 20
-1211.968220350029
 10
2448.552232845147
 20
-1211.89558700585
 10
2448.645726388391
 20
-1211.738619091244
 10
2448.737349168158
 20
-1211.568399361811
 10
2448.82538176321
 20
-1211.387747601759
 10
2448.908104752308
 20
-1211.199483595295
 10
2448.983798714215
 20
-1211.006427126627
 10
2449.050744227691
 20
-1210.811397979961
 10
2449.107221871499
 20
-1210.617215939505
 10
2449.151517884347
 20
-1210.426693490579
 10
2449.182667271381
 20
-1210.241677532906
 10
2449.201194963538
 20
-1210.062093604887
 10
2449.207802166088
 20
-1209.887639927095
 10
2449.203190084305
 20
-1209.718014720106
 10
2449.188059923457
 20
-1209.552916204495
 10
2449.163112888816
 20
-1209.392042600836
 10
2449.129050185653
 20
-1209.235092129705
 10
2449.086573019239
 20
-1209.081763011676
 10
2449.036382594844
 20
-1208.931753467324
 10
2448.979180117739
 20
-1208.784761717223
 10
2448.915666793197
 20
-1208.640485981949
 10
2448.846543826487
 20
-1208.498624482076
 10
2448.772512422879
 20
-1208.358875438179
 10
2448.61252912606
 20
-1208.084507600615
 10
2448.441326544906
 20
-1207.814968233854
 10
2448.264514321584
 20
-1207.547843102493
  0
HATCH
  5
25A
330
1F
100
AcDbEntity
  8
Ech.1_2
 62
    35
420
  9529928
440
 33554687
370
    20
100
AcDbHatch
 10
0.0
 20
0.0
 30
0.0
210
0.0
220
0.0
230
1.0
  2
SOLID
 70
     1
 71
     1
 91
        1
 92
        3
 72
     0
 73
     1
 93
        4
 10
2645.161171917685
 20
-1407.628771471163
 10
2645.161171917685
 20
-1380.628771471167
 10
2523.164479658328
 20
-1380.628771471211
 10
2523.164479658328
 20
-1407.628771471207
 97
        0
 75
     0
 76
     1
 98
        0
  0
LWPOLYLINE
  5
25B
330
1F
100
AcDbEntity
  8
Ech.1_2
 62
   190
370
    20
100
AcDbPolyline
 90
        5
 70
     0
 43
0.0
 10
2645.161171917685
 20
-1407.628771471163
 10
2645.161171917685
 20
-1380.628771471167
 10
2523.164479658328
 20
-1380.628771471211
 10
2523.164479658328
 20
-1407.628771471207
 10
2645.161171917685
 20
-1407.628771471163
  0
HATCH
  5
25C
330
1F
100
AcDbEntity
  8
Ech.1_2
 62
    35
420
  9529928
440
 33554687
370
    20
100
AcDbHatch
 10
0.0
 20
0.0
 30
0.0
210
0.0
220
0.0
230
1.0
  2
SOLID
 70
     1
 71
     1
 91
        1
 92
        3
 72
     0
 73
     1
 93
        4
 10
2520.16447965847
 20
-1284.658068698905
 10
2520.16447965847
 20
-1375.628771471211
 10
2547.16447965847
 20
-1375.628771471211
 10
2547.16447965847
 20
-1284.658068698905
 97
        0
 75
     0
 76
     1
 98
        0
  0
LWPOLYLINE
  5
25D
330
1F
100
AcDbEntity
  8
Ech.1_2
 62
   190
370
    20
100
AcDbPolyline
 90
        5
 70
     0
 43
0.0
 10
2520.16447965847
 20
-1284.658068698905
 10
2520.16447965847
 20
-1375.628771471211
 10
2547.16447965847
 20
-1375.628771471211
 10
2547.16447965847
 20
-1284.658068698905
 10
2520.16447965847
 20
-1284.658068698905
  0
LWPOLYLINE
  5
25E
330
1F
100
AcDbEntity
  8
Ech.1_2
 62
     7
370
    20
100
AcDbPolyline
 90
        5
 70
     0
 43
0.0
 10
2523.164479658328
 20
-1407.628771471207
 10
2645.161171917685
 20
-1407.628771471171
 10
2645.161171917682
 20
-1380.628771471167
 10
2523.164479658325
 20
-1380.628771471207
 10
2523.164479658328
 20
-1407.628771471207
  0
LWPOLYLINE
  5
25F
330
1F
100
AcDbEntity
  8
Ech.1_2
 62
     7
370
    20
100
AcDbPolyline
 90
        5
 70
     0
 43
0.0
 10
2547.16447965847
 20
-1375.628771471211
 10
2547.164479658434
 20
-1284.658068698905
 10
2520.164479658121
 20
-1284.658068698913
 10
2520.164479658161
 20
-1375.628771471214
 10
2547.16447965847
 20
-1375.628771471211
  0
HATCH
  5
260
330
1F
100
AcDbEntity
  8
Ech.1_2
 62
    17
420
  8405056
440
 33554687
370
    20
100
AcDbHatch
 10
0.0
 20
0.0
 30
0.0
210
0.0
220
0.0
230
1.0
  2
SOLID
 70
     1
 71
     1
 91
        1
 92
        3
 72
     0
 73
     1
 93
       10
 10
2607.468099947759
 20
-1380.628771471189
 10
2611.468099947468
 20
-1376.628771471476
 10
2615.468099947468
 20
-1380.628771471189
 10
2645.161171917685
 20
-1380.628771471189
 10
2645.161171917685
 20
-1360.614467847068
 10
2552.16447965847
 20
-1360.614467847068
 10
2552.16447965847
 20
-1380.628771471189
 10
2571.468099947613
 20
-1380.628771471189
 10
2575.468099947322
 20
-1376.628771471476
 10
2579.468099947322
 20
-1380.628771471189
 97
        0
 75
     0
 76
     1
 98
        0
  0
LWPOLYLINE
  5
261
330
1F
100
AcDbEntity
  8
Ech.1_2
 62
     7
370
    50
100
AcDbPolyline
 90
       11
 70
     0
 43
0.0
 10
2607.468099947759
 20
-1380.628771471189
 10
2611.468099947468
 20
-1376.628771471476
 10
2615.468099947468
 20
-1380.628771471189
 10
2645.161171917685
 20
-1380.628771471189
 10
2645.161171917685
 20
-1360.614467847068
 10
2552.16447965847
 20
-1360.614467847068
 10
2552.16447965847
 20
-1380.628771471189
 10
2571.468099947613
 20
-1380.628771471189
 10
2575.468099947322
 20
-1376.628771471476
 10
2579.468099947322
 20
-1380.628771471189
 10
2607.468099947759
 20
-1380.628771471189
  0
LWPOLYLINE
  5
262
330
1F
100
AcDbEntity
  8
Ech.1_2
 62
     7
370
    20
100
AcDbPolyline
 90
        8
 70
     0
 43
0.0
 10
2552.16447965847
 20
-1380.628771471189
 10
2571.468099947613
 20
-1380.628771471189
 10
2575.468099947322
 20
-1376.628771471476
 10
2579.468099947322
 20
-1380.628771471189
 10
2607.468099947759
 20
-1380.628771471189
 10
2611.468099947468
 20
-1376.628771471476
 10
2615.468099947468
 20
-1380.628771471189
 10
2645.161171917685
 20
-1380.628771471189
  0
LINE
  5
263
330
1F
100
AcDbEntity
  8
Ech.1_2
 62
     7
370
    20
100
AcDbLine
 10
2645.161171917685
 20
-1360.614467847068
 30
0.0
 11
2552.16447965847
 21
-1360.614467847068
 31
0.0
  0
LINE
  5
264
330
1F
100
AcDbEntity
  8
Ech.1_2
 62
   190
370
     9
100
AcDbLine
 10
2636.690940925155
 20
-1359.823216470582
 30
0.0
 11
2631.653440925178
 21
-1359.823216470582
 31
0.0
  0
LINE
  5
265
330
1F
100
AcDbEntity
  8
Ech.1_2
 62
   190
370
     9
100
AcDbLine
 10
2631.653440925178
 20
-1360.128771471484
 30
0.0
 11
2631.653440925178
 21
-1359.823216470582
 31
0.0
  0
HATCH
  5
266
330
1F
100
AcDbEntity
  8
Ech.1_2
 62
   252
440
 33554687
370
     5
100
AcDbHatch
 10
0.0
 20
0.0
 30
0.0
210
0.0
220
0.0
230
1.0
  2
SOLID
 70
     1
 71
     1
 91
        1
 92
        3
 72
     0
 73
     1
 93
        4
 10
2633.042329925114
 20
-1399.934326472679
 10
2633.042329925114
 20
-1400.767660471598
 10
2635.30205192516
 20
-1400.767660471598
 10
2635.30205192516
 20
-1399.934326472679
 97
        0
 75
     0
 76
     1
 98
        0
  0
LWPOLYLINE
  5
267
330
1F
100
AcDbEntity
  8
Ech.1_2
 62
     7
370
     9
100
AcDbPolyline
 90
        5
 70
     0
 43
0.0
 10
2633.042329925114
 20
-1399.934326472679
 10
2633.042329925114
 20
-1400.767660471598
 10
2635.30205192516
 20
-1400.767660471598
 10
2635.30205192516
 20
-1399.934326472679
 10
2633.042329925114
 20
-1399.934326472679
  0
LINE
  5
268
330
1F
100
AcDbEntity
  8
Ech.1_2
 62
   190
370
     9
100
AcDbLine
 10
2635.30205192516
 20
-1402.966744470103
 30
0.0
 11
2635.30205192516
 21
-1360.684327470763
 31
0.0
  0
LINE
  5
269
330
1F
100
AcDbEntity
  8
Ech.1_2
 62
   190
370
     9
100
AcDbLine
 10
2633.042329925114
 20
-1402.966744470103
 30
0.0
 11
2633.042329925114
 21
-1360.684327470763
 31
0.0
  0
ARC
  5
26A
330
1F
100
AcDbEntity
  8
Ech.1_2
 62
   190
370
     9
100
AcDbCircle
 10
2634.172190925137
 20
-1372.386419861416
 30
0.0
 40
12.81320339083424
100
AcDbArc
 50
78.66327935031322
 51
101.3367206496868
  0
LINE
  5
26B
330
1F
100
AcDbEntity
  8
Ech.1_2
 62
   190
370
     9
100
AcDbLine
 10
2636.690940925155
 20
-1360.128771471485
 30
0.0
 11
2635.857607925203
 21
-1360.128771471484
 31
0.0
  0
ARC
  5
26C
330
1F
100
AcDbEntity
  8
Ech.1_2
 62
   190
370
     9
100
AcDbCircle
 10
2635.857607915059
 20
-1360.684327461383
 30
0.0
 40
0.5555559898988738
100
AcDbArc
 50
89.99999895382065
 51
180.0000009673888
  0
LINE
  5
26D
330
1F
100
AcDbEntity
  8
Ech.1_2
 62
   190
370
     9
100
AcDbLine
 10
2635.857607925203
 20
-1360.128771471484
 30
0.0
 11
2632.486773925137
 21
-1360.128771471484
 31
0.0
  0
ARC
  5
26E
330
1F
100
AcDbEntity
  8
Ech.1_2
 62
   190
370
     9
100
AcDbCircle
 10
2632.486773935327
 20
-1360.684327461271
 30
0.0
 40
0.5555559897870863
100
AcDbArc
 50
359.999999021074
 51
90.00000105096305
  0
LINE
  5
26F
330
1F
100
AcDbEntity
  8
Ech.1_2
 62
   190
370
     9
100
AcDbLine
 10
2631.653440925178
 20
-1360.128771471484
 30
0.0
 11
2632.486773925137
 21
-1360.128771471484
 31
0.0
  0
LINE
  5
270
330
1F
100
AcDbEntity
  8
Ech.1_2
 62
   190
370
     9
100
AcDbLine
 10
2635.30205192516
 20
-1370.767660471598
 30
0.0
 11
2633.042329925114
 21
-1370.767660471598
 31
0.0
  0
LINE
  5
271
330
1F
100
AcDbEntity
  8
Ech.1_2
 62
   190
370
     9
100
AcDbLine
 10
2635.30205192516
 20
-1371.600993472139
 30
0.0
 11
2633.042329925114
 21
-1371.600993472139
 31
0.0
  0
LINE
  5
272
330
1F
100
AcDbEntity
  8
Ech.1_2
 62
   190
370
     9
100
AcDbLine
 10
2635.30205192516
 20
-1368.267660471598
 30
0.0
 11
2633.042329925114
 21
-1368.267660471598
 31
0.0
  0
LINE
  5
273
330
1F
100
AcDbEntity
  8
Ech.1_2
 62
   190
370
     9
100
AcDbLine
 10
2635.30205192516
 20
-1369.100993472139
 30
0.0
 11
2633.042329925114
 21
-1369.100993472139
 31
0.0
  0
LINE
  5
274
330
1F
100
AcDbEntity
  8
Ech.1_2
 62
   190
370
     9
100
AcDbLine
 10
2635.30205192516
 20
-1369.934326472679
 30
0.0
 11
2633.042329925114
 21
-1369.934326472679
 31
0.0
  0
LINE
  5
275
330
1F
100
AcDbEntity
  8
Ech.1_2
 62
   190
370
     9
100
AcDbLine
 10
2635.30205192516
 20
-1365.767660471598
 30
0.0
 11
2633.042329925114
 21
-1365.767660471598
 31
0.0
  0
LINE
  5
276
330
1F
100
AcDbEntity
  8
Ech.1_2
 62
   190
370
     9
100
AcDbLine
 10
2635.30205192516
 20
-1366.600993472139
 30
0.0
 11
2633.042329925114
 21
-1366.600993472139
 31
0.0
  0
LINE
  5
277
330
1F
100
AcDbEntity
  8
Ech.1_2
 62
   190
370
     9
100
AcDbLine
 10
2635.30205192516
 20
-1367.434326472679
 30
0.0
 11
2633.042329925114
 21
-1367.434326472679
 31
0.0
  0
LINE
  5
278
330
1F
100
AcDbEntity
  8
Ech.1_2
 62
   190
370
     9
100
AcDbLine
 10
2635.30205192516
 20
-1364.934326472679
 30
0.0
 11
2633.042329925114
 21
-1364.934326472679
 31
0.0
  0
LINE
  5
279
330
1F
100
AcDbEntity
  8
Ech.1_2
 62
   190
370
     9
100
AcDbLine
 10
2635.30205192516
 20
-1364.100993472139
 30
0.0
 11
2633.042329925114
 21
-1364.100993472139
 31
0.0
  0
LINE
  5
27A
330
1F
100
AcDbEntity
  8
Ech.1_2
 62
   190
370
     9
100
AcDbLine
 10
2635.30205192516
 20
-1363.267660471598
 30
0.0
 11
2633.042329925114
 21
-1363.267660471598
 31
0.0
  0
LINE
  5
27B
330
1F
100
AcDbEntity
  8
Ech.1_2
 62
   190
370
     9
100
AcDbLine
 10
2635.30205192516
 20
-1362.434326472679
 30
0.0
 11
2633.042329925122
 21
-1362.434326472679
 31
0.0
  0
LINE
  5
27C
330
1F
100
AcDbEntity
  8
Ech.1_2
 62
   190
370
     9
100
AcDbLine
 10
2635.30205192516
 20
-1397.434326472679
 30
0.0
 11
2633.042329925114
 21
-1397.434326472679
 31
0.0
  0
LINE
  5
27D
330
1F
100
AcDbEntity
  8
Ech.1_2
 62
   190
370
     9
100
AcDbLine
 10
2635.30205192516
 20
-1396.600993472139
 30
0.0
 11
2633.042329925114
 21
-1396.600993472139
 31
0.0
  0
LINE
  5
27E
330
1F
100
AcDbEntity
  8
Ech.1_2
 62
   190
370
     9
100
AcDbLine
 10
2635.30205192516
 20
-1398.267660471598
 30
0.0
 11
2633.042329925114
 21
-1398.267660471598
 31
0.0
  0
LINE
  5
27F
330
1F
100
AcDbEntity
  8
Ech.1_2
 62
   190
370
     9
100
AcDbLine
 10
2635.30205192516
 20
-1394.100993472139
 30
0.0
 11
2633.042329925114
 21
-1394.100993472139
 31
0.0
  0
LINE
  5
280
330
1F
100
AcDbEntity
  8
Ech.1_2
 62
   190
370
     9
100
AcDbLine
 10
2635.30205192516
 20
-1394.934326472679
 30
0.0
 11
2633.042329925114
 21
-1394.934326472679
 31
0.0
  0
LINE
  5
281
330
1F
100
AcDbEntity
  8
Ech.1_2
 62
   190
370
     9
100
AcDbLine
 10
2635.30205192516
 20
-1395.767660471598
 30
0.0
 11
2633.042329925114
 21
-1395.767660471598
 31
0.0
  0
LINE
  5
282
330
1F
100
AcDbEntity
  8
Ech.1_2
 62
   190
370
     9
100
AcDbLine
 10
2635.30205192516
 20
-1391.600993472139
 30
0.0
 11
2633.042329925114
 21
-1391.600993472139
 31
0.0
  0
LINE
  5
283
330
1F
100
AcDbEntity
  8
Ech.1_2
 62
   190
370
     9
100
AcDbLine
 10
2635.30205192516
 20
-1392.434326472679
 30
0.0
 11
2633.042329925114
 21
-1392.434326472679
 31
0.0
  0
LINE
  5
284
330
1F
100
AcDbEntity
  8
Ech.1_2
 62
   190
370
     9
100
AcDbLine
 10
2635.30205192516
 20
-1393.267660471598
 30
0.0
 11
2633.042329925114
 21
-1393.267660471598
 31
0.0
  0
LINE
  5
285
330
1F
100
AcDbEntity
  8
Ech.1_2
 62
   190
370
     9
100
AcDbLine
 10
2635.30205192516
 20
-1389.100993472139
 30
0.0
 11
2633.042329925114
 21
-1389.100993472139
 31
0.0
  0
LINE
  5
286
330
1F
100
AcDbEntity
  8
Ech.1_2
 62
   190
370
     9
100
AcDbLine
 10
2635.30205192516
 20
-1389.934326472679
 30
0.0
 11
2633.042329925114
 21
-1389.934326472679
 31
0.0
  0
LINE
  5
287
330
1F
100
AcDbEntity
  8
Ech.1_2
 62
   190
370
     9
100
AcDbLine
 10
2635.30205192516
 20
-1390.767660471598
 30
0.0
 11
2633.042329925114
 21
-1390.767660471598
 31
0.0
  0
LINE
  5
288
330
1F
100
AcDbEntity
  8
Ech.1_2
 62
   190
370
     9
100
AcDbLine
 10
2635.30205192516
 20
-1388.267660471598
 30
0.0
 11
2633.042329925114
 21
-1388.267660471598
 31
0.0
  0
LINE
  5
289
330
1F
100
AcDbEntity
  8
Ech.1_2
 62
   190
370
     9
100
AcDbLine
 10
2635.30205192516
 20
-1374.934326472679
 30
0.0
 11
2633.042329925114
 21
-1374.934326472679
 31
0.0
  0
LINE
  5
28A
330
1F
100
AcDbEntity
  8
Ech.1_2
 62
   190
370
     9
100
AcDbLine
 10
2635.30205192516
 20
-1375.767660471598
 30
0.0
 11
2633.042329925114
 21
-1375.767660471598
 31
0.0
  0
LINE
  5
28B
330
1F
100
AcDbEntity
  8
Ech.1_2
 62
   190
370
     9
100
AcDbLine
 10
2635.30205192516
 20
-1376.600993472139
 30
0.0
 11
2633.042329925114
 21
-1376.600993472139
 31
0.0
  0
LINE
  5
28C
330
1F
100
AcDbEntity
  8
Ech.1_2
 62
   190
370
     9
100
AcDbLine
 10
2635.30205192516
 20
-1377.434326472679
 30
0.0
 11
2633.042329925114
 21
-1377.434326472679
 31
0.0
  0
LINE
  5
28D
330
1F
100
AcDbEntity
  8
Ech.1_2
 62
   190
370
     9
100
AcDbLine
 10
2635.30205192516
 20
-1379.934326472679
 30
0.0
 11
2633.042329925114
 21
-1379.934326472679
 31
0.0
  0
LINE
  5
28E
330
1F
100
AcDbEntity
  8
Ech.1_2
 62
   190
370
     9
100
AcDbLine
 10
2635.30205192516
 20
-1379.100993472139
 30
0.0
 11
2633.042329925114
 21
-1379.100993472139
 31
0.0
  0
LINE
  5
28F
330
1F
100
AcDbEntity
  8
Ech.1_2
 62
   190
370
     9
100
AcDbLine
 10
2635.30205192516
 20
-1378.267660471598
 30
0.0
 11
2633.042329925114
 21
-1378.267660471598
 31
0.0
  0
LINE
  5
290
330
1F
100
AcDbEntity
  8
Ech.1_2
 62
   190
370
     9
100
AcDbLine
 10
2635.30205192516
 20
-1382.434326472679
 30
0.0
 11
2633.042329925114
 21
-1382.434326472679
 31
0.0
  0
LINE
  5
291
330
1F
100
AcDbEntity
  8
Ech.1_2
 62
   190
370
     9
100
AcDbLine
 10
2635.30205192516
 20
-1381.600993472139
 30
0.0
 11
2633.042329925114
 21
-1381.600993472139
 31
0.0
  0
LINE
  5
292
330
1F
100
AcDbEntity
  8
Ech.1_2
 62
   190
370
     9
100
AcDbLine
 10
2635.30205192516
 20
-1380.767660471598
 30
0.0
 11
2633.042329925114
 21
-1380.767660471598
 31
0.0
  0
LINE
  5
293
330
1F
100
AcDbEntity
  8
Ech.1_2
 62
   190
370
     9
100
AcDbLine
 10
2635.30205192516
 20
-1384.934326472679
 30
0.0
 11
2633.042329925114
 21
-1384.934326472679
 31
0.0
  0
LINE
  5
294
330
1F
100
AcDbEntity
  8
Ech.1_2
 62
   190
370
     9
100
AcDbLine
 10
2635.30205192516
 20
-1384.100993472139
 30
0.0
 11
2633.042329925114
 21
-1384.100993472139
 31
0.0
  0
LINE
  5
295
330
1F
100
AcDbEntity
  8
Ech.1_2
 62
   190
370
     9
100
AcDbLine
 10
2635.30205192516
 20
-1383.267660471598
 30
0.0
 11
2633.042329925114
 21
-1383.267660471598
 31
0.0
  0
LINE
  5
296
330
1F
100
AcDbEntity
  8
Ech.1_2
 62
   190
370
     9
100
AcDbLine
 10
2635.30205192516
 20
-1387.434326472679
 30
0.0
 11
2633.042329925114
 21
-1387.434326472679
 31
0.0
  0
LINE
  5
297
330
1F
100
AcDbEntity
  8
Ech.1_2
 62
   190
370
     9
100
AcDbLine
 10
2635.30205192516
 20
-1386.600993472139
 30
0.0
 11
2633.042329925114
 21
-1386.600993472139
 31
0.0
  0
LINE
  5
298
330
1F
100
AcDbEntity
  8
Ech.1_2
 62
   190
370
     9
100
AcDbLine
 10
2635.30205192516
 20
-1385.767660471598
 30
0.0
 11
2633.042329925114
 21
-1385.767660471598
 31
0.0
  0
LINE
  5
299
330
1F
100
AcDbEntity
  8
Ech.1_2
 62
   190
370
     9
100
AcDbLine
 10
2635.30205192516
 20
-1373.267660471598
 30
0.0
 11
2633.042329925114
 21
-1373.267660471598
 31
0.0
  0
LINE
  5
29A
330
1F
100
AcDbEntity
  8
Ech.1_2
 62
   190
370
     9
100
AcDbLine
 10
2635.30205192516
 20
-1374.100993472139
 30
0.0
 11
2633.042329925114
 21
-1374.100993472139
 31
0.0
  0
LINE
  5
29B
330
1F
100
AcDbEntity
  8
Ech.1_2
 62
   190
370
     9
100
AcDbLine
 10
2635.30205192516
 20
-1374.934326472679
 30
0.0
 11
2633.042329925114
 21
-1374.934326472679
 31
0.0
  0
LINE
  5
29C
330
1F
100
AcDbEntity
  8
Ech.1_2
 62
   190
370
     9
100
AcDbLine
 10
2635.30205192516
 20
-1372.434326472679
 30
0.0
 11
2633.042329925114
 21
-1372.434326472679
 31
0.0
  0
LINE
  5
29D
330
1F
100
AcDbEntity
  8
Ech.1_2
 62
   190
370
     9
100
AcDbLine
 10
2634.172190925166
 20
-1405.628771471484
 30
0.0
 11
2635.30205192516
 21
-1402.966744470103
 31
0.0
  0
ARC
  5
29E
330
1F
100
AcDbEntity
  8
Ech.1_2
 62
   190
370
     9
100
AcDbCircle
 10
2634.17219092517
 20
-1404.3760954607
 30
0.0
 40
1.806337996665553
100
AcDbArc
 50
51.28123991419646
 51
128.7187600858036
  0
LINE
  5
29F
330
1F
100
AcDbEntity
  8
Ech.1_2
 62
   190
370
     9
100
AcDbLine
 10
2634.172190925166
 20
-1405.628771471484
 30
0.0
 11
2633.042329925114
 21
-1402.966744470103
 31
0.0
  0
HATCH
  5
2A0
330
1F
100
AcDbEntity
  8
Ech.1_2
 62
   252
440
 33554687
370
     5
100
AcDbHatch
 10
0.0
 20
0.0
 30
0.0
210
0.0
220
0.0
230
1.0
  2
SOLID
 70
     1
 71
     1
 91
        1
 92
        3
 72
     0
 73
     1
 93
        4
 10
2633.042329925122
 20
-1362.434326472679
 10
2633.042329925114
 20
-1363.267660471598
 10
2635.30205192516
 20
-1363.267660471598
 10
2635.30205192516
 20
-1362.434326472679
 97
        0
 75
     0
 76
     1
 98
        0
  0
LWPOLYLINE
  5
2A1
330
1F
100
AcDbEntity
  8
Ech.1_2
 62
     7
370
     9
100
AcDbPolyline
 90
        5
 70
     0
 43
0.0
 10
2633.042329925122
 20
-1362.434326472679
 10
2633.042329925114
 20
-1363.267660471598
 10
2635.30205192516
 20
-1363.267660471598
 10
2635.30205192516
 20
-1362.434326472679
 10
2633.042329925122
 20
-1362.434326472679
  0
HATCH
  5
2A2
330
1F
100
AcDbEntity
  8
Ech.1_2
 62
   252
440
 33554687
370
     5
100
AcDbHatch
 10
0.0
 20
0.0
 30
0.0
210
0.0
220
0.0
230
1.0
  2
SOLID
 70
     1
 71
     1
 91
        1
 92
        3
 72
     0
 73
     1
 93
        4
 10
2633.042329925114
 20
-1363.267660471598
 10
2633.042329925114
 20
-1364.100994470517
 10
2635.30205192516
 20
-1364.100994470517
 10
2635.30205192516
 20
-1363.267660471598
 97
        0
 75
     0
 76
     1
 98
        0
  0
LWPOLYLINE
  5
2A3
330
1F
100
AcDbEntity
  8
Ech.1_2
 62
     7
370
     9
100
AcDbPolyline
 90
        5
 70
     0
 43
0.0
 10
2633.042329925114
 20
-1363.267660471598
 10
2633.042329925114
 20
-1364.100994470517
 10
2635.30205192516
 20
-1364.100994470517
 10
2635.30205192516
 20
-1363.267660471598
 10
2633.042329925114
 20
-1363.267660471598
  0
HATCH
  5
2A4
330
1F
100
AcDbEntity
  8
Ech.1_2
 62
   252
440
 33554687
370
     5
100
AcDbHatch
 10
0.0
 20
0.0
 30
0.0
210
0.0
220
0.0
230
1.0
  2
SOLID
 70
     1
 71
     1
 91
        1
 92
        3
 72
     0
 73
     1
 93
        4
 10
2633.042329925114
 20
-1364.100994470517
 10
2633.042329925114
 20
-1364.934328469435
 10
2635.30205192516
 20
-1364.934328469435
 10
2635.30205192516
 20
-1364.100994470517
 97
        0
 75
     0
 76
     1
 98
        0
  0
LWPOLYLINE
  5
2A5
330
1F
100
AcDbEntity
  8
Ech.1_2
 62
     7
370
     9
100
AcDbPolyline
 90
        5
 70
     0
 43
0.0
 10
2633.042329925114
 20
-1364.100994470517
 10
2633.042329925114
 20
-1364.934328469435
 10
2635.30205192516
 20
-1364.934328469435
 10
2635.30205192516
 20
-1364.100994470517
 10
2633.042329925114
 20
-1364.100994470517
  0
HATCH
  5
2A6
330
1F
100
AcDbEntity
  8
Ech.1_2
 62
   252
440
 33554687
370
     5
100
AcDbHatch
 10
0.0
 20
0.0
 30
0.0
210
0.0
220
0.0
230
1.0
  2
SOLID
 70
     1
 71
     1
 91
        1
 92
        3
 72
     0
 73
     1
 93
        4
 10
2633.042329925114
 20
-1364.934328469435
 10
2633.042329925114
 20
-1365.767662468354
 10
2635.30205192516
 20
-1365.767662468354
 10
2635.30205192516
 20
-1364.934328469435
 97
        0
 75
     0
 76
     1
 98
        0
  0
LWPOLYLINE
  5
2A7
330
1F
100
AcDbEntity
  8
Ech.1_2
 62
     7
370
     9
100
AcDbPolyline
 90
        5
 70
     0
 43
0.0
 10
2633.042329925114
 20
-1364.934328469435
 10
2633.042329925114
 20
-1365.767662468354
 10
2635.30205192516
 20
-1365.767662468354
 10
2635.30205192516
 20
-1364.934328469435
 10
2633.042329925114
 20
-1364.934328469435
  0
HATCH
  5
2A8
330
1F
100
AcDbEntity
  8
Ech.1_2
 62
   252
440
 33554687
370
     5
100
AcDbHatch
 10
0.0
 20
0.0
 30
0.0
210
0.0
220
0.0
230
1.0
  2
SOLID
 70
     1
 71
     1
 91
        1
 92
        3
 72
     0
 73
     1
 93
        4
 10
2633.042329925114
 20
-1365.767660471598
 10
2633.042329925114
 20
-1366.600994470517
 10
2635.30205192516
 20
-1366.600994470517
 10
2635.30205192516
 20
-1365.767660471598
 97
        0
 75
     0
 76
     1
 98
        0
  0
LWPOLYLINE
  5
2A9
330
1F
100
AcDbEntity
  8
Ech.1_2
 62
     7
370
     9
100
AcDbPolyline
 90
        5
 70
     0
 43
0.0
 10
2633.042329925114
 20
-1365.767660471598
 10
2633.042329925114
 20
-1366.600994470517
 10
2635.30205192516
 20
-1366.600994470517
 10
2635.30205192516
 20
-1365.767660471598
 10
2633.042329925114
 20
-1365.767660471598
  0
HATCH
  5
2AA
330
1F
100
AcDbEntity
  8
Ech.1_2
 62
   252
440
 33554687
370
     5
100
AcDbHatch
 10
0.0
 20
0.0
 30
0.0
210
0.0
220
0.0
230
1.0
  2
SOLID
 70
     1
 71
     1
 91
        1
 92
        3
 72
     0
 73
     1
 93
        4
 10
2633.042329925114
 20
-1366.600993472139
 10
2633.042329925114
 20
-1367.434327471057
 10
2635.302051925168
 20
-1367.434327471057
 10
2635.30205192516
 20
-1366.600993472139
 97
        0
 75
     0
 76
     1
 98
        0
  0
LWPOLYLINE
  5
2AB
330
1F
100
AcDbEntity
  8
Ech.1_2
 62
     7
370
     9
100
AcDbPolyline
 90
        5
 70
     0
 43
0.0
 10
2633.042329925114
 20
-1366.600993472139
 10
2633.042329925114
 20
-1367.434327471057
 10
2635.302051925168
 20
-1367.434327471057
 10
2635.30205192516
 20
-1366.600993472139
 10
2633.042329925114
 20
-1366.600993472139
  0
HATCH
  5
2AC
330
1F
100
AcDbEntity
  8
Ech.1_2
 62
   252
440
 33554687
370
     5
100
AcDbHatch
 10
0.0
 20
0.0
 30
0.0
210
0.0
220
0.0
230
1.0
  2
SOLID
 70
     1
 71
     1
 91
        1
 92
        3
 72
     0
 73
     1
 93
        4
 10
2633.042329925114
 20
-1367.434327471057
 10
2633.042329925114
 20
-1368.267661469976
 10
2635.30205192516
 20
-1368.267661469976
 10
2635.302051925168
 20
-1367.434327471057
 97
        0
 75
     0
 76
     1
 98
        0
  0
LWPOLYLINE
  5
2AD
330
1F
100
AcDbEntity
  8
Ech.1_2
 62
     7
370
     9
100
AcDbPolyline
 90
        5
 70
     0
 43
0.0
 10
2633.042329925114
 20
-1367.434327471057
 10
2633.042329925114
 20
-1368.267661469976
 10
2635.30205192516
 20
-1368.267661469976
 10
2635.302051925168
 20
-1367.434327471057
 10
2633.042329925114
 20
-1367.434327471057
  0
HATCH
  5
2AE
330
1F
100
AcDbEntity
  8
Ech.1_2
 62
   252
440
 33554687
370
     5
100
AcDbHatch
 10
0.0
 20
0.0
 30
0.0
210
0.0
220
0.0
230
1.0
  2
SOLID
 70
     1
 71
     1
 91
        1
 92
        3
 72
     0
 73
     1
 93
        4
 10
2633.042329925114
 20
-1368.267660471598
 10
2633.042329925114
 20
-1369.100994470517
 10
2635.30205192516
 20
-1369.100994470517
 10
2635.30205192516
 20
-1368.267660471598
 97
        0
 75
     0
 76
     1
 98
        0
  0
LWPOLYLINE
  5
2AF
330
1F
100
AcDbEntity
  8
Ech.1_2
 62
     7
370
     9
100
AcDbPolyline
 90
        5
 70
     0
 43
0.0
 10
2633.042329925114
 20
-1368.267660471598
 10
2633.042329925114
 20
-1369.100994470517
 10
2635.30205192516
 20
-1369.100994470517
 10
2635.30205192516
 20
-1368.267660471598
 10
2633.042329925114
 20
-1368.267660471598
  0
HATCH
  5
2B0
330
1F
100
AcDbEntity
  8
Ech.1_2
 62
   252
440
 33554687
370
     5
100
AcDbHatch
 10
0.0
 20
0.0
 30
0.0
210
0.0
220
0.0
230
1.0
  2
SOLID
 70
     1
 71
     1
 91
        1
 92
        3
 72
     0
 73
     1
 93
        4
 10
2633.042329925114
 20
-1369.100994470517
 10
2633.042329925114
 20
-1369.934328469435
 10
2635.30205192516
 20
-1369.934328469435
 10
2635.30205192516
 20
-1369.100994470517
 97
        0
 75
     0
 76
     1
 98
        0
  0
LWPOLYLINE
  5
2B1
330
1F
100
AcDbEntity
  8
Ech.1_2
 62
     7
370
     9
100
AcDbPolyline
 90
        5
 70
     0
 43
0.0
 10
2633.042329925114
 20
-1369.100994470517
 10
2633.042329925114
 20
-1369.934328469435
 10
2635.30205192516
 20
-1369.934328469435
 10
2635.30205192516
 20
-1369.100994470517
 10
2633.042329925114
 20
-1369.100994470517
  0
HATCH
  5
2B2
330
1F
100
AcDbEntity
  8
Ech.1_2
 62
   252
440
 33554687
370
     5
100
AcDbHatch
 10
0.0
 20
0.0
 30
0.0
210
0.0
220
0.0
230
1.0
  2
SOLID
 70
     1
 71
     1
 91
        1
 92
        3
 72
     0
 73
     1
 93
        4
 10
2633.042329925114
 20
-1369.934326472679
 10
2633.042329925114
 20
-1370.767660471598
 10
2635.30205192516
 20
-1370.767660471598
 10
2635.30205192516
 20
-1369.934326472679
 97
        0
 75
     0
 76
     1
 98
        0
  0
LWPOLYLINE
  5
2B3
330
1F
100
AcDbEntity
  8
Ech.1_2
 62
     7
370
     9
100
AcDbPolyline
 90
        5
 70
     0
 43
0.0
 10
2633.042329925114
 20
-1369.934326472679
 10
2633.042329925114
 20
-1370.767660471598
 10
2635.30205192516
 20
-1370.767660471598
 10
2635.30205192516
 20
-1369.934326472679
 10
2633.042329925114
 20
-1369.934326472679
  0
HATCH
  5
2B4
330
1F
100
AcDbEntity
  8
Ech.1_2
 62
   252
440
 33554687
370
     5
100
AcDbHatch
 10
0.0
 20
0.0
 30
0.0
210
0.0
220
0.0
230
1.0
  2
SOLID
 70
     1
 71
     1
 91
        1
 92
        3
 72
     0
 73
     1
 93
        4
 10
2633.042329925114
 20
-1370.767660471598
 10
2633.042329925114
 20
-1371.600994470517
 10
2635.30205192516
 20
-1371.600994470517
 10
2635.30205192516
 20
-1370.767660471598
 97
        0
 75
     0
 76
     1
 98
        0
  0
LWPOLYLINE
  5
2B5
330
1F
100
AcDbEntity
  8
Ech.1_2
 62
     7
370
     9
100
AcDbPolyline
 90
        5
 70
     0
 43
0.0
 10
2633.042329925114
 20
-1370.767660471598
 10
2633.042329925114
 20
-1371.600994470517
 10
2635.30205192516
 20
-1371.600994470517
 10
2635.30205192516
 20
-1370.767660471598
 10
2633.042329925114
 20
-1370.767660471598
  0
HATCH
  5
2B6
330
1F
100
AcDbEntity
  8
Ech.1_2
 62
   252
440
 33554687
370
     5
100
AcDbHatch
 10
0.0
 20
0.0
 30
0.0
210
0.0
220
0.0
230
1.0
  2
SOLID
 70
     1
 71
     1
 91
        1
 92
        3
 72
     0
 73
     1
 93
        4
 10
2633.042329925114
 20
-1371.600994470517
 10
2633.042329925114
 20
-1372.434328469435
 10
2635.30205192516
 20
-1372.434328469437
 10
2635.30205192516
 20
-1371.600994470517
 97
        0
 75
     0
 76
     1
 98
        0
  0
LWPOLYLINE
  5
2B7
330
1F
100
AcDbEntity
  8
Ech.1_2
 62
     7
370
     9
100
AcDbPolyline
 90
        5
 70
     0
 43
0.0
 10
2633.042329925114
 20
-1371.600994470517
 10
2633.042329925114
 20
-1372.434328469435
 10
2635.30205192516
 20
-1372.434328469437
 10
2635.30205192516
 20
-1371.600994470517
 10
2633.042329925114
 20
-1371.600994470517
  0
HATCH
  5
2B8
330
1F
100
AcDbEntity
  8
Ech.1_2
 62
   252
440
 33554687
370
     5
100
AcDbHatch
 10
0.0
 20
0.0
 30
0.0
210
0.0
220
0.0
230
1.0
  2
SOLID
 70
     1
 71
     1
 91
        1
 92
        3
 72
     0
 73
     1
 93
        4
 10
2633.042329925114
 20
-1372.434328469435
 10
2633.042329925114
 20
-1373.267662468354
 10
2635.30205192516
 20
-1373.267662468354
 10
2635.30205192516
 20
-1372.434328469437
 97
        0
 75
     0
 76
     1
 98
        0
  0
LWPOLYLINE
  5
2B9
330
1F
100
AcDbEntity
  8
Ech.1_2
 62
     7
370
     9
100
AcDbPolyline
 90
        5
 70
     0
 43
0.0
 10
2633.042329925114
 20
-1372.434328469435
 10
2633.042329925114
 20
-1373.267662468354
 10
2635.30205192516
 20
-1373.267662468354
 10
2635.30205192516
 20
-1372.434328469437
 10
2633.042329925114
 20
-1372.434328469435
  0
HATCH
  5
2BA
330
1F
100
AcDbEntity
  8
Ech.1_2
 62
   252
440
 33554687
370
     5
100
AcDbHatch
 10
0.0
 20
0.0
 30
0.0
210
0.0
220
0.0
230
1.0
  2
SOLID
 70
     1
 71
     1
 91
        1
 92
        3
 72
     0
 73
     1
 93
        4
 10
2633.042329925114
 20
-1373.267662468354
 10
2633.042329925114
 20
-1374.100996467272
 10
2635.30205192516
 20
-1374.100996467272
 10
2635.30205192516
 20
-1373.267662468354
 97
        0
 75
     0
 76
     1
 98
        0
  0
LWPOLYLINE
  5
2BB
330
1F
100
AcDbEntity
  8
Ech.1_2
 62
     7
370
     9
100
AcDbPolyline
 90
        5
 70
     0
 43
0.0
 10
2633.042329925114
 20
-1373.267662468354
 10
2633.042329925114
 20
-1374.100996467272
 10
2635.30205192516
 20
-1374.100996467272
 10
2635.30205192516
 20
-1373.267662468354
 10
2633.042329925114
 20
-1373.267662468354
  0
HATCH
  5
2BC
330
1F
100
AcDbEntity
  8
Ech.1_2
 62
   252
440
 33554687
370
     5
100
AcDbHatch
 10
0.0
 20
0.0
 30
0.0
210
0.0
220
0.0
230
1.0
  2
SOLID
 70
     1
 71
     1
 91
        1
 92
        3
 72
     0
 73
     1
 93
        4
 10
2633.042329925114
 20
-1374.100994470517
 10
2633.042329925114
 20
-1374.934328469435
 10
2635.30205192516
 20
-1374.934328469435
 10
2635.30205192516
 20
-1374.100994470517
 97
        0
 75
     0
 76
     1
 98
        0
  0
LWPOLYLINE
  5
2BD
330
1F
100
AcDbEntity
  8
Ech.1_2
 62
     7
370
     9
100
AcDbPolyline
 90
        5
 70
     0
 43
0.0
 10
2633.042329925114
 20
-1374.100994470517
 10
2633.042329925114
 20
-1374.934328469435
 10
2635.30205192516
 20
-1374.934328469435
 10
2635.30205192516
 20
-1374.100994470517
 10
2633.042329925114
 20
-1374.100994470517
  0
HATCH
  5
2BE
330
1F
100
AcDbEntity
  8
Ech.1_2
 62
   252
440
 33554687
370
     5
100
AcDbHatch
 10
0.0
 20
0.0
 30
0.0
210
0.0
220
0.0
230
1.0
  2
SOLID
 70
     1
 71
     1
 91
        1
 92
        3
 72
     0
 73
     1
 93
        4
 10
2633.042329925114
 20
-1374.934327471057
 10
2633.042329925114
 20
-1375.767661469976
 10
2635.30205192516
 20
-1375.767661469976
 10
2635.30205192516
 20
-1374.934327471057
 97
        0
 75
     0
 76
     1
 98
        0
  0
LWPOLYLINE
  5
2BF
330
1F
100
AcDbEntity
  8
Ech.1_2
 62
     7
370
     9
100
AcDbPolyline
 90
        5
 70
     0
 43
0.0
 10
2633.042329925114
 20
-1374.934327471057
 10
2633.042329925114
 20
-1375.767661469976
 10
2635.30205192516
 20
-1375.767661469976
 10
2635.30205192516
 20
-1374.934327471057
 10
2633.042329925114
 20
-1374.934327471057
  0
HATCH
  5
2C0
330
1F
100
AcDbEntity
  8
Ech.1_2
 62
   252
440
 33554687
370
     5
100
AcDbHatch
 10
0.0
 20
0.0
 30
0.0
210
0.0
220
0.0
230
1.0
  2
SOLID
 70
     1
 71
     1
 91
        1
 92
        3
 72
     0
 73
     1
 93
        4
 10
2633.042329925114
 20
-1375.767661469976
 10
2633.042329925114
 20
-1376.600995468894
 10
2635.30205192516
 20
-1376.600995468894
 10
2635.30205192516
 20
-1375.767661469976
 97
        0
 75
     0
 76
     1
 98
        0
  0
LWPOLYLINE
  5
2C1
330
1F
100
AcDbEntity
  8
Ech.1_2
 62
     7
370
     9
100
AcDbPolyline
 90
        5
 70
     0
 43
0.0
 10
2633.042329925114
 20
-1375.767661469976
 10
2633.042329925114
 20
-1376.600995468894
 10
2635.30205192516
 20
-1376.600995468894
 10
2635.30205192516
 20
-1375.767661469976
 10
2633.042329925114
 20
-1375.767661469976
  0
HATCH
  5
2C2
330
1F
100
AcDbEntity
  8
Ech.1_2
 62
   252
440
 33554687
370
     5
100
AcDbHatch
 10
0.0
 20
0.0
 30
0.0
210
0.0
220
0.0
230
1.0
  2
SOLID
 70
     1
 71
     1
 91
        1
 92
        3
 72
     0
 73
     1
 93
        4
 10
2633.042329925114
 20
-1376.600994470517
 10
2633.042329925114
 20
-1377.434328469435
 10
2635.30205192516
 20
-1377.434328469435
 10
2635.30205192516
 20
-1376.600994470517
 97
        0
 75
     0
 76
     1
 98
        0
  0
LWPOLYLINE
  5
2C3
330
1F
100
AcDbEntity
  8
Ech.1_2
 62
     7
370
     9
100
AcDbPolyline
 90
        5
 70
     0
 43
0.0
 10
2633.042329925114
 20
-1376.600994470517
 10
2633.042329925114
 20
-1377.434328469435
 10
2635.30205192516
 20
-1377.434328469435
 10
2635.30205192516
 20
-1376.600994470517
 10
2633.042329925114
 20
-1376.600994470517
  0
HATCH
  5
2C4
330
1F
100
AcDbEntity
  8
Ech.1_2
 62
   252
440
 33554687
370
     5
100
AcDbHatch
 10
0.0
 20
0.0
 30
0.0
210
0.0
220
0.0
230
1.0
  2
SOLID
 70
     1
 71
     1
 91
        1
 92
        3
 72
     0
 73
     1
 93
        4
 10
2633.042329925114
 20
-1377.434328469435
 10
2633.042329925114
 20
-1378.267662468354
 10
2635.30205192516
 20
-1378.267662468354
 10
2635.30205192516
 20
-1377.434328469435
 97
        0
 75
     0
 76
     1
 98
        0
  0
LWPOLYLINE
  5
2C5
330
1F
100
AcDbEntity
  8
Ech.1_2
 62
     7
370
     9
100
AcDbPolyline
 90
        5
 70
     0
 43
0.0
 10
2633.042329925114
 20
-1377.434328469435
 10
2633.042329925114
 20
-1378.267662468354
 10
2635.30205192516
 20
-1378.267662468354
 10
2635.30205192516
 20
-1377.434328469435
 10
2633.042329925114
 20
-1377.434328469435
  0
HATCH
  5
2C6
330
1F
100
AcDbEntity
  8
Ech.1_2
 62
   252
440
 33554687
370
     5
100
AcDbHatch
 10
0.0
 20
0.0
 30
0.0
210
0.0
220
0.0
230
1.0
  2
SOLID
 70
     1
 71
     1
 91
        1
 92
        3
 72
     0
 73
     1
 93
        4
 10
2633.042329925114
 20
-1378.267660471598
 10
2633.042329925114
 20
-1379.100994470517
 10
2635.30205192516
 20
-1379.100994470517
 10
2635.30205192516
 20
-1378.267660471598
 97
        0
 75
     0
 76
     1
 98
        0
  0
LWPOLYLINE
  5
2C7
330
1F
100
AcDbEntity
  8
Ech.1_2
 62
     7
370
     9
100
AcDbPolyline
 90
        5
 70
     0
 43
0.0
 10
2633.042329925114
 20
-1378.267660471598
 10
2633.042329925114
 20
-1379.100994470517
 10
2635.30205192516
 20
-1379.100994470517
 10
2635.30205192516
 20
-1378.267660471598
 10
2633.042329925114
 20
-1378.267660471598
  0
HATCH
  5
2C8
330
1F
100
AcDbEntity
  8
Ech.1_2
 62
   252
440
 33554687
370
     5
100
AcDbHatch
 10
0.0
 20
0.0
 30
0.0
210
0.0
220
0.0
230
1.0
  2
SOLID
 70
     1
 71
     1
 91
        1
 92
        3
 72
     0
 73
     1
 93
        4
 10
2633.042329925114
 20
-1379.100994470517
 10
2633.042329925114
 20
-1379.934328469435
 10
2635.30205192516
 20
-1379.934328469435
 10
2635.30205192516
 20
-1379.100994470517
 97
        0
 75
     0
 76
     1
 98
        0
  0
LWPOLYLINE
  5
2C9
330
1F
100
AcDbEntity
  8
Ech.1_2
 62
     7
370
     9
100
AcDbPolyline
 90
        5
 70
     0
 43
0.0
 10
2633.042329925114
 20
-1379.100994470517
 10
2633.042329925114
 20
-1379.934328469435
 10
2635.30205192516
 20
-1379.934328469435
 10
2635.30205192516
 20
-1379.100994470517
 10
2633.042329925114
 20
-1379.100994470517
  0
HATCH
  5
2CA
330
1F
100
AcDbEntity
  8
Ech.1_2
 62
   252
440
 33554687
370
     5
100
AcDbHatch
 10
0.0
 20
0.0
 30
0.0
210
0.0
220
0.0
230
1.0
  2
SOLID
 70
     1
 71
     1
 91
        1
 92
        3
 72
     0
 73
     1
 93
        4
 10
2633.042329925114
 20
-1379.934328469435
 10
2633.042329925114
 20
-1380.767662468354
 10
2635.30205192516
 20
-1380.767662468354
 10
2635.30205192516
 20
-1379.934328469435
 97
        0
 75
     0
 76
     1
 98
        0
  0
LWPOLYLINE
  5
2CB
330
1F
100
AcDbEntity
  8
Ech.1_2
 62
     7
370
     9
100
AcDbPolyline
 90
        5
 70
     0
 43
0.0
 10
2633.042329925114
 20
-1379.934328469435
 10
2633.042329925114
 20
-1380.767662468354
 10
2635.30205192516
 20
-1380.767662468354
 10
2635.30205192516
 20
-1379.934328469435
 10
2633.042329925114
 20
-1379.934328469435
  0
HATCH
  5
2CC
330
1F
100
AcDbEntity
  8
Ech.1_2
 62
   252
440
 33554687
370
     5
100
AcDbHatch
 10
0.0
 20
0.0
 30
0.0
210
0.0
220
0.0
230
1.0
  2
SOLID
 70
     1
 71
     1
 91
        1
 92
        3
 72
     0
 73
     1
 93
        4
 10
2633.042329925114
 20
-1380.767662468354
 10
2633.042329925114
 20
-1381.600996467274
 10
2635.30205192516
 20
-1381.600996467272
 10
2635.30205192516
 20
-1380.767662468354
 97
        0
 75
     0
 76
     1
 98
        0
  0
LWPOLYLINE
  5
2CD
330
1F
100
AcDbEntity
  8
Ech.1_2
 62
     7
370
     9
100
AcDbPolyline
 90
        5
 70
     0
 43
0.0
 10
2633.042329925114
 20
-1380.767662468354
 10
2633.042329925114
 20
-1381.600996467274
 10
2635.30205192516
 20
-1381.600996467272
 10
2635.30205192516
 20
-1380.767662468354
 10
2633.042329925114
 20
-1380.767662468354
  0
HATCH
  5
2CE
330
1F
100
AcDbEntity
  8
Ech.1_2
 62
   252
440
 33554687
370
     5
100
AcDbHatch
 10
0.0
 20
0.0
 30
0.0
210
0.0
220
0.0
230
1.0
  2
SOLID
 70
     1
 71
     1
 91
        1
 92
        3
 72
     0
 73
     1
 93
        4
 10
2633.042329925114
 20
-1381.600996467274
 10
2633.042329925114
 20
-1382.434330466191
 10
2635.30205192516
 20
-1382.434330466191
 10
2635.30205192516
 20
-1381.600996467272
 97
        0
 75
     0
 76
     1
 98
        0
  0
LWPOLYLINE
  5
2CF
330
1F
100
AcDbEntity
  8
Ech.1_2
 62
     7
370
     9
100
AcDbPolyline
 90
        5
 70
     0
 43
0.0
 10
2633.042329925114
 20
-1381.600996467274
 10
2633.042329925114
 20
-1382.434330466191
 10
2635.30205192516
 20
-1382.434330466191
 10
2635.30205192516
 20
-1381.600996467272
 10
2633.042329925114
 20
-1381.600996467274
  0
HATCH
  5
2D0
330
1F
100
AcDbEntity
  8
Ech.1_2
 62
   252
440
 33554687
370
     5
100
AcDbHatch
 10
0.0
 20
0.0
 30
0.0
210
0.0
220
0.0
230
1.0
  2
SOLID
 70
     1
 71
     1
 91
        1
 92
        3
 72
     0
 73
     1
 93
        4
 10
2633.042329925114
 20
-1382.434328469435
 10
2633.042329925114
 20
-1383.267662468354
 10
2635.30205192516
 20
-1383.267662468354
 10
2635.30205192516
 20
-1382.434328469435
 97
        0
 75
     0
 76
     1
 98
        0
  0
LWPOLYLINE
  5
2D1
330
1F
100
AcDbEntity
  8
Ech.1_2
 62
     7
370
     9
100
AcDbPolyline
 90
        5
 70
     0
 43
0.0
 10
2633.042329925114
 20
-1382.434328469435
 10
2633.042329925114
 20
-1383.267662468354
 10
2635.30205192516
 20
-1383.267662468354
 10
2635.30205192516
 20
-1382.434328469435
 10
2633.042329925114
 20
-1382.434328469435
  0
HATCH
  5
2D2
330
1F
100
AcDbEntity
  8
Ech.1_2
 62
   252
440
 33554687
370
     5
100
AcDbHatch
 10
0.0
 20
0.0
 30
0.0
210
0.0
220
0.0
230
1.0
  2
SOLID
 70
     1
 71
     1
 91
        1
 92
        3
 72
     0
 73
     1
 93
        4
 10
2633.042329925114
 20
-1383.267661469976
 10
2633.042329925114
 20
-1384.100995468894
 10
2635.30205192516
 20
-1384.100995468894
 10
2635.30205192516
 20
-1383.267661469976
 97
        0
 75
     0
 76
     1
 98
        0
  0
LWPOLYLINE
  5
2D3
330
1F
100
AcDbEntity
  8
Ech.1_2
 62
     7
370
     9
100
AcDbPolyline
 90
        5
 70
     0
 43
0.0
 10
2633.042329925114
 20
-1383.267661469976
 10
2633.042329925114
 20
-1384.100995468894
 10
2635.30205192516
 20
-1384.100995468894
 10
2635.30205192516
 20
-1383.267661469976
 10
2633.042329925114
 20
-1383.267661469976
  0
HATCH
  5
2D4
330
1F
100
AcDbEntity
  8
Ech.1_2
 62
   252
440
 33554687
370
     5
100
AcDbHatch
 10
0.0
 20
0.0
 30
0.0
210
0.0
220
0.0
230
1.0
  2
SOLID
 70
     1
 71
     1
 91
        1
 92
        3
 72
     0
 73
     1
 93
        4
 10
2633.042329925114
 20
-1384.100995468894
 10
2633.042329925114
 20
-1384.934329467813
 10
2635.30205192516
 20
-1384.934329467813
 10
2635.30205192516
 20
-1384.100995468894
 97
        0
 75
     0
 76
     1
 98
        0
  0
LWPOLYLINE
  5
2D5
330
1F
100
AcDbEntity
  8
Ech.1_2
 62
     7
370
     9
100
AcDbPolyline
 90
        5
 70
     0
 43
0.0
 10
2633.042329925114
 20
-1384.100995468894
 10
2633.042329925114
 20
-1384.934329467813
 10
2635.30205192516
 20
-1384.934329467813
 10
2635.30205192516
 20
-1384.100995468894
 10
2633.042329925114
 20
-1384.100995468894
  0
HATCH
  5
2D6
330
1F
100
AcDbEntity
  8
Ech.1_2
 62
   252
440
 33554687
370
     5
100
AcDbHatch
 10
0.0
 20
0.0
 30
0.0
210
0.0
220
0.0
230
1.0
  2
SOLID
 70
     1
 71
     1
 91
        1
 92
        3
 72
     0
 73
     1
 93
        4
 10
2633.042329925114
 20
-1384.934328469435
 10
2633.042329925114
 20
-1385.767662468354
 10
2635.30205192516
 20
-1385.767662468354
 10
2635.30205192516
 20
-1384.934328469435
 97
        0
 75
     0
 76
     1
 98
        0
  0
LWPOLYLINE
  5
2D7
330
1F
100
AcDbEntity
  8
Ech.1_2
 62
     7
370
     9
100
AcDbPolyline
 90
        5
 70
     0
 43
0.0
 10
2633.042329925114
 20
-1384.934328469435
 10
2633.042329925114
 20
-1385.767662468354
 10
2635.30205192516
 20
-1385.767662468354
 10
2635.30205192516
 20
-1384.934328469435
 10
2633.042329925114
 20
-1384.934328469435
  0
HATCH
  5
2D8
330
1F
100
AcDbEntity
  8
Ech.1_2
 62
   252
440
 33554687
370
     5
100
AcDbHatch
 10
0.0
 20
0.0
 30
0.0
210
0.0
220
0.0
230
1.0
  2
SOLID
 70
     1
 71
     1
 91
        1
 92
        3
 72
     0
 73
     1
 93
        4
 10
2633.042329925114
 20
-1385.767662468354
 10
2633.042329925114
 20
-1386.600996467272
 10
2635.30205192516
 20
-1386.600996467272
 10
2635.30205192516
 20
-1385.767662468354
 97
        0
 75
     0
 76
     1
 98
        0
  0
LWPOLYLINE
  5
2D9
330
1F
100
AcDbEntity
  8
Ech.1_2
 62
     7
370
     9
100
AcDbPolyline
 90
        5
 70
     0
 43
0.0
 10
2633.042329925114
 20
-1385.767662468354
 10
2633.042329925114
 20
-1386.600996467272
 10
2635.30205192516
 20
-1386.600996467272
 10
2635.30205192516
 20
-1385.767662468354
 10
2633.042329925114
 20
-1385.767662468354
  0
HATCH
  5
2DA
330
1F
100
AcDbEntity
  8
Ech.1_2
 62
   252
440
 33554687
370
     5
100
AcDbHatch
 10
0.0
 20
0.0
 30
0.0
210
0.0
220
0.0
230
1.0
  2
SOLID
 70
     1
 71
     1
 91
        1
 92
        3
 72
     0
 73
     1
 93
        4
 10
2633.042329925114
 20
-1386.600994470517
 10
2633.042329925114
 20
-1387.434328469435
 10
2635.30205192516
 20
-1387.434328469435
 10
2635.30205192516
 20
-1386.600994470517
 97
        0
 75
     0
 76
     1
 98
        0
  0
LWPOLYLINE
  5
2DB
330
1F
100
AcDbEntity
  8
Ech.1_2
 62
     7
370
     9
100
AcDbPolyline
 90
        5
 70
     0
 43
0.0
 10
2633.042329925114
 20
-1386.600994470517
 10
2633.042329925114
 20
-1387.434328469435
 10
2635.30205192516
 20
-1387.434328469435
 10
2635.30205192516
 20
-1386.600994470517
 10
2633.042329925114
 20
-1386.600994470517
  0
HATCH
  5
2DC
330
1F
100
AcDbEntity
  8
Ech.1_2
 62
   252
440
 33554687
370
     5
100
AcDbHatch
 10
0.0
 20
0.0
 30
0.0
210
0.0
220
0.0
230
1.0
  2
SOLID
 70
     1
 71
     1
 91
        1
 92
        3
 72
     0
 73
     1
 93
        4
 10
2633.042329925114
 20
-1387.434326472679
 10
2633.042329925114
 20
-1388.267660471598
 10
2635.30205192516
 20
-1388.267660471598
 10
2635.30205192516
 20
-1387.434326472679
 97
        0
 75
     0
 76
     1
 98
        0
  0
LWPOLYLINE
  5
2DD
330
1F
100
AcDbEntity
  8
Ech.1_2
 62
     7
370
     9
100
AcDbPolyline
 90
        5
 70
     0
 43
0.0
 10
2633.042329925114
 20
-1387.434326472679
 10
2633.042329925114
 20
-1388.267660471598
 10
2635.30205192516
 20
-1388.267660471598
 10
2635.30205192516
 20
-1387.434326472679
 10
2633.042329925114
 20
-1387.434326472679
  0
HATCH
  5
2DE
330
1F
100
AcDbEntity
  8
Ech.1_2
 62
   252
440
 33554687
370
     5
100
AcDbHatch
 10
0.0
 20
0.0
 30
0.0
210
0.0
220
0.0
230
1.0
  2
SOLID
 70
     1
 71
     1
 91
        1
 92
        3
 72
     0
 73
     1
 93
        4
 10
2633.042329925114
 20
-1388.267660471598
 10
2633.042329925114
 20
-1389.100994470517
 10
2635.30205192516
 20
-1389.100994470517
 10
2635.30205192516
 20
-1388.267660471598
 97
        0
 75
     0
 76
     1
 98
        0
  0
LWPOLYLINE
  5
2DF
330
1F
100
AcDbEntity
  8
Ech.1_2
 62
     7
370
     9
100
AcDbPolyline
 90
        5
 70
     0
 43
0.0
 10
2633.042329925114
 20
-1388.267660471598
 10
2633.042329925114
 20
-1389.100994470517
 10
2635.30205192516
 20
-1389.100994470517
 10
2635.30205192516
 20
-1388.267660471598
 10
2633.042329925114
 20
-1388.267660471598
  0
HATCH
  5
2E0
330
1F
100
AcDbEntity
  8
Ech.1_2
 62
   252
440
 33554687
370
     5
100
AcDbHatch
 10
0.0
 20
0.0
 30
0.0
210
0.0
220
0.0
230
1.0
  2
SOLID
 70
     1
 71
     1
 91
        1
 92
        3
 72
     0
 73
     1
 93
        4
 10
2633.042329925114
 20
-1389.100994470517
 10
2633.042329925114
 20
-1389.934328469435
 10
2635.30205192516
 20
-1389.934328469435
 10
2635.30205192516
 20
-1389.100994470517
 97
        0
 75
     0
 76
     1
 98
        0
  0
LWPOLYLINE
  5
2E1
330
1F
100
AcDbEntity
  8
Ech.1_2
 62
     7
370
     9
100
AcDbPolyline
 90
        5
 70
     0
 43
0.0
 10
2633.042329925114
 20
-1389.100994470517
 10
2633.042329925114
 20
-1389.934328469435
 10
2635.30205192516
 20
-1389.934328469435
 10
2635.30205192516
 20
-1389.100994470517
 10
2633.042329925114
 20
-1389.100994470517
  0
HATCH
  5
2E2
330
1F
100
AcDbEntity
  8
Ech.1_2
 62
   252
440
 33554687
370
     5
100
AcDbHatch
 10
0.0
 20
0.0
 30
0.0
210
0.0
220
0.0
230
1.0
  2
SOLID
 70
     1
 71
     1
 91
        1
 92
        3
 72
     0
 73
     1
 93
        4
 10
2633.042329925114
 20
-1389.934328469435
 10
2633.042329925114
 20
-1390.767662468354
 10
2635.30205192516
 20
-1390.767662468354
 10
2635.30205192516
 20
-1389.934328469435
 97
        0
 75
     0
 76
     1
 98
        0
  0
LWPOLYLINE
  5
2E3
330
1F
100
AcDbEntity
  8
Ech.1_2
 62
     7
370
     9
100
AcDbPolyline
 90
        5
 70
     0
 43
0.0
 10
2633.042329925114
 20
-1389.934328469435
 10
2633.042329925114
 20
-1390.767662468354
 10
2635.30205192516
 20
-1390.767662468354
 10
2635.30205192516
 20
-1389.934328469435
 10
2633.042329925114
 20
-1389.934328469435
  0
HATCH
  5
2E4
330
1F
100
AcDbEntity
  8
Ech.1_2
 62
   252
440
 33554687
370
     5
100
AcDbHatch
 10
0.0
 20
0.0
 30
0.0
210
0.0
220
0.0
230
1.0
  2
SOLID
 70
     1
 71
     1
 91
        1
 92
        3
 72
     0
 73
     1
 93
        4
 10
2633.042329925114
 20
-1390.767660471598
 10
2633.042329925114
 20
-1391.600994470517
 10
2635.30205192516
 20
-1391.600994470517
 10
2635.30205192516
 20
-1390.767660471598
 97
        0
 75
     0
 76
     1
 98
        0
  0
LWPOLYLINE
  5
2E5
330
1F
100
AcDbEntity
  8
Ech.1_2
 62
     7
370
     9
100
AcDbPolyline
 90
        5
 70
     0
 43
0.0
 10
2633.042329925114
 20
-1390.767660471598
 10
2633.042329925114
 20
-1391.600994470517
 10
2635.30205192516
 20
-1391.600994470517
 10
2635.30205192516
 20
-1390.767660471598
 10
2633.042329925114
 20
-1390.767660471598
  0
HATCH
  5
2E6
330
1F
100
AcDbEntity
  8
Ech.1_2
 62
   252
440
 33554687
370
     5
100
AcDbHatch
 10
0.0
 20
0.0
 30
0.0
210
0.0
220
0.0
230
1.0
  2
SOLID
 70
     1
 71
     1
 91
        1
 92
        3
 72
     0
 73
     1
 93
        4
 10
2633.042329925114
 20
-1391.600993472139
 10
2633.042329925114
 20
-1392.434327471057
 10
2635.30205192516
 20
-1392.434327471057
 10
2635.30205192516
 20
-1391.600993472139
 97
        0
 75
     0
 76
     1
 98
        0
  0
LWPOLYLINE
  5
2E7
330
1F
100
AcDbEntity
  8
Ech.1_2
 62
     7
370
     9
100
AcDbPolyline
 90
        5
 70
     0
 43
0.0
 10
2633.042329925114
 20
-1391.600993472139
 10
2633.042329925114
 20
-1392.434327471057
 10
2635.30205192516
 20
-1392.434327471057
 10
2635.30205192516
 20
-1391.600993472139
 10
2633.042329925114
 20
-1391.600993472139
  0
HATCH
  5
2E8
330
1F
100
AcDbEntity
  8
Ech.1_2
 62
   252
440
 33554687
370
     5
100
AcDbHatch
 10
0.0
 20
0.0
 30
0.0
210
0.0
220
0.0
230
1.0
  2
SOLID
 70
     1
 71
     1
 91
        1
 92
        3
 72
     0
 73
     1
 93
        4
 10
2633.042329925114
 20
-1392.434327471057
 10
2633.042329925114
 20
-1393.267661469976
 10
2635.30205192516
 20
-1393.267661469976
 10
2635.30205192516
 20
-1392.434327471057
 97
        0
 75
     0
 76
     1
 98
        0
  0
LWPOLYLINE
  5
2E9
330
1F
100
AcDbEntity
  8
Ech.1_2
 62
     7
370
     9
100
AcDbPolyline
 90
        5
 70
     0
 43
0.0
 10
2633.042329925114
 20
-1392.434327471057
 10
2633.042329925114
 20
-1393.267661469976
 10
2635.30205192516
 20
-1393.267661469976
 10
2635.30205192516
 20
-1392.434327471057
 10
2633.042329925114
 20
-1392.434327471057
  0
HATCH
  5
2EA
330
1F
100
AcDbEntity
  8
Ech.1_2
 62
   252
440
 33554687
370
     5
100
AcDbHatch
 10
0.0
 20
0.0
 30
0.0
210
0.0
220
0.0
230
1.0
  2
SOLID
 70
     1
 71
     1
 91
        1
 92
        3
 72
     0
 73
     1
 93
        4
 10
2633.042329925114
 20
-1393.267660471598
 10
2633.042329925114
 20
-1394.100994470517
 10
2635.30205192516
 20
-1394.100994470517
 10
2635.30205192516
 20
-1393.267660471598
 97
        0
 75
     0
 76
     1
 98
        0
  0
LWPOLYLINE
  5
2EB
330
1F
100
AcDbEntity
  8
Ech.1_2
 62
     7
370
     9
100
AcDbPolyline
 90
        5
 70
     0
 43
0.0
 10
2633.042329925114
 20
-1393.267660471598
 10
2633.042329925114
 20
-1394.100994470517
 10
2635.30205192516
 20
-1394.100994470517
 10
2635.30205192516
 20
-1393.267660471598
 10
2633.042329925114
 20
-1393.267660471598
  0
HATCH
  5
2EC
330
1F
100
AcDbEntity
  8
Ech.1_2
 62
   252
440
 33554687
370
     5
100
AcDbHatch
 10
0.0
 20
0.0
 30
0.0
210
0.0
220
0.0
230
1.0
  2
SOLID
 70
     1
 71
     1
 91
        1
 92
        3
 72
     0
 73
     1
 93
        4
 10
2633.042329925114
 20
-1394.100994470517
 10
2633.042329925114
 20
-1394.934328469435
 10
2635.30205192516
 20
-1394.934328469435
 10
2635.30205192516
 20
-1394.100994470517
 97
        0
 75
     0
 76
     1
 98
        0
  0
LWPOLYLINE
  5
2ED
330
1F
100
AcDbEntity
  8
Ech.1_2
 62
     7
370
     9
100
AcDbPolyline
 90
        5
 70
     0
 43
0.0
 10
2633.042329925114
 20
-1394.100994470517
 10
2633.042329925114
 20
-1394.934328469435
 10
2635.30205192516
 20
-1394.934328469435
 10
2635.30205192516
 20
-1394.100994470517
 10
2633.042329925114
 20
-1394.100994470517
  0
HATCH
  5
2EE
330
1F
100
AcDbEntity
  8
Ech.1_2
 62
   252
440
 33554687
370
     5
100
AcDbHatch
 10
0.0
 20
0.0
 30
0.0
210
0.0
220
0.0
230
1.0
  2
SOLID
 70
     1
 71
     1
 91
        1
 92
        3
 72
     0
 73
     1
 93
        4
 10
2633.042329925114
 20
-1394.934326472679
 10
2633.042329925114
 20
-1395.767660471598
 10
2635.30205192516
 20
-1395.767660471598
 10
2635.30205192516
 20
-1394.934326472679
 97
        0
 75
     0
 76
     1
 98
        0
  0
LWPOLYLINE
  5
2EF
330
1F
100
AcDbEntity
  8
Ech.1_2
 62
     7
370
     9
100
AcDbPolyline
 90
        5
 70
     0
 43
0.0
 10
2633.042329925114
 20
-1394.934326472679
 10
2633.042329925114
 20
-1395.767660471598
 10
2635.30205192516
 20
-1395.767660471598
 10
2635.30205192516
 20
-1394.934326472679
 10
2633.042329925114
 20
-1394.934326472679
  0
HATCH
  5
2F0
330
1F
100
AcDbEntity
  8
Ech.1_2
 62
   252
440
 33554687
370
     5
100
AcDbHatch
 10
0.0
 20
0.0
 30
0.0
210
0.0
220
0.0
230
1.0
  2
SOLID
 70
     1
 71
     1
 91
        1
 92
        3
 72
     0
 73
     1
 93
        4
 10
2633.042329925114
 20
-1395.767660471598
 10
2633.042329925114
 20
-1396.600994470517
 10
2635.30205192516
 20
-1396.600994470517
 10
2635.30205192516
 20
-1395.767660471598
 97
        0
 75
     0
 76
     1
 98
        0
  0
LWPOLYLINE
  5
2F1
330
1F
100
AcDbEntity
  8
Ech.1_2
 62
     7
370
     9
100
AcDbPolyline
 90
        5
 70
     0
 43
0.0
 10
2633.042329925114
 20
-1395.767660471598
 10
2633.042329925114
 20
-1396.600994470517
 10
2635.30205192516
 20
-1396.600994470517
 10
2635.30205192516
 20
-1395.767660471598
 10
2633.042329925114
 20
-1395.767660471598
  0
HATCH
  5
2F2
330
1F
100
AcDbEntity
  8
Ech.1_2
 62
   252
440
 33554687
370
     5
100
AcDbHatch
 10
0.0
 20
0.0
 30
0.0
210
0.0
220
0.0
230
1.0
  2
SOLID
 70
     1
 71
     1
 91
        1
 92
        3
 72
     0
 73
     1
 93
        4
 10
2633.042329925114
 20
-1396.600994470517
 10
2633.042329925114
 20
-1397.434328469435
 10
2635.30205192516
 20
-1397.434328469435
 10
2635.30205192516
 20
-1396.600994470517
 97
        0
 75
     0
 76
     1
 98
        0
  0
LWPOLYLINE
  5
2F3
330
1F
100
AcDbEntity
  8
Ech.1_2
 62
     7
370
     9
100
AcDbPolyline
 90
        5
 70
     0
 43
0.0
 10
2633.042329925114
 20
-1396.600994470517
 10
2633.042329925114
 20
-1397.434328469435
 10
2635.30205192516
 20
-1397.434328469435
 10
2635.30205192516
 20
-1396.600994470517
 10
2633.042329925114
 20
-1396.600994470517
  0
HATCH
  5
2F4
330
1F
100
AcDbEntity
  8
Ech.1_2
 62
   252
440
 33554687
370
     5
100
AcDbHatch
 10
0.0
 20
0.0
 30
0.0
210
0.0
220
0.0
230
1.0
  2
SOLID
 70
     1
 71
     1
 91
        1
 92
        3
 72
     0
 73
     1
 93
        4
 10
2633.042329925114
 20
-1397.434328469435
 10
2633.042329925114
 20
-1398.267662468354
 10
2635.30205192516
 20
-1398.267662468354
 10
2635.30205192516
 20
-1397.434328469435
 97
        0
 75
     0
 76
     1
 98
        0
  0
LWPOLYLINE
  5
2F5
330
1F
100
AcDbEntity
  8
Ech.1_2
 62
     7
370
     9
100
AcDbPolyline
 90
        5
 70
     0
 43
0.0
 10
2633.042329925114
 20
-1397.434328469435
 10
2633.042329925114
 20
-1398.267662468354
 10
2635.30205192516
 20
-1398.267662468354
 10
2635.30205192516
 20
-1397.434328469435
 10
2633.042329925114
 20
-1397.434328469435
  0
HATCH
  5
2F6
330
1F
100
AcDbEntity
  8
Ech.1_2
 62
   252
440
 33554687
370
     5
100
AcDbHatch
 10
0.0
 20
0.0
 30
0.0
210
0.0
220
0.0
230
1.0
  2
SOLID
 70
     1
 71
     1
 91
        1
 92
        3
 72
     1
 73
     1
 93
        4
 10
2635.30205192516
 20
-1402.966744470103
 42
0.0
 10
2635.30205192516
 20
-1401.600992473761
 42
0.0
 10
2633.042329925114
 20
-1401.600992473761
 42
0.0
 10
2633.042329925114
 20
-1402.966744470103
 42
-0.3513591548518968
 97
        0
 75
     0
 76
     1
 98
        0
  0
LWPOLYLINE
  5
2F7
330
1F
100
AcDbEntity
  8
Ech.1_2
 62
     7
370
     9
100
AcDbPolyline
 90
        5
 70
     0
 43
0.0
 10
2635.30205192516
 20
-1402.966744470103
 10
2635.30205192516
 20
-1401.600992473761
 10
2633.042329925114
 20
-1401.600992473761
 10
2633.042329925114
 20
-1402.966744470103
 42
-0.3513591548518972
 10
2635.30205192516
 20
-1402.966744470103
  0
HATCH
  5
2F8
330
1F
100
AcDbEntity
  8
Ech.1_2
 62
   252
440
 33554687
370
     5
100
AcDbHatch
 10
0.0
 20
0.0
 30
0.0
210
0.0
220
0.0
230
1.0
  2
SOLID
 70
     1
 71
     1
 91
        1
 92
        3
 72
     1
 73
     1
 93
        3
 10
2634.172190925166
 20
-1405.628771471484
 42
0.0
 10
2635.30205192516
 20
-1402.966744470103
 42
0.3513591548518968
 10
2633.042329925114
 20
-1402.966744470103
 42
0.0
 97
        0
 75
     0
 76
     1
 98
        0
  0
LWPOLYLINE
  5
2F9
330
1F
100
AcDbEntity
  8
Ech.1_2
 62
     7
370
     9
100
AcDbPolyline
 90
        4
 70
     0
 43
0.0
 10
2634.172190925166
 20
-1405.628771471484
 10
2635.30205192516
 20
-1402.966744470103
 42
0.3513591548518956
 10
2633.042329925114
 20
-1402.966744470103
 10
2634.172190925166
 20
-1405.628771471484
  0
HATCH
  5
2FA
330
1F
100
AcDbEntity
  8
Ech.1_2
 62
   252
440
 33554687
370
     5
100
AcDbHatch
 10
0.0
 20
0.0
 30
0.0
210
0.0
220
0.0
230
1.0
  2
SOLID
 70
     1
 71
     1
 91
        1
 92
        3
 72
     1
 73
     1
 93
        6
 10
2633.042329925122
 20
-1362.434326472679
 42
0.0
 10
2633.042329925114
 20
-1360.684327470763
 42
0.4142135727497827
 10
2632.486773925137
 20
-1360.128771471484
 42
0.0
 10
2635.857607925203
 20
-1360.128771471484
 42
0.4142135726664357
 10
2635.30205192516
 20
-1360.684327470763
 42
0.0
 10
2635.30205192516
 20
-1362.434326472679
 42
0.0
 97
        0
 75
     0
 76
     1
 98
        0
  0
LWPOLYLINE
  5
2FB
330
1F
100
AcDbEntity
  8
Ech.1_2
 62
     7
370
     9
100
AcDbPolyline
 90
        7
 70
     0
 43
0.0
 10
2633.042329925122
 20
-1362.434326472679
 10
2633.042329925114
 20
-1360.684327470763
 42
0.4142135727497837
 10
2632.486773925137
 20
-1360.128771471484
 10
2635.857607925203
 20
-1360.128771471484
 42
0.414213572666436
 10
2635.30205192516
 20
-1360.684327470763
 10
2635.30205192516
 20
-1362.434326472679
 10
2633.042329925122
 20
-1362.434326472679
  0
HATCH
  5
2FC
330
1F
100
AcDbEntity
  8
Ech.1_2
 62
   252
440
 33554687
370
     5
100
AcDbHatch
 10
0.0
 20
0.0
 30
0.0
210
0.0
220
0.0
230
1.0
  2
SOLID
 70
     1
 71
     1
 91
        1
 92
        1
 93
        2
 72
     1
 10
2631.653440898752
 20
-1359.823216470582
 11
2636.690940951523
 21
-1359.823216470582
 72
     2
 10
2634.172190925137
 20
-1372.386419861407
 40
12.81320339082451
 50
78.66327935030459
 51
101.3367206496954
 73
     1
 97
        0
 75
     0
 76
     1
 98
        0
  0
LWPOLYLINE
  5
2FD
330
1F
100
AcDbEntity
  8
Ech.1_2
 62
     7
370
     9
100
AcDbPolyline
 90
        3
 70
     0
 43
0.0
 10
2631.653440898752
 20
-1359.823216470582
 10
2636.690940951523
 20
-1359.823216470582
 42
0.0992555820868614
 10
2631.653440898752
 20
-1359.823216470582
  0
HATCH
  5
2FE
330
1F
100
AcDbEntity
  8
Ech.1_2
 62
   252
440
 33554687
370
     5
100
AcDbHatch
 10
0.0
 20
0.0
 30
0.0
210
0.0
220
0.0
230
1.0
  2
SOLID
 70
     1
 71
     1
 91
        1
 92
        3
 72
     0
 73
     1
 93
        6
 10
2631.653440925178
 20
-1360.128771471484
 10
2632.486773925137
 20
-1360.128771471484
 10
2635.857607925203
 20
-1360.128771471484
 10
2636.690940925155
 20
-1360.128771471485
 10
2636.690940951523
 20
-1359.823216470582
 10
2631.653440898752
 20
-1359.823216470582
 97
        0
 75
     0
 76
     1
 98
        0
  0
LWPOLYLINE
  5
2FF
330
1F
100
AcDbEntity
  8
Ech.1_2
 62
     7
370
     9
100
AcDbPolyline
 90
        7
 70
     0
 43
0.0
 10
2631.653440925178
 20
-1360.128771471484
 10
2632.486773925137
 20
-1360.128771471484
 10
2635.857607925203
 20
-1360.128771471484
 10
2636.690940925155
 20
-1360.128771471485
 10
2636.690940951523
 20
-1359.823216470582
 10
2631.653440898752
 20
-1359.823216470582
 10
2631.653440925178
 20
-1360.128771471484
  0
HATCH
  5
300
330
1F
100
AcDbEntity
  8
Ech.1_2
 62
   252
440
 33554687
370
     5
100
AcDbHatch
 10
0.0
 20
0.0
 30
0.0
210
0.0
220
0.0
230
1.0
  2
SOLID
 70
     1
 71
     1
 91
        1
 92
        3
 72
     0
 73
     1
 93
        4
 10
2633.042329925114
 20
-1398.267662468354
 10
2633.042329925114
 20
-1399.100996467272
 10
2635.30205192516
 20
-1399.100996467272
 10
2635.30205192516
 20
-1398.267662468354
 97
        0
 75
     0
 76
     1
 98
        0
  0
LWPOLYLINE
  5
301
330
1F
100
AcDbEntity
  8
Ech.1_2
 62
     7
370
     9
100
AcDbPolyline
 90
        5
 70
     0
 43
0.0
 10
2633.042329925114
 20
-1398.267662468354
 10
2633.042329925114
 20
-1399.100996467272
 10
2635.30205192516
 20
-1399.100996467272
 10
2635.30205192516
 20
-1398.267662468354
 10
2633.042329925114
 20
-1398.267662468354
  0
LINE
  5
302
330
1F
100
AcDbEntity
  8
Ech.1_2
 62
   190
370
     9
100
AcDbLine
 10
2635.30205192516
 20
-1399.934326472679
 30
0.0
 11
2633.042329925114
 21
-1399.934326472679
 31
0.0
  0
LINE
  5
303
330
1F
100
AcDbEntity
  8
Ech.1_2
 62
   190
370
     9
100
AcDbLine
 10
2635.30205192516
 20
-1400.767660471598
 30
0.0
 11
2633.042329925114
 21
-1400.767660471598
 31
0.0
  0
LINE
  5
304
330
1F
100
AcDbEntity
  8
Ech.1_2
 62
   190
370
     9
100
AcDbLine
 10
2635.30205192516
 20
-1401.600992473761
 30
0.0
 11
2633.042329925114
 21
-1401.600992473761
 31
0.0
  0
LINE
  5
305
330
1F
100
AcDbEntity
  8
Ech.1_2
 62
   190
370
     9
100
AcDbLine
 10
2635.30205192516
 20
-1399.100994470517
 30
0.0
 11
2633.042329925114
 21
-1399.100994470517
 31
0.0
  0
HATCH
  5
306
330
1F
100
AcDbEntity
  8
Ech.1_2
 62
   252
440
 33554687
370
     5
100
AcDbHatch
 10
0.0
 20
0.0
 30
0.0
210
0.0
220
0.0
230
1.0
  2
SOLID
 70
     1
 71
     1
 91
        1
 92
        3
 72
     0
 73
     1
 93
        4
 10
2633.042329925114
 20
-1399.100992473761
 10
2633.042329925114
 20
-1399.934326472679
 10
2635.30205192516
 20
-1399.934326472679
 10
2635.30205192516
 20
-1399.100992473761
 97
        0
 75
     0
 76
     1
 98
        0
  0
LWPOLYLINE
  5
307
330
1F
100
AcDbEntity
  8
Ech.1_2
 62
     7
370
     9
100
AcDbPolyline
 90
        5
 70
     0
 43
0.0
 10
2633.042329925114
 20
-1399.100992473761
 10
2633.042329925114
 20
-1399.934326472679
 10
2635.30205192516
 20
-1399.934326472679
 10
2635.30205192516
 20
-1399.100992473761
 10
2633.042329925114
 20
-1399.100992473761
  0
HATCH
  5
308
330
1F
100
AcDbEntity
  8
Ech.1_2
 62
   252
440
 33554687
370
     5
100
AcDbHatch
 10
0.0
 20
0.0
 30
0.0
210
0.0
220
0.0
230
1.0
  2
SOLID
 70
     1
 71
     1
 91
        1
 92
        3
 72
     0
 73
     1
 93
        4
 10
2633.042329925114
 20
-1400.767658474842
 10
2633.042329925114
 20
-1401.600992473761
 10
2635.30205192516
 20
-1401.600992473761
 10
2635.30205192516
 20
-1400.767658474842
 97
        0
 75
     0
 76
     1
 98
        0
  0
LWPOLYLINE
  5
309
330
1F
100
AcDbEntity
  8
Ech.1_2
 62
     7
370
     9
100
AcDbPolyline
 90
        5
 70
     0
 43
0.0
 10
2633.042329925114
 20
-1400.767658474842
 10
2633.042329925114
 20
-1401.600992473761
 10
2635.30205192516
 20
-1401.600992473761
 10
2635.30205192516
 20
-1400.767658474842
 10
2633.042329925114
 20
-1400.767658474842
  0
HATCH
  5
30A
330
1F
100
AcDbEntity
  8
Ech.1_2
 62
    17
420
  8405056
440
 33554687
370
    20
100
AcDbHatch
 10
0.0
 20
0.0
 30
0.0
210
0.0
220
0.0
230
1.0
  2
SOLID
 70
     1
 71
     1
 91
        1
 92
        3
 72
     0
 73
     1
 93
       10
 10
2551.16447965817
 20
-1308.292112389119
 10
2547.164479658458
 20
-1312.292112389119
 10
2547.164479658458
 20
-1340.621689001926
 10
2551.164479658163
 20
-1344.292112388974
 10
2547.164479658458
 20
-1348.292112388683
 10
2547.164479658458
 20
-1355.614467847068
 10
2567.178783282578
 20
-1355.614467847068
 10
2567.178783282578
 20
-1284.658068698927
 10
2547.164479658458
 20
-1284.658068698927
 10
2547.164479658458
 20
-1304.29211238941
 97
        0
 75
     0
 76
     1
 98
        0
  0
LWPOLYLINE
  5
30B
330
1F
100
AcDbEntity
  8
Ech.1_2
 62
     7
370
    50
100
AcDbPolyline
 90
       11
 70
     0
 43
0.0
 10
2551.16447965817
 20
-1308.292112389119
 10
2547.164479658458
 20
-1312.292112389119
 10
2547.164479658458
 20
-1340.621689001926
 10
2551.164479658163
 20
-1344.292112388974
 10
2547.164479658458
 20
-1348.292112388683
 10
2547.164479658458
 20
-1355.614467847068
 10
2567.178783282578
 20
-1355.614467847068
 10
2567.178783282578
 20
-1284.658068698927
 10
2547.164479658458
 20
-1284.658068698927
 10
2547.164479658458
 20
-1304.29211238941
 10
2551.16447965817
 20
-1308.292112389119
  0
LWPOLYLINE
  5
30C
330
1F
100
AcDbEntity
  8
Ech.1_2
 62
     7
370
    20
100
AcDbPolyline
 90
        8
 70
     0
 43
0.0
 10
2547.164479658458
 20
-1284.658068698927
 10
2547.164479658458
 20
-1304.29211238941
 10
2551.16447965817
 20
-1308.292112389119
 10
2547.164479658458
 20
-1312.292112389119
 10
2547.164479658458
 20
-1340.621689001926
 10
2551.164479658163
 20
-1344.292112388974
 10
2547.164479658458
 20
-1348.292112388683
 10
2547.164479658458
 20
-1355.614467847068
  0
LINE
  5
30D
330
1F
100
AcDbEntity
  8
Ech.1_2
 62
     7
370
    20
100
AcDbLine
 10
2567.178783282578
 20
-1355.614467847068
 30
0.0
 11
2567.178783282578
 21
-1284.658068698927
 31
0.0
  0
LINE
  5
30E
330
1F
100
AcDbEntity
  8
Ech.1_2
 62
   190
370
     9
100
AcDbLine
 10
2567.970034659064
 20
-1305.841654670823
 30
0.0
 11
2567.970034659064
 21
-1300.804154670846
 31
0.0
  0
LINE
  5
30F
330
1F
100
AcDbEntity
  8
Ech.1_2
 62
   190
370
     9
100
AcDbLine
 10
2567.664479658163
 20
-1300.804154670846
 30
0.0
 11
2567.970034659064
 21
-1300.804154670846
 31
0.0
  0
HATCH
  5
310
330
1F
100
AcDbEntity
  8
Ech.1_2
 62
   252
440
 33554687
370
     5
100
AcDbHatch
 10
0.0
 20
0.0
 30
0.0
210
0.0
220
0.0
230
1.0
  2
SOLID
 70
     1
 71
     1
 91
        1
 92
        3
 72
     0
 73
     1
 93
        4
 10
2527.858924656967
 20
-1302.193043670783
 10
2527.025590658049
 20
-1302.193043670783
 10
2527.025590658049
 20
-1304.452765670829
 10
2527.858924656967
 20
-1304.452765670829
 97
        0
 75
     0
 76
     1
 98
        0
  0
LWPOLYLINE
  5
311
330
1F
100
AcDbEntity
  8
Ech.1_2
 62
     7
370
     9
100
AcDbPolyline
 90
        5
 70
     0
 43
0.0
 10
2527.858924656967
 20
-1302.193043670783
 10
2527.025590658049
 20
-1302.193043670783
 10
2527.025590658049
 20
-1304.452765670829
 10
2527.858924656967
 20
-1304.452765670829
 10
2527.858924656967
 20
-1302.193043670783
  0
LINE
  5
312
330
1F
100
AcDbEntity
  8
Ech.1_2
 62
   190
370
     9
100
AcDbLine
 10
2524.826506659544
 20
-1304.452765670829
 30
0.0
 11
2567.108923658884
 21
-1304.452765670829
 31
0.0
  0
LINE
  5
313
330
1F
100
AcDbEntity
  8
Ech.1_2
 62
   190
370
     9
100
AcDbLine
 10
2524.826506659544
 20
-1302.193043670783
 30
0.0
 11
2567.108923658884
 21
-1302.193043670783
 31
0.0
  0
ARC
  5
314
330
1F
100
AcDbEntity
  8
Ech.1_2
 62
   190
370
     9
100
AcDbCircle
 10
2555.40683126823
 20
-1303.322904670806
 30
0.0
 40
12.81320339083424
100
AcDbArc
 50
348.6632793503132
 51
11.33672064968678
  0
LINE
  5
315
330
1F
100
AcDbEntity
  8
Ech.1_2
 62
   190
370
     9
100
AcDbLine
 10
2567.664479658161
 20
-1305.841654670823
 30
0.0
 11
2567.664479658163
 21
-1305.008321670872
 31
0.0
  0
ARC
  5
316
330
1F
100
AcDbEntity
  8
Ech.1_2
 62
   190
370
     9
100
AcDbCircle
 10
2567.108923668264
 20
-1305.008321660728
 30
0.0
 40
0.5555559898988739
100
AcDbArc
 50
359.9999989538206
 51
90.00000096738879
  0
LINE
  5
317
330
1F
100
AcDbEntity
  8
Ech.1_2
 62
   190
370
     9
100
AcDbLine
 10
2567.664479658163
 20
-1305.008321670872
 30
0.0
 11
2567.664479658163
 21
-1301.637487670805
 31
0.0
  0
ARC
  5
318
330
1F
100
AcDbEntity
  8
Ech.1_2
 62
   190
370
     9
100
AcDbCircle
 10
2567.108923668376
 20
-1301.637487680995
 30
0.0
 40
0.5555559897870863
100
AcDbArc
 50
269.999999021074
 51
0.0000010509630625
  0
LINE
  5
319
330
1F
100
AcDbEntity
  8
Ech.1_2
 62
   190
370
     9
100
AcDbLine
 10
2567.664479658163
 20
-1300.804154670846
 30
0.0
 11
2567.664479658163
 21
-1301.637487670805
 31
0.0
  0
LINE
  5
31A
330
1F
100
AcDbEntity
  8
Ech.1_2
 62
   190
370
     9
100
AcDbLine
 10
2557.025590658049
 20
-1304.452765670829
 30
0.0
 11
2557.025590658049
 21
-1302.193043670783
 31
0.0
  0
LINE
  5
31B
330
1F
100
AcDbEntity
  8
Ech.1_2
 62
   190
370
     9
100
AcDbLine
 10
2556.192257657508
 20
-1304.452765670829
 30
0.0
 11
2556.192257657508
 21
-1302.193043670783
 31
0.0
  0
LINE
  5
31C
330
1F
100
AcDbEntity
  8
Ech.1_2
 62
   190
370
     9
100
AcDbLine
 10
2559.525590658049
 20
-1304.452765670829
 30
0.0
 11
2559.525590658049
 21
-1302.193043670783
 31
0.0
  0
LINE
  5
31D
330
1F
100
AcDbEntity
  8
Ech.1_2
 62
   190
370
     9
100
AcDbLine
 10
2558.692257657508
 20
-1304.452765670829
 30
0.0
 11
2558.692257657508
 21
-1302.193043670783
 31
0.0
  0
LINE
  5
31E
330
1F
100
AcDbEntity
  8
Ech.1_2
 62
   190
370
     9
100
AcDbLine
 10
2557.858924656967
 20
-1304.452765670829
 30
0.0
 11
2557.858924656967
 21
-1302.193043670783
 31
0.0
  0
LINE
  5
31F
330
1F
100
AcDbEntity
  8
Ech.1_2
 62
   190
370
     9
100
AcDbLine
 10
2562.025590658049
 20
-1304.452765670829
 30
0.0
 11
2562.025590658049
 21
-1302.193043670783
 31
0.0
  0
LINE
  5
320
330
1F
100
AcDbEntity
  8
Ech.1_2
 62
   190
370
     9
100
AcDbLine
 10
2561.192257657508
 20
-1304.452765670829
 30
0.0
 11
2561.192257657508
 21
-1302.193043670783
 31
0.0
  0
LINE
  5
321
330
1F
100
AcDbEntity
  8
Ech.1_2
 62
   190
370
     9
100
AcDbLine
 10
2560.358924656967
 20
-1304.452765670829
 30
0.0
 11
2560.358924656967
 21
-1302.193043670783
 31
0.0
  0
LINE
  5
322
330
1F
100
AcDbEntity
  8
Ech.1_2
 62
   190
370
     9
100
AcDbLine
 10
2562.858924656967
 20
-1304.452765670829
 30
0.0
 11
2562.858924656967
 21
-1302.193043670783
 31
0.0
  0
LINE
  5
323
330
1F
100
AcDbEntity
  8
Ech.1_2
 62
   190
370
     9
100
AcDbLine
 10
2563.692257657508
 20
-1304.452765670829
 30
0.0
 11
2563.692257657508
 21
-1302.193043670783
 31
0.0
  0
LINE
  5
324
330
1F
100
AcDbEntity
  8
Ech.1_2
 62
   190
370
     9
100
AcDbLine
 10
2564.525590658049
 20
-1304.452765670829
 30
0.0
 11
2564.525590658049
 21
-1302.193043670783
 31
0.0
  0
LINE
  5
325
330
1F
100
AcDbEntity
  8
Ech.1_2
 62
   190
370
     9
100
AcDbLine
 10
2565.358924656967
 20
-1304.452765670829
 30
0.0
 11
2565.358924656967
 21
-1302.19304367079
 31
0.0
  0
LINE
  5
326
330
1F
100
AcDbEntity
  8
Ech.1_2
 62
   190
370
     9
100
AcDbLine
 10
2530.358924656967
 20
-1304.452765670829
 30
0.0
 11
2530.358924656967
 21
-1302.193043670783
 31
0.0
  0
LINE
  5
327
330
1F
100
AcDbEntity
  8
Ech.1_2
 62
   190
370
     9
100
AcDbLine
 10
2531.192257657508
 20
-1304.452765670829
 30
0.0
 11
2531.192257657508
 21
-1302.193043670783
 31
0.0
  0
LINE
  5
328
330
1F
100
AcDbEntity
  8
Ech.1_2
 62
   190
370
     9
100
AcDbLine
 10
2529.525590658049
 20
-1304.452765670829
 30
0.0
 11
2529.525590658049
 21
-1302.193043670783
 31
0.0
  0
LINE
  5
329
330
1F
100
AcDbEntity
  8
Ech.1_2
 62
   190
370
     9
100
AcDbLine
 10
2533.692257657508
 20
-1304.452765670829
 30
0.0
 11
2533.692257657508
 21
-1302.193043670783
 31
0.0
  0
LINE
  5
32A
330
1F
100
AcDbEntity
  8
Ech.1_2
 62
   190
370
     9
100
AcDbLine
 10
2532.858924656967
 20
-1304.452765670829
 30
0.0
 11
2532.858924656967
 21
-1302.193043670783
 31
0.0
  0
LINE
  5
32B
330
1F
100
AcDbEntity
  8
Ech.1_2
 62
   190
370
     9
100
AcDbLine
 10
2532.025590658049
 20
-1304.452765670829
 30
0.0
 11
2532.025590658049
 21
-1302.193043670783
 31
0.0
  0
LINE
  5
32C
330
1F
100
AcDbEntity
  8
Ech.1_2
 62
   190
370
     9
100
AcDbLine
 10
2536.192257657508
 20
-1304.452765670829
 30
0.0
 11
2536.192257657508
 21
-1302.193043670783
 31
0.0
  0
LINE
  5
32D
330
1F
100
AcDbEntity
  8
Ech.1_2
 62
   190
370
     9
100
AcDbLine
 10
2535.358924656967
 20
-1304.452765670829
 30
0.0
 11
2535.358924656967
 21
-1302.193043670783
 31
0.0
  0
LINE
  5
32E
330
1F
100
AcDbEntity
  8
Ech.1_2
 62
   190
370
     9
100
AcDbLine
 10
2534.525590658049
 20
-1304.452765670829
 30
0.0
 11
2534.525590658049
 21
-1302.193043670783
 31
0.0
  0
LINE
  5
32F
330
1F
100
AcDbEntity
  8
Ech.1_2
 62
   190
370
     9
100
AcDbLine
 10
2538.692257657508
 20
-1304.452765670829
 30
0.0
 11
2538.692257657508
 21
-1302.193043670783
 31
0.0
  0
LINE
  5
330
330
1F
100
AcDbEntity
  8
Ech.1_2
 62
   190
370
     9
100
AcDbLine
 10
2537.858924656967
 20
-1304.452765670829
 30
0.0
 11
2537.858924656967
 21
-1302.193043670783
 31
0.0
  0
LINE
  5
331
330
1F
100
AcDbEntity
  8
Ech.1_2
 62
   190
370
     9
100
AcDbLine
 10
2537.025590658049
 20
-1304.452765670829
 30
0.0
 11
2537.025590658049
 21
-1302.193043670783
 31
0.0
  0
LINE
  5
332
330
1F
100
AcDbEntity
  8
Ech.1_2
 62
   190
370
     9
100
AcDbLine
 10
2539.525590658049
 20
-1304.452765670829
 30
0.0
 11
2539.525590658049
 21
-1302.193043670783
 31
0.0
  0
LINE
  5
333
330
1F
100
AcDbEntity
  8
Ech.1_2
 62
   190
370
     9
100
AcDbLine
 10
2552.858924656967
 20
-1304.452765670829
 30
0.0
 11
2552.858924656967
 21
-1302.193043670783
 31
0.0
  0
LINE
  5
334
330
1F
100
AcDbEntity
  8
Ech.1_2
 62
   190
370
     9
100
AcDbLine
 10
2552.025590658049
 20
-1304.452765670829
 30
0.0
 11
2552.025590658049
 21
-1302.193043670783
 31
0.0
  0
LINE
  5
335
330
1F
100
AcDbEntity
  8
Ech.1_2
 62
   190
370
     9
100
AcDbLine
 10
2551.192257657508
 20
-1304.452765670829
 30
0.0
 11
2551.192257657508
 21
-1302.193043670783
 31
0.0
  0
LINE
  5
336
330
1F
100
AcDbEntity
  8
Ech.1_2
 62
   190
370
     9
100
AcDbLine
 10
2550.358924656967
 20
-1304.452765670829
 30
0.0
 11
2550.358924656967
 21
-1302.193043670783
 31
0.0
  0
LINE
  5
337
330
1F
100
AcDbEntity
  8
Ech.1_2
 62
   190
370
     9
100
AcDbLine
 10
2547.858924656967
 20
-1304.452765670829
 30
0.0
 11
2547.858924656967
 21
-1302.193043670783
 31
0.0
  0
LINE
  5
338
330
1F
100
AcDbEntity
  8
Ech.1_2
 62
   190
370
     9
100
AcDbLine
 10
2548.692257657508
 20
-1304.452765670829
 30
0.0
 11
2548.692257657508
 21
-1302.193043670783
 31
0.0
  0
LINE
  5
339
330
1F
100
AcDbEntity
  8
Ech.1_2
 62
   190
370
     9
100
AcDbLine
 10
2549.525590658049
 20
-1304.452765670829
 30
0.0
 11
2549.525590658049
 21
-1302.193043670783
 31
0.0
  0
LINE
  5
33A
330
1F
100
AcDbEntity
  8
Ech.1_2
 62
   190
370
     9
100
AcDbLine
 10
2545.358924656967
 20
-1304.452765670829
 30
0.0
 11
2545.358924656967
 21
-1302.193043670783
 31
0.0
  0
LINE
  5
33B
330
1F
100
AcDbEntity
  8
Ech.1_2
 62
   190
370
     9
100
AcDbLine
 10
2546.192257657508
 20
-1304.452765670829
 30
0.0
 11
2546.192257657508
 21
-1302.193043670783
 31
0.0
  0
LINE
  5
33C
330
1F
100
AcDbEntity
  8
Ech.1_2
 62
   190
370
     9
100
AcDbLine
 10
2547.025590658049
 20
-1304.452765670829
 30
0.0
 11
2547.025590658049
 21
-1302.193043670783
 31
0.0
  0
LINE
  5
33D
330
1F
100
AcDbEntity
  8
Ech.1_2
 62
   190
370
     9
100
AcDbLine
 10
2542.858924656967
 20
-1304.452765670829
 30
0.0
 11
2542.858924656967
 21
-1302.193043670783
 31
0.0
  0
LINE
  5
33E
330
1F
100
AcDbEntity
  8
Ech.1_2
 62
   190
370
     9
100
AcDbLine
 10
2543.692257657508
 20
-1304.452765670829
 30
0.0
 11
2543.692257657508
 21
-1302.193043670783
 31
0.0
  0
LINE
  5
33F
330
1F
100
AcDbEntity
  8
Ech.1_2
 62
   190
370
     9
100
AcDbLine
 10
2544.525590658049
 20
-1304.452765670829
 30
0.0
 11
2544.525590658049
 21
-1302.193043670783
 31
0.0
  0
LINE
  5
340
330
1F
100
AcDbEntity
  8
Ech.1_2
 62
   190
370
     9
100
AcDbLine
 10
2540.358924656967
 20
-1304.452765670829
 30
0.0
 11
2540.358924656967
 21
-1302.193043670783
 31
0.0
  0
LINE
  5
341
330
1F
100
AcDbEntity
  8
Ech.1_2
 62
   190
370
     9
100
AcDbLine
 10
2541.192257657508
 20
-1304.452765670829
 30
0.0
 11
2541.192257657508
 21
-1302.193043670783
 31
0.0
  0
LINE
  5
342
330
1F
100
AcDbEntity
  8
Ech.1_2
 62
   190
370
     9
100
AcDbLine
 10
2542.025590658049
 20
-1304.452765670829
 30
0.0
 11
2542.025590658049
 21
-1302.193043670783
 31
0.0
  0
LINE
  5
343
330
1F
100
AcDbEntity
  8
Ech.1_2
 62
   190
370
     9
100
AcDbLine
 10
2554.525590658049
 20
-1304.452765670829
 30
0.0
 11
2554.525590658049
 21
-1302.193043670783
 31
0.0
  0
LINE
  5
344
330
1F
100
AcDbEntity
  8
Ech.1_2
 62
   190
370
     9
100
AcDbLine
 10
2553.692257657508
 20
-1304.452765670829
 30
0.0
 11
2553.692257657508
 21
-1302.193043670783
 31
0.0
  0
LINE
  5
345
330
1F
100
AcDbEntity
  8
Ech.1_2
 62
   190
370
     9
100
AcDbLine
 10
2552.858924656967
 20
-1304.452765670829
 30
0.0
 11
2552.858924656967
 21
-1302.193043670783
 31
0.0
  0
LINE
  5
346
330
1F
100
AcDbEntity
  8
Ech.1_2
 62
   190
370
     9
100
AcDbLine
 10
2555.358924656967
 20
-1304.452765670829
 30
0.0
 11
2555.358924656967
 21
-1302.193043670783
 31
0.0
  0
LINE
  5
347
330
1F
100
AcDbEntity
  8
Ech.1_2
 62
   190
370
     9
100
AcDbLine
 10
2522.164479658163
 20
-1303.322904670835
 30
0.0
 11
2524.826506659544
 21
-1304.452765670829
 31
0.0
  0
ARC
  5
348
330
1F
100
AcDbEntity
  8
Ech.1_2
 62
   190
370
     9
100
AcDbCircle
 10
2523.417155668947
 20
-1303.322904670838
 30
0.0
 40
1.806337996665552
100
AcDbArc
 50
321.2812399141965
 51
38.71876008580354
  0
LINE
  5
349
330
1F
100
AcDbEntity
  8
Ech.1_2
 62
   190
370
     9
100
AcDbLine
 10
2522.164479658163
 20
-1303.322904670835
 30
0.0
 11
2524.826506659544
 21
-1302.193043670783
 31
0.0
  0
HATCH
  5
34A
330
1F
100
AcDbEntity
  8
Ech.1_2
 62
   252
440
 33554687
370
     5
100
AcDbHatch
 10
0.0
 20
0.0
 30
0.0
210
0.0
220
0.0
230
1.0
  2
SOLID
 70
     1
 71
     1
 91
        1
 92
        3
 72
     0
 73
     1
 93
        4
 10
2565.358924656967
 20
-1302.19304367079
 10
2564.525590658049
 20
-1302.193043670783
 10
2564.525590658049
 20
-1304.452765670829
 10
2565.358924656967
 20
-1304.452765670829
 97
        0
 75
     0
 76
     1
 98
        0
  0
LWPOLYLINE
  5
34B
330
1F
100
AcDbEntity
  8
Ech.1_2
 62
     7
370
     9
100
AcDbPolyline
 90
        5
 70
     0
 43
0.0
 10
2565.358924656967
 20
-1302.19304367079
 10
2564.525590658049
 20
-1302.193043670783
 10
2564.525590658049
 20
-1304.452765670829
 10
2565.358924656967
 20
-1304.452765670829
 10
2565.358924656967
 20
-1302.19304367079
  0
HATCH
  5
34C
330
1F
100
AcDbEntity
  8
Ech.1_2
 62
   252
440
 33554687
370
     5
100
AcDbHatch
 10
0.0
 20
0.0
 30
0.0
210
0.0
220
0.0
230
1.0
  2
SOLID
 70
     1
 71
     1
 91
        1
 92
        3
 72
     0
 73
     1
 93
        4
 10
2564.525590658049
 20
-1302.193043670783
 10
2563.69225665913
 20
-1302.193043670783
 10
2563.69225665913
 20
-1304.452765670829
 10
2564.525590658049
 20
-1304.452765670829
 97
        0
 75
     0
 76
     1
 98
        0
  0
LWPOLYLINE
  5
34D
330
1F
100
AcDbEntity
  8
Ech.1_2
 62
     7
370
     9
100
AcDbPolyline
 90
        5
 70
     0
 43
0.0
 10
2564.525590658049
 20
-1302.193043670783
 10
2563.69225665913
 20
-1302.193043670783
 10
2563.69225665913
 20
-1304.452765670829
 10
2564.525590658049
 20
-1304.452765670829
 10
2564.525590658049
 20
-1302.193043670783
  0
HATCH
  5
34E
330
1F
100
AcDbEntity
  8
Ech.1_2
 62
   252
440
 33554687
370
     5
100
AcDbHatch
 10
0.0
 20
0.0
 30
0.0
210
0.0
220
0.0
230
1.0
  2
SOLID
 70
     1
 71
     1
 91
        1
 92
        3
 72
     0
 73
     1
 93
        4
 10
2563.69225665913
 20
-1302.193043670783
 10
2562.858922660212
 20
-1302.193043670783
 10
2562.858922660212
 20
-1304.452765670829
 10
2563.69225665913
 20
-1304.452765670829
 97
        0
 75
     0
 76
     1
 98
        0
  0
LWPOLYLINE
  5
34F
330
1F
100
AcDbEntity
  8
Ech.1_2
 62
     7
370
     9
100
AcDbPolyline
 90
        5
 70
     0
 43
0.0
 10
2563.69225665913
 20
-1302.193043670783
 10
2562.858922660212
 20
-1302.193043670783
 10
2562.858922660212
 20
-1304.452765670829
 10
2563.69225665913
 20
-1304.452765670829
 10
2563.69225665913
 20
-1302.193043670783
  0
HATCH
  5
350
330
1F
100
AcDbEntity
  8
Ech.1_2
 62
   252
440
 33554687
370
     5
100
AcDbHatch
 10
0.0
 20
0.0
 30
0.0
210
0.0
220
0.0
230
1.0
  2
SOLID
 70
     1
 71
     1
 91
        1
 92
        3
 72
     0
 73
     1
 93
        4
 10
2562.858922660212
 20
-1302.193043670783
 10
2562.025588661293
 20
-1302.193043670783
 10
2562.025588661293
 20
-1304.452765670829
 10
2562.858922660212
 20
-1304.452765670829
 97
        0
 75
     0
 76
     1
 98
        0
  0
LWPOLYLINE
  5
351
330
1F
100
AcDbEntity
  8
Ech.1_2
 62
     7
370
     9
100
AcDbPolyline
 90
        5
 70
     0
 43
0.0
 10
2562.858922660212
 20
-1302.193043670783
 10
2562.025588661293
 20
-1302.193043670783
 10
2562.025588661293
 20
-1304.452765670829
 10
2562.858922660212
 20
-1304.452765670829
 10
2562.858922660212
 20
-1302.193043670783
  0
HATCH
  5
352
330
1F
100
AcDbEntity
  8
Ech.1_2
 62
   252
440
 33554687
370
     5
100
AcDbHatch
 10
0.0
 20
0.0
 30
0.0
210
0.0
220
0.0
230
1.0
  2
SOLID
 70
     1
 71
     1
 91
        1
 92
        3
 72
     0
 73
     1
 93
        4
 10
2562.025590658049
 20
-1302.193043670783
 10
2561.19225665913
 20
-1302.193043670783
 10
2561.19225665913
 20
-1304.452765670829
 10
2562.025590658049
 20
-1304.452765670829
 97
        0
 75
     0
 76
     1
 98
        0
  0
LWPOLYLINE
  5
353
330
1F
100
AcDbEntity
  8
Ech.1_2
 62
     7
370
     9
100
AcDbPolyline
 90
        5
 70
     0
 43
0.0
 10
2562.025590658049
 20
-1302.193043670783
 10
2561.19225665913
 20
-1302.193043670783
 10
2561.19225665913
 20
-1304.452765670829
 10
2562.025590658049
 20
-1304.452765670829
 10
2562.025590658049
 20
-1302.193043670783
  0
HATCH
  5
354
330
1F
100
AcDbEntity
  8
Ech.1_2
 62
   252
440
 33554687
370
     5
100
AcDbHatch
 10
0.0
 20
0.0
 30
0.0
210
0.0
220
0.0
230
1.0
  2
SOLID
 70
     1
 71
     1
 91
        1
 92
        3
 72
     0
 73
     1
 93
        4
 10
2561.192257657508
 20
-1302.193043670783
 10
2560.358923658589
 20
-1302.193043670783
 10
2560.358923658589
 20
-1304.452765670836
 10
2561.192257657508
 20
-1304.452765670829
 97
        0
 75
     0
 76
     1
 98
        0
  0
LWPOLYLINE
  5
355
330
1F
100
AcDbEntity
  8
Ech.1_2
 62
     7
370
     9
100
AcDbPolyline
 90
        5
 70
     0
 43
0.0
 10
2561.192257657508
 20
-1302.193043670783
 10
2560.358923658589
 20
-1302.193043670783
 10
2560.358923658589
 20
-1304.452765670836
 10
2561.192257657508
 20
-1304.452765670829
 10
2561.192257657508
 20
-1302.193043670783
  0
HATCH
  5
356
330
1F
100
AcDbEntity
  8
Ech.1_2
 62
   252
440
 33554687
370
     5
100
AcDbHatch
 10
0.0
 20
0.0
 30
0.0
210
0.0
220
0.0
230
1.0
  2
SOLID
 70
     1
 71
     1
 91
        1
 92
        3
 72
     0
 73
     1
 93
        4
 10
2560.358923658589
 20
-1302.193043670783
 10
2559.525589659671
 20
-1302.193043670783
 10
2559.525589659671
 20
-1304.452765670829
 10
2560.358923658589
 20
-1304.452765670836
 97
        0
 75
     0
 76
     1
 98
        0
  0
LWPOLYLINE
  5
357
330
1F
100
AcDbEntity
  8
Ech.1_2
 62
     7
370
     9
100
AcDbPolyline
 90
        5
 70
     0
 43
0.0
 10
2560.358923658589
 20
-1302.193043670783
 10
2559.525589659671
 20
-1302.193043670783
 10
2559.525589659671
 20
-1304.452765670829
 10
2560.358923658589
 20
-1304.452765670836
 10
2560.358923658589
 20
-1302.193043670783
  0
HATCH
  5
358
330
1F
100
AcDbEntity
  8
Ech.1_2
 62
   252
440
 33554687
370
     5
100
AcDbHatch
 10
0.0
 20
0.0
 30
0.0
210
0.0
220
0.0
230
1.0
  2
SOLID
 70
     1
 71
     1
 91
        1
 92
        3
 72
     0
 73
     1
 93
        4
 10
2559.525590658049
 20
-1302.193043670783
 10
2558.69225665913
 20
-1302.193043670783
 10
2558.69225665913
 20
-1304.452765670829
 10
2559.525590658049
 20
-1304.452765670829
 97
        0
 75
     0
 76
     1
 98
        0
  0
LWPOLYLINE
  5
359
330
1F
100
AcDbEntity
  8
Ech.1_2
 62
     7
370
     9
100
AcDbPolyline
 90
        5
 70
     0
 43
0.0
 10
2559.525590658049
 20
-1302.193043670783
 10
2558.69225665913
 20
-1302.193043670783
 10
2558.69225665913
 20
-1304.452765670829
 10
2559.525590658049
 20
-1304.452765670829
 10
2559.525590658049
 20
-1302.193043670783
  0
HATCH
  5
35A
330
1F
100
AcDbEntity
  8
Ech.1_2
 62
   252
440
 33554687
370
     5
100
AcDbHatch
 10
0.0
 20
0.0
 30
0.0
210
0.0
220
0.0
230
1.0
  2
SOLID
 70
     1
 71
     1
 91
        1
 92
        3
 72
     0
 73
     1
 93
        4
 10
2558.69225665913
 20
-1302.193043670783
 10
2557.858922660212
 20
-1302.193043670783
 10
2557.858922660212
 20
-1304.452765670829
 10
2558.69225665913
 20
-1304.452765670829
 97
        0
 75
     0
 76
     1
 98
        0
  0
LWPOLYLINE
  5
35B
330
1F
100
AcDbEntity
  8
Ech.1_2
 62
     7
370
     9
100
AcDbPolyline
 90
        5
 70
     0
 43
0.0
 10
2558.69225665913
 20
-1302.193043670783
 10
2557.858922660212
 20
-1302.193043670783
 10
2557.858922660212
 20
-1304.452765670829
 10
2558.69225665913
 20
-1304.452765670829
 10
2558.69225665913
 20
-1302.193043670783
  0
HATCH
  5
35C
330
1F
100
AcDbEntity
  8
Ech.1_2
 62
   252
440
 33554687
370
     5
100
AcDbHatch
 10
0.0
 20
0.0
 30
0.0
210
0.0
220
0.0
230
1.0
  2
SOLID
 70
     1
 71
     1
 91
        1
 92
        3
 72
     0
 73
     1
 93
        4
 10
2557.858924656967
 20
-1302.193043670783
 10
2557.025590658049
 20
-1302.193043670783
 10
2557.025590658049
 20
-1304.452765670829
 10
2557.858924656967
 20
-1304.452765670829
 97
        0
 75
     0
 76
     1
 98
        0
  0
LWPOLYLINE
  5
35D
330
1F
100
AcDbEntity
  8
Ech.1_2
 62
     7
370
     9
100
AcDbPolyline
 90
        5
 70
     0
 43
0.0
 10
2557.858924656967
 20
-1302.193043670783
 10
2557.025590658049
 20
-1302.193043670783
 10
2557.025590658049
 20
-1304.452765670829
 10
2557.858924656967
 20
-1304.452765670829
 10
2557.858924656967
 20
-1302.193043670783
  0
HATCH
  5
35E
330
1F
100
AcDbEntity
  8
Ech.1_2
 62
   252
440
 33554687
370
     5
100
AcDbHatch
 10
0.0
 20
0.0
 30
0.0
210
0.0
220
0.0
230
1.0
  2
SOLID
 70
     1
 71
     1
 91
        1
 92
        3
 72
     0
 73
     1
 93
        4
 10
2557.025590658049
 20
-1302.193043670783
 10
2556.19225665913
 20
-1302.193043670783
 10
2556.19225665913
 20
-1304.452765670829
 10
2557.025590658049
 20
-1304.452765670829
 97
        0
 75
     0
 76
     1
 98
        0
  0
LWPOLYLINE
  5
35F
330
1F
100
AcDbEntity
  8
Ech.1_2
 62
     7
370
     9
100
AcDbPolyline
 90
        5
 70
     0
 43
0.0
 10
2557.025590658049
 20
-1302.193043670783
 10
2556.19225665913
 20
-1302.193043670783
 10
2556.19225665913
 20
-1304.452765670829
 10
2557.025590658049
 20
-1304.452765670829
 10
2557.025590658049
 20
-1302.193043670783
  0
HATCH
  5
360
330
1F
100
AcDbEntity
  8
Ech.1_2
 62
   252
440
 33554687
370
     5
100
AcDbHatch
 10
0.0
 20
0.0
 30
0.0
210
0.0
220
0.0
230
1.0
  2
SOLID
 70
     1
 71
     1
 91
        1
 92
        3
 72
     0
 73
     1
 93
        4
 10
2556.19225665913
 20
-1302.193043670783
 10
2555.358922660212
 20
-1302.193043670783
 10
2555.35892266021
 20
-1304.452765670829
 10
2556.19225665913
 20
-1304.452765670829
 97
        0
 75
     0
 76
     1
 98
        0
  0
LWPOLYLINE
  5
361
330
1F
100
AcDbEntity
  8
Ech.1_2
 62
     7
370
     9
100
AcDbPolyline
 90
        5
 70
     0
 43
0.0
 10
2556.19225665913
 20
-1302.193043670783
 10
2555.358922660212
 20
-1302.193043670783
 10
2555.35892266021
 20
-1304.452765670829
 10
2556.19225665913
 20
-1304.452765670829
 10
2556.19225665913
 20
-1302.193043670783
  0
HATCH
  5
362
330
1F
100
AcDbEntity
  8
Ech.1_2
 62
   252
440
 33554687
370
     5
100
AcDbHatch
 10
0.0
 20
0.0
 30
0.0
210
0.0
220
0.0
230
1.0
  2
SOLID
 70
     1
 71
     1
 91
        1
 92
        3
 72
     0
 73
     1
 93
        4
 10
2555.358922660212
 20
-1302.193043670783
 10
2554.525588661293
 20
-1302.193043670783
 10
2554.525588661293
 20
-1304.452765670829
 10
2555.35892266021
 20
-1304.452765670829
 97
        0
 75
     0
 76
     1
 98
        0
  0
LWPOLYLINE
  5
363
330
1F
100
AcDbEntity
  8
Ech.1_2
 62
     7
370
     9
100
AcDbPolyline
 90
        5
 70
     0
 43
0.0
 10
2555.358922660212
 20
-1302.193043670783
 10
2554.525588661293
 20
-1302.193043670783
 10
2554.525588661293
 20
-1304.452765670829
 10
2555.35892266021
 20
-1304.452765670829
 10
2555.358922660212
 20
-1302.193043670783
  0
HATCH
  5
364
330
1F
100
AcDbEntity
  8
Ech.1_2
 62
   252
440
 33554687
370
     5
100
AcDbHatch
 10
0.0
 20
0.0
 30
0.0
210
0.0
220
0.0
230
1.0
  2
SOLID
 70
     1
 71
     1
 91
        1
 92
        3
 72
     0
 73
     1
 93
        4
 10
2554.525588661293
 20
-1302.193043670783
 10
2553.692254662375
 20
-1302.193043670783
 10
2553.692254662375
 20
-1304.452765670829
 10
2554.525588661293
 20
-1304.452765670829
 97
        0
 75
     0
 76
     1
 98
        0
  0
LWPOLYLINE
  5
365
330
1F
100
AcDbEntity
  8
Ech.1_2
 62
     7
370
     9
100
AcDbPolyline
 90
        5
 70
     0
 43
0.0
 10
2554.525588661293
 20
-1302.193043670783
 10
2553.692254662375
 20
-1302.193043670783
 10
2553.692254662375
 20
-1304.452765670829
 10
2554.525588661293
 20
-1304.452765670829
 10
2554.525588661293
 20
-1302.193043670783
  0
HATCH
  5
366
330
1F
100
AcDbEntity
  8
Ech.1_2
 62
   252
440
 33554687
370
     5
100
AcDbHatch
 10
0.0
 20
0.0
 30
0.0
210
0.0
220
0.0
230
1.0
  2
SOLID
 70
     1
 71
     1
 91
        1
 92
        3
 72
     0
 73
     1
 93
        4
 10
2553.69225665913
 20
-1302.193043670783
 10
2552.858922660212
 20
-1302.193043670783
 10
2552.858922660212
 20
-1304.452765670829
 10
2553.69225665913
 20
-1304.452765670829
 97
        0
 75
     0
 76
     1
 98
        0
  0
LWPOLYLINE
  5
367
330
1F
100
AcDbEntity
  8
Ech.1_2
 62
     7
370
     9
100
AcDbPolyline
 90
        5
 70
     0
 43
0.0
 10
2553.69225665913
 20
-1302.193043670783
 10
2552.858922660212
 20
-1302.193043670783
 10
2552.858922660212
 20
-1304.452765670829
 10
2553.69225665913
 20
-1304.452765670829
 10
2553.69225665913
 20
-1302.193043670783
  0
HATCH
  5
368
330
1F
100
AcDbEntity
  8
Ech.1_2
 62
   252
440
 33554687
370
     5
100
AcDbHatch
 10
0.0
 20
0.0
 30
0.0
210
0.0
220
0.0
230
1.0
  2
SOLID
 70
     1
 71
     1
 91
        1
 92
        3
 72
     0
 73
     1
 93
        4
 10
2552.858923658589
 20
-1302.193043670783
 10
2552.025589659671
 20
-1302.193043670783
 10
2552.025589659671
 20
-1304.452765670829
 10
2552.858923658589
 20
-1304.452765670829
 97
        0
 75
     0
 76
     1
 98
        0
  0
LWPOLYLINE
  5
369
330
1F
100
AcDbEntity
  8
Ech.1_2
 62
     7
370
     9
100
AcDbPolyline
 90
        5
 70
     0
 43
0.0
 10
2552.858923658589
 20
-1302.193043670783
 10
2552.025589659671
 20
-1302.193043670783
 10
2552.025589659671
 20
-1304.452765670829
 10
2552.858923658589
 20
-1304.452765670829
 10
2552.858923658589
 20
-1302.193043670783
  0
HATCH
  5
36A
330
1F
100
AcDbEntity
  8
Ech.1_2
 62
   252
440
 33554687
370
     5
100
AcDbHatch
 10
0.0
 20
0.0
 30
0.0
210
0.0
220
0.0
230
1.0
  2
SOLID
 70
     1
 71
     1
 91
        1
 92
        3
 72
     0
 73
     1
 93
        4
 10
2552.025589659671
 20
-1302.193043670783
 10
2551.192255660752
 20
-1302.193043670783
 10
2551.192255660752
 20
-1304.452765670829
 10
2552.025589659671
 20
-1304.452765670829
 97
        0
 75
     0
 76
     1
 98
        0
  0
LWPOLYLINE
  5
36B
330
1F
100
AcDbEntity
  8
Ech.1_2
 62
     7
370
     9
100
AcDbPolyline
 90
        5
 70
     0
 43
0.0
 10
2552.025589659671
 20
-1302.193043670783
 10
2551.192255660752
 20
-1302.193043670783
 10
2551.192255660752
 20
-1304.452765670829
 10
2552.025589659671
 20
-1304.452765670829
 10
2552.025589659671
 20
-1302.193043670783
  0
HATCH
  5
36C
330
1F
100
AcDbEntity
  8
Ech.1_2
 62
   252
440
 33554687
370
     5
100
AcDbHatch
 10
0.0
 20
0.0
 30
0.0
210
0.0
220
0.0
230
1.0
  2
SOLID
 70
     1
 71
     1
 91
        1
 92
        3
 72
     0
 73
     1
 93
        4
 10
2551.19225665913
 20
-1302.193043670783
 10
2550.358922660212
 20
-1302.193043670783
 10
2550.358922660212
 20
-1304.452765670829
 10
2551.19225665913
 20
-1304.452765670829
 97
        0
 75
     0
 76
     1
 98
        0
  0
LWPOLYLINE
  5
36D
330
1F
100
AcDbEntity
  8
Ech.1_2
 62
     7
370
     9
100
AcDbPolyline
 90
        5
 70
     0
 43
0.0
 10
2551.19225665913
 20
-1302.193043670783
 10
2550.358922660212
 20
-1302.193043670783
 10
2550.358922660212
 20
-1304.452765670829
 10
2551.19225665913
 20
-1304.452765670829
 10
2551.19225665913
 20
-1302.193043670783
  0
HATCH
  5
36E
330
1F
100
AcDbEntity
  8
Ech.1_2
 62
   252
440
 33554687
370
     5
100
AcDbHatch
 10
0.0
 20
0.0
 30
0.0
210
0.0
220
0.0
230
1.0
  2
SOLID
 70
     1
 71
     1
 91
        1
 92
        3
 72
     0
 73
     1
 93
        4
 10
2550.358922660212
 20
-1302.193043670783
 10
2549.525588661293
 20
-1302.193043670783
 10
2549.525588661293
 20
-1304.452765670829
 10
2550.358922660212
 20
-1304.452765670829
 97
        0
 75
     0
 76
     1
 98
        0
  0
LWPOLYLINE
  5
36F
330
1F
100
AcDbEntity
  8
Ech.1_2
 62
     7
370
     9
100
AcDbPolyline
 90
        5
 70
     0
 43
0.0
 10
2550.358922660212
 20
-1302.193043670783
 10
2549.525588661293
 20
-1302.193043670783
 10
2549.525588661293
 20
-1304.452765670829
 10
2550.358922660212
 20
-1304.452765670829
 10
2550.358922660212
 20
-1302.193043670783
  0
HATCH
  5
370
330
1F
100
AcDbEntity
  8
Ech.1_2
 62
   252
440
 33554687
370
     5
100
AcDbHatch
 10
0.0
 20
0.0
 30
0.0
210
0.0
220
0.0
230
1.0
  2
SOLID
 70
     1
 71
     1
 91
        1
 92
        3
 72
     0
 73
     1
 93
        4
 10
2549.525590658049
 20
-1302.193043670783
 10
2548.69225665913
 20
-1302.193043670783
 10
2548.69225665913
 20
-1304.452765670829
 10
2549.525590658049
 20
-1304.452765670829
 97
        0
 75
     0
 76
     1
 98
        0
  0
LWPOLYLINE
  5
371
330
1F
100
AcDbEntity
  8
Ech.1_2
 62
     7
370
     9
100
AcDbPolyline
 90
        5
 70
     0
 43
0.0
 10
2549.525590658049
 20
-1302.193043670783
 10
2548.69225665913
 20
-1302.193043670783
 10
2548.69225665913
 20
-1304.452765670829
 10
2549.525590658049
 20
-1304.452765670829
 10
2549.525590658049
 20
-1302.193043670783
  0
HATCH
  5
372
330
1F
100
AcDbEntity
  8
Ech.1_2
 62
   252
440
 33554687
370
     5
100
AcDbHatch
 10
0.0
 20
0.0
 30
0.0
210
0.0
220
0.0
230
1.0
  2
SOLID
 70
     1
 71
     1
 91
        1
 92
        3
 72
     0
 73
     1
 93
        4
 10
2548.69225665913
 20
-1302.193043670783
 10
2547.858922660212
 20
-1302.193043670783
 10
2547.858922660212
 20
-1304.452765670829
 10
2548.69225665913
 20
-1304.452765670829
 97
        0
 75
     0
 76
     1
 98
        0
  0
LWPOLYLINE
  5
373
330
1F
100
AcDbEntity
  8
Ech.1_2
 62
     7
370
     9
100
AcDbPolyline
 90
        5
 70
     0
 43
0.0
 10
2548.69225665913
 20
-1302.193043670783
 10
2547.858922660212
 20
-1302.193043670783
 10
2547.858922660212
 20
-1304.452765670829
 10
2548.69225665913
 20
-1304.452765670829
 10
2548.69225665913
 20
-1302.193043670783
  0
HATCH
  5
374
330
1F
100
AcDbEntity
  8
Ech.1_2
 62
   252
440
 33554687
370
     5
100
AcDbHatch
 10
0.0
 20
0.0
 30
0.0
210
0.0
220
0.0
230
1.0
  2
SOLID
 70
     1
 71
     1
 91
        1
 92
        3
 72
     0
 73
     1
 93
        4
 10
2547.858922660212
 20
-1302.193043670783
 10
2547.025588661293
 20
-1302.193043670783
 10
2547.025588661293
 20
-1304.452765670829
 10
2547.858922660212
 20
-1304.452765670829
 97
        0
 75
     0
 76
     1
 98
        0
  0
LWPOLYLINE
  5
375
330
1F
100
AcDbEntity
  8
Ech.1_2
 62
     7
370
     9
100
AcDbPolyline
 90
        5
 70
     0
 43
0.0
 10
2547.858922660212
 20
-1302.193043670783
 10
2547.025588661293
 20
-1302.193043670783
 10
2547.025588661293
 20
-1304.452765670829
 10
2547.858922660212
 20
-1304.452765670829
 10
2547.858922660212
 20
-1302.193043670783
  0
HATCH
  5
376
330
1F
100
AcDbEntity
  8
Ech.1_2
 62
   252
440
 33554687
370
     5
100
AcDbHatch
 10
0.0
 20
0.0
 30
0.0
210
0.0
220
0.0
230
1.0
  2
SOLID
 70
     1
 71
     1
 91
        1
 92
        3
 72
     0
 73
     1
 93
        4
 10
2547.025588661293
 20
-1302.193043670783
 10
2546.192254662373
 20
-1302.193043670783
 10
2546.192254662375
 20
-1304.452765670829
 10
2547.025588661293
 20
-1304.452765670829
 97
        0
 75
     0
 76
     1
 98
        0
  0
LWPOLYLINE
  5
377
330
1F
100
AcDbEntity
  8
Ech.1_2
 62
     7
370
     9
100
AcDbPolyline
 90
        5
 70
     0
 43
0.0
 10
2547.025588661293
 20
-1302.193043670783
 10
2546.192254662373
 20
-1302.193043670783
 10
2546.192254662375
 20
-1304.452765670829
 10
2547.025588661293
 20
-1304.452765670829
 10
2547.025588661293
 20
-1302.193043670783
  0
HATCH
  5
378
330
1F
100
AcDbEntity
  8
Ech.1_2
 62
   252
440
 33554687
370
     5
100
AcDbHatch
 10
0.0
 20
0.0
 30
0.0
210
0.0
220
0.0
230
1.0
  2
SOLID
 70
     1
 71
     1
 91
        1
 92
        3
 72
     0
 73
     1
 93
        4
 10
2546.192254662373
 20
-1302.193043670783
 10
2545.358920663456
 20
-1302.193043670783
 10
2545.358920663456
 20
-1304.452765670829
 10
2546.192254662375
 20
-1304.452765670829
 97
        0
 75
     0
 76
     1
 98
        0
  0
LWPOLYLINE
  5
379
330
1F
100
AcDbEntity
  8
Ech.1_2
 62
     7
370
     9
100
AcDbPolyline
 90
        5
 70
     0
 43
0.0
 10
2546.192254662373
 20
-1302.193043670783
 10
2545.358920663456
 20
-1302.193043670783
 10
2545.358920663456
 20
-1304.452765670829
 10
2546.192254662375
 20
-1304.452765670829
 10
2546.192254662373
 20
-1302.193043670783
  0
HATCH
  5
37A
330
1F
100
AcDbEntity
  8
Ech.1_2
 62
   252
440
 33554687
370
     5
100
AcDbHatch
 10
0.0
 20
0.0
 30
0.0
210
0.0
220
0.0
230
1.0
  2
SOLID
 70
     1
 71
     1
 91
        1
 92
        3
 72
     0
 73
     1
 93
        4
 10
2545.358922660212
 20
-1302.193043670783
 10
2544.525588661293
 20
-1302.193043670783
 10
2544.525588661293
 20
-1304.452765670829
 10
2545.358922660212
 20
-1304.452765670829
 97
        0
 75
     0
 76
     1
 98
        0
  0
LWPOLYLINE
  5
37B
330
1F
100
AcDbEntity
  8
Ech.1_2
 62
     7
370
     9
100
AcDbPolyline
 90
        5
 70
     0
 43
0.0
 10
2545.358922660212
 20
-1302.193043670783
 10
2544.525588661293
 20
-1302.193043670783
 10
2544.525588661293
 20
-1304.452765670829
 10
2545.358922660212
 20
-1304.452765670829
 10
2545.358922660212
 20
-1302.193043670783
  0
HATCH
  5
37C
330
1F
100
AcDbEntity
  8
Ech.1_2
 62
   252
440
 33554687
370
     5
100
AcDbHatch
 10
0.0
 20
0.0
 30
0.0
210
0.0
220
0.0
230
1.0
  2
SOLID
 70
     1
 71
     1
 91
        1
 92
        3
 72
     0
 73
     1
 93
        4
 10
2544.525589659671
 20
-1302.193043670783
 10
2543.692255660752
 20
-1302.193043670783
 10
2543.692255660752
 20
-1304.452765670829
 10
2544.525589659671
 20
-1304.452765670829
 97
        0
 75
     0
 76
     1
 98
        0
  0
LWPOLYLINE
  5
37D
330
1F
100
AcDbEntity
  8
Ech.1_2
 62
     7
370
     9
100
AcDbPolyline
 90
        5
 70
     0
 43
0.0
 10
2544.525589659671
 20
-1302.193043670783
 10
2543.692255660752
 20
-1302.193043670783
 10
2543.692255660752
 20
-1304.452765670829
 10
2544.525589659671
 20
-1304.452765670829
 10
2544.525589659671
 20
-1302.193043670783
  0
HATCH
  5
37E
330
1F
100
AcDbEntity
  8
Ech.1_2
 62
   252
440
 33554687
370
     5
100
AcDbHatch
 10
0.0
 20
0.0
 30
0.0
210
0.0
220
0.0
230
1.0
  2
SOLID
 70
     1
 71
     1
 91
        1
 92
        3
 72
     0
 73
     1
 93
        4
 10
2543.692255660752
 20
-1302.193043670783
 10
2542.858921661834
 20
-1302.193043670783
 10
2542.858921661834
 20
-1304.452765670829
 10
2543.692255660752
 20
-1304.452765670829
 97
        0
 75
     0
 76
     1
 98
        0
  0
LWPOLYLINE
  5
37F
330
1F
100
AcDbEntity
  8
Ech.1_2
 62
     7
370
     9
100
AcDbPolyline
 90
        5
 70
     0
 43
0.0
 10
2543.692255660752
 20
-1302.193043670783
 10
2542.858921661834
 20
-1302.193043670783
 10
2542.858921661834
 20
-1304.452765670829
 10
2543.692255660752
 20
-1304.452765670829
 10
2543.692255660752
 20
-1302.193043670783
  0
HATCH
  5
380
330
1F
100
AcDbEntity
  8
Ech.1_2
 62
   252
440
 33554687
370
     5
100
AcDbHatch
 10
0.0
 20
0.0
 30
0.0
210
0.0
220
0.0
230
1.0
  2
SOLID
 70
     1
 71
     1
 91
        1
 92
        3
 72
     0
 73
     1
 93
        4
 10
2542.858922660212
 20
-1302.193043670783
 10
2542.025588661293
 20
-1302.193043670783
 10
2542.025588661293
 20
-1304.452765670829
 10
2542.858922660212
 20
-1304.452765670829
 97
        0
 75
     0
 76
     1
 98
        0
  0
LWPOLYLINE
  5
381
330
1F
100
AcDbEntity
  8
Ech.1_2
 62
     7
370
     9
100
AcDbPolyline
 90
        5
 70
     0
 43
0.0
 10
2542.858922660212
 20
-1302.193043670783
 10
2542.025588661293
 20
-1302.193043670783
 10
2542.025588661293
 20
-1304.452765670829
 10
2542.858922660212
 20
-1304.452765670829
 10
2542.858922660212
 20
-1302.193043670783
  0
HATCH
  5
382
330
1F
100
AcDbEntity
  8
Ech.1_2
 62
   252
440
 33554687
370
     5
100
AcDbHatch
 10
0.0
 20
0.0
 30
0.0
210
0.0
220
0.0
230
1.0
  2
SOLID
 70
     1
 71
     1
 91
        1
 92
        3
 72
     0
 73
     1
 93
        4
 10
2542.025588661293
 20
-1302.193043670783
 10
2541.192254662375
 20
-1302.193043670783
 10
2541.192254662375
 20
-1304.452765670829
 10
2542.025588661293
 20
-1304.452765670829
 97
        0
 75
     0
 76
     1
 98
        0
  0
LWPOLYLINE
  5
383
330
1F
100
AcDbEntity
  8
Ech.1_2
 62
     7
370
     9
100
AcDbPolyline
 90
        5
 70
     0
 43
0.0
 10
2542.025588661293
 20
-1302.193043670783
 10
2541.192254662375
 20
-1302.193043670783
 10
2541.192254662375
 20
-1304.452765670829
 10
2542.025588661293
 20
-1304.452765670829
 10
2542.025588661293
 20
-1302.193043670783
  0
HATCH
  5
384
330
1F
100
AcDbEntity
  8
Ech.1_2
 62
   252
440
 33554687
370
     5
100
AcDbHatch
 10
0.0
 20
0.0
 30
0.0
210
0.0
220
0.0
230
1.0
  2
SOLID
 70
     1
 71
     1
 91
        1
 92
        3
 72
     0
 73
     1
 93
        4
 10
2541.19225665913
 20
-1302.193043670783
 10
2540.358922660212
 20
-1302.193043670783
 10
2540.358922660212
 20
-1304.452765670829
 10
2541.19225665913
 20
-1304.452765670829
 97
        0
 75
     0
 76
     1
 98
        0
  0
LWPOLYLINE
  5
385
330
1F
100
AcDbEntity
  8
Ech.1_2
 62
     7
370
     9
100
AcDbPolyline
 90
        5
 70
     0
 43
0.0
 10
2541.19225665913
 20
-1302.193043670783
 10
2540.358922660212
 20
-1302.193043670783
 10
2540.358922660212
 20
-1304.452765670829
 10
2541.19225665913
 20
-1304.452765670829
 10
2541.19225665913
 20
-1302.193043670783
  0
HATCH
  5
386
330
1F
100
AcDbEntity
  8
Ech.1_2
 62
   252
440
 33554687
370
     5
100
AcDbHatch
 10
0.0
 20
0.0
 30
0.0
210
0.0
220
0.0
230
1.0
  2
SOLID
 70
     1
 71
     1
 91
        1
 92
        3
 72
     0
 73
     1
 93
        4
 10
2540.358924656967
 20
-1302.193043670783
 10
2539.525590658049
 20
-1302.193043670783
 10
2539.525590658049
 20
-1304.452765670829
 10
2540.358924656967
 20
-1304.452765670829
 97
        0
 75
     0
 76
     1
 98
        0
  0
LWPOLYLINE
  5
387
330
1F
100
AcDbEntity
  8
Ech.1_2
 62
     7
370
     9
100
AcDbPolyline
 90
        5
 70
     0
 43
0.0
 10
2540.358924656967
 20
-1302.193043670783
 10
2539.525590658049
 20
-1302.193043670783
 10
2539.525590658049
 20
-1304.452765670829
 10
2540.358924656967
 20
-1304.452765670829
 10
2540.358924656967
 20
-1302.193043670783
  0
HATCH
  5
388
330
1F
100
AcDbEntity
  8
Ech.1_2
 62
   252
440
 33554687
370
     5
100
AcDbHatch
 10
0.0
 20
0.0
 30
0.0
210
0.0
220
0.0
230
1.0
  2
SOLID
 70
     1
 71
     1
 91
        1
 92
        3
 72
     0
 73
     1
 93
        4
 10
2539.525590658049
 20
-1302.193043670783
 10
2538.69225665913
 20
-1302.193043670783
 10
2538.69225665913
 20
-1304.452765670829
 10
2539.525590658049
 20
-1304.452765670829
 97
        0
 75
     0
 76
     1
 98
        0
  0
LWPOLYLINE
  5
389
330
1F
100
AcDbEntity
  8
Ech.1_2
 62
     7
370
     9
100
AcDbPolyline
 90
        5
 70
     0
 43
0.0
 10
2539.525590658049
 20
-1302.193043670783
 10
2538.69225665913
 20
-1302.193043670783
 10
2538.69225665913
 20
-1304.452765670829
 10
2539.525590658049
 20
-1304.452765670829
 10
2539.525590658049
 20
-1302.193043670783
  0
HATCH
  5
38A
330
1F
100
AcDbEntity
  8
Ech.1_2
 62
   252
440
 33554687
370
     5
100
AcDbHatch
 10
0.0
 20
0.0
 30
0.0
210
0.0
220
0.0
230
1.0
  2
SOLID
 70
     1
 71
     1
 91
        1
 92
        3
 72
     0
 73
     1
 93
        4
 10
2538.69225665913
 20
-1302.193043670783
 10
2537.858922660212
 20
-1302.193043670783
 10
2537.858922660212
 20
-1304.452765670829
 10
2538.69225665913
 20
-1304.452765670829
 97
        0
 75
     0
 76
     1
 98
        0
  0
LWPOLYLINE
  5
38B
330
1F
100
AcDbEntity
  8
Ech.1_2
 62
     7
370
     9
100
AcDbPolyline
 90
        5
 70
     0
 43
0.0
 10
2538.69225665913
 20
-1302.193043670783
 10
2537.858922660212
 20
-1302.193043670783
 10
2537.858922660212
 20
-1304.452765670829
 10
2538.69225665913
 20
-1304.452765670829
 10
2538.69225665913
 20
-1302.193043670783
  0
HATCH
  5
38C
330
1F
100
AcDbEntity
  8
Ech.1_2
 62
   252
440
 33554687
370
     5
100
AcDbHatch
 10
0.0
 20
0.0
 30
0.0
210
0.0
220
0.0
230
1.0
  2
SOLID
 70
     1
 71
     1
 91
        1
 92
        3
 72
     0
 73
     1
 93
        4
 10
2537.858922660212
 20
-1302.193043670783
 10
2537.025588661293
 20
-1302.193043670783
 10
2537.025588661293
 20
-1304.452765670829
 10
2537.858922660212
 20
-1304.452765670829
 97
        0
 75
     0
 76
     1
 98
        0
  0
LWPOLYLINE
  5
38D
330
1F
100
AcDbEntity
  8
Ech.1_2
 62
     7
370
     9
100
AcDbPolyline
 90
        5
 70
     0
 43
0.0
 10
2537.858922660212
 20
-1302.193043670783
 10
2537.025588661293
 20
-1302.193043670783
 10
2537.025588661293
 20
-1304.452765670829
 10
2537.858922660212
 20
-1304.452765670829
 10
2537.858922660212
 20
-1302.193043670783
  0
HATCH
  5
38E
330
1F
100
AcDbEntity
  8
Ech.1_2
 62
   252
440
 33554687
370
     5
100
AcDbHatch
 10
0.0
 20
0.0
 30
0.0
210
0.0
220
0.0
230
1.0
  2
SOLID
 70
     1
 71
     1
 91
        1
 92
        3
 72
     0
 73
     1
 93
        4
 10
2537.025590658049
 20
-1302.193043670783
 10
2536.19225665913
 20
-1302.193043670783
 10
2536.19225665913
 20
-1304.452765670829
 10
2537.025590658049
 20
-1304.452765670829
 97
        0
 75
     0
 76
     1
 98
        0
  0
LWPOLYLINE
  5
38F
330
1F
100
AcDbEntity
  8
Ech.1_2
 62
     7
370
     9
100
AcDbPolyline
 90
        5
 70
     0
 43
0.0
 10
2537.025590658049
 20
-1302.193043670783
 10
2536.19225665913
 20
-1302.193043670783
 10
2536.19225665913
 20
-1304.452765670829
 10
2537.025590658049
 20
-1304.452765670829
 10
2537.025590658049
 20
-1302.193043670783
  0
HATCH
  5
390
330
1F
100
AcDbEntity
  8
Ech.1_2
 62
   252
440
 33554687
370
     5
100
AcDbHatch
 10
0.0
 20
0.0
 30
0.0
210
0.0
220
0.0
230
1.0
  2
SOLID
 70
     1
 71
     1
 91
        1
 92
        3
 72
     0
 73
     1
 93
        4
 10
2536.192257657508
 20
-1302.193043670783
 10
2535.358923658589
 20
-1302.193043670783
 10
2535.358923658589
 20
-1304.452765670829
 10
2536.192257657508
 20
-1304.452765670829
 97
        0
 75
     0
 76
     1
 98
        0
  0
LWPOLYLINE
  5
391
330
1F
100
AcDbEntity
  8
Ech.1_2
 62
     7
370
     9
100
AcDbPolyline
 90
        5
 70
     0
 43
0.0
 10
2536.192257657508
 20
-1302.193043670783
 10
2535.358923658589
 20
-1302.193043670783
 10
2535.358923658589
 20
-1304.452765670829
 10
2536.192257657508
 20
-1304.452765670829
 10
2536.192257657508
 20
-1302.193043670783
  0
HATCH
  5
392
330
1F
100
AcDbEntity
  8
Ech.1_2
 62
   252
440
 33554687
370
     5
100
AcDbHatch
 10
0.0
 20
0.0
 30
0.0
210
0.0
220
0.0
230
1.0
  2
SOLID
 70
     1
 71
     1
 91
        1
 92
        3
 72
     0
 73
     1
 93
        4
 10
2535.358923658589
 20
-1302.193043670783
 10
2534.525589659671
 20
-1302.193043670783
 10
2534.525589659671
 20
-1304.452765670829
 10
2535.358923658589
 20
-1304.452765670829
 97
        0
 75
     0
 76
     1
 98
        0
  0
LWPOLYLINE
  5
393
330
1F
100
AcDbEntity
  8
Ech.1_2
 62
     7
370
     9
100
AcDbPolyline
 90
        5
 70
     0
 43
0.0
 10
2535.358923658589
 20
-1302.193043670783
 10
2534.525589659671
 20
-1302.193043670783
 10
2534.525589659671
 20
-1304.452765670829
 10
2535.358923658589
 20
-1304.452765670829
 10
2535.358923658589
 20
-1302.193043670783
  0
HATCH
  5
394
330
1F
100
AcDbEntity
  8
Ech.1_2
 62
   252
440
 33554687
370
     5
100
AcDbHatch
 10
0.0
 20
0.0
 30
0.0
210
0.0
220
0.0
230
1.0
  2
SOLID
 70
     1
 71
     1
 91
        1
 92
        3
 72
     0
 73
     1
 93
        4
 10
2534.525590658049
 20
-1302.193043670783
 10
2533.69225665913
 20
-1302.193043670783
 10
2533.69225665913
 20
-1304.452765670829
 10
2534.525590658049
 20
-1304.452765670829
 97
        0
 75
     0
 76
     1
 98
        0
  0
LWPOLYLINE
  5
395
330
1F
100
AcDbEntity
  8
Ech.1_2
 62
     7
370
     9
100
AcDbPolyline
 90
        5
 70
     0
 43
0.0
 10
2534.525590658049
 20
-1302.193043670783
 10
2533.69225665913
 20
-1302.193043670783
 10
2533.69225665913
 20
-1304.452765670829
 10
2534.525590658049
 20
-1304.452765670829
 10
2534.525590658049
 20
-1302.193043670783
  0
HATCH
  5
396
330
1F
100
AcDbEntity
  8
Ech.1_2
 62
   252
440
 33554687
370
     5
100
AcDbHatch
 10
0.0
 20
0.0
 30
0.0
210
0.0
220
0.0
230
1.0
  2
SOLID
 70
     1
 71
     1
 91
        1
 92
        3
 72
     0
 73
     1
 93
        4
 10
2533.69225665913
 20
-1302.193043670783
 10
2532.858922660212
 20
-1302.193043670783
 10
2532.858922660212
 20
-1304.452765670829
 10
2533.69225665913
 20
-1304.452765670829
 97
        0
 75
     0
 76
     1
 98
        0
  0
LWPOLYLINE
  5
397
330
1F
100
AcDbEntity
  8
Ech.1_2
 62
     7
370
     9
100
AcDbPolyline
 90
        5
 70
     0
 43
0.0
 10
2533.69225665913
 20
-1302.193043670783
 10
2532.858922660212
 20
-1302.193043670783
 10
2532.858922660212
 20
-1304.452765670829
 10
2533.69225665913
 20
-1304.452765670829
 10
2533.69225665913
 20
-1302.193043670783
  0
HATCH
  5
398
330
1F
100
AcDbEntity
  8
Ech.1_2
 62
   252
440
 33554687
370
     5
100
AcDbHatch
 10
0.0
 20
0.0
 30
0.0
210
0.0
220
0.0
230
1.0
  2
SOLID
 70
     1
 71
     1
 91
        1
 92
        3
 72
     0
 73
     1
 93
        4
 10
2532.858924656967
 20
-1302.193043670783
 10
2532.025590658049
 20
-1302.193043670783
 10
2532.025590658049
 20
-1304.452765670829
 10
2532.858924656967
 20
-1304.452765670829
 97
        0
 75
     0
 76
     1
 98
        0
  0
LWPOLYLINE
  5
399
330
1F
100
AcDbEntity
  8
Ech.1_2
 62
     7
370
     9
100
AcDbPolyline
 90
        5
 70
     0
 43
0.0
 10
2532.858924656967
 20
-1302.193043670783
 10
2532.025590658049
 20
-1302.193043670783
 10
2532.025590658049
 20
-1304.452765670829
 10
2532.858924656967
 20
-1304.452765670829
 10
2532.858924656967
 20
-1302.193043670783
  0
HATCH
  5
39A
330
1F
100
AcDbEntity
  8
Ech.1_2
 62
   252
440
 33554687
370
     5
100
AcDbHatch
 10
0.0
 20
0.0
 30
0.0
210
0.0
220
0.0
230
1.0
  2
SOLID
 70
     1
 71
     1
 91
        1
 92
        3
 72
     0
 73
     1
 93
        4
 10
2532.025590658049
 20
-1302.193043670783
 10
2531.19225665913
 20
-1302.193043670783
 10
2531.19225665913
 20
-1304.452765670829
 10
2532.025590658049
 20
-1304.452765670829
 97
        0
 75
     0
 76
     1
 98
        0
  0
LWPOLYLINE
  5
39B
330
1F
100
AcDbEntity
  8
Ech.1_2
 62
     7
370
     9
100
AcDbPolyline
 90
        5
 70
     0
 43
0.0
 10
2532.025590658049
 20
-1302.193043670783
 10
2531.19225665913
 20
-1302.193043670783
 10
2531.19225665913
 20
-1304.452765670829
 10
2532.025590658049
 20
-1304.452765670829
 10
2532.025590658049
 20
-1302.193043670783
  0
HATCH
  5
39C
330
1F
100
AcDbEntity
  8
Ech.1_2
 62
   252
440
 33554687
370
     5
100
AcDbHatch
 10
0.0
 20
0.0
 30
0.0
210
0.0
220
0.0
230
1.0
  2
SOLID
 70
     1
 71
     1
 91
        1
 92
        3
 72
     0
 73
     1
 93
        4
 10
2531.19225665913
 20
-1302.193043670783
 10
2530.358922660212
 20
-1302.193043670783
 10
2530.358922660212
 20
-1304.452765670829
 10
2531.19225665913
 20
-1304.452765670829
 97
        0
 75
     0
 76
     1
 98
        0
  0
LWPOLYLINE
  5
39D
330
1F
100
AcDbEntity
  8
Ech.1_2
 62
     7
370
     9
100
AcDbPolyline
 90
        5
 70
     0
 43
0.0
 10
2531.19225665913
 20
-1302.193043670783
 10
2530.358922660212
 20
-1302.193043670783
 10
2530.358922660212
 20
-1304.452765670829
 10
2531.19225665913
 20
-1304.452765670829
 10
2531.19225665913
 20
-1302.193043670783
  0
HATCH
  5
39E
330
1F
100
AcDbEntity
  8
Ech.1_2
 62
   252
440
 33554687
370
     5
100
AcDbHatch
 10
0.0
 20
0.0
 30
0.0
210
0.0
220
0.0
230
1.0
  2
SOLID
 70
     1
 71
     1
 91
        1
 92
        3
 72
     0
 73
     1
 93
        4
 10
2530.358922660212
 20
-1302.193043670783
 10
2529.525588661293
 20
-1302.193043670783
 10
2529.525588661293
 20
-1304.452765670829
 10
2530.358922660212
 20
-1304.452765670829
 97
        0
 75
     0
 76
     1
 98
        0
  0
LWPOLYLINE
  5
39F
330
1F
100
AcDbEntity
  8
Ech.1_2
 62
     7
370
     9
100
AcDbPolyline
 90
        5
 70
     0
 43
0.0
 10
2530.358922660212
 20
-1302.193043670783
 10
2529.525588661293
 20
-1302.193043670783
 10
2529.525588661293
 20
-1304.452765670829
 10
2530.358922660212
 20
-1304.452765670829
 10
2530.358922660212
 20
-1302.193043670783
  0
HATCH
  5
3A0
330
1F
100
AcDbEntity
  8
Ech.1_2
 62
   252
440
 33554687
370
     5
100
AcDbHatch
 10
0.0
 20
0.0
 30
0.0
210
0.0
220
0.0
230
1.0
  2
SOLID
 70
     1
 71
     1
 91
        1
 92
        3
 72
     1
 73
     1
 93
        4
 10
2524.826506659544
 20
-1304.452765670829
 42
0.0
 10
2526.192258655886
 20
-1304.452765670829
 42
0.0
 10
2526.192258655886
 20
-1302.193043670783
 42
0.0
 10
2524.826506659544
 20
-1302.193043670783
 42
-0.3513591548518968
 97
        0
 75
     0
 76
     1
 98
        0
  0
LWPOLYLINE
  5
3A1
330
1F
100
AcDbEntity
  8
Ech.1_2
 62
     7
370
     9
100
AcDbPolyline
 90
        5
 70
     0
 43
0.0
 10
2524.826506659544
 20
-1304.452765670829
 10
2526.192258655886
 20
-1304.452765670829
 10
2526.192258655886
 20
-1302.193043670783
 10
2524.826506659544
 20
-1302.193043670783
 42
-0.3513591548518972
 10
2524.826506659544
 20
-1304.452765670829
  0
HATCH
  5
3A2
330
1F
100
AcDbEntity
  8
Ech.1_2
 62
   252
440
 33554687
370
     5
100
AcDbHatch
 10
0.0
 20
0.0
 30
0.0
210
0.0
220
0.0
230
1.0
  2
SOLID
 70
     1
 71
     1
 91
        1
 92
        3
 72
     1
 73
     1
 93
        3
 10
2522.164479658163
 20
-1303.322904670835
 42
0.0
 10
2524.826506659544
 20
-1304.452765670829
 42
0.3513591548518968
 10
2524.826506659544
 20
-1302.193043670783
 42
0.0
 97
        0
 75
     0
 76
     1
 98
        0
  0
LWPOLYLINE
  5
3A3
330
1F
100
AcDbEntity
  8
Ech.1_2
 62
     7
370
     9
100
AcDbPolyline
 90
        4
 70
     0
 43
0.0
 10
2522.164479658163
 20
-1303.322904670835
 10
2524.826506659544
 20
-1304.452765670829
 42
0.3513591548518956
 10
2524.826506659544
 20
-1302.193043670783
 10
2522.164479658163
 20
-1303.322904670835
  0
HATCH
  5
3A4
330
1F
100
AcDbEntity
  8
Ech.1_2
 62
   252
440
 33554687
370
     5
100
AcDbHatch
 10
0.0
 20
0.0
 30
0.0
210
0.0
220
0.0
230
1.0
  2
SOLID
 70
     1
 71
     1
 91
        1
 92
        3
 72
     1
 73
     1
 93
        6
 10
2565.358924656967
 20
-1302.19304367079
 42
0.0
 10
2567.108923658884
 20
-1302.193043670783
 42
0.4142135727497827
 10
2567.664479658163
 20
-1301.637487670805
 42
0.0
 10
2567.664479658163
 20
-1305.008321670872
 42
0.4142135726664357
 10
2567.108923658884
 20
-1304.452765670829
 42
0.0
 10
2565.358924656967
 20
-1304.452765670829
 42
0.0
 97
        0
 75
     0
 76
     1
 98
        0
  0
LWPOLYLINE
  5
3A5
330
1F
100
AcDbEntity
  8
Ech.1_2
 62
     7
370
     9
100
AcDbPolyline
 90
        7
 70
     0
 43
0.0
 10
2565.358924656967
 20
-1302.19304367079
 10
2567.108923658884
 20
-1302.193043670783
 42
0.4142135727497837
 10
2567.664479658163
 20
-1301.637487670805
 10
2567.664479658163
 20
-1305.008321670872
 42
0.414213572666436
 10
2567.108923658884
 20
-1304.452765670829
 10
2565.358924656967
 20
-1304.452765670829
 10
2565.358924656967
 20
-1302.19304367079
  0
HATCH
  5
3A6
330
1F
100
AcDbEntity
  8
Ech.1_2
 62
   252
440
 33554687
370
     5
100
AcDbHatch
 10
0.0
 20
0.0
 30
0.0
210
0.0
220
0.0
230
1.0
  2
SOLID
 70
     1
 71
     1
 91
        1
 92
        1
 93
        2
 72
     1
 10
2567.970034659064
 20
-1300.80415464442
 11
2567.970034659064
 21
-1305.841654697191
 72
     2
 10
2555.40683126824
 20
-1303.322904670806
 40
12.81320339082451
 50
348.6632793503045
 51
371.3367206496953
 73
     1
 97
        0
 75
     0
 76
     1
 98
        0
  0
LWPOLYLINE
  5
3A7
330
1F
100
AcDbEntity
  8
Ech.1_2
 62
     7
370
     9
100
AcDbPolyline
 90
        3
 70
     0
 43
0.0
 10
2567.970034659064
 20
-1300.80415464442
 10
2567.970034659064
 20
-1305.841654697191
 42
0.0992555820868614
 10
2567.970034659064
 20
-1300.80415464442
  0
HATCH
  5
3A8
330
1F
100
AcDbEntity
  8
Ech.1_2
 62
   252
440
 33554687
370
     5
100
AcDbHatch
 10
0.0
 20
0.0
 30
0.0
210
0.0
220
0.0
230
1.0
  2
SOLID
 70
     1
 71
     1
 91
        1
 92
        3
 72
     0
 73
     1
 93
        6
 10
2567.664479658163
 20
-1300.804154670846
 10
2567.664479658163
 20
-1301.637487670805
 10
2567.664479658163
 20
-1305.008321670872
 10
2567.664479658161
 20
-1305.841654670823
 10
2567.970034659064
 20
-1305.841654697191
 10
2567.970034659064
 20
-1300.80415464442
 97
        0
 75
     0
 76
     1
 98
        0
  0
LWPOLYLINE
  5
3A9
330
1F
100
AcDbEntity
  8
Ech.1_2
 62
     7
370
     9
100
AcDbPolyline
 90
        7
 70
     0
 43
0.0
 10
2567.664479658163
 20
-1300.804154670846
 10
2567.664479658163
 20
-1301.637487670805
 10
2567.664479658163
 20
-1305.008321670872
 10
2567.664479658161
 20
-1305.841654670823
 10
2567.970034659064
 20
-1305.841654697191
 10
2567.970034659064
 20
-1300.80415464442
 10
2567.664479658163
 20
-1300.804154670846
  0
HATCH
  5
3AA
330
1F
100
AcDbEntity
  8
Ech.1_2
 62
   252
440
 33554687
370
     5
100
AcDbHatch
 10
0.0
 20
0.0
 30
0.0
210
0.0
220
0.0
230
1.0
  2
SOLID
 70
     1
 71
     1
 91
        1
 92
        3
 72
     0
 73
     1
 93
        4
 10
2529.525588661293
 20
-1302.193043670783
 10
2528.692254662375
 20
-1302.193043670783
 10
2528.692254662375
 20
-1304.452765670829
 10
2529.525588661293
 20
-1304.452765670829
 97
        0
 75
     0
 76
     1
 98
        0
  0
LWPOLYLINE
  5
3AB
330
1F
100
AcDbEntity
  8
Ech.1_2
 62
     7
370
     9
100
AcDbPolyline
 90
        5
 70
     0
 43
0.0
 10
2529.525588661293
 20
-1302.193043670783
 10
2528.692254662375
 20
-1302.193043670783
 10
2528.692254662375
 20
-1304.452765670829
 10
2529.525588661293
 20
-1304.452765670829
 10
2529.525588661293
 20
-1302.193043670783
  0
LINE
  5
3AC
330
1F
100
AcDbEntity
  8
Ech.1_2
 62
   190
370
     9
100
AcDbLine
 10
2527.858924656967
 20
-1304.452765670829
 30
0.0
 11
2527.858924656967
 21
-1302.193043670783
 31
0.0
  0
LINE
  5
3AD
330
1F
100
AcDbEntity
  8
Ech.1_2
 62
   190
370
     9
100
AcDbLine
 10
2527.025590658049
 20
-1304.452765670829
 30
0.0
 11
2527.025590658049
 21
-1302.193043670783
 31
0.0
  0
LINE
  5
3AE
330
1F
100
AcDbEntity
  8
Ech.1_2
 62
   190
370
     9
100
AcDbLine
 10
2526.192258655886
 20
-1304.452765670829
 30
0.0
 11
2526.192258655886
 21
-1302.193043670783
 31
0.0
  0
LINE
  5
3AF
330
1F
100
AcDbEntity
  8
Ech.1_2
 62
   190
370
     9
100
AcDbLine
 10
2528.69225665913
 20
-1304.452765670829
 30
0.0
 11
2528.69225665913
 21
-1302.193043670783
 31
0.0
  0
HATCH
  5
3B0
330
1F
100
AcDbEntity
  8
Ech.1_2
 62
   252
440
 33554687
370
     5
100
AcDbHatch
 10
0.0
 20
0.0
 30
0.0
210
0.0
220
0.0
230
1.0
  2
SOLID
 70
     1
 71
     1
 91
        1
 92
        3
 72
     0
 73
     1
 93
        4
 10
2528.692258655886
 20
-1302.193043670783
 10
2527.858924656967
 20
-1302.193043670783
 10
2527.858924656967
 20
-1304.452765670829
 10
2528.692258655886
 20
-1304.452765670829
 97
        0
 75
     0
 76
     1
 98
        0
  0
LWPOLYLINE
  5
3B1
330
1F
100
AcDbEntity
  8
Ech.1_2
 62
     7
370
     9
100
AcDbPolyline
 90
        5
 70
     0
 43
0.0
 10
2528.692258655886
 20
-1302.193043670783
 10
2527.858924656967
 20
-1302.193043670783
 10
2527.858924656967
 20
-1304.452765670829
 10
2528.692258655886
 20
-1304.452765670829
 10
2528.692258655886
 20
-1302.193043670783
  0
HATCH
  5
3B2
330
1F
100
AcDbEntity
  8
Ech.1_2
 62
   252
440
 33554687
370
     5
100
AcDbHatch
 10
0.0
 20
0.0
 30
0.0
210
0.0
220
0.0
230
1.0
  2
SOLID
 70
     1
 71
     1
 91
        1
 92
        3
 72
     0
 73
     1
 93
        4
 10
2527.025592654804
 20
-1302.193043670783
 10
2526.192258655886
 20
-1302.193043670783
 10
2526.192258655886
 20
-1304.452765670829
 10
2527.025592654804
 20
-1304.452765670829
 97
        0
 75
     0
 76
     1
 98
        0
  0
LWPOLYLINE
  5
3B3
330
1F
100
AcDbEntity
  8
Ech.1_2
 62
     7
370
     9
100
AcDbPolyline
 90
        5
 70
     0
 43
0.0
 10
2527.025592654804
 20
-1302.193043670783
 10
2526.192258655886
 20
-1302.193043670783
 10
2526.192258655886
 20
-1304.452765670829
 10
2527.025592654804
 20
-1304.452765670829
 10
2527.025592654804
 20
-1302.193043670783
  0
LWPOLYLINE
  5
3B4
330
1F
100
AcDbEntity
  8
Ech.1_2
 62
   190
370
    20
100
AcDbPolyline
 90
        3
 70
     0
 43
0.0
 10
2547.168203269373
 20
-1338.823993856025
 10
2595.849930822366
 20
-1273.933510691913
 10
2646.485897035018
 20
-1273.933510691913
  0
INSERT
  5
3B5
330
1F
100
AcDbEntity
  8
Ech.1_2
 62
   190
370
    20
100
AcDbBlockReference
  2
cw-line-extremity4
 10
2547.168203269373
 20
-1338.823993856025
 30
0.0
 50
53.12226801145346
  0
LWPOLYLINE
  5
3B6
330
1F
100
AcDbEntity
  8
Ech.1_2
 62
   190
370
    20
100
AcDbPolyline
 90
        3
 70
     0
 43
0.0
 10
2614.703362147663
 20
-1465.889051760612
 10
2614.703362147663
 20
-1324.653845670142
 10
2646.485897035018
 20
-1324.653845670142
  0
INSERT
  5
3B7
330
1F
100
AcDbEntity
  8
Ech.1_2
 62
   190
370
    20
100
AcDbBlockReference
  2
cw-line-extremity4
 10
2614.703362147663
 20
-1465.889051760612
 30
0.0
 50
90.0
  0
LWPOLYLINE
  5
3B8
330
1F
100
AcDbEntity
  8
Ech.1_2
 62
   190
370
    20
100
AcDbPolyline
 90
        3
 70
     0
 43
0.0
 10
2604.914753244139
 20
-1372.434269502413
 10
2604.914753244139
 20
-1300.492838480295
 10
2646.485897035018
 20
-1300.492838480295
  0
INSERT
  5
3B9
330
1F
100
AcDbEntity
  8
Ech.1_2
 62
   190
370
    20
100
AcDbBlockReference
  2
cw-line-extremity4
 10
2604.914753244139
 20
-1372.434269502413
 30
0.0
 50
90.0
  0
LWPOLYLINE
  5
3BA
330
1F
100
AcDbEntity
  8
Ech.1_2
 62
   190
370
    20
100
AcDbPolyline
 90
        6
 70
     0
 43
0.0
 10
2391.159879674608
 20
-1284.658065948248
 10
2465.616431623934
 20
-1284.658065948233
 10
2472.210632886298
 20
-1277.467126585279
 10
2466.566656879175
 20
-1291.849406589999
 10
2473.161198511767
 20
-1284.658065948233
 10
2582.178783282578
 20
-1284.658065948226
  0
LWPOLYLINE
  5
3BB
330
1F
100
AcDbEntity
  8
Ech.1_2
 62
     5
370
   158
100
AcDbPolyline
 90
        3
 70
     0
 43
0.0
 10
2547.169379860612
 20
-1325.614467847068
 10
2547.16447965847
 20
-1380.6287714712
 10
2582.16447965847
 20
-1380.628770438652
  0
HATCH
  5
3BC
330
1F
100
AcDbEntity
  8
Ech.1_2
 62
    35
420
  9529928
440
 33554687
370
    20
100
AcDbHatch
 10
0.0
 20
0.0
 30
0.0
210
0.0
220
0.0
230
1.0
  2
SOLID
 70
     1
 71
     1
 91
        1
 92
        3
 72
     0
 73
     1
 93
        4
 10
2493.162512050676
 20
-1325.614455824752
 10
2493.162512051179
 20
-1407.655416267467
 10
2520.165149725155
 20
-1407.655416267293
 10
2520.165149724653
 20
-1325.614455824578
 97
        0
 75
     0
 76
     1
 98
        0
  0
LWPOLYLINE
  5
3BD
330
1F
100
AcDbEntity
  8
Ech.1_2
 62
   190
370
    20
100
AcDbPolyline
 90
        5
 70
     0
 43
0.0
 10
2493.162512050676
 20
-1325.614455824752
 10
2493.162512051179
 20
-1407.655416267467
 10
2520.165149725155
 20
-1407.655416267293
 10
2520.165149724653
 20
-1325.614455824578
 10
2493.162512050676
 20
-1325.614455824752
  0
LWPOLYLINE
  5
3BE
330
1F
100
AcDbEntity
  8
Ech.1_2
 62
     5
370
    20
100
AcDbPolyline
 90
        5
 70
     0
 43
0.0
 10
2493.162512050676
 20
-1325.614455824752
 10
2520.165149724653
 20
-1325.614455824578
 10
2520.165149725155
 20
-1407.655416267293
 10
2493.162512051179
 20
-1407.655416267467
 10
2493.162512050676
 20
-1325.614455824752
  0
LWPOLYLINE
  5
3BF
330
1F
100
AcDbEntity
  8
Ech.1_2
 62
   190
370
    20
100
AcDbPolyline
 90
        4
 70
     0
 43
0.0
 10
2520.165149725155
 20
-1407.655416267293
 10
2493.162512050676
 20
-1325.614455824752
 10
2520.165149724675
 20
-1325.614455824578
 10
2493.162512051179
 20
-1407.655416267467
  0
HATCH
  5
3C0
330
1F
100
AcDbEntity
  8
Ech.1_2
 62
    35
420
  9529928
440
 33554687
370
    20
100
AcDbHatch
 10
0.0
 20
0.0
 30
0.0
210
0.0
220
0.0
230
1.0
  2
SOLID
 70
     1
 71
     1
 91
        1
 92
        3
 72
     0
 73
     1
 93
        4
 10
2493.161841984486
 20
-1434.658053925736
 10
2582.165149725296
 20
-1434.66069503892
 10
2582.166030127315
 20
-1407.658057380419
 10
2493.162722386504
 20
-1407.655416267293
 97
        0
 75
     0
 76
     1
 98
        0
  0
LWPOLYLINE
  5
3C1
330
1F
100
AcDbEntity
  8
Ech.1_2
 62
   190
370
    20
100
AcDbPolyline
 90
        5
 70
     0
 43
0.0
 10
2493.161841984486
 20
-1434.658053925736
 10
2582.165149725296
 20
-1434.66069503892
 10
2582.166030127315
 20
-1407.658057380419
 10
2493.162722386504
 20
-1407.655416267293
 10
2493.161841984486
 20
-1434.658053925736
  0
LWPOLYLINE
  5
3C2
330
1F
100
AcDbEntity
  8
Ech.1_2
 62
     5
370
    20
100
AcDbPolyline
 90
        5
 70
     0
 43
0.0
 10
2493.161841984486
 20
-1434.658053925736
 10
2493.162722386504
 20
-1407.655416267293
 10
2582.166030127315
 20
-1407.658057380419
 10
2582.165149725296
 20
-1434.66069503892
 10
2493.161841984486
 20
-1434.658053925736
  0
LWPOLYLINE
  5
3C3
330
1F
100
AcDbEntity
  8
Ech.1_2
 62
   190
370
    20
100
AcDbPolyline
 90
        4
 70
     0
 43
0.0
 10
2582.166030127315
 20
-1407.658057380419
 10
2493.161841984486
 20
-1434.658053925736
 10
2493.162722386504
 20
-1407.655416267235
 10
2582.165149725296
 20
-1434.66069503892
  0
LWPOLYLINE
  5
3C4
330
1F
100
AcDbEntity
  8
Ech.1_2
 62
     7
370
    20
100
AcDbPolyline
 90
        3
 70
     0
 43
0.0
 10
2643.161841984512
 20
-1434.658053925736
 10
2493.161841984486
 20
-1434.658053925736
 10
2493.161841984486
 20
-1284.658056676422
  0
LWPOLYLINE
  5
3C5
330
1F
100
AcDbEntity
  8
Ech.1_2
 62
   190
370
    20
100
AcDbPolyline
 90
        3
 70
     0
 43
0.0
 10
2506.663160821478
 20
-1357.628764084275
 10
2556.592684206648
 20
-1245.965219860345
 10
2646.485897035018
 20
-1245.965219860345
  0
INSERT
  5
3C6
330
1F
100
AcDbEntity
  8
Ech.1_2
 62
   190
370
    20
100
AcDbBlockReference
  2
cw-line-extremity4
 10
2506.663160821478
 20
-1357.628764084275
 30
0.0
 50
65.90854907807734
  0
LWPOLYLINE
  5
3C7
330
1F
100
AcDbEntity
  8
Ech.1_2
 62
   190
370
    20
100
AcDbPolyline
 90
        3
 70
     0
 43
0.0
 10
2533.664479658295
 20
-1330.143420085062
 10
2556.592684206648
 20
-1245.965219860345
 10
2646.485897035018
 20
-1245.965219860345
  0
INSERT
  5
3C8
330
1F
100
AcDbEntity
  8
Ech.1_2
 62
   190
370
    20
100
AcDbBlockReference
  2
cw-line-extremity4
 10
2533.664479658295
 20
-1330.143420085062
 30
0.0
 50
74.76356339703958
  0
DIMENSION
  5
3CA
102
{ACAD_REACTORS
330
3CB
102
}
330
1F
100
AcDbEntity
  8
Ech.1_2
 62
   190
370
    20
100
AcDbDimension
280
     0
  2
*D70
 10
2537.189037529517
 20
-1375.628771471211
 30
0.0
 11
2532.689037529517
 21
-1378.128771471211
 31
0.0
 70
   161
  1
5 mm mini
 71
     5
 42
5.0
 73
     0
 74
     0
 75
     0
 53
90.0
  3
Standard
100
AcDbAlignedDimension
 13
2537.189037529517
 23
-1380.628771471211
 33
0.0
 14
2537.189037529517
 24
-1375.628771471211
 34
0.0
1001
ACAD
1000
DSTYLE
1002
{
1070
   178
1070
   190
1070
   271
1070
     0
1070
   147
1040
0.0
1070
   140
1040
5.0
1070
   340
1005
3C9
1070
   144
1040
1.0
1070
    42
1040
0.0
1070
    44
1040
2.0
1070
    41
1040
2.0
1070
   342
1005
1AB
1070
   175
1070
     1
1070
   279
1070
     2
1070
   172
1070
     1
1002
}
  0
DIMENSION
  5
3D9
102
{ACAD_REACTORS
330
3DA
102
}
330
1F
100
AcDbEntity
  8
Ech.1_2
 62
   190
370
    20
100
AcDbDimension
280
     0
  2
*D71
 10
2561.770077257787
 20
-1355.614467847068
 30
0.0
 11
2557.270077257787
 21
-1358.114467847068
 31
0.0
 70
   161
  1
5 mm mini
 71
     5
 42
5.0
 73
     0
 74
     0
 75
     0
 53
90.0
  3
Standard
100
AcDbAlignedDimension
 13
2561.770077257787
 23
-1360.614467847068
 33
0.0
 14
2561.770077257787
 24
-1355.614467847068
 34
0.0
1001
ACAD
1000
DSTYLE
1002
{
1070
   178
1070
   190
1070
   271
1070
     0
1070
   147
1040
0.0
1070
   140
1040
5.0
1070
   340
1005
3C9
1070
   144
1040
1.0
1070
    42
1040
0.0
1070
    44
1040
2.0
1070
    41
1040
2.0
1070
   342
1005
1AB
1070
   175
1070
     1
1070
   279
1070
     2
1070
   172
1070
     1
1002
}
  0
DIMENSION
  5
3E7
102
{ACAD_REACTORS
330
3E8
102
}
330
1F
100
AcDbEntity
  8
Ech.1_2
 62
   190
370
    20
100
AcDbDimension
280
     0
  2
*D72
 10
2582.16447965847
 20
-1339.547981073798
 30
0.0
 11
2567.16447965847
 21
-1335.047981073798
 31
0.0
 70
   160
  1
30 mm mini
 71
     5
 42
30.0
 73
     0
 74
     0
 75
     0
  3
Standard
100
AcDbAlignedDimension
 13
2552.16447965847
 23
-1354.614467847068
 33
0.0
 14
2582.16447965847
 24
-1374.628770438652
 34
0.0
 50
180.0
100
AcDbRotatedDimension
1001
ACAD
1000
DSTYLE
1002
{
1070
   178
1070
   190
1070
   271
1070
     0
1070
   147
1040
0.0
1070
   140
1040
5.0
1070
   340
1005
3C9
1070
   144
1040
1.0
1070
    42
1040
0.0
1070
    44
1040
2.0
1070
    41
1040
2.0
1070
   342
1005
1AB
1070
   175
1070
     1
1070
   279
1070
     2
1070
   172
1070
     1
1002
}
  0
DIMENSION
  5
3F5
102
{ACAD_REACTORS
330
3F6
102
}
330
1F
100
AcDbEntity
  8
Ech.1_2
 62
   190
370
    20
100
AcDbDimension
280
     0
  2
*D73
 10
2593.04384410527
 20
-1325.614467847068
 30
0.0
 11
2588.54384410527
 21
-1340.614467847068
 31
0.0
 70
   160
  1
30 mm mini
 71
     5
 42
30.0
 73
     0
 74
     0
 75
     0
 53
90.0
  3
Standard
100
AcDbAlignedDimension
 13
2553.164479658458
 23
-1355.614467847068
 33
0.0
 14
2553.169379860612
 24
-1325.614467847068
 34
0.0
 50
-90.0
100
AcDbRotatedDimension
1001
ACAD
1000
DSTYLE
1002
{
1070
   178
1070
   190
1070
   271
1070
     0
1070
   147
1040
0.0
1070
   140
1040
5.0
1070
   340
1005
3C9
1070
   144
1040
1.0
1070
    42
1040
0.0
1070
    44
1040
2.0
1070
    41
1040
2.0
1070
   342
1005
1AB
1070
   175
1070
     1
1070
   279
1070
     2
1070
   172
1070
     1
1002
}
  0
MTEXT
  5
403
330
1F
100
AcDbEntity
  8
Ech.1_2
 62
     4
420
    65535
100
AcDbMText
 10
2607.479614651837
 20
-1612.084022665329
 30
0.0
 40
5.0
 41
195.3371538540778
 46
0.0
 71
     2
 72
     1
  1
{\fArial|b0|i0;\W1.000000;\H5.000000;\c16711848;Vue en coupe horizontale}
 73
     1
 44
1.07999975538982
  0
MTEXT
  5
404
330
1F
100
AcDbEntity
  8
Ech.1_2
 62
     4
420
    65535
100
AcDbMText
 10
2735.607658660175
 20
-1612.017152068269
 30
0.0
 40
5.0
 41
50.91893416259882
 46
0.0
 71
     2
 72
     1
  1
{\fArial|b0|i0;\W1.000000;\H5.000000;\c16711848;Ech 1/2 }
 73
     1
 44
1.07999975538982
  0
MTEXT
  5
405
330
1F
100
AcDbEntity
  8
Ech.1_2
 62
     4
420
    65535
100
AcDbMText
 10
2476.079994125728
 20
-1611.908449547276
 30
0.0
 40
5.0
 41
57.46208719814058
 46
0.0
 71
     2
 72
     1
  1
{\fArial|b0|i0;\W1.000000;\H5.000000;\c16711848;BLEVT20-06}
 73
     1
 44
1.07999975538982
  0
MTEXT
  5
406
330
1F
100
AcDbEntity
  8
Ech.1_2
 62
   200
420
 11010303
100
AcDbMText
 10
2566.567125741475
 20
-1620.61609648201
 30
0.0
 40
2.5
 41
391.5
 46
0.0
 71
     2
 72
     1
  3
{\fArial|b0|i1;\W1.000000;\H2.500000;\c16711848; Il est rappelé à l'utilisateur qui consulte le site et utilise les informations qu'il contient, qu'il doit les utiliser sous sa seule responsabilité en vérifiant leur pertinence, leur cohérence et leur
  1
 non obsolescence.}
 73
     1
 44
1.07999975538982
  0
MTEXT
  5
407
330
1F
100
AcDbEntity
  8
Ech.1_2
 62
   200
420
 11010303
100
AcDbMText
 10
2566.567125741475
 20
-1634.281907639413
 30
0.0
 40
3.25
 41
390.75
 46
0.0
 71
     2
 72
     1
  1
{\fArial|b0|i1;\W1.000000;\H3.250000;\c16711848;www.catalogue-bois-construction.fr}
 73
     1
 44
1.07999975538982
  0
MTEXT
  5
408
330
1F
100
AcDbEntity
  8
Ech.1_2
 62
     4
420
    65535
100
AcDbMText
 10
2566.567125741475
 20
-1152.187667342519
 30
0.0
 40
6.5
 41
387.5
 46
0.0
 71
     2
 72
     1
  1
{\fArial|b0|i0;\W1.000000;\H6.500000;\c16711848;Détail d'angle rentrant avec profil angle métallique - Compatible niveau étanchéité Ee2}
 73
     1
 44
1.07999975538982
  0
MTEXT
  5
409
330
1F
100
AcDbEntity
  8
Ech.1_2
 62
     4
420
    65535
100
AcDbMText
 10
2649.235897035018
 20
-1322.02447618845
 30
0.0
 40
5.5
 41
50.6312446068805
 46
0.0
 71
     1
 72
     1
  1
{\fArial|b0|i0;\W1.000000;\H5.500000;\c16711848;Paroi support}
 73
     1
 44
1.07999975538982
  0
MTEXT
  5
40A
330
1F
100
AcDbEntity
  8
Ech.1_2
 62
     4
420
    65535
100
AcDbMText
 10
2649.235897035018
 20
-1271.26686995928
 30
0.0
 40
5.5
 41
112.2182228453439
 46
0.0
 71
     1
 72
     1
  1
{\fArial|b0|i0;\W1.000000;\H5.500000;\c16711848;Profil métallique}
 73
     1
 44
1.07999975538982
  0
MTEXT
  5
40B
330
1F
100
AcDbEntity
  8
Ech.1_2
 62
     4
420
    65535
100
AcDbMText
 10
2649.235897035018
 20
-1287.842838742556
 30
0.0
 40
5.5
 41
111.4941239787122
 46
0.0
 71
     1
 72
     1
  1
{\fArial|b0|i0;\W1.000000;\H5.500000;\c16711848;Bardage bois en lames à emboitement en pose verticale - épaisseur 18 mm mini}
 73
     1
 44
1.07999975538982
  0
MTEXT
  5
40C
330
1F
100
AcDbEntity
  8
Ech.1_2
 62
     4
420
    65535
100
AcDbMText
 10
2649.235897035018
 20
-1238.265219991476
 30
0.0
 40
5.5
 41
85.4757338700706
 46
0.0
 71
     1
 72
     1
  1
{\fArial|b0|i0;\W1.000000;\H5.500000;\c16711848;Double-tasseautage bois support de bardage}
 73
     1
 44
1.07999975538982
  0
TEXT
  5
40E
330
1F
100
AcDbEntity
  8
Ech.1_2
 62
   190
100
AcDbText
 10
2390.295978022391
 20
-1616.88080928716
 30
0.0
 40
5.0
  1
28/09/2020
  7
arial-
100
AcDbText
  0
TEXT
  5
40F
330
1F
100
AcDbEntity
  8
Ech.1_2
 62
   190
100
AcDbText
 10
2440.26301807546
 20
-1145.82706548958
 30
0.0
 40
6.6
  1
Epaisseur mini selon NF DTU 41.2 - hors exigences feu façade
  7
arial-
100
AcDbText
  0
TEXT
  5
411
330
1F
100
AcDbEntity
  8
Ech.1_2
 62
   190
100
AcDbText
 10
2433.210955087179
 20
-1132.873678373324
 30
0.0
 40
6.6
  1
BARDAGES EN LAMES : lames à emboitement - pose verticale
  7
arial-b
100
AcDbText
  0
TEXT
  5
413
330
1F
100
AcDbEntity
  8
Ech.1_2
 62
   154
420
    21156
100
AcDbText
 10
2425.103768831776
 20
-1200.474283691823
 30
0.0
 40
5.999999999999999
  1
m
 50
8.975659904373765
 41
0.8000000000000003
  7
tahoma-b
100
AcDbText
  0
TEXT
  5
414
330
1F
100
AcDbEntity
  8
Ech.1_2
 62
   154
420
    21156
100
AcDbText
 10
2418.252290414245
 20
-1202.721480433891
 30
0.0
 40
6.0
  1
C
 50
20.66888961040662
 41
0.8000000000000002
  7
tahoma-b
100
AcDbText
  0
TEXT
  5
415
330
1F
100
AcDbEntity
  8
Ech.1_2
 62
   154
420
    21156
100
AcDbText
 10
2421.80467947935
 20
-1201.381348297553
 30
0.0
 40
6.0
  1
o
 50
15.37326472325266
 41
0.7999999999999999
  7
tahoma-b
100
AcDbText
  0
TEXT
  5
416
330
1F
100
AcDbEntity
  8
Ech.1_2
 62
   154
420
    21156
100
AcDbText
 10
2430.335711317441
 20
-1199.647903618406
 30
0.0
 40
6.0
  1
p
 50
2.547444553670331
 41
0.8000000000000002
  7
tahoma-b
100
AcDbText
  0
TEXT
  5
417
330
1F
100
AcDbEntity
  8
Ech.1_2
 62
   154
420
    21156
100
AcDbText
 10
2433.795501209869
 20
-1199.493975437326
 30
0.0
 40
6.0
  1
a
 50
357.5885357786787
 41
0.8000000000000003
  7
tahoma-b
100
AcDbText
  0
TEXT
  5
418
330
1F
100
AcDbEntity
  8
Ech.1_2
 62
   154
420
    21156
100
AcDbText
 10
2437.088994301425
 20
-1199.632673849545
 30
0.0
 40
6.0
  1
t
 50
353.6091644147979
 41
0.8000000000000002
  7
tahoma-b
100
AcDbText
  0
TEXT
  5
419
330
1F
100
AcDbEntity
  8
Ech.1_2
 62
   154
420
    21156
100
AcDbText
 10
2439.20419994723
 20
-1199.869589601331
 30
0.0
 40
6.0
  1
i
 50
350.976657171539
 41
0.8000000000000002
  7
tahoma-b
100
AcDbText
  0
TEXT
  5
41A
330
1F
100
AcDbEntity
  8
Ech.1_2
 62
   154
420
    21156
100
AcDbText
 10
2440.646906437989
 20
-1200.098694416884
 30
0.0
 40
6.0
  1
b
 50
347.3646125172306
 41
0.8000000000000002
  7
tahoma-b
100
AcDbText
  0
TEXT
  5
41B
330
1F
100
AcDbEntity
  8
Ech.1_2
 62
   154
420
    21156
100
AcDbText
 10
2444.026246201138
 20
-1200.856258110482
 30
0.0
 40
6.0
  1
l
 50
343.752567862781
 41
0.8000000000000002
  7
tahoma-b
100
AcDbText
  0
TEXT
  5
41C
330
1F
100
AcDbEntity
  8
Ech.1_2
 62
   154
420
    21156
100
AcDbText
 10
2445.428690361049
 20
-1201.264965112277
 30
0.0
 40
5.999999999999999
  1
e
 50
340.2629653356109
 41
0.8000000000000003
  7
tahoma-b
100
AcDbText
  0
TEXT
  5
41D
330
1F
100
AcDbEntity
  8
Ech.1_2
 62
   154
420
    21156
100
AcDbText
 10
2412.186760830957
 20
-1252.722756663625
 30
0.0
 40
6.0
  1
s
 50
329.3124952401523
 41
0.8000000000000002
  7
tahoma-b
100
AcDbText
  0
TEXT
  5
41E
330
1F
100
AcDbEntity
  8
Ech.1_2
 62
   154
420
    21156
100
AcDbText
 10
2414.985705510528
 20
-1254.383822907901
 30
0.0
 40
5.999999999999999
  1
u
 50
334.6276163794473
 41
0.8000000000000003
  7
tahoma-b
100
AcDbText
  0
TEXT
  5
41F
330
1F
100
AcDbEntity
  8
Ech.1_2
 62
   154
420
    21156
100
AcDbText
 10
2418.642259957362
 20
-1256.117923284146
 30
0.0
 40
6.0
  1
r
 50
339.5478999137053
 41
0.8000000000000002
  7
tahoma-b
100
AcDbText
  0
TEXT
  5
420
330
1F
100
AcDbEntity
  8
Ech.1_2
 62
   154
420
    21156
100
AcDbText
 10
2422.71118158113
 20
-1257.541869620323
 30
0.0
 40
6.000000000000001
  1
p
 50
346.7359685598439
 41
0.8000000000000002
  7
tahoma-b
100
AcDbText
  0
TEXT
  5
421
330
1F
100
AcDbEntity
  8
Ech.1_2
 62
   154
420
    21156
100
AcDbText
 10
2426.568988163592
 20
-1258.451259685851
 30
0.0
 40
6.0
  1
a
 50
352.3548109071288
 41
0.8000000000000002
  7
tahoma-b
100
AcDbText
  0
TEXT
  5
422
330
1F
100
AcDbEntity
  8
Ech.1_2
 62
   154
420
    21156
100
AcDbText
 10
2430.290705645201
 20
-1258.950830705809
 30
0.0
 40
6.000000000000001
  1
r
 50
357.0624896304229
 41
0.8
  7
tahoma-b
100
AcDbText
  0
TEXT
  5
423
330
1F
100
AcDbEntity
  8
Ech.1_2
 62
   154
420
    21156
100
AcDbText
 10
2432.999648121095
 20
-1259.089837910982
 30
0.0
 40
6.0
  1
o
 50
1.861284750914504
 41
0.8000000000000003
  7
tahoma-b
100
AcDbText
  0
TEXT
  5
424
330
1F
100
AcDbEntity
  8
Ech.1_2
 62
   154
420
    21156
100
AcDbText
 10
2436.877767902492
 20
-1258.963810731966
 30
0.0
 40
6.0
  1
i
 50
6.083009645636385
 41
0.8000000000000002
  7
tahoma-b
100
AcDbText
  0
TEXT
  5
425
330
1F
100
AcDbEntity
  8
Ech.1_2
 62
   154
420
    21156
100
AcDbText
 10
2440.368483584638
 20
-1258.519904356428
 30
0.0
 40
5.999999999999999
  1
b
 50
12.69400806611462
 41
0.8
  7
tahoma-b
100
AcDbText
  0
TEXT
  5
426
330
1F
100
AcDbEntity
  8
Ech.1_2
 62
   154
420
    21156
100
AcDbText
 10
2444.235146425787
 20
-1257.648939149407
 30
0.0
 40
6.0
  1
o
 50
18.40396681047573
 41
0.8000000000000002
  7
tahoma-b
100
AcDbText
  0
TEXT
  5
427
330
1F
100
AcDbEntity
  8
Ech.1_2
 62
   154
420
    21156
100
AcDbText
 10
2447.916859001527
 20
-1256.4239132728
 30
0.0
 40
6.0
  1
i
 50
22.62569170511795
 41
0.8000000000000003
  7
tahoma-b
100
AcDbText
  0
TEXT
  5
428
330
1F
100
AcDbEntity
  8
Ech.1_2
 62
   154
420
    21156
100
AcDbText
 10
2449.688916035112
 20
-1255.685344668545
 30
0.0
 40
6.0
  1
s
 50
26.3918347879508
 41
0.8000000000000002
  7
tahoma-b
100
AcDbText
  0
TEXT
  5
429
330
1F
100
AcDbEntity
  8
Ech.1_2
 62
   154
420
    21156
100
AcDbText
 10
2423.957196164209
 20
-1243.863793450339
 30
0.0
 40
9.999999999999998
  1
E
 50
345.2222144970861
 41
0.8
  7
tahoma-b
100
AcDbText
  0
TEXT
  5
42A
330
1F
100
AcDbEntity
  8
Ech.1_2
 62
   154
420
    21156
100
AcDbText
 10
2430.196657159173
 20
-1245.509742405822
 30
0.0
 40
9.999999999999998
  1
e
 50
359.2406769519293
 41
0.8
  7
tahoma-b
100
AcDbText
  0
TEXT
  5
42B
330
1F
100
AcDbEntity
  8
Ech.1_2
 62
   154
420
    21156
100
AcDbText
 10
2436.441880607079
 20
-1245.592513244981
 30
0.0
 40
10.0
  1
2
 50
13.48894999978318
 41
0.8
  7
tahoma-b
100
AcDbText
  0
VIEWPORT
  5
233
330
22D
100
AcDbEntity
 67
     1
  8
0
100
AcDbViewport
 10
98.8
 20
135.7999999999991
 30
0.0
 40
209.0608
 41
287.3527999999981
 68
     1
 69
     1
 12
128.5
 22
97.5
 13
0.0
 23
0.0
 14
10.0
 24
10.0
 15
10.0
 25
10.0
 16
0.0
 26
0.0
 36
1.0
 17
0.0
 27
0.0
 37
0.0
 42
50.0
 43
0.0
 44
0.0
 45
222.18
 50
0.0
 51
0.0
 72
   100
 90
   557152
  1

281
     0
 71
     1
 74
     0
110
0.0
120
0.0
130
0.0
111
1.0
121
0.0
131
0.0
112
0.0
122
1.0
132
0.0
 79
     0
146
0.0
170
     0
 61
     5
348
2F
292
     1
282
     1
141
0.0
142
0.0
 63
   256
361
234
  0
VIEWPORT
  5
235
330
22D
100
AcDbEntity
 67
     1
  8
0
 60
     1
100
AcDbViewport
 10
98.8
 20
135.7999999999991
 30
0.0
 40
197.6
 41
271.5999999999982
 68
     2
 69
     2
 12
2566.567125741475
 22
-1394.573678373301
 13
0.0
 23
0.0
 14
10.0
 24
10.0
 15
10.0
 25
10.0
 16
0.0
 26
0.0
 36
1.0
 17
0.0
 27
0.0
 37
0.0
 42
50.0
 43
0.0
 44
0.0
 45
543.1999999999964
 50
0.0
 51
0.0
 72
   100
 90
   557152
  1

281
     0
 71
     1
 74
     0
110
0.0
120
0.0
130
0.0
111
1.0
121
0.0
131
0.0
112
0.0
122
1.0
132
0.0
 79
     0
146
0.0
170
     0
 61
     5
348
2F
292
     1
282
     1
141
0.0
142
0.0
 63
   256
  0
ENDSEC
  0
SECTION
  2
OBJECTS
  0
DICTIONARY
  5
C
330
0
100
AcDbDictionary
281
     1
  3
ACAD_DETAILVIEWSTYLE
350
433
  3
ACAD_GROUP
350
D
  3
ACAD_IMAGE_DICT
350
23D
  3
ACAD_IMAGE_VARS
350
6F
  3
ACAD_LAYOUT
350
1A
  3
ACAD_MATERIAL
350
43
  3
ACAD_MLEADERSTYLE
350
6B
  3
ACAD_MLINESTYLE
350
17
  3
ACAD_PLOTSETTINGS
350
19
  3
ACAD_PLOTSTYLENAME
350
E
  3
ACAD_SCALELIST
350
47
  3
ACAD_SECTIONVIEWSTYLE
350
434
  3
ACAD_TABLESTYLE
350
69
  3
ACAD_VISUALSTYLE
350
2A
  3
ACDB_RECOMPOSE_DATA
350
430
  3
AcDbVariableDictionary
350
42C
  0
SUN
  5
6D
330
29
100
AcDbSun
 90
        1
290
     0
 63
     7
421
 16777215
 40
1.0
291
     1
 91
  2455826
 92
 54000000
292
     0
 70
     2
 71
   256
280
     1
  0
IMAGEDEF_REACTOR
  5
240
330
23F
100
AcDbRasterImageDefReactor
 90
        2
330
23F
  0
IMAGEDEF_REACTOR
  5
243
330
242
100
AcDbRasterImageDefReactor
 90
        2
330
242
  0
IMAGEDEF_REACTOR
  5
246
330
245
100
AcDbRasterImageDefReactor
 90
        2
330
245
  0
SUN
  5
234
330
233
100
AcDbSun
 90
        1
290
     0
 63
     7
421
 16777215
 40
1.0
291
     1
 91
  2455826
 92
 54000000
292
     0
 70
     2
 71
   256
280
     1
  0
DICTIONARY
  5
433
102
{ACAD_REACTORS
330
C
102
}
330
C
100
AcDbDictionary
281
     1
  0
DICTIONARY
  5
D
102
{ACAD_REACTORS
330
C
102
}
330
C
100
AcDbDictionary
281
     1
  3
DIM44
350
3CB
  3
DIM45
350
3DA
  3
DIM55
350
3E8
  3
DIM56
350
3F6
  0
DICTIONARY
  5
23D
102
{ACAD_REACTORS
330
C
102
}
330
C
100
AcDbDictionary
281
     1
  3
C:\Users\MAIFFR~1\AppData\Local\Temp\EXE_LOGO_FBF_soutien_Q_L.jpg1
350
241
  3
C:\Users\MAIFFR~1\AppData\Local\Temp\fcba.jpg0
350
23E
  3
C:\Users\MAIFFR~1\AppData\Local\Temp\logo_codifab_baseline_soutien.jpg2
350
244
  0
RASTERVARIABLES
  5
6F
102
{ACAD_REACTORS
330
C
102
}
330
C
100
AcDbRasterVariables
 90
        0
 70
     0
 71
     1
 72
     1
  0
DICTIONARY
  5
1A
102
{ACAD_REACTORS
330
C
102
}
330
C
100
AcDbDictionary
281
     1
  3
CompleteLayout
350
1E
  3
Model
350
22
  3
PrintFrame_26
350
22E
  0
DICTIONARY
  5
43
102
{ACAD_REACTORS
330
C
102
}
330
C
100
AcDbDictionary
281
     1
  3
ByBlock
350
45
  3
ByLayer
350
44
  3
Global
350
46
  0
DICTIONARY
  5
6B
102
{ACAD_REACTORS
330
C
102
}
330
C
100
AcDbDictionary
281
     1
  3
Standard
350
6C
  0
DICTIONARY
  5
17
102
{ACAD_REACTORS
330
C
102
}
330
C
100
AcDbDictionary
281
     1
  3
Standard
350
18
  0
DICTIONARY
  5
19
102
{ACAD_REACTORS
330
C
102
}
330
C
100
AcDbDictionary
281
     1
  3
PlotSettings_
350
231
  0
ACDBDICTIONARYWDFLT
  5
E
102
{ACAD_REACTORS
330
C
102
}
330
C
100
AcDbDictionary
281
     1
  3
Normal
350
F
100
AcDbDictionaryWithDefault
340
F
  0
DICTIONARY
  5
47
102
{ACAD_REACTORS
330
C
102
}
330
C
100
AcDbDictionary
281
     1
  3
A0
350
48
  3
A1
350
49
  3
A2
350
4A
  3
A3
350
4B
  3
A4
350
4C
  3
A5
350
4D
  3
A6
350
4E
  3
A7
350
4F
  3
A8
350
50
  3
A9
350
51
  3
B0
350
52
  3
B1
350
53
  3
B2
350
54
  3
B3
350
55
  3
B4
350
56
  3
B5
350
57
  3
B6
350
58
  3
B7
350
59
  3
B8
350
5A
  3
B9
350
5B
  3
C0
350
5C
  3
C1
350
5D
  3
C2
350
5E
  3
C3
350
5F
  3
C4
350
60
  3
C5
350
61
  3
C6
350
62
  3
C7
350
63
  3
C8
350
64
  3
C9
350
65
  3
D0
350
66
  3
D1
350
67
  3
D2
350
68
  0
DICTIONARY
  5
434
102
{ACAD_REACTORS
330
C
102
}
330
C
100
AcDbDictionary
281
     1
  0
DICTIONARY
  5
69
102
{ACAD_REACTORS
330
C
102
}
330
C
100
AcDbDictionary
281
     1
  3
Standard
350
6A
  0
DICTIONARY
  5
2A
102
{ACAD_REACTORS
330
C
102
}
330
C
100
AcDbDictionary
281
     1
  3
2dWireframe
350
2F
  3
Basic
350
32
  3
Brighten
350
36
  3
ColorChange
350
3A
  3
Conceptual
350
34
  3
Dim
350
35
  3
EdgeColorOff
350
3D
  3
Facepattern
350
39
  3
Flat
350
2B
  3
FlatWithEdges
350
2C
  3
Gouraud
350
2D
  3
GouraudWithEdges
350
2E
  3
Hidden
350
31
  3
JitterOff
350
3B
  3
Linepattern
350
38
  3
OverhangOff
350
3C
  3
Realistic
350
33
  3
Shaded
350
42
  3
Shaded with edges
350
41
  3
Shades of Gray
350
3E
  3
Sketchy
350
3F
  3
Thicken
350
37
  3
Wireframe
350
30
  3
X-Ray
350
40
  0
XRECORD
  5
430
102
{ACAD_REACTORS
330
C
102
}
330
C
100
AcDbXrecord
280
     1
 90
        1
330
6A
  0
DICTIONARY
  5
42C
102
{ACAD_REACTORS
330
C
102
}
330
C
100
AcDbDictionary
281
     1
  3
CANNOSCALE
350
42D
  3
CMLEADERSTYLE
350
432
  3
CTABLESTYLE
350
431
  3
WIPEOUTFRAME
350
435
  0
GROUP
  5
3CB
102
{ACAD_REACTORS
330
D
102
}
330
D
100
AcDbGroup
300

 70
     0
 71
     1
340
3CA
  0
GROUP
  5
3DA
102
{ACAD_REACTORS
330
D
102
}
330
D
100
AcDbGroup
300

 70
     0
 71
     1
340
3D9
  0
GROUP
  5
3E8
102
{ACAD_REACTORS
330
D
102
}
330
D
100
AcDbGroup
300

 70
     0
 71
     1
340
3E7
  0
GROUP
  5
3F6
102
{ACAD_REACTORS
330
D
102
}
330
D
100
AcDbGroup
300

 70
     0
 71
     1
340
3F5
  0
IMAGEDEF
  5
241
102
{ACAD_REACTORS
330
23D
330
243
102
}
330
23D
100
AcDbRasterImageDef
 90
        0
  1
EXE_LOGO_FBF_soutien_Q_L.jpg
 10
200.0
 20
133.0
 11
0.3527336860670194
 21
0.3527336860670194
280
     1
281
     3
  0
IMAGEDEF
  5
23E
102
{ACAD_REACTORS
330
23D
330
240
102
}
330
23D
100
AcDbRasterImageDef
 90
        0
  1
fcba.jpg
 10
247.0
 20
171.0
 11
0.3527336860670194
 21
0.3527336860670194
280
     1
281
     3
  0
IMAGEDEF
  5
244
102
{ACAD_REACTORS
330
23D
330
246
102
}
330
23D
100
AcDbRasterImageDef
 90
        0
  1
logo_codifab_baseline_soutien.jpg
 10
1326.0
 20
580.0
 11
0.08466683600033867
 21
0.08466683600033867
280
     1
281
     3
  0
LAYOUT
  5
1E
102
{ACAD_REACTORS
330
1A
102
}
330
1A
100
AcDbPlotSettings
  1

  2
none_device
  4

  6

 40
0.0
 41
0.0
 42
0.0
 43
0.0
 44
0.0
 45
0.0
 46
0.0
 47
0.0
 48
0.0
 49
0.0
140
0.0
141
0.0
142
1.0
143
1.0
 70
   688
 72
     0
 73
     0
 74
     5
  7

 75
    16
 76
     0
 77
     2
 78
   300
147
1.0
148
0.0
149
0.0
100
AcDbLayout
  1
CompleteLayout
 70
     1
 71
     1
 10
0.0
 20
0.0
 11
12.0
 21
9.0
 12
0.0
 22
0.0
 32
0.0
 14
1.000000000000000E+20
 24
1.000000000000000E+20
 34
1.000000000000000E+20
 15
-1.000000000000000E+20
 25
-1.000000000000000E+20
 35
-1.000000000000000E+20
146
0.0
 13
0.0
 23
0.0
 33
0.0
 16
1.0
 26
0.0
 36
0.0
 17
0.0
 27
1.0
 37
0.0
 76
     0
330
1B
  0
LAYOUT
  5
22
102
{ACAD_REACTORS
330
1A
102
}
330
1A
100
AcDbPlotSettings
  1

  2
none_device
  4
Letter_(8.50_x_11.00_Inches)
  6

 40
6.35
 41
6.35
 42
6.35000508
 43
6.35000508
 44
215.9
 45
279.4
 46
0.0
 47
0.0
 48
0.0
 49
0.0
140
0.0
141
0.0
142
1.0
143
1.0
 70
  1712
 72
     0
 73
     0
 74
     0
  7

 75
     0
 76
     0
 77
     2
 78
   300
147
1.0
148
0.0
149
0.0
100
AcDbLayout
  1
Model
 70
     1
 71
     0
 10
0.0
 20
0.0
 11
12.0
 21
9.0
 12
0.0
 22
0.0
 32
0.0
 14
2369.567125741475
 24
-1665.573678373299
 34
0.0
 15
2763.567125741475
 25
-1123.573678373299
 35
0.0
146
0.0
 13
0.0
 23
0.0
 33
0.0
 16
1.0
 26
0.0
 36
0.0
 17
0.0
 27
1.0
 37
0.0
 76
     0
330
1F
331
29
  0
LAYOUT
  5
22E
102
{ACAD_REACTORS
330
1A
102
}
330
1A
100
AcDbPlotSettings
  1
PlotSettings_
  2
Custom Device
  4
Custom_210.000000x297.000000_12.700000_12.700000_6.200000_6.200000
  6

 40
6.2
 41
12.7
 42
6.2
 43
12.7
 44
210.0
 45
296.9999999999982
 46
0.0
 47
0.0
 48
0.0
 49
0.0
140
0.0
141
0.0
142
1.0
143
1.0
 70
   752
 72
     1
 73
     0
 74
     5
  7

 75
    16
 76
     0
 77
     2
 78
   300
147
1.0
148
0.0
149
0.0
100
AcDbLayout
  1
PrintFrame_26
 70
     0
 71
     2
 10
-20.0
 20
-7.5
 11
277.0
 21
202.5
 12
0.0
 22
0.0
 32
0.0
 14
0.0
 24
0.0
 34
0.0
 15
197.6
 25
271.5999999999982
 35
0.0
146
0.0
 13
0.0
 23
0.0
 33
0.0
 16
1.0
 26
0.0
 36
0.0
 17
0.0
 27
1.0
 37
0.0
 76
     0
330
22D
331
233
1001
PLOTTRANSPARENCY
1071
        1
1000
layout-user-created
1070
     1
1000
layout-line-weight-scale
1042
1.0
  0
MATERIAL
  5
45
102
{ACAD_REACTORS
330
43
102
}
330
43
100
AcDbMaterial
  1
ByBlock
 72
     1
 94
      127
  0
MATERIAL
  5
44
102
{ACAD_REACTORS
330
43
102
}
330
43
100
AcDbMaterial
  1
ByLayer
 72
     1
 94
      127
  0
MATERIAL
  5
46
102
{ACAD_REACTORS
330
43
102
}
330
43
100
AcDbMaterial
  1
Global
 72
     1
 94
      127
  0
MLEADERSTYLE
  5
6C
102
{ACAD_REACTORS
330
6B
102
}
330
6B
100
AcDbMLeaderStyle
179
     2
170
     2
171
     1
172
     0
 90
        2
 40
0.0
 41
0.0
173
     1
 91
-1056964608
340
14
 92
       -2
290
     1
 42
0.09
291
     1
 43
0.36
  3
Standard
341
0
 44
0.18
300

342
11
174
     1
178
     6
175
     1
176
     0
 93
-1056964608
 45
0.18
292
     0
297
     0
 46
0.18
343
0
 94
-1056964608
 47
1.0
 49
1.0
140
1.0
293
     1
141
0.0
294
     1
177
     0
142
1.0
295
     0
296
     0
143
0.125
271
     0
272
     9
273
     9
298
     0
  0
MLINESTYLE
  5
18
102
{ACAD_REACTORS
330
17
102
}
330
17
100
AcDbMlineStyle
  2
Standard
 70
     0
  3

 62
   256
 51
90.0
 52
90.0
 71
     2
 49
0.5
 62
   256
  6
BYLAYER
 49
-0.5
 62
   256
  6
BYLAYER
  0
PLOTSETTINGS
  5
231
102
{ACAD_REACTORS
330
19
102
}
330
19
100
AcDbPlotSettings
  1
PlotSettings_
  2
Custom Device
  4
Custom_210.000000x297.000000_12.700000_12.700000_6.200000_6.200000
  6

 40
6.2
 41
12.7
 42
6.2
 43
12.7
 44
210.0
 45
296.9999999999982
 46
0.0
 47
0.0
 48
0.0
 49
0.0
140
0.0
141
0.0
142
1.0
143
1.0
 70
   752
 72
     1
 73
     0
 74
     5
  7

 75
    16
 76
     0
 77
     2
 78
   300
147
1.0
148
0.0
149
0.0
1001
PLOTTRANSPARENCY
1071
        1
1000
layout-user-created
1070
     1
1000
layout-line-weight-scale
1042
1.0
  0
ACDBPLACEHOLDER
  5
F
102
{ACAD_REACTORS
330
E
102
}
330
E
  0
SCALE
  5
48
102
{ACAD_REACTORS
330
47
102
}
330
47
100
AcDbScale
 70
     0
300
1:1
140
1.0
141
1.0
290
     1
  0
SCALE
  5
49
102
{ACAD_REACTORS
330
47
102
}
330
47
100
AcDbScale
 70
     0
300
1:2
140
1.0
141
2.0
290
     0
  0
SCALE
  5
4A
102
{ACAD_REACTORS
330
47
102
}
330
47
100
AcDbScale
 70
     0
300
1:4
140
1.0
141
4.0
290
     0
  0
SCALE
  5
4B
102
{ACAD_REACTORS
330
47
102
}
330
47
100
AcDbScale
 70
     0
300
1:5
140
1.0
141
5.0
290
     0
  0
SCALE
  5
4C
102
{ACAD_REACTORS
330
47
102
}
330
47
100
AcDbScale
 70
     0
300
1:8
140
1.0
141
8.0
290
     0
  0
SCALE
  5
4D
102
{ACAD_REACTORS
330
47
102
}
330
47
100
AcDbScale
 70
     0
300
1:10
140
1.0
141
10.0
290
     0
  0
SCALE
  5
4E
102
{ACAD_REACTORS
330
47
102
}
330
47
100
AcDbScale
 70
     0
300
1:16
140
1.0
141
16.0
290
     0
  0
SCALE
  5
4F
102
{ACAD_REACTORS
330
47
102
}
330
47
100
AcDbScale
 70
     0
300
1:20
140
1.0
141
20.0
290
     0
  0
SCALE
  5
50
102
{ACAD_REACTORS
330
47
102
}
330
47
100
AcDbScale
 70
     0
300
1:30
140
1.0
141
30.0
290
     0
  0
SCALE
  5
51
102
{ACAD_REACTORS
330
47
102
}
330
47
100
AcDbScale
 70
     0
300
1:40
140
1.0
141
40.0
290
     0
  0
SCALE
  5
52
102
{ACAD_REACTORS
330
47
102
}
330
47
100
AcDbScale
 70
     0
300
1:50
140
1.0
141
50.0
290
     0
  0
SCALE
  5
53
102
{ACAD_REACTORS
330
47
102
}
330
47
100
AcDbScale
 70
     0
300
1:100
140
1.0
141
100.0
290
     0
  0
SCALE
  5
54
102
{ACAD_REACTORS
330
47
102
}
330
47
100
AcDbScale
 70
     0
300
2:1
140
2.0
141
1.0
290
     0
  0
SCALE
  5
55
102
{ACAD_REACTORS
330
47
102
}
330
47
100
AcDbScale
 70
     0
300
4:1
140
4.0
141
1.0
290
     0
  0
SCALE
  5
56
102
{ACAD_REACTORS
330
47
102
}
330
47
100
AcDbScale
 70
     0
300
8:1
140
8.0
141
1.0
290
     0
  0
SCALE
  5
57
102
{ACAD_REACTORS
330
47
102
}
330
47
100
AcDbScale
 70
     0
300
10:1
140
10.0
141
1.0
290
     0
  0
SCALE
  5
58
102
{ACAD_REACTORS
330
47
102
}
330
47
100
AcDbScale
 70
     0
300
100:1
140
100.0
141
1.0
290
     0
  0
SCALE
  5
59
102
{ACAD_REACTORS
330
47
102
}
330
47
100
AcDbScale
 70
     0
300
1/128" = 1'-0"
140
0.0078125
141
12.0
290
     0
  0
SCALE
  5
5A
102
{ACAD_REACTORS
330
47
102
}
330
47
100
AcDbScale
 70
     0
300
1/64" = 1'-0"
140
0.015625
141
12.0
290
     0
  0
SCALE
  5
5B
102
{ACAD_REACTORS
330
47
102
}
330
47
100
AcDbScale
 70
     0
300
1/32" = 1'-0"
140
0.03125
141
12.0
290
     0
  0
SCALE
  5
5C
102
{ACAD_REACTORS
330
47
102
}
330
47
100
AcDbScale
 70
     0
300
1/16" = 1'-0"
140
0.0625
141
12.0
290
     0
  0
SCALE
  5
5D
102
{ACAD_REACTORS
330
47
102
}
330
47
100
AcDbScale
 70
     0
300
3/32" = 1'-0"
140
0.09375
141
12.0
290
     0
  0
SCALE
  5
5E
102
{ACAD_REACTORS
330
47
102
}
330
47
100
AcDbScale
 70
     0
300
1/8" = 1'-0"
140
0.125
141
12.0
290
     0
  0
SCALE
  5
5F
102
{ACAD_REACTORS
330
47
102
}
330
47
100
AcDbScale
 70
     0
300
3/16" = 1'-0"
140
0.1875
141
12.0
290
     0
  0
SCALE
  5
60
102
{ACAD_REACTORS
330
47
102
}
330
47
100
AcDbScale
 70
     0
300
1/4" = 1'-0"
140
0.25
141
12.0
290
     0
  0
SCALE
  5
61
102
{ACAD_REACTORS
330
47
102
}
330
47
100
AcDbScale
 70
     0
300
3/8" = 1'-0"
140
0.375
141
12.0
290
     0
  0
SCALE
  5
62
102
{ACAD_REACTORS
330
47
102
}
330
47
100
AcDbScale
 70
     0
300
1/2" = 1'-0"
140
0.5
141
12.0
290
     0
  0
SCALE
  5
63
102
{ACAD_REACTORS
330
47
102
}
330
47
100
AcDbScale
 70
     0
300
3/4" = 1'-0"
140
0.75
141
12.0
290
     0
  0
SCALE
  5
64
102
{ACAD_REACTORS
330
47
102
}
330
47
100
AcDbScale
 70
     0
300
1" = 1'-0"
140
1.0
141
12.0
290
     0
  0
SCALE
  5
65
102
{ACAD_REACTORS
330
47
102
}
330
47
100
AcDbScale
 70
     0
300
1-1/2" = 1'-0"
140
1.5
141
12.0
290
     0
  0
SCALE
  5
66
102
{ACAD_REACTORS
330
47
102
}
330
47
100
AcDbScale
 70
     0
300
3" = 1'-0"
140
3.0
141
12.0
290
     0
  0
SCALE
  5
67
102
{ACAD_REACTORS
330
47
102
}
330
47
100
AcDbScale
 70
     0
300
6" = 1'-0"
140
6.0
141
12.0
290
     0
  0
SCALE
  5
68
102
{ACAD_REACTORS
330
47
102
}
330
47
100
AcDbScale
 70
     0
300
1'-0" = 1'-0"
140
12.0
141
12.0
290
     0
  0
TABLESTYLE
  5
6A
102
{ACAD_REACTORS
330
69
102
}
102
{ACAD_XDICTIONARY
360
42E
102
}
330
69
100
AcDbTableStyle
  3
Standard
 70
     0
 71
     0
 40
0.06
 41
0.06
280
     0
281
     0
  7
Standard
140
0.18
170
     2
 62
     0
 63
   257
283
     0
 90
        4
 91
        0
  1

274
    -2
284
     1
 64
     0
275
    -2
285
     1
 65
     0
276
    -2
286
     1
 66
     0
277
    -2
287
     1
 67
     0
278
    -2
288
     1
 68
     0
279
    -2
289
     1
 69
     0
  7
Standard
140
0.25
170
     5
 62
     0
 63
   257
283
     0
 90
        4
 91
        0
  1

274
    -2
284
     1
 64
     0
275
    -2
285
     1
 65
     0
276
    -2
286
     1
 66
     0
277
    -2
287
     1
 67
     0
278
    -2
288
     1
 68
     0
279
    -2
289
     1
 69
     0
  7
Standard
140
0.18
170
     5
 62
     0
 63
   257
283
     0
 90
        4
 91
        0
  1

274
    -2
284
     1
 64
     0
275
    -2
285
     1
 65
     0
276
    -2
286
     1
 66
     0
277
    -2
287
     1
 67
     0
278
    -2
288
     1
 68
     0
279
    -2
289
     1
 69
     0
  0
VISUALSTYLE
  5
2F
102
{ACAD_REACTORS
330
2A
102
}
330
2A
100
AcDbVisualStyle
  2
2dWireframe
 70
     4
177
     3
291
     0
 70
    58
 90
        0
176
     1
 90
        2
176
     1
 90
        0
176
     1
 90
        0
176
     1
 40
0.6
176
     1
 40
30.0
176
     1
 62
     7
420
 16777215
176
     1
 90
        1
176
     1
 90
        4
176
     1
 62
     7
176
     1
 62
   257
176
     1
 90
        1
176
     1
 90
        1
176
     1
 40
1.0
176
     1
 90
        0
176
     1
 62
   257
176
     1
 40
1.0
176
     1
 90
        1
176
     1
 90
        6
176
     1
 90
        2
176
     1
 62
     7
176
     1
 90
        5
176
     1
 90
        0
176
     1
 90
        0
176
     1
290
     0
176
     1
 90
        1
176
     1
 40
0.0
176
     1
 90
        0
176
     1
290
     1
176
     1
290
     1
176
     1
290
     0
176
     1
290
     0
176
     1
290
     0
176
     1
290
     0
176
     1
290
     0
176
     1
290
     0
176
     1
290
     0
176
     1
 90
       50
176
     1
 40
0.0
176
     1
 40
1.0
176
     1
 90
        0
176
     1
 62
    18
420
        0
176
     1
 90
       50
176
     1
 90
        3
176
     1
 62
     5
420
      255
176
     1
290
     0
176
     1
 90
       50
176
     1
 90
       50
176
     1
 90
       50
176
     1
290
     0
176
     1
 90
       50
176
     1
 62
   256
176
     0
 40
1.0
176
     0
 90
        2
176
     1
  1
strokes_ogs.tif
176
     1
290
     0
176
     1
 40
1.0
176
     1
 40
1.0
176
     1
  0
VISUALSTYLE
  5
32
102
{ACAD_REACTORS
330
2A
102
}
330
2A
100
AcDbVisualStyle
  2
Basic
 70
     7
177
     3
291
     1
 70
    58
 90
        1
176
     1
 90
        0
176
     1
 90
        1
176
     1
 90
        0
176
     1
 40
0.6
176
     1
 40
30.0
176
     1
 62
     7
420
 16777215
176
     1
 90
        0
176
     1
 90
        4
176
     1
 62
     7
176
     1
 62
   257
176
     1
 90
        1
176
     1
 90
        1
176
     1
 40
1.0
176
     1
 90
        8
176
     1
 62
     7
176
     1
 40
1.0
176
     1
 90
        1
176
     1
 90
        6
176
     1
 90
        2
176
     1
 62
     7
176
     1
 90
        5
176
     1
 90
        0
176
     1
 90
        0
176
     1
290
     0
176
     1
 90
        1
176
     1
 40
0.0
176
     1
 90
        0
176
     1
290
     0
176
     1
290
     1
176
     1
290
     1
176
     1
290
     0
176
     1
290
     0
176
     1
290
     0
176
     1
290
     0
176
     1
290
     0
176
     1
290
     0
176
     1
 90
       50
176
     1
 40
0.0
176
     1
 40
1.0
176
     1
 90
        0
176
     1
 62
    18
420
        0
176
     1
 90
       50
176
     1
 90
        3
176
     1
 62
     5
420
      255
176
     1
290
     0
176
     1
 90
       50
176
     1
 90
       50
176
     1
 90
       50
176
     1
290
     0
176
     1
 90
       50
176
     1
 62
   256
176
     0
 40
1.0
176
     0
 90
        2
176
     1
  1
strokes_ogs.tif
176
     1
290
     0
176
     1
 40
1.0
176
     1
 40
1.0
176
     1
  0
VISUALSTYLE
  5
36
102
{ACAD_REACTORS
330
2A
102
}
330
2A
100
AcDbVisualStyle
  2
Brighten
 70
    12
177
     3
291
     1
 70
    58
 90
        2
176
     1
 90
        2
176
     1
 90
        0
176
     1
 90
        0
176
     1
 40
0.6
176
     1
 40
30.0
176
     1
 62
     7
420
 16777215
176
     1
 90
        1
176
     1
 90
        4
176
     1
 62
     7
176
     1
 62
   257
176
     1
 90
        1
176
     1
 90
        1
176
     1
 40
1.0
176
     1
 90
        8
176
     1
 62
     7
176
     1
 40
1.0
176
     1
 90
        1
176
     1
 90
        6
176
     1
 90
        2
176
     1
 62
     7
176
     1
 90
        5
176
     1
 90
        0
176
     1
 90
        0
176
     1
290
     0
176
     1
 90
        1
176
     1
 40
50.0
176
     1
 90
        0
176
     1
290
     0
176
     1
290
     1
176
     1
290
     1
176
     1
290
     0
176
     1
290
     0
176
     1
290
     0
176
     1
290
     0
176
     1
290
     0
176
     1
290
     0
176
     1
 90
       50
176
     1
 40
0.0
176
     1
 40
1.0
176
     1
 90
        0
176
     1
 62
    18
420
        0
176
     1
 90
       50
176
     1
 90
        3
176
     1
 62
     5
420
      255
176
     1
290
     0
176
     1
 90
       50
176
     1
 90
       50
176
     1
 90
       50
176
     1
290
     0
176
     1
 90
       50
176
     1
 62
   256
176
     0
 40
1.0
176
     0
 90
        2
176
     1
  1
strokes_ogs.tif
176
     1
290
     0
176
     1
 40
1.0
176
     1
 40
1.0
176
     1
  0
VISUALSTYLE
  5
3A
102
{ACAD_REACTORS
330
2A
102
}
330
2A
100
AcDbVisualStyle
  2
ColorChange
 70
    16
177
     3
291
     1
 70
    58
 90
        2
176
     1
 90
        2
176
     1
 90
        3
176
     1
 90
        0
176
     1
 40
0.6
176
     1
 40
30.0
176
     1
 62
     8
420
  8421504
176
     1
 90
        1
176
     1
 90
        4
176
     1
 62
     7
176
     1
 62
   257
176
     1
 90
        1
176
     1
 90
        1
176
     1
 40
1.0
176
     1
 90
        8
176
     1
 62
     8
420
  8421504
176
     1
 40
1.0
176
     1
 90
        1
176
     1
 90
        6
176
     1
 90
        2
176
     1
 62
     7
176
     1
 90
        5
176
     1
 90
        0
176
     1
 90
        0
176
     1
290
     0
176
     1
 90
        1
176
     1
 40
0.0
176
     1
 90
        0
176
     1
290
     0
176
     1
290
     1
176
     1
290
     1
176
     1
290
     0
176
     1
290
     0
176
     1
290
     0
176
     1
290
     0
176
     1
290
     0
176
     1
290
     0
176
     1
 90
       50
176
     1
 40
0.0
176
     1
 40
1.0
176
     1
 90
        0
176
     1
 62
    18
420
        0
176
     1
 90
       50
176
     1
 90
        3
176
     1
 62
     5
420
      255
176
     1
290
     0
176
     1
 90
       50
176
     1
 90
       50
176
     1
 90
       50
176
     1
290
     0
176
     1
 90
       50
176
     1
 62
   256
176
     0
 40
1.0
176
     0
 90
        2
176
     1
  1
strokes_ogs.tif
176
     1
290
     0
176
     1
 40
1.0
176
     1
 40
1.0
176
     1
  0
VISUALSTYLE
  5
34
102
{ACAD_REACTORS
330
2A
102
}
330
2A
100
AcDbVisualStyle
  2
Conceptual
 70
     9
177
     3
291
     0
 70
    58
 90
        3
176
     1
 90
        2
176
     1
 90
        0
176
     1
 90
        0
176
     1
 40
0.6
176
     1
 40
30.0
176
     1
 62
     7
420
 16777215
176
     1
 90
        2
176
     1
 90
        2
176
     1
 62
     7
176
     1
 62
   257
176
     1
 90
        1
176
     1
 90
        1
176
     1
 40
179.0
176
     1
 90
        8
176
     1
 62
     7
176
     1
 40
1.0
176
     1
 90
        1
176
     1
 90
        6
176
     1
 90
        2
176
     1
 62
     7
176
     1
 90
        3
176
     1
 90
        0
176
     1
 90
        0
176
     1
290
     0
176
     1
 90
        1
176
     1
 40
0.0
176
     1
 90
        0
176
     1
290
     0
176
     1
290
     1
176
     1
290
     1
176
     1
290
     0
176
     1
290
     0
176
     1
290
     0
176
     1
290
     0
176
     1
290
     0
176
     1
290
     0
176
     1
 90
       50
176
     1
 40
0.0
176
     1
 40
1.0
176
     1
 90
        0
176
     1
 62
    18
420
        0
176
     1
 90
       50
176
     1
 90
        3
176
     1
 62
     5
420
      255
176
     1
290
     0
176
     1
 90
       50
176
     1
 90
       50
176
     1
 90
       50
176
     1
290
     0
176
     1
 90
       50
176
     1
 62
   256
176
     0
 40
1.0
176
     0
 90
        2
176
     1
  1
strokes_ogs.tif
176
     1
290
     0
176
     1
 40
1.0
176
     1
 40
1.0
176
     1
  0
VISUALSTYLE
  5
35
102
{ACAD_REACTORS
330
2A
102
}
330
2A
100
AcDbVisualStyle
  2
Dim
 70
    11
177
     3
291
     1
 70
    58
 90
        2
176
     1
 90
        2
176
     1
 90
        0
176
     1
 90
        0
176
     1
 40
0.6
176
     1
 40
30.0
176
     1
 62
     7
420
 16777215
176
     1
 90
        1
176
     1
 90
        4
176
     1
 62
     7
176
     1
 62
   257
176
     1
 90
        1
176
     1
 90
        1
176
     1
 40
1.0
176
     1
 90
        8
176
     1
 62
     7
176
     1
 40
1.0
176
     1
 90
        1
176
     1
 90
        6
176
     1
 90
        2
176
     1
 62
     7
176
     1
 90
        5
176
     1
 90
        0
176
     1
 90
        0
176
     1
290
     0
176
     1
 90
        1
176
     1
 40
-50.0
176
     1
 90
        0
176
     1
290
     0
176
     1
290
     1
176
     1
290
     1
176
     1
290
     0
176
     1
290
     0
176
     1
290
     0
176
     1
290
     0
176
     1
290
     0
176
     1
290
     0
176
     1
 90
       50
176
     1
 40
0.0
176
     1
 40
1.0
176
     1
 90
        0
176
     1
 62
    18
420
        0
176
     1
 90
       50
176
     1
 90
        3
176
     1
 62
     5
420
      255
176
     1
290
     0
176
     1
 90
       50
176
     1
 90
       50
176
     1
 90
       50
176
     1
290
     0
176
     1
 90
       50
176
     1
 62
   256
176
     0
 40
1.0
176
     0
 90
        2
176
     1
  1
strokes_ogs.tif
176
     1
290
     0
176
     1
 40
1.0
176
     1
 40
1.0
176
     1
  0
VISUALSTYLE
  5
3D
102
{ACAD_REACTORS
330
2A
102
}
330
2A
100
AcDbVisualStyle
  2
EdgeColorOff
 70
    22
177
     3
291
     1
 70
    58
 90
        2
176
     0
 90
        2
176
     0
 90
        0
176
     0
 90
        0
176
     0
 40
0.6
176
     0
 40
30.0
176
     0
 62
     7
420
 16777215
176
     0
 90
        1
176
     0
 90
        4
176
     0
 62
     7
176
     0
 62
   257
176
     0
 90
        1
176
     0
 90
        1
176
     0
 40
1.0
176
     0
 90
        8
176
     2
 62
     7
176
     0
 40
1.0
176
     0
 90
        1
176
     0
 90
        6
176
     0
 90
        2
176
     0
 62
     7
176
     0
 90
        5
176
     0
 90
        0
176
     0
 90
        0
176
     0
290
     0
176
     0
 90
        1
176
     0
 40
0.0
176
     0
 90
        0
176
     0
290
     0
176
     0
290
     1
176
     0
290
     1
176
     0
290
     0
176
     0
290
     0
176
     0
290
     0
176
     0
290
     0
176
     0
290
     0
176
     0
290
     0
176
     0
 90
       50
176
     0
 40
0.0
176
     0
 40
1.0
176
     0
 90
        0
176
     0
 62
    18
420
        0
176
     0
 90
       50
176
     0
 90
        3
176
     0
 62
     5
420
      255
176
     0
290
     0
176
     0
 90
       50
176
     0
 90
       50
176
     0
 90
       50
176
     0
290
     0
176
     0
 90
       50
176
     0
 62
   256
176
     0
 40
1.0
176
     0
 90
        2
176
     0
  1
strokes_ogs.tif
176
     0
290
     0
176
     0
 40
1.0
176
     0
 40
1.0
176
     0
  0
VISUALSTYLE
  5
39
102
{ACAD_REACTORS
330
2A
102
}
330
2A
100
AcDbVisualStyle
  2
Facepattern
 70
    15
177
     3
291
     1
 70
    58
 90
        2
176
     1
 90
        2
176
     1
 90
        0
176
     1
 90
        0
176
     1
 40
0.6
176
     1
 40
30.0
176
     1
 62
     7
420
 16777215
176
     1
 90
        1
176
     1
 90
        4
176
     1
 62
     7
176
     1
 62
   257
176
     1
 90
        1
176
     1
 90
        1
176
     1
 40
1.0
176
     1
 90
        8
176
     1
 62
     7
176
     1
 40
1.0
176
     1
 90
        1
176
     1
 90
        6
176
     1
 90
        2
176
     1
 62
     7
176
     1
 90
        5
176
     1
 90
        0
176
     1
 90
        0
176
     1
290
     0
176
     1
 90
        1
176
     1
 40
0.0
176
     1
 90
        0
176
     1
290
     0
176
     1
290
     1
176
     1
290
     1
176
     1
290
     0
176
     1
290
     0
176
     1
290
     0
176
     1
290
     0
176
     1
290
     0
176
     1
290
     0
176
     1
 90
       50
176
     1
 40
0.0
176
     1
 40
1.0
176
     1
 90
        0
176
     1
 62
    18
420
        0
176
     1
 90
       50
176
     1
 90
        3
176
     1
 62
     5
420
      255
176
     1
290
     0
176
     1
 90
       50
176
     1
 90
       50
176
     1
 90
       50
176
     1
290
     0
176
     1
 90
       50
176
     1
 62
   256
176
     0
 40
1.0
176
     0
 90
        2
176
     1
  1
strokes_ogs.tif
176
     1
290
     0
176
     1
 40
1.0
176
     1
 40
1.0
176
     1
  0
VISUALSTYLE
  5
2B
102
{ACAD_REACTORS
330
2A
102
}
330
2A
100
AcDbVisualStyle
  2
Flat
 70
     0
177
     3
291
     1
 70
    58
 90
        2
176
     1
 90
        1
176
     1
 90
        1
176
     1
 90
        2
176
     1
 40
0.6
176
     1
 40
30.0
176
     1
 62
     7
420
 16777215
176
     1
 90
        0
176
     1
 90
        0
176
     1
 62
     7
176
     1
 62
   257
176
     1
 90
        1
176
     1
 90
        1
176
     1
 40
1.0
176
     1
 90
        8
176
     1
 62
     7
176
     1
 40
1.0
176
     1
 90
        1
176
     1
 90
        6
176
     1
 90
        2
176
     1
 62
     7
176
     1
 90
        5
176
     1
 90
        0
176
     1
 90
        0
176
     1
290
     0
176
     1
 90
       13
176
     1
 40
0.0
176
     1
 90
        0
176
     1
290
     0
176
     1
290
     1
176
     1
290
     1
176
     1
290
     0
176
     1
290
     0
176
     1
290
     0
176
     1
290
     0
176
     1
290
     0
176
     1
290
     0
176
     1
 90
       50
176
     1
 40
0.0
176
     1
 40
1.0
176
     1
 90
        0
176
     1
 62
    18
420
        0
176
     1
 90
       50
176
     1
 90
        3
176
     1
 62
     5
420
      255
176
     1
290
     0
176
     1
 90
       50
176
     1
 90
       50
176
     1
 90
       50
176
     1
290
     0
176
     1
 90
       50
176
     1
 62
   256
176
     0
 40
1.0
176
     0
 90
        2
176
     1
  1
strokes_ogs.tif
176
     1
290
     0
176
     1
 40
1.0
176
     1
 40
1.0
176
     1
  0
VISUALSTYLE
  5
2C
102
{ACAD_REACTORS
330
2A
102
}
330
2A
100
AcDbVisualStyle
  2
FlatWithEdges
 70
     1
177
     3
291
     1
 70
    58
 90
        2
176
     1
 90
        1
176
     1
 90
        1
176
     1
 90
        2
176
     1
 40
0.6
176
     1
 40
30.0
176
     1
 62
     7
420
 16777215
176
     1
 90
        1
176
     1
 90
        0
176
     1
 62
     7
176
     1
 62
   257
176
     1
 90
        1
176
     1
 90
        1
176
     1
 40
1.0
176
     1
 90
        0
176
     1
 62
   257
176
     1
 40
1.0
176
     1
 90
        1
176
     1
 90
        6
176
     1
 90
        2
176
     1
 62
     7
176
     1
 90
        5
176
     1
 90
        0
176
     1
 90
        0
176
     1
290
     0
176
     1
 90
       13
176
     1
 40
0.0
176
     1
 90
        0
176
     1
290
     0
176
     1
290
     1
176
     1
290
     1
176
     1
290
     0
176
     1
290
     0
176
     1
290
     0
176
     1
290
     0
176
     1
290
     0
176
     1
290
     0
176
     1
 90
       50
176
     1
 40
0.0
176
     1
 40
1.0
176
     1
 90
        0
176
     1
 62
    18
420
        0
176
     1
 90
       50
176
     1
 90
        3
176
     1
 62
     5
420
      255
176
     1
290
     0
176
     1
 90
       50
176
     1
 90
       50
176
     1
 90
       50
176
     1
290
     0
176
     1
 90
       50
176
     1
 62
   256
176
     0
 40
1.0
176
     0
 90
        2
176
     1
  1
strokes_ogs.tif
176
     1
290
     0
176
     1
 40
1.0
176
     1
 40
1.0
176
     1
  0
VISUALSTYLE
  5
2D
102
{ACAD_REACTORS
330
2A
102
}
330
2A
100
AcDbVisualStyle
  2
Gouraud
 70
     2
177
     3
291
     1
 70
    58
 90
        2
176
     1
 90
        2
176
     1
 90
        1
176
     1
 90
        2
176
     1
 40
0.6
176
     1
 40
30.0
176
     1
 62
     7
420
 16777215
176
     1
 90
        0
176
     1
 90
        0
176
     1
 62
     7
176
     1
 62
   257
176
     1
 90
        1
176
     1
 90
        1
176
     1
 40
1.0
176
     1
 90
        0
176
     1
 62
     7
176
     1
 40
1.0
176
     1
 90
        1
176
     1
 90
        6
176
     1
 90
        2
176
     1
 62
     7
176
     1
 90
        5
176
     1
 90
        0
176
     1
 90
        0
176
     1
290
     0
176
     1
 90
       13
176
     1
 40
0.0
176
     1
 90
        0
176
     1
290
     0
176
     1
290
     1
176
     1
290
     1
176
     1
290
     0
176
     1
290
     0
176
     1
290
     0
176
     1
290
     0
176
     1
290
     0
176
     1
290
     0
176
     1
 90
       50
176
     1
 40
0.0
176
     1
 40
1.0
176
     1
 90
        0
176
     1
 62
    18
420
        0
176
     1
 90
       50
176
     1
 90
        3
176
     1
 62
     5
420
      255
176
     1
290
     0
176
     1
 90
       50
176
     1
 90
       50
176
     1
 90
       50
176
     1
290
     0
176
     1
 90
       50
176
     1
 62
   256
176
     0
 40
1.0
176
     0
 90
        2
176
     1
  1
strokes_ogs.tif
176
     1
290
     0
176
     1
 40
1.0
176
     1
 40
1.0
176
     1
  0
VISUALSTYLE
  5
2E
102
{ACAD_REACTORS
330
2A
102
}
330
2A
100
AcDbVisualStyle
  2
GouraudWithEdges
 70
     3
177
     3
291
     1
 70
    58
 90
        2
176
     1
 90
        2
176
     1
 90
        1
176
     1
 90
        2
176
     1
 40
0.6
176
     1
 40
30.0
176
     1
 62
     7
420
 16777215
176
     1
 90
        1
176
     1
 90
        0
176
     1
 62
     7
176
     1
 62
   257
176
     1
 90
        1
176
     1
 90
        1
176
     1
 40
1.0
176
     1
 90
        0
176
     1
 62
   257
176
     1
 40
1.0
176
     1
 90
        1
176
     1
 90
        6
176
     1
 90
        2
176
     1
 62
     7
176
     1
 90
        5
176
     1
 90
        0
176
     1
 90
        0
176
     1
290
     0
176
     1
 90
       13
176
     1
 40
0.0
176
     1
 90
        0
176
     1
290
     0
176
     1
290
     1
176
     1
290
     1
176
     1
290
     0
176
     1
290
     0
176
     1
290
     0
176
     1
290
     0
176
     1
290
     0
176
     1
290
     0
176
     1
 90
       50
176
     1
 40
0.0
176
     1
 40
1.0
176
     1
 90
        0
176
     1
 62
    18
420
        0
176
     1
 90
       50
176
     1
 90
        3
176
     1
 62
     5
420
      255
176
     1
290
     0
176
     1
 90
       50
176
     1
 90
       50
176
     1
 90
       50
176
     1
290
     0
176
     1
 90
       50
176
     1
 62
   256
176
     0
 40
1.0
176
     0
 90
        2
176
     1
  1
strokes_ogs.tif
176
     1
290
     0
176
     1
 40
1.0
176
     1
 40
1.0
176
     1
  0
VISUALSTYLE
  5
31
102
{ACAD_REACTORS
330
2A
102
}
330
2A
100
AcDbVisualStyle
  2
Hidden
 70
     6
177
     3
291
     0
 70
    58
 90
        1
176
     1
 90
        2
176
     1
 90
        2
176
     1
 90
        0
176
     1
 40
0.6
176
     1
 40
30.0
176
     1
 62
     7
420
 16777215
176
     1
 90
        2
176
     1
 90
        2
176
     1
 62
     7
176
     1
 62
   257
176
     1
 90
        2
176
     1
 90
        1
176
     1
 40
40.0
176
     1
 90
        0
176
     1
 62
   257
176
     1
 40
1.0
176
     1
 90
        1
176
     1
 90
        6
176
     1
 90
        2
176
     1
 62
     7
176
     1
 90
        3
176
     1
 90
        0
176
     1
 90
        0
176
     1
290
     0
176
     1
 90
        1
176
     1
 40
0.0
176
     1
 90
        0
176
     1
290
     0
176
     1
290
     1
176
     1
290
     1
176
     1
290
     0
176
     1
290
     0
176
     1
290
     0
176
     1
290
     0
176
     1
290
     0
176
     1
290
     0
176
     1
 90
       50
176
     1
 40
0.0
176
     1
 40
1.0
176
     1
 90
        0
176
     1
 62
    18
420
        0
176
     1
 90
       50
176
     1
 90
        3
176
     1
 62
     5
420
      255
176
     1
290
     0
176
     1
 90
       50
176
     1
 90
       50
176
     1
 90
       50
176
     1
290
     0
176
     1
 90
       50
176
     1
 62
   256
176
     0
 40
1.0
176
     0
 90
        2
176
     1
  1
strokes_ogs.tif
176
     1
290
     0
176
     1
 40
1.0
176
     1
 40
1.0
176
     1
  0
VISUALSTYLE
  5
3B
102
{ACAD_REACTORS
330
2A
102
}
330
2A
100
AcDbVisualStyle
  2
JitterOff
 70
    20
177
     3
291
     1
 70
    58
 90
        2
176
     0
 90
        2
176
     0
 90
        0
176
     0
 90
        0
176
     0
 40
0.6
176
     0
 40
30.0
176
     0
 62
     7
420
 16777215
176
     0
 90
        1
176
     0
 90
        4
176
     0
 62
     7
176
     0
 62
   257
176
     0
 90
        1
176
     0
 90
        1
176
     0
 40
1.0
176
     0
 90
       10
176
     2
 62
     7
176
     0
 40
1.0
176
     0
 90
        1
176
     0
 90
        6
176
     0
 90
        2
176
     0
 62
     7
176
     0
 90
        5
176
     0
 90
        0
176
     0
 90
        0
176
     0
290
     0
176
     0
 90
        1
176
     0
 40
0.0
176
     0
 90
        0
176
     0
290
     0
176
     0
290
     1
176
     0
290
     1
176
     0
290
     0
176
     0
290
     0
176
     0
290
     0
176
     0
290
     0
176
     0
290
     0
176
     0
290
     0
176
     0
 90
       50
176
     0
 40
0.0
176
     0
 40
1.0
176
     0
 90
        0
176
     0
 62
    18
420
        0
176
     0
 90
       50
176
     0
 90
        3
176
     0
 62
     5
420
      255
176
     0
290
     0
176
     0
 90
       50
176
     0
 90
       50
176
     0
 90
       50
176
     0
290
     0
176
     0
 90
       50
176
     0
 62
   256
176
     0
 40
1.0
176
     0
 90
        2
176
     0
  1
strokes_ogs.tif
176
     0
290
     0
176
     0
 40
1.0
176
     0
 40
1.0
176
     0
  0
VISUALSTYLE
  5
38
102
{ACAD_REACTORS
330
2A
102
}
330
2A
100
AcDbVisualStyle
  2
Linepattern
 70
    14
177
     3
291
     1
 70
    58
 90
        2
176
     1
 90
        2
176
     1
 90
        0
176
     1
 90
        0
176
     1
 40
0.6
176
     1
 40
30.0
176
     1
 62
     7
420
 16777215
176
     1
 90
        1
176
     1
 90
        4
176
     1
 62
     7
176
     1
 62
   257
176
     1
 90
        7
176
     1
 90
        7
176
     1
 40
1.0
176
     1
 90
        8
176
     1
 62
     7
176
     1
 40
1.0
176
     1
 90
        1
176
     1
 90
        6
176
     1
 90
        2
176
     1
 62
     7
176
     1
 90
        5
176
     1
 90
        0
176
     1
 90
        0
176
     1
290
     0
176
     1
 90
        1
176
     1
 40
0.0
176
     1
 90
        0
176
     1
290
     0
176
     1
290
     1
176
     1
290
     1
176
     1
290
     0
176
     1
290
     0
176
     1
290
     0
176
     1
290
     0
176
     1
290
     0
176
     1
290
     0
176
     1
 90
       50
176
     1
 40
0.0
176
     1
 40
1.0
176
     1
 90
        0
176
     1
 62
    18
420
        0
176
     1
 90
       50
176
     1
 90
        3
176
     1
 62
     5
420
      255
176
     1
290
     0
176
     1
 90
       50
176
     1
 90
       50
176
     1
 90
       50
176
     1
290
     0
176
     1
 90
       50
176
     1
 62
   256
176
     0
 40
1.0
176
     0
 90
        2
176
     1
  1
strokes_ogs.tif
176
     1
290
     0
176
     1
 40
1.0
176
     1
 40
1.0
176
     1
  0
VISUALSTYLE
  5
3C
102
{ACAD_REACTORS
330
2A
102
}
330
2A
100
AcDbVisualStyle
  2
OverhangOff
 70
    21
177
     3
291
     1
 70
    58
 90
        2
176
     0
 90
        2
176
     0
 90
        0
176
     0
 90
        0
176
     0
 40
0.6
176
     0
 40
30.0
176
     0
 62
     7
420
 16777215
176
     0
 90
        1
176
     0
 90
        4
176
     0
 62
     7
176
     0
 62
   257
176
     0
 90
        1
176
     0
 90
        1
176
     0
 40
1.0
176
     0
 90
        9
176
     2
 62
     7
176
     0
 40
1.0
176
     0
 90
        1
176
     0
 90
        6
176
     0
 90
        2
176
     0
 62
     7
176
     0
 90
        5
176
     0
 90
        0
176
     0
 90
        0
176
     0
290
     0
176
     0
 90
        1
176
     0
 40
0.0
176
     0
 90
        0
176
     0
290
     0
176
     0
290
     1
176
     0
290
     1
176
     0
290
     0
176
     0
290
     0
176
     0
290
     0
176
     0
290
     0
176
     0
290
     0
176
     0
290
     0
176
     0
 90
       50
176
     0
 40
0.0
176
     0
 40
1.0
176
     0
 90
        0
176
     0
 62
    18
420
        0
176
     0
 90
       50
176
     0
 90
        3
176
     0
 62
     5
420
      255
176
     0
290
     0
176
     0
 90
       50
176
     0
 90
       50
176
     0
 90
       50
176
     0
290
     0
176
     0
 90
       50
176
     0
 62
   256
176
     0
 40
1.0
176
     0
 90
        2
176
     0
  1
strokes_ogs.tif
176
     0
290
     0
176
     0
 40
1.0
176
     0
 40
1.0
176
     0
  0
VISUALSTYLE
  5
33
102
{ACAD_REACTORS
330
2A
102
}
330
2A
100
AcDbVisualStyle
  2
Realistic
 70
     8
177
     3
291
     0
 70
    58
 90
        2
176
     1
 90
        3
176
     1
 90
        0
176
     1
 90
        2
176
     1
 40
0.6
176
     1
 40
30.0
176
     1
 62
     7
420
 16777215
176
     1
 90
        0
176
     1
 90
        0
176
     1
 62
     7
176
     1
 62
   257
176
     1
 90
        1
176
     1
 90
        1
176
     1
 40
1.0
176
     1
 90
        8
176
     1
 62
   257
176
     1
 40
1.0
176
     1
 90
        1
176
     1
 90
        6
176
     1
 90
        2
176
     1
 62
     7
176
     1
 90
        3
176
     1
 90
        0
176
     1
 90
        0
176
     1
290
     0
176
     1
 90
       13
176
     1
 40
0.0
176
     1
 90
        0
176
     1
290
     0
176
     1
290
     1
176
     1
290
     1
176
     1
290
     0
176
     1
290
     0
176
     1
290
     0
176
     1
290
     0
176
     1
290
     0
176
     1
290
     0
176
     1
 90
       50
176
     1
 40
0.0
176
     1
 40
1.0
176
     1
 90
        0
176
     1
 62
    18
420
        0
176
     1
 90
       50
176
     1
 90
        3
176
     1
 62
     5
420
      255
176
     1
290
     0
176
     1
 90
       50
176
     1
 90
       50
176
     1
 90
       50
176
     1
290
     0
176
     1
 90
       50
176
     1
 62
   256
176
     0
 40
1.0
176
     0
 90
        2
176
     1
  1
strokes_ogs.tif
176
     1
290
     0
176
     1
 40
1.0
176
     1
 40
1.0
176
     1
  0
VISUALSTYLE
  5
42
102
{ACAD_REACTORS
330
2A
102
}
330
2A
100
AcDbVisualStyle
  2
Shaded
 70
    27
177
     3
291
     0
 70
    58
 90
        2
176
     1
 90
        2
176
     1
 90
        1
176
     1
 90
        2
176
     1
 40
0.6
176
     1
 40
30.0
176
     1
 62
     7
420
 16777215
176
     1
 90
        0
176
     1
 90
        4
176
     1
 62
     7
176
     1
 62
   257
176
     1
 90
        1
176
     1
 90
        1
176
     1
 40
1.0
176
     1
 90
        8
176
     1
 62
   257
176
     1
 40
1.0
176
     1
 90
        1
176
     1
 90
        6
176
     1
 90
        2
176
     1
 62
     8
420
  7895160
176
     1
 90
        3
176
     1
 90
        0
176
     1
 90
        0
176
     1
290
     0
176
     1
 90
        5
176
     1
 40
0.0
176
     1
 90
        0
176
     1
290
     0
176
     1
290
     1
176
     1
290
     1
176
     1
290
     0
176
     1
290
     0
176
     1
290
     0
176
     1
290
     0
176
     1
290
     0
176
     1
290
     0
176
     1
 90
       50
176
     1
 40
0.0
176
     1
 40
1.0
176
     1
 90
        0
176
     1
 62
    18
420
        0
176
     1
 90
       50
176
     1
 90
        3
176
     1
 62
     5
420
      255
176
     1
290
     0
176
     1
 90
       50
176
     1
 90
       50
176
     1
 90
       50
176
     1
290
     0
176
     1
 90
       50
176
     1
 62
   256
176
     0
 40
1.0
176
     0
 90
        2
176
     1
  1
strokes_ogs.tif
176
     1
290
     0
176
     1
 40
1.0
176
     1
 40
1.0
176
     1
  0
VISUALSTYLE
  5
41
102
{ACAD_REACTORS
330
2A
102
}
330
2A
100
AcDbVisualStyle
  2
Shaded with edges
 70
    26
177
     3
291
     0
 70
    58
 90
        2
176
     1
 90
        2
176
     1
 90
        1
176
     1
 90
        2
176
     1
 40
0.6
176
     1
 40
30.0
176
     1
 62
     7
420
 16777215
176
     1
 90
        1
176
     1
 90
       10
176
     1
 62
     7
176
     1
 62
   257
176
     1
 90
        2
176
     1
 90
        1
176
     1
 40
1.0
176
     1
 90
        8
176
     1
 62
   257
176
     1
 40
1.0
176
     1
 90
        1
176
     1
 90
        6
176
     1
 90
        2
176
     1
 62
     7
176
     1
 90
        3
176
     1
 90
        0
176
     1
 90
        0
176
     1
290
     0
176
     1
 90
        5
176
     1
 40
0.0
176
     1
 90
        0
176
     1
290
     0
176
     1
290
     1
176
     1
290
     1
176
     1
290
     0
176
     1
290
     0
176
     1
290
     0
176
     1
290
     0
176
     1
290
     0
176
     1
290
     0
176
     1
 90
       50
176
     1
 40
0.0
176
     1
 40
1.0
176
     1
 90
        0
176
     1
 62
    18
420
        0
176
     1
 90
       50
176
     1
 90
        3
176
     1
 62
     5
420
      255
176
     1
290
     0
176
     1
 90
       50
176
     1
 90
       50
176
     1
 90
       50
176
     1
290
     0
176
     1
 90
       50
176
     1
 62
   256
176
     0
 40
1.0
176
     0
 90
        2
176
     1
  1
strokes_ogs.tif
176
     1
290
     0
176
     1
 40
1.0
176
     1
 40
1.0
176
     1
  0
VISUALSTYLE
  5
3E
102
{ACAD_REACTORS
330
2A
102
}
330
2A
100
AcDbVisualStyle
  2
Shades of Gray
 70
    23
177
     3
291
     0
 70
    58
 90
        2
176
     1
 90
        2
176
     1
 90
        3
176
     1
 90
        0
176
     1
 40
0.6
176
     1
 40
30.0
176
     1
 62
     7
420
 16777215
176
     1
 90
        2
176
     1
 90
        2
176
     1
 62
     7
176
     1
 62
     7
176
     1
 90
        1
176
     1
 90
        1
176
     1
 40
40.0
176
     1
 90
        8
176
     1
 62
     7
176
     1
 40
1.0
176
     1
 90
        1
176
     1
 90
        6
176
     1
 90
        2
176
     1
 62
     7
176
     1
 90
        3
176
     1
 90
        0
176
     1
 90
        0
176
     1
290
     0
176
     1
 90
        1
176
     1
 40
0.0
176
     1
 90
        0
176
     1
290
     0
176
     1
290
     1
176
     1
290
     1
176
     1
290
     0
176
     1
290
     0
176
     1
290
     0
176
     1
290
     0
176
     1
290
     0
176
     1
290
     0
176
     1
 90
       50
176
     1
 40
0.0
176
     1
 40
1.0
176
     1
 90
        0
176
     1
 62
    18
420
        0
176
     1
 90
       50
176
     1
 90
        3
176
     1
 62
     5
420
      255
176
     1
290
     0
176
     1
 90
       50
176
     1
 90
       50
176
     1
 90
       50
176
     1
290
     0
176
     1
 90
       50
176
     1
 62
   256
176
     0
 40
1.0
176
     0
 90
        2
176
     1
  1
strokes_ogs.tif
176
     1
290
     0
176
     1
 40
1.0
176
     1
 40
1.0
176
     1
  0
VISUALSTYLE
  5
3F
102
{ACAD_REACTORS
330
2A
102
}
330
2A
100
AcDbVisualStyle
  2
Sketchy
 70
    24
177
     3
291
     0
 70
    58
 90
        1
176
     1
 90
        2
176
     1
 90
        2
176
     1
 90
        0
176
     1
 40
0.6
176
     1
 40
30.0
176
     1
 62
     7
420
 16777215
176
     1
 90
        2
176
     1
 90
        2
176
     1
 62
     7
176
     1
 62
     7
176
     1
 90
        1
176
     1
 90
        1
176
     1
 40
40.0
176
     1
 90
       11
176
     1
 62
     7
176
     1
 40
1.0
176
     1
 90
        1
176
     1
 90
        6
176
     1
 90
        2
176
     1
 62
     7
176
     1
 90
        6
176
     1
 90
        0
176
     1
 90
        0
176
     1
290
     0
176
     1
 90
        1
176
     1
 40
0.0
176
     1
 90
        0
176
     1
290
     0
176
     1
290
     1
176
     1
290
     1
176
     1
290
     0
176
     1
290
     0
176
     1
290
     0
176
     1
290
     0
176
     1
290
     0
176
     1
290
     0
176
     1
 90
       50
176
     1
 40
0.0
176
     1
 40
1.0
176
     1
 90
        0
176
     1
 62
    18
420
        0
176
     1
 90
       50
176
     1
 90
        3
176
     1
 62
     5
420
      255
176
     1
290
     0
176
     1
 90
       50
176
     1
 90
       50
176
     1
 90
       50
176
     1
290
     0
176
     1
 90
       50
176
     1
 62
   256
176
     0
 40
1.0
176
     0
 90
        2
176
     1
  1
strokes_ogs.tif
176
     1
290
     0
176
     1
 40
1.0
176
     1
 40
1.0
176
     1
  0
VISUALSTYLE
  5
37
102
{ACAD_REACTORS
330
2A
102
}
330
2A
100
AcDbVisualStyle
  2
Thicken
 70
    13
177
     3
291
     1
 70
    58
 90
        2
176
     1
 90
        2
176
     1
 90
        0
176
     1
 90
        0
176
     1
 40
0.6
176
     1
 40
30.0
176
     1
 62
     7
420
 16777215
176
     1
 90
        1
176
     1
 90
        4
176
     1
 62
     7
176
     1
 62
   257
176
     1
 90
        1
176
     1
 90
        1
176
     1
 40
1.0
176
     1
 90
       12
176
     1
 62
     7
176
     1
 40
1.0
176
     1
 90
        1
176
     1
 90
        6
176
     1
 90
        2
176
     1
 62
     7
176
     1
 90
        5
176
     1
 90
        0
176
     1
 90
        0
176
     1
290
     0
176
     1
 90
        1
176
     1
 40
0.0
176
     1
 90
        0
176
     1
290
     0
176
     1
290
     1
176
     1
290
     1
176
     1
290
     0
176
     1
290
     0
176
     1
290
     0
176
     1
290
     0
176
     1
290
     0
176
     1
290
     0
176
     1
 90
       50
176
     1
 40
0.0
176
     1
 40
1.0
176
     1
 90
        0
176
     1
 62
    18
420
        0
176
     1
 90
       50
176
     1
 90
        3
176
     1
 62
     5
420
      255
176
     1
290
     0
176
     1
 90
       50
176
     1
 90
       50
176
     1
 90
       50
176
     1
290
     0
176
     1
 90
       50
176
     1
 62
   256
176
     0
 40
1.0
176
     0
 90
        2
176
     1
  1
strokes_ogs.tif
176
     1
290
     0
176
     1
 40
1.0
176
     1
 40
1.0
176
     1
  0
VISUALSTYLE
  5
30
102
{ACAD_REACTORS
330
2A
102
}
330
2A
100
AcDbVisualStyle
  2
Wireframe
 70
     5
177
     3
291
     0
 70
    58
 90
        0
176
     1
 90
        2
176
     1
 90
        0
176
     1
 90
        0
176
     1
 40
0.6
176
     1
 40
30.0
176
     1
 62
     7
420
 16777215
176
     1
 90
        1
176
     1
 90
        4
176
     1
 62
     7
176
     1
 62
   257
176
     1
 90
        1
176
     1
 90
        1
176
     1
 40
1.0
176
     1
 90
        0
176
     1
 62
   257
176
     1
 40
1.0
176
     1
 90
        1
176
     1
 90
        6
176
     1
 90
        2
176
     1
 62
     7
176
     1
 90
        3
176
     1
 90
        0
176
     1
 90
        0
176
     1
290
     0
176
     1
 90
        1
176
     1
 40
0.0
176
     1
 90
        0
176
     1
290
     0
176
     1
290
     1
176
     1
290
     1
176
     1
290
     0
176
     1
290
     0
176
     1
290
     0
176
     1
290
     0
176
     1
290
     0
176
     1
290
     0
176
     1
 90
       50
176
     1
 40
0.0
176
     1
 40
1.0
176
     1
 90
        0
176
     1
 62
    18
420
        0
176
     1
 90
       50
176
     1
 90
        3
176
     1
 62
     5
420
      255
176
     1
290
     0
176
     1
 90
       50
176
     1
 90
       50
176
     1
 90
       50
176
     1
290
     0
176
     1
 90
       50
176
     1
 62
   256
176
     0
 40
1.0
176
     0
 90
        2
176
     1
  1
strokes_ogs.tif
176
     1
290
     0
176
     1
 40
1.0
176
     1
 40
1.0
176
     1
  0
VISUALSTYLE
  5
40
102
{ACAD_REACTORS
330
2A
102
}
330
2A
100
AcDbVisualStyle
  2
X-Ray
 70
    25
177
     3
291
     0
 70
    58
 90
        2
176
     1
 90
        2
176
     1
 90
        1
176
     1
 90
        1
176
     1
 40
0.5
176
     1
 40
30.0
176
     1
 62
     7
420
 16777215
176
     1
 90
        1
176
     1
 90
        0
176
     1
 62
     7
176
     1
 62
   257
176
     1
 90
        1
176
     1
 90
        1
176
     1
 40
1.0
176
     1
 90
        8
176
     1
 62
     7
176
     1
 40
1.0
176
     1
 90
        1
176
     1
 90
        6
176
     1
 90
        2
176
     1
 62
     7
176
     1
 90
        3
176
     1
 90
        0
176
     1
 90
        0
176
     1
290
     0
176
     1
 90
       13
176
     1
 40
0.0
176
     1
 90
        0
176
     1
290
     0
176
     1
290
     1
176
     1
290
     1
176
     1
290
     0
176
     1
290
     0
176
     1
290
     0
176
     1
290
     0
176
     1
290
     0
176
     1
290
     0
176
     1
 90
       50
176
     1
 40
0.0
176
     1
 40
1.0
176
     1
 90
        0
176
     1
 62
    18
420
        0
176
     1
 90
       50
176
     1
 90
        3
176
     1
 62
     5
420
      255
176
     1
290
     0
176
     1
 90
       50
176
     1
 90
       50
176
     1
 90
       50
176
     1
290
     0
176
     1
 90
       50
176
     1
 62
   256
176
     0
 40
1.0
176
     0
 90
        2
176
     1
  1
strokes_ogs.tif
176
     1
290
     0
176
     1
 40
1.0
176
     1
 40
1.0
176
     1
  0
DICTIONARYVAR
  5
42D
102
{ACAD_REACTORS
330
42C
102
}
330
42C
100
DictionaryVariables
280
     0
  1
1:1
  0
DICTIONARYVAR
  5
432
102
{ACAD_REACTORS
330
42C
102
}
330
42C
100
DictionaryVariables
280
     0
  1
Standard
  0
DICTIONARYVAR
  5
431
102
{ACAD_REACTORS
330
42C
102
}
330
42C
100
DictionaryVariables
280
     0
  1
Standard
  0
DICTIONARYVAR
  5
435
102
{ACAD_REACTORS
330
42C
102
}
330
42C
100
DictionaryVariables
280
     0
  1
0
  0
DICTIONARY
  5
42E
330
6A
100
AcDbDictionary
280
     1
281
     1
  3
ACAD_ROUNDTRIP_2008_TABLESTYLE_CELLSTYLEMAP
360
42F
  0
CELLSTYLEMAP
  5
42F
102
{ACAD_REACTORS
330
42E
102
}
330
42E
100
AcDbCellStyleMap
 90
        3
300
CELLSTYLE
  1
TABLEFORMAT_BEGIN
 90
        5
170
     1
 91
        0
 92
    32768
 62
   257
 93
        1
300
CONTENTFORMAT
  1
CONTENTFORMAT_BEGIN
 90
        0
 91
        0
 92
        4
 93
        0
300

 40
0.0
140
1.0
 94
        5
 62
     0
340
11
144
0.25
309
CONTENTFORMAT_END
171
     1
301
MARGIN
  1
CELLMARGIN_BEGIN
 40
0.06
 40
0.06
 40
0.06
 40
0.06
 40
0.06
 40
0.06
309
CELLMARGIN_END
 94
        6
 95
        1
302
GRIDFORMAT
  1
GRIDFORMAT_BEGIN
 90
        0
 91
        1
 62
     0
 92
       -2
340
14
 93
        0
 40
0.045
309
GRIDFORMAT_END
 95
        2
302
GRIDFORMAT
  1
GRIDFORMAT_BEGIN
 90
        0
 91
        1
 62
     0
 92
       -2
340
14
 93
        0
 40
0.045
309
GRIDFORMAT_END
 95
        4
302
GRIDFORMAT
  1
GRIDFORMAT_BEGIN
 90
        0
 91
        1
 62
     0
 92
       -2
340
14
 93
        0
 40
0.045
309
GRIDFORMAT_END
 95
        8
302
GRIDFORMAT
  1
GRIDFORMAT_BEGIN
 90
        0
 91
        1
 62
     0
 92
       -2
340
14
 93
        0
 40
0.045
309
GRIDFORMAT_END
 95
       16
302
GRIDFORMAT
  1
GRIDFORMAT_BEGIN
 90
        0
 91
        1
 62
     0
 92
       -2
340
14
 93
        0
 40
0.045
309
GRIDFORMAT_END
 95
       32
302
GRIDFORMAT
  1
GRIDFORMAT_BEGIN
 90
        0
 91
        1
 62
     0
 92
       -2
340
14
 93
        0
 40
0.045
309
GRIDFORMAT_END
309
TABLEFORMAT_END
  1
CELLSTYLE_BEGIN
 90
        1
 91
        1
300
_TITLE
309
CELLSTYLE_END
300
CELLSTYLE
  1
TABLEFORMAT_BEGIN
 90
        5
170
     1
 91
        0
 92
        0
 62
   257
 93
        1
300
CONTENTFORMAT
  1
CONTENTFORMAT_BEGIN
 90
        0
 91
        0
 92
        4
 93
        0
300

 40
0.0
140
1.0
 94
        5
 62
     0
340
11
144
0.18
309
CONTENTFORMAT_END
171
     1
301
MARGIN
  1
CELLMARGIN_BEGIN
 40
0.06
 40
0.06
 40
0.06
 40
0.06
 40
0.06
 40
0.06
309
CELLMARGIN_END
 94
        6
 95
        1
302
GRIDFORMAT
  1
GRIDFORMAT_BEGIN
 90
        0
 91
        1
 62
     0
 92
       -2
340
14
 93
        0
 40
0.045
309
GRIDFORMAT_END
 95
        2
302
GRIDFORMAT
  1
GRIDFORMAT_BEGIN
 90
        0
 91
        1
 62
     0
 92
       -2
340
14
 93
        0
 40
0.045
309
GRIDFORMAT_END
 95
        4
302
GRIDFORMAT
  1
GRIDFORMAT_BEGIN
 90
        0
 91
        1
 62
     0
 92
       -2
340
14
 93
        0
 40
0.045
309
GRIDFORMAT_END
 95
        8
302
GRIDFORMAT
  1
GRIDFORMAT_BEGIN
 90
        0
 91
        1
 62
     0
 92
       -2
340
14
 93
        0
 40
0.045
309
GRIDFORMAT_END
 95
       16
302
GRIDFORMAT
  1
GRIDFORMAT_BEGIN
 90
        0
 91
        1
 62
     0
 92
       -2
340
14
 93
        0
 40
0.045
309
GRIDFORMAT_END
 95
       32
302
GRIDFORMAT
  1
GRIDFORMAT_BEGIN
 90
        0
 91
        1
 62
     0
 92
       -2
340
14
 93
        0
 40
0.045
309
GRIDFORMAT_END
309
TABLEFORMAT_END
  1
CELLSTYLE_BEGIN
 90
        2
 91
        1
300
_HEADER
309
CELLSTYLE_END
300
CELLSTYLE
  1
TABLEFORMAT_BEGIN
 90
        5
170
     1
 91
        0
 92
        0
 62
   257
 93
        1
300
CONTENTFORMAT
  1
CONTENTFORMAT_BEGIN
 90
        0
 91
        0
 92
        4
 93
        0
300

 40
0.0
140
1.0
 94
        2
 62
     0
340
11
144
0.18
309
CONTENTFORMAT_END
171
     1
301
MARGIN
  1
CELLMARGIN_BEGIN
 40
0.06
 40
0.06
 40
0.06
 40
0.06
 40
0.06
 40
0.06
309
CELLMARGIN_END
 94
        6
 95
        1
302
GRIDFORMAT
  1
GRIDFORMAT_BEGIN
 90
        0
 91
        1
 62
     0
 92
       -2
340
14
 93
        0
 40
0.045
309
GRIDFORMAT_END
 95
        2
302
GRIDFORMAT
  1
GRIDFORMAT_BEGIN
 90
        0
 91
        1
 62
     0
 92
       -2
340
14
 93
        0
 40
0.045
309
GRIDFORMAT_END
 95
        4
302
GRIDFORMAT
  1
GRIDFORMAT_BEGIN
 90
        0
 91
        1
 62
     0
 92
       -2
340
14
 93
        0
 40
0.045
309
GRIDFORMAT_END
 95
        8
302
GRIDFORMAT
  1
GRIDFORMAT_BEGIN
 90
        0
 91
        1
 62
     0
 92
       -2
340
14
 93
        0
 40
0.045
309
GRIDFORMAT_END
 95
       16
302
GRIDFORMAT
  1
GRIDFORMAT_BEGIN
 90
        0
 91
        1
 62
     0
 92
       -2
340
14
 93
        0
 40
0.045
309
GRIDFORMAT_END
 95
       32
302
GRIDFORMAT
  1
GRIDFORMAT_BEGIN
 90
        0
 91
        1
 62
     0
 92
       -2
340
14
 93
        0
 40
0.045
309
GRIDFORMAT_END
309
TABLEFORMAT_END
  1
CELLSTYLE_BEGIN
 90
        3
 91
        2
300
_DATA
309
CELLSTYLE_END
  0
ENDSEC
  0
EOF
