  0
SECTION
  2
HEADER
  9
$ACADVER
  1
AC1027
  9
$ACADMAINTVER
 70
   105
  9
$DWGCODEPAGE
  3
ANSI_1252
  9
$REQUIREDVERSIONS
160
                 0
  9
$INSBASE
 10
0.0
 20
0.0
 30
0.0
  9
$EXTMIN
 10
-474.4328742585182
 20
-3911.004899456169
 30
0.0
  9
$EXTMAX
 10
-80.43287425851523
 20
-3369.004899456169
 30
0.0
  9
$LIMMIN
 10
0.0
 20
0.0
  9
$LIMMAX
 10
12.0
 20
9.0
  9
$ORTHOMODE
 70
     0
  9
$REGENMODE
 70
     1
  9
$FILLMODE
 70
     1
  9
$QTEXTMODE
 70
     0
  9
$MIRRTEXT
 70
     1
  9
$LTSCALE
 40
2.0
  9
$ATTMODE
 70
     1
  9
$TEXTSIZE
 40
0.2
  9
$TRACEWID
 40
0.05
  9
$TEXTSTYLE
  7
Standard
  9
$CLAYER
  8
0
  9
$CELTYPE
  6
ByLayer
  9
$CECOLOR
 62
   256
  9
$CELTSCALE
 40
1.0
  9
$DISPSILH
 70
     0
  9
$DIMSCALE
 40
1.0
  9
$DIMASZ
 40
0.18
  9
$DIMEXO
 40
0.0625
  9
$DIMDLI
 40
0.38
  9
$DIMRND
 40
0.0
  9
$DIMDLE
 40
0.0
  9
$DIMEXE
 40
0.18
  9
$DIMTP
 40
0.0
  9
$DIMTM
 40
0.0
  9
$DIMTXT
 40
0.18
  9
$DIMCEN
 40
0.09
  9
$DIMTSZ
 40
0.0
  9
$DIMTOL
 70
     0
  9
$DIMLIM
 70
     0
  9
$DIMTIH
 70
     1
  9
$DIMTOH
 70
     1
  9
$DIMSE1
 70
     0
  9
$DIMSE2
 70
     0
  9
$DIMTAD
 70
     0
  9
$DIMZIN
 70
     0
  9
$DIMBLK
  1

  9
$DIMASO
 70
     1
  9
$DIMSHO
 70
     1
  9
$DIMPOST
  1

  9
$DIMAPOST
  1

  9
$DIMALT
 70
     0
  9
$DIMALTD
 70
     2
  9
$DIMALTF
 40
25.4
  9
$DIMLFAC
 40
1.0
  9
$DIMTOFL
 70
     1
  9
$DIMTVP
 40
0.0
  9
$DIMTIX
 70
     0
  9
$DIMSOXD
 70
     1
  9
$DIMSAH
 70
     0
  9
$DIMBLK1
  1

  9
$DIMBLK2
  1

  9
$DIMSTYLE
  2
Standard
  9
$DIMCLRD
 70
     0
  9
$DIMCLRE
 70
     0
  9
$DIMCLRT
 70
     0
  9
$DIMTFAC
 40
1.0
  9
$DIMGAP
 40
0.09
  9
$DIMJUST
 70
     0
  9
$DIMSD1
 70
     0
  9
$DIMSD2
 70
     0
  9
$DIMTOLJ
 70
     1
  9
$DIMTZIN
 70
     0
  9
$DIMALTZ
 70
     0
  9
$DIMALTTZ
 70
     0
  9
$DIMUPT
 70
     0
  9
$DIMDEC
 70
     4
  9
$DIMTDEC
 70
     4
  9
$DIMALTU
 70
     2
  9
$DIMALTTD
 70
     2
  9
$DIMTXSTY
  7
Standard
  9
$DIMAUNIT
 70
     0
  9
$DIMADEC
 70
     0
  9
$DIMALTRND
 40
0.0
  9
$DIMAZIN
 70
     0
  9
$DIMDSEP
 70
    46
  9
$DIMATFIT
 70
     3
  9
$DIMFRAC
 70
     0
  9
$DIMLDRBLK
  1

  9
$DIMLUNIT
 70
     2
  9
$DIMLWD
 70
    -2
  9
$DIMLWE
 70
    -2
  9
$DIMTMOVE
 70
     2
  9
$DIMFXL
 40
1.0
  9
$DIMFXLON
 70
     0
  9
$DIMJOGANG
 40
0.7853981633974483
  9
$DIMTFILL
 70
     0
  9
$DIMTFILLCLR
 70
     0
  9
$DIMARCSYM
 70
     0
  9
$DIMLTYPE
  6

  9
$DIMLTEX1
  6

  9
$DIMLTEX2
  6

  9
$DIMTXTDIRECTION
 70
     0
  9
$LUNITS
 70
     2
  9
$LUPREC
 70
     4
  9
$SKETCHINC
 40
0.1
  9
$FILLETRAD
 40
0.5
  9
$AUNITS
 70
     0
  9
$AUPREC
 70
     0
  9
$MENU
  1
.
  9
$ELEVATION
 40
0.0
  9
$PELEVATION
 40
0.0
  9
$THICKNESS
 40
0.0
  9
$LIMCHECK
 70
     0
  9
$CHAMFERA
 40
0.0
  9
$CHAMFERB
 40
0.0
  9
$CHAMFERC
 40
0.0
  9
$CHAMFERD
 40
0.0
  9
$SKPOLY
 70
     0
  9
$TDCREATE
 40
2459184.516352072
  9
$TDUCREATE
 40
2459184.474685405
  9
$TDUPDATE
 40
2459184.516354155
  9
$TDUUPDATE
 40
2459184.474687488
  9
$TDINDWG
 40
0.0000000116
  9
$TDUSRTIMER
 40
0.0000000116
  9
$USRTIMER
 70
     1
  9
$ANGBASE
 50
0.0
  9
$ANGDIR
 70
     0
  9
$PDMODE
 70
     0
  9
$PDSIZE
 40
0.0
  9
$PLINEWID
 40
0.0
  9
$SPLFRAME
 70
     0
  9
$SPLINETYPE
 70
     6
  9
$SPLINESEGS
 70
     8
  9
$HANDSEED
  5
453
  9
$SURFTAB1
 70
     6
  9
$SURFTAB2
 70
     6
  9
$SURFTYPE
 70
     6
  9
$SURFU
 70
     6
  9
$SURFV
 70
     6
  9
$UCSBASE
  2

  9
$UCSNAME
  2

  9
$UCSORG
 10
0.0
 20
0.0
 30
0.0
  9
$UCSXDIR
 10
1.0
 20
0.0
 30
0.0
  9
$UCSYDIR
 10
0.0
 20
1.0
 30
0.0
  9
$UCSORTHOREF
  2

  9
$UCSORTHOVIEW
 70
     0
  9
$UCSORGTOP
 10
0.0
 20
0.0
 30
0.0
  9
$UCSORGBOTTOM
 10
0.0
 20
0.0
 30
0.0
  9
$UCSORGLEFT
 10
0.0
 20
0.0
 30
0.0
  9
$UCSORGRIGHT
 10
0.0
 20
0.0
 30
0.0
  9
$UCSORGFRONT
 10
0.0
 20
0.0
 30
0.0
  9
$UCSORGBACK
 10
0.0
 20
0.0
 30
0.0
  9
$PUCSBASE
  2

  9
$PUCSNAME
  2

  9
$PUCSORG
 10
0.0
 20
0.0
 30
0.0
  9
$PUCSXDIR
 10
1.0
 20
0.0
 30
0.0
  9
$PUCSYDIR
 10
0.0
 20
1.0
 30
0.0
  9
$PUCSORTHOREF
  2

  9
$PUCSORTHOVIEW
 70
     0
  9
$PUCSORGTOP
 10
0.0
 20
0.0
 30
0.0
  9
$PUCSORGBOTTOM
 10
0.0
 20
0.0
 30
0.0
  9
$PUCSORGLEFT
 10
0.0
 20
0.0
 30
0.0
  9
$PUCSORGRIGHT
 10
0.0
 20
0.0
 30
0.0
  9
$PUCSORGFRONT
 10
0.0
 20
0.0
 30
0.0
  9
$PUCSORGBACK
 10
0.0
 20
0.0
 30
0.0
  9
$USERI1
 70
     0
  9
$USERI2
 70
     0
  9
$USERI3
 70
     0
  9
$USERI4
 70
     0
  9
$USERI5
 70
     0
  9
$USERR1
 40
0.0
  9
$USERR2
 40
0.0
  9
$USERR3
 40
0.0
  9
$USERR4
 40
0.0
  9
$USERR5
 40
0.0
  9
$WORLDVIEW
 70
     1
  9
$SHADEDGE
 70
     3
  9
$SHADEDIF
 70
    70
  9
$TILEMODE
 70
     1
  9
$MAXACTVP
 70
    64
  9
$PINSBASE
 10
0.0
 20
0.0
 30
0.0
  9
$PLIMCHECK
 70
     0
  9
$PEXTMIN
 10
0.0
 20
0.0
 30
0.0
  9
$PEXTMAX
 10
197.6
 20
271.6
 30
0.0
  9
$PLIMMIN
 10
-20.0
 20
-7.5
  9
$PLIMMAX
 10
277.0
 20
202.5
  9
$UNITMODE
 70
     0
  9
$VISRETAIN
 70
     1
  9
$PLINEGEN
 70
     0
  9
$PSLTSCALE
 70
     0
  9
$TREEDEPTH
 70
  3020
  9
$CMLSTYLE
  2
Standard
  9
$CMLJUST
 70
     0
  9
$CMLSCALE
 40
1.0
  9
$PROXYGRAPHICS
 70
     1
  9
$MEASUREMENT
 70
     1
  9
$CELWEIGHT
370
    -1
  9
$ENDCAPS
280
     0
  9
$JOINSTYLE
280
     0
  9
$LWDISPLAY
290
     0
  9
$INSUNITS
 70
     4
  9
$HYPERLINKBASE
  1

  9
$STYLESHEET
  1

  9
$XEDIT
290
     1
  9
$CEPSNTYPE
380
     0
  9
$PSTYLEMODE
290
     0
  9
$FINGERPRINTGUID
  2
{55234175-5F01-45CC-8952-2B0EFE9F820D}
  9
$VERSIONGUID
  2
{FAEB1C32-E019-11D5-929B-00C0DF256EC4}
  9
$EXTNAMES
290
     1
  9
$PSVPSCALE
 40
0.0
  9
$OLESTARTUP
290
     0
  9
$SORTENTS
280
   127
  9
$INDEXCTL
280
     0
  9
$HIDETEXT
280
     1
  9
$XCLIPFRAME
280
     2
  9
$HALOGAP
280
     0
  9
$OBSCOLOR
 70
   257
  9
$OBSLTYPE
280
     0
  9
$INTERSECTIONDISPLAY
280
     0
  9
$INTERSECTIONCOLOR
 70
   257
  9
$DIMASSOC
280
     2
  9
$PROJECTNAME
  1

  9
$CAMERADISPLAY
290
     0
  9
$LENSLENGTH
 40
50.0
  9
$CAMERAHEIGHT
 40
0.0
  9
$STEPSPERSEC
 40
2.0
  9
$STEPSIZE
 40
6.0
  9
$3DDWFPREC
 40
2.0
  9
$PSOLWIDTH
 40
0.25
  9
$PSOLHEIGHT
 40
4.0
  9
$LOFTANG1
 40
1.570796326794897
  9
$LOFTANG2
 40
1.570796326794897
  9
$LOFTMAG1
 40
0.0
  9
$LOFTMAG2
 40
0.0
  9
$LOFTPARAM
 70
     7
  9
$LOFTNORMALS
280
     1
  9
$LATITUDE
 40
37.795
  9
$LONGITUDE
 40
-122.394
  9
$NORTHDIRECTION
 40
0.0
  9
$TIMEZONE
 70
 -8000
  9
$LIGHTGLYPHDISPLAY
280
     1
  9
$TILEMODELIGHTSYNCH
280
     1
  9
$CMATERIAL
347
44
  9
$SOLIDHIST
280
     0
  9
$SHOWHIST
280
     1
  9
$DWFFRAME
280
     2
  9
$DGNFRAME
280
     2
  9
$REALWORLDSCALE
290
     1
  9
$INTERFERECOLOR
 62
   256
  9
$CSHADOW
280
     0
  9
$SHADOWPLANELOCATION
 40
0.0
  0
ENDSEC
  0
SECTION
  2
CLASSES
  0
CLASS
  1
ACDBDICTIONARYWDFLT
  2
AcDbDictionaryWithDefault
  3
ObjectDBX Classes
 90
        0
 91
        3
280
     0
281
     0
  0
CLASS
  1
VISUALSTYLE
  2
AcDbVisualStyle
  3
ObjectDBX Classes
 90
     4095
 91
        3
280
     0
281
     0
  0
CLASS
  1
MATERIAL
  2
AcDbMaterial
  3
ObjectDBX Classes
 90
     1153
 91
        3
280
     0
281
     0
  0
CLASS
  1
SCALE
  2
AcDbScale
  3
ObjectDBX Classes
 90
     1153
 91
        3
280
     0
281
     0
  0
CLASS
  1
TABLESTYLE
  2
AcDbTableStyle
  3
ObjectDBX Classes
 90
     4095
 91
        3
280
     0
281
     0
  0
CLASS
  1
MLEADERSTYLE
  2
AcDbMLeaderStyle
  3
ACDB_MLEADERSTYLE_CLASS
 90
     4095
 91
        3
280
     0
281
     0
  0
CLASS
  1
SUN
  2
AcDbSun
  3
SCENEOE
 90
     1153
 91
        3
280
     0
281
     0
  0
CLASS
  1
RASTERVARIABLES
  2
AcDbRasterVariables
  3
ISM
 90
        0
 91
        3
280
     0
281
     0
  0
CLASS
  1
PLOTSETTINGS
  2
AcDbPlotSettings
  3
ObjectDBX Classes
 90
        0
 91
        3
280
     0
281
     0
  0
CLASS
  1
IMAGEDEF
  2
AcDbRasterImageDef
  3
ISM
 90
        0
 91
        3
280
     0
281
     0
  0
CLASS
  1
IMAGE
  2
AcDbRasterImage
  3
ISM
 90
      127
 91
        4
280
     0
281
     1
  0
CLASS
  1
IMAGEDEF_REACTOR
  2
AcDbRasterImageDefReactor
  3
ISM
 90
        1
 91
        3
280
     0
281
     0
  0
CLASS
  1
DICTIONARYVAR
  2
AcDbDictionaryVar
  3
ObjectDBX Classes
 90
        0
 91
        3
280
     0
281
     0
  0
CLASS
  1
CELLSTYLEMAP
  2
AcDbCellStyleMap
  3
ObjectDBX Classes
 90
     1152
 91
        3
280
     0
281
     0
  0
ENDSEC
  0
SECTION
  2
TABLES
  0
TABLE
  2
VPORT
  5
8
330
0
100
AcDbSymbolTable
 70
     1
  0
VPORT
  5
29
330
8
100
AcDbSymbolTableRecord
100
AcDbViewportTableRecord
  2
*Active
 70
     0
 10
0.0
 20
0.0
 11
1.0
 21
1.0
 12
10.42990654205607
 22
4.5
 13
0.0
 23
0.0
 14
0.5
 24
0.5
 15
0.5
 25
0.5
 16
0.0
 26
0.0
 36
1.0
 17
0.0
 27
0.0
 37
0.0
 40
9.0
 41
1.972972972850329
 42
50.0
 43
0.0
 44
0.0
 50
0.0
 51
0.0
 71
     0
 72
   100
 73
     1
 74
     3
 75
     0
 76
     0
 77
     0
 78
     0
281
     0
 65
     1
110
0.0
120
0.0
130
0.0
111
1.0
121
0.0
131
0.0
112
0.0
122
1.0
132
0.0
 79
     0
146
0.0
348
2F
 60
     3
 61
     5
292
     1
282
     1
141
0.0
142
0.0
 63
   250
361
6D
  0
ENDTAB
  0
TABLE
  2
LTYPE
  5
5
330
0
100
AcDbSymbolTable
 70
     2
  0
LTYPE
  5
14
330
5
100
AcDbSymbolTableRecord
100
AcDbLinetypeTableRecord
  2
ByBlock
 70
     0
  3

 72
    65
 73
     0
 40
0.0
  0
LTYPE
  5
15
330
5
100
AcDbSymbolTableRecord
100
AcDbLinetypeTableRecord
  2
ByLayer
 70
     0
  3

 72
    65
 73
     0
 40
0.0
  0
LTYPE
  5
16
330
5
100
AcDbSymbolTableRecord
100
AcDbLinetypeTableRecord
  2
Continuous
 70
     0
  3
Solid line
 72
    65
 73
     0
 40
0.0
  0
LTYPE
  5
182
330
5
100
AcDbSymbolTableRecord
100
AcDbLinetypeTableRecord
  2
CADWORK_3
 70
     0
  3

 72
    65
 73
     2
 40
4.0
 49
2.0
 74
     0
 49
-2.0
 74
     0
  0
ENDTAB
  0
TABLE
  2
LAYER
  5
2
330
0
100
AcDbSymbolTable
 70
    19
  0
LAYER
  5
10
330
2
100
AcDbSymbolTableRecord
100
AcDbLayerTableRecord
  2
0
 70
     0
 62
     7
  6
Continuous
370
    -3
390
F
347
46
348
0
  0
LAYER
  5
70
330
2
100
AcDbSymbolTableRecord
100
AcDbLayerTableRecord
  2
Standard
 70
     0
 62
     7
  6
Continuous
370
    -3
390
F
347
46
348
0
  0
LAYER
  5
71
330
2
100
AcDbSymbolTableRecord
100
AcDbLayerTableRecord
  2
Ech.1_1
 70
     0
 62
     7
  6
Continuous
370
    -3
390
F
347
46
348
0
  0
LAYER
  5
72
330
2
100
AcDbSymbolTableRecord
100
AcDbLayerTableRecord
  2
Ech.1_2
 70
     0
 62
     7
  6
Continuous
370
    -3
390
F
347
46
348
0
  0
LAYER
  5
73
330
2
100
AcDbSymbolTableRecord
100
AcDbLayerTableRecord
  2
Ech.1_5
 70
     0
 62
     7
  6
Continuous
370
    -3
390
F
347
46
348
0
  0
LAYER
  5
74
330
2
100
AcDbSymbolTableRecord
100
AcDbLayerTableRecord
  2
Ech.1_10
 70
     0
 62
     7
  6
Continuous
370
    -3
390
F
347
46
348
0
  0
LAYER
  5
75
330
2
100
AcDbSymbolTableRecord
100
AcDbLayerTableRecord
  2
Ech.1_20
 70
     0
 62
     7
  6
Continuous
370
    -3
390
F
347
46
348
0
  0
LAYER
  5
76
330
2
100
AcDbSymbolTableRecord
100
AcDbLayerTableRecord
  2
Ech.1_25
 70
     0
 62
     7
  6
Continuous
370
    -3
390
F
347
46
348
0
  0
LAYER
  5
77
330
2
100
AcDbSymbolTableRecord
100
AcDbLayerTableRecord
  2
Ech.1_33
 70
     0
 62
     7
  6
Continuous
370
    -3
390
F
347
46
348
0
  0
LAYER
  5
78
330
2
100
AcDbSymbolTableRecord
100
AcDbLayerTableRecord
  2
Ech.1_50
 70
     0
 62
     7
  6
Continuous
370
    -3
390
F
347
46
348
0
  0
LAYER
  5
79
330
2
100
AcDbSymbolTableRecord
100
AcDbLayerTableRecord
  2
Ech.1_75
 70
     0
 62
     7
  6
Continuous
370
    -3
390
F
347
46
348
0
  0
LAYER
  5
7A
330
2
100
AcDbSymbolTableRecord
100
AcDbLayerTableRecord
  2
Ech.1_100
 70
     0
 62
     7
  6
Continuous
370
    -3
390
F
347
46
348
0
  0
LAYER
  5
7B
330
2
100
AcDbSymbolTableRecord
100
AcDbLayerTableRecord
  2
Ech.1_200
 70
     0
 62
     7
  6
Continuous
370
    -3
390
F
347
46
348
0
  0
LAYER
  5
7C
330
2
100
AcDbSymbolTableRecord
100
AcDbLayerTableRecord
  2
Ech.1_500
 70
     0
 62
     7
  6
Continuous
370
    -3
390
F
347
46
348
0
  0
LAYER
  5
7D
330
2
100
AcDbSymbolTableRecord
100
AcDbLayerTableRecord
  2
Ech.1_1000
 70
     0
 62
     7
  6
Continuous
370
    -3
390
F
347
46
348
0
  0
LAYER
  5
7E
330
2
100
AcDbSymbolTableRecord
100
AcDbLayerTableRecord
  2
Cadres traceur
 70
     0
 62
     7
  6
Continuous
370
    -3
390
F
347
46
348
0
  0
LAYER
  5
7F
330
2
100
AcDbSymbolTableRecord
100
AcDbLayerTableRecord
  2
Cadres laser
 70
     0
 62
     7
  6
Continuous
370
    -3
390
F
347
46
348
0
  0
LAYER
  5
80
330
2
100
AcDbSymbolTableRecord
100
AcDbLayerTableRecord
  2
Légende d_aide
 70
     0
 62
     7
  6
Continuous
370
    -3
390
F
347
46
348
0
  0
LAYER
  5
3FF
330
2
100
AcDbSymbolTableRecord
100
AcDbLayerTableRecord
  2
Defpoints
 70
     0
 62
     7
  6
Continuous
290
     0
370
    -3
390
F
347
46
348
0
  0
ENDTAB
  0
TABLE
  2
STYLE
  5
3
330
0
100
AcDbSymbolTable
 70
     9
  0
STYLE
  5
11
330
3
100
AcDbSymbolTableRecord
100
AcDbTextStyleTableRecord
  2
Standard
 70
     0
 40
0.0
 41
1.0
 50
0.0
 71
     0
 42
0.2
  3
txt
  4

  0
STYLE
  5
81
330
3
100
AcDbSymbolTableRecord
100
AcDbTextStyleTableRecord
  2
CwStyleShx
 70
     0
 40
1.0
 41
1.0
 50
0.0
 71
     0
 42
0.2
  3

  4

  0
STYLE
  5
82
330
3
100
AcDbSymbolTableRecord
100
AcDbTextStyleTableRecord
  2
CwStyleShx16
 70
     0
 40
1.0
 41
1.0
 50
0.0
 71
     0
 42
0.2
  3

  4

  0
STYLE
  5
83
330
3
100
AcDbSymbolTableRecord
100
AcDbTextStyleTableRecord
  2
MONOTXT
 70
     0
 40
0.0
 41
1.0
 50
0.0
 71
     0
 42
0.2
  3
MONOTXT
  4

  0
STYLE
  5
84
330
3
100
AcDbSymbolTableRecord
100
AcDbTextStyleTableRecord
  2
SYMAP
 70
     0
 40
1.0
 41
1.0
 50
0.0
 71
     0
 42
0.2
  3
SYMAP
  4

  0
STYLE
  5
85
330
3
100
AcDbSymbolTableRecord
100
AcDbTextStyleTableRecord
  2
CwStyleTtf
 70
     0
 40
1.0
 41
1.0
 50
0.0
 71
     0
 42
0.2
  3
arial.ttf
  4

  0
STYLE
  5
3FC
330
3
100
AcDbSymbolTableRecord
100
AcDbTextStyleTableRecord
  2
arial-z
 70
     0
 40
0.0
 41
1.0
 50
0.0
 71
     0
 42
0.2
  3
arial.ttf
  4

1001
ACAD
1000
Arial
1071
        0
  0
STYLE
  5
42B
330
3
100
AcDbSymbolTableRecord
100
AcDbTextStyleTableRecord
  2
arial-
 70
     0
 40
1.0
 41
1.0
 50
0.0
 71
     0
 42
0.2
  3

  4

1001
ACAD
1000
Arial
1071
        0
  0
STYLE
  5
42E
330
3
100
AcDbSymbolTableRecord
100
AcDbTextStyleTableRecord
  2
tahoma-b
 70
     0
 40
1.0
 41
1.0
 50
0.0
 71
     0
 42
0.2
  3
tahomabd.ttf
  4

1001
ACAD
1000
Tahoma
1071
 33554432
  0
ENDTAB
  0
TABLE
  2
VIEW
  5
6
330
0
100
AcDbSymbolTable
 70
     0
  0
ENDTAB
  0
TABLE
  2
UCS
  5
7
330
0
100
AcDbSymbolTable
 70
     0
  0
ENDTAB
  0
TABLE
  2
APPID
  5
9
330
0
100
AcDbSymbolTable
 70
     3
  0
APPID
  5
12
330
9
100
AcDbSymbolTableRecord
100
AcDbRegAppTableRecord
  2
ACAD
 70
     0
  0
APPID
  5
6E
330
9
100
AcDbSymbolTableRecord
100
AcDbRegAppTableRecord
  2
Cadwork
 70
     0
  0
APPID
  5
232
330
9
100
AcDbSymbolTableRecord
100
AcDbRegAppTableRecord
  2
PLOTTRANSPARENCY
 70
     0
  0
ENDTAB
  0
TABLE
  2
DIMSTYLE
  5
A
330
0
100
AcDbSymbolTable
 70
     1
100
AcDbDimStyleTable
  0
DIMSTYLE
105
27
102
{ACAD_REACTORS
330
3FD
330
40E
102
}
330
A
100
AcDbSymbolTableRecord
100
AcDbDimStyleTableRecord
  2
Standard
 70
     0
178
     0
340
11
  0
ENDTAB
  0
TABLE
  2
BLOCK_RECORD
  5
1
330
0
100
AcDbSymbolTable
 70
    71
  0
BLOCK_RECORD
  5
1F
330
1
100
AcDbSymbolTableRecord
100
AcDbBlockTableRecord
  2
*Model_Space
340
22
 70
     0
280
     1
281
     0
  0
BLOCK_RECORD
  5
22D
330
1
100
AcDbSymbolTableRecord
100
AcDbBlockTableRecord
  2
*Paper_Space
340
22E
 70
     0
280
     1
281
     0
  0
BLOCK_RECORD
  5
86
330
1
100
AcDbSymbolTableRecord
100
AcDbBlockTableRecord
  2
CDWK_PTTYP1
340
0
 70
     0
280
     1
281
     1
  0
BLOCK_RECORD
  5
8D
330
1
100
AcDbSymbolTableRecord
100
AcDbBlockTableRecord
  2
CDWK_PTTYP2
340
0
 70
     0
280
     1
281
     1
  0
BLOCK_RECORD
  5
92
330
1
100
AcDbSymbolTableRecord
100
AcDbBlockTableRecord
  2
CDWK_PTTYP4
340
0
 70
     0
280
     1
281
     1
  0
BLOCK_RECORD
  5
96
330
1
100
AcDbSymbolTableRecord
100
AcDbBlockTableRecord
  2
CDWK_PTTYP5
340
0
 70
     0
280
     1
281
     1
  0
BLOCK_RECORD
  5
9F
330
1
100
AcDbSymbolTableRecord
100
AcDbBlockTableRecord
  2
CDWK_PTTYP6
340
0
 70
     0
280
     1
281
     1
  0
BLOCK_RECORD
  5
A7
330
1
100
AcDbSymbolTableRecord
100
AcDbBlockTableRecord
  2
CDWK_PTTYP7
340
0
 70
     0
280
     1
281
     1
  0
BLOCK_RECORD
  5
B0
330
1
100
AcDbSymbolTableRecord
100
AcDbBlockTableRecord
  2
CDWK_PTTYP8
340
0
 70
     0
280
     1
281
     1
  0
BLOCK_RECORD
  5
B4
330
1
100
AcDbSymbolTableRecord
100
AcDbBlockTableRecord
  2
CDWK_PTTYP9
340
0
 70
     0
280
     1
281
     1
  0
BLOCK_RECORD
  5
B9
330
1
100
AcDbSymbolTableRecord
100
AcDbBlockTableRecord
  2
CDWK_PTTYP10
340
0
 70
     0
280
     1
281
     1
  0
BLOCK_RECORD
  5
BD
330
1
100
AcDbSymbolTableRecord
100
AcDbBlockTableRecord
  2
CDWK_PTTYP11
340
0
 70
     0
280
     1
281
     1
  0
BLOCK_RECORD
  5
C2
330
1
100
AcDbSymbolTableRecord
100
AcDbBlockTableRecord
  2
CDWK_PTTYP12
340
0
 70
     0
280
     1
281
     1
  0
BLOCK_RECORD
  5
C7
330
1
100
AcDbSymbolTableRecord
100
AcDbBlockTableRecord
  2
CDWK_PTTYP13
340
0
 70
     0
280
     1
281
     1
  0
BLOCK_RECORD
  5
CD
330
1
100
AcDbSymbolTableRecord
100
AcDbBlockTableRecord
  2
CDWK_PTTYP16
340
0
 70
     0
280
     1
281
     1
  0
BLOCK_RECORD
  5
D4
330
1
100
AcDbSymbolTableRecord
100
AcDbBlockTableRecord
  2
CDWK_PTTYP17
340
0
 70
     0
280
     1
281
     1
  0
BLOCK_RECORD
  5
D9
330
1
100
AcDbSymbolTableRecord
100
AcDbBlockTableRecord
  2
CDWK_PTTYP18
340
0
 70
     0
280
     1
281
     1
  0
BLOCK_RECORD
  5
DE
330
1
100
AcDbSymbolTableRecord
100
AcDbBlockTableRecord
  2
CDWK_PTTYP19
340
0
 70
     0
280
     1
281
     1
  0
BLOCK_RECORD
  5
E4
330
1
100
AcDbSymbolTableRecord
100
AcDbBlockTableRecord
  2
CDWK_PTTYP20
340
0
 70
     0
280
     1
281
     1
  0
BLOCK_RECORD
  5
E9
330
1
100
AcDbSymbolTableRecord
100
AcDbBlockTableRecord
  2
CDWK_PTTYP21
340
0
 70
     0
280
     1
281
     1
  0
BLOCK_RECORD
  5
EE
330
1
100
AcDbSymbolTableRecord
100
AcDbBlockTableRecord
  2
CDWK_PTTYP25
340
0
 70
     0
280
     1
281
     1
  0
BLOCK_RECORD
  5
F5
330
1
100
AcDbSymbolTableRecord
100
AcDbBlockTableRecord
  2
CDWK_PTTYP26
340
0
 70
     0
280
     1
281
     1
  0
BLOCK_RECORD
  5
FC
330
1
100
AcDbSymbolTableRecord
100
AcDbBlockTableRecord
  2
CDWK_PTTYP27
340
0
 70
     0
280
     1
281
     1
  0
BLOCK_RECORD
  5
104
330
1
100
AcDbSymbolTableRecord
100
AcDbBlockTableRecord
  2
CDWK_PTTYP28
340
0
 70
     0
280
     1
281
     1
  0
BLOCK_RECORD
  5
10B
330
1
100
AcDbSymbolTableRecord
100
AcDbBlockTableRecord
  2
CDWK_PTTYP29
340
0
 70
     0
280
     1
281
     1
  0
BLOCK_RECORD
  5
111
330
1
100
AcDbSymbolTableRecord
100
AcDbBlockTableRecord
  2
CDWK_PTTYP30
340
0
 70
     0
280
     1
281
     1
  0
BLOCK_RECORD
  5
118
330
1
100
AcDbSymbolTableRecord
100
AcDbBlockTableRecord
  2
CDWK_PTTYP31
340
0
 70
     0
280
     1
281
     1
  0
BLOCK_RECORD
  5
120
330
1
100
AcDbSymbolTableRecord
100
AcDbBlockTableRecord
  2
CDWK_PTTYP32
340
0
 70
     0
280
     1
281
     1
  0
BLOCK_RECORD
  5
129
330
1
100
AcDbSymbolTableRecord
100
AcDbBlockTableRecord
  2
CDWK_PTTYP33
340
0
 70
     0
280
     1
281
     1
  0
BLOCK_RECORD
  5
12F
330
1
100
AcDbSymbolTableRecord
100
AcDbBlockTableRecord
  2
CDWK_PTTYP34
340
0
 70
     0
280
     1
281
     1
  0
BLOCK_RECORD
  5
135
330
1
100
AcDbSymbolTableRecord
100
AcDbBlockTableRecord
  2
CDWK_PTTYP35
340
0
 70
     0
280
     1
281
     1
  0
BLOCK_RECORD
  5
13B
330
1
100
AcDbSymbolTableRecord
100
AcDbBlockTableRecord
  2
CDWK_PTTYP36
340
0
 70
     0
280
     1
281
     1
  0
BLOCK_RECORD
  5
143
330
1
100
AcDbSymbolTableRecord
100
AcDbBlockTableRecord
  2
CDWK_PTTYP37
340
0
 70
     0
280
     1
281
     1
  0
BLOCK_RECORD
  5
148
330
1
100
AcDbSymbolTableRecord
100
AcDbBlockTableRecord
  2
CDWK_PTTYP38
340
0
 70
     0
280
     1
281
     1
  0
BLOCK_RECORD
  5
14E
330
1
100
AcDbSymbolTableRecord
100
AcDbBlockTableRecord
  2
CDWK_PTTYP41
340
0
 70
     0
280
     1
281
     1
  0
BLOCK_RECORD
  5
158
330
1
100
AcDbSymbolTableRecord
100
AcDbBlockTableRecord
  2
CDWK_PTTYP42
340
0
 70
     0
280
     1
281
     1
  0
BLOCK_RECORD
  5
161
330
1
100
AcDbSymbolTableRecord
100
AcDbBlockTableRecord
  2
CDWK_PTTYP43
340
0
 70
     0
280
     1
281
     1
  0
BLOCK_RECORD
  5
167
330
1
100
AcDbSymbolTableRecord
100
AcDbBlockTableRecord
  2
CDWK_PTTYP44
340
0
 70
     0
280
     1
281
     1
  0
BLOCK_RECORD
  5
170
330
1
100
AcDbSymbolTableRecord
100
AcDbBlockTableRecord
  2
CDWK_PTTYP45
340
0
 70
     0
280
     1
281
     1
  0
BLOCK_RECORD
  5
175
330
1
100
AcDbSymbolTableRecord
100
AcDbBlockTableRecord
  2
CDWK_PTTYP46
340
0
 70
     0
280
     1
281
     1
  0
BLOCK_RECORD
  5
17A
330
1
100
AcDbSymbolTableRecord
100
AcDbBlockTableRecord
  2
CDWK_PTTYP47
340
0
 70
     0
280
     1
281
     1
  0
BLOCK_RECORD
  5
183
330
1
100
AcDbSymbolTableRecord
100
AcDbBlockTableRecord
  2
CDWK_PTTYP48
340
0
 70
     0
280
     1
281
     1
  0
BLOCK_RECORD
  5
188
330
1
100
AcDbSymbolTableRecord
100
AcDbBlockTableRecord
  2
CDWK_PTTYP49
340
0
 70
     0
280
     1
281
     1
  0
BLOCK_RECORD
  5
18F
330
1
100
AcDbSymbolTableRecord
100
AcDbBlockTableRecord
  2
CDWK_PTTYP50
340
0
 70
     0
280
     1
281
     1
  0
BLOCK_RECORD
  5
199
330
1
100
AcDbSymbolTableRecord
100
AcDbBlockTableRecord
  2
CDWK_PTTYP51
340
0
 70
     0
280
     1
281
     1
  0
BLOCK_RECORD
  5
19E
330
1
100
AcDbSymbolTableRecord
100
AcDbBlockTableRecord
  2
CDWK_PTTYP52
340
0
 70
     0
280
     1
281
     1
  0
BLOCK_RECORD
  5
1A4
330
1
100
AcDbSymbolTableRecord
100
AcDbBlockTableRecord
  2
cw-dimension-symbol1
340
0
 70
     0
280
     1
281
     0
  0
BLOCK_RECORD
  5
1AB
330
1
100
AcDbSymbolTableRecord
100
AcDbBlockTableRecord
  2
cw-dimension-symbol2
340
0
102
{BLKREFS
331
409
331
408
331
419
331
418
102
}
 70
     0
280
     1
281
     0
  0
BLOCK_RECORD
  5
1B0
330
1
100
AcDbSymbolTableRecord
100
AcDbBlockTableRecord
  2
cw-dimension-symbol3
340
0
 70
     0
280
     1
281
     0
  0
BLOCK_RECORD
  5
1B5
330
1
100
AcDbSymbolTableRecord
100
AcDbBlockTableRecord
  2
cw-dimension-symbol5
340
0
 70
     0
280
     1
281
     0
  0
BLOCK_RECORD
  5
1BC
330
1
100
AcDbSymbolTableRecord
100
AcDbBlockTableRecord
  2
cw-dimension-symbol6
340
0
 70
     0
280
     1
281
     0
  0
BLOCK_RECORD
  5
1C2
330
1
100
AcDbSymbolTableRecord
100
AcDbBlockTableRecord
  2
cw-dimension-symbol11
340
0
 70
     0
280
     1
281
     0
  0
BLOCK_RECORD
  5
1C8
330
1
100
AcDbSymbolTableRecord
100
AcDbBlockTableRecord
  2
cw-dimension-symbol13
340
0
 70
     0
280
     1
281
     0
  0
BLOCK_RECORD
  5
1CE
330
1
100
AcDbSymbolTableRecord
100
AcDbBlockTableRecord
  2
cw-dimension-symbol15
340
0
 70
     0
280
     1
281
     0
  0
BLOCK_RECORD
  5
1D5
330
1
100
AcDbSymbolTableRecord
100
AcDbBlockTableRecord
  2
cw-dimension-symbol16
340
0
 70
     0
280
     1
281
     0
  0
BLOCK_RECORD
  5
1DC
330
1
100
AcDbSymbolTableRecord
100
AcDbBlockTableRecord
  2
cw-dimension-symbol17
340
0
 70
     0
280
     1
281
     0
  0
BLOCK_RECORD
  5
1E3
330
1
100
AcDbSymbolTableRecord
100
AcDbBlockTableRecord
  2
cw-dimension-symbol18
340
0
 70
     0
280
     1
281
     0
  0
BLOCK_RECORD
  5
1EA
330
1
100
AcDbSymbolTableRecord
100
AcDbBlockTableRecord
  2
cw-dimension-symbol19
340
0
 70
     0
280
     1
281
     0
  0
BLOCK_RECORD
  5
1ED
330
1
100
AcDbSymbolTableRecord
100
AcDbBlockTableRecord
  2
cw-dimension-symbol20
340
0
 70
     0
280
     1
281
     0
  0
BLOCK_RECORD
  5
1F4
330
1
100
AcDbSymbolTableRecord
100
AcDbBlockTableRecord
  2
cw-dimension-symbol21
340
0
 70
     0
280
     1
281
     0
  0
BLOCK_RECORD
  5
1FB
330
1
100
AcDbSymbolTableRecord
100
AcDbBlockTableRecord
  2
cw-line-extremity0
340
0
 70
     0
280
     1
281
     0
  0
BLOCK_RECORD
  5
1FF
330
1
100
AcDbSymbolTableRecord
100
AcDbBlockTableRecord
  2
cw-line-extremity2
340
0
 70
     0
280
     1
281
     0
  0
BLOCK_RECORD
  5
204
330
1
100
AcDbSymbolTableRecord
100
AcDbBlockTableRecord
  2
cw-line-extremity3
340
0
 70
     0
280
     1
281
     0
  0
BLOCK_RECORD
  5
209
330
1
100
AcDbSymbolTableRecord
100
AcDbBlockTableRecord
  2
cw-line-extremity301
340
0
 70
     0
280
     1
281
     0
  0
BLOCK_RECORD
  5
20B
330
1
100
AcDbSymbolTableRecord
100
AcDbBlockTableRecord
  2
cw-line-extremity4
340
0
102
{BLKREFS
331
26E
331
270
331
272
331
275
331
277
331
27D
102
}
 70
     0
280
     1
281
     0
  0
BLOCK_RECORD
  5
20D
330
1
100
AcDbSymbolTableRecord
100
AcDbBlockTableRecord
  2
cw-line-extremity5
340
0
 70
     0
280
     1
281
     0
  0
BLOCK_RECORD
  5
20F
330
1
100
AcDbSymbolTableRecord
100
AcDbBlockTableRecord
  2
cw-line-extremity6
340
0
 70
     0
280
     1
281
     0
  0
BLOCK_RECORD
  5
211
330
1
100
AcDbSymbolTableRecord
100
AcDbBlockTableRecord
  2
cw-line-extremity9
340
0
 70
     0
280
     1
281
     0
  0
BLOCK_RECORD
  5
213
330
1
100
AcDbSymbolTableRecord
100
AcDbBlockTableRecord
  2
cw-line-extremity10
340
0
 70
     0
280
     1
281
     0
  0
BLOCK_RECORD
  5
215
330
1
100
AcDbSymbolTableRecord
100
AcDbBlockTableRecord
  2
cw-line-extremity1
340
0
 70
     0
280
     1
281
     0
  0
BLOCK_RECORD
  5
1B
330
1
100
AcDbSymbolTableRecord
100
AcDbBlockTableRecord
  2
*Paper_Space69
340
1E
 70
     0
280
     1
281
     0
  0
BLOCK_RECORD
  5
400
330
1
100
AcDbSymbolTableRecord
100
AcDbBlockTableRecord
  2
*D70
340
0
 70
     0
280
     1
281
     0
  0
BLOCK_RECORD
  5
410
330
1
100
AcDbSymbolTableRecord
100
AcDbBlockTableRecord
  2
*D71
340
0
 70
     0
280
     1
281
     0
  0
ENDTAB
  0
ENDSEC
  0
SECTION
  2
BLOCKS
  0
BLOCK
  5
20
330
1F
100
AcDbEntity
  8
0
100
AcDbBlockBegin
  2
*Model_Space
 70
     0
 10
0.0
 20
0.0
 30
0.0
  3
*Model_Space
  1

  0
ENDBLK
  5
21
330
1F
100
AcDbEntity
  8
0
100
AcDbBlockEnd
  0
BLOCK
  5
22F
330
22D
100
AcDbEntity
 67
     1
  8
0
100
AcDbBlockBegin
  2
*Paper_Space
 70
     0
 10
0.0
 20
0.0
 30
0.0
  3
*Paper_Space
  1

  0
ENDBLK
  5
230
330
22D
100
AcDbEntity
 67
     1
  8
0
100
AcDbBlockEnd
  0
BLOCK
  5
8B
330
86
100
AcDbEntity
  8
0
100
AcDbBlockBegin
  2
CDWK_PTTYP1
 70
     0
 10
0.0
 20
0.0
 30
0.0
  3
CDWK_PTTYP1
  1

  0
LINE
  5
87
330
86
100
AcDbEntity
  8
0
 62
     0
370
    -2
100
AcDbLine
 10
-0.5
 20
0.5
 30
0.0
 11
0.5
 21
0.5
 31
0.0
  0
LINE
  5
88
330
86
100
AcDbEntity
  8
0
 62
     0
370
    -2
100
AcDbLine
 10
0.5
 20
0.5
 30
0.0
 11
0.5
 21
-0.5
 31
0.0
  0
LINE
  5
89
330
86
100
AcDbEntity
  8
0
 62
     0
370
    -2
100
AcDbLine
 10
0.5
 20
-0.5
 30
0.0
 11
-0.5
 21
-0.5
 31
0.0
  0
LINE
  5
8A
330
86
100
AcDbEntity
  8
0
 62
     0
370
    -2
100
AcDbLine
 10
-0.5
 20
-0.5
 30
0.0
 11
-0.5
 21
0.5
 31
0.0
  0
ENDBLK
  5
8C
330
86
100
AcDbEntity
  8
0
100
AcDbBlockEnd
  0
BLOCK
  5
90
330
8D
100
AcDbEntity
  8
0
100
AcDbBlockBegin
  2
CDWK_PTTYP2
 70
     0
 10
0.0
 20
0.0
 30
0.0
  3
CDWK_PTTYP2
  1

  0
LINE
  5
8E
330
8D
100
AcDbEntity
  8
0
 62
     0
370
    -2
100
AcDbLine
 10
0.0
 20
0.5
 30
0.0
 11
0.0
 21
-0.5
 31
0.0
  0
LINE
  5
8F
330
8D
100
AcDbEntity
  8
0
 62
     0
370
    -2
100
AcDbLine
 10
0.5
 20
0.0
 30
0.0
 11
-0.5
 21
0.0
 31
0.0
  0
ENDBLK
  5
91
330
8D
100
AcDbEntity
  8
0
100
AcDbBlockEnd
  0
BLOCK
  5
94
330
92
100
AcDbEntity
  8
0
100
AcDbBlockBegin
  2
CDWK_PTTYP4
 70
     0
 10
0.0
 20
0.0
 30
0.0
  3
CDWK_PTTYP4
  1

  0
HATCH
  5
93
330
92
100
AcDbEntity
  8
0
 62
     0
370
    -2
100
AcDbHatch
 10
0.0
 20
0.0
 30
0.0
210
0.0
220
0.0
230
1.0
  2
SOLID
 70
     1
 71
     1
 91
        1
 92
        1
 93
        1
 72
     2
 10
0.0
 20
0.0
 40
0.5
 50
0.0
 51
360.0
 73
     1
 97
        0
 75
     0
 76
     1
 98
        0
  0
ENDBLK
  5
95
330
92
100
AcDbEntity
  8
0
100
AcDbBlockEnd
  0
BLOCK
  5
9D
330
96
100
AcDbEntity
  8
0
100
AcDbBlockBegin
  2
CDWK_PTTYP5
 70
     0
 10
0.0
 20
0.0
 30
0.0
  3
CDWK_PTTYP5
  1

  0
LINE
  5
97
330
96
100
AcDbEntity
  8
0
 62
     0
370
    -2
100
AcDbLine
 10
-0.5
 20
0.5
 30
0.0
 11
0.5
 21
0.5
 31
0.0
  0
LINE
  5
98
330
96
100
AcDbEntity
  8
0
 62
     0
370
    -2
100
AcDbLine
 10
0.5
 20
0.5
 30
0.0
 11
0.5
 21
-0.5
 31
0.0
  0
LINE
  5
99
330
96
100
AcDbEntity
  8
0
 62
     0
370
    -2
100
AcDbLine
 10
0.5
 20
-0.5
 30
0.0
 11
-0.5
 21
-0.5
 31
0.0
  0
LINE
  5
9A
330
96
100
AcDbEntity
  8
0
 62
     0
370
    -2
100
AcDbLine
 10
-0.5
 20
-0.5
 30
0.0
 11
-0.5
 21
0.5
 31
0.0
  0
HATCH
  5
9B
330
96
100
AcDbEntity
  8
0
 62
     0
370
    -2
100
AcDbHatch
 10
0.0
 20
0.0
 30
0.0
210
0.0
220
0.0
230
1.0
  2
SOLID
 70
     1
 71
     1
 91
        1
 92
        3
 72
     0
 73
     1
 93
        4
 10
-0.5
 20
0.0
 10
0.0
 20
0.0
 10
0.0
 20
-0.5
 10
-0.5
 20
-0.5
 97
        0
 75
     0
 76
     1
 98
        0
  0
HATCH
  5
9C
330
96
100
AcDbEntity
  8
0
 62
     0
370
    -2
100
AcDbHatch
 10
0.0
 20
0.0
 30
0.0
210
0.0
220
0.0
230
1.0
  2
SOLID
 70
     1
 71
     1
 91
        1
 92
        3
 72
     0
 73
     1
 93
        4
 10
0.0
 20
0.0
 10
0.5
 20
0.0
 10
0.5
 20
0.5
 10
0.0
 20
0.5
 97
        0
 75
     0
 76
     1
 98
        0
  0
ENDBLK
  5
9E
330
96
100
AcDbEntity
  8
0
100
AcDbBlockEnd
  0
BLOCK
  5
A5
330
9F
100
AcDbEntity
  8
0
100
AcDbBlockBegin
  2
CDWK_PTTYP6
 70
     0
 10
0.0
 20
0.0
 30
0.0
  3
CDWK_PTTYP6
  1

  0
LINE
  5
A0
330
9F
100
AcDbEntity
  8
0
 62
     0
370
    -2
100
AcDbLine
 10
-0.5
 20
0.5
 30
0.0
 11
0.5
 21
0.5
 31
0.0
  0
LINE
  5
A1
330
9F
100
AcDbEntity
  8
0
 62
     0
370
    -2
100
AcDbLine
 10
0.5
 20
0.5
 30
0.0
 11
0.5
 21
-0.5
 31
0.0
  0
LINE
  5
A2
330
9F
100
AcDbEntity
  8
0
 62
     0
370
    -2
100
AcDbLine
 10
0.5
 20
-0.5
 30
0.0
 11
-0.5
 21
-0.5
 31
0.0
  0
LINE
  5
A3
330
9F
100
AcDbEntity
  8
0
 62
     0
370
    -2
100
AcDbLine
 10
-0.5
 20
-0.5
 30
0.0
 11
-0.5
 21
0.5
 31
0.0
  0
HATCH
  5
A4
330
9F
100
AcDbEntity
  8
0
 62
     0
370
    -2
100
AcDbHatch
 10
0.0
 20
0.0
 30
0.0
210
0.0
220
0.0
230
1.0
  2
SOLID
 70
     1
 71
     1
 91
        1
 92
        3
 72
     0
 73
     1
 93
        3
 10
-0.5
 20
-0.5
 10
-0.5
 20
0.5
 10
0.5
 20
0.5
 97
        0
 75
     0
 76
     1
 98
        0
  0
ENDBLK
  5
A6
330
9F
100
AcDbEntity
  8
0
100
AcDbBlockEnd
  0
BLOCK
  5
AE
330
A7
100
AcDbEntity
  8
0
100
AcDbBlockBegin
  2
CDWK_PTTYP7
 70
     0
 10
0.0
 20
0.0
 30
0.0
  3
CDWK_PTTYP7
  1

  0
LINE
  5
A8
330
A7
100
AcDbEntity
  8
0
 62
     0
370
    -2
100
AcDbLine
 10
-0.5
 20
0.5
 30
0.0
 11
0.5
 21
0.5
 31
0.0
  0
LINE
  5
A9
330
A7
100
AcDbEntity
  8
0
 62
     0
370
    -2
100
AcDbLine
 10
0.5
 20
0.5
 30
0.0
 11
0.5
 21
-0.5
 31
0.0
  0
LINE
  5
AA
330
A7
100
AcDbEntity
  8
0
 62
     0
370
    -2
100
AcDbLine
 10
0.5
 20
-0.5
 30
0.0
 11
-0.5
 21
-0.5
 31
0.0
  0
LINE
  5
AB
330
A7
100
AcDbEntity
  8
0
 62
     0
370
    -2
100
AcDbLine
 10
-0.5
 20
-0.5
 30
0.0
 11
-0.5
 21
0.5
 31
0.0
  0
LINE
  5
AC
330
A7
100
AcDbEntity
  8
0
 62
     0
370
    -2
100
AcDbLine
 10
0.0
 20
0.5
 30
0.0
 11
0.0
 21
-0.5
 31
0.0
  0
LINE
  5
AD
330
A7
100
AcDbEntity
  8
0
 62
     0
370
    -2
100
AcDbLine
 10
0.5
 20
0.0
 30
0.0
 11
-0.5
 21
0.0
 31
0.0
  0
ENDBLK
  5
AF
330
A7
100
AcDbEntity
  8
0
100
AcDbBlockEnd
  0
BLOCK
  5
B2
330
B0
100
AcDbEntity
  8
0
100
AcDbBlockBegin
  2
CDWK_PTTYP8
 70
     0
 10
0.0
 20
0.0
 30
0.0
  3
CDWK_PTTYP8
  1

  0
HATCH
  5
B1
330
B0
100
AcDbEntity
  8
0
 62
     0
370
    -2
100
AcDbHatch
 10
0.0
 20
0.0
 30
0.0
210
0.0
220
0.0
230
1.0
  2
SOLID
 70
     1
 71
     1
 91
        1
 92
        3
 72
     0
 73
     1
 93
        4
 10
0.5
 20
0.5
 10
0.5
 20
-0.5
 10
-0.5
 20
-0.5
 10
-0.5
 20
0.5
 97
        0
 75
     0
 76
     1
 98
        0
  0
ENDBLK
  5
B3
330
B0
100
AcDbEntity
  8
0
100
AcDbBlockEnd
  0
BLOCK
  5
B7
330
B4
100
AcDbEntity
  8
0
100
AcDbBlockBegin
  2
CDWK_PTTYP9
 70
     0
 10
0.0
 20
0.0
 30
0.0
  3
CDWK_PTTYP9
  1

  0
CIRCLE
  5
B5
330
B4
100
AcDbEntity
  8
0
 62
     0
370
    -2
100
AcDbCircle
 10
0.0
 20
0.0
 30
0.0
 40
0.1666666666666667
  0
CIRCLE
  5
B6
330
B4
100
AcDbEntity
  8
0
 62
     0
370
    -2
100
AcDbCircle
 10
0.0
 20
0.0
 30
0.0
 40
0.5
  0
ENDBLK
  5
B8
330
B4
100
AcDbEntity
  8
0
100
AcDbBlockEnd
  0
BLOCK
  5
BB
330
B9
100
AcDbEntity
  8
0
100
AcDbBlockBegin
  2
CDWK_PTTYP10
 70
     0
 10
0.0
 20
0.0
 30
0.0
  3
CDWK_PTTYP10
  1

  0
CIRCLE
  5
BA
330
B9
100
AcDbEntity
  8
0
 62
     0
370
    -2
100
AcDbCircle
 10
0.0
 20
0.0
 30
0.0
 40
0.5
  0
ENDBLK
  5
BC
330
B9
100
AcDbEntity
  8
0
100
AcDbBlockEnd
  0
BLOCK
  5
C0
330
BD
100
AcDbEntity
  8
0
100
AcDbBlockBegin
  2
CDWK_PTTYP11
 70
     0
 10
0.0
 20
0.0
 30
0.0
  3
CDWK_PTTYP11
  1

  0
CIRCLE
  5
BE
330
BD
100
AcDbEntity
  8
0
 62
     0
370
    -2
100
AcDbCircle
 10
0.0
 20
0.0
 30
0.0
 40
0.25
  0
CIRCLE
  5
BF
330
BD
100
AcDbEntity
  8
0
 62
     0
370
    -2
100
AcDbCircle
 10
0.0
 20
0.0
 30
0.0
 40
0.5
  0
ENDBLK
  5
C1
330
BD
100
AcDbEntity
  8
0
100
AcDbBlockEnd
  0
BLOCK
  5
C5
330
C2
100
AcDbEntity
  8
0
100
AcDbBlockBegin
  2
CDWK_PTTYP12
 70
     0
 10
0.0
 20
0.0
 30
0.0
  3
CDWK_PTTYP12
  1

  0
CIRCLE
  5
C3
330
C2
100
AcDbEntity
  8
0
 62
     0
370
    -2
100
AcDbCircle
 10
0.25
 20
0.0
 30
0.0
 40
0.25
  0
CIRCLE
  5
C4
330
C2
100
AcDbEntity
  8
0
 62
     0
370
    -2
100
AcDbCircle
 10
0.0
 20
0.0
 30
0.0
 40
0.5
  0
ENDBLK
  5
C6
330
C2
100
AcDbEntity
  8
0
100
AcDbBlockEnd
  0
BLOCK
  5
CB
330
C7
100
AcDbEntity
  8
0
100
AcDbBlockBegin
  2
CDWK_PTTYP13
 70
     0
 10
0.0
 20
0.0
 30
0.0
  3
CDWK_PTTYP13
  1

  0
CIRCLE
  5
C8
330
C7
100
AcDbEntity
  8
0
 62
     0
370
    -2
100
AcDbCircle
 10
-0.25
 20
0.0
 30
0.0
 40
0.25
  0
CIRCLE
  5
C9
330
C7
100
AcDbEntity
  8
0
 62
     0
370
    -2
100
AcDbCircle
 10
0.25
 20
0.0
 30
0.0
 40
0.25
  0
CIRCLE
  5
CA
330
C7
100
AcDbEntity
  8
0
 62
     0
370
    -2
100
AcDbCircle
 10
0.0
 20
0.0
 30
0.0
 40
0.5
  0
ENDBLK
  5
CC
330
C7
100
AcDbEntity
  8
0
100
AcDbBlockEnd
  0
BLOCK
  5
D2
330
CD
100
AcDbEntity
  8
0
100
AcDbBlockBegin
  2
CDWK_PTTYP16
 70
     0
 10
0.0
 20
0.0
 30
0.0
  3
CDWK_PTTYP16
  1

  0
LINE
  5
CE
330
CD
100
AcDbEntity
  8
0
 62
     0
370
    -2
100
AcDbLine
 10
-0.5
 20
-0.289
 30
0.0
 11
0.5
 21
-0.289
 31
0.0
  0
LINE
  5
CF
330
CD
100
AcDbEntity
  8
0
 62
     0
370
    -2
100
AcDbLine
 10
0.5
 20
-0.289
 30
0.0
 11
0.0
 21
0.577
 31
0.0
  0
LINE
  5
D0
330
CD
100
AcDbEntity
  8
0
 62
     0
370
    -2
100
AcDbLine
 10
0.0
 20
0.577
 30
0.0
 11
-0.5
 21
-0.289
 31
0.0
  0
CIRCLE
  5
D1
330
CD
100
AcDbEntity
  8
0
 62
     0
370
    -2
100
AcDbCircle
 10
0.0
 20
0.0
 30
0.0
 40
0.289
  0
ENDBLK
  5
D3
330
CD
100
AcDbEntity
  8
0
100
AcDbBlockEnd
  0
BLOCK
  5
D7
330
D4
100
AcDbEntity
  8
0
100
AcDbBlockBegin
  2
CDWK_PTTYP17
 70
     0
 10
0.0
 20
0.0
 30
0.0
  3
CDWK_PTTYP17
  1

  0
CIRCLE
  5
D5
330
D4
100
AcDbEntity
  8
0
 62
     0
370
    -2
100
AcDbCircle
 10
0.0
 20
0.0
 30
0.0
 40
0.5
  0
HATCH
  5
D6
330
D4
100
AcDbEntity
  8
0
 62
     0
370
    -2
100
AcDbHatch
 10
0.0
 20
0.0
 30
0.0
210
0.0
220
0.0
230
1.0
  2
SOLID
 70
     1
 71
     1
 91
        1
 92
        1
 93
        1
 72
     2
 10
0.0
 20
0.0
 40
0.25
 50
0.0
 51
360.0
 73
     1
 97
        0
 75
     0
 76
     1
 98
        0
  0
ENDBLK
  5
D8
330
D4
100
AcDbEntity
  8
0
100
AcDbBlockEnd
  0
BLOCK
  5
DC
330
D9
100
AcDbEntity
  8
0
100
AcDbBlockBegin
  2
CDWK_PTTYP18
 70
     0
 10
0.0
 20
0.0
 30
0.0
  3
CDWK_PTTYP18
  1

  0
CIRCLE
  5
DA
330
D9
100
AcDbEntity
  8
0
 62
     0
370
    -2
100
AcDbCircle
 10
0.0
 20
0.0
 30
0.0
 40
0.5
  0
CIRCLE
  5
DB
330
D9
100
AcDbEntity
  8
0
 62
     0
370
    -2
100
AcDbCircle
 10
0.0
 20
0.0
 30
0.0
 40
0.208
  0
ENDBLK
  5
DD
330
D9
100
AcDbEntity
  8
0
100
AcDbBlockEnd
  0
BLOCK
  5
E2
330
DE
100
AcDbEntity
  8
0
100
AcDbBlockBegin
  2
CDWK_PTTYP19
 70
     0
 10
0.0
 20
0.0
 30
0.0
  3
CDWK_PTTYP19
  1

  0
CIRCLE
  5
DF
330
DE
100
AcDbEntity
  8
0
 62
     0
370
    -2
100
AcDbCircle
 10
0.0
 20
0.0
 30
0.0
 40
0.25
  0
CIRCLE
  5
E0
330
DE
100
AcDbEntity
  8
0
 62
     0
370
    -2
100
AcDbCircle
 10
0.0
 20
0.0
 30
0.0
 40
0.35
  0
LINE
  5
E1
330
DE
100
AcDbEntity
  8
0
 62
     0
370
    -2
100
AcDbLine
 10
-0.25
 20
0.0
 30
0.0
 11
0.25
 21
0.0
 31
0.0
  0
ENDBLK
  5
E3
330
DE
100
AcDbEntity
  8
0
100
AcDbBlockEnd
  0
BLOCK
  5
E7
330
E4
100
AcDbEntity
  8
0
100
AcDbBlockBegin
  2
CDWK_PTTYP20
 70
     0
 10
0.0
 20
0.0
 30
0.0
  3
CDWK_PTTYP20
  1

  0
CIRCLE
  5
E5
330
E4
100
AcDbEntity
  8
0
 62
     0
370
    -2
100
AcDbCircle
 10
0.0
 20
0.0
 30
0.0
 40
0.3333333333333333
  0
CIRCLE
  5
E6
330
E4
100
AcDbEntity
  8
0
 62
     0
370
    -2
100
AcDbCircle
 10
0.0
 20
0.0
 30
0.0
 40
0.5
  0
ENDBLK
  5
E8
330
E4
100
AcDbEntity
  8
0
100
AcDbBlockEnd
  0
BLOCK
  5
EC
330
E9
100
AcDbEntity
  8
0
100
AcDbBlockBegin
  2
CDWK_PTTYP21
 70
     0
 10
0.0
 20
0.0
 30
0.0
  3
CDWK_PTTYP21
  1

  0
CIRCLE
  5
EA
330
E9
100
AcDbEntity
  8
0
 62
     0
370
    -2
100
AcDbCircle
 10
0.0
 20
0.0
 30
0.0
 40
0.5
  0
LINE
  5
EB
330
E9
100
AcDbEntity
  8
0
 62
     0
370
    -2
100
AcDbLine
 10
-0.5
 20
0.0
 30
0.0
 11
0.5
 21
0.0
 31
0.0
  0
ENDBLK
  5
ED
330
E9
100
AcDbEntity
  8
0
100
AcDbBlockEnd
  0
BLOCK
  5
F3
330
EE
100
AcDbEntity
  8
0
100
AcDbBlockBegin
  2
CDWK_PTTYP25
 70
     0
 10
0.0
 20
0.0
 30
0.0
  3
CDWK_PTTYP25
  1

  0
LINE
  5
EF
330
EE
100
AcDbEntity
  8
0
 62
     0
370
    -2
100
AcDbLine
 10
0.0
 20
0.5
 30
0.0
 11
-0.4330127018922193
 21
-0.25
 31
0.0
  0
LINE
  5
F0
330
EE
100
AcDbEntity
  8
0
 62
     0
370
    -2
100
AcDbLine
 10
-0.4330127018922193
 20
-0.25
 30
0.0
 11
0.4330127018922193
 21
-0.25
 31
0.0
  0
LINE
  5
F1
330
EE
100
AcDbEntity
  8
0
 62
     0
370
    -2
100
AcDbLine
 10
0.4330127018922193
 20
-0.25
 30
0.0
 11
0.0
 21
0.5
 31
0.0
  0
CIRCLE
  5
F2
330
EE
100
AcDbEntity
  8
0
 62
     0
370
    -2
100
AcDbCircle
 10
0.0
 20
0.0
 30
0.0
 40
0.5
  0
ENDBLK
  5
F4
330
EE
100
AcDbEntity
  8
0
100
AcDbBlockEnd
  0
BLOCK
  5
FA
330
F5
100
AcDbEntity
  8
0
100
AcDbBlockBegin
  2
CDWK_PTTYP26
 70
     0
 10
0.0
 20
0.0
 30
0.0
  3
CDWK_PTTYP26
  1

  0
LINE
  5
F6
330
F5
100
AcDbEntity
  8
0
 62
     0
370
    -2
100
AcDbLine
 10
-0.5
 20
-0.289
 30
0.0
 11
0.5
 21
-0.289
 31
0.0
  0
LINE
  5
F7
330
F5
100
AcDbEntity
  8
0
 62
     0
370
    -2
100
AcDbLine
 10
0.5
 20
-0.289
 30
0.0
 11
0.0
 21
0.577
 31
0.0
  0
LINE
  5
F8
330
F5
100
AcDbEntity
  8
0
 62
     0
370
    -2
100
AcDbLine
 10
0.0
 20
0.577
 30
0.0
 11
-0.5
 21
-0.289
 31
0.0
  0
CIRCLE
  5
F9
330
F5
100
AcDbEntity
  8
0
 62
     0
370
    -2
100
AcDbCircle
 10
0.0
 20
0.0
 30
0.0
 40
0.125
  0
ENDBLK
  5
FB
330
F5
100
AcDbEntity
  8
0
100
AcDbBlockEnd
  0
BLOCK
  5
102
330
FC
100
AcDbEntity
  8
0
100
AcDbBlockBegin
  2
CDWK_PTTYP27
 70
     0
 10
0.0
 20
0.0
 30
0.0
  3
CDWK_PTTYP27
  1

  0
LINE
  5
FD
330
FC
100
AcDbEntity
  8
0
 62
     0
370
    -2
100
AcDbLine
 10
0.0
 20
0.5
 30
0.0
 11
-0.4330127018922193
 21
-0.25
 31
0.0
  0
LINE
  5
FE
330
FC
100
AcDbEntity
  8
0
 62
     0
370
    -2
100
AcDbLine
 10
-0.4330127018922193
 20
-0.25
 30
0.0
 11
0.4330127018922193
 21
-0.25
 31
0.0
  0
LINE
  5
FF
330
FC
100
AcDbEntity
  8
0
 62
     0
370
    -2
100
AcDbLine
 10
0.4330127018922193
 20
-0.25
 30
0.0
 11
0.0
 21
0.5
 31
0.0
  0
CIRCLE
  5
100
330
FC
100
AcDbEntity
  8
0
 62
     0
370
    -2
100
AcDbCircle
 10
0.0
 20
0.0
 30
0.0
 40
0.125
  0
CIRCLE
  5
101
330
FC
100
AcDbEntity
  8
0
 62
     0
370
    -2
100
AcDbCircle
 10
0.0
 20
0.0
 30
0.0
 40
0.5
  0
ENDBLK
  5
103
330
FC
100
AcDbEntity
  8
0
100
AcDbBlockEnd
  0
BLOCK
  5
109
330
104
100
AcDbEntity
  8
0
100
AcDbBlockBegin
  2
CDWK_PTTYP28
 70
     0
 10
0.0
 20
0.0
 30
0.0
  3
CDWK_PTTYP28
  1

  0
LINE
  5
105
330
104
100
AcDbEntity
  8
0
 62
     0
370
    -2
100
AcDbLine
 10
-0.5
 20
0.5
 30
0.0
 11
0.5
 21
0.5
 31
0.0
  0
LINE
  5
106
330
104
100
AcDbEntity
  8
0
 62
     0
370
    -2
100
AcDbLine
 10
0.5
 20
0.5
 30
0.0
 11
-0.5
 21
-0.5
 31
0.0
  0
LINE
  5
107
330
104
100
AcDbEntity
  8
0
 62
     0
370
    -2
100
AcDbLine
 10
0.5
 20
-0.5
 30
0.0
 11
-0.5
 21
-0.5
 31
0.0
  0
LINE
  5
108
330
104
100
AcDbEntity
  8
0
 62
     0
370
    -2
100
AcDbLine
 10
-0.5
 20
0.5
 30
0.0
 11
0.5
 21
-0.5
 31
0.0
  0
ENDBLK
  5
10A
330
104
100
AcDbEntity
  8
0
100
AcDbBlockEnd
  0
BLOCK
  5
10F
330
10B
100
AcDbEntity
  8
0
100
AcDbBlockBegin
  2
CDWK_PTTYP29
 70
     0
 10
0.0
 20
0.0
 30
0.0
  3
CDWK_PTTYP29
  1

  0
CIRCLE
  5
10C
330
10B
100
AcDbEntity
  8
0
 62
     0
370
    -2
100
AcDbCircle
 10
0.0
 20
0.0
 30
0.0
 40
0.2
  0
CIRCLE
  5
10D
330
10B
100
AcDbEntity
  8
0
 62
     0
370
    -2
100
AcDbCircle
 10
0.0
 20
0.0
 30
0.0
 40
0.35
  0
CIRCLE
  5
10E
330
10B
100
AcDbEntity
  8
0
 62
     0
370
    -2
100
AcDbCircle
 10
0.0
 20
0.0
 30
0.0
 40
0.5
  0
ENDBLK
  5
110
330
10B
100
AcDbEntity
  8
0
100
AcDbBlockEnd
  0
BLOCK
  5
116
330
111
100
AcDbEntity
  8
0
100
AcDbBlockBegin
  2
CDWK_PTTYP30
 70
     0
 10
0.0
 20
0.0
 30
0.0
  3
CDWK_PTTYP30
  1

  0
LINE
  5
112
330
111
100
AcDbEntity
  8
0
 62
     0
370
    -2
100
AcDbLine
 10
-0.5
 20
0.5
 30
0.0
 11
-0.1
 21
0.1
 31
0.0
  0
LINE
  5
113
330
111
100
AcDbEntity
  8
0
 62
     0
370
    -2
100
AcDbLine
 10
0.5
 20
0.5
 30
0.0
 11
0.1
 21
0.1
 31
0.0
  0
LINE
  5
114
330
111
100
AcDbEntity
  8
0
 62
     0
370
    -2
100
AcDbLine
 10
0.5
 20
-0.5
 30
0.0
 11
0.1
 21
-0.1
 31
0.0
  0
LINE
  5
115
330
111
100
AcDbEntity
  8
0
 62
     0
370
    -2
100
AcDbLine
 10
-0.5
 20
-0.5
 30
0.0
 11
-0.1
 21
-0.1
 31
0.0
  0
ENDBLK
  5
117
330
111
100
AcDbEntity
  8
0
100
AcDbBlockEnd
  0
BLOCK
  5
11E
330
118
100
AcDbEntity
  8
0
100
AcDbBlockBegin
  2
CDWK_PTTYP31
 70
     0
 10
0.0
 20
0.0
 30
0.0
  3
CDWK_PTTYP31
  1

  0
LINE
  5
119
330
118
100
AcDbEntity
  8
0
 62
     0
370
    -2
100
AcDbLine
 10
-0.5
 20
0.0
 30
0.0
 11
-0.1
 21
0.0
 31
0.0
  0
LINE
  5
11A
330
118
100
AcDbEntity
  8
0
 62
     0
370
    -2
100
AcDbLine
 10
0.1
 20
0.0
 30
0.0
 11
0.5
 21
0.0
 31
0.0
  0
LINE
  5
11B
330
118
100
AcDbEntity
  8
0
 62
     0
370
    -2
100
AcDbLine
 10
0.0
 20
0.5
 30
0.0
 11
0.0
 21
0.1
 31
0.0
  0
LINE
  5
11C
330
118
100
AcDbEntity
  8
0
 62
     0
370
    -2
100
AcDbLine
 10
0.0
 20
-0.1
 30
0.0
 11
0.0
 21
-0.5
 31
0.0
  0
CIRCLE
  5
11D
330
118
100
AcDbEntity
  8
0
 62
     0
370
    -2
100
AcDbCircle
 10
0.0
 20
0.0
 30
0.0
 40
0.1
  0
ENDBLK
  5
11F
330
118
100
AcDbEntity
  8
0
100
AcDbBlockEnd
  0
BLOCK
  5
127
330
120
100
AcDbEntity
  8
0
100
AcDbBlockBegin
  2
CDWK_PTTYP32
 70
     0
 10
0.0
 20
0.0
 30
0.0
  3
CDWK_PTTYP32
  1

  0
CIRCLE
  5
121
330
120
100
AcDbEntity
  8
0
 62
     0
370
    -2
100
AcDbCircle
 10
0.0
 20
0.0
 30
0.0
 40
0.2
  0
CIRCLE
  5
122
330
120
100
AcDbEntity
  8
0
 62
     0
370
    -2
100
AcDbCircle
 10
0.0
 20
0.0
 30
0.0
 40
0.5
  0
LINE
  5
123
330
120
100
AcDbEntity
  8
0
 62
     0
370
    -2
100
AcDbLine
 10
0.1414213562373095
 20
0.1414213562373095
 30
0.0
 11
0.3535533905932738
 21
0.3535533905932738
 31
0.0
  0
LINE
  5
124
330
120
100
AcDbEntity
  8
0
 62
     0
370
    -2
100
AcDbLine
 10
-0.1414213562373095
 20
0.1414213562373095
 30
0.0
 11
-0.3535533905932738
 21
0.3535533905932738
 31
0.0
  0
LINE
  5
125
330
120
100
AcDbEntity
  8
0
 62
     0
370
    -2
100
AcDbLine
 10
0.1414213562373095
 20
-0.1414213562373095
 30
0.0
 11
0.3535533905932738
 21
-0.3535533905932738
 31
0.0
  0
LINE
  5
126
330
120
100
AcDbEntity
  8
0
 62
     0
370
    -2
100
AcDbLine
 10
-0.1414213562373095
 20
-0.1414213562373095
 30
0.0
 11
-0.3535533905932738
 21
-0.3535533905932738
 31
0.0
  0
ENDBLK
  5
128
330
120
100
AcDbEntity
  8
0
100
AcDbBlockEnd
  0
BLOCK
  5
12D
330
129
100
AcDbEntity
  8
0
100
AcDbBlockBegin
  2
CDWK_PTTYP33
 70
     0
 10
0.0
 20
0.0
 30
0.0
  3
CDWK_PTTYP33
  1

  0
LINE
  5
12A
330
129
100
AcDbEntity
  8
0
 62
     0
370
    -2
100
AcDbLine
 10
0.0
 20
-0.5
 30
0.0
 11
0.0
 21
0.5
 31
0.0
  0
LINE
  5
12B
330
129
100
AcDbEntity
  8
0
 62
     0
370
    -2
100
AcDbLine
 10
0.5
 20
0.0
 30
0.0
 11
-0.5
 21
0.0
 31
0.0
  0
CIRCLE
  5
12C
330
129
100
AcDbEntity
  8
0
 62
     0
370
    -2
100
AcDbCircle
 10
0.0
 20
0.0
 30
0.0
 40
0.5
  0
ENDBLK
  5
12E
330
129
100
AcDbEntity
  8
0
100
AcDbBlockEnd
  0
BLOCK
  5
133
330
12F
100
AcDbEntity
  8
0
100
AcDbBlockBegin
  2
CDWK_PTTYP34
 70
     0
 10
0.0
 20
0.0
 30
0.0
  3
CDWK_PTTYP34
  1

  0
CIRCLE
  5
130
330
12F
100
AcDbEntity
  8
0
 62
     0
370
    -2
100
AcDbCircle
 10
0.0
 20
0.0
 30
0.0
 40
0.5
  0
LINE
  5
131
330
12F
100
AcDbEntity
  8
0
 62
     0
370
    -2
100
AcDbLine
 10
-0.4
 20
-0.3
 30
0.0
 11
0.3
 21
0.4
 31
0.0
  0
LINE
  5
132
330
12F
100
AcDbEntity
  8
0
 62
     0
370
    -2
100
AcDbLine
 10
-0.3
 20
-0.4
 30
0.0
 11
0.4
 21
0.3
 31
0.0
  0
ENDBLK
  5
134
330
12F
100
AcDbEntity
  8
0
100
AcDbBlockEnd
  0
BLOCK
  5
139
330
135
100
AcDbEntity
  8
0
100
AcDbBlockBegin
  2
CDWK_PTTYP35
 70
     0
 10
0.0
 20
0.0
 30
0.0
  3
CDWK_PTTYP35
  1

  0
LINE
  5
136
330
135
100
AcDbEntity
  8
0
 62
     0
370
    -2
100
AcDbLine
 10
0.0
 20
0.2
 30
0.0
 11
0.0
 21
0.5
 31
0.0
  0
LINE
  5
137
330
135
100
AcDbEntity
  8
0
 62
     0
370
    -2
100
AcDbLine
 10
0.0
 20
-0.2
 30
0.0
 11
0.0
 21
-0.5
 31
0.0
  0
CIRCLE
  5
138
330
135
100
AcDbEntity
  8
0
 62
     0
370
    -2
100
AcDbCircle
 10
0.0
 20
0.0
 30
0.0
 40
0.2
  0
ENDBLK
  5
13A
330
135
100
AcDbEntity
  8
0
100
AcDbBlockEnd
  0
BLOCK
  5
141
330
13B
100
AcDbEntity
  8
0
100
AcDbBlockBegin
  2
CDWK_PTTYP36
 70
     0
 10
0.0
 20
0.0
 30
0.0
  3
CDWK_PTTYP36
  1

  0
LINE
  5
13C
330
13B
100
AcDbEntity
  8
0
 62
     0
370
    -2
100
AcDbLine
 10
-0.5
 20
0.2
 30
0.0
 11
0.5
 21
0.2
 31
0.0
  0
LINE
  5
13D
330
13B
100
AcDbEntity
  8
0
 62
     0
370
    -2
100
AcDbLine
 10
0.5
 20
0.2
 30
0.0
 11
0.5
 21
-0.2
 31
0.0
  0
LINE
  5
13E
330
13B
100
AcDbEntity
  8
0
 62
     0
370
    -2
100
AcDbLine
 10
0.5
 20
-0.2
 30
0.0
 11
-0.5
 21
-0.2
 31
0.0
  0
LINE
  5
13F
330
13B
100
AcDbEntity
  8
0
 62
     0
370
    -2
100
AcDbLine
 10
-0.5
 20
-0.2
 30
0.0
 11
-0.5
 21
0.2
 31
0.0
  0
HATCH
  5
140
330
13B
100
AcDbEntity
  8
0
 62
     0
370
    -2
100
AcDbHatch
 10
0.0
 20
0.0
 30
0.0
210
0.0
220
0.0
230
1.0
  2
SOLID
 70
     1
 71
     1
 91
        1
 92
        3
 72
     0
 73
     1
 93
        3
 10
-0.5
 20
-0.2
 10
0.5
 20
-0.2
 10
0.5
 20
0.2
 97
        0
 75
     0
 76
     1
 98
        0
  0
ENDBLK
  5
142
330
13B
100
AcDbEntity
  8
0
100
AcDbBlockEnd
  0
BLOCK
  5
146
330
143
100
AcDbEntity
  8
0
100
AcDbBlockBegin
  2
CDWK_PTTYP37
 70
     0
 10
0.0
 20
0.0
 30
0.0
  3
CDWK_PTTYP37
  1

  0
HATCH
  5
144
330
143
100
AcDbEntity
  8
0
 62
     0
370
    -2
100
AcDbHatch
 10
0.0
 20
0.0
 30
0.0
210
0.0
220
0.0
230
1.0
  2
SOLID
 70
     1
 71
     1
 91
        1
 92
        3
 72
     0
 73
     1
 93
      202
 10
-0.3535533905932738
 20
-0.3535533905932738
 10
-0.3485533905932738
 20
-0.3535533905932737
 10
-0.3435533905932738
 20
-0.3584836591895546
 10
-0.3385533905932738
 20
-0.3632782236961988
 10
-0.3335533905932738
 20
-0.367942389128785
 10
-0.3285533905932738
 20
-0.372481054046687
 10
-0.3235533905932738
 20
-0.3768987523588579
 10
-0.3185533905932738
 20
-0.3811996897107819
 10
-0.3135533905932738
 20
-0.3853877752881235
 10
-0.3085533905932737
 20
-0.3894666497242888
 10
-0.3035533905932737
 20
-0.3934397096803965
 10
-0.2985533905932737
 20
-0.3973101295704999
 10
-0.2935533905932737
 20
-0.4010808808273714
 10
-0.2885533905932737
 20
-0.4047547490409382
 10
-0.2835533905932737
 20
-0.4083343492496384
 10
-0.2785533905932737
 20
-0.4118221396222626
 10
-0.2735533905932737
 20
-0.4152204337324827
 10
-0.2685533905932737
 20
-0.4185314115988474
 10
-0.2635533905932737
 20
-0.4217571296384408
 10
-0.2585533905932737
 20
-0.4248995296617653
 10
-0.2535533905932737
 20
-0.4279604470190231
 10
-0.2485533905932737
 20
-0.4309416179932669
 10
-0.2435533905932737
 20
-0.4338446865234004
 10
-0.2385533905932737
 20
-0.4366712103293738
 10
-0.2335533905932737
 20
-0.439422666502825
 10
-0.2285533905932737
 20
-0.4421004566186126
 10
-0.2235533905932737
 20
-0.4447059114159811
 10
-0.2185533905932737
 20
-0.4472402950923041
 10
-0.2135533905932737
 20
-0.4497048092473372
 10
-0.2085533905932737
 20
-0.4521005965115692
 10
-0.2035533905932737
 20
-0.4544287438884664
 10
-0.1985533905932736
 20
-0.456690285837111
 10
-0.1935533905932736
 20
-0.45888620711884
 10
-0.1885533905932736
 20
-0.4610174454289638
 10
-0.1835533905932736
 20
-0.4630848938324164
 10
-0.1785533905932736
 20
-0.4650894030202291
 10
-0.1735533905932736
 20
-0.4670317834019928
 10
-0.1685533905932736
 20
-0.46891280704794
 10
-0.1635533905932736
 20
-0.4707332094929264
 10
-0.1585533905932736
 20
-0.4724936914133818
 10
-0.1535533905932736
 20
-0.4741949201872336
 10
-0.1485533905932736
 20
-0.4758375313458466
 10
-0.1435533905932736
 20
-0.4774221299261716
 10
-0.1385533905932736
 20
-0.4789492917305286
 10
-0.1335533905932736
 20
-0.4804195645007682
 10
-0.1285533905932736
 20
-0.4818334690129366
 10
-0.1235533905932736
 20
-0.4831915000980183
 10
-0.1185533905932736
 20
-0.4844941275938295
 10
-0.1135533905932736
 20
-0.4857417972326848
 10
-0.1085533905932736
 20
-0.4869349314690531
 10
-0.1035533905932736
 20
-0.4880739302510473
 10
-0.0985533905932736
 20
-0.489159171739258
 10
-0.0935533905932736
 20
-0.4901910129761353
 10
-0.0885533905932736
 20
-0.4911697905088447
 10
-0.0835533905932735
 20
-0.4920958209682695
 10
-0.0785533905932735
 20
-0.4929694016065986
 10
-0.0735533905932735
 20
-0.4937908107957261
 10
-0.0685533905932735
 20
-0.494560308488493
 10
-0.0635533905932735
 20
-0.4952781366446192
 10
-0.0585533905932735
 20
-0.4959445196230107
 10
-0.0535533905932735
 20
-0.4965596645419678
 10
-0.0485533905932735
 20
-0.4971237616086806
 10
-0.0435533905932735
 20
-0.4976369844192622
 10
-0.0385533905932735
 20
-0.4980994902304456
 10
-0.0335533905932735
 20
-0.4985114202039533
 10
-0.0285533905932735
 20
-0.4988728996244386
 10
-0.0235533905932735
 20
-0.4991840380917923
 10
-0.0185533905932735
 20
-0.49944492968851
 10
-0.0135533905932735
 20
-0.4996556531227215
 10
-0.0085533905932735
 20
-0.4998162718473921
 10
-0.0035533905932735
 20
-0.4999268341561182
 10
0.0014466094067265
 20
-0.499987373255857
 10
0.0064466094067265
 20
-0.4999979073168451
 10
0.0114466094067265
 20
-0.4999584394998819
 10
0.0164466094067265
 20
-0.4998689579610739
 10
0.0214466094067265
 20
-0.4997294358340547
 10
0.0264466094067265
 20
-0.4995398311896213
 10
0.0314466094067265
 20
-0.4993000869726422
 10
0.0364466094067265
 20
-0.4990101309160174
 10
0.0414466094067265
 20
-0.4986698754313855
 10
0.0464466094067265
 20
-0.498279217476192
 10
0.0514466094067265
 20
-0.4978380383966446
 10
0.0564466094067265
 20
-0.497346203745994
 10
0.0614466094067265
 20
-0.4968035630774849
 10
0.0664466094067264
 20
-0.4962099497112257
 10
0.0714466094067265
 20
-0.4955651804741228
 10
0.0764466094067265
 20
-0.4948690554119167
 10
0.0814466094067265
 20
-0.4941213574722463
 10
0.0864466094067265
 20
-0.4933218521575424
 10
0.0914466094067265
 20
-0.4924702871464235
 10
0.0964466094067265
 20
-0.4915663918821278
 10
0.1014466094067265
 20
-0.4906098771263643
 10
0.1064466094067265
 20
-0.4896004344768079
 10
0.1114466094067265
 20
-0.4885377358462822
 10
0.1164466094067265
 20
-0.4874214329014929
 10
0.1214466094067265
 20
-0.4862511564589613
 10
0.1264466094067265
 20
-0.4850265158355881
 10
0.1314466094067265
 20
-0.4837470981510305
 10
0.1364466094067265
 20
-0.482412467578809
 10
0.1414466094067265
 20
-0.4810221645427664
 10
0.1464466094067265
 20
-0.4795757048551781
 10
0.1514466094067265
 20
-0.4780725787924608
 10
0.1564466094067265
 20
-0.4765122501040308
 10
0.1614466094067265
 20
-0.4748941549494363
 10
0.1664466094067265
 20
-0.4732177007584056
 10
0.1714466094067265
 20
-0.4714822650079264
 10
0.1764466094067265
 20
-0.4696871939098801
 10
0.1814466094067266
 20
-0.4678318010021017
 10
0.1864466094067266
 20
-0.4659153656350076
 10
0.1914466094067266
 20
-0.4639371313451162
 10
0.1964466094067266
 20
-0.4618963041058764
 10
0.2014466094067266
 20
-0.4597920504451997
 10
0.2064466094067266
 20
-0.4576234954179405
 10
0.2114466094067266
 20
-0.4553897204202862
 10
0.2164466094067266
 20
-0.4530897608315588
 10
0.2214466094067266
 20
-0.45072260346729
 10
0.2264466094067266
 20
-0.4482871838255748
 10
0.2314466094067266
 20
-0.4457823831065977
 10
0.2364466094067266
 20
-0.4432070249828292
 10
0.2414466094067266
 20
-0.4405598720946596
 10
0.2464466094067266
 20
-0.4378396222431172
 10
0.2514466094067266
 20
-0.4350449042477435
 10
0.2564466094067266
 20
-0.4321742734336012
 10
0.2614466094067266
 20
-0.4292262067066663
 10
0.2664466094067266
 20
-0.4261990971714118
 10
0.2714466094067266
 20
-0.4230912482380831
 10
0.2764466094067266
 20
-0.4199008671598476
 10
0.2814466094067266
 20
-0.4166260579314797
 10
0.2864466094067266
 20
-0.4132648134712868
 10
0.2914466094067266
 20
-0.4098150069963156
 10
0.2964466094067266
 20
-0.4062743824871597
 10
0.3014466094067266
 20
-0.4026405441224911
 10
0.3064466094067266
 20
-0.3989109445442534
 10
0.3114466094067266
 20
-0.3950828717916294
 10
0.3164466094067266
 20
-0.391153434714632
 10
0.3214466094067266
 20
-0.3871195466454601
 10
0.3264466094067267
 20
-0.3829779070663467
 10
0.3314466094067267
 20
-0.3787249809648844
 10
0.3364466094067267
 20
-0.3743569755097196
 10
0.3414466094067267
 20
-0.3698698136084067
 10
0.3464466094067267
 20
-0.3652591038217257
 10
0.3514466094067267
 20
-0.3605201060004601
 10
0.3564466094067267
 20
-0.3556476918757041
 10
0.3614466094067267
 20
-0.3506362996645505
 10
0.3664466094067267
 20
-0.34547988153926
 10
0.3714466094067267
 20
-0.3401718425359658
 10
0.3764466094067267
 20
-0.334704969129899
 10
0.3814466094067267
 20
-0.3290713452523318
 10
0.3864466094067267
 20
-0.3232622529342269
 10
0.3914466094067267
 20
-0.3172680539828188
 10
0.3964466094067267
 20
-0.3110780480586465
 10
0.4014466094067267
 20
-0.304680301118911
 10
0.4064466094067267
 20
-0.2980614362775617
 10
0.4114466094067267
 20
-0.291206376478565
 10
0.4164466094067267
 20
-0.2840980246459106
 10
0.4214466094067267
 20
-0.276716861635935
 10
0.4264466094067267
 20
-0.2690404345439063
 10
0.4314466094067267
 20
-0.2610426963649944
 10
0.4364466094067267
 20
-0.2526931404518915
 10
0.4414466094067268
 20
-0.2439556458403291
 10
0.4464466094067268
 20
-0.2347869056044327
 10
0.4514466094067268
 20
-0.2251342376211081
 10
0.4564466094067268
 20
-0.2149324518428296
 10
0.4614466094067268
 20
-0.2040992228331676
 10
0.4664466094067268
 20
-0.1925279893081412
 10
0.4714466094067268
 20
-0.1800765408735088
 10
0.4764466094067268
 20
-0.1665475742210051
 10
0.4814466094067268
 20
-0.1516529867323223
 10
0.4864466094067268
 20
-0.1349413290684758
 10
0.4914466094067268
 20
-0.1156274024472547
 10
0.4964466094067268
 20
-0.0920881648347501
 10
0.5
 20
0.0
 10
0.495
 20
0.0
 10
0.49
 20
0.0705336798983295
 10
0.485
 20
0.0994987437106621
 10
0.48
 20
0.1215524578114322
 10
0.475
 20
0.14
 10
0.47
 20
0.15612494995996
 10
0.465
 20
0.1705872210923199
 10
0.46
 20
0.1837797594948911
 10
0.455
 20
0.1959591794226544
 10
0.45
 20
0.2073041244162789
 10
0.445
 20
0.2179449471770338
 10
0.4399999999999999
 20
0.2279802623035601
 10
0.4349999999999999
 20
0.2374868417407584
 10
0.4299999999999999
 20
0.2465258607124211
 10
0.4249999999999999
 20
0.2551470164434615
 10
0.4199999999999999
 20
0.2633913438213186
 10
0.4149999999999999
 20
0.2712931993250108
 10
0.4099999999999999
 20
0.2788816953476869
 10
0.4049999999999999
 20
0.2861817604250838
 10
0.3999999999999999
 20
0.2932149382279151
 10
0.3949999999999999
 20
0.3000000000000002
 10
0.3899999999999999
 20
0.3065534211193868
 10
0.3849999999999999
 20
0.3128897569432404
 10
0.3799999999999999
 20
0.3190219428189855
 10
0.3749999999999999
 20
0.3249615361854385
 10
0.3699999999999999
 20
0.330718913883074
 10
0.3649999999999999
 20
0.3363034344160049
 10
0.3599999999999999
 20
0.3417235724968357
 10
0.3549999999999999
 20
0.3469870314579496
 10
0.3535533905932738
 20
0.3535533905932738
 97
        0
 75
     0
 76
     1
 98
        0
  0
CIRCLE
  5
145
330
143
100
AcDbEntity
  8
0
 62
     0
370
    -2
100
AcDbCircle
 10
0.0
 20
0.0
 30
0.0
 40
0.5
  0
ENDBLK
  5
147
330
143
100
AcDbEntity
  8
0
100
AcDbBlockEnd
  0
BLOCK
  5
14C
330
148
100
AcDbEntity
  8
0
100
AcDbBlockBegin
  2
CDWK_PTTYP38
 70
     0
 10
0.0
 20
0.0
 30
0.0
  3
CDWK_PTTYP38
  1

  0
HATCH
  5
149
330
148
100
AcDbEntity
  8
0
 62
     0
370
    -2
100
AcDbHatch
 10
0.0
 20
0.0
 30
0.0
210
0.0
220
0.0
230
1.0
  2
SOLID
 70
     1
 71
     1
 91
        1
 92
        3
 72
     0
 73
     1
 93
      102
 10
0.0
 20
0.0
 10
0.0
 20
0.5
 10
0.005
 20
0.5
 10
0.01
 20
0.4999749993749688
 10
0.015
 20
0.4998999899979995
 10
0.02
 20
0.4997749493522059
 10
0.025
 20
0.4995998398718718
 10
0.03
 20
0.4993746088859545
 10
0.035
 20
0.4990991885387112
 10
0.04
 20
0.4987734956871706
 10
0.045
 20
0.4983974317750845
 10
0.05
 20
0.4979708826829135
 10
0.055
 20
0.49749371855331
 10
0.06
 20
0.4969657935914704
 10
0.065
 20
0.4963869458396343
 10
0.07
 20
0.4957569969249047
 10
0.075
 20
0.4950757517794626
 10
0.08
 20
0.4943429983321297
 10
0.085
 20
0.4935585071701227
 10
0.09
 20
0.4927220311697053
 10
0.095
 20
0.4918333050943175
 10
0.1
 20
0.4908920451586071
 10
0.105
 20
0.4898979485566356
 10
0.11
 20
0.4888506929523574
 10
0.115
 20
0.4877499359302879
 10
0.12
 20
0.4865953144040744
 10
0.125
 20
0.4853864439804639
 10
0.13
 20
0.4841229182759271
 10
0.135
 20
0.4828043081829325
 10
0.14
 20
0.4814301610825811
 10
0.145
 20
0.48
 10
0.15
 20
0.478513322698543
 10
0.1550000000000001
 20
0.4769696007084728
 10
0.1600000000000001
 20
0.4753682782853731
 10
0.1650000000000001
 20
0.4737087712930804
 10
0.1700000000000001
 20
0.4719904660054056
 10
0.1750000000000001
 20
0.4702127178203498
 10
0.1800000000000001
 20
0.4683748498798799
 10
0.1850000000000001
 20
0.466476151587624
 10
0.1900000000000001
 20
0.4645158770160606
 10
0.1950000000000001
 20
0.4624932431938871
 10
0.2000000000000001
 20
0.460407428263272
 10
0.2050000000000001
 20
0.4582575694955839
 10
0.2100000000000001
 20
0.4560427611529427
 10
0.2150000000000001
 20
0.4537620521815371
 10
0.2200000000000001
 20
0.4514144437210665
 10
0.2250000000000001
 20
0.4489988864128729
 10
0.2300000000000001
 20
0.4465142774872937
 10
0.2350000000000001
 20
0.4439594576084622
 10
0.2400000000000001
 20
0.4413332074521472
 10
0.2450000000000001
 20
0.4386342439892261
 10
0.2500000000000001
 20
0.4358612164439502
 10
0.2550000000000001
 20
0.4330127018922192
 10
0.2600000000000001
 20
0.4300872004605577
 10
0.2650000000000001
 20
0.4270831300812524
 10
0.2700000000000001
 20
0.423998820753077
 10
0.2750000000000001
 20
0.4208325082500162
 10
0.2800000000000001
 20
0.4175823272122516
 10
0.2850000000000001
 20
0.4142463035441595
 10
0.2900000000000001
 20
0.4108223460329293
 10
0.2950000000000002
 20
0.4073082370883259
 10
0.3000000000000002
 20
0.403701622488689
 10
0.3050000000000002
 20
0.3999999999999999
 10
0.3100000000000002
 20
0.3962007067131506
 10
0.3150000000000002
 20
0.3923009049186605
 10
0.3200000000000002
 20
0.3882975663070783
 10
0.3250000000000002
 20
0.3841874542459708
 10
0.3300000000000002
 20
0.3799671038392664
 10
0.3350000000000002
 20
0.3756327994198588
 10
0.3400000000000002
 20
0.3711805490593491
 10
0.3450000000000002
 20
0.366606055596467
 10
0.3500000000000002
 20
0.3619046835839512
 10
0.3550000000000002
 20
0.3570714214271423
 10
0.3600000000000002
 20
0.3521008378291649
 10
0.3650000000000002
 20
0.3469870314579492
 10
0.3700000000000002
 20
0.3417235724968353
 10
0.3750000000000002
 20
0.3363034344160045
 10
0.3800000000000002
 20
0.3307189138830736
 10
0.3850000000000002
 20
0.3249615361854382
 10
0.3900000000000002
 20
0.3190219428189851
 10
0.3950000000000002
 20
0.31288975694324
 10
0.4000000000000002
 20
0.3065534211193863
 10
0.4050000000000002
 20
0.2999999999999997
 10
0.4100000000000003
 20
0.2932149382279147
 10
0.4150000000000003
 20
0.2861817604250834
 10
0.4200000000000003
 20
0.2788816953476864
 10
0.4250000000000003
 20
0.2712931993250103
 10
0.4300000000000003
 20
0.263391343821318
 10
0.4350000000000003
 20
0.255147016443461
 10
0.4400000000000003
 20
0.2465258607124206
 10
0.4450000000000003
 20
0.2374868417407578
 10
0.4500000000000003
 20
0.2279802623035594
 10
0.4550000000000003
 20
0.2179449471770331
 10
0.4600000000000003
 20
0.2073041244162782
 10
0.4650000000000003
 20
0.1959591794226536
 10
0.4700000000000003
 20
0.1837797594948903
 10
0.4750000000000003
 20
0.170587221092319
 10
0.4800000000000003
 20
0.156124949959959
 10
0.4850000000000003
 20
0.1399999999999989
 10
0.4900000000000003
 20
0.1215524578114309
 10
0.4950000000000003
 20
0.0994987437106604
 10
0.5
 20
0.0
 97
        0
 75
     0
 76
     1
 98
        0
  0
HATCH
  5
14A
330
148
100
AcDbEntity
  8
0
 62
     0
370
    -2
100
AcDbHatch
 10
0.0
 20
0.0
 30
0.0
210
0.0
220
0.0
230
1.0
  2
SOLID
 70
     1
 71
     1
 91
        1
 92
        3
 72
     0
 73
     1
 93
      102
 10
0.0
 20
0.0
 10
-0.5
 20
0.0
 10
-0.495
 20
0.0
 10
-0.49
 20
-0.0705336798983295
 10
-0.485
 20
-0.0994987437106621
 10
-0.48
 20
-0.1215524578114322
 10
-0.475
 20
-0.14
 10
-0.47
 20
-0.15612494995996
 10
-0.465
 20
-0.1705872210923199
 10
-0.46
 20
-0.1837797594948911
 10
-0.455
 20
-0.1959591794226544
 10
-0.45
 20
-0.2073041244162789
 10
-0.445
 20
-0.2179449471770338
 10
-0.4399999999999999
 20
-0.2279802623035601
 10
-0.4349999999999999
 20
-0.2374868417407584
 10
-0.4299999999999999
 20
-0.2465258607124211
 10
-0.4249999999999999
 20
-0.2551470164434615
 10
-0.4199999999999999
 20
-0.2633913438213186
 10
-0.4149999999999999
 20
-0.2712931993250108
 10
-0.4099999999999999
 20
-0.2788816953476869
 10
-0.4049999999999999
 20
-0.2861817604250838
 10
-0.3999999999999999
 20
-0.2932149382279151
 10
-0.3949999999999999
 20
-0.3000000000000002
 10
-0.3899999999999999
 20
-0.3065534211193868
 10
-0.3849999999999999
 20
-0.3128897569432404
 10
-0.3799999999999999
 20
-0.3190219428189855
 10
-0.3749999999999999
 20
-0.3249615361854385
 10
-0.3699999999999999
 20
-0.330718913883074
 10
-0.3649999999999999
 20
-0.3363034344160049
 10
-0.3599999999999999
 20
-0.3417235724968357
 10
-0.3549999999999999
 20
-0.3469870314579496
 10
-0.3499999999999999
 20
-0.3521008378291652
 10
-0.3449999999999999
 20
-0.3570714214271427
 10
-0.3399999999999999
 20
-0.3619046835839516
 10
-0.3349999999999999
 20
-0.3666060555964674
 10
-0.3299999999999998
 20
-0.3711805490593494
 10
-0.3249999999999998
 20
-0.3756327994198591
 10
-0.3199999999999998
 20
-0.3799671038392667
 10
-0.3149999999999998
 20
-0.3841874542459711
 10
-0.3099999999999998
 20
-0.3882975663070786
 10
-0.3049999999999998
 20
-0.3923009049186608
 10
-0.2999999999999998
 20
-0.3962007067131507
 10
-0.2949999999999998
 20
-0.4000000000000001
 10
-0.2899999999999998
 20
-0.4037016224886891
 10
-0.2849999999999998
 20
-0.4073082370883261
 10
-0.2799999999999998
 20
-0.4108223460329296
 10
-0.2749999999999998
 20
-0.4142463035441597
 10
-0.2699999999999998
 20
-0.4175823272122518
 10
-0.2649999999999998
 20
-0.4208325082500164
 10
-0.2599999999999998
 20
-0.4239988207530773
 10
-0.2549999999999998
 20
-0.4270831300812526
 10
-0.2499999999999998
 20
-0.4300872004605579
 10
-0.2449999999999998
 20
-0.4330127018922195
 10
-0.2399999999999998
 20
-0.4358612164439503
 10
-0.2349999999999998
 20
-0.4386342439892263
 10
-0.2299999999999998
 20
-0.4413332074521473
 10
-0.2249999999999998
 20
-0.4439594576084624
 10
-0.2199999999999998
 20
-0.4465142774872939
 10
-0.2149999999999997
 20
-0.4489988864128731
 10
-0.2099999999999997
 20
-0.4514144437210667
 10
-0.2049999999999997
 20
-0.4537620521815372
 10
-0.1999999999999997
 20
-0.4560427611529429
 10
-0.1949999999999997
 20
-0.4582575694955841
 10
-0.1899999999999997
 20
-0.4604074282632722
 10
-0.1849999999999997
 20
-0.4624932431938872
 10
-0.1799999999999997
 20
-0.4645158770160608
 10
-0.1749999999999997
 20
-0.4664761515876241
 10
-0.1699999999999997
 20
-0.46837484987988
 10
-0.1649999999999997
 20
-0.47021271782035
 10
-0.1599999999999997
 20
-0.4719904660054058
 10
-0.1549999999999997
 20
-0.4737087712930805
 10
-0.1499999999999997
 20
-0.4753682782853733
 10
-0.1449999999999997
 20
-0.4769696007084729
 10
-0.1399999999999997
 20
-0.4785133226985431
 10
-0.1349999999999997
 20
-0.4800000000000001
 10
-0.1299999999999997
 20
-0.4814301610825812
 10
-0.1249999999999997
 20
-0.4828043081829325
 10
-0.1199999999999997
 20
-0.4841229182759272
 10
-0.1149999999999997
 20
-0.485386443980464
 10
-0.1099999999999997
 20
-0.4865953144040744
 10
-0.1049999999999996
 20
-0.487749935930288
 10
-0.0999999999999996
 20
-0.4888506929523574
 10
-0.0949999999999996
 20
-0.4898979485566357
 10
-0.0899999999999996
 20
-0.4908920451586072
 10
-0.0849999999999996
 20
-0.4918333050943176
 10
-0.0799999999999996
 20
-0.4927220311697053
 10
-0.0749999999999996
 20
-0.4935585071701227
 10
-0.0699999999999996
 20
-0.4943429983321298
 10
-0.0649999999999996
 20
-0.4950757517794626
 10
-0.0599999999999996
 20
-0.4957569969249048
 10
-0.0549999999999996
 20
-0.4963869458396343
 10
-0.0499999999999996
 20
-0.4969657935914705
 10
-0.0449999999999996
 20
-0.49749371855331
 10
-0.0399999999999996
 20
-0.4979708826829135
 10
-0.0349999999999996
 20
-0.4983974317750846
 10
-0.0299999999999996
 20
-0.4987734956871706
 10
-0.0249999999999996
 20
-0.4990991885387112
 10
-0.0199999999999996
 20
-0.4993746088859545
 10
-0.0149999999999996
 20
-0.4995998398718719
 10
-0.0099999999999996
 20
-0.499774949352206
 10
-0.0049999999999996
 20
-0.4998999899979995
 10
0.0
 20
-0.5
 97
        0
 75
     0
 76
     1
 98
        0
  0
CIRCLE
  5
14B
330
148
100
AcDbEntity
  8
0
 62
     0
370
    -2
100
AcDbCircle
 10
0.0
 20
0.0
 30
0.0
 40
0.5
  0
ENDBLK
  5
14D
330
148
100
AcDbEntity
  8
0
100
AcDbBlockEnd
  0
BLOCK
  5
156
330
14E
100
AcDbEntity
  8
0
100
AcDbBlockBegin
  2
CDWK_PTTYP41
 70
     0
 10
0.0
 20
0.0
 30
0.0
  3
CDWK_PTTYP41
  1

  0
LINE
  5
14F
330
14E
100
AcDbEntity
  8
0
 62
     0
370
    -2
100
AcDbLine
 10
-0.5
 20
0.5
 30
0.0
 11
0.5
 21
0.5
 31
0.0
  0
LINE
  5
150
330
14E
100
AcDbEntity
  8
0
 62
     0
370
    -2
100
AcDbLine
 10
0.5
 20
0.5
 30
0.0
 11
0.5
 21
-0.5
 31
0.0
  0
LINE
  5
151
330
14E
100
AcDbEntity
  8
0
 62
     0
370
    -2
100
AcDbLine
 10
0.5
 20
-0.5
 30
0.0
 11
-0.5
 21
-0.5
 31
0.0
  0
LINE
  5
152
330
14E
100
AcDbEntity
  8
0
 62
     0
370
    -2
100
AcDbLine
 10
-0.5
 20
-0.5
 30
0.0
 11
-0.5
 21
0.5
 31
0.0
  0
LINE
  5
153
330
14E
100
AcDbEntity
  8
0
 62
     0
370
    -2
100
AcDbLine
 10
-0.375
 20
0.25
 30
0.0
 11
0.375
 21
0.25
 31
0.0
  0
LINE
  5
154
330
14E
100
AcDbEntity
  8
0
 62
     0
370
    -2
100
AcDbLine
 10
-0.375
 20
0.0
 30
0.0
 11
0.375
 21
0.0
 31
0.0
  0
LINE
  5
155
330
14E
100
AcDbEntity
  8
0
 62
     0
370
    -2
100
AcDbLine
 10
-0.375
 20
-0.25
 30
0.0
 11
0.375
 21
-0.25
 31
0.0
  0
ENDBLK
  5
157
330
14E
100
AcDbEntity
  8
0
100
AcDbBlockEnd
  0
BLOCK
  5
15F
330
158
100
AcDbEntity
  8
0
100
AcDbBlockBegin
  2
CDWK_PTTYP42
 70
     0
 10
0.0
 20
0.0
 30
0.0
  3
CDWK_PTTYP42
  1

  0
LINE
  5
159
330
158
100
AcDbEntity
  8
0
 62
     0
370
    -2
100
AcDbLine
 10
-0.5
 20
0.5
 30
0.0
 11
0.5
 21
0.5
 31
0.0
  0
LINE
  5
15A
330
158
100
AcDbEntity
  8
0
 62
     0
370
    -2
100
AcDbLine
 10
0.5
 20
0.5
 30
0.0
 11
0.5
 21
-0.5
 31
0.0
  0
LINE
  5
15B
330
158
100
AcDbEntity
  8
0
 62
     0
370
    -2
100
AcDbLine
 10
0.5
 20
-0.5
 30
0.0
 11
-0.5
 21
-0.5
 31
0.0
  0
LINE
  5
15C
330
158
100
AcDbEntity
  8
0
 62
     0
370
    -2
100
AcDbLine
 10
-0.5
 20
-0.5
 30
0.0
 11
-0.5
 21
0.5
 31
0.0
  0
LINE
  5
15D
330
158
100
AcDbEntity
  8
0
 62
     0
370
    -2
100
AcDbLine
 10
-0.375
 20
0.125
 30
0.0
 11
0.375
 21
0.125
 31
0.0
  0
LINE
  5
15E
330
158
100
AcDbEntity
  8
0
 62
     0
370
    -2
100
AcDbLine
 10
-0.375
 20
-0.125
 30
0.0
 11
0.375
 21
-0.125
 31
0.0
  0
ENDBLK
  5
160
330
158
100
AcDbEntity
  8
0
100
AcDbBlockEnd
  0
BLOCK
  5
165
330
161
100
AcDbEntity
  8
0
100
AcDbBlockBegin
  2
CDWK_PTTYP43
 70
     0
 10
0.0
 20
0.0
 30
0.0
  3
CDWK_PTTYP43
  1

  0
CIRCLE
  5
162
330
161
100
AcDbEntity
  8
0
 62
     0
370
    -2
100
AcDbCircle
 10
0.0
 20
0.0
 30
0.0
 40
0.5
  0
LINE
  5
163
330
161
100
AcDbEntity
  8
0
 62
     0
370
    -2
100
AcDbLine
 10
-0.375
 20
0.166
 30
0.0
 11
0.375
 21
0.166
 31
0.0
  0
LINE
  5
164
330
161
100
AcDbEntity
  8
0
 62
     0
370
    -2
100
AcDbLine
 10
-0.375
 20
-0.166
 30
0.0
 11
0.375
 21
-0.166
 31
0.0
  0
ENDBLK
  5
166
330
161
100
AcDbEntity
  8
0
100
AcDbBlockEnd
  0
BLOCK
  5
16E
330
167
100
AcDbEntity
  8
0
100
AcDbBlockBegin
  2
CDWK_PTTYP44
 70
     0
 10
0.0
 20
0.0
 30
0.0
  3
CDWK_PTTYP44
  1

  0
CIRCLE
  5
168
330
167
100
AcDbEntity
  8
0
 62
     0
370
    -2
100
AcDbCircle
 10
0.0
 20
0.0
 30
0.0
 40
0.5
  0
LINE
  5
169
330
167
100
AcDbEntity
  8
0
 62
     0
370
    -2
100
AcDbLine
 10
-0.375
 20
0.333
 30
0.0
 11
0.375
 21
0.333
 31
0.0
  0
LINE
  5
16A
330
167
100
AcDbEntity
  8
0
 62
     0
370
    -2
100
AcDbLine
 10
-0.375
 20
0.166
 30
0.0
 11
0.375
 21
0.166
 31
0.0
  0
LINE
  5
16B
330
167
100
AcDbEntity
  8
0
 62
     0
370
    -2
100
AcDbLine
 10
-0.375
 20
0.0
 30
0.0
 11
0.375
 21
0.0
 31
0.0
  0
LINE
  5
16C
330
167
100
AcDbEntity
  8
0
 62
     0
370
    -2
100
AcDbLine
 10
-0.375
 20
-0.166
 30
0.0
 11
0.375
 21
-0.166
 31
0.0
  0
LINE
  5
16D
330
167
100
AcDbEntity
  8
0
 62
     0
370
    -2
100
AcDbLine
 10
-0.375
 20
-0.333
 30
0.0
 11
0.375
 21
-0.333
 31
0.0
  0
ENDBLK
  5
16F
330
167
100
AcDbEntity
  8
0
100
AcDbBlockEnd
  0
BLOCK
  5
173
330
170
100
AcDbEntity
  8
0
100
AcDbBlockBegin
  2
CDWK_PTTYP45
 70
     0
 10
0.0
 20
0.0
 30
0.0
  3
CDWK_PTTYP45
  1

  0
ELLIPSE
  5
171
330
170
100
AcDbEntity
  8
0
 62
     0
370
    -2
100
AcDbEllipse
 10
0.0
 20
0.0
 30
0.0
 11
0.5
 21
0.0
 31
0.0
210
0.0
220
0.0
230
1.0
 40
0.82
 41
0.0
 42
6.283185307179586
  0
CIRCLE
  5
172
330
170
100
AcDbEntity
  8
0
 62
     0
370
    -2
100
AcDbCircle
 10
-0.235
 20
0.0
 30
0.0
 40
0.26
  0
ENDBLK
  5
174
330
170
100
AcDbEntity
  8
0
100
AcDbBlockEnd
  0
BLOCK
  5
178
330
175
100
AcDbEntity
  8
0
100
AcDbBlockBegin
  2
CDWK_PTTYP46
 70
     0
 10
0.0
 20
0.0
 30
0.0
  3
CDWK_PTTYP46
  1

  0
ELLIPSE
  5
176
330
175
100
AcDbEntity
  8
0
 62
     0
370
    -2
100
AcDbEllipse
 10
0.0
 20
0.0
 30
0.0
 11
0.5
 21
0.0
 31
0.0
210
0.0
220
0.0
230
1.0
 40
0.82
 41
0.0
 42
6.283185307179586
  0
CIRCLE
  5
177
330
175
100
AcDbEntity
  8
0
 62
     0
370
    -2
100
AcDbCircle
 10
0.0
 20
0.15
 30
0.0
 40
0.26
  0
ENDBLK
  5
179
330
175
100
AcDbEntity
  8
0
100
AcDbBlockEnd
  0
BLOCK
  5
180
330
17A
100
AcDbEntity
  8
0
100
AcDbBlockBegin
  2
CDWK_PTTYP47
 70
     0
 10
0.0
 20
0.0
 30
0.0
  3
CDWK_PTTYP47
  1

  0
LINE
  5
17B
330
17A
100
AcDbEntity
  8
0
 62
     0
370
    -2
100
AcDbLine
 10
-0.5
 20
0.166
 30
0.0
 11
0.5
 21
0.166
 31
0.0
  0
LINE
  5
17C
330
17A
100
AcDbEntity
  8
0
 62
     0
370
    -2
100
AcDbLine
 10
0.5
 20
0.166
 30
0.0
 11
0.5
 21
-0.166
 31
0.0
  0
LINE
  5
17D
330
17A
100
AcDbEntity
  8
0
 62
     0
370
    -2
100
AcDbLine
 10
0.5
 20
-0.166
 30
0.0
 11
-0.5
 21
-0.166
 31
0.0
  0
LINE
  5
17E
330
17A
100
AcDbEntity
  8
0
 62
     0
370
    -2
100
AcDbLine
 10
-0.5
 20
-0.166
 30
0.0
 11
-0.5
 21
0.166
 31
0.0
  0
CIRCLE
  5
17F
330
17A
100
AcDbEntity
  8
0
 62
     0
370
    -2
100
AcDbCircle
 10
0.0
 20
-0.313
 30
0.0
 40
0.4
  0
ENDBLK
  5
181
330
17A
100
AcDbEntity
  8
0
100
AcDbBlockEnd
  0
BLOCK
  5
186
330
183
100
AcDbEntity
  8
0
100
AcDbBlockBegin
  2
CDWK_PTTYP48
 70
     0
 10
0.0
 20
0.0
 30
0.0
  3
CDWK_PTTYP48
  1

  0
CIRCLE
  5
184
330
183
100
AcDbEntity
  8
0
  6
CADWORK_3
 62
     0
 48
0.1
370
    -2
100
AcDbCircle
 10
0.0
 20
0.0
 30
0.0
 40
0.5
  0
CIRCLE
  5
185
330
183
100
AcDbEntity
  8
0
 62
     0
370
    -2
100
AcDbCircle
 10
0.0
 20
0.0
 30
0.0
 40
0.25
  0
ENDBLK
  5
187
330
183
100
AcDbEntity
  8
0
100
AcDbBlockEnd
  0
BLOCK
  5
18D
330
188
100
AcDbEntity
  8
0
100
AcDbBlockBegin
  2
CDWK_PTTYP49
 70
     0
 10
0.0
 20
0.0
 30
0.0
  3
CDWK_PTTYP49
  1

  0
LINE
  5
189
330
188
100
AcDbEntity
  8
0
 62
     0
370
    -2
100
AcDbLine
 10
-0.5
 20
0.166
 30
0.0
 11
0.5
 21
0.166
 31
0.0
  0
LINE
  5
18A
330
188
100
AcDbEntity
  8
0
 62
     0
370
    -2
100
AcDbLine
 10
0.5
 20
0.166
 30
0.0
 11
0.5
 21
-0.166
 31
0.0
  0
LINE
  5
18B
330
188
100
AcDbEntity
  8
0
 62
     0
370
    -2
100
AcDbLine
 10
0.5
 20
-0.166
 30
0.0
 11
-0.5
 21
-0.166
 31
0.0
  0
LINE
  5
18C
330
188
100
AcDbEntity
  8
0
 62
     0
370
    -2
100
AcDbLine
 10
-0.5
 20
-0.166
 30
0.0
 11
-0.5
 21
0.166
 31
0.0
  0
ENDBLK
  5
18E
330
188
100
AcDbEntity
  8
0
100
AcDbBlockEnd
  0
BLOCK
  5
197
330
18F
100
AcDbEntity
  8
0
100
AcDbBlockBegin
  2
CDWK_PTTYP50
 70
     0
 10
0.0
 20
0.0
 30
0.0
  3
CDWK_PTTYP50
  1

  0
LINE
  5
190
330
18F
100
AcDbEntity
  8
0
 62
     0
370
    -2
100
AcDbLine
 10
-0.5
 20
0.166
 30
0.0
 11
0.5
 21
0.166
 31
0.0
  0
LINE
  5
191
330
18F
100
AcDbEntity
  8
0
 62
     0
370
    -2
100
AcDbLine
 10
0.5
 20
0.166
 30
0.0
 11
0.5
 21
-0.166
 31
0.0
  0
LINE
  5
192
330
18F
100
AcDbEntity
  8
0
 62
     0
370
    -2
100
AcDbLine
 10
0.5
 20
-0.166
 30
0.0
 11
-0.5
 21
-0.166
 31
0.0
  0
LINE
  5
193
330
18F
100
AcDbEntity
  8
0
 62
     0
370
    -2
100
AcDbLine
 10
-0.5
 20
-0.166
 30
0.0
 11
-0.5
 21
0.166
 31
0.0
  0
LINE
  5
194
330
18F
100
AcDbEntity
  8
0
 62
     0
370
    -2
100
AcDbLine
 10
-0.25
 20
-0.166
 30
0.0
 11
-0.25
 21
0.166
 31
0.0
  0
LINE
  5
195
330
18F
100
AcDbEntity
  8
0
 62
     0
370
    -2
100
AcDbLine
 10
0.0
 20
-0.166
 30
0.0
 11
0.0
 21
0.166
 31
0.0
  0
LINE
  5
196
330
18F
100
AcDbEntity
  8
0
 62
     0
370
    -2
100
AcDbLine
 10
0.25
 20
-0.166
 30
0.0
 11
0.25
 21
0.166
 31
0.0
  0
ENDBLK
  5
198
330
18F
100
AcDbEntity
  8
0
100
AcDbBlockEnd
  0
BLOCK
  5
19C
330
199
100
AcDbEntity
  8
0
100
AcDbBlockBegin
  2
CDWK_PTTYP51
 70
     0
 10
0.0
 20
0.0
 30
0.0
  3
CDWK_PTTYP51
  1

  0
SPLINE
  5
19A
330
199
100
AcDbEntity
  8
0
 62
     0
370
    -2
100
AcDbSpline
210
0.0
220
0.0
230
1.0
 70
  1064
 71
     3
 72
    12
 73
     8
 74
     6
 42
0.000000001
 43
0.0000000001
 44
0.0000000001
 40
0.0
 40
0.0
 40
0.0
 40
0.0
 40
0.1690118339052032
 40
0.5175774661755118
 40
0.8011704844252565
 40
0.9154070810132151
 40
0.975822310881188
 40
0.975822310881188
 40
0.975822310881188
 40
0.975822310881188
 10
-0.5
 20
-0.077
 30
0.0
 10
-0.443824324006723
 20
-0.0900581618560981
 30
0.0
 10
-0.2717933876546281
 20
-0.1300471387828842
 30
0.0
 10
-0.0276699186086479
 20
-0.0006977790990417
 30
0.0
 10
0.2303349729129116
 20
0.0817803270207037
 30
0.0
 10
0.3686157174766292
 20
0.0066250198607167
 30
0.0
 10
0.4216533294581816
 20
-0.0168719667726145
 30
0.0
 10
0.44
 20
-0.025
 30
0.0
 11
-0.5
 21
-0.077
 31
0.0
 11
-0.333
 21
-0.103
 31
0.0
 11
0.0
 21
0.0
 31
0.0
 11
0.28
 21
0.045
 31
0.0
 11
0.385
 21
0.0
 31
0.0
 11
0.44
 21
-0.025
 31
0.0
  0
HATCH
  5
19B
330
199
100
AcDbEntity
  8
0
 62
     0
370
    -2
100
AcDbHatch
 10
0.0
 20
0.0
 30
0.0
210
0.0
220
0.0
230
1.0
  2
SOLID
 70
     1
 71
     1
 91
        1
 92
        3
 72
     0
 73
     1
 93
        3
 10
0.365
 20
-0.05
 10
0.5
 20
-0.042
 10
0.395
 20
0.045
 97
        0
 75
     0
 76
     1
 98
        0
  0
ENDBLK
  5
19D
330
199
100
AcDbEntity
  8
0
100
AcDbBlockEnd
  0
BLOCK
  5
1A2
330
19E
100
AcDbEntity
  8
0
100
AcDbBlockBegin
  2
CDWK_PTTYP52
 70
     0
 10
0.0
 20
0.0
 30
0.0
  3
CDWK_PTTYP52
  1

  0
LINE
  5
19F
330
19E
100
AcDbEntity
  8
0
 62
     0
370
    -2
100
AcDbLine
 10
-0.5
 20
-0.289
 30
0.0
 11
0.5
 21
-0.289
 31
0.0
  0
LINE
  5
1A0
330
19E
100
AcDbEntity
  8
0
 62
     0
370
    -2
100
AcDbLine
 10
0.5
 20
-0.289
 30
0.0
 11
0.0
 21
0.577
 31
0.0
  0
LINE
  5
1A1
330
19E
100
AcDbEntity
  8
0
 62
     0
370
    -2
100
AcDbLine
 10
0.0
 20
0.577
 30
0.0
 11
-0.5
 21
-0.289
 31
0.0
  0
ENDBLK
  5
1A3
330
19E
100
AcDbEntity
  8
0
100
AcDbBlockEnd
  0
BLOCK
  5
1A9
330
1A4
100
AcDbEntity
  8
0
100
AcDbBlockBegin
  2
cw-dimension-symbol1
 70
     0
 10
0.0
 20
0.0
 30
0.0
  3
cw-dimension-symbol1
  1

  0
LINE
  5
1A5
330
1A4
100
AcDbEntity
  8
0
 62
     0
370
    -2
100
AcDbLine
 10
0.0
 20
0.0
 30
0.0
 11
-1.0
 21
0.25
 31
0.0
  0
LINE
  5
1A6
330
1A4
100
AcDbEntity
  8
0
 62
     0
370
    -2
100
AcDbLine
 10
0.0
 20
0.0
 30
0.0
 11
-1.0
 21
-0.25
 31
0.0
  0
LINE
  5
1A7
330
1A4
100
AcDbEntity
  8
0
 62
     0
370
    -2
100
AcDbLine
 10
-1.0
 20
0.25
 30
0.0
 11
-1.0
 21
-0.25
 31
0.0
  0
LINE
  5
1A8
330
1A4
100
AcDbEntity
  8
0
 62
     0
370
    -2
100
AcDbLine
 10
0.0
 20
0.0
 30
0.0
 11
-1.0
 21
0.0
 31
0.0
  0
ENDBLK
  5
1AA
330
1A4
100
AcDbEntity
  8
0
100
AcDbBlockEnd
  0
BLOCK
  5
1AE
330
1AB
100
AcDbEntity
  8
0
100
AcDbBlockBegin
  2
cw-dimension-symbol2
 70
     0
 10
0.0
 20
0.0
 30
0.0
  3
cw-dimension-symbol2
  1

  0
LINE
  5
1AC
330
1AB
100
AcDbEntity
  8
0
 62
     0
370
    -2
100
AcDbLine
 10
-1.0
 20
0.0
 30
0.0
 11
1.0
 21
0.0
 31
0.0
  0
LINE
  5
1AD
330
1AB
100
AcDbEntity
  8
0
 62
     0
370
    -2
100
AcDbLine
 10
-0.5
 20
-0.5
 30
0.0
 11
0.5
 21
0.5
 31
0.0
  0
ENDBLK
  5
1AF
330
1AB
100
AcDbEntity
  8
0
100
AcDbBlockEnd
  0
BLOCK
  5
1B3
330
1B0
100
AcDbEntity
  8
0
100
AcDbBlockBegin
  2
cw-dimension-symbol3
 70
     0
 10
0.0
 20
0.0
 30
0.0
  3
cw-dimension-symbol3
  1

  0
LINE
  5
1B1
330
1B0
100
AcDbEntity
  8
0
 62
     0
370
    -2
100
AcDbLine
 10
-1.0
 20
0.0
 30
0.0
 11
1.0
 21
0.0
 31
0.0
  0
CIRCLE
  5
1B2
330
1B0
100
AcDbEntity
  8
0
 62
     0
370
    -2
100
AcDbCircle
 10
0.0
 20
0.0
 30
0.0
 40
0.25
  0
ENDBLK
  5
1B4
330
1B0
100
AcDbEntity
  8
0
100
AcDbBlockEnd
  0
BLOCK
  5
1BA
330
1B5
100
AcDbEntity
  8
0
100
AcDbBlockBegin
  2
cw-dimension-symbol5
 70
     0
 10
0.0
 20
0.0
 30
0.0
  3
cw-dimension-symbol5
  1

  0
HATCH
  5
1B6
330
1B5
100
AcDbEntity
  8
0
 62
     0
370
    -2
100
AcDbHatch
 10
0.0
 20
0.0
 30
0.0
210
0.0
220
0.0
230
1.0
  2
SOLID
 70
     1
 71
     1
 91
        1
 92
        3
 72
     0
 73
     1
 93
        3
 10
0.0
 20
0.0
 10
-1.0
 20
0.25
 10
-1.0
 20
-0.25
 97
        0
 75
     0
 76
     1
 98
        0
  0
LINE
  5
1B7
330
1B5
100
AcDbEntity
  8
0
 62
     0
370
    -2
100
AcDbLine
 10
0.0
 20
0.0
 30
0.0
 11
-1.0
 21
0.25
 31
0.0
  0
LINE
  5
1B8
330
1B5
100
AcDbEntity
  8
0
 62
     0
370
    -2
100
AcDbLine
 10
-1.0
 20
0.25
 30
0.0
 11
-1.0
 21
-0.25
 31
0.0
  0
LINE
  5
1B9
330
1B5
100
AcDbEntity
  8
0
 62
     0
370
    -2
100
AcDbLine
 10
-1.0
 20
-0.25
 30
0.0
 11
0.0
 21
0.0
 31
0.0
  0
ENDBLK
  5
1BB
330
1B5
100
AcDbEntity
  8
0
100
AcDbBlockEnd
  0
BLOCK
  5
1C0
330
1BC
100
AcDbEntity
  8
0
100
AcDbBlockBegin
  2
cw-dimension-symbol6
 70
     0
 10
0.0
 20
0.0
 30
0.0
  3
cw-dimension-symbol6
  1

  0
LINE
  5
1BD
330
1BC
100
AcDbEntity
  8
0
 62
     0
370
    -2
100
AcDbLine
 10
0.0
 20
0.0
 30
0.0
 11
-1.0
 21
0.25
 31
0.0
  0
LINE
  5
1BE
330
1BC
100
AcDbEntity
  8
0
 62
     0
370
    -2
100
AcDbLine
 10
0.0
 20
0.0
 30
0.0
 11
-1.0
 21
-0.25
 31
0.0
  0
LINE
  5
1BF
330
1BC
100
AcDbEntity
  8
0
 62
     0
370
    -2
100
AcDbLine
 10
0.0
 20
0.0
 30
0.0
 11
-1.0
 21
0.0
 31
0.0
  0
ENDBLK
  5
1C1
330
1BC
100
AcDbEntity
  8
0
100
AcDbBlockEnd
  0
BLOCK
  5
1C6
330
1C2
100
AcDbEntity
  8
0
100
AcDbBlockBegin
  2
cw-dimension-symbol11
 70
     0
 10
0.0
 20
0.0
 30
0.0
  3
cw-dimension-symbol11
  1

  0
LINE
  5
1C3
330
1C2
100
AcDbEntity
  8
0
 62
     0
370
    -2
100
AcDbLine
 10
-1.0
 20
1.0
 30
0.0
 11
1.0
 21
1.0
 31
0.0
  0
LINE
  5
1C4
330
1C2
100
AcDbEntity
  8
0
 62
     0
370
    -2
100
AcDbLine
 10
0.0
 20
0.0
 30
0.0
 11
-1.0
 21
1.0
 31
0.0
  0
LINE
  5
1C5
330
1C2
100
AcDbEntity
  8
0
 62
     0
370
    -2
100
AcDbLine
 10
0.0
 20
0.0
 30
0.0
 11
1.0
 21
1.0
 31
0.0
  0
ENDBLK
  5
1C7
330
1C2
100
AcDbEntity
  8
0
100
AcDbBlockEnd
  0
BLOCK
  5
1CC
330
1C8
100
AcDbEntity
  8
0
100
AcDbBlockBegin
  2
cw-dimension-symbol13
 70
     0
 10
0.0
 20
0.0
 30
0.0
  3
cw-dimension-symbol13
  1

  0
LINE
  5
1C9
330
1C8
100
AcDbEntity
  8
0
 62
     0
370
    -2
100
AcDbLine
 10
-1.0
 20
-1.0
 30
0.0
 11
1.0
 21
-1.0
 31
0.0
  0
LINE
  5
1CA
330
1C8
100
AcDbEntity
  8
0
 62
     0
370
    -2
100
AcDbLine
 10
0.0
 20
0.0
 30
0.0
 11
-1.0
 21
-1.0
 31
0.0
  0
LINE
  5
1CB
330
1C8
100
AcDbEntity
  8
0
 62
     0
370
    -2
100
AcDbLine
 10
0.0
 20
0.0
 30
0.0
 11
1.0
 21
-1.0
 31
0.0
  0
ENDBLK
  5
1CD
330
1C8
100
AcDbEntity
  8
0
100
AcDbBlockEnd
  0
BLOCK
  5
1D3
330
1CE
100
AcDbEntity
  8
0
100
AcDbBlockBegin
  2
cw-dimension-symbol15
 70
     0
 10
0.0
 20
0.0
 30
0.0
  3
cw-dimension-symbol15
  1

  0
HATCH
  5
1CF
330
1CE
100
AcDbEntity
  8
0
 62
     0
370
    -2
100
AcDbHatch
 10
0.0
 20
0.0
 30
0.0
210
0.0
220
0.0
230
1.0
  2
SOLID
 70
     1
 71
     1
 91
        1
 92
        3
 72
     0
 73
     1
 93
        3
 10
0.0
 20
0.0
 10
-1.0
 20
1.0
 10
1.0
 20
1.0
 97
        0
 75
     0
 76
     1
 98
        0
  0
LINE
  5
1D0
330
1CE
100
AcDbEntity
  8
0
 62
     0
370
    -2
100
AcDbLine
 10
0.0
 20
0.0
 30
0.0
 11
-1.0
 21
1.0
 31
0.0
  0
LINE
  5
1D1
330
1CE
100
AcDbEntity
  8
0
 62
     0
370
    -2
100
AcDbLine
 10
-1.0
 20
1.0
 30
0.0
 11
1.0
 21
1.0
 31
0.0
  0
LINE
  5
1D2
330
1CE
100
AcDbEntity
  8
0
 62
     0
370
    -2
100
AcDbLine
 10
1.0
 20
1.0
 30
0.0
 11
0.0
 21
0.0
 31
0.0
  0
ENDBLK
  5
1D4
330
1CE
100
AcDbEntity
  8
0
100
AcDbBlockEnd
  0
BLOCK
  5
1DA
330
1D5
100
AcDbEntity
  8
0
100
AcDbBlockBegin
  2
cw-dimension-symbol16
 70
     0
 10
0.0
 20
0.0
 30
0.0
  3
cw-dimension-symbol16
  1

  0
HATCH
  5
1D6
330
1D5
100
AcDbEntity
  8
0
 62
     0
370
    -2
100
AcDbHatch
 10
0.0
 20
0.0
 30
0.0
210
0.0
220
0.0
230
1.0
  2
SOLID
 70
     1
 71
     1
 91
        1
 92
        3
 72
     0
 73
     1
 93
        3
 10
0.0
 20
0.0
 10
-1.0
 20
-1.0
 10
1.0
 20
-1.0
 97
        0
 75
     0
 76
     1
 98
        0
  0
LINE
  5
1D7
330
1D5
100
AcDbEntity
  8
0
 62
     0
370
    -2
100
AcDbLine
 10
0.0
 20
0.0
 30
0.0
 11
-1.0
 21
-1.0
 31
0.0
  0
LINE
  5
1D8
330
1D5
100
AcDbEntity
  8
0
 62
     0
370
    -2
100
AcDbLine
 10
-1.0
 20
-1.0
 30
0.0
 11
1.0
 21
-1.0
 31
0.0
  0
LINE
  5
1D9
330
1D5
100
AcDbEntity
  8
0
 62
     0
370
    -2
100
AcDbLine
 10
1.0
 20
-1.0
 30
0.0
 11
0.0
 21
0.0
 31
0.0
  0
ENDBLK
  5
1DB
330
1D5
100
AcDbEntity
  8
0
100
AcDbBlockEnd
  0
BLOCK
  5
1E1
330
1DC
100
AcDbEntity
  8
0
100
AcDbBlockBegin
  2
cw-dimension-symbol17
 70
     0
 10
0.0
 20
0.0
 30
0.0
  3
cw-dimension-symbol17
  1

  0
LINE
  5
1DD
330
1DC
100
AcDbEntity
  8
0
 62
     0
370
    -2
100
AcDbLine
 10
0.0
 20
0.0
 30
0.0
 11
1.0
 21
1.0
 31
0.0
  0
LINE
  5
1DE
330
1DC
100
AcDbEntity
  8
0
 62
     0
370
    -2
100
AcDbLine
 10
1.0
 20
1.0
 30
0.0
 11
-1.0
 21
1.0
 31
0.0
  0
LINE
  5
1DF
330
1DC
100
AcDbEntity
  8
0
 62
     0
370
    -2
100
AcDbLine
 10
-1.0
 20
1.0
 30
0.0
 11
0.0
 21
0.0
 31
0.0
  0
HATCH
  5
1E0
330
1DC
100
AcDbEntity
  8
0
 62
     0
370
    -2
100
AcDbHatch
 10
0.0
 20
0.0
 30
0.0
210
0.0
220
0.0
230
1.0
  2
SOLID
 70
     1
 71
     1
 91
        1
 92
        3
 72
     0
 73
     1
 93
        3
 10
0.0
 20
0.0
 10
-1.0
 20
1.0
 10
0.0
 20
1.0
 97
        0
 75
     0
 76
     1
 98
        0
  0
ENDBLK
  5
1E2
330
1DC
100
AcDbEntity
  8
0
100
AcDbBlockEnd
  0
BLOCK
  5
1E8
330
1E3
100
AcDbEntity
  8
0
100
AcDbBlockBegin
  2
cw-dimension-symbol18
 70
     0
 10
0.0
 20
0.0
 30
0.0
  3
cw-dimension-symbol18
  1

  0
LINE
  5
1E4
330
1E3
100
AcDbEntity
  8
0
 62
     0
370
    -2
100
AcDbLine
 10
0.0
 20
0.0
 30
0.0
 11
1.0
 21
-1.0
 31
0.0
  0
LINE
  5
1E5
330
1E3
100
AcDbEntity
  8
0
 62
     0
370
    -2
100
AcDbLine
 10
1.0
 20
-1.0
 30
0.0
 11
-1.0
 21
-1.0
 31
0.0
  0
LINE
  5
1E6
330
1E3
100
AcDbEntity
  8
0
 62
     0
370
    -2
100
AcDbLine
 10
-1.0
 20
-1.0
 30
0.0
 11
0.0
 21
0.0
 31
0.0
  0
HATCH
  5
1E7
330
1E3
100
AcDbEntity
  8
0
 62
     0
370
    -2
100
AcDbHatch
 10
0.0
 20
0.0
 30
0.0
210
0.0
220
0.0
230
1.0
  2
SOLID
 70
     1
 71
     1
 91
        1
 92
        3
 72
     0
 73
     1
 93
        3
 10
0.0
 20
0.0
 10
-1.0
 20
-1.0
 10
0.0
 20
-1.0
 97
        0
 75
     0
 76
     1
 98
        0
  0
ENDBLK
  5
1E9
330
1E3
100
AcDbEntity
  8
0
100
AcDbBlockEnd
  0
BLOCK
  5
1EB
330
1EA
100
AcDbEntity
  8
0
100
AcDbBlockBegin
  2
cw-dimension-symbol19
 70
     0
 10
0.0
 20
0.0
 30
0.0
  3
cw-dimension-symbol19
  1

  0
ENDBLK
  5
1EC
330
1EA
100
AcDbEntity
  8
0
100
AcDbBlockEnd
  0
BLOCK
  5
1F2
330
1ED
100
AcDbEntity
  8
0
100
AcDbBlockBegin
  2
cw-dimension-symbol20
 70
     0
 10
0.0
 20
0.0
 30
0.0
  3
cw-dimension-symbol20
  1

  0
LINE
  5
1EE
330
1ED
100
AcDbEntity
  8
0
 62
     0
370
    -2
100
AcDbLine
 10
0.0
 20
0.0
 30
0.0
 11
0.0
 21
2.0
 31
0.0
  0
LINE
  5
1EF
330
1ED
100
AcDbEntity
  8
0
 62
     0
370
    -2
100
AcDbLine
 10
0.0
 20
0.0
 30
0.0
 11
-1.0
 21
0.33
 31
0.0
  0
LINE
  5
1F0
330
1ED
100
AcDbEntity
  8
0
 62
     0
370
    -2
100
AcDbLine
 10
0.0
 20
0.0
 30
0.0
 11
1.0
 21
0.33
 31
0.0
  0
LINE
  5
1F1
330
1ED
100
AcDbEntity
  8
0
 62
     0
370
    -2
100
AcDbLine
 10
0.0
 20
2.0
 30
0.0
 11
4.15
 21
2.0
 31
0.0
  0
ENDBLK
  5
1F3
330
1ED
100
AcDbEntity
  8
0
100
AcDbBlockEnd
  0
BLOCK
  5
1F9
330
1F4
100
AcDbEntity
  8
0
100
AcDbBlockBegin
  2
cw-dimension-symbol21
 70
     0
 10
0.0
 20
0.0
 30
0.0
  3
cw-dimension-symbol21
  1

  0
LINE
  5
1F5
330
1F4
100
AcDbEntity
  8
0
 62
     0
370
    -2
100
AcDbLine
 10
0.0
 20
0.0
 30
0.0
 11
0.0
 21
-2.0
 31
0.0
  0
LINE
  5
1F6
330
1F4
100
AcDbEntity
  8
0
 62
     0
370
    -2
100
AcDbLine
 10
0.0
 20
0.0
 30
0.0
 11
-1.0
 21
-0.33
 31
0.0
  0
LINE
  5
1F7
330
1F4
100
AcDbEntity
  8
0
 62
     0
370
    -2
100
AcDbLine
 10
0.0
 20
0.0
 30
0.0
 11
1.0
 21
-0.33
 31
0.0
  0
LINE
  5
1F8
330
1F4
100
AcDbEntity
  8
0
 62
     0
370
    -2
100
AcDbLine
 10
0.0
 20
-2.0
 30
0.0
 11
4.15
 21
-2.0
 31
0.0
  0
ENDBLK
  5
1FA
330
1F4
100
AcDbEntity
  8
0
100
AcDbBlockEnd
  0
BLOCK
  5
22B
330
1FB
100
AcDbEntity
  8
0
100
AcDbBlockBegin
  2
cw-line-extremity0
 70
     0
 10
0.0
 20
0.0
 30
0.0
  3
cw-line-extremity0
  1

  0
LINE
  5
1FC
330
1FB
100
AcDbEntity
  8
0
 62
     0
370
    -2
100
AcDbLine
 10
0.0
 20
0.0
 30
0.0
 11
4.0
 21
1.0
 31
0.0
  0
LINE
  5
1FD
330
1FB
100
AcDbEntity
  8
0
 62
     0
370
    -2
100
AcDbLine
 10
0.0
 20
0.0
 30
0.0
 11
4.0
 21
-1.0
 31
0.0
  0
LINE
  5
1FE
330
1FB
100
AcDbEntity
  8
0
 62
     0
370
    -2
100
AcDbLine
 10
4.0
 20
1.0
 30
0.0
 11
4.0
 21
-1.0
 31
0.0
  0
ENDBLK
  5
22C
330
1FB
100
AcDbEntity
  8
0
100
AcDbBlockEnd
  0
BLOCK
  5
229
330
1FF
100
AcDbEntity
  8
0
100
AcDbBlockBegin
  2
cw-line-extremity2
 70
     0
 10
0.0
 20
0.0
 30
0.0
  3
cw-line-extremity2
  1

  0
HATCH
  5
200
330
1FF
100
AcDbEntity
  8
0
 62
     0
370
     0
100
AcDbHatch
 10
0.0
 20
0.0
 30
0.0
210
0.0
220
0.0
230
1.0
  2
SOLID
 70
     1
 71
     1
 91
        1
 92
        3
 72
     0
 73
     1
 93
        3
 10
0.0
 20
0.0
 10
4.0
 20
1.0
 10
4.0
 20
-1.0
 97
        0
 75
     0
 76
     1
 98
        0
  0
LINE
  5
201
330
1FF
100
AcDbEntity
  8
0
 62
     0
370
    -2
100
AcDbLine
 10
0.0
 20
0.0
 30
0.0
 11
4.0
 21
1.0
 31
0.0
  0
LINE
  5
202
330
1FF
100
AcDbEntity
  8
0
 62
     0
370
    -2
100
AcDbLine
 10
4.0
 20
1.0
 30
0.0
 11
4.0
 21
-1.0
 31
0.0
  0
LINE
  5
203
330
1FF
100
AcDbEntity
  8
0
 62
     0
370
    -2
100
AcDbLine
 10
4.0
 20
-1.0
 30
0.0
 11
0.0
 21
0.0
 31
0.0
  0
ENDBLK
  5
22A
330
1FF
100
AcDbEntity
  8
0
100
AcDbBlockEnd
  0
BLOCK
  5
227
330
204
100
AcDbEntity
  8
0
100
AcDbBlockBegin
  2
cw-line-extremity3
 70
     0
 10
0.0
 20
0.0
 30
0.0
  3
cw-line-extremity3
  1

  0
HATCH
  5
205
330
204
100
AcDbEntity
  8
0
 62
     0
370
     0
100
AcDbHatch
 10
0.0
 20
0.0
 30
0.0
210
0.0
220
0.0
230
1.0
  2
SOLID
 70
     1
 71
     1
 91
        1
 92
        3
 72
     0
 73
     1
 93
        3
 10
0.0
 20
0.0
 10
4.0
 20
1.0
 10
4.0
 20
-1.0
 97
        0
 75
     0
 76
     1
 98
        0
  0
LINE
  5
206
330
204
100
AcDbEntity
  8
0
 62
     0
370
    -2
100
AcDbLine
 10
0.0
 20
0.0
 30
0.0
 11
4.0
 21
1.0
 31
0.0
  0
LINE
  5
207
330
204
100
AcDbEntity
  8
0
 62
     0
370
    -2
100
AcDbLine
 10
4.0
 20
1.0
 30
0.0
 11
4.0
 21
-1.0
 31
0.0
  0
LINE
  5
208
330
204
100
AcDbEntity
  8
0
 62
     0
370
    -2
100
AcDbLine
 10
4.0
 20
-1.0
 30
0.0
 11
0.0
 21
0.0
 31
0.0
  0
ENDBLK
  5
228
330
204
100
AcDbEntity
  8
0
100
AcDbBlockEnd
  0
BLOCK
  5
225
330
209
100
AcDbEntity
  8
0
100
AcDbBlockBegin
  2
cw-line-extremity301
 70
     0
 10
0.0
 20
0.0
 30
0.0
  3
cw-line-extremity301
  1

  0
LINE
  5
20A
330
209
100
AcDbEntity
  8
0
 62
     0
370
    -2
100
AcDbLine
 10
0.0
 20
2.66666
 30
0.0
 11
0.0
 21
-2.66666
 31
0.0
  0
ENDBLK
  5
226
330
209
100
AcDbEntity
  8
0
100
AcDbBlockEnd
  0
BLOCK
  5
223
330
20B
100
AcDbEntity
  8
0
100
AcDbBlockBegin
  2
cw-line-extremity4
 70
     0
 10
0.0
 20
0.0
 30
0.0
  3
cw-line-extremity4
  1

  0
HATCH
  5
20C
330
20B
100
AcDbEntity
  8
0
 62
     0
370
     5
100
AcDbHatch
 10
0.0
 20
0.0
 30
0.0
210
0.0
220
0.0
230
1.0
  2
SOLID
 70
     1
 71
     1
 91
        1
 92
        1
 93
        1
 72
     2
 10
0.0
 20
0.0
 40
1.0
 50
0.0
 51
360.0
 73
     1
 97
        0
 75
     0
 76
     1
 98
        0
  0
ENDBLK
  5
224
330
20B
100
AcDbEntity
  8
0
100
AcDbBlockEnd
  0
BLOCK
  5
221
330
20D
100
AcDbEntity
  8
0
100
AcDbBlockBegin
  2
cw-line-extremity5
 70
     0
 10
0.0
 20
0.0
 30
0.0
  3
cw-line-extremity5
  1

  0
LINE
  5
20E
330
20D
100
AcDbEntity
  8
0
 62
     0
370
    -2
100
AcDbLine
 10
0.0
 20
0.0
 30
0.0
 11
-1.0
 21
0.0
 31
0.0
  0
ENDBLK
  5
222
330
20D
100
AcDbEntity
  8
0
100
AcDbBlockEnd
  0
BLOCK
  5
21F
330
20F
100
AcDbEntity
  8
0
100
AcDbBlockBegin
  2
cw-line-extremity6
 70
     0
 10
0.0
 20
0.0
 30
0.0
  3
cw-line-extremity6
  1

  0
LINE
  5
210
330
20F
100
AcDbEntity
  8
0
 62
     0
370
    18
100
AcDbLine
 10
0.0
 20
1.0
 30
0.0
 11
0.0
 21
-1.0
 31
0.0
  0
ENDBLK
  5
220
330
20F
100
AcDbEntity
  8
0
100
AcDbBlockEnd
  0
BLOCK
  5
21D
330
211
100
AcDbEntity
  8
0
100
AcDbBlockBegin
  2
cw-line-extremity9
 70
     0
 10
0.0
 20
0.0
 30
0.0
  3
cw-line-extremity9
  1

  0
LINE
  5
212
330
211
100
AcDbEntity
  8
0
 62
     0
370
    18
100
AcDbLine
 10
-1.0
 20
-1.0
 30
0.0
 11
1.0
 21
1.0
 31
0.0
  0
ENDBLK
  5
21E
330
211
100
AcDbEntity
  8
0
100
AcDbBlockEnd
  0
BLOCK
  5
21B
330
213
100
AcDbEntity
  8
0
100
AcDbBlockBegin
  2
cw-line-extremity10
 70
     0
 10
0.0
 20
0.0
 30
0.0
  3
cw-line-extremity10
  1

  0
CIRCLE
  5
214
330
213
100
AcDbEntity
  8
0
 62
     0
370
    -2
100
AcDbCircle
 10
0.0
 20
0.0
 30
0.0
 40
1.0
  0
ENDBLK
  5
21C
330
213
100
AcDbEntity
  8
0
100
AcDbBlockEnd
  0
BLOCK
  5
219
330
215
100
AcDbEntity
  8
0
100
AcDbBlockBegin
  2
cw-line-extremity1
 70
     0
 10
0.0
 20
0.0
 30
0.0
  3
cw-line-extremity1
  1

  0
LINE
  5
216
330
215
100
AcDbEntity
  8
0
 62
     0
370
    -2
100
AcDbLine
 10
0.0
 20
0.0
 30
0.0
 11
0.0
 21
1.0
 31
0.0
  0
LINE
  5
217
330
215
100
AcDbEntity
  8
0
 62
     0
370
    -2
100
AcDbLine
 10
0.0
 20
1.0
 30
0.0
 11
0.5
 21
1.5
 31
0.0
  0
LINE
  5
218
330
215
100
AcDbEntity
  8
0
 62
     0
370
    -2
100
AcDbLine
 10
0.5
 20
1.5
 30
0.0
 11
1.5
 21
1.5
 31
0.0
  0
ENDBLK
  5
21A
330
215
100
AcDbEntity
  8
0
100
AcDbBlockEnd
  0
BLOCK
  5
1C
330
1B
100
AcDbEntity
  8
0
100
AcDbBlockBegin
  2
*Paper_Space69
 70
     0
 10
0.0
 20
0.0
 30
0.0
  3
*Paper_Space69
  1

  0
ENDBLK
  5
1D
330
1B
100
AcDbEntity
  8
0
100
AcDbBlockEnd
  0
BLOCK
  5
401
330
400
100
AcDbEntity
  8
0
100
AcDbBlockBegin
  2
*D70
 70
     1
 10
0.0
 20
0.0
 30
0.0
  3
*D70
  1

  0
LINE
  5
403
330
400
100
AcDbEntity
  8
Ech.1_5
 62
     0
370
    -2
100
AcDbLine
 10
-296.3368974873105
 20
-3583.896231926987
 30
0.0
 11
-291.9407073341128
 21
-3583.896231926987
 31
0.0
  0
LINE
  5
404
330
400
100
AcDbEntity
  8
Ech.1_5
 62
     0
370
    -2
100
AcDbLine
 10
-284.3368974873105
 20
-3581.862865136754
 30
0.0
 11
-295.9407073341128
 21
-3581.862865136754
 31
0.0
  0
LINE
  5
405
330
400
100
AcDbEntity
  8
Ech.1_5
 62
     0
370
    -2
100
AcDbLine
 10
-293.9407073341128
 20
-3583.896231926987
 30
0.0
 11
-293.9407073341128
 21
-3581.862865136754
 31
0.0
  0
LINE
  5
406
330
400
100
AcDbEntity
  8
Ech.1_5
 62
     0
370
    -2
100
AcDbLine
 10
-293.9407073341128
 20
-3585.896231926987
 30
0.0
 11
-293.9407073341128
 21
-3587.896231926987
 31
0.0
  0
LINE
  5
407
330
400
100
AcDbEntity
  8
Ech.1_5
 62
     0
370
    -2
100
AcDbLine
 10
-293.9407073341128
 20
-3579.862865136754
 30
0.0
 11
-293.9407073341128
 21
-3577.862865136754
 31
0.0
  0
INSERT
  5
408
330
400
100
AcDbEntity
  8
Ech.1_5
 62
     0
370
    -2
100
AcDbBlockReference
  2
cw-dimension-symbol2
 10
-293.9407073341128
 20
-3583.896231926987
 30
0.0
 41
2.0
 42
2.0
 43
2.0
 50
90.0
  0
INSERT
  5
409
330
400
100
AcDbEntity
  8
Ech.1_5
 62
     0
370
    -2
100
AcDbBlockReference
  2
cw-dimension-symbol2
 10
-293.9407073341128
 20
-3581.862865136754
 30
0.0
 41
2.0
 42
2.0
 43
2.0
 50
270.0
  0
MTEXT
  5
40A
330
400
100
AcDbEntity
  8
Ech.1_5
 62
   190
370
    20
100
AcDbMText
 10
-298.4407073341128
 20
-3582.87954853187
 30
0.0
 40
5.0
 41
0.0
 46
0.0
 71
     5
 72
     1
  1
\A1;5 mm
  7
arial-z
 11
6.123233995736766E-17
 21
1.0
 31
0.0
 73
     1
 44
1.0
  0
POINT
  5
40B
330
400
100
AcDbEntity
  8
Defpoints
 62
     0
100
AcDbPoint
 10
-296.3368974873105
 20
-3583.896231926987
 30
0.0
  0
POINT
  5
40C
330
400
100
AcDbEntity
  8
Defpoints
 62
     0
100
AcDbPoint
 10
-284.3368974873105
 20
-3581.862865136754
 30
0.0
  0
POINT
  5
40D
330
400
100
AcDbEntity
  8
Defpoints
 62
     0
100
AcDbPoint
 10
-293.9407073341128
 20
-3581.862865136754
 30
0.0
  0
ENDBLK
  5
402
330
400
100
AcDbEntity
  8
0
100
AcDbBlockEnd
  0
BLOCK
  5
411
330
410
100
AcDbEntity
  8
0
100
AcDbBlockBegin
  2
*D71
 70
     1
 10
0.0
 20
0.0
 30
0.0
  3
*D71
  1

  0
LINE
  5
413
330
410
100
AcDbEntity
  8
Ech.1_5
 62
     0
370
    -2
100
AcDbLine
 10
-296.3368974873105
 20
-3657.537497579926
 30
0.0
 11
-291.9407073341128
 21
-3657.537497579926
 31
0.0
  0
LINE
  5
414
330
410
100
AcDbEntity
  8
Ech.1_5
 62
     0
370
    -2
100
AcDbLine
 10
-284.3368974873105
 20
-3655.504130789693
 30
0.0
 11
-295.9407073341128
 21
-3655.504130789693
 31
0.0
  0
LINE
  5
415
330
410
100
AcDbEntity
  8
Ech.1_5
 62
     0
370
    -2
100
AcDbLine
 10
-293.9407073341128
 20
-3657.537497579926
 30
0.0
 11
-293.9407073341128
 21
-3655.504130789693
 31
0.0
  0
LINE
  5
416
330
410
100
AcDbEntity
  8
Ech.1_5
 62
     0
370
    -2
100
AcDbLine
 10
-293.9407073341128
 20
-3659.537497579926
 30
0.0
 11
-293.9407073341128
 21
-3661.537497579926
 31
0.0
  0
LINE
  5
417
330
410
100
AcDbEntity
  8
Ech.1_5
 62
     0
370
    -2
100
AcDbLine
 10
-293.9407073341128
 20
-3653.504130789693
 30
0.0
 11
-293.9407073341128
 21
-3651.504130789693
 31
0.0
  0
INSERT
  5
418
330
410
100
AcDbEntity
  8
Ech.1_5
 62
     0
370
    -2
100
AcDbBlockReference
  2
cw-dimension-symbol2
 10
-293.9407073341128
 20
-3657.537497579926
 30
0.0
 41
2.0
 42
2.0
 43
2.0
 50
90.0
  0
INSERT
  5
419
330
410
100
AcDbEntity
  8
Ech.1_5
 62
     0
370
    -2
100
AcDbBlockReference
  2
cw-dimension-symbol2
 10
-293.9407073341128
 20
-3655.504130789693
 30
0.0
 41
2.0
 42
2.0
 43
2.0
 50
270.0
  0
MTEXT
  5
41A
330
410
100
AcDbEntity
  8
Ech.1_5
 62
   190
370
    20
100
AcDbMText
 10
-298.4407073341128
 20
-3656.52081418481
 30
0.0
 40
5.0
 41
0.0
 46
0.0
 71
     5
 72
     1
  1
\A1;5 mm
  7
arial-z
 11
6.123233995736766E-17
 21
1.0
 31
0.0
 73
     1
 44
1.0
  0
POINT
  5
41B
330
410
100
AcDbEntity
  8
Defpoints
 62
     0
100
AcDbPoint
 10
-296.3368974873105
 20
-3657.537497579926
 30
0.0
  0
POINT
  5
41C
330
410
100
AcDbEntity
  8
Defpoints
 62
     0
100
AcDbPoint
 10
-284.3368974873105
 20
-3655.504130789693
 30
0.0
  0
POINT
  5
41D
330
410
100
AcDbEntity
  8
Defpoints
 62
     0
100
AcDbPoint
 10
-293.9407073341128
 20
-3655.504130789693
 30
0.0
  0
ENDBLK
  5
412
330
410
100
AcDbEntity
  8
0
100
AcDbBlockEnd
  0
ENDSEC
  0
SECTION
  2
ENTITIES
  0
HATCH
  5
236
330
1F
100
AcDbEntity
  8
Ech.1_5
 62
    21
420
 16756102
440
 33554687
370
     5
100
AcDbHatch
 10
0.0
 20
0.0
 30
0.0
210
0.0
220
0.0
230
1.0
  2
SOLID
 70
     1
 71
     1
 91
        1
 92
        3
 72
     0
 73
     1
 93
        8
 10
-207.7564031084148
 20
-3457.958117565341
 10
-234.6116362206951
 20
-3457.957619755427
 10
-241.2061778532945
 20
-3465.148960397198
 10
-235.562201846172
 20
-3450.766680392475
 10
-242.1564031085371
 20
-3457.957619755427
 10
-279.7564031088368
 20
-3457.957775907395
 10
-279.7564031085371
 20
-3581.862865136754
 10
-207.7564031084148
 20
-3581.862865136754
 97
        0
 75
     0
 76
     1
 98
        0
  0
LWPOLYLINE
  5
237
330
1F
100
AcDbEntity
  8
Ech.1_5
 62
   190
370
    20
100
AcDbPolyline
 90
        9
 70
     0
 43
0.0
 10
-207.7564031084148
 20
-3457.958117565341
 10
-234.6116362206951
 20
-3457.957619755427
 10
-241.2061778532945
 20
-3465.148960397198
 10
-235.562201846172
 20
-3450.766680392475
 10
-242.1564031085371
 20
-3457.957619755427
 10
-279.7564031088368
 20
-3457.957775907395
 10
-279.7564031085371
 20
-3581.862865136754
 10
-207.7564031084148
 20
-3581.862865136754
 10
-207.7564031084148
 20
-3457.958117565341
  0
HATCH
  5
238
330
1F
100
AcDbEntity
  8
Ech.1_5
 62
    21
420
 16756102
440
 33554687
370
     5
100
AcDbHatch
 10
0.0
 20
0.0
 30
0.0
210
0.0
220
0.0
230
1.0
  2
SOLID
 70
     1
 71
     1
 91
        1
 92
        3
 72
     0
 73
     1
 93
       10
 10
-207.756403108473
 20
-3711.985319742668
 10
-207.7564031084148
 20
-3700.38532052449
 10
-207.7564031084148
 20
-3657.40563218066
 10
-279.7564031084847
 20
-3657.40563218066
 10
-279.7564031084148
 20
-3779.113991579521
 10
-242.1564031085371
 20
-3779.114108216498
 10
-235.5618614759318
 20
-3771.922767574727
 10
-241.2058374830544
 20
-3786.30504757945
 10
-234.6116362206951
 20
-3779.114108216498
 10
-207.7564031084148
 20
-3779.113456396587
 97
        0
 75
     0
 76
     1
 98
        0
  0
LWPOLYLINE
  5
239
330
1F
100
AcDbEntity
  8
Ech.1_5
 62
   190
370
    20
100
AcDbPolyline
 90
       11
 70
     0
 43
0.0
 10
-207.756403108473
 20
-3711.985319742668
 10
-207.7564031084148
 20
-3700.38532052449
 10
-207.7564031084148
 20
-3657.40563218066
 10
-279.7564031084847
 20
-3657.40563218066
 10
-279.7564031084148
 20
-3779.113991579521
 10
-242.1564031085371
 20
-3779.114108216498
 10
-235.5618614759318
 20
-3771.922767574727
 10
-241.2058374830544
 20
-3786.30504757945
 10
-234.6116362206951
 20
-3779.114108216498
 10
-207.7564031084148
 20
-3779.113456396587
 10
-207.756403108473
 20
-3711.985319742668
  0
LINE
  5
23A
330
1F
100
AcDbEntity
  8
Ech.1_5
 62
   190
370
    20
100
AcDbLine
 10
-153.3774457433821
 20
-3583.862865136759
 30
0.0
 11
-322.4360943595668
 21
-3583.862865136753
 31
0.0
  0
LINE
  5
23B
330
1F
100
AcDbEntity
  8
Ech.1_5
 62
   190
370
    20
100
AcDbLine
 10
-153.3774457433792
 20
-3655.504130789693
 30
0.0
 11
-322.4360943595639
 21
-3655.504130789693
 31
0.0
  0
LWPOLYLINE
  5
23C
330
1F
100
AcDbEntity
  8
Ech.1_5
 62
   190
370
    20
100
AcDbPolyline
 90
       41
 70
     0
 43
0.0
 10
-322.4360943595668
 20
-3655.504130789693
 10
-319.8268157816951
 20
-3655.063119358666
 10
-317.2817863021097
 20
-3653.75094423065
 10
-314.8636729930666
 20
-3651.599915512159
 10
-312.6320178294926
 20
-3648.662998669103
 10
-310.6417715679527
 20
-3645.012510341211
 10
-308.941940676656
 20
-3640.738337666405
 10
-307.5743806335631
 20
-3635.9457249611
 10
-306.5727653055998
 20
-3630.752682255869
 10
-305.961757786321
 20
-3625.287079496836
 10
-305.7564031086622
 20
-3619.683497963226
 10
-305.961757786321
 20
-3614.07991642961
 10
-306.5727653055998
 20
-3608.614313670583
 10
-307.5743806335631
 20
-3603.421270965351
 10
-308.941940676656
 20
-3598.628658260041
 10
-310.6417715679527
 20
-3594.354485585235
 10
-312.6320178294926
 20
-3590.703997257349
 10
-314.8636729930666
 20
-3587.767080414287
 10
-317.2817863021097
 20
-3585.616051695796
 10
-319.8268157816951
 20
-3584.303876567781
 10
-322.4360943595668
 20
-3583.862865136753
 10
-325.0453729374385
 20
-3584.303876567781
 10
-327.5904024170239
 20
-3585.616051695796
 10
-330.0085157260699
 20
-3587.767080414281
 10
-332.2401708896439
 20
-3590.703997257343
 10
-334.2304171511809
 20
-3594.354485585235
 10
-335.9302480424776
 20
-3598.628658260041
 10
-337.2978080855734
 20
-3603.421270965346
 10
-338.2994234135338
 20
-3608.614313670577
 10
-338.9104309328155
 20
-3614.07991642961
 10
-339.1157856104743
 20
-3619.683497963226
 10
-338.9104309328155
 20
-3625.287079496836
 10
-338.2994234135338
 20
-3630.752682255869
 10
-337.2978080855734
 20
-3635.9457249611
 10
-335.9302480424776
 20
-3640.738337666405
 10
-334.2304171511809
 20
-3645.012510341211
 10
-332.2401708896439
 20
-3648.662998669103
 10
-330.0085157260699
 20
-3651.599915512165
 10
-327.5904024170239
 20
-3653.75094423065
 10
-325.0453729374385
 20
-3655.063119358666
 10
-322.4360943595668
 20
-3655.504130789693
  0
LWPOLYLINE
  5
23D
330
1F
100
AcDbEntity
  8
Ech.1_5
 62
   190
370
    20
100
AcDbPolyline
 90
       41
 70
     0
 43
0.0
 10
-153.3774457433821
 20
-3655.504130789693
 10
-150.7681671655104
 20
-3655.063119358666
 10
-148.223137685925
 20
-3653.75094423065
 10
-145.8050243768819
 20
-3651.599915512159
 10
-143.5733692133079
 20
-3648.662998669103
 10
-141.583122951768
 20
-3645.012510341211
 10
-139.8832920604713
 20
-3640.738337666405
 10
-138.5157320173785
 20
-3635.9457249611
 10
-137.5141166894151
 20
-3630.752682255869
 10
-136.9031091701363
 20
-3625.287079496836
 10
-136.6977544924775
 20
-3619.683497963226
 10
-136.9031091701363
 20
-3614.07991642961
 10
-137.5141166894151
 20
-3608.614313670583
 10
-138.5157320173785
 20
-3603.421270965351
 10
-139.8832920604713
 20
-3598.628658260041
 10
-141.583122951768
 20
-3594.354485585235
 10
-143.5733692133079
 20
-3590.703997257349
 10
-145.8050243768819
 20
-3587.767080414287
 10
-148.223137685925
 20
-3585.616051695796
 10
-150.7681671655104
 20
-3584.303876567781
 10
-153.3774457433821
 20
-3583.862865136753
 10
-155.9867243212539
 20
-3584.303876567781
 10
-158.5317538008392
 20
-3585.616051695796
 10
-160.9498671098852
 20
-3587.767080414281
 10
-163.1815222734593
 20
-3590.703997257343
 10
-165.1717685349962
 20
-3594.354485585235
 10
-166.871599426293
 20
-3598.628658260041
 10
-168.2391594693887
 20
-3603.421270965346
 10
-169.2407747973492
 20
-3608.614313670577
 10
-169.8517823166309
 20
-3614.07991642961
 10
-170.0571369942896
 20
-3619.683497963226
 10
-169.8517823166309
 20
-3625.287079496836
 10
-169.2407747973492
 20
-3630.752682255869
 10
-168.2391594693887
 20
-3635.9457249611
 10
-166.871599426293
 20
-3640.738337666405
 10
-165.1717685349962
 20
-3645.012510341211
 10
-163.1815222734593
 20
-3648.662998669103
 10
-160.9498671098852
 20
-3651.599915512165
 10
-158.5317538008392
 20
-3653.75094423065
 10
-155.9867243212539
 20
-3655.063119358666
 10
-153.3774457433821
 20
-3655.504130789693
  0
LWPOLYLINE
  5
23E
330
1F
100
AcDbEntity
  8
Ech.1_5
 62
   190
370
    20
100
AcDbPolyline
 90
        5
 70
     0
 43
0.0
 10
-474.4328742585182
 20
-3369.004899456169
 10
-80.43287425851814
 20
-3369.004899456169
 10
-80.43287425851814
 20
-3911.004899456169
 10
-474.4328742585182
 20
-3911.004899456169
 10
-474.4328742585182
 20
-3369.004899456169
  0
LWPOLYLINE
  5
23F
330
1F
100
AcDbEntity
  8
Ech.1_5
 62
   190
370
    20
100
AcDbPolyline
 90
        5
 70
     0
 43
0.0
 10
-474.4328742585182
 20
-3856.039670630147
 10
-80.43287425851814
 20
-3856.039670630147
 10
-80.43287425851814
 20
-3911.004899456169
 10
-474.4328742585182
 20
-3911.004899456169
 10
-474.4328742585182
 20
-3856.039670630147
  0
LWPOLYLINE
  5
240
330
1F
100
AcDbEntity
  8
Ech.1_5
 62
   190
370
    20
100
AcDbPolyline
 90
        5
 70
     0
 43
0.0
 10
-80.43287425851814
 20
-3407.211684658476
 10
-474.4328742585182
 20
-3407.211684658476
 10
-474.4328742585182
 20
-3369.004899456217
 10
-80.43287425851814
 20
-3369.004899456217
 10
-80.43287425851814
 20
-3407.211684658476
  0
LWPOLYLINE
  5
241
330
1F
100
AcDbEntity
  8
Ech.1_5
 62
   190
370
    20
100
AcDbPolyline
 90
        5
 70
     0
 43
0.0
 10
-80.43287425851814
 20
-3864.839670630146
 10
-474.4328742585182
 20
-3864.839670630146
 10
-474.4328742585182
 20
-3856.039670630147
 10
-80.43287425851814
 20
-3856.039670630147
 10
-80.43287425851814
 20
-3864.839670630146
  0
LWPOLYLINE
  5
242
330
1F
100
AcDbEntity
  8
Ech.1_5
 62
   190
370
    20
100
AcDbPolyline
 90
        5
 70
     0
 43
0.0
 10
-80.43287425851814
 20
-3887.588128722283
 10
-474.4328742585182
 20
-3887.588128722283
 10
-474.4328742585182
 20
-3878.097317397987
 10
-80.43287425851814
 20
-3878.097317397987
 10
-80.43287425851814
 20
-3887.588128722283
  0
LINE
  5
243
330
1F
100
AcDbEntity
  8
Ech.1_5
 62
   190
370
    20
100
AcDbLine
 10
-399.1510494733353
 20
-3856.039670630147
 30
0.0
 11
-399.1510494733353
 21
-3864.839670630146
 31
0.0
  0
LINE
  5
244
330
1F
100
AcDbEntity
  8
Ech.1_5
 62
   190
370
    20
100
AcDbLine
 10
-136.3518084211166
 20
-3856.039670630147
 30
0.0
 11
-136.3518084211166
 21
-3864.839670630146
 31
0.0
  0
LINE
  5
245
330
1F
100
AcDbEntity
  8
Ech.1_5
 62
   190
370
    20
100
AcDbLine
 10
-336.6889622751937
 20
-3856.039670630147
 30
0.0
 11
-336.6889622751937
 21
-3864.839670630146
 31
0.0
  0
IMAGE
  5
248
330
1F
100
AcDbEntity
  8
Ech.1_5
160
                 8
310
0800000000000000
100
AcDbRasterImage
 90
        0
 10
-398.007174762166
 20
-3908.99068046375
 30
0.0
 11
0.1133603238866397
 21
0.0
 31
0.0
 12
0.0
 22
0.1111111111111111
 32
0.0
 13
247.0
 23
171.0
340
247
 70
     3
280
     0
281
    50
282
    50
283
     0
360
249
 71
     1
 91
        2
 14
-0.5
 24
-0.5
 14
246.5
 24
170.5
290
     0
  0
IMAGE
  5
24B
330
1F
100
AcDbEntity
  8
Ech.1_5
160
                 8
310
0800000000000000
100
AcDbRasterImage
 90
        0
 10
-293.5761062653743
 20
-3910.012525385263
 30
0.0
 11
0.16
 21
0.0
 31
0.0
 12
0.0
 22
0.1578947368421053
 32
0.0
 13
200.0
 23
133.0
340
24A
 70
     3
280
     0
281
    50
282
    50
283
     0
360
24C
 71
     1
 91
        2
 14
-0.5
 24
-0.5
 14
199.5
 24
132.5
290
     0
  0
IMAGE
  5
24E
330
1F
100
AcDbEntity
  8
Ech.1_5
160
                 8
310
0800000000000000
100
AcDbRasterImage
 90
        0
 10
-196.2262397137158
 20
-3910.494516551243
 30
0.0
 11
0.03770739064856712
 21
0.0
 31
0.0
 12
0.0
 22
0.03793103448275862
 32
0.0
 13
1326.0
 23
580.0
340
24D
 70
     3
280
     0
281
    50
282
    50
283
     0
360
24F
 71
     1
 91
        2
 14
-0.5
 24
-0.5
 14
1325.5
 24
579.5
290
     0
  0
LINE
  5
250
330
1F
100
AcDbEntity
  8
Ech.1_5
 62
   190
370
    20
100
AcDbLine
 10
-80.43287425851523
 20
-3381.004899456173
 30
0.0
 11
-474.4328742585153
 21
-3381.004899456173
 31
0.0
  0
LWPOLYLINE
  5
251
330
1F
100
AcDbEntity
  8
Ech.1_5
 62
   190
370
    20
100
AcDbPolyline
 90
        5
 70
     0
 43
0.0
 10
-80.43287425851814
 20
-3911.004899456169
 10
-80.43287425851814
 20
-3369.004899456169
 10
-474.4328742585182
 20
-3369.004899456169
 10
-474.4328742585182
 20
-3911.004899456169
 10
-80.43287425851814
 20
-3911.004899456169
  0
LWPOLYLINE
  5
252
330
1F
100
AcDbEntity
  8
Ech.1_5
 62
   190
370
    20
100
AcDbPolyline
 90
        9
 70
     0
 43
0.0
 10
-207.7564031084148
 20
-3457.958117565341
 10
-234.6116362206951
 20
-3457.957619755427
 10
-241.2061778532945
 20
-3465.148960397198
 10
-235.562201846172
 20
-3450.766680392475
 10
-242.1564031085371
 20
-3457.957619755427
 10
-279.7564031088368
 20
-3457.957775907395
 10
-279.7564031085371
 20
-3581.862865136754
 10
-207.7564031084148
 20
-3581.862865136754
 10
-207.7564031084148
 20
-3457.958117565341
  0
LWPOLYLINE
  5
253
330
1F
100
AcDbEntity
  8
Ech.1_5
 62
   154
420
    21156
370
    20
100
AcDbPolyline
 90
      194
 70
     0
 43
0.0
 10
-131.2661339320934
 20
-3439.259628509282
 10
-130.89543351055
 20
-3440.329707097922
 10
-130.532283474555
 20
-3441.40120488568
 10
-130.355899346622
 20
-3441.937929478955
 10
-130.1842342096567
 20
-3442.475541071679
 10
-130.0182318618527
 20
-3443.014217063745
 10
-129.8588361014035
 20
-3443.554134855041
 10
-129.7069907265027
 20
-3444.095471845456
 10
-129.5636395353438
 20
-3444.638405434883
 10
-129.4297263261202
 20
-3445.183113023209
 10
-129.3061948970258
 20
-3445.729772010326
 10
-129.1939890462538
 20
-3446.278559796123
 10
-129.094052571998
 20
-3446.829653780491
 10
-129.0073292724518
 20
-3447.38323136332
 10
-128.9347629458087
 20
-3447.939469944499
 10
-128.8772973902624
 20
-3448.498546923919
 10
-128.854522338586
 20
-3448.779205250435
 10
-128.8358764040064
 20
-3449.060639701469
 10
-128.8214775612977
 20
-3449.342872452009
 10
-128.8114437852341
 20
-3449.625925677041
 10
-128.8058930505899
 20
-3449.90982155155
 10
-128.8049433321393
 20
-3450.194582250522
 10
-128.8086851793396
 20
-3450.480224050235
 10
-128.816863266267
 20
-3450.766688835158
 10
-128.8445554420924
 20
-3451.341650265958
 10
-128.884051417929
 20
-3451.918587405094
 10
-128.9313781506368
 20
-3452.496620125043
 10
-129.0336317141075
 20
-3453.652451797304
 10
-129.0806124585908
 20
-3454.228490494573
 10
-129.1195317873865
 20
-3454.802104262575
 10
-129.1464166573547
 20
-3455.372412973787
 10
-129.1541045942973
 20
-3455.656052893247
 10
-129.1572940253557
 20
-3455.93853650069
 10
-129.1554883201373
 20
-3456.219753780174
 10
-129.1481908482498
 20
-3456.499594715761
 10
-129.1349049793005
 20
-3456.777949291511
 10
-129.1151340828971
 20
-3457.054707491483
 10
-129.0883815286471
 20
-3457.329759299737
 10
-129.0541506861581
 20
-3457.602994700332
 10
-129.0119449250374
 20
-3457.874303677329
 10
-128.9612676148928
 20
-3458.143576214789
 10
-128.9016221253317
 20
-3458.41070229677
 10
-128.8325118259616
 20
-3458.675571907332
 10
-128.7534400863901
 20
-3458.938075030536
 10
-128.6639102762247
 20
-3459.198101650441
 10
-128.5634257650729
 20
-3459.455541751109
 10
-128.4514926998136
 20
-3459.710285039783
 10
-128.3278979463308
 20
-3459.96219324418
 10
-128.1929460859236
 20
-3460.211076490822
 10
-128.0469975179228
 20
-3460.456739342792
 10
-127.8904126416599
 20
-3460.698986363179
 10
-127.7235518564658
 20
-3460.937622115066
 10
-127.5467755616717
 20
-3461.172451161541
 10
-127.3604441566089
 20
-3461.403278065688
 10
-127.1649180406083
 20
-3461.629907390592
 10
-126.9605576130012
 20
-3461.852143699341
 10
-126.7477232731187
 20
-3462.069791555017
 10
-126.5267754202918
 20
-3462.282655520707
 10
-126.2980744538519
 20
-3462.490540159498
 10
-126.06198077313
 20
-3462.693250034475
 10
-125.8188547774572
 20
-3462.890589708722
 10
-125.5690568661648
 20
-3463.082363745326
 10
-125.3129474385838
 20
-3463.268376707372
 10
-125.0508868940453
 20
-3463.448433157946
 10
-124.7832356318806
 20
-3463.622337660134
 10
-124.5103540514208
 20
-3463.78989477702
 10
-124.2326025519969
 20
-3463.95090907169
 10
-123.9503415329402
 20
-3464.10518510723
 10
-123.6639313935818
 20
-3464.252527446725
 10
-123.3737325332528
 20
-3464.392740653262
 10
-123.0801053512843
 20
-3464.525629289925
 10
-122.7834102470076
 20
-3464.6509979198
 10
-122.4840076197537
 20
-3464.768651105973
 10
-122.1822578688538
 20
-3464.878393411529
 10
-121.878521393639
 20
-3464.980029399554
 10
-121.5731585934406
 20
-3465.073363633132
 10
-121.2665298675895
 20
-3465.158200675352
 10
-120.958995615417
 20
-3465.234345089296
 10
-120.6509162362541
 20
-3465.301601438051
 10
-120.3426521294322
 20
-3465.359774284703
 10
-120.0345636942821
 20
-3465.408668192336
 10
-119.7270113301352
 20
-3465.448087724038
 10
-119.4203554363226
 20
-3465.477837442892
 10
-119.1149564121754
 20
-3465.497721911985
 10
-118.8111746570247
 20
-3465.507545694402
 10
-118.5093705702017
 20
-3465.50711335323
 10
-118.2099045510375
 20
-3465.496229451552
 10
-117.9131369988633
 20
-3465.474698552455
 10
-117.6194283130102
 20
-3465.442325219025
 10
-117.3291388928093
 20
-3465.398914014346
 10
-117.0426291375919
 20
-3465.344269501506
 10
-116.7602594466889
 20
-3465.278196243588
 10
-116.4823902194316
 20
-3465.200498803679
 10
-116.2093818551512
 20
-3465.110981744864
 10
-115.9415947531787
 20
-3465.009449630229
 10
-115.6793893128453
 20
-3464.895707022859
 10
-115.4231148672367
 20
-3464.76958038082
 10
-115.1729579283634
 20
-3464.631218309768
 10
-114.9289810663905
 20
-3464.48101463893
 10
-114.6912437429911
 20
-3464.319369347809
 10
-114.4598054198378
 20
-3464.146682415902
 10
-114.2347255586036
 20
-3463.963353822712
 10
-114.0160636209613
 20
-3463.769783547735
 10
-113.8038790685835
 20
-3463.566371570471
 10
-113.5982313631432
 20
-3463.353517870421
 10
-113.3991799663132
 20
-3463.131622427084
 10
-113.2067843397663
 20
-3462.901085219959
 10
-113.0211039451754
 20
-3462.662306228546
 10
-112.8421982442131
 20
-3462.415685432343
 10
-112.6701266985524
 20
-3462.161622810853
 10
-112.504948769866
 20
-3461.900518343572
 10
-112.3467239198268
 20
-3461.632772010001
 10
-112.1955116101076
 20
-3461.35878378964
 10
-112.0513713023812
 20
-3461.078953661986
 10
-111.9143624583205
 20
-3460.793681606543
 10
-111.7845445395982
 20
-3460.503367602805
 10
-111.6619770078871
 20
-3460.208411630277
 10
-111.5467193248601
 20
-3459.909213668454
 10
-111.43883095219
 20
-3459.606173696839
 10
-111.3383713515496
 20
-3459.299691694928
 10
-111.2453999846117
 20
-3458.990167642224
 10
-111.1599763130491
 20
-3458.678001518224
 10
-111.0821597985347
 20
-3458.363593302429
 10
-111.0120099027413
 20
-3458.047342974338
 10
-110.9495860873416
 20
-3457.72965051345
 10
-110.8949478140086
 20
-3457.410915899266
 10
-110.848154544415
 20
-3457.091539111284
 10
-110.8092657402336
 20
-3456.771920129003
 10
-110.7783408631372
 20
-3456.452458931925
 10
-110.7554393747987
 20
-3456.133555499547
 10
-110.7406207368909
 20
-3455.815609811369
 10
-110.7339444110866
 20
-3455.499021846893
 10
-110.7354698590585
 20
-3455.184191585615
 10
-110.7452565424796
 20
-3454.871519007036
 10
-110.7633639230227
 20
-3454.561404090656
 10
-110.7898514623605
 20
-3454.254246815974
 10
-110.8247786221659
 20
-3453.95044716249
 10
-110.8682048641116
 20
-3453.650405109704
 10
-110.9201896498706
 20
-3453.354520637113
 10
-110.9807924411156
 20
-3453.063193724218
 10
-111.0500726995194
 20
-3452.77682435052
 10
-111.1280898867549
 20
-3452.495812495516
 10
-111.2149034644949
 20
-3452.220558138707
 10
-111.3105728944121
 20
-3451.951461259592
 10
-111.4151576381795
 20
-3451.68892183767
 10
-111.5287171574698
 20
-3451.433339852442
 10
-111.6513109139558
 20
-3451.185115283407
 10
-111.7829883871516
 20
-3450.944629284586
 10
-111.9236232391205
 20
-3450.711931433678
 10
-112.0729388366756
 20
-3450.486787864689
 10
-112.2306537083073
 20
-3450.268955586976
 10
-112.3964863825058
 20
-3450.058191609895
 10
-112.5701553877615
 20
-3449.854252942802
 10
-112.7513792525649
 20
-3449.656896595052
 10
-112.9398765054061
 20
-3449.465879576001
 10
-113.1353656747757
 20
-3449.280958895005
 10
-113.3375652891639
 20
-3449.10189156142
 10
-113.5461938770611
 20
-3448.928434584601
 10
-113.7609699669577
 20
-3448.760344973904
 10
-113.9816120873439
 20
-3448.597379738684
 10
-114.2078387667103
 20
-3448.439295888299
 10
-114.439368533547
 20
-3448.285850432101
 10
-114.6759199163445
 20
-3448.136800379449
 10
-114.9172114435932
 20
-3447.991902739698
 10
-115.1629616437833
 20
-3447.850914522203
 10
-115.4128890454053
 20
-3447.71359273632
 10
-115.6667121769494
 20
-3447.579694391405
 10
-115.9241495669061
 20
-3447.448976496813
 10
-116.1849197437657
 20
-3447.321196061901
 10
-116.7153325721549
 20
-3447.073475608536
 10
-117.2556988900399
 20
-3446.834589106157
 10
-117.8037669253436
 20
-3446.60259262961
 10
-118.3572849059888
 20
-3446.37554225374
 10
-119.4716636149948
 20
-3445.928504103415
 10
-120.0280207992013
 20
-3445.704628478652
 10
-120.5808208404406
 20
-3445.477923253949
 10
-121.1278119666355
 20
-3445.246444504153
 10
-121.6669488690532
 20
-3445.008425641319
 10
-122.1978423848465
 20
-3444.763522588079
 10
-122.7208998602335
 20
-3444.512075411244
 10
-123.2365337183933
 20
-3444.254428538374
 10
-123.7451563825054
 20
-3443.990926397024
 10
-124.247180275749
 20
-3443.721913414754
 10
-124.7430178213034
 20
-3443.447734019118
 10
-125.2330814423478
 20
-3443.168732637676
 10
-125.7177835620615
 20
-3442.885253697988
 10
-126.1975366036239
 20
-3442.597641627607
 10
-126.6727529902141
 20
-3442.306240854092
 10
-127.1438451450116
 20
-3442.011395805003
 10
-127.6112254911955
 20
-3441.713450907894
 10
-128.5365004504399
 20
-3441.109639279854
 10
-129.4518772533815
 20
-3440.497561390431
 10
-130.3606552854545
 20
-3439.879972660087
 10
-131.2661339320934
 20
-3439.259628509282
  0
LWPOLYLINE
  5
254
330
1F
100
AcDbEntity
  8
Ech.1_5
 62
   154
420
    21156
370
    20
100
AcDbPolyline
 90
       95
 70
     0
 43
0.0
 10
-113.7105707628194
 20
-3450.944373671532
 10
-113.7293468252394
 20
-3451.479168114724
 10
-113.748321585651
 20
-3452.023358428162
 10
-113.757945570726
 20
-3452.301913245676
 10
-113.7676937420458
 20
-3452.586340482093
 10
-113.7775909368593
 20
-3452.877814621197
 10
-113.7876619924155
 20
-3453.177510146766
 10
-113.7979317459633
 20
-3453.486601542581
 10
-113.8084250347517
 20
-3453.806263292424
 10
-113.8191666960297
 20
-3454.137669880075
 10
-113.8301815670461
 20
-3454.481995789316
 10
-113.8414944850499
 20
-3454.840415503926
 10
-113.8531302872902
 20
-3455.214103507688
 10
-113.8590770316392
 20
-3455.407040144181
 10
-113.8651138110157
 20
-3455.604234284379
 10
-113.8773639305182
 20
-3456.011238873772
 10
-113.8891847540216
 20
-3456.431235071038
 10
-113.8996592314681
 20
-3456.858789008354
 10
-113.907870021419
 20
-3457.288464773542
 10
-113.9128997824355
 20
-3457.714826454426
 10
-113.9138311730788
 20
-3458.132438138827
 10
-113.912473310311
 20
-3458.336264009792
 10
-113.9097468519103
 20
-3458.535863914569
 10
-113.905537130197
 20
-3458.730558364138
 10
-113.8997294774911
 20
-3458.919667869475
 10
-113.8922092261128
 20
-3459.10251294156
 10
-113.8828617083824
 20
-3459.278414091369
 10
-113.8715722566199
 20
-3459.446691829879
 10
-113.8582262031455
 20
-3459.606666668071
 10
-113.8427088802793
 20
-3459.757659116921
 10
-113.8249056203416
 20
-3459.898989687406
 10
-113.8047017556524
 20
-3460.029978890506
 10
-113.7819826185319
 20
-3460.149947237197
 10
-113.7566335413003
 20
-3460.258215238458
 10
-113.7285398562777
 20
-3460.354103405265
 10
-113.6975868957843
 20
-3460.4369322486
 10
-113.6636599921403
 20
-3460.506022279436
 10
-113.6266444776657
 20
-3460.560694008755
 10
-113.5864256846807
 20
-3460.600267947532
 10
-113.565079225097
 20
-3460.614180905148
 10
-113.5428889455056
 20
-3460.624064606745
 10
-113.5198405124467
 20
-3460.629834116196
 10
-113.4959195924604
 20
-3460.631404497373
 10
-113.4711125439852
 20
-3460.628693039289
 10
-113.4454299059059
 20
-3460.621694795086
 10
-113.4189121410761
 20
-3460.610501053156
 10
-113.3916015693323
 20
-3460.595209073938
 10
-113.3347712844486
 20
-3460.552719445386
 10
-113.2752776099469
 20
-3460.495003992927
 10
-113.2134591045192
 20
-3460.422840800059
 10
-113.1496543268576
 20
-3460.337007950279
 10
-113.0842018356538
 20
-3460.238283527083
 10
-113.0174401896
 20
-3460.127445613971
 10
-112.949707947388
 20
-3460.00527229444
 10
-112.8813436677101
 20
-3459.872541651986
 10
-112.812685909258
 20
-3459.730031770108
 10
-112.7440732307238
 20
-3459.578520732302
 10
-112.6758441907995
 20
-3459.418786622068
 10
-112.6083373481771
 20
-3459.2516075229
 10
-112.5418912615484
 20
-3459.077761518298
 10
-112.4768444896057
 20
-3458.898026691758
 10
-112.4135355910408
 20
-3458.71318112678
 10
-112.3523031245457
 20
-3458.524002906859
 10
-112.2374217225328
 20
-3458.135760836178
 10
-112.1349087531031
 20
-3457.739525147699
 10
-112.0891368273369
 20
-3457.540354905529
 10
-112.0474726857924
 20
-3457.341520509401
 10
-112.0102548871616
 20
-3457.143800042812
 10
-111.9778219901366
 20
-3456.947971589261
 10
-111.9505119274186
 20
-3456.754812098923
 10
-111.9285283180714
 20
-3456.564855354392
 10
-111.9117743183144
 20
-3456.378091166524
 10
-111.9001123068427
 20
-3456.194435520668
 10
-111.8934046623513
 20
-3456.013804402175
 10
-111.8915137635352
 20
-3455.836113796398
 10
-111.8943019890894
 20
-3455.661279688687
 10
-111.9016317177088
 20
-3455.489218064392
 10
-111.9133653280884
 20
-3455.319844908865
 10
-111.9293651989233
 20
-3455.153076207458
 10
-111.9494937089085
 20
-3454.988827945522
 10
-111.9736132367388
 20
-3454.827016108405
 10
-112.0015861611094
 20
-3454.66755668146
 10
-112.0332748607152
 20
-3454.51036565004
 10
-112.0685417142512
 20
-3454.355358999492
 10
-112.1072491004124
 20
-3454.202452715171
 10
-112.1944349853903
 20
-3453.902605186604
 10
-112.2937315452089
 20
-3453.61015094715
 10
-112.4040378094282
 20
-3453.324417879617
 10
-112.5242528076081
 20
-3453.044733866811
 10
-112.6532755693084
 20
-3452.770426791541
 10
-112.7900051240891
 20
-3452.500824536616
 10
-112.9333405015102
 20
-3452.235254984841
 10
-113.0821807311317
 20
-3451.973046019028
 10
-113.3919718652153
 20
-3451.456021376512
 10
-113.7105707628194
 20
-3450.944373671532
  0
LWPOLYLINE
  5
255
330
1F
100
AcDbEntity
  8
Ech.1_5
 62
   154
420
    21156
370
    20
100
AcDbPolyline
 90
      171
 70
     0
 43
0.0
 10
-143.6494965382539
 20
-3445.286005011124
 10
-143.3161236699169
 20
-3446.444891113878
 10
-143.1562979907341
 20
-3447.025604735043
 10
-143.0047052175342
 20
-3447.607843039955
 10
-142.8640896523115
 20
-3448.192114256531
 10
-142.7371955970603
 20
-3448.778926612684
 10
-142.6797517300472
 20
-3449.073444539326
 10
-142.6267673537747
 20
-3449.368788336331
 10
-142.5785855059924
 20
-3449.665021532188
 10
-142.5355492244493
 20
-3449.962207655387
 10
-142.4980015468948
 20
-3450.260410234418
 10
-142.4662855110782
 20
-3450.559692797768
 10
-142.4407441547487
 20
-3450.860118873929
 10
-142.4217205156557
 20
-3451.16175199139
 10
-142.4095576315484
 20
-3451.464655678639
 10
-142.4045985401761
 20
-3451.768893464167
 10
-142.4071862792882
 20
-3452.074528876464
 10
-142.4176638866338
 20
-3452.381625444017
 10
-142.4360711438149
 20
-3452.690180808194
 10
-142.4607614982555
 20
-3452.99982622798
 10
-142.5200736942945
 20
-3453.620405695131
 10
-142.5777620838224
 20
-3454.239400162604
 10
-142.6004226801241
 20
-3454.547064332793
 10
-142.6159877195735
 20
-3454.852845826658
 10
-142.6222273337623
 20
-3455.156249168734
 10
-142.6169116542822
 20
-3455.456778883551
 10
-142.5978108127251
 20
-3455.753939495643
 10
-142.5823941222901
 20
-3455.901101552085
 10
-142.5626949406828
 20
-3456.047235529545
 10
-142.5384345343521
 20
-3456.192279493588
 10
-142.509334169747
 20
-3456.336171509784
 10
-142.4751151133165
 20
-3456.478849643698
 10
-142.4354986315095
 20
-3456.620251960896
 10
-142.3902059907751
 20
-3456.760316526945
 10
-142.3389584575622
 20
-3456.898981407412
 10
-142.2814772983197
 20
-3457.036184667863
 10
-142.2175032323852
 20
-3457.171861998191
 10
-142.1470485007825
 20
-3457.305915928846
 10
-142.0703247936616
 20
-3457.438224632657
 10
-141.9875484081745
 20
-3457.568665719824
 10
-141.8989356414729
 20
-3457.69711680055
 10
-141.8047027907089
 20
-3457.823455485037
 10
-141.7050661530343
 20
-3457.947559383487
 10
-141.600242025601
 20
-3458.069306106101
 10
-141.490446705561
 20
-3458.18857326308
 10
-141.3758964900661
 20
-3458.305238464628
 10
-141.2568076762683
 20
-3458.419179320944
 10
-141.1333965613195
 20
-3458.530273442232
 10
-141.0058794423715
 20
-3458.638398438691
 10
-140.8744726165763
 20
-3458.743431920525
 10
-140.7393923810858
 20
-3458.845251497936
 10
-140.6008550330518
 20
-3458.943734781124
 10
-140.4590768696264
 20
-3459.038759380291
 10
-140.3142741879614
 20
-3459.130202905639
 10
-140.1666632852087
 20
-3459.21794296737
 10
-140.0164604585201
 20
-3459.301857175686
 10
-139.8638820050478
 20
-3459.381823140788
 10
-139.7091442219434
 20
-3459.457718472877
 10
-139.552463406359
 20
-3459.529420782157
 10
-139.3940558554464
 20
-3459.596807678827
 10
-139.2341378663575
 20
-3459.659756773091
 10
-139.0729257362444
 20
-3459.718145675149
 10
-138.9106357622587
 20
-3459.771851995202
 10
-138.7474842415526
 20
-3459.820753343455
 10
-138.5836874712779
 20
-3459.864727330108
 10
-138.4194617485863
 20
-3459.903651565362
 10
-138.25502337063
 20
-3459.937403659418
 10
-138.0905886345608
 20
-3459.965861222479
 10
-137.9263738375306
 20
-3459.988901864748
 10
-137.7625952766913
 20
-3460.006403196424
 10
-137.5994692491948
 20
-3460.01824282771
 10
-137.437212052193
 20
-3460.024298368807
 10
-137.2760399828379
 20
-3460.024447429919
 10
-137.1161693382813
 20
-3460.018567621245
 10
-136.957816415675
 20
-3460.006536552987
 10
-136.8011975121713
 20
-3459.988231835349
 10
-136.6465289249217
 20
-3459.96353107853
 10
-136.4940269510783
 20
-3459.932311892733
 10
-136.3439078877929
 20
-3459.89445188816
 10
-136.1963880322175
 20
-3459.849828675011
 10
-136.051683681504
 20
-3459.79831986349
 10
-135.9100111328043
 20
-3459.739803063797
 10
-135.771586259758
 20
-3459.674156791216
 10
-135.6365705126082
 20
-3459.601375868433
 10
-135.5050178891042
 20
-3459.521684753206
 10
-135.3769697929988
 20
-3459.435334817725
 10
-135.2524676280454
 20
-3459.342577434184
 10
-135.1315527979969
 20
-3459.243663974777
 10
-135.0142667066064
 20
-3459.138845811692
 10
-134.900650757627
 20
-3459.028374317124
 10
-134.7907463548119
 20
-3458.912500863267
 10
-134.684594901914
 20
-3458.79147682231
 10
-134.5822378026866
 20
-3458.665553566447
 10
-134.4837164608826
 20
-3458.534982467869
 10
-134.3890722802552
 20
-3458.40001489877
 10
-134.2983466645574
 20
-3458.260902231341
 10
-134.2115810175424
 20
-3458.117895837775
 10
-134.1288167429632
 20
-3457.971247090264
 10
-134.050095244573
 20
-3457.821207361001
 10
-133.9754579261247
 20
-3457.668028022176
 10
-133.9049461913716
 20
-3457.511960445983
 10
-133.8386014440666
 20
-3457.353256004616
 10
-133.7764650879629
 20
-3457.192166070264
 10
-133.7185785268136
 20
-3457.028942015122
 10
-133.6649831643718
 20
-3456.86383521138
 10
-133.6157204043905
 20
-3456.697097031232
 10
-133.5708316506228
 20
-3456.528978846869
 10
-133.5303583068218
 20
-3456.359732030485
 10
-133.4943417767406
 20
-3456.189607954271
 10
-133.4628234641324
 20
-3456.018857990419
 10
-133.4358447727501
 20
-3455.847733511122
 10
-133.413447106347
 20
-3455.676485888572
 10
-133.3956718686759
 20
-3455.505366494962
 10
-133.3825604634901
 20
-3455.334626702484
 10
-133.3741542945427
 20
-3455.164517883328
 10
-133.3704947655867
 20
-3454.99529140969
 10
-133.3716232803752
 20
-3454.82719865376
 10
-133.3775812426614
 20
-3454.660490987731
 10
-133.3884100561982
 20
-3454.495419783796
 10
-133.4041511247388
 20
-3454.332236414145
 10
-133.4248458520363
 20
-3454.171192250973
 10
-133.4505356418438
 20
-3454.012538666471
 10
-133.4812618979143
 20
-3453.85652703283
 10
-133.517066024001
 20
-3453.703408722246
 10
-133.5579894238568
 20
-3453.553435106907
 10
-133.6040735012351
 20
-3453.406857559008
 10
-133.6553596598887
 20
-3453.263927450739
 10
-133.7118893035708
 20
-3453.124896154295
 10
-133.7737038360345
 20
-3452.990015041868
 10
-133.8408446610329
 20
-3452.859535485648
 10
-133.913345469027
 20
-3452.733694742733
 10
-133.9911159390602
 20
-3452.612503132979
 10
-134.0739656882407
 20
-3452.495787865853
 10
-134.1617014795267
 20
-3452.383370927811
 10
-134.2541300758766
 20
-3452.275074305312
 10
-134.3510582402487
 20
-3452.170719984812
 10
-134.4522927356013
 20
-3452.070129952767
 10
-134.5576403248927
 20
-3451.973126195634
 10
-134.6669077710812
 20
-3451.879530699869
 10
-134.7799018371251
 20
-3451.789165451932
 10
-134.8964292859827
 20
-3451.701852438275
 10
-135.0162968806124
 20
-3451.617413645358
 10
-135.1393113839725
 20
-3451.535671059637
 10
-135.3940081687169
 20
-3451.379562455612
 10
-135.6589737438825
 20
-3451.23210251785
 10
-135.9326622131359
 20
-3451.09186713801
 10
-136.2135276801434
 20
-3450.957432207743
 10
-136.5000242485715
 20
-3450.827373618704
 10
-137.0837271043559
 20
-3450.574689030929
 10
-137.6714036098208
 20
-3450.322420507917
 10
-137.9628672403498
 20
-3450.192881999834
 10
-138.2506865942984
 20
-3450.059175182905
 10
-138.5333157753331
 20
-3449.919875948783
 10
-138.8092801055267
 20
-3449.773627162773
 10
-139.0781241799898
 20
-3449.620030212542
 10
-139.3401541749257
 20
-3449.459402675125
 10
-139.5956945703118
 20
-3449.292079340384
 10
-139.8450698461257
 20
-3449.118394998189
 10
-140.0886044823447
 20
-3448.938684438404
 10
-140.3266229589465
 20
-3448.753282450898
 10
-140.5594497559085
 20
-3448.562523825532
 10
-140.7874093532082
 20
-3448.366743352176
 10
-141.0108262308231
 20
-3448.166275820695
 10
-141.2300248687306
 20
-3447.961456020955
 10
-141.4453297469082
 20
-3447.752618742822
 10
-141.6570653453335
 20
-3447.540098776161
 10
-141.865556143984
 20
-3447.324230910842
 10
-142.071126622837
 20
-3447.105349936726
 10
-142.4748045410609
 20
-3446.659887821575
 10
-142.870694939825
 20
-3446.206390749639
 10
-143.6494965382539
 20
-3445.286005011124
  0
LWPOLYLINE
  5
256
330
1F
100
AcDbEntity
  8
Ech.1_5
 62
   154
420
    21156
370
    20
100
AcDbPolyline
 90
       70
 70
     0
 43
0.0
 10
-134.8717155172366
 20
-3452.739386135862
 10
-134.9148829112943
 20
-3453.010693564588
 10
-134.9580376217722
 20
-3453.286533223006
 10
-135.0011669650903
 20
-3453.57143734081
 10
-135.044258257669
 20
-3453.869938147693
 10
-135.0657856713123
 20
-3454.025703631318
 10
-135.0872988159282
 20
-3454.186567873347
 10
-135.1087961060694
 20
-3454.353097402494
 10
-135.1302759562884
 20
-3454.525858747467
 10
-135.1517367811375
 20
-3454.705418436979
 10
-135.1731769951694
 20
-3454.892342999743
 10
-135.1945950129366
 20
-3455.087198964469
 10
-135.2159396657774
 20
-3455.290312963626
 10
-135.2367399374712
 20
-3455.499980300049
 10
-135.2563135001438
 20
-3455.713473896866
 10
-135.2890447617981
 20
-3456.141000477779
 10
-135.3008345924663
 20
-3456.349563764925
 10
-135.3086619774863
 20
-3456.551013918562
 10
-135.3118429827012
 20
-3456.742616090214
 10
-135.3096936739543
 20
-3456.921635431407
 10
-135.3064064224213
 20
-3457.005571900432
 10
-135.301530117089
 20
-3457.085337093664
 10
-135.2949792661879
 20
-3457.160589155043
 10
-135.2866683779484
 20
-3457.23098622851
 10
-135.2765119606008
 20
-3457.296186458005
 10
-135.2644245223757
 20
-3457.355847987468
 10
-135.2503205715034
 20
-3457.409628960841
 10
-135.2341146162143
 20
-3457.457187522064
 10
-135.2157211647389
 20
-3457.498181815078
 10
-135.1950547253074
 20
-3457.532269983821
 10
-135.1720298061504
 20
-3457.559110172238
 10
-135.1465609154983
 20
-3457.578360524265
 10
-135.1185625615814
 20
-3457.589679183846
 10
-135.0879566968092
 20
-3457.592741499898
 10
-135.0548147420798
 20
-3457.587568272771
 10
-135.0193464187076
 20
-3457.574499942601
 10
-134.9817666543471
 20
-3457.553888982413
 10
-134.9422903766532
 20
-3457.526087865234
 10
-134.9011325132807
 20
-3457.49144906409
 10
-134.8585079918844
 20
-3457.450325052006
 10
-134.814631740119
 20
-3457.403068302008
 10
-134.7697186856394
 20
-3457.350031287122
 10
-134.7239837561003
 20
-3457.291566480374
 10
-134.6776418791565
 20
-3457.22802635479
 10
-134.6309079824628
 20
-3457.159763383395
 10
-134.583996993674
 20
-3457.087130039217
 10
-134.4905034504301
 20
-3456.93016212461
 10
-134.3988806706631
 20
-3456.759942395178
 10
-134.3108480756113
 20
-3456.579290635127
 10
-134.2281250865131
 20
-3456.391026628663
 10
-134.1524311246065
 20
-3456.197970159995
 10
-134.08548561113
 20
-3456.00294101333
 10
-134.0290079673218
 20
-3455.808758972874
 10
-133.984711954475
 20
-3455.618236523948
 10
-133.9535625674409
 20
-3455.433220566275
 10
-133.9350348752836
 20
-3455.253636638255
 10
-133.9284276727324
 20
-3455.079182960465
 10
-133.9330397545161
 20
-3454.909557753475
 10
-133.9481699153639
 20
-3454.744459237864
 10
-133.9731169500049
 20
-3454.583585634206
 10
-134.0071796531681
 20
-3454.426635163074
 10
-134.0496568195825
 20
-3454.273306045045
 10
-134.0998472439774
 20
-3454.123296500693
 10
-134.1570497210815
 20
-3453.976304750592
 10
-134.2205630456241
 20
-3453.832029015318
 10
-134.2896860123342
 20
-3453.690167515446
 10
-134.363717415941
 20
-3453.55041847155
 10
-134.5237007127603
 20
-3453.276050633986
 10
-134.6949032939147
 20
-3453.006511267223
 10
-134.8717155172366
 20
-3452.739386135862
  0
CIRCLE
  5
257
330
1F
100
AcDbEntity
  8
Ech.1_5
 62
   154
420
    21156
370
    50
100
AcDbCircle
 10
-130.431856279981
 20
-3451.508837096717
 30
0.0
 40
29.99694606438629
  0
HATCH
  5
258
330
1F
100
AcDbEntity
  8
Ech.1_5
 62
    35
420
  9529928
440
 33554687
370
    20
100
AcDbHatch
 10
0.0
 20
0.0
 30
0.0
210
0.0
220
0.0
230
1.0
  2
SOLID
 70
     1
 71
     1
 91
        1
 92
        3
 72
     0
 73
     1
 93
        4
 10
-279.7564031085371
 20
-3581.862865136754
 10
-279.7564031085371
 20
-3457.957775907395
 10
-290.5564031085647
 20
-3457.957775907395
 10
-290.556403108537
 20
-3581.862865136754
 97
        0
 75
     0
 76
     1
 98
        0
  0
LWPOLYLINE
  5
259
330
1F
100
AcDbEntity
  8
Ech.1_5
 62
   190
370
    20
100
AcDbPolyline
 90
        5
 70
     0
 43
0.0
 10
-279.7564031085371
 20
-3581.862865136754
 10
-279.7564031085371
 20
-3457.957775907395
 10
-290.5564031085647
 20
-3457.957775907395
 10
-290.556403108537
 20
-3581.862865136754
 10
-279.7564031085371
 20
-3581.862865136754
  0
LWPOLYLINE
  5
25A
330
1F
100
AcDbEntity
  8
Ech.1_5
 62
     7
370
    20
100
AcDbPolyline
 90
        3
 70
     0
 43
0.0
 10
-279.7564031085371
 20
-3581.862865136754
 10
-290.556403108537
 20
-3581.862865136754
 10
-290.556403108537
 20
-3457.957775907395
  0
HATCH
  5
25B
330
1F
100
AcDbEntity
  8
Ech.1_5
 62
    17
420
  8405056
440
 33554687
370
    20
100
AcDbHatch
 10
0.0
 20
0.0
 30
0.0
210
0.0
220
0.0
230
1.0
  2
SOLID
 70
     1
 71
     1
 91
        1
 92
        3
 72
     0
 73
     1
 93
        4
 10
-301.3564031085371
 20
-3581.862865136754
 10
-301.3564031085371
 20
-3457.957829291689
 10
-311.7792375951212
 20
-3457.957775907395
 10
-311.7792375951212
 20
-3581.862865136754
 97
        0
 75
     0
 76
     1
 98
        0
  0
LWPOLYLINE
  5
25C
330
1F
100
AcDbEntity
  8
Ech.1_5
 62
     7
370
    20
100
AcDbPolyline
 90
        5
 70
     0
 43
0.0
 10
-301.3564031085371
 20
-3581.862865136754
 10
-301.3564031085371
 20
-3457.957829291689
 10
-311.7792375951212
 20
-3457.957775907395
 10
-311.7792375951212
 20
-3581.862865136754
 10
-301.3564031085371
 20
-3581.862865136754
  0
HATCH
  5
25D
330
1F
100
AcDbEntity
  8
Ech.1_5
 62
    35
420
  9529928
440
 33554687
370
    20
100
AcDbHatch
 10
0.0
 20
0.0
 30
0.0
210
0.0
220
0.0
230
1.0
  2
SOLID
 70
     1
 71
     1
 91
        1
 92
        3
 72
     0
 73
     1
 93
        4
 10
-301.3564031085371
 20
-3565.862864945902
 10
-301.3564031085371
 20
-3581.862865136754
 10
-290.556403108537
 20
-3581.862865136754
 10
-290.556403108537
 20
-3565.862865136754
 97
        0
 75
     0
 76
     1
 98
        0
  0
LWPOLYLINE
  5
25E
330
1F
100
AcDbEntity
  8
Ech.1_5
 62
   190
370
    20
100
AcDbPolyline
 90
        5
 70
     0
 43
0.0
 10
-301.3564031085371
 20
-3565.862864945902
 10
-301.3564031085371
 20
-3581.862865136754
 10
-290.556403108537
 20
-3581.862865136754
 10
-290.556403108537
 20
-3565.862865136754
 10
-301.3564031085371
 20
-3565.862864945902
  0
LWPOLYLINE
  5
25F
330
1F
100
AcDbEntity
  8
Ech.1_5
 62
   190
370
    20
100
AcDbPolyline
 90
        4
 70
     0
 43
0.0
 10
-290.556403108537
 20
-3565.862865136754
 10
-301.3564031085371
 20
-3581.862865136754
 10
-290.556403108537
 20
-3581.862865136754
 10
-301.3564031085371
 20
-3565.862910270375
  0
LWPOLYLINE
  5
260
330
1F
100
AcDbEntity
  8
Ech.1_5
 62
     5
370
    20
100
AcDbPolyline
 90
        5
 70
     0
 43
0.0
 10
-301.3564031085371
 20
-3565.862910270375
 10
-301.3564031085371
 20
-3581.862865136754
 10
-290.556403108537
 20
-3581.862865136754
 10
-290.556403108537
 20
-3565.862865136754
 10
-301.3564031085371
 20
-3565.862910270375
  0
LWPOLYLINE
  5
261
330
1F
100
AcDbEntity
  8
Ech.1_5
 62
     7
370
    20
100
AcDbPolyline
 90
        4
 70
     0
 43
0.0
 10
-311.7792375951212
 20
-3457.957775907395
 10
-311.7792375951212
 20
-3581.862865136754
 10
-301.3564031085371
 20
-3581.862865136754
 10
-301.3564031085371
 20
-3457.957829291689
  0
HATCH
  5
262
330
1F
100
AcDbEntity
  8
Ech.1_5
 62
    35
420
  9529928
440
 33554687
370
    20
100
AcDbHatch
 10
0.0
 20
0.0
 30
0.0
210
0.0
220
0.0
230
1.0
  2
SOLID
 70
     1
 71
     1
 91
        1
 92
        3
 72
     0
 73
     1
 93
        4
 10
-279.7564031085378
 20
-3657.537497579926
 10
-290.5564031085378
 20
-3657.537497579926
 10
-290.5564031085618
 20
-3779.113966107259
 10
-279.7564031085363
 20
-3779.113966107259
 97
        0
 75
     0
 76
     1
 98
        0
  0
LWPOLYLINE
  5
263
330
1F
100
AcDbEntity
  8
Ech.1_5
 62
   190
370
    20
100
AcDbPolyline
 90
        5
 70
     0
 43
0.0
 10
-279.7564031085378
 20
-3657.537497579926
 10
-290.5564031085378
 20
-3657.537497579926
 10
-290.5564031085618
 20
-3779.113966107259
 10
-279.7564031085363
 20
-3779.113966107259
 10
-279.7564031085378
 20
-3657.537497579926
  0
LWPOLYLINE
  5
264
330
1F
100
AcDbEntity
  8
Ech.1_5
 62
     7
370
    20
100
AcDbPolyline
 90
        3
 70
     0
 43
0.0
 10
-279.7564031085378
 20
-3657.537497579926
 10
-290.5564031085378
 20
-3657.537497579926
 10
-290.5564031085378
 20
-3779.113966107259
  0
HATCH
  5
265
330
1F
100
AcDbEntity
  8
Ech.1_5
 62
    17
420
  8405056
440
 33554687
370
    20
100
AcDbHatch
 10
0.0
 20
0.0
 30
0.0
210
0.0
220
0.0
230
1.0
  2
SOLID
 70
     1
 71
     1
 91
        1
 92
        3
 72
     0
 73
     1
 93
        4
 10
-301.3564031085378
 20
-3657.537497579926
 10
-311.779237595122
 20
-3657.537497579926
 10
-311.779237595122
 20
-3779.113966107259
 10
-301.3764653698716
 20
-3779.113966107259
 97
        0
 75
     0
 76
     1
 98
        0
  0
LWPOLYLINE
  5
266
330
1F
100
AcDbEntity
  8
Ech.1_5
 62
     7
370
    20
100
AcDbPolyline
 90
        5
 70
     0
 43
0.0
 10
-301.3564031085378
 20
-3657.537497579926
 10
-311.779237595122
 20
-3657.537497579926
 10
-311.779237595122
 20
-3779.113966107259
 10
-301.3764653698716
 20
-3779.113966107259
 10
-301.3564031085378
 20
-3657.537497579926
  0
HATCH
  5
267
330
1F
100
AcDbEntity
  8
Ech.1_5
 62
    35
420
  9529928
440
 33554687
370
    20
100
AcDbHatch
 10
0.0
 20
0.0
 30
0.0
210
0.0
220
0.0
230
1.0
  2
SOLID
 70
     1
 71
     1
 91
        1
 92
        3
 72
     0
 73
     1
 93
        4
 10
-301.3564031085371
 20
-3673.537497770779
 10
-301.3564031085371
 20
-3657.537497579926
 10
-290.556403108537
 20
-3657.537497579926
 10
-290.556403108537
 20
-3673.537497579926
 97
        0
 75
     0
 76
     1
 98
        0
  0
LWPOLYLINE
  5
268
330
1F
100
AcDbEntity
  8
Ech.1_5
 62
   190
370
    20
100
AcDbPolyline
 90
        5
 70
     0
 43
0.0
 10
-301.3564031085371
 20
-3673.537497770779
 10
-301.3564031085371
 20
-3657.537497579926
 10
-290.556403108537
 20
-3657.537497579926
 10
-290.556403108537
 20
-3673.537497579926
 10
-301.3564031085371
 20
-3673.537497770779
  0
LWPOLYLINE
  5
269
330
1F
100
AcDbEntity
  8
Ech.1_5
 62
   190
370
    20
100
AcDbPolyline
 90
        4
 70
     0
 43
0.0
 10
-290.556403108537
 20
-3673.537497579926
 10
-301.3564031085371
 20
-3657.537497579926
 10
-290.556403108537
 20
-3657.537497579926
 10
-301.3564031085371
 20
-3673.537452446306
  0
LWPOLYLINE
  5
26A
330
1F
100
AcDbEntity
  8
Ech.1_5
 62
     5
370
    20
100
AcDbPolyline
 90
        5
 70
     0
 43
0.0
 10
-301.3564031085371
 20
-3673.537452446306
 10
-301.3564031085371
 20
-3657.537497579926
 10
-290.556403108537
 20
-3657.537497579926
 10
-290.556403108537
 20
-3673.537497579926
 10
-301.3564031085371
 20
-3673.537452446306
  0
LWPOLYLINE
  5
26B
330
1F
100
AcDbEntity
  8
Ech.1_5
 62
     7
370
    20
100
AcDbPolyline
 90
        4
 70
     0
 43
0.0
 10
-311.779237595122
 20
-3779.113966107259
 10
-311.779237595122
 20
-3657.537497579926
 10
-301.3564031085378
 20
-3657.537497579926
 10
-301.3764653698716
 20
-3779.113966107259
  0
LWPOLYLINE
  5
26C
330
1F
100
AcDbEntity
  8
Ech.1_5
 62
   190
370
    20
100
AcDbPolyline
 90
        6
 70
     0
 43
0.0
 10
-317.7792375951212
 20
-3457.957878925007
 10
-242.1564031085371
 20
-3457.957619755427
 10
-235.562201846172
 20
-3450.766680392475
 10
-241.2061778532945
 20
-3465.148960397198
 10
-234.6116362206951
 20
-3457.957619755427
 10
-201.7564031084148
 20
-3457.957812539338
  0
LWPOLYLINE
  5
26D
330
1F
100
AcDbEntity
  8
Ech.1_5
 62
   190
370
    20
100
AcDbPolyline
 90
        3
 70
     0
 43
0.0
 10
-244.1447302371635
 20
-3495.20980532972
 10
-322.9945338565238
 20
-3495.20980532972
 10
-330.9945338565238
 20
-3495.20980532972
  0
INSERT
  5
26E
330
1F
100
AcDbEntity
  8
Ech.1_5
 62
   190
370
    20
100
AcDbBlockReference
  2
cw-line-extremity4
 10
-244.1447302371635
 20
-3495.20980532972
 30
0.0
 50
180.0
  0
LWPOLYLINE
  5
26F
330
1F
100
AcDbEntity
  8
Ech.1_5
 62
   190
370
    20
100
AcDbPolyline
 90
        3
 70
     0
 43
0.0
 10
-305.522759114061
 20
-3526.563469846009
 10
-322.9945338565238
 20
-3526.563469846009
 10
-330.9945338565238
 20
-3526.563469846009
  0
INSERT
  5
270
330
1F
100
AcDbEntity
  8
Ech.1_5
 62
   190
370
    20
100
AcDbBlockReference
  2
cw-line-extremity4
 10
-305.522759114061
 20
-3526.563469846009
 30
0.0
 50
180.0
  0
LWPOLYLINE
  5
271
330
1F
100
AcDbEntity
  8
Ech.1_5
 62
   190
370
    20
100
AcDbPolyline
 90
        3
 70
     0
 43
0.0
 10
-286.9775469385372
 20
-3471.042683519348
 10
-322.9945338565238
 20
-3471.042683519348
 10
-330.9945338565238
 20
-3471.042683519348
  0
INSERT
  5
272
330
1F
100
AcDbEntity
  8
Ech.1_5
 62
   190
370
    20
100
AcDbBlockReference
  2
cw-line-extremity4
 10
-286.9775469385372
 20
-3471.042683519348
 30
0.0
 50
180.0
  0
LWPOLYLINE
  5
273
330
1F
100
AcDbEntity
  8
Ech.1_5
 62
   190
370
    20
100
AcDbPolyline
 90
        6
 70
     0
 43
0.0
 10
-317.7792375951212
 20
-3779.113966107259
 10
-242.1564031085371
 20
-3779.11370693768
 10
-235.562201846172
 20
-3771.922767574727
 10
-241.2061778532945
 20
-3786.30504757945
 10
-234.6116362206951
 20
-3779.11370693768
 10
-201.7564031084148
 20
-3779.113899721591
  0
LWPOLYLINE
  5
274
330
1F
100
AcDbEntity
  8
Ech.1_5
 62
   190
370
    20
100
AcDbPolyline
 90
        3
 70
     0
 43
0.0
 10
-181.7309677448829
 20
-3633.722289342372
 10
-178.5063963736328
 20
-3675.948130137302
 10
-170.5063963736328
 20
-3675.948130137302
  0
INSERT
  5
275
330
1F
100
AcDbEntity
  8
Ech.1_5
 62
   190
370
    20
100
AcDbBlockReference
  2
cw-line-extremity4
 10
-181.7309677448829
 20
-3633.722289342372
 30
0.0
 50
274.3669099476151
  0
LWPOLYLINE
  5
276
330
1F
100
AcDbEntity
  8
Ech.1_5
 62
   190
370
    20
100
AcDbPolyline
 90
        3
 70
     0
 43
0.0
 10
-280.9564031084876
 20
-3659.45222061495
 10
-322.9945338565238
 20
-3721.019142819152
 10
-330.9945338565238
 20
-3721.019142819152
  0
INSERT
  5
277
330
1F
100
AcDbEntity
  8
Ech.1_5
 62
   190
370
    20
100
AcDbBlockReference
  2
cw-line-extremity4
 10
-280.9564031084876
 20
-3659.45222061495
 30
0.0
 50
235.6745886977212
  0
LWPOLYLINE
  5
278
330
1F
100
AcDbEntity
  8
Ech.1_5
 62
   202
420
  8519880
370
    50
100
AcDbPolyline
 90
        4
 70
     0
 43
0.0
 10
-293.9407073341128
 20
-3583.896231926987
 10
-285.9471664960838
 20
-3583.880898675989
 42
0.4006337679865642
 10
-280.9564031084876
 20
-3579.914775311496
 10
-280.9564031084876
 20
-3562.314794404866
  0
LWPOLYLINE
  5
279
330
1F
100
AcDbEntity
  8
Ech.1_5
 62
   202
420
  8519880
370
    50
100
AcDbPolyline
 90
        4
 70
     0
 43
0.0
 10
-279.7564031085909
 20
-3554.152780290056
 10
-279.7564031085909
 20
-3560.148433658076
 10
-282.0286482933887
 20
-3561.722326514442
 10
-282.0286482933887
 20
-3569.113698514799
  0
LWPOLYLINE
  5
27A
330
1F
100
AcDbEntity
  8
Ech.1_5
 62
   202
420
  8519880
370
    50
100
AcDbPolyline
 90
        4
 70
     0
 43
0.0
 10
-279.7564031084701
 20
-3683.703504325447
 10
-279.7564031084701
 20
-3678.507850957403
 10
-282.0286482932679
 20
-3676.93395810106
 10
-282.0286482932679
 20
-3671.542586100681
  0
LWPOLYLINE
  5
27B
330
1F
100
AcDbEntity
  8
Ech.1_5
 62
   202
420
  8519880
370
    50
100
AcDbPolyline
 90
        4
 70
     0
 43
0.0
 10
-293.9407073341128
 20
-3655.470763999459
 10
-285.9471664960838
 20
-3655.486097250457
 42
-0.4006337679865642
 10
-280.9564031084876
 20
-3659.45222061495
 10
-280.9564031084876
 20
-3677.05220152158
  0
LWPOLYLINE
  5
27C
330
1F
100
AcDbEntity
  8
Ech.1_5
 62
   190
370
    20
100
AcDbPolyline
 90
        3
 70
     0
 43
0.0
 10
-296.7968835887652
 20
-3669.684226625766
 10
-322.9945338565238
 20
-3679.093634960012
 10
-330.9945338565238
 20
-3679.093634960012
  0
INSERT
  5
27D
330
1F
100
AcDbEntity
  8
Ech.1_5
 62
   190
370
    20
100
AcDbBlockReference
  2
cw-line-extremity4
 10
-296.7968835887652
 20
-3669.684226625766
 30
0.0
 50
199.7567624927888
  0
LINE
  5
27E
330
1F
100
AcDbEntity
  8
Ech.1_5
 62
   190
370
     9
100
AcDbLine
 10
-312.1236819951941
 20
-3572.855365136759
 30
0.0
 11
-312.1236819951941
 21
-3574.87036513675
 31
0.0
  0
LINE
  5
27F
330
1F
100
AcDbEntity
  8
Ech.1_5
 62
   190
370
     9
100
AcDbLine
 10
-312.0014599948336
 20
-3574.87036513675
 30
0.0
 11
-312.1236819951941
 21
-3574.87036513675
 31
0.0
  0
HATCH
  5
280
330
1F
100
AcDbEntity
  8
Ech.1_5
 62
   252
440
 33554687
370
     5
100
AcDbHatch
 10
0.0
 20
0.0
 30
0.0
210
0.0
220
0.0
230
1.0
  2
SOLID
 70
     1
 71
     1
 91
        1
 92
        3
 72
     0
 73
     1
 93
        4
 10
-296.0792379943552
 20
-3574.314809536776
 10
-295.7459043947878
 20
-3574.314809536776
 10
-295.7459043947878
 20
-3573.410920736757
 10
-296.0792379943552
 20
-3573.410920736757
 97
        0
 75
     0
 76
     1
 98
        0
  0
LWPOLYLINE
  5
281
330
1F
100
AcDbEntity
  8
Ech.1_5
 62
     7
370
     9
100
AcDbPolyline
 90
        5
 70
     0
 43
0.0
 10
-296.0792379943552
 20
-3574.314809536776
 10
-295.7459043947878
 20
-3574.314809536776
 10
-295.7459043947878
 20
-3573.410920736757
 10
-296.0792379943552
 20
-3573.410920736757
 10
-296.0792379943552
 20
-3574.314809536776
  0
LINE
  5
282
330
1F
100
AcDbEntity
  8
Ech.1_5
 62
   190
370
     9
100
AcDbLine
 10
-292.4366105111316
 20
-3573.410920736757
 30
0.0
 11
-311.779237595122
 21
-3573.410920736757
 31
0.0
  0
LINE
  5
283
330
1F
100
AcDbEntity
  8
Ech.1_5
 62
   190
370
     9
100
AcDbLine
 10
-292.4366105111316
 20
-3574.314809536776
 30
0.0
 11
-311.758219935844
 21
-3574.314809536776
 31
0.0
  0
ARC
  5
284
330
1F
100
AcDbEntity
  8
Ech.1_5
 62
   190
370
     9
100
AcDbCircle
 10
-307.0984006388568
 20
-3573.862865136766
 30
0.0
 40
5.125281356337247
100
AcDbArc
 50
168.6632793503192
 51
191.3367206496807
  0
LINE
  5
285
330
1F
100
AcDbEntity
  8
Ech.1_5
 62
   190
370
     9
100
AcDbLine
 10
-312.0014599948329
 20
-3572.855365136759
 30
0.0
 11
-312.0014599948336
 21
-3573.18869833674
 31
0.0
  0
ARC
  5
286
330
1F
100
AcDbEntity
  8
Ech.1_5
 62
   190
370
     9
100
AcDbCircle
 10
-311.779237598874
 20
-3573.188698340798
 30
0.0
 40
0.2222223959595107
100
AcDbArc
 50
179.9999989537972
 51
270.0000009673976
  0
LINE
  5
287
330
1F
100
AcDbEntity
  8
Ech.1_5
 62
   190
370
     9
100
AcDbLine
 10
-312.0014599948336
 20
-3573.18869833674
 30
0.0
 11
-312.0014599948336
 21
-3574.537031936767
 31
0.0
  0
ARC
  5
288
330
1F
100
AcDbEntity
  8
Ech.1_5
 62
   190
370
     9
100
AcDbCircle
 10
-311.7792375989191
 20
-3574.53703193269
 30
0.0
 40
0.2222223959144852
100
AcDbArc
 50
89.99999902098024
 51
180.0000010511272
  0
LINE
  5
289
330
1F
100
AcDbEntity
  8
Ech.1_5
 62
   190
370
     9
100
AcDbLine
 10
-312.0014599948336
 20
-3574.87036513675
 30
0.0
 11
-312.0014599948336
 21
-3574.537031936767
 31
0.0
  0
LINE
  5
28A
330
1F
100
AcDbEntity
  8
Ech.1_5
 62
   190
370
     9
100
AcDbLine
 10
-307.7459043947878
 20
-3573.410920736757
 30
0.0
 11
-307.7459043947878
 21
-3574.314809536776
 31
0.0
  0
LINE
  5
28B
330
1F
100
AcDbEntity
  8
Ech.1_5
 62
   190
370
     9
100
AcDbLine
 10
-307.4125711945715
 20
-3573.410920736757
 30
0.0
 11
-307.4125711945715
 21
-3574.314809536776
 31
0.0
  0
LINE
  5
28C
330
1F
100
AcDbEntity
  8
Ech.1_5
 62
   190
370
     9
100
AcDbLine
 10
-308.7459043947878
 20
-3573.410920736757
 30
0.0
 11
-308.7459043947878
 21
-3574.314809536776
 31
0.0
  0
LINE
  5
28D
330
1F
100
AcDbEntity
  8
Ech.1_5
 62
   190
370
     9
100
AcDbLine
 10
-308.4125711945715
 20
-3573.410920736757
 30
0.0
 11
-308.4125711945715
 21
-3574.314809536776
 31
0.0
  0
LINE
  5
28E
330
1F
100
AcDbEntity
  8
Ech.1_5
 62
   190
370
     9
100
AcDbLine
 10
-308.0792379943553
 20
-3573.410920736757
 30
0.0
 11
-308.0792379943553
 21
-3574.314809536776
 31
0.0
  0
LINE
  5
28F
330
1F
100
AcDbEntity
  8
Ech.1_5
 62
   190
370
     9
100
AcDbLine
 10
-309.7459043947878
 20
-3573.410920736757
 30
0.0
 11
-309.7459043947878
 21
-3574.314809536776
 31
0.0
  0
LINE
  5
290
330
1F
100
AcDbEntity
  8
Ech.1_5
 62
   190
370
     9
100
AcDbLine
 10
-309.4125711945715
 20
-3573.410920736757
 30
0.0
 11
-309.4125711945715
 21
-3574.314809536776
 31
0.0
  0
LINE
  5
291
330
1F
100
AcDbEntity
  8
Ech.1_5
 62
   190
370
     9
100
AcDbLine
 10
-309.0792379943553
 20
-3573.410920736757
 30
0.0
 11
-309.0792379943553
 21
-3574.314809536776
 31
0.0
  0
LINE
  5
292
330
1F
100
AcDbEntity
  8
Ech.1_5
 62
   190
370
     9
100
AcDbLine
 10
-310.0792379943553
 20
-3573.410920736757
 30
0.0
 11
-310.0792379943553
 21
-3574.314809536776
 31
0.0
  0
LINE
  5
293
330
1F
100
AcDbEntity
  8
Ech.1_5
 62
   190
370
     9
100
AcDbLine
 10
-310.4125711945715
 20
-3573.410920736757
 30
0.0
 11
-310.4125711945715
 21
-3574.314809536776
 31
0.0
  0
LINE
  5
294
330
1F
100
AcDbEntity
  8
Ech.1_5
 62
   190
370
     9
100
AcDbLine
 10
-310.7459043947878
 20
-3573.410920736757
 30
0.0
 11
-310.7459043947878
 21
-3574.314809536776
 31
0.0
  0
LINE
  5
295
330
1F
100
AcDbEntity
  8
Ech.1_5
 62
   190
370
     9
100
AcDbLine
 10
-311.0792379943553
 20
-3573.410920736757
 30
0.0
 11
-311.0792379943553
 21
-3574.314809536772
 31
0.0
  0
LINE
  5
296
330
1F
100
AcDbEntity
  8
Ech.1_5
 62
   190
370
     9
100
AcDbLine
 10
-297.0792379943552
 20
-3573.410920736757
 30
0.0
 11
-297.0792379943552
 21
-3574.314809536776
 31
0.0
  0
LINE
  5
297
330
1F
100
AcDbEntity
  8
Ech.1_5
 62
   190
370
     9
100
AcDbLine
 10
-297.4125711945715
 20
-3573.410920736757
 30
0.0
 11
-297.4125711945715
 21
-3574.314809536776
 31
0.0
  0
LINE
  5
298
330
1F
100
AcDbEntity
  8
Ech.1_5
 62
   190
370
     9
100
AcDbLine
 10
-296.7459043947878
 20
-3573.410920736757
 30
0.0
 11
-296.7459043947878
 21
-3574.314809536776
 31
0.0
  0
LINE
  5
299
330
1F
100
AcDbEntity
  8
Ech.1_5
 62
   190
370
     9
100
AcDbLine
 10
-298.4125711945715
 20
-3573.410920736757
 30
0.0
 11
-298.4125711945715
 21
-3574.314809536776
 31
0.0
  0
LINE
  5
29A
330
1F
100
AcDbEntity
  8
Ech.1_5
 62
   190
370
     9
100
AcDbLine
 10
-298.0792379943552
 20
-3573.410920736757
 30
0.0
 11
-298.0792379943552
 21
-3574.314809536776
 31
0.0
  0
LINE
  5
29B
330
1F
100
AcDbEntity
  8
Ech.1_5
 62
   190
370
     9
100
AcDbLine
 10
-297.7459043947878
 20
-3573.410920736757
 30
0.0
 11
-297.7459043947878
 21
-3574.314809536776
 31
0.0
  0
LINE
  5
29C
330
1F
100
AcDbEntity
  8
Ech.1_5
 62
   190
370
     9
100
AcDbLine
 10
-299.4125711945715
 20
-3573.410920736757
 30
0.0
 11
-299.4125711945715
 21
-3574.314809536776
 31
0.0
  0
LINE
  5
29D
330
1F
100
AcDbEntity
  8
Ech.1_5
 62
   190
370
     9
100
AcDbLine
 10
-299.0792379943552
 20
-3573.410920736757
 30
0.0
 11
-299.0792379943552
 21
-3574.314809536776
 31
0.0
  0
LINE
  5
29E
330
1F
100
AcDbEntity
  8
Ech.1_5
 62
   190
370
     9
100
AcDbLine
 10
-298.7459043947878
 20
-3573.410920736757
 30
0.0
 11
-298.7459043947878
 21
-3574.314809536776
 31
0.0
  0
LINE
  5
29F
330
1F
100
AcDbEntity
  8
Ech.1_5
 62
   190
370
     9
100
AcDbLine
 10
-300.4125711945715
 20
-3573.410920736757
 30
0.0
 11
-300.4125711945715
 21
-3574.314809536776
 31
0.0
  0
LINE
  5
2A0
330
1F
100
AcDbEntity
  8
Ech.1_5
 62
   190
370
     9
100
AcDbLine
 10
-300.0792379943552
 20
-3573.410920736757
 30
0.0
 11
-300.0792379943552
 21
-3574.314809536776
 31
0.0
  0
LINE
  5
2A1
330
1F
100
AcDbEntity
  8
Ech.1_5
 62
   190
370
     9
100
AcDbLine
 10
-299.7459043947878
 20
-3573.410920736757
 30
0.0
 11
-299.7459043947878
 21
-3574.314809536776
 31
0.0
  0
LINE
  5
2A2
330
1F
100
AcDbEntity
  8
Ech.1_5
 62
   190
370
     9
100
AcDbLine
 10
-300.7459043947878
 20
-3573.410920736757
 30
0.0
 11
-300.7459043947878
 21
-3574.314809536776
 31
0.0
  0
LINE
  5
2A3
330
1F
100
AcDbEntity
  8
Ech.1_5
 62
   190
370
     9
100
AcDbLine
 10
-306.0792379943552
 20
-3573.410920736757
 30
0.0
 11
-306.0792379943552
 21
-3574.314809536776
 31
0.0
  0
LINE
  5
2A4
330
1F
100
AcDbEntity
  8
Ech.1_5
 62
   190
370
     9
100
AcDbLine
 10
-305.7459043947878
 20
-3573.410920736757
 30
0.0
 11
-305.7459043947878
 21
-3574.314809536776
 31
0.0
  0
LINE
  5
2A5
330
1F
100
AcDbEntity
  8
Ech.1_5
 62
   190
370
     9
100
AcDbLine
 10
-305.4125711945715
 20
-3573.410920736757
 30
0.0
 11
-305.4125711945715
 21
-3574.314809536776
 31
0.0
  0
LINE
  5
2A6
330
1F
100
AcDbEntity
  8
Ech.1_5
 62
   190
370
     9
100
AcDbLine
 10
-305.0792379943552
 20
-3573.410920736757
 30
0.0
 11
-305.0792379943552
 21
-3574.314809536776
 31
0.0
  0
LINE
  5
2A7
330
1F
100
AcDbEntity
  8
Ech.1_5
 62
   190
370
     9
100
AcDbLine
 10
-312.0014599948329
 20
-3572.855365136759
 30
0.0
 11
-312.1236819951941
 21
-3572.855365136759
 31
0.0
  0
LINE
  5
2A8
330
1F
100
AcDbEntity
  8
Ech.1_5
 62
   190
370
     9
100
AcDbLine
 10
-304.0792379943552
 20
-3573.410920736757
 30
0.0
 11
-304.0792379943552
 21
-3574.314809536776
 31
0.0
  0
LINE
  5
2A9
330
1F
100
AcDbEntity
  8
Ech.1_5
 62
   190
370
     9
100
AcDbLine
 10
-304.4125711945715
 20
-3573.410920736757
 30
0.0
 11
-304.4125711945715
 21
-3574.314809536776
 31
0.0
  0
LINE
  5
2AA
330
1F
100
AcDbEntity
  8
Ech.1_5
 62
   190
370
     9
100
AcDbLine
 10
-304.7459043947878
 20
-3573.410920736757
 30
0.0
 11
-304.7459043947878
 21
-3574.314809536776
 31
0.0
  0
LINE
  5
2AB
330
1F
100
AcDbEntity
  8
Ech.1_5
 62
   190
370
     9
100
AcDbLine
 10
-303.0792379943552
 20
-3573.410920736757
 30
0.0
 11
-303.0792379943552
 21
-3574.314809536776
 31
0.0
  0
LINE
  5
2AC
330
1F
100
AcDbEntity
  8
Ech.1_5
 62
   190
370
     9
100
AcDbLine
 10
-303.4125711945715
 20
-3573.410920736757
 30
0.0
 11
-303.4125711945715
 21
-3574.314809536776
 31
0.0
  0
LINE
  5
2AD
330
1F
100
AcDbEntity
  8
Ech.1_5
 62
   190
370
     9
100
AcDbLine
 10
-303.7459043947878
 20
-3573.410920736757
 30
0.0
 11
-303.7459043947878
 21
-3574.314809536776
 31
0.0
  0
LINE
  5
2AE
330
1F
100
AcDbEntity
  8
Ech.1_5
 62
   190
370
     9
100
AcDbLine
 10
-302.0792379943552
 20
-3573.410920736757
 30
0.0
 11
-302.0792379943552
 21
-3574.314809536776
 31
0.0
  0
LINE
  5
2AF
330
1F
100
AcDbEntity
  8
Ech.1_5
 62
   190
370
     9
100
AcDbLine
 10
-302.4125711945715
 20
-3573.410920736757
 30
0.0
 11
-302.4125711945715
 21
-3574.314809536776
 31
0.0
  0
LINE
  5
2B0
330
1F
100
AcDbEntity
  8
Ech.1_5
 62
   190
370
     9
100
AcDbLine
 10
-302.7459043947878
 20
-3573.410920736757
 30
0.0
 11
-302.7459043947878
 21
-3574.314809536776
 31
0.0
  0
LINE
  5
2B1
330
1F
100
AcDbEntity
  8
Ech.1_5
 62
   190
370
     9
100
AcDbLine
 10
-301.0792379943552
 20
-3573.410920736757
 30
0.0
 11
-301.0792379943552
 21
-3574.314809536776
 31
0.0
  0
LINE
  5
2B2
330
1F
100
AcDbEntity
  8
Ech.1_5
 62
   190
370
     9
100
AcDbLine
 10
-301.4125711945715
 20
-3573.410920736757
 30
0.0
 11
-301.4125711945715
 21
-3574.314809536776
 31
0.0
  0
LINE
  5
2B3
330
1F
100
AcDbEntity
  8
Ech.1_5
 62
   190
370
     9
100
AcDbLine
 10
-301.7459043947878
 20
-3573.410920736757
 30
0.0
 11
-301.7459043947878
 21
-3574.314809536776
 31
0.0
  0
LINE
  5
2B4
330
1F
100
AcDbEntity
  8
Ech.1_5
 62
   190
370
     9
100
AcDbLine
 10
-306.7459043947878
 20
-3573.410920736757
 30
0.0
 11
-306.7459043947878
 21
-3574.314809536776
 31
0.0
  0
LINE
  5
2B5
330
1F
100
AcDbEntity
  8
Ech.1_5
 62
   190
370
     9
100
AcDbLine
 10
-306.4125711945715
 20
-3573.410920736757
 30
0.0
 11
-306.4125711945715
 21
-3574.314809536776
 31
0.0
  0
LINE
  5
2B6
330
1F
100
AcDbEntity
  8
Ech.1_5
 62
   190
370
     9
100
AcDbLine
 10
-306.0792379943552
 20
-3573.410920736757
 30
0.0
 11
-306.0792379943552
 21
-3574.314809536776
 31
0.0
  0
LINE
  5
2B7
330
1F
100
AcDbEntity
  8
Ech.1_5
 62
   190
370
     9
100
AcDbLine
 10
-307.0792379943552
 20
-3573.410920736757
 30
0.0
 11
-307.0792379943552
 21
-3574.314809536776
 31
0.0
  0
LINE
  5
2B8
330
1F
100
AcDbEntity
  8
Ech.1_5
 62
   190
370
     9
100
AcDbLine
 10
-291.3717997105792
 20
-3573.862865136754
 30
0.0
 11
-292.4366105111316
 21
-3573.410920736757
 31
0.0
  0
ARC
  5
2B9
330
1F
100
AcDbEntity
  8
Ech.1_5
 62
   190
370
     9
100
AcDbCircle
 10
-291.872870114893
 20
-3573.862865136753
 30
0.0
 40
0.7225351986658818
100
AcDbArc
 50
141.2812399141812
 51
218.7187600858188
  0
LINE
  5
2BA
330
1F
100
AcDbEntity
  8
Ech.1_5
 62
   190
370
     9
100
AcDbLine
 10
-291.3717997105792
 20
-3573.862865136754
 30
0.0
 11
-292.4366105111316
 21
-3574.314809536776
 31
0.0
  0
HATCH
  5
2BB
330
1F
100
AcDbEntity
  8
Ech.1_5
 62
   252
440
 33554687
370
     5
100
AcDbHatch
 10
0.0
 20
0.0
 30
0.0
210
0.0
220
0.0
230
1.0
  2
SOLID
 70
     1
 71
     1
 91
        1
 92
        3
 72
     0
 73
     1
 93
        4
 10
-311.0792379943553
 20
-3574.314809536772
 10
-310.7459043947878
 20
-3574.314809536776
 10
-310.7459043947878
 20
-3573.410920736757
 10
-311.0792379943553
 20
-3573.410920736757
 97
        0
 75
     0
 76
     1
 98
        0
  0
LWPOLYLINE
  5
2BC
330
1F
100
AcDbEntity
  8
Ech.1_5
 62
     7
370
     9
100
AcDbPolyline
 90
        5
 70
     0
 43
0.0
 10
-311.0792379943553
 20
-3574.314809536772
 10
-310.7459043947878
 20
-3574.314809536776
 10
-310.7459043947878
 20
-3573.410920736757
 10
-311.0792379943553
 20
-3573.410920736757
 10
-311.0792379943553
 20
-3574.314809536772
  0
HATCH
  5
2BD
330
1F
100
AcDbEntity
  8
Ech.1_5
 62
   252
440
 33554687
370
     5
100
AcDbHatch
 10
0.0
 20
0.0
 30
0.0
210
0.0
220
0.0
230
1.0
  2
SOLID
 70
     1
 71
     1
 91
        1
 92
        3
 72
     0
 73
     1
 93
        4
 10
-310.7459043947878
 20
-3574.314809536776
 10
-310.4125707952204
 20
-3574.314809536776
 10
-310.4125707952204
 20
-3573.410920736757
 10
-310.7459043947878
 20
-3573.410920736757
 97
        0
 75
     0
 76
     1
 98
        0
  0
LWPOLYLINE
  5
2BE
330
1F
100
AcDbEntity
  8
Ech.1_5
 62
     7
370
     9
100
AcDbPolyline
 90
        5
 70
     0
 43
0.0
 10
-310.7459043947878
 20
-3574.314809536776
 10
-310.4125707952204
 20
-3574.314809536776
 10
-310.4125707952204
 20
-3573.410920736757
 10
-310.7459043947878
 20
-3573.410920736757
 10
-310.7459043947878
 20
-3574.314809536776
  0
HATCH
  5
2BF
330
1F
100
AcDbEntity
  8
Ech.1_5
 62
   252
440
 33554687
370
     5
100
AcDbHatch
 10
0.0
 20
0.0
 30
0.0
210
0.0
220
0.0
230
1.0
  2
SOLID
 70
     1
 71
     1
 91
        1
 92
        3
 72
     0
 73
     1
 93
        4
 10
-310.4125707952204
 20
-3574.314809536776
 10
-310.079237195653
 20
-3574.314809536776
 10
-310.079237195653
 20
-3573.410920736757
 10
-310.4125707952204
 20
-3573.410920736757
 97
        0
 75
     0
 76
     1
 98
        0
  0
LWPOLYLINE
  5
2C0
330
1F
100
AcDbEntity
  8
Ech.1_5
 62
     7
370
     9
100
AcDbPolyline
 90
        5
 70
     0
 43
0.0
 10
-310.4125707952204
 20
-3574.314809536776
 10
-310.079237195653
 20
-3574.314809536776
 10
-310.079237195653
 20
-3573.410920736757
 10
-310.4125707952204
 20
-3573.410920736757
 10
-310.4125707952204
 20
-3574.314809536776
  0
HATCH
  5
2C1
330
1F
100
AcDbEntity
  8
Ech.1_5
 62
   252
440
 33554687
370
     5
100
AcDbHatch
 10
0.0
 20
0.0
 30
0.0
210
0.0
220
0.0
230
1.0
  2
SOLID
 70
     1
 71
     1
 91
        1
 92
        3
 72
     0
 73
     1
 93
        4
 10
-310.079237195653
 20
-3574.314809536776
 10
-309.7459035960856
 20
-3574.314809536776
 10
-309.7459035960856
 20
-3573.410920736757
 10
-310.079237195653
 20
-3573.410920736757
 97
        0
 75
     0
 76
     1
 98
        0
  0
LWPOLYLINE
  5
2C2
330
1F
100
AcDbEntity
  8
Ech.1_5
 62
     7
370
     9
100
AcDbPolyline
 90
        5
 70
     0
 43
0.0
 10
-310.079237195653
 20
-3574.314809536776
 10
-309.7459035960856
 20
-3574.314809536776
 10
-309.7459035960856
 20
-3573.410920736757
 10
-310.079237195653
 20
-3573.410920736757
 10
-310.079237195653
 20
-3574.314809536776
  0
HATCH
  5
2C3
330
1F
100
AcDbEntity
  8
Ech.1_5
 62
   252
440
 33554687
370
     5
100
AcDbHatch
 10
0.0
 20
0.0
 30
0.0
210
0.0
220
0.0
230
1.0
  2
SOLID
 70
     1
 71
     1
 91
        1
 92
        3
 72
     0
 73
     1
 93
        4
 10
-309.7459043947878
 20
-3574.314809536776
 10
-309.4125707952204
 20
-3574.314809536776
 10
-309.4125707952204
 20
-3573.410920736757
 10
-309.7459043947878
 20
-3573.410920736757
 97
        0
 75
     0
 76
     1
 98
        0
  0
LWPOLYLINE
  5
2C4
330
1F
100
AcDbEntity
  8
Ech.1_5
 62
     7
370
     9
100
AcDbPolyline
 90
        5
 70
     0
 43
0.0
 10
-309.7459043947878
 20
-3574.314809536776
 10
-309.4125707952204
 20
-3574.314809536776
 10
-309.4125707952204
 20
-3573.410920736757
 10
-309.7459043947878
 20
-3573.410920736757
 10
-309.7459043947878
 20
-3574.314809536776
  0
HATCH
  5
2C5
330
1F
100
AcDbEntity
  8
Ech.1_5
 62
   252
440
 33554687
370
     5
100
AcDbHatch
 10
0.0
 20
0.0
 30
0.0
210
0.0
220
0.0
230
1.0
  2
SOLID
 70
     1
 71
     1
 91
        1
 92
        3
 72
     0
 73
     1
 93
        4
 10
-309.4125711945715
 20
-3574.314809536776
 10
-309.0792375950041
 20
-3574.314809536776
 10
-309.0792375950041
 20
-3573.410920736754
 10
-309.4125711945715
 20
-3573.410920736757
 97
        0
 75
     0
 76
     1
 98
        0
  0
LWPOLYLINE
  5
2C6
330
1F
100
AcDbEntity
  8
Ech.1_5
 62
     7
370
     9
100
AcDbPolyline
 90
        5
 70
     0
 43
0.0
 10
-309.4125711945715
 20
-3574.314809536776
 10
-309.0792375950041
 20
-3574.314809536776
 10
-309.0792375950041
 20
-3573.410920736754
 10
-309.4125711945715
 20
-3573.410920736757
 10
-309.4125711945715
 20
-3574.314809536776
  0
HATCH
  5
2C7
330
1F
100
AcDbEntity
  8
Ech.1_5
 62
   252
440
 33554687
370
     5
100
AcDbHatch
 10
0.0
 20
0.0
 30
0.0
210
0.0
220
0.0
230
1.0
  2
SOLID
 70
     1
 71
     1
 91
        1
 92
        3
 72
     0
 73
     1
 93
        4
 10
-309.0792375950041
 20
-3574.314809536776
 10
-308.7459039954367
 20
-3574.314809536776
 10
-308.7459039954367
 20
-3573.410920736757
 10
-309.0792375950041
 20
-3573.410920736754
 97
        0
 75
     0
 76
     1
 98
        0
  0
LWPOLYLINE
  5
2C8
330
1F
100
AcDbEntity
  8
Ech.1_5
 62
     7
370
     9
100
AcDbPolyline
 90
        5
 70
     0
 43
0.0
 10
-309.0792375950041
 20
-3574.314809536776
 10
-308.7459039954367
 20
-3574.314809536776
 10
-308.7459039954367
 20
-3573.410920736757
 10
-309.0792375950041
 20
-3573.410920736754
 10
-309.0792375950041
 20
-3574.314809536776
  0
HATCH
  5
2C9
330
1F
100
AcDbEntity
  8
Ech.1_5
 62
   252
440
 33554687
370
     5
100
AcDbHatch
 10
0.0
 20
0.0
 30
0.0
210
0.0
220
0.0
230
1.0
  2
SOLID
 70
     1
 71
     1
 91
        1
 92
        3
 72
     0
 73
     1
 93
        4
 10
-308.7459043947878
 20
-3574.314809536776
 10
-308.4125707952204
 20
-3574.314809536776
 10
-308.4125707952204
 20
-3573.410920736757
 10
-308.7459043947878
 20
-3573.410920736757
 97
        0
 75
     0
 76
     1
 98
        0
  0
LWPOLYLINE
  5
2CA
330
1F
100
AcDbEntity
  8
Ech.1_5
 62
     7
370
     9
100
AcDbPolyline
 90
        5
 70
     0
 43
0.0
 10
-308.7459043947878
 20
-3574.314809536776
 10
-308.4125707952204
 20
-3574.314809536776
 10
-308.4125707952204
 20
-3573.410920736757
 10
-308.7459043947878
 20
-3573.410920736757
 10
-308.7459043947878
 20
-3574.314809536776
  0
HATCH
  5
2CB
330
1F
100
AcDbEntity
  8
Ech.1_5
 62
   252
440
 33554687
370
     5
100
AcDbHatch
 10
0.0
 20
0.0
 30
0.0
210
0.0
220
0.0
230
1.0
  2
SOLID
 70
     1
 71
     1
 91
        1
 92
        3
 72
     0
 73
     1
 93
        4
 10
-308.4125707952204
 20
-3574.314809536776
 10
-308.079237195653
 20
-3574.314809536776
 10
-308.079237195653
 20
-3573.410920736757
 10
-308.4125707952204
 20
-3573.410920736757
 97
        0
 75
     0
 76
     1
 98
        0
  0
LWPOLYLINE
  5
2CC
330
1F
100
AcDbEntity
  8
Ech.1_5
 62
     7
370
     9
100
AcDbPolyline
 90
        5
 70
     0
 43
0.0
 10
-308.4125707952204
 20
-3574.314809536776
 10
-308.079237195653
 20
-3574.314809536776
 10
-308.079237195653
 20
-3573.410920736757
 10
-308.4125707952204
 20
-3573.410920736757
 10
-308.4125707952204
 20
-3574.314809536776
  0
HATCH
  5
2CD
330
1F
100
AcDbEntity
  8
Ech.1_5
 62
   252
440
 33554687
370
     5
100
AcDbHatch
 10
0.0
 20
0.0
 30
0.0
210
0.0
220
0.0
230
1.0
  2
SOLID
 70
     1
 71
     1
 91
        1
 92
        3
 72
     0
 73
     1
 93
        4
 10
-308.0792379943553
 20
-3574.314809536776
 10
-307.7459043947878
 20
-3574.314809536776
 10
-307.7459043947878
 20
-3573.410920736757
 10
-308.0792379943553
 20
-3573.410920736757
 97
        0
 75
     0
 76
     1
 98
        0
  0
LWPOLYLINE
  5
2CE
330
1F
100
AcDbEntity
  8
Ech.1_5
 62
     7
370
     9
100
AcDbPolyline
 90
        5
 70
     0
 43
0.0
 10
-308.0792379943553
 20
-3574.314809536776
 10
-307.7459043947878
 20
-3574.314809536776
 10
-307.7459043947878
 20
-3573.410920736757
 10
-308.0792379943553
 20
-3573.410920736757
 10
-308.0792379943553
 20
-3574.314809536776
  0
HATCH
  5
2CF
330
1F
100
AcDbEntity
  8
Ech.1_5
 62
   252
440
 33554687
370
     5
100
AcDbHatch
 10
0.0
 20
0.0
 30
0.0
210
0.0
220
0.0
230
1.0
  2
SOLID
 70
     1
 71
     1
 91
        1
 92
        3
 72
     0
 73
     1
 93
        4
 10
-307.7459043947878
 20
-3574.314809536776
 10
-307.4125707952204
 20
-3574.314809536776
 10
-307.4125707952204
 20
-3573.410920736757
 10
-307.7459043947878
 20
-3573.410920736757
 97
        0
 75
     0
 76
     1
 98
        0
  0
LWPOLYLINE
  5
2D0
330
1F
100
AcDbEntity
  8
Ech.1_5
 62
     7
370
     9
100
AcDbPolyline
 90
        5
 70
     0
 43
0.0
 10
-307.7459043947878
 20
-3574.314809536776
 10
-307.4125707952204
 20
-3574.314809536776
 10
-307.4125707952204
 20
-3573.410920736757
 10
-307.7459043947878
 20
-3573.410920736757
 10
-307.7459043947878
 20
-3574.314809536776
  0
HATCH
  5
2D1
330
1F
100
AcDbEntity
  8
Ech.1_5
 62
   252
440
 33554687
370
     5
100
AcDbHatch
 10
0.0
 20
0.0
 30
0.0
210
0.0
220
0.0
230
1.0
  2
SOLID
 70
     1
 71
     1
 91
        1
 92
        3
 72
     0
 73
     1
 93
        4
 10
-307.4125707952204
 20
-3574.314809536776
 10
-307.079237195653
 20
-3574.314809536776
 10
-307.0792371956522
 20
-3573.410920736757
 10
-307.4125707952204
 20
-3573.410920736757
 97
        0
 75
     0
 76
     1
 98
        0
  0
LWPOLYLINE
  5
2D2
330
1F
100
AcDbEntity
  8
Ech.1_5
 62
     7
370
     9
100
AcDbPolyline
 90
        5
 70
     0
 43
0.0
 10
-307.4125707952204
 20
-3574.314809536776
 10
-307.079237195653
 20
-3574.314809536776
 10
-307.0792371956522
 20
-3573.410920736757
 10
-307.4125707952204
 20
-3573.410920736757
 10
-307.4125707952204
 20
-3574.314809536776
  0
HATCH
  5
2D3
330
1F
100
AcDbEntity
  8
Ech.1_5
 62
   252
440
 33554687
370
     5
100
AcDbHatch
 10
0.0
 20
0.0
 30
0.0
210
0.0
220
0.0
230
1.0
  2
SOLID
 70
     1
 71
     1
 91
        1
 92
        3
 72
     0
 73
     1
 93
        4
 10
-307.079237195653
 20
-3574.314809536776
 10
-306.7459035960856
 20
-3574.314809536776
 10
-306.7459035960856
 20
-3573.410920736757
 10
-307.0792371956522
 20
-3573.410920736757
 97
        0
 75
     0
 76
     1
 98
        0
  0
LWPOLYLINE
  5
2D4
330
1F
100
AcDbEntity
  8
Ech.1_5
 62
     7
370
     9
100
AcDbPolyline
 90
        5
 70
     0
 43
0.0
 10
-307.079237195653
 20
-3574.314809536776
 10
-306.7459035960856
 20
-3574.314809536776
 10
-306.7459035960856
 20
-3573.410920736757
 10
-307.0792371956522
 20
-3573.410920736757
 10
-307.079237195653
 20
-3574.314809536776
  0
HATCH
  5
2D5
330
1F
100
AcDbEntity
  8
Ech.1_5
 62
   252
440
 33554687
370
     5
100
AcDbHatch
 10
0.0
 20
0.0
 30
0.0
210
0.0
220
0.0
230
1.0
  2
SOLID
 70
     1
 71
     1
 91
        1
 92
        3
 72
     0
 73
     1
 93
        4
 10
-306.7459035960856
 20
-3574.314809536776
 10
-306.4125699965181
 20
-3574.314809536776
 10
-306.4125699965181
 20
-3573.410920736757
 10
-306.7459035960856
 20
-3573.410920736757
 97
        0
 75
     0
 76
     1
 98
        0
  0
LWPOLYLINE
  5
2D6
330
1F
100
AcDbEntity
  8
Ech.1_5
 62
     7
370
     9
100
AcDbPolyline
 90
        5
 70
     0
 43
0.0
 10
-306.7459035960856
 20
-3574.314809536776
 10
-306.4125699965181
 20
-3574.314809536776
 10
-306.4125699965181
 20
-3573.410920736757
 10
-306.7459035960856
 20
-3573.410920736757
 10
-306.7459035960856
 20
-3574.314809536776
  0
HATCH
  5
2D7
330
1F
100
AcDbEntity
  8
Ech.1_5
 62
   252
440
 33554687
370
     5
100
AcDbHatch
 10
0.0
 20
0.0
 30
0.0
210
0.0
220
0.0
230
1.0
  2
SOLID
 70
     1
 71
     1
 91
        1
 92
        3
 72
     0
 73
     1
 93
        4
 10
-306.4125707952204
 20
-3574.314809536776
 10
-306.079237195653
 20
-3574.314809536776
 10
-306.079237195653
 20
-3573.410920736757
 10
-306.4125707952204
 20
-3573.410920736757
 97
        0
 75
     0
 76
     1
 98
        0
  0
LWPOLYLINE
  5
2D8
330
1F
100
AcDbEntity
  8
Ech.1_5
 62
     7
370
     9
100
AcDbPolyline
 90
        5
 70
     0
 43
0.0
 10
-306.4125707952204
 20
-3574.314809536776
 10
-306.079237195653
 20
-3574.314809536776
 10
-306.079237195653
 20
-3573.410920736757
 10
-306.4125707952204
 20
-3573.410920736757
 10
-306.4125707952204
 20
-3574.314809536776
  0
HATCH
  5
2D9
330
1F
100
AcDbEntity
  8
Ech.1_5
 62
   252
440
 33554687
370
     5
100
AcDbHatch
 10
0.0
 20
0.0
 30
0.0
210
0.0
220
0.0
230
1.0
  2
SOLID
 70
     1
 71
     1
 91
        1
 92
        3
 72
     0
 73
     1
 93
        4
 10
-306.0792375950041
 20
-3574.314809536776
 10
-305.7459039954367
 20
-3574.314809536776
 10
-305.7459039954367
 20
-3573.410920736757
 10
-306.0792375950041
 20
-3573.410920736757
 97
        0
 75
     0
 76
     1
 98
        0
  0
LWPOLYLINE
  5
2DA
330
1F
100
AcDbEntity
  8
Ech.1_5
 62
     7
370
     9
100
AcDbPolyline
 90
        5
 70
     0
 43
0.0
 10
-306.0792375950041
 20
-3574.314809536776
 10
-305.7459039954367
 20
-3574.314809536776
 10
-305.7459039954367
 20
-3573.410920736757
 10
-306.0792375950041
 20
-3573.410920736757
 10
-306.0792375950041
 20
-3574.314809536776
  0
HATCH
  5
2DB
330
1F
100
AcDbEntity
  8
Ech.1_5
 62
   252
440
 33554687
370
     5
100
AcDbHatch
 10
0.0
 20
0.0
 30
0.0
210
0.0
220
0.0
230
1.0
  2
SOLID
 70
     1
 71
     1
 91
        1
 92
        3
 72
     0
 73
     1
 93
        4
 10
-305.7459039954367
 20
-3574.314809536776
 10
-305.4125703958693
 20
-3574.314809536776
 10
-305.4125703958693
 20
-3573.410920736757
 10
-305.7459039954367
 20
-3573.410920736757
 97
        0
 75
     0
 76
     1
 98
        0
  0
LWPOLYLINE
  5
2DC
330
1F
100
AcDbEntity
  8
Ech.1_5
 62
     7
370
     9
100
AcDbPolyline
 90
        5
 70
     0
 43
0.0
 10
-305.7459039954367
 20
-3574.314809536776
 10
-305.4125703958693
 20
-3574.314809536776
 10
-305.4125703958693
 20
-3573.410920736757
 10
-305.7459039954367
 20
-3573.410920736757
 10
-305.7459039954367
 20
-3574.314809536776
  0
HATCH
  5
2DD
330
1F
100
AcDbEntity
  8
Ech.1_5
 62
   252
440
 33554687
370
     5
100
AcDbHatch
 10
0.0
 20
0.0
 30
0.0
210
0.0
220
0.0
230
1.0
  2
SOLID
 70
     1
 71
     1
 91
        1
 92
        3
 72
     0
 73
     1
 93
        4
 10
-305.4125707952204
 20
-3574.314809536776
 10
-305.079237195653
 20
-3574.314809536776
 10
-305.079237195653
 20
-3573.410920736757
 10
-305.4125707952204
 20
-3573.410920736757
 97
        0
 75
     0
 76
     1
 98
        0
  0
LWPOLYLINE
  5
2DE
330
1F
100
AcDbEntity
  8
Ech.1_5
 62
     7
370
     9
100
AcDbPolyline
 90
        5
 70
     0
 43
0.0
 10
-305.4125707952204
 20
-3574.314809536776
 10
-305.079237195653
 20
-3574.314809536776
 10
-305.079237195653
 20
-3573.410920736757
 10
-305.4125707952204
 20
-3573.410920736757
 10
-305.4125707952204
 20
-3574.314809536776
  0
HATCH
  5
2DF
330
1F
100
AcDbEntity
  8
Ech.1_5
 62
   252
440
 33554687
370
     5
100
AcDbHatch
 10
0.0
 20
0.0
 30
0.0
210
0.0
220
0.0
230
1.0
  2
SOLID
 70
     1
 71
     1
 91
        1
 92
        3
 72
     0
 73
     1
 93
        4
 10
-305.079237195653
 20
-3574.314809536776
 10
-304.7459035960856
 20
-3574.314809536776
 10
-304.7459035960856
 20
-3573.410920736757
 10
-305.079237195653
 20
-3573.410920736757
 97
        0
 75
     0
 76
     1
 98
        0
  0
LWPOLYLINE
  5
2E0
330
1F
100
AcDbEntity
  8
Ech.1_5
 62
     7
370
     9
100
AcDbPolyline
 90
        5
 70
     0
 43
0.0
 10
-305.079237195653
 20
-3574.314809536776
 10
-304.7459035960856
 20
-3574.314809536776
 10
-304.7459035960856
 20
-3573.410920736757
 10
-305.079237195653
 20
-3573.410920736757
 10
-305.079237195653
 20
-3574.314809536776
  0
HATCH
  5
2E1
330
1F
100
AcDbEntity
  8
Ech.1_5
 62
   252
440
 33554687
370
     5
100
AcDbHatch
 10
0.0
 20
0.0
 30
0.0
210
0.0
220
0.0
230
1.0
  2
SOLID
 70
     1
 71
     1
 91
        1
 92
        3
 72
     0
 73
     1
 93
        4
 10
-304.7459043947878
 20
-3574.314809536776
 10
-304.4125707952204
 20
-3574.314809536776
 10
-304.4125707952204
 20
-3573.410920736757
 10
-304.7459043947878
 20
-3573.410920736757
 97
        0
 75
     0
 76
     1
 98
        0
  0
LWPOLYLINE
  5
2E2
330
1F
100
AcDbEntity
  8
Ech.1_5
 62
     7
370
     9
100
AcDbPolyline
 90
        5
 70
     0
 43
0.0
 10
-304.7459043947878
 20
-3574.314809536776
 10
-304.4125707952204
 20
-3574.314809536776
 10
-304.4125707952204
 20
-3573.410920736757
 10
-304.7459043947878
 20
-3573.410920736757
 10
-304.7459043947878
 20
-3574.314809536776
  0
HATCH
  5
2E3
330
1F
100
AcDbEntity
  8
Ech.1_5
 62
   252
440
 33554687
370
     5
100
AcDbHatch
 10
0.0
 20
0.0
 30
0.0
210
0.0
220
0.0
230
1.0
  2
SOLID
 70
     1
 71
     1
 91
        1
 92
        3
 72
     0
 73
     1
 93
        4
 10
-304.4125707952204
 20
-3574.314809536776
 10
-304.079237195653
 20
-3574.314809536776
 10
-304.079237195653
 20
-3573.410920736757
 10
-304.4125707952204
 20
-3573.410920736757
 97
        0
 75
     0
 76
     1
 98
        0
  0
LWPOLYLINE
  5
2E4
330
1F
100
AcDbEntity
  8
Ech.1_5
 62
     7
370
     9
100
AcDbPolyline
 90
        5
 70
     0
 43
0.0
 10
-304.4125707952204
 20
-3574.314809536776
 10
-304.079237195653
 20
-3574.314809536776
 10
-304.079237195653
 20
-3573.410920736757
 10
-304.4125707952204
 20
-3573.410920736757
 10
-304.4125707952204
 20
-3574.314809536776
  0
HATCH
  5
2E5
330
1F
100
AcDbEntity
  8
Ech.1_5
 62
   252
440
 33554687
370
     5
100
AcDbHatch
 10
0.0
 20
0.0
 30
0.0
210
0.0
220
0.0
230
1.0
  2
SOLID
 70
     1
 71
     1
 91
        1
 92
        3
 72
     0
 73
     1
 93
        4
 10
-304.079237195653
 20
-3574.314809536776
 10
-303.7459035960856
 20
-3574.314809536776
 10
-303.7459035960856
 20
-3573.410920736757
 10
-304.079237195653
 20
-3573.410920736757
 97
        0
 75
     0
 76
     1
 98
        0
  0
LWPOLYLINE
  5
2E6
330
1F
100
AcDbEntity
  8
Ech.1_5
 62
     7
370
     9
100
AcDbPolyline
 90
        5
 70
     0
 43
0.0
 10
-304.079237195653
 20
-3574.314809536776
 10
-303.7459035960856
 20
-3574.314809536776
 10
-303.7459035960856
 20
-3573.410920736757
 10
-304.079237195653
 20
-3573.410920736757
 10
-304.079237195653
 20
-3574.314809536776
  0
HATCH
  5
2E7
330
1F
100
AcDbEntity
  8
Ech.1_5
 62
   252
440
 33554687
370
     5
100
AcDbHatch
 10
0.0
 20
0.0
 30
0.0
210
0.0
220
0.0
230
1.0
  2
SOLID
 70
     1
 71
     1
 91
        1
 92
        3
 72
     0
 73
     1
 93
        4
 10
-303.7459035960856
 20
-3574.314809536776
 10
-303.4125699965174
 20
-3574.314809536776
 10
-303.4125699965181
 20
-3573.410920736757
 10
-303.7459035960856
 20
-3573.410920736757
 97
        0
 75
     0
 76
     1
 98
        0
  0
LWPOLYLINE
  5
2E8
330
1F
100
AcDbEntity
  8
Ech.1_5
 62
     7
370
     9
100
AcDbPolyline
 90
        5
 70
     0
 43
0.0
 10
-303.7459035960856
 20
-3574.314809536776
 10
-303.4125699965174
 20
-3574.314809536776
 10
-303.4125699965181
 20
-3573.410920736757
 10
-303.7459035960856
 20
-3573.410920736757
 10
-303.7459035960856
 20
-3574.314809536776
  0
HATCH
  5
2E9
330
1F
100
AcDbEntity
  8
Ech.1_5
 62
   252
440
 33554687
370
     5
100
AcDbHatch
 10
0.0
 20
0.0
 30
0.0
210
0.0
220
0.0
230
1.0
  2
SOLID
 70
     1
 71
     1
 91
        1
 92
        3
 72
     0
 73
     1
 93
        4
 10
-303.4125699965174
 20
-3574.314809536776
 10
-303.0792363969508
 20
-3574.314809536776
 10
-303.0792363969508
 20
-3573.410920736757
 10
-303.4125699965181
 20
-3573.410920736757
 97
        0
 75
     0
 76
     1
 98
        0
  0
LWPOLYLINE
  5
2EA
330
1F
100
AcDbEntity
  8
Ech.1_5
 62
     7
370
     9
100
AcDbPolyline
 90
        5
 70
     0
 43
0.0
 10
-303.4125699965174
 20
-3574.314809536776
 10
-303.0792363969508
 20
-3574.314809536776
 10
-303.0792363969508
 20
-3573.410920736757
 10
-303.4125699965181
 20
-3573.410920736757
 10
-303.4125699965174
 20
-3574.314809536776
  0
HATCH
  5
2EB
330
1F
100
AcDbEntity
  8
Ech.1_5
 62
   252
440
 33554687
370
     5
100
AcDbHatch
 10
0.0
 20
0.0
 30
0.0
210
0.0
220
0.0
230
1.0
  2
SOLID
 70
     1
 71
     1
 91
        1
 92
        3
 72
     0
 73
     1
 93
        4
 10
-303.079237195653
 20
-3574.314809536776
 10
-302.7459035960856
 20
-3574.314809536776
 10
-302.7459035960856
 20
-3573.410920736757
 10
-303.079237195653
 20
-3573.410920736757
 97
        0
 75
     0
 76
     1
 98
        0
  0
LWPOLYLINE
  5
2EC
330
1F
100
AcDbEntity
  8
Ech.1_5
 62
     7
370
     9
100
AcDbPolyline
 90
        5
 70
     0
 43
0.0
 10
-303.079237195653
 20
-3574.314809536776
 10
-302.7459035960856
 20
-3574.314809536776
 10
-302.7459035960856
 20
-3573.410920736757
 10
-303.079237195653
 20
-3573.410920736757
 10
-303.079237195653
 20
-3574.314809536776
  0
HATCH
  5
2ED
330
1F
100
AcDbEntity
  8
Ech.1_5
 62
   252
440
 33554687
370
     5
100
AcDbHatch
 10
0.0
 20
0.0
 30
0.0
210
0.0
220
0.0
230
1.0
  2
SOLID
 70
     1
 71
     1
 91
        1
 92
        3
 72
     0
 73
     1
 93
        4
 10
-302.7459039954367
 20
-3574.314809536776
 10
-302.4125703958693
 20
-3574.314809536776
 10
-302.4125703958693
 20
-3573.410920736757
 10
-302.7459039954367
 20
-3573.410920736757
 97
        0
 75
     0
 76
     1
 98
        0
  0
LWPOLYLINE
  5
2EE
330
1F
100
AcDbEntity
  8
Ech.1_5
 62
     7
370
     9
100
AcDbPolyline
 90
        5
 70
     0
 43
0.0
 10
-302.7459039954367
 20
-3574.314809536776
 10
-302.4125703958693
 20
-3574.314809536776
 10
-302.4125703958693
 20
-3573.410920736757
 10
-302.7459039954367
 20
-3573.410920736757
 10
-302.7459039954367
 20
-3574.314809536776
  0
HATCH
  5
2EF
330
1F
100
AcDbEntity
  8
Ech.1_5
 62
   252
440
 33554687
370
     5
100
AcDbHatch
 10
0.0
 20
0.0
 30
0.0
210
0.0
220
0.0
230
1.0
  2
SOLID
 70
     1
 71
     1
 91
        1
 92
        3
 72
     0
 73
     1
 93
        4
 10
-302.4125703958693
 20
-3574.314809536776
 10
-302.0792367963019
 20
-3574.314809536776
 10
-302.0792367963019
 20
-3573.410920736757
 10
-302.4125703958693
 20
-3573.410920736757
 97
        0
 75
     0
 76
     1
 98
        0
  0
LWPOLYLINE
  5
2F0
330
1F
100
AcDbEntity
  8
Ech.1_5
 62
     7
370
     9
100
AcDbPolyline
 90
        5
 70
     0
 43
0.0
 10
-302.4125703958693
 20
-3574.314809536776
 10
-302.0792367963019
 20
-3574.314809536776
 10
-302.0792367963019
 20
-3573.410920736757
 10
-302.4125703958693
 20
-3573.410920736757
 10
-302.4125703958693
 20
-3574.314809536776
  0
HATCH
  5
2F1
330
1F
100
AcDbEntity
  8
Ech.1_5
 62
   252
440
 33554687
370
     5
100
AcDbHatch
 10
0.0
 20
0.0
 30
0.0
210
0.0
220
0.0
230
1.0
  2
SOLID
 70
     1
 71
     1
 91
        1
 92
        3
 72
     0
 73
     1
 93
        4
 10
-302.079237195653
 20
-3574.314809536776
 10
-301.7459035960856
 20
-3574.314809536776
 10
-301.7459035960856
 20
-3573.410920736757
 10
-302.079237195653
 20
-3573.410920736757
 97
        0
 75
     0
 76
     1
 98
        0
  0
LWPOLYLINE
  5
2F2
330
1F
100
AcDbEntity
  8
Ech.1_5
 62
     7
370
     9
100
AcDbPolyline
 90
        5
 70
     0
 43
0.0
 10
-302.079237195653
 20
-3574.314809536776
 10
-301.7459035960856
 20
-3574.314809536776
 10
-301.7459035960856
 20
-3573.410920736757
 10
-302.079237195653
 20
-3573.410920736757
 10
-302.079237195653
 20
-3574.314809536776
  0
HATCH
  5
2F3
330
1F
100
AcDbEntity
  8
Ech.1_5
 62
   252
440
 33554687
370
     5
100
AcDbHatch
 10
0.0
 20
0.0
 30
0.0
210
0.0
220
0.0
230
1.0
  2
SOLID
 70
     1
 71
     1
 91
        1
 92
        3
 72
     0
 73
     1
 93
        4
 10
-301.7459035960856
 20
-3574.314809536776
 10
-301.4125699965181
 20
-3574.314809536776
 10
-301.4125699965181
 20
-3573.410920736757
 10
-301.7459035960856
 20
-3573.410920736757
 97
        0
 75
     0
 76
     1
 98
        0
  0
LWPOLYLINE
  5
2F4
330
1F
100
AcDbEntity
  8
Ech.1_5
 62
     7
370
     9
100
AcDbPolyline
 90
        5
 70
     0
 43
0.0
 10
-301.7459035960856
 20
-3574.314809536776
 10
-301.4125699965181
 20
-3574.314809536776
 10
-301.4125699965181
 20
-3573.410920736757
 10
-301.7459035960856
 20
-3573.410920736757
 10
-301.7459035960856
 20
-3574.314809536776
  0
HATCH
  5
2F5
330
1F
100
AcDbEntity
  8
Ech.1_5
 62
   252
440
 33554687
370
     5
100
AcDbHatch
 10
0.0
 20
0.0
 30
0.0
210
0.0
220
0.0
230
1.0
  2
SOLID
 70
     1
 71
     1
 91
        1
 92
        3
 72
     0
 73
     1
 93
        4
 10
-301.4125707952204
 20
-3574.314809536776
 10
-301.079237195653
 20
-3574.314809536776
 10
-301.079237195653
 20
-3573.410920736757
 10
-301.4125707952204
 20
-3573.410920736757
 97
        0
 75
     0
 76
     1
 98
        0
  0
LWPOLYLINE
  5
2F6
330
1F
100
AcDbEntity
  8
Ech.1_5
 62
     7
370
     9
100
AcDbPolyline
 90
        5
 70
     0
 43
0.0
 10
-301.4125707952204
 20
-3574.314809536776
 10
-301.079237195653
 20
-3574.314809536776
 10
-301.079237195653
 20
-3573.410920736757
 10
-301.4125707952204
 20
-3573.410920736757
 10
-301.4125707952204
 20
-3574.314809536776
  0
HATCH
  5
2F7
330
1F
100
AcDbEntity
  8
Ech.1_5
 62
   252
440
 33554687
370
     5
100
AcDbHatch
 10
0.0
 20
0.0
 30
0.0
210
0.0
220
0.0
230
1.0
  2
SOLID
 70
     1
 71
     1
 91
        1
 92
        3
 72
     0
 73
     1
 93
        4
 10
-301.0792379943552
 20
-3574.314809536776
 10
-300.7459043947878
 20
-3574.314809536776
 10
-300.7459043947878
 20
-3573.410920736757
 10
-301.0792379943552
 20
-3573.410920736757
 97
        0
 75
     0
 76
     1
 98
        0
  0
LWPOLYLINE
  5
2F8
330
1F
100
AcDbEntity
  8
Ech.1_5
 62
     7
370
     9
100
AcDbPolyline
 90
        5
 70
     0
 43
0.0
 10
-301.0792379943552
 20
-3574.314809536776
 10
-300.7459043947878
 20
-3574.314809536776
 10
-300.7459043947878
 20
-3573.410920736757
 10
-301.0792379943552
 20
-3573.410920736757
 10
-301.0792379943552
 20
-3574.314809536776
  0
HATCH
  5
2F9
330
1F
100
AcDbEntity
  8
Ech.1_5
 62
   252
440
 33554687
370
     5
100
AcDbHatch
 10
0.0
 20
0.0
 30
0.0
210
0.0
220
0.0
230
1.0
  2
SOLID
 70
     1
 71
     1
 91
        1
 92
        3
 72
     0
 73
     1
 93
        4
 10
-300.7459043947878
 20
-3574.314809536776
 10
-300.4125707952204
 20
-3574.314809536776
 10
-300.4125707952204
 20
-3573.410920736757
 10
-300.7459043947878
 20
-3573.410920736757
 97
        0
 75
     0
 76
     1
 98
        0
  0
LWPOLYLINE
  5
2FA
330
1F
100
AcDbEntity
  8
Ech.1_5
 62
     7
370
     9
100
AcDbPolyline
 90
        5
 70
     0
 43
0.0
 10
-300.7459043947878
 20
-3574.314809536776
 10
-300.4125707952204
 20
-3574.314809536776
 10
-300.4125707952204
 20
-3573.410920736757
 10
-300.7459043947878
 20
-3573.410920736757
 10
-300.7459043947878
 20
-3574.314809536776
  0
HATCH
  5
2FB
330
1F
100
AcDbEntity
  8
Ech.1_5
 62
   252
440
 33554687
370
     5
100
AcDbHatch
 10
0.0
 20
0.0
 30
0.0
210
0.0
220
0.0
230
1.0
  2
SOLID
 70
     1
 71
     1
 91
        1
 92
        3
 72
     0
 73
     1
 93
        4
 10
-300.4125707952204
 20
-3574.314809536776
 10
-300.079237195653
 20
-3574.314809536776
 10
-300.079237195653
 20
-3573.410920736757
 10
-300.4125707952204
 20
-3573.410920736757
 97
        0
 75
     0
 76
     1
 98
        0
  0
LWPOLYLINE
  5
2FC
330
1F
100
AcDbEntity
  8
Ech.1_5
 62
     7
370
     9
100
AcDbPolyline
 90
        5
 70
     0
 43
0.0
 10
-300.4125707952204
 20
-3574.314809536776
 10
-300.079237195653
 20
-3574.314809536776
 10
-300.079237195653
 20
-3573.410920736757
 10
-300.4125707952204
 20
-3573.410920736757
 10
-300.4125707952204
 20
-3574.314809536776
  0
HATCH
  5
2FD
330
1F
100
AcDbEntity
  8
Ech.1_5
 62
   252
440
 33554687
370
     5
100
AcDbHatch
 10
0.0
 20
0.0
 30
0.0
210
0.0
220
0.0
230
1.0
  2
SOLID
 70
     1
 71
     1
 91
        1
 92
        3
 72
     0
 73
     1
 93
        4
 10
-300.079237195653
 20
-3574.314809536776
 10
-299.7459035960856
 20
-3574.314809536776
 10
-299.7459035960856
 20
-3573.410920736757
 10
-300.079237195653
 20
-3573.410920736757
 97
        0
 75
     0
 76
     1
 98
        0
  0
LWPOLYLINE
  5
2FE
330
1F
100
AcDbEntity
  8
Ech.1_5
 62
     7
370
     9
100
AcDbPolyline
 90
        5
 70
     0
 43
0.0
 10
-300.079237195653
 20
-3574.314809536776
 10
-299.7459035960856
 20
-3574.314809536776
 10
-299.7459035960856
 20
-3573.410920736757
 10
-300.079237195653
 20
-3573.410920736757
 10
-300.079237195653
 20
-3574.314809536776
  0
HATCH
  5
2FF
330
1F
100
AcDbEntity
  8
Ech.1_5
 62
   252
440
 33554687
370
     5
100
AcDbHatch
 10
0.0
 20
0.0
 30
0.0
210
0.0
220
0.0
230
1.0
  2
SOLID
 70
     1
 71
     1
 91
        1
 92
        3
 72
     0
 73
     1
 93
        4
 10
-299.7459043947878
 20
-3574.314809536776
 10
-299.4125707952204
 20
-3574.314809536776
 10
-299.4125707952204
 20
-3573.410920736757
 10
-299.7459043947878
 20
-3573.410920736757
 97
        0
 75
     0
 76
     1
 98
        0
  0
LWPOLYLINE
  5
300
330
1F
100
AcDbEntity
  8
Ech.1_5
 62
     7
370
     9
100
AcDbPolyline
 90
        5
 70
     0
 43
0.0
 10
-299.7459043947878
 20
-3574.314809536776
 10
-299.4125707952204
 20
-3574.314809536776
 10
-299.4125707952204
 20
-3573.410920736757
 10
-299.7459043947878
 20
-3573.410920736757
 10
-299.7459043947878
 20
-3574.314809536776
  0
HATCH
  5
301
330
1F
100
AcDbEntity
  8
Ech.1_5
 62
   252
440
 33554687
370
     5
100
AcDbHatch
 10
0.0
 20
0.0
 30
0.0
210
0.0
220
0.0
230
1.0
  2
SOLID
 70
     1
 71
     1
 91
        1
 92
        3
 72
     0
 73
     1
 93
        4
 10
-299.4125711945715
 20
-3574.314809536776
 10
-299.0792375950041
 20
-3574.314809536776
 10
-299.0792375950041
 20
-3573.410920736757
 10
-299.4125711945715
 20
-3573.410920736757
 97
        0
 75
     0
 76
     1
 98
        0
  0
LWPOLYLINE
  5
302
330
1F
100
AcDbEntity
  8
Ech.1_5
 62
     7
370
     9
100
AcDbPolyline
 90
        5
 70
     0
 43
0.0
 10
-299.4125711945715
 20
-3574.314809536776
 10
-299.0792375950041
 20
-3574.314809536776
 10
-299.0792375950041
 20
-3573.410920736757
 10
-299.4125711945715
 20
-3573.410920736757
 10
-299.4125711945715
 20
-3574.314809536776
  0
HATCH
  5
303
330
1F
100
AcDbEntity
  8
Ech.1_5
 62
   252
440
 33554687
370
     5
100
AcDbHatch
 10
0.0
 20
0.0
 30
0.0
210
0.0
220
0.0
230
1.0
  2
SOLID
 70
     1
 71
     1
 91
        1
 92
        3
 72
     0
 73
     1
 93
        4
 10
-299.0792375950041
 20
-3574.314809536776
 10
-298.7459039954367
 20
-3574.314809536776
 10
-298.7459039954367
 20
-3573.410920736757
 10
-299.0792375950041
 20
-3573.410920736757
 97
        0
 75
     0
 76
     1
 98
        0
  0
LWPOLYLINE
  5
304
330
1F
100
AcDbEntity
  8
Ech.1_5
 62
     7
370
     9
100
AcDbPolyline
 90
        5
 70
     0
 43
0.0
 10
-299.0792375950041
 20
-3574.314809536776
 10
-298.7459039954367
 20
-3574.314809536776
 10
-298.7459039954367
 20
-3573.410920736757
 10
-299.0792375950041
 20
-3573.410920736757
 10
-299.0792375950041
 20
-3574.314809536776
  0
HATCH
  5
305
330
1F
100
AcDbEntity
  8
Ech.1_5
 62
   252
440
 33554687
370
     5
100
AcDbHatch
 10
0.0
 20
0.0
 30
0.0
210
0.0
220
0.0
230
1.0
  2
SOLID
 70
     1
 71
     1
 91
        1
 92
        3
 72
     0
 73
     1
 93
        4
 10
-298.7459043947878
 20
-3574.314809536776
 10
-298.4125707952204
 20
-3574.314809536776
 10
-298.4125707952204
 20
-3573.410920736757
 10
-298.7459043947878
 20
-3573.410920736757
 97
        0
 75
     0
 76
     1
 98
        0
  0
LWPOLYLINE
  5
306
330
1F
100
AcDbEntity
  8
Ech.1_5
 62
     7
370
     9
100
AcDbPolyline
 90
        5
 70
     0
 43
0.0
 10
-298.7459043947878
 20
-3574.314809536776
 10
-298.4125707952204
 20
-3574.314809536776
 10
-298.4125707952204
 20
-3573.410920736757
 10
-298.7459043947878
 20
-3573.410920736757
 10
-298.7459043947878
 20
-3574.314809536776
  0
HATCH
  5
307
330
1F
100
AcDbEntity
  8
Ech.1_5
 62
   252
440
 33554687
370
     5
100
AcDbHatch
 10
0.0
 20
0.0
 30
0.0
210
0.0
220
0.0
230
1.0
  2
SOLID
 70
     1
 71
     1
 91
        1
 92
        3
 72
     0
 73
     1
 93
        4
 10
-298.4125707952204
 20
-3574.314809536776
 10
-298.079237195653
 20
-3574.314809536776
 10
-298.079237195653
 20
-3573.410920736757
 10
-298.4125707952204
 20
-3573.410920736757
 97
        0
 75
     0
 76
     1
 98
        0
  0
LWPOLYLINE
  5
308
330
1F
100
AcDbEntity
  8
Ech.1_5
 62
     7
370
     9
100
AcDbPolyline
 90
        5
 70
     0
 43
0.0
 10
-298.4125707952204
 20
-3574.314809536776
 10
-298.079237195653
 20
-3574.314809536776
 10
-298.079237195653
 20
-3573.410920736757
 10
-298.4125707952204
 20
-3573.410920736757
 10
-298.4125707952204
 20
-3574.314809536776
  0
HATCH
  5
309
330
1F
100
AcDbEntity
  8
Ech.1_5
 62
   252
440
 33554687
370
     5
100
AcDbHatch
 10
0.0
 20
0.0
 30
0.0
210
0.0
220
0.0
230
1.0
  2
SOLID
 70
     1
 71
     1
 91
        1
 92
        3
 72
     0
 73
     1
 93
        4
 10
-298.0792379943552
 20
-3574.314809536776
 10
-297.7459043947878
 20
-3574.314809536776
 10
-297.7459043947878
 20
-3573.410920736757
 10
-298.0792379943552
 20
-3573.410920736757
 97
        0
 75
     0
 76
     1
 98
        0
  0
LWPOLYLINE
  5
30A
330
1F
100
AcDbEntity
  8
Ech.1_5
 62
     7
370
     9
100
AcDbPolyline
 90
        5
 70
     0
 43
0.0
 10
-298.0792379943552
 20
-3574.314809536776
 10
-297.7459043947878
 20
-3574.314809536776
 10
-297.7459043947878
 20
-3573.410920736757
 10
-298.0792379943552
 20
-3573.410920736757
 10
-298.0792379943552
 20
-3574.314809536776
  0
HATCH
  5
30B
330
1F
100
AcDbEntity
  8
Ech.1_5
 62
   252
440
 33554687
370
     5
100
AcDbHatch
 10
0.0
 20
0.0
 30
0.0
210
0.0
220
0.0
230
1.0
  2
SOLID
 70
     1
 71
     1
 91
        1
 92
        3
 72
     0
 73
     1
 93
        4
 10
-297.7459043947878
 20
-3574.314809536776
 10
-297.4125707952204
 20
-3574.314809536776
 10
-297.4125707952204
 20
-3573.410920736757
 10
-297.7459043947878
 20
-3573.410920736757
 97
        0
 75
     0
 76
     1
 98
        0
  0
LWPOLYLINE
  5
30C
330
1F
100
AcDbEntity
  8
Ech.1_5
 62
     7
370
     9
100
AcDbPolyline
 90
        5
 70
     0
 43
0.0
 10
-297.7459043947878
 20
-3574.314809536776
 10
-297.4125707952204
 20
-3574.314809536776
 10
-297.4125707952204
 20
-3573.410920736757
 10
-297.7459043947878
 20
-3573.410920736757
 10
-297.7459043947878
 20
-3574.314809536776
  0
HATCH
  5
30D
330
1F
100
AcDbEntity
  8
Ech.1_5
 62
   252
440
 33554687
370
     5
100
AcDbHatch
 10
0.0
 20
0.0
 30
0.0
210
0.0
220
0.0
230
1.0
  2
SOLID
 70
     1
 71
     1
 91
        1
 92
        3
 72
     0
 73
     1
 93
        4
 10
-297.4125707952204
 20
-3574.314809536776
 10
-297.079237195653
 20
-3574.314809536776
 10
-297.079237195653
 20
-3573.410920736757
 10
-297.4125707952204
 20
-3573.410920736757
 97
        0
 75
     0
 76
     1
 98
        0
  0
LWPOLYLINE
  5
30E
330
1F
100
AcDbEntity
  8
Ech.1_5
 62
     7
370
     9
100
AcDbPolyline
 90
        5
 70
     0
 43
0.0
 10
-297.4125707952204
 20
-3574.314809536776
 10
-297.079237195653
 20
-3574.314809536776
 10
-297.079237195653
 20
-3573.410920736757
 10
-297.4125707952204
 20
-3573.410920736757
 10
-297.4125707952204
 20
-3574.314809536776
  0
HATCH
  5
30F
330
1F
100
AcDbEntity
  8
Ech.1_5
 62
   252
440
 33554687
370
     5
100
AcDbHatch
 10
0.0
 20
0.0
 30
0.0
210
0.0
220
0.0
230
1.0
  2
SOLID
 70
     1
 71
     1
 91
        1
 92
        3
 72
     0
 73
     1
 93
        4
 10
-297.079237195653
 20
-3574.314809536776
 10
-296.7459035960856
 20
-3574.314809536776
 10
-296.7459035960856
 20
-3573.410920736757
 10
-297.079237195653
 20
-3573.410920736757
 97
        0
 75
     0
 76
     1
 98
        0
  0
LWPOLYLINE
  5
310
330
1F
100
AcDbEntity
  8
Ech.1_5
 62
     7
370
     9
100
AcDbPolyline
 90
        5
 70
     0
 43
0.0
 10
-297.079237195653
 20
-3574.314809536776
 10
-296.7459035960856
 20
-3574.314809536776
 10
-296.7459035960856
 20
-3573.410920736757
 10
-297.079237195653
 20
-3573.410920736757
 10
-297.079237195653
 20
-3574.314809536776
  0
HATCH
  5
311
330
1F
100
AcDbEntity
  8
Ech.1_5
 62
   252
440
 33554687
370
     5
100
AcDbHatch
 10
0.0
 20
0.0
 30
0.0
210
0.0
220
0.0
230
1.0
  2
SOLID
 70
     1
 71
     1
 91
        1
 92
        3
 72
     1
 73
     1
 93
        4
 10
-292.4366105111316
 20
-3573.410920736757
 42
0.0
 10
-292.7459027973833
 20
-3573.410920736757
 42
0.0
 10
-292.7459027973833
 20
-3574.314809536776
 42
0.0
 10
-292.4366105111316
 20
-3574.314809536776
 42
-0.3513591548519267
 97
        0
 75
     0
 76
     1
 98
        0
  0
LWPOLYLINE
  5
312
330
1F
100
AcDbEntity
  8
Ech.1_5
 62
     7
370
     9
100
AcDbPolyline
 90
        5
 70
     0
 43
0.0
 10
-292.4366105111316
 20
-3573.410920736757
 10
-292.7459027973833
 20
-3573.410920736757
 10
-292.7459027973833
 20
-3574.314809536776
 10
-292.4366105111316
 20
-3574.314809536776
 42
-0.3513591548518972
 10
-292.4366105111316
 20
-3573.410920736757
  0
HATCH
  5
313
330
1F
100
AcDbEntity
  8
Ech.1_5
 62
   252
440
 33554687
370
     5
100
AcDbHatch
 10
0.0
 20
0.0
 30
0.0
210
0.0
220
0.0
230
1.0
  2
SOLID
 70
     1
 71
     1
 91
        1
 92
        3
 72
     1
 73
     1
 93
        3
 10
-291.3717997105792
 20
-3573.862865136754
 42
0.0
 10
-292.4366105111316
 20
-3573.410920736757
 42
0.3513591548519267
 10
-292.4366105111316
 20
-3574.314809536776
 42
0.0
 97
        0
 75
     0
 76
     1
 98
        0
  0
LWPOLYLINE
  5
314
330
1F
100
AcDbEntity
  8
Ech.1_5
 62
     7
370
     9
100
AcDbPolyline
 90
        4
 70
     0
 43
0.0
 10
-291.3717997105792
 20
-3573.862865136754
 10
-292.4366105111316
 20
-3573.410920736757
 42
0.3513591548518956
 10
-292.4366105111316
 20
-3574.314809536776
 10
-291.3717997105792
 20
-3573.862865136754
  0
HATCH
  5
315
330
1F
100
AcDbEntity
  8
Ech.1_5
 62
   252
440
 33554687
370
     5
100
AcDbHatch
 10
0.0
 20
0.0
 30
0.0
210
0.0
220
0.0
230
1.0
  2
SOLID
 70
     1
 71
     1
 91
        1
 92
        3
 72
     1
 73
     1
 93
        6
 10
-311.0792379943553
 20
-3574.314809536772
 42
0.0
 10
-311.779237595122
 20
-3574.314809536776
 42
0.4142135727509363
 10
-312.0014599948336
 20
-3574.537031936767
 42
0.0
 10
-312.0014599948336
 20
-3573.18869833674
 42
0.4142135726682018
 10
-311.779237595122
 20
-3573.410920736757
 42
0.0
 10
-311.0792379943553
 20
-3573.410920736757
 42
0.0
 97
        0
 75
     0
 76
     1
 98
        0
  0
LWPOLYLINE
  5
316
330
1F
100
AcDbEntity
  8
Ech.1_5
 62
     7
370
     9
100
AcDbPolyline
 90
        7
 70
     0
 43
0.0
 10
-311.0792379943553
 20
-3574.314809536772
 10
-311.779237595122
 20
-3574.314809536776
 42
0.4142135727497837
 10
-312.0014599948336
 20
-3574.537031936767
 10
-312.0014599948336
 20
-3573.18869833674
 42
0.414213572666436
 10
-311.779237595122
 20
-3573.410920736757
 10
-311.0792379943553
 20
-3573.410920736757
 10
-311.0792379943553
 20
-3574.314809536772
  0
HATCH
  5
317
330
1F
100
AcDbEntity
  8
Ech.1_5
 62
   252
440
 33554687
370
     5
100
AcDbHatch
 10
0.0
 20
0.0
 30
0.0
210
0.0
220
0.0
230
1.0
  2
SOLID
 70
     1
 71
     1
 91
        1
 92
        1
 93
        2
 72
     1
 10
-312.1236819951941
 20
-3574.870365147321
 11
-312.1236819951941
 21
-3572.855365126212
 72
     2
 10
-307.0984006388634
 20
-3573.862865136766
 40
5.12528135633073
 50
168.6632793503046
 51
191.3367206496955
 73
     1
 97
        0
 75
     0
 76
     1
 98
        0
  0
LWPOLYLINE
  5
318
330
1F
100
AcDbEntity
  8
Ech.1_5
 62
     7
370
     9
100
AcDbPolyline
 90
        3
 70
     0
 43
0.0
 10
-312.1236819951941
 20
-3574.870365147321
 10
-312.1236819951941
 20
-3572.855365126212
 42
0.0992555820868614
 10
-312.1236819951941
 20
-3574.870365147321
  0
HATCH
  5
319
330
1F
100
AcDbEntity
  8
Ech.1_5
 62
   252
440
 33554687
370
     5
100
AcDbHatch
 10
0.0
 20
0.0
 30
0.0
210
0.0
220
0.0
230
1.0
  2
SOLID
 70
     1
 71
     1
 91
        1
 92
        3
 72
     0
 73
     1
 93
        6
 10
-312.0014599948336
 20
-3574.87036513675
 10
-312.0014599948336
 20
-3574.537031936767
 10
-312.0014599948336
 20
-3573.18869833674
 10
-312.0014599948329
 20
-3572.855365136759
 10
-312.1236819951941
 20
-3572.855365126212
 10
-312.1236819951941
 20
-3574.870365147321
 97
        0
 75
     0
 76
     1
 98
        0
  0
LWPOLYLINE
  5
31A
330
1F
100
AcDbEntity
  8
Ech.1_5
 62
     7
370
     9
100
AcDbPolyline
 90
        7
 70
     0
 43
0.0
 10
-312.0014599948336
 20
-3574.87036513675
 10
-312.0014599948336
 20
-3574.537031936767
 10
-312.0014599948336
 20
-3573.18869833674
 10
-312.0014599948329
 20
-3572.855365136759
 10
-312.1236819951941
 20
-3572.855365126212
 10
-312.1236819951941
 20
-3574.870365147321
 10
-312.0014599948336
 20
-3574.87036513675
  0
HATCH
  5
31B
330
1F
100
AcDbEntity
  8
Ech.1_5
 62
   252
440
 33554687
370
     5
100
AcDbHatch
 10
0.0
 20
0.0
 30
0.0
210
0.0
220
0.0
230
1.0
  2
SOLID
 70
     1
 71
     1
 91
        1
 92
        3
 72
     0
 73
     1
 93
        4
 10
-296.7459035960856
 20
-3574.314809536776
 10
-296.4125699965181
 20
-3574.314809536776
 10
-296.4125699965181
 20
-3573.410920736757
 10
-296.7459035960856
 20
-3573.410920736757
 97
        0
 75
     0
 76
     1
 98
        0
  0
LWPOLYLINE
  5
31C
330
1F
100
AcDbEntity
  8
Ech.1_5
 62
     7
370
     9
100
AcDbPolyline
 90
        5
 70
     0
 43
0.0
 10
-296.7459035960856
 20
-3574.314809536776
 10
-296.4125699965181
 20
-3574.314809536776
 10
-296.4125699965181
 20
-3573.410920736757
 10
-296.7459035960856
 20
-3573.410920736757
 10
-296.7459035960856
 20
-3574.314809536776
  0
LINE
  5
31D
330
1F
100
AcDbEntity
  8
Ech.1_5
 62
   190
370
     9
100
AcDbLine
 10
-296.0792379943552
 20
-3573.410920736757
 30
0.0
 11
-296.0792379943552
 21
-3574.314809536776
 31
0.0
  0
LINE
  5
31E
330
1F
100
AcDbEntity
  8
Ech.1_5
 62
   190
370
     9
100
AcDbLine
 10
-295.7459043947878
 20
-3573.410920736757
 30
0.0
 11
-295.7459043947878
 21
-3574.314809536776
 31
0.0
  0
LINE
  5
31F
330
1F
100
AcDbEntity
  8
Ech.1_5
 62
   190
370
     9
100
AcDbLine
 10
-295.4125715939226
 20
-3573.410920736757
 30
0.0
 11
-295.4125715939226
 21
-3574.314809536776
 31
0.0
  0
LINE
  5
320
330
1F
100
AcDbEntity
  8
Ech.1_5
 62
   190
370
     9
100
AcDbLine
 10
-296.4125707952204
 20
-3573.410920736757
 30
0.0
 11
-296.4125707952204
 21
-3574.314809536776
 31
0.0
  0
HATCH
  5
321
330
1F
100
AcDbEntity
  8
Ech.1_5
 62
   252
440
 33554687
370
     5
100
AcDbHatch
 10
0.0
 20
0.0
 30
0.0
210
0.0
220
0.0
230
1.0
  2
SOLID
 70
     1
 71
     1
 91
        1
 92
        3
 72
     0
 73
     1
 93
        4
 10
-296.4125715939226
 20
-3574.314809536776
 10
-296.0792379943552
 20
-3574.314809536776
 10
-296.0792379943552
 20
-3573.410920736757
 10
-296.4125715939226
 20
-3573.410920736757
 97
        0
 75
     0
 76
     1
 98
        0
  0
LWPOLYLINE
  5
322
330
1F
100
AcDbEntity
  8
Ech.1_5
 62
     7
370
     9
100
AcDbPolyline
 90
        5
 70
     0
 43
0.0
 10
-296.4125715939226
 20
-3574.314809536776
 10
-296.0792379943552
 20
-3574.314809536776
 10
-296.0792379943552
 20
-3573.410920736757
 10
-296.4125715939226
 20
-3573.410920736757
 10
-296.4125715939226
 20
-3574.314809536776
  0
HATCH
  5
323
330
1F
100
AcDbEntity
  8
Ech.1_5
 62
   252
440
 33554687
370
     5
100
AcDbHatch
 10
0.0
 20
0.0
 30
0.0
210
0.0
220
0.0
230
1.0
  2
SOLID
 70
     1
 71
     1
 91
        1
 92
        3
 72
     0
 73
     1
 93
        4
 10
-295.74590519349
 20
-3574.314809536776
 10
-295.4125715939226
 20
-3574.314809536776
 10
-295.4125715939226
 20
-3573.410920736757
 10
-295.74590519349
 20
-3573.410920736757
 97
        0
 75
     0
 76
     1
 98
        0
  0
LWPOLYLINE
  5
324
330
1F
100
AcDbEntity
  8
Ech.1_5
 62
     7
370
     9
100
AcDbPolyline
 90
        5
 70
     0
 43
0.0
 10
-295.74590519349
 20
-3574.314809536776
 10
-295.4125715939226
 20
-3574.314809536776
 10
-295.4125715939226
 20
-3573.410920736757
 10
-295.74590519349
 20
-3573.410920736757
 10
-295.74590519349
 20
-3574.314809536776
  0
LINE
  5
325
330
1F
100
AcDbEntity
  8
Ech.1_5
 62
   190
370
     9
100
AcDbLine
 10
-295.0792379943552
 20
-3573.410920736757
 30
0.0
 11
-295.0792379943552
 21
-3574.314809536776
 31
0.0
  0
HATCH
  5
326
330
1F
100
AcDbEntity
  8
Ech.1_5
 62
   252
440
 33554687
370
     5
100
AcDbHatch
 10
0.0
 20
0.0
 30
0.0
210
0.0
220
0.0
230
1.0
  2
SOLID
 70
     1
 71
     1
 91
        1
 92
        3
 72
     0
 73
     1
 93
        4
 10
-295.4125715939226
 20
-3574.314809536776
 10
-295.0792379943552
 20
-3574.314809536776
 10
-295.0792379943552
 20
-3573.410920736757
 10
-295.4125715939226
 20
-3573.410920736757
 97
        0
 75
     0
 76
     1
 98
        0
  0
LWPOLYLINE
  5
327
330
1F
100
AcDbEntity
  8
Ech.1_5
 62
     7
370
     9
100
AcDbPolyline
 90
        5
 70
     0
 43
0.0
 10
-295.4125715939226
 20
-3574.314809536776
 10
-295.0792379943552
 20
-3574.314809536776
 10
-295.0792379943552
 20
-3573.410920736757
 10
-295.4125715939226
 20
-3573.410920736757
 10
-295.4125715939226
 20
-3574.314809536776
  0
LINE
  5
328
330
1F
100
AcDbEntity
  8
Ech.1_5
 62
   190
370
     9
100
AcDbLine
 10
-294.7459043947878
 20
-3573.410920736757
 30
0.0
 11
-294.7459043947878
 21
-3574.314809536776
 31
0.0
  0
HATCH
  5
329
330
1F
100
AcDbEntity
  8
Ech.1_5
 62
   252
440
 33554687
370
     5
100
AcDbHatch
 10
0.0
 20
0.0
 30
0.0
210
0.0
220
0.0
230
1.0
  2
SOLID
 70
     1
 71
     1
 91
        1
 92
        3
 72
     0
 73
     1
 93
        4
 10
-295.0792379943552
 20
-3574.314809536776
 10
-294.7459043947878
 20
-3574.314809536776
 10
-294.7459043947878
 20
-3573.410920736757
 10
-295.0792379943552
 20
-3573.410920736757
 97
        0
 75
     0
 76
     1
 98
        0
  0
LWPOLYLINE
  5
32A
330
1F
100
AcDbEntity
  8
Ech.1_5
 62
     7
370
     9
100
AcDbPolyline
 90
        5
 70
     0
 43
0.0
 10
-295.0792379943552
 20
-3574.314809536776
 10
-294.7459043947878
 20
-3574.314809536776
 10
-294.7459043947878
 20
-3573.410920736757
 10
-295.0792379943552
 20
-3573.410920736757
 10
-295.0792379943552
 20
-3574.314809536776
  0
LINE
  5
32B
330
1F
100
AcDbEntity
  8
Ech.1_5
 62
   190
370
     9
100
AcDbLine
 10
-294.4125707952204
 20
-3573.410920736757
 30
0.0
 11
-294.4125707952204
 21
-3574.314809536776
 31
0.0
  0
HATCH
  5
32C
330
1F
100
AcDbEntity
  8
Ech.1_5
 62
   252
440
 33554687
370
     5
100
AcDbHatch
 10
0.0
 20
0.0
 30
0.0
210
0.0
220
0.0
230
1.0
  2
SOLID
 70
     1
 71
     1
 91
        1
 92
        3
 72
     0
 73
     1
 93
        4
 10
-294.7459043947878
 20
-3574.314809536776
 10
-294.4125707952204
 20
-3574.314809536776
 10
-294.4125707952204
 20
-3573.410920736757
 10
-294.7459043947878
 20
-3573.410920736757
 97
        0
 75
     0
 76
     1
 98
        0
  0
LWPOLYLINE
  5
32D
330
1F
100
AcDbEntity
  8
Ech.1_5
 62
     7
370
     9
100
AcDbPolyline
 90
        5
 70
     0
 43
0.0
 10
-294.7459043947878
 20
-3574.314809536776
 10
-294.4125707952204
 20
-3574.314809536776
 10
-294.4125707952204
 20
-3573.410920736757
 10
-294.7459043947878
 20
-3573.410920736757
 10
-294.7459043947878
 20
-3574.314809536776
  0
LINE
  5
32E
330
1F
100
AcDbEntity
  8
Ech.1_5
 62
   190
370
     9
100
AcDbLine
 10
-294.079237195653
 20
-3573.410920736757
 30
0.0
 11
-294.079237195653
 21
-3574.314809536776
 31
0.0
  0
HATCH
  5
32F
330
1F
100
AcDbEntity
  8
Ech.1_5
 62
   252
440
 33554687
370
     5
100
AcDbHatch
 10
0.0
 20
0.0
 30
0.0
210
0.0
220
0.0
230
1.0
  2
SOLID
 70
     1
 71
     1
 91
        1
 92
        3
 72
     0
 73
     1
 93
        4
 10
-294.4125707952204
 20
-3574.314809536776
 10
-294.079237195653
 20
-3574.314809536776
 10
-294.079237195653
 20
-3573.410920736757
 10
-294.4125707952204
 20
-3573.410920736757
 97
        0
 75
     0
 76
     1
 98
        0
  0
LWPOLYLINE
  5
330
330
1F
100
AcDbEntity
  8
Ech.1_5
 62
     7
370
     9
100
AcDbPolyline
 90
        5
 70
     0
 43
0.0
 10
-294.4125707952204
 20
-3574.314809536776
 10
-294.079237195653
 20
-3574.314809536776
 10
-294.079237195653
 20
-3573.410920736757
 10
-294.4125707952204
 20
-3573.410920736757
 10
-294.4125707952204
 20
-3574.314809536776
  0
LINE
  5
331
330
1F
100
AcDbEntity
  8
Ech.1_5
 62
   190
370
     9
100
AcDbLine
 10
-293.7459035960856
 20
-3573.410920736757
 30
0.0
 11
-293.7459035960856
 21
-3574.314809536776
 31
0.0
  0
HATCH
  5
332
330
1F
100
AcDbEntity
  8
Ech.1_5
 62
   252
440
 33554687
370
     5
100
AcDbHatch
 10
0.0
 20
0.0
 30
0.0
210
0.0
220
0.0
230
1.0
  2
SOLID
 70
     1
 71
     1
 91
        1
 92
        3
 72
     0
 73
     1
 93
        4
 10
-294.079237195653
 20
-3574.314809536776
 10
-293.7459035960856
 20
-3574.314809536776
 10
-293.7459035960856
 20
-3573.410920736757
 10
-294.079237195653
 20
-3573.410920736757
 97
        0
 75
     0
 76
     1
 98
        0
  0
LWPOLYLINE
  5
333
330
1F
100
AcDbEntity
  8
Ech.1_5
 62
     7
370
     9
100
AcDbPolyline
 90
        5
 70
     0
 43
0.0
 10
-294.079237195653
 20
-3574.314809536776
 10
-293.7459035960856
 20
-3574.314809536776
 10
-293.7459035960856
 20
-3573.410920736757
 10
-294.079237195653
 20
-3573.410920736757
 10
-294.079237195653
 20
-3574.314809536776
  0
LINE
  5
334
330
1F
100
AcDbEntity
  8
Ech.1_5
 62
   190
370
     9
100
AcDbLine
 10
-293.4125699965181
 20
-3573.410920736757
 30
0.0
 11
-293.4125699965181
 21
-3574.314809536776
 31
0.0
  0
HATCH
  5
335
330
1F
100
AcDbEntity
  8
Ech.1_5
 62
   252
440
 33554687
370
     5
100
AcDbHatch
 10
0.0
 20
0.0
 30
0.0
210
0.0
220
0.0
230
1.0
  2
SOLID
 70
     1
 71
     1
 91
        1
 92
        3
 72
     0
 73
     1
 93
        4
 10
-293.7459035960856
 20
-3574.314809536776
 10
-293.4125699965181
 20
-3574.314809536776
 10
-293.4125699965181
 20
-3573.410920736757
 10
-293.7459035960856
 20
-3573.410920736757
 97
        0
 75
     0
 76
     1
 98
        0
  0
LWPOLYLINE
  5
336
330
1F
100
AcDbEntity
  8
Ech.1_5
 62
     7
370
     9
100
AcDbPolyline
 90
        5
 70
     0
 43
0.0
 10
-293.7459035960856
 20
-3574.314809536776
 10
-293.4125699965181
 20
-3574.314809536776
 10
-293.4125699965181
 20
-3573.410920736757
 10
-293.7459035960856
 20
-3573.410920736757
 10
-293.7459035960856
 20
-3574.314809536776
  0
LINE
  5
337
330
1F
100
AcDbEntity
  8
Ech.1_5
 62
   190
370
     9
100
AcDbLine
 10
-293.0792363969508
 20
-3573.410920736757
 30
0.0
 11
-293.0792363969508
 21
-3574.314809536776
 31
0.0
  0
HATCH
  5
338
330
1F
100
AcDbEntity
  8
Ech.1_5
 62
   252
440
 33554687
370
     5
100
AcDbHatch
 10
0.0
 20
0.0
 30
0.0
210
0.0
220
0.0
230
1.0
  2
SOLID
 70
     1
 71
     1
 91
        1
 92
        3
 72
     0
 73
     1
 93
        4
 10
-293.4125699965181
 20
-3574.314809536776
 10
-293.0792363969508
 20
-3574.314809536776
 10
-293.0792363969508
 20
-3573.410920736757
 10
-293.4125699965181
 20
-3573.410920736757
 97
        0
 75
     0
 76
     1
 98
        0
  0
LWPOLYLINE
  5
339
330
1F
100
AcDbEntity
  8
Ech.1_5
 62
     7
370
     9
100
AcDbPolyline
 90
        5
 70
     0
 43
0.0
 10
-293.4125699965181
 20
-3574.314809536776
 10
-293.0792363969508
 20
-3574.314809536776
 10
-293.0792363969508
 20
-3573.410920736757
 10
-293.4125699965181
 20
-3573.410920736757
 10
-293.4125699965181
 20
-3574.314809536776
  0
LINE
  5
33A
330
1F
100
AcDbEntity
  8
Ech.1_5
 62
   190
370
     9
100
AcDbLine
 10
-292.7459027973833
 20
-3573.410920736757
 30
0.0
 11
-292.7459027973833
 21
-3574.314809536776
 31
0.0
  0
HATCH
  5
33B
330
1F
100
AcDbEntity
  8
Ech.1_5
 62
   252
440
 33554687
370
     5
100
AcDbHatch
 10
0.0
 20
0.0
 30
0.0
210
0.0
220
0.0
230
1.0
  2
SOLID
 70
     1
 71
     1
 91
        1
 92
        3
 72
     0
 73
     1
 93
        4
 10
-293.0792363969508
 20
-3574.314809536776
 10
-292.7459027973833
 20
-3574.314809536776
 10
-292.7459027973833
 20
-3573.410920736757
 10
-293.0792363969508
 20
-3573.410920736757
 97
        0
 75
     0
 76
     1
 98
        0
  0
LWPOLYLINE
  5
33C
330
1F
100
AcDbEntity
  8
Ech.1_5
 62
     7
370
     9
100
AcDbPolyline
 90
        5
 70
     0
 43
0.0
 10
-293.0792363969508
 20
-3574.314809536776
 10
-292.7459027973833
 20
-3574.314809536776
 10
-292.7459027973833
 20
-3573.410920736757
 10
-293.0792363969508
 20
-3573.410920736757
 10
-293.0792363969508
 20
-3574.314809536776
  0
LINE
  5
33D
330
1F
100
AcDbEntity
  8
Ech.1_5
 62
   190
370
     9
100
AcDbLine
 10
-312.1236819951941
 20
-3664.529997579931
 30
0.0
 11
-312.1236819951941
 21
-3666.544997579922
 31
0.0
  0
LINE
  5
33E
330
1F
100
AcDbEntity
  8
Ech.1_5
 62
   190
370
     9
100
AcDbLine
 10
-312.0014599948336
 20
-3666.544997579922
 30
0.0
 11
-312.1236819951941
 21
-3666.544997579922
 31
0.0
  0
HATCH
  5
33F
330
1F
100
AcDbEntity
  8
Ech.1_5
 62
   252
440
 33554687
370
     5
100
AcDbHatch
 10
0.0
 20
0.0
 30
0.0
210
0.0
220
0.0
230
1.0
  2
SOLID
 70
     1
 71
     1
 91
        1
 92
        3
 72
     0
 73
     1
 93
        4
 10
-296.0792379943552
 20
-3665.989441979948
 10
-295.7459043947878
 20
-3665.989441979948
 10
-295.7459043947878
 20
-3665.085553179929
 10
-296.0792379943552
 20
-3665.085553179929
 97
        0
 75
     0
 76
     1
 98
        0
  0
LWPOLYLINE
  5
340
330
1F
100
AcDbEntity
  8
Ech.1_5
 62
     7
370
     9
100
AcDbPolyline
 90
        5
 70
     0
 43
0.0
 10
-296.0792379943552
 20
-3665.989441979948
 10
-295.7459043947878
 20
-3665.989441979948
 10
-295.7459043947878
 20
-3665.085553179929
 10
-296.0792379943552
 20
-3665.085553179929
 10
-296.0792379943552
 20
-3665.989441979948
  0
LINE
  5
341
330
1F
100
AcDbEntity
  8
Ech.1_5
 62
   190
370
     9
100
AcDbLine
 10
-292.4366105111316
 20
-3665.085553179929
 30
0.0
 11
-311.779237595122
 21
-3665.085553179929
 31
0.0
  0
LINE
  5
342
330
1F
100
AcDbEntity
  8
Ech.1_5
 62
   190
370
     9
100
AcDbLine
 10
-292.4366105111316
 20
-3665.989441979948
 30
0.0
 11
-311.758219935844
 21
-3665.989441979948
 31
0.0
  0
ARC
  5
343
330
1F
100
AcDbEntity
  8
Ech.1_5
 62
   190
370
     9
100
AcDbCircle
 10
-307.0984006388591
 20
-3665.537497579938
 30
0.0
 40
5.125281356334954
100
AcDbArc
 50
168.6632793503191
 51
191.3367206496809
  0
LINE
  5
344
330
1F
100
AcDbEntity
  8
Ech.1_5
 62
   190
370
     9
100
AcDbLine
 10
-312.0014599948329
 20
-3664.529997579931
 30
0.0
 11
-312.0014599948336
 21
-3664.863330779912
 31
0.0
  0
ARC
  5
345
330
1F
100
AcDbEntity
  8
Ech.1_5
 62
   190
370
     9
100
AcDbCircle
 10
-311.779237598874
 20
-3664.86333078397
 30
0.0
 40
0.2222223959595107
100
AcDbArc
 50
179.9999989537972
 51
270.0000009673976
  0
LINE
  5
346
330
1F
100
AcDbEntity
  8
Ech.1_5
 62
   190
370
     9
100
AcDbLine
 10
-312.0014599948336
 20
-3664.863330779912
 30
0.0
 11
-312.0014599948336
 21
-3666.211664379938
 31
0.0
  0
ARC
  5
347
330
1F
100
AcDbEntity
  8
Ech.1_5
 62
   190
370
     9
100
AcDbCircle
 10
-311.7792375989191
 20
-3666.211664375862
 30
0.0
 40
0.2222223959144851
100
AcDbArc
 50
89.99999902098024
 51
180.0000010510099
  0
LINE
  5
348
330
1F
100
AcDbEntity
  8
Ech.1_5
 62
   190
370
     9
100
AcDbLine
 10
-312.0014599948336
 20
-3666.544997579922
 30
0.0
 11
-312.0014599948336
 21
-3666.211664379938
 31
0.0
  0
LINE
  5
349
330
1F
100
AcDbEntity
  8
Ech.1_5
 62
   190
370
     9
100
AcDbLine
 10
-307.7459043947878
 20
-3665.085553179929
 30
0.0
 11
-307.7459043947878
 21
-3665.989441979948
 31
0.0
  0
LINE
  5
34A
330
1F
100
AcDbEntity
  8
Ech.1_5
 62
   190
370
     9
100
AcDbLine
 10
-307.4125711945715
 20
-3665.085553179929
 30
0.0
 11
-307.4125711945715
 21
-3665.989441979948
 31
0.0
  0
LINE
  5
34B
330
1F
100
AcDbEntity
  8
Ech.1_5
 62
   190
370
     9
100
AcDbLine
 10
-308.7459043947878
 20
-3665.085553179929
 30
0.0
 11
-308.7459043947878
 21
-3665.989441979948
 31
0.0
  0
LINE
  5
34C
330
1F
100
AcDbEntity
  8
Ech.1_5
 62
   190
370
     9
100
AcDbLine
 10
-308.4125711945715
 20
-3665.085553179929
 30
0.0
 11
-308.4125711945715
 21
-3665.989441979948
 31
0.0
  0
LINE
  5
34D
330
1F
100
AcDbEntity
  8
Ech.1_5
 62
   190
370
     9
100
AcDbLine
 10
-308.0792379943553
 20
-3665.085553179929
 30
0.0
 11
-308.0792379943553
 21
-3665.989441979948
 31
0.0
  0
LINE
  5
34E
330
1F
100
AcDbEntity
  8
Ech.1_5
 62
   190
370
     9
100
AcDbLine
 10
-309.7459043947878
 20
-3665.085553179929
 30
0.0
 11
-309.7459043947878
 21
-3665.989441979948
 31
0.0
  0
LINE
  5
34F
330
1F
100
AcDbEntity
  8
Ech.1_5
 62
   190
370
     9
100
AcDbLine
 10
-309.4125711945715
 20
-3665.085553179929
 30
0.0
 11
-309.4125711945715
 21
-3665.989441979948
 31
0.0
  0
LINE
  5
350
330
1F
100
AcDbEntity
  8
Ech.1_5
 62
   190
370
     9
100
AcDbLine
 10
-309.0792379943553
 20
-3665.085553179929
 30
0.0
 11
-309.0792379943553
 21
-3665.989441979948
 31
0.0
  0
LINE
  5
351
330
1F
100
AcDbEntity
  8
Ech.1_5
 62
   190
370
     9
100
AcDbLine
 10
-310.0792379943553
 20
-3665.085553179929
 30
0.0
 11
-310.0792379943553
 21
-3665.989441979948
 31
0.0
  0
LINE
  5
352
330
1F
100
AcDbEntity
  8
Ech.1_5
 62
   190
370
     9
100
AcDbLine
 10
-310.4125711945715
 20
-3665.085553179929
 30
0.0
 11
-310.4125711945715
 21
-3665.989441979948
 31
0.0
  0
LINE
  5
353
330
1F
100
AcDbEntity
  8
Ech.1_5
 62
   190
370
     9
100
AcDbLine
 10
-310.7459043947878
 20
-3665.085553179929
 30
0.0
 11
-310.7459043947878
 21
-3665.989441979948
 31
0.0
  0
LINE
  5
354
330
1F
100
AcDbEntity
  8
Ech.1_5
 62
   190
370
     9
100
AcDbLine
 10
-311.0792379943553
 20
-3665.085553179929
 30
0.0
 11
-311.0792379943553
 21
-3665.989441979944
 31
0.0
  0
LINE
  5
355
330
1F
100
AcDbEntity
  8
Ech.1_5
 62
   190
370
     9
100
AcDbLine
 10
-297.0792379943552
 20
-3665.085553179929
 30
0.0
 11
-297.0792379943552
 21
-3665.989441979948
 31
0.0
  0
LINE
  5
356
330
1F
100
AcDbEntity
  8
Ech.1_5
 62
   190
370
     9
100
AcDbLine
 10
-297.4125711945715
 20
-3665.085553179929
 30
0.0
 11
-297.4125711945715
 21
-3665.989441979948
 31
0.0
  0
LINE
  5
357
330
1F
100
AcDbEntity
  8
Ech.1_5
 62
   190
370
     9
100
AcDbLine
 10
-296.7459043947878
 20
-3665.085553179929
 30
0.0
 11
-296.7459043947878
 21
-3665.989441979948
 31
0.0
  0
LINE
  5
358
330
1F
100
AcDbEntity
  8
Ech.1_5
 62
   190
370
     9
100
AcDbLine
 10
-298.4125711945715
 20
-3665.085553179929
 30
0.0
 11
-298.4125711945715
 21
-3665.989441979948
 31
0.0
  0
LINE
  5
359
330
1F
100
AcDbEntity
  8
Ech.1_5
 62
   190
370
     9
100
AcDbLine
 10
-298.0792379943552
 20
-3665.085553179929
 30
0.0
 11
-298.0792379943552
 21
-3665.989441979948
 31
0.0
  0
LINE
  5
35A
330
1F
100
AcDbEntity
  8
Ech.1_5
 62
   190
370
     9
100
AcDbLine
 10
-297.7459043947878
 20
-3665.085553179929
 30
0.0
 11
-297.7459043947878
 21
-3665.989441979948
 31
0.0
  0
LINE
  5
35B
330
1F
100
AcDbEntity
  8
Ech.1_5
 62
   190
370
     9
100
AcDbLine
 10
-299.4125711945715
 20
-3665.085553179929
 30
0.0
 11
-299.4125711945715
 21
-3665.989441979948
 31
0.0
  0
LINE
  5
35C
330
1F
100
AcDbEntity
  8
Ech.1_5
 62
   190
370
     9
100
AcDbLine
 10
-299.0792379943552
 20
-3665.085553179929
 30
0.0
 11
-299.0792379943552
 21
-3665.989441979948
 31
0.0
  0
LINE
  5
35D
330
1F
100
AcDbEntity
  8
Ech.1_5
 62
   190
370
     9
100
AcDbLine
 10
-298.7459043947878
 20
-3665.085553179929
 30
0.0
 11
-298.7459043947878
 21
-3665.989441979948
 31
0.0
  0
LINE
  5
35E
330
1F
100
AcDbEntity
  8
Ech.1_5
 62
   190
370
     9
100
AcDbLine
 10
-300.4125711945715
 20
-3665.085553179929
 30
0.0
 11
-300.4125711945715
 21
-3665.989441979948
 31
0.0
  0
LINE
  5
35F
330
1F
100
AcDbEntity
  8
Ech.1_5
 62
   190
370
     9
100
AcDbLine
 10
-300.0792379943552
 20
-3665.085553179929
 30
0.0
 11
-300.0792379943552
 21
-3665.989441979948
 31
0.0
  0
LINE
  5
360
330
1F
100
AcDbEntity
  8
Ech.1_5
 62
   190
370
     9
100
AcDbLine
 10
-299.7459043947878
 20
-3665.085553179929
 30
0.0
 11
-299.7459043947878
 21
-3665.989441979948
 31
0.0
  0
LINE
  5
361
330
1F
100
AcDbEntity
  8
Ech.1_5
 62
   190
370
     9
100
AcDbLine
 10
-300.7459043947878
 20
-3665.085553179929
 30
0.0
 11
-300.7459043947878
 21
-3665.989441979948
 31
0.0
  0
LINE
  5
362
330
1F
100
AcDbEntity
  8
Ech.1_5
 62
   190
370
     9
100
AcDbLine
 10
-306.0792379943552
 20
-3665.085553179929
 30
0.0
 11
-306.0792379943552
 21
-3665.989441979948
 31
0.0
  0
LINE
  5
363
330
1F
100
AcDbEntity
  8
Ech.1_5
 62
   190
370
     9
100
AcDbLine
 10
-305.7459043947878
 20
-3665.085553179929
 30
0.0
 11
-305.7459043947878
 21
-3665.989441979948
 31
0.0
  0
LINE
  5
364
330
1F
100
AcDbEntity
  8
Ech.1_5
 62
   190
370
     9
100
AcDbLine
 10
-305.4125711945715
 20
-3665.085553179929
 30
0.0
 11
-305.4125711945715
 21
-3665.989441979948
 31
0.0
  0
LINE
  5
365
330
1F
100
AcDbEntity
  8
Ech.1_5
 62
   190
370
     9
100
AcDbLine
 10
-305.0792379943552
 20
-3665.085553179929
 30
0.0
 11
-305.0792379943552
 21
-3665.989441979948
 31
0.0
  0
LINE
  5
366
330
1F
100
AcDbEntity
  8
Ech.1_5
 62
   190
370
     9
100
AcDbLine
 10
-312.0014599948329
 20
-3664.529997579931
 30
0.0
 11
-312.1236819951941
 21
-3664.529997579931
 31
0.0
  0
LINE
  5
367
330
1F
100
AcDbEntity
  8
Ech.1_5
 62
   190
370
     9
100
AcDbLine
 10
-304.0792379943552
 20
-3665.085553179929
 30
0.0
 11
-304.0792379943552
 21
-3665.989441979948
 31
0.0
  0
LINE
  5
368
330
1F
100
AcDbEntity
  8
Ech.1_5
 62
   190
370
     9
100
AcDbLine
 10
-304.4125711945715
 20
-3665.085553179929
 30
0.0
 11
-304.4125711945715
 21
-3665.989441979948
 31
0.0
  0
LINE
  5
369
330
1F
100
AcDbEntity
  8
Ech.1_5
 62
   190
370
     9
100
AcDbLine
 10
-304.7459043947878
 20
-3665.085553179929
 30
0.0
 11
-304.7459043947878
 21
-3665.989441979948
 31
0.0
  0
LINE
  5
36A
330
1F
100
AcDbEntity
  8
Ech.1_5
 62
   190
370
     9
100
AcDbLine
 10
-303.0792379943552
 20
-3665.085553179929
 30
0.0
 11
-303.0792379943552
 21
-3665.989441979948
 31
0.0
  0
LINE
  5
36B
330
1F
100
AcDbEntity
  8
Ech.1_5
 62
   190
370
     9
100
AcDbLine
 10
-303.4125711945715
 20
-3665.085553179929
 30
0.0
 11
-303.4125711945715
 21
-3665.989441979948
 31
0.0
  0
LINE
  5
36C
330
1F
100
AcDbEntity
  8
Ech.1_5
 62
   190
370
     9
100
AcDbLine
 10
-303.7459043947878
 20
-3665.085553179929
 30
0.0
 11
-303.7459043947878
 21
-3665.989441979948
 31
0.0
  0
LINE
  5
36D
330
1F
100
AcDbEntity
  8
Ech.1_5
 62
   190
370
     9
100
AcDbLine
 10
-302.0792379943552
 20
-3665.085553179929
 30
0.0
 11
-302.0792379943552
 21
-3665.989441979948
 31
0.0
  0
LINE
  5
36E
330
1F
100
AcDbEntity
  8
Ech.1_5
 62
   190
370
     9
100
AcDbLine
 10
-302.4125711945715
 20
-3665.085553179929
 30
0.0
 11
-302.4125711945715
 21
-3665.989441979948
 31
0.0
  0
LINE
  5
36F
330
1F
100
AcDbEntity
  8
Ech.1_5
 62
   190
370
     9
100
AcDbLine
 10
-302.7459043947878
 20
-3665.085553179929
 30
0.0
 11
-302.7459043947878
 21
-3665.989441979948
 31
0.0
  0
LINE
  5
370
330
1F
100
AcDbEntity
  8
Ech.1_5
 62
   190
370
     9
100
AcDbLine
 10
-301.0792379943552
 20
-3665.085553179929
 30
0.0
 11
-301.0792379943552
 21
-3665.989441979948
 31
0.0
  0
LINE
  5
371
330
1F
100
AcDbEntity
  8
Ech.1_5
 62
   190
370
     9
100
AcDbLine
 10
-301.4125711945715
 20
-3665.085553179929
 30
0.0
 11
-301.4125711945715
 21
-3665.989441979948
 31
0.0
  0
LINE
  5
372
330
1F
100
AcDbEntity
  8
Ech.1_5
 62
   190
370
     9
100
AcDbLine
 10
-301.7459043947878
 20
-3665.085553179929
 30
0.0
 11
-301.7459043947878
 21
-3665.989441979948
 31
0.0
  0
LINE
  5
373
330
1F
100
AcDbEntity
  8
Ech.1_5
 62
   190
370
     9
100
AcDbLine
 10
-306.7459043947878
 20
-3665.085553179929
 30
0.0
 11
-306.7459043947878
 21
-3665.989441979948
 31
0.0
  0
LINE
  5
374
330
1F
100
AcDbEntity
  8
Ech.1_5
 62
   190
370
     9
100
AcDbLine
 10
-306.4125711945715
 20
-3665.085553179929
 30
0.0
 11
-306.4125711945715
 21
-3665.989441979948
 31
0.0
  0
LINE
  5
375
330
1F
100
AcDbEntity
  8
Ech.1_5
 62
   190
370
     9
100
AcDbLine
 10
-306.0792379943552
 20
-3665.085553179929
 30
0.0
 11
-306.0792379943552
 21
-3665.989441979948
 31
0.0
  0
LINE
  5
376
330
1F
100
AcDbEntity
  8
Ech.1_5
 62
   190
370
     9
100
AcDbLine
 10
-307.0792379943552
 20
-3665.085553179929
 30
0.0
 11
-307.0792379943552
 21
-3665.989441979948
 31
0.0
  0
LINE
  5
377
330
1F
100
AcDbEntity
  8
Ech.1_5
 62
   190
370
     9
100
AcDbLine
 10
-291.3717997105792
 20
-3665.537497579926
 30
0.0
 11
-292.4366105111316
 21
-3665.085553179929
 31
0.0
  0
ARC
  5
378
330
1F
100
AcDbEntity
  8
Ech.1_5
 62
   190
370
     9
100
AcDbCircle
 10
-291.872870114893
 20
-3665.537497579925
 30
0.0
 40
0.7225351986658818
100
AcDbArc
 50
141.2812399141812
 51
218.7187600858188
  0
LINE
  5
379
330
1F
100
AcDbEntity
  8
Ech.1_5
 62
   190
370
     9
100
AcDbLine
 10
-291.3717997105792
 20
-3665.537497579926
 30
0.0
 11
-292.4366105111316
 21
-3665.989441979948
 31
0.0
  0
HATCH
  5
37A
330
1F
100
AcDbEntity
  8
Ech.1_5
 62
   252
440
 33554687
370
     5
100
AcDbHatch
 10
0.0
 20
0.0
 30
0.0
210
0.0
220
0.0
230
1.0
  2
SOLID
 70
     1
 71
     1
 91
        1
 92
        3
 72
     0
 73
     1
 93
        4
 10
-311.0792379943553
 20
-3665.989441979944
 10
-310.7459043947878
 20
-3665.989441979948
 10
-310.7459043947878
 20
-3665.085553179929
 10
-311.0792379943553
 20
-3665.085553179929
 97
        0
 75
     0
 76
     1
 98
        0
  0
LWPOLYLINE
  5
37B
330
1F
100
AcDbEntity
  8
Ech.1_5
 62
     7
370
     9
100
AcDbPolyline
 90
        5
 70
     0
 43
0.0
 10
-311.0792379943553
 20
-3665.989441979944
 10
-310.7459043947878
 20
-3665.989441979948
 10
-310.7459043947878
 20
-3665.085553179929
 10
-311.0792379943553
 20
-3665.085553179929
 10
-311.0792379943553
 20
-3665.989441979944
  0
HATCH
  5
37C
330
1F
100
AcDbEntity
  8
Ech.1_5
 62
   252
440
 33554687
370
     5
100
AcDbHatch
 10
0.0
 20
0.0
 30
0.0
210
0.0
220
0.0
230
1.0
  2
SOLID
 70
     1
 71
     1
 91
        1
 92
        3
 72
     0
 73
     1
 93
        4
 10
-310.7459043947878
 20
-3665.989441979948
 10
-310.4125707952204
 20
-3665.989441979948
 10
-310.4125707952204
 20
-3665.085553179929
 10
-310.7459043947878
 20
-3665.085553179929
 97
        0
 75
     0
 76
     1
 98
        0
  0
LWPOLYLINE
  5
37D
330
1F
100
AcDbEntity
  8
Ech.1_5
 62
     7
370
     9
100
AcDbPolyline
 90
        5
 70
     0
 43
0.0
 10
-310.7459043947878
 20
-3665.989441979948
 10
-310.4125707952204
 20
-3665.989441979948
 10
-310.4125707952204
 20
-3665.085553179929
 10
-310.7459043947878
 20
-3665.085553179929
 10
-310.7459043947878
 20
-3665.989441979948
  0
HATCH
  5
37E
330
1F
100
AcDbEntity
  8
Ech.1_5
 62
   252
440
 33554687
370
     5
100
AcDbHatch
 10
0.0
 20
0.0
 30
0.0
210
0.0
220
0.0
230
1.0
  2
SOLID
 70
     1
 71
     1
 91
        1
 92
        3
 72
     0
 73
     1
 93
        4
 10
-310.4125707952204
 20
-3665.989441979948
 10
-310.079237195653
 20
-3665.989441979948
 10
-310.079237195653
 20
-3665.085553179929
 10
-310.4125707952204
 20
-3665.085553179929
 97
        0
 75
     0
 76
     1
 98
        0
  0
LWPOLYLINE
  5
37F
330
1F
100
AcDbEntity
  8
Ech.1_5
 62
     7
370
     9
100
AcDbPolyline
 90
        5
 70
     0
 43
0.0
 10
-310.4125707952204
 20
-3665.989441979948
 10
-310.079237195653
 20
-3665.989441979948
 10
-310.079237195653
 20
-3665.085553179929
 10
-310.4125707952204
 20
-3665.085553179929
 10
-310.4125707952204
 20
-3665.989441979948
  0
HATCH
  5
380
330
1F
100
AcDbEntity
  8
Ech.1_5
 62
   252
440
 33554687
370
     5
100
AcDbHatch
 10
0.0
 20
0.0
 30
0.0
210
0.0
220
0.0
230
1.0
  2
SOLID
 70
     1
 71
     1
 91
        1
 92
        3
 72
     0
 73
     1
 93
        4
 10
-310.079237195653
 20
-3665.989441979948
 10
-309.7459035960856
 20
-3665.989441979948
 10
-309.7459035960856
 20
-3665.085553179929
 10
-310.079237195653
 20
-3665.085553179929
 97
        0
 75
     0
 76
     1
 98
        0
  0
LWPOLYLINE
  5
381
330
1F
100
AcDbEntity
  8
Ech.1_5
 62
     7
370
     9
100
AcDbPolyline
 90
        5
 70
     0
 43
0.0
 10
-310.079237195653
 20
-3665.989441979948
 10
-309.7459035960856
 20
-3665.989441979948
 10
-309.7459035960856
 20
-3665.085553179929
 10
-310.079237195653
 20
-3665.085553179929
 10
-310.079237195653
 20
-3665.989441979948
  0
HATCH
  5
382
330
1F
100
AcDbEntity
  8
Ech.1_5
 62
   252
440
 33554687
370
     5
100
AcDbHatch
 10
0.0
 20
0.0
 30
0.0
210
0.0
220
0.0
230
1.0
  2
SOLID
 70
     1
 71
     1
 91
        1
 92
        3
 72
     0
 73
     1
 93
        4
 10
-309.7459043947878
 20
-3665.989441979948
 10
-309.4125707952204
 20
-3665.989441979948
 10
-309.4125707952204
 20
-3665.085553179929
 10
-309.7459043947878
 20
-3665.085553179929
 97
        0
 75
     0
 76
     1
 98
        0
  0
LWPOLYLINE
  5
383
330
1F
100
AcDbEntity
  8
Ech.1_5
 62
     7
370
     9
100
AcDbPolyline
 90
        5
 70
     0
 43
0.0
 10
-309.7459043947878
 20
-3665.989441979948
 10
-309.4125707952204
 20
-3665.989441979948
 10
-309.4125707952204
 20
-3665.085553179929
 10
-309.7459043947878
 20
-3665.085553179929
 10
-309.7459043947878
 20
-3665.989441979948
  0
HATCH
  5
384
330
1F
100
AcDbEntity
  8
Ech.1_5
 62
   252
440
 33554687
370
     5
100
AcDbHatch
 10
0.0
 20
0.0
 30
0.0
210
0.0
220
0.0
230
1.0
  2
SOLID
 70
     1
 71
     1
 91
        1
 92
        3
 72
     0
 73
     1
 93
        4
 10
-309.4125711945715
 20
-3665.989441979948
 10
-309.0792375950041
 20
-3665.989441979948
 10
-309.0792375950041
 20
-3665.085553179926
 10
-309.4125711945715
 20
-3665.085553179929
 97
        0
 75
     0
 76
     1
 98
        0
  0
LWPOLYLINE
  5
385
330
1F
100
AcDbEntity
  8
Ech.1_5
 62
     7
370
     9
100
AcDbPolyline
 90
        5
 70
     0
 43
0.0
 10
-309.4125711945715
 20
-3665.989441979948
 10
-309.0792375950041
 20
-3665.989441979948
 10
-309.0792375950041
 20
-3665.085553179926
 10
-309.4125711945715
 20
-3665.085553179929
 10
-309.4125711945715
 20
-3665.989441979948
  0
HATCH
  5
386
330
1F
100
AcDbEntity
  8
Ech.1_5
 62
   252
440
 33554687
370
     5
100
AcDbHatch
 10
0.0
 20
0.0
 30
0.0
210
0.0
220
0.0
230
1.0
  2
SOLID
 70
     1
 71
     1
 91
        1
 92
        3
 72
     0
 73
     1
 93
        4
 10
-309.0792375950041
 20
-3665.989441979948
 10
-308.7459039954367
 20
-3665.989441979948
 10
-308.7459039954367
 20
-3665.085553179929
 10
-309.0792375950041
 20
-3665.085553179926
 97
        0
 75
     0
 76
     1
 98
        0
  0
LWPOLYLINE
  5
387
330
1F
100
AcDbEntity
  8
Ech.1_5
 62
     7
370
     9
100
AcDbPolyline
 90
        5
 70
     0
 43
0.0
 10
-309.0792375950041
 20
-3665.989441979948
 10
-308.7459039954367
 20
-3665.989441979948
 10
-308.7459039954367
 20
-3665.085553179929
 10
-309.0792375950041
 20
-3665.085553179926
 10
-309.0792375950041
 20
-3665.989441979948
  0
HATCH
  5
388
330
1F
100
AcDbEntity
  8
Ech.1_5
 62
   252
440
 33554687
370
     5
100
AcDbHatch
 10
0.0
 20
0.0
 30
0.0
210
0.0
220
0.0
230
1.0
  2
SOLID
 70
     1
 71
     1
 91
        1
 92
        3
 72
     0
 73
     1
 93
        4
 10
-308.7459043947878
 20
-3665.989441979948
 10
-308.4125707952204
 20
-3665.989441979948
 10
-308.4125707952204
 20
-3665.085553179929
 10
-308.7459043947878
 20
-3665.085553179929
 97
        0
 75
     0
 76
     1
 98
        0
  0
LWPOLYLINE
  5
389
330
1F
100
AcDbEntity
  8
Ech.1_5
 62
     7
370
     9
100
AcDbPolyline
 90
        5
 70
     0
 43
0.0
 10
-308.7459043947878
 20
-3665.989441979948
 10
-308.4125707952204
 20
-3665.989441979948
 10
-308.4125707952204
 20
-3665.085553179929
 10
-308.7459043947878
 20
-3665.085553179929
 10
-308.7459043947878
 20
-3665.989441979948
  0
HATCH
  5
38A
330
1F
100
AcDbEntity
  8
Ech.1_5
 62
   252
440
 33554687
370
     5
100
AcDbHatch
 10
0.0
 20
0.0
 30
0.0
210
0.0
220
0.0
230
1.0
  2
SOLID
 70
     1
 71
     1
 91
        1
 92
        3
 72
     0
 73
     1
 93
        4
 10
-308.4125707952204
 20
-3665.989441979948
 10
-308.079237195653
 20
-3665.989441979948
 10
-308.079237195653
 20
-3665.085553179929
 10
-308.4125707952204
 20
-3665.085553179929
 97
        0
 75
     0
 76
     1
 98
        0
  0
LWPOLYLINE
  5
38B
330
1F
100
AcDbEntity
  8
Ech.1_5
 62
     7
370
     9
100
AcDbPolyline
 90
        5
 70
     0
 43
0.0
 10
-308.4125707952204
 20
-3665.989441979948
 10
-308.079237195653
 20
-3665.989441979948
 10
-308.079237195653
 20
-3665.085553179929
 10
-308.4125707952204
 20
-3665.085553179929
 10
-308.4125707952204
 20
-3665.989441979948
  0
HATCH
  5
38C
330
1F
100
AcDbEntity
  8
Ech.1_5
 62
   252
440
 33554687
370
     5
100
AcDbHatch
 10
0.0
 20
0.0
 30
0.0
210
0.0
220
0.0
230
1.0
  2
SOLID
 70
     1
 71
     1
 91
        1
 92
        3
 72
     0
 73
     1
 93
        4
 10
-308.0792379943553
 20
-3665.989441979948
 10
-307.7459043947878
 20
-3665.989441979948
 10
-307.7459043947878
 20
-3665.085553179929
 10
-308.0792379943553
 20
-3665.085553179929
 97
        0
 75
     0
 76
     1
 98
        0
  0
LWPOLYLINE
  5
38D
330
1F
100
AcDbEntity
  8
Ech.1_5
 62
     7
370
     9
100
AcDbPolyline
 90
        5
 70
     0
 43
0.0
 10
-308.0792379943553
 20
-3665.989441979948
 10
-307.7459043947878
 20
-3665.989441979948
 10
-307.7459043947878
 20
-3665.085553179929
 10
-308.0792379943553
 20
-3665.085553179929
 10
-308.0792379943553
 20
-3665.989441979948
  0
HATCH
  5
38E
330
1F
100
AcDbEntity
  8
Ech.1_5
 62
   252
440
 33554687
370
     5
100
AcDbHatch
 10
0.0
 20
0.0
 30
0.0
210
0.0
220
0.0
230
1.0
  2
SOLID
 70
     1
 71
     1
 91
        1
 92
        3
 72
     0
 73
     1
 93
        4
 10
-307.7459043947878
 20
-3665.989441979948
 10
-307.4125707952204
 20
-3665.989441979948
 10
-307.4125707952204
 20
-3665.085553179929
 10
-307.7459043947878
 20
-3665.085553179929
 97
        0
 75
     0
 76
     1
 98
        0
  0
LWPOLYLINE
  5
38F
330
1F
100
AcDbEntity
  8
Ech.1_5
 62
     7
370
     9
100
AcDbPolyline
 90
        5
 70
     0
 43
0.0
 10
-307.7459043947878
 20
-3665.989441979948
 10
-307.4125707952204
 20
-3665.989441979948
 10
-307.4125707952204
 20
-3665.085553179929
 10
-307.7459043947878
 20
-3665.085553179929
 10
-307.7459043947878
 20
-3665.989441979948
  0
HATCH
  5
390
330
1F
100
AcDbEntity
  8
Ech.1_5
 62
   252
440
 33554687
370
     5
100
AcDbHatch
 10
0.0
 20
0.0
 30
0.0
210
0.0
220
0.0
230
1.0
  2
SOLID
 70
     1
 71
     1
 91
        1
 92
        3
 72
     0
 73
     1
 93
        4
 10
-307.4125707952204
 20
-3665.989441979948
 10
-307.079237195653
 20
-3665.989441979948
 10
-307.0792371956522
 20
-3665.085553179929
 10
-307.4125707952204
 20
-3665.085553179929
 97
        0
 75
     0
 76
     1
 98
        0
  0
LWPOLYLINE
  5
391
330
1F
100
AcDbEntity
  8
Ech.1_5
 62
     7
370
     9
100
AcDbPolyline
 90
        5
 70
     0
 43
0.0
 10
-307.4125707952204
 20
-3665.989441979948
 10
-307.079237195653
 20
-3665.989441979948
 10
-307.0792371956522
 20
-3665.085553179929
 10
-307.4125707952204
 20
-3665.085553179929
 10
-307.4125707952204
 20
-3665.989441979948
  0
HATCH
  5
392
330
1F
100
AcDbEntity
  8
Ech.1_5
 62
   252
440
 33554687
370
     5
100
AcDbHatch
 10
0.0
 20
0.0
 30
0.0
210
0.0
220
0.0
230
1.0
  2
SOLID
 70
     1
 71
     1
 91
        1
 92
        3
 72
     0
 73
     1
 93
        4
 10
-307.079237195653
 20
-3665.989441979948
 10
-306.7459035960856
 20
-3665.989441979948
 10
-306.7459035960856
 20
-3665.085553179929
 10
-307.0792371956522
 20
-3665.085553179929
 97
        0
 75
     0
 76
     1
 98
        0
  0
LWPOLYLINE
  5
393
330
1F
100
AcDbEntity
  8
Ech.1_5
 62
     7
370
     9
100
AcDbPolyline
 90
        5
 70
     0
 43
0.0
 10
-307.079237195653
 20
-3665.989441979948
 10
-306.7459035960856
 20
-3665.989441979948
 10
-306.7459035960856
 20
-3665.085553179929
 10
-307.0792371956522
 20
-3665.085553179929
 10
-307.079237195653
 20
-3665.989441979948
  0
HATCH
  5
394
330
1F
100
AcDbEntity
  8
Ech.1_5
 62
   252
440
 33554687
370
     5
100
AcDbHatch
 10
0.0
 20
0.0
 30
0.0
210
0.0
220
0.0
230
1.0
  2
SOLID
 70
     1
 71
     1
 91
        1
 92
        3
 72
     0
 73
     1
 93
        4
 10
-306.7459035960856
 20
-3665.989441979948
 10
-306.4125699965181
 20
-3665.989441979948
 10
-306.4125699965181
 20
-3665.085553179929
 10
-306.7459035960856
 20
-3665.085553179929
 97
        0
 75
     0
 76
     1
 98
        0
  0
LWPOLYLINE
  5
395
330
1F
100
AcDbEntity
  8
Ech.1_5
 62
     7
370
     9
100
AcDbPolyline
 90
        5
 70
     0
 43
0.0
 10
-306.7459035960856
 20
-3665.989441979948
 10
-306.4125699965181
 20
-3665.989441979948
 10
-306.4125699965181
 20
-3665.085553179929
 10
-306.7459035960856
 20
-3665.085553179929
 10
-306.7459035960856
 20
-3665.989441979948
  0
HATCH
  5
396
330
1F
100
AcDbEntity
  8
Ech.1_5
 62
   252
440
 33554687
370
     5
100
AcDbHatch
 10
0.0
 20
0.0
 30
0.0
210
0.0
220
0.0
230
1.0
  2
SOLID
 70
     1
 71
     1
 91
        1
 92
        3
 72
     0
 73
     1
 93
        4
 10
-306.4125707952204
 20
-3665.989441979948
 10
-306.079237195653
 20
-3665.989441979948
 10
-306.079237195653
 20
-3665.085553179929
 10
-306.4125707952204
 20
-3665.085553179929
 97
        0
 75
     0
 76
     1
 98
        0
  0
LWPOLYLINE
  5
397
330
1F
100
AcDbEntity
  8
Ech.1_5
 62
     7
370
     9
100
AcDbPolyline
 90
        5
 70
     0
 43
0.0
 10
-306.4125707952204
 20
-3665.989441979948
 10
-306.079237195653
 20
-3665.989441979948
 10
-306.079237195653
 20
-3665.085553179929
 10
-306.4125707952204
 20
-3665.085553179929
 10
-306.4125707952204
 20
-3665.989441979948
  0
HATCH
  5
398
330
1F
100
AcDbEntity
  8
Ech.1_5
 62
   252
440
 33554687
370
     5
100
AcDbHatch
 10
0.0
 20
0.0
 30
0.0
210
0.0
220
0.0
230
1.0
  2
SOLID
 70
     1
 71
     1
 91
        1
 92
        3
 72
     0
 73
     1
 93
        4
 10
-306.0792375950041
 20
-3665.989441979948
 10
-305.7459039954367
 20
-3665.989441979948
 10
-305.7459039954367
 20
-3665.085553179929
 10
-306.0792375950041
 20
-3665.085553179929
 97
        0
 75
     0
 76
     1
 98
        0
  0
LWPOLYLINE
  5
399
330
1F
100
AcDbEntity
  8
Ech.1_5
 62
     7
370
     9
100
AcDbPolyline
 90
        5
 70
     0
 43
0.0
 10
-306.0792375950041
 20
-3665.989441979948
 10
-305.7459039954367
 20
-3665.989441979948
 10
-305.7459039954367
 20
-3665.085553179929
 10
-306.0792375950041
 20
-3665.085553179929
 10
-306.0792375950041
 20
-3665.989441979948
  0
HATCH
  5
39A
330
1F
100
AcDbEntity
  8
Ech.1_5
 62
   252
440
 33554687
370
     5
100
AcDbHatch
 10
0.0
 20
0.0
 30
0.0
210
0.0
220
0.0
230
1.0
  2
SOLID
 70
     1
 71
     1
 91
        1
 92
        3
 72
     0
 73
     1
 93
        4
 10
-305.7459039954367
 20
-3665.989441979948
 10
-305.4125703958693
 20
-3665.989441979948
 10
-305.4125703958693
 20
-3665.085553179929
 10
-305.7459039954367
 20
-3665.085553179929
 97
        0
 75
     0
 76
     1
 98
        0
  0
LWPOLYLINE
  5
39B
330
1F
100
AcDbEntity
  8
Ech.1_5
 62
     7
370
     9
100
AcDbPolyline
 90
        5
 70
     0
 43
0.0
 10
-305.7459039954367
 20
-3665.989441979948
 10
-305.4125703958693
 20
-3665.989441979948
 10
-305.4125703958693
 20
-3665.085553179929
 10
-305.7459039954367
 20
-3665.085553179929
 10
-305.7459039954367
 20
-3665.989441979948
  0
HATCH
  5
39C
330
1F
100
AcDbEntity
  8
Ech.1_5
 62
   252
440
 33554687
370
     5
100
AcDbHatch
 10
0.0
 20
0.0
 30
0.0
210
0.0
220
0.0
230
1.0
  2
SOLID
 70
     1
 71
     1
 91
        1
 92
        3
 72
     0
 73
     1
 93
        4
 10
-305.4125707952204
 20
-3665.989441979948
 10
-305.079237195653
 20
-3665.989441979948
 10
-305.079237195653
 20
-3665.085553179929
 10
-305.4125707952204
 20
-3665.085553179929
 97
        0
 75
     0
 76
     1
 98
        0
  0
LWPOLYLINE
  5
39D
330
1F
100
AcDbEntity
  8
Ech.1_5
 62
     7
370
     9
100
AcDbPolyline
 90
        5
 70
     0
 43
0.0
 10
-305.4125707952204
 20
-3665.989441979948
 10
-305.079237195653
 20
-3665.989441979948
 10
-305.079237195653
 20
-3665.085553179929
 10
-305.4125707952204
 20
-3665.085553179929
 10
-305.4125707952204
 20
-3665.989441979948
  0
HATCH
  5
39E
330
1F
100
AcDbEntity
  8
Ech.1_5
 62
   252
440
 33554687
370
     5
100
AcDbHatch
 10
0.0
 20
0.0
 30
0.0
210
0.0
220
0.0
230
1.0
  2
SOLID
 70
     1
 71
     1
 91
        1
 92
        3
 72
     0
 73
     1
 93
        4
 10
-305.079237195653
 20
-3665.989441979948
 10
-304.7459035960856
 20
-3665.989441979948
 10
-304.7459035960856
 20
-3665.085553179929
 10
-305.079237195653
 20
-3665.085553179929
 97
        0
 75
     0
 76
     1
 98
        0
  0
LWPOLYLINE
  5
39F
330
1F
100
AcDbEntity
  8
Ech.1_5
 62
     7
370
     9
100
AcDbPolyline
 90
        5
 70
     0
 43
0.0
 10
-305.079237195653
 20
-3665.989441979948
 10
-304.7459035960856
 20
-3665.989441979948
 10
-304.7459035960856
 20
-3665.085553179929
 10
-305.079237195653
 20
-3665.085553179929
 10
-305.079237195653
 20
-3665.989441979948
  0
HATCH
  5
3A0
330
1F
100
AcDbEntity
  8
Ech.1_5
 62
   252
440
 33554687
370
     5
100
AcDbHatch
 10
0.0
 20
0.0
 30
0.0
210
0.0
220
0.0
230
1.0
  2
SOLID
 70
     1
 71
     1
 91
        1
 92
        3
 72
     0
 73
     1
 93
        4
 10
-304.7459043947878
 20
-3665.989441979948
 10
-304.4125707952204
 20
-3665.989441979948
 10
-304.4125707952204
 20
-3665.085553179929
 10
-304.7459043947878
 20
-3665.085553179929
 97
        0
 75
     0
 76
     1
 98
        0
  0
LWPOLYLINE
  5
3A1
330
1F
100
AcDbEntity
  8
Ech.1_5
 62
     7
370
     9
100
AcDbPolyline
 90
        5
 70
     0
 43
0.0
 10
-304.7459043947878
 20
-3665.989441979948
 10
-304.4125707952204
 20
-3665.989441979948
 10
-304.4125707952204
 20
-3665.085553179929
 10
-304.7459043947878
 20
-3665.085553179929
 10
-304.7459043947878
 20
-3665.989441979948
  0
HATCH
  5
3A2
330
1F
100
AcDbEntity
  8
Ech.1_5
 62
   252
440
 33554687
370
     5
100
AcDbHatch
 10
0.0
 20
0.0
 30
0.0
210
0.0
220
0.0
230
1.0
  2
SOLID
 70
     1
 71
     1
 91
        1
 92
        3
 72
     0
 73
     1
 93
        4
 10
-304.4125707952204
 20
-3665.989441979948
 10
-304.079237195653
 20
-3665.989441979948
 10
-304.079237195653
 20
-3665.085553179929
 10
-304.4125707952204
 20
-3665.085553179929
 97
        0
 75
     0
 76
     1
 98
        0
  0
LWPOLYLINE
  5
3A3
330
1F
100
AcDbEntity
  8
Ech.1_5
 62
     7
370
     9
100
AcDbPolyline
 90
        5
 70
     0
 43
0.0
 10
-304.4125707952204
 20
-3665.989441979948
 10
-304.079237195653
 20
-3665.989441979948
 10
-304.079237195653
 20
-3665.085553179929
 10
-304.4125707952204
 20
-3665.085553179929
 10
-304.4125707952204
 20
-3665.989441979948
  0
HATCH
  5
3A4
330
1F
100
AcDbEntity
  8
Ech.1_5
 62
   252
440
 33554687
370
     5
100
AcDbHatch
 10
0.0
 20
0.0
 30
0.0
210
0.0
220
0.0
230
1.0
  2
SOLID
 70
     1
 71
     1
 91
        1
 92
        3
 72
     0
 73
     1
 93
        4
 10
-304.079237195653
 20
-3665.989441979948
 10
-303.7459035960856
 20
-3665.989441979948
 10
-303.7459035960856
 20
-3665.085553179929
 10
-304.079237195653
 20
-3665.085553179929
 97
        0
 75
     0
 76
     1
 98
        0
  0
LWPOLYLINE
  5
3A5
330
1F
100
AcDbEntity
  8
Ech.1_5
 62
     7
370
     9
100
AcDbPolyline
 90
        5
 70
     0
 43
0.0
 10
-304.079237195653
 20
-3665.989441979948
 10
-303.7459035960856
 20
-3665.989441979948
 10
-303.7459035960856
 20
-3665.085553179929
 10
-304.079237195653
 20
-3665.085553179929
 10
-304.079237195653
 20
-3665.989441979948
  0
HATCH
  5
3A6
330
1F
100
AcDbEntity
  8
Ech.1_5
 62
   252
440
 33554687
370
     5
100
AcDbHatch
 10
0.0
 20
0.0
 30
0.0
210
0.0
220
0.0
230
1.0
  2
SOLID
 70
     1
 71
     1
 91
        1
 92
        3
 72
     0
 73
     1
 93
        4
 10
-303.7459035960856
 20
-3665.989441979948
 10
-303.4125699965174
 20
-3665.989441979948
 10
-303.4125699965181
 20
-3665.085553179929
 10
-303.7459035960856
 20
-3665.085553179929
 97
        0
 75
     0
 76
     1
 98
        0
  0
LWPOLYLINE
  5
3A7
330
1F
100
AcDbEntity
  8
Ech.1_5
 62
     7
370
     9
100
AcDbPolyline
 90
        5
 70
     0
 43
0.0
 10
-303.7459035960856
 20
-3665.989441979948
 10
-303.4125699965174
 20
-3665.989441979948
 10
-303.4125699965181
 20
-3665.085553179929
 10
-303.7459035960856
 20
-3665.085553179929
 10
-303.7459035960856
 20
-3665.989441979948
  0
HATCH
  5
3A8
330
1F
100
AcDbEntity
  8
Ech.1_5
 62
   252
440
 33554687
370
     5
100
AcDbHatch
 10
0.0
 20
0.0
 30
0.0
210
0.0
220
0.0
230
1.0
  2
SOLID
 70
     1
 71
     1
 91
        1
 92
        3
 72
     0
 73
     1
 93
        4
 10
-303.4125699965174
 20
-3665.989441979948
 10
-303.0792363969508
 20
-3665.989441979948
 10
-303.0792363969508
 20
-3665.085553179929
 10
-303.4125699965181
 20
-3665.085553179929
 97
        0
 75
     0
 76
     1
 98
        0
  0
LWPOLYLINE
  5
3A9
330
1F
100
AcDbEntity
  8
Ech.1_5
 62
     7
370
     9
100
AcDbPolyline
 90
        5
 70
     0
 43
0.0
 10
-303.4125699965174
 20
-3665.989441979948
 10
-303.0792363969508
 20
-3665.989441979948
 10
-303.0792363969508
 20
-3665.085553179929
 10
-303.4125699965181
 20
-3665.085553179929
 10
-303.4125699965174
 20
-3665.989441979948
  0
HATCH
  5
3AA
330
1F
100
AcDbEntity
  8
Ech.1_5
 62
   252
440
 33554687
370
     5
100
AcDbHatch
 10
0.0
 20
0.0
 30
0.0
210
0.0
220
0.0
230
1.0
  2
SOLID
 70
     1
 71
     1
 91
        1
 92
        3
 72
     0
 73
     1
 93
        4
 10
-303.079237195653
 20
-3665.989441979948
 10
-302.7459035960856
 20
-3665.989441979948
 10
-302.7459035960856
 20
-3665.085553179929
 10
-303.079237195653
 20
-3665.085553179929
 97
        0
 75
     0
 76
     1
 98
        0
  0
LWPOLYLINE
  5
3AB
330
1F
100
AcDbEntity
  8
Ech.1_5
 62
     7
370
     9
100
AcDbPolyline
 90
        5
 70
     0
 43
0.0
 10
-303.079237195653
 20
-3665.989441979948
 10
-302.7459035960856
 20
-3665.989441979948
 10
-302.7459035960856
 20
-3665.085553179929
 10
-303.079237195653
 20
-3665.085553179929
 10
-303.079237195653
 20
-3665.989441979948
  0
HATCH
  5
3AC
330
1F
100
AcDbEntity
  8
Ech.1_5
 62
   252
440
 33554687
370
     5
100
AcDbHatch
 10
0.0
 20
0.0
 30
0.0
210
0.0
220
0.0
230
1.0
  2
SOLID
 70
     1
 71
     1
 91
        1
 92
        3
 72
     0
 73
     1
 93
        4
 10
-302.7459039954367
 20
-3665.989441979948
 10
-302.4125703958693
 20
-3665.989441979948
 10
-302.4125703958693
 20
-3665.085553179929
 10
-302.7459039954367
 20
-3665.085553179929
 97
        0
 75
     0
 76
     1
 98
        0
  0
LWPOLYLINE
  5
3AD
330
1F
100
AcDbEntity
  8
Ech.1_5
 62
     7
370
     9
100
AcDbPolyline
 90
        5
 70
     0
 43
0.0
 10
-302.7459039954367
 20
-3665.989441979948
 10
-302.4125703958693
 20
-3665.989441979948
 10
-302.4125703958693
 20
-3665.085553179929
 10
-302.7459039954367
 20
-3665.085553179929
 10
-302.7459039954367
 20
-3665.989441979948
  0
HATCH
  5
3AE
330
1F
100
AcDbEntity
  8
Ech.1_5
 62
   252
440
 33554687
370
     5
100
AcDbHatch
 10
0.0
 20
0.0
 30
0.0
210
0.0
220
0.0
230
1.0
  2
SOLID
 70
     1
 71
     1
 91
        1
 92
        3
 72
     0
 73
     1
 93
        4
 10
-302.4125703958693
 20
-3665.989441979948
 10
-302.0792367963019
 20
-3665.989441979948
 10
-302.0792367963019
 20
-3665.085553179929
 10
-302.4125703958693
 20
-3665.085553179929
 97
        0
 75
     0
 76
     1
 98
        0
  0
LWPOLYLINE
  5
3AF
330
1F
100
AcDbEntity
  8
Ech.1_5
 62
     7
370
     9
100
AcDbPolyline
 90
        5
 70
     0
 43
0.0
 10
-302.4125703958693
 20
-3665.989441979948
 10
-302.0792367963019
 20
-3665.989441979948
 10
-302.0792367963019
 20
-3665.085553179929
 10
-302.4125703958693
 20
-3665.085553179929
 10
-302.4125703958693
 20
-3665.989441979948
  0
HATCH
  5
3B0
330
1F
100
AcDbEntity
  8
Ech.1_5
 62
   252
440
 33554687
370
     5
100
AcDbHatch
 10
0.0
 20
0.0
 30
0.0
210
0.0
220
0.0
230
1.0
  2
SOLID
 70
     1
 71
     1
 91
        1
 92
        3
 72
     0
 73
     1
 93
        4
 10
-302.079237195653
 20
-3665.989441979948
 10
-301.7459035960856
 20
-3665.989441979948
 10
-301.7459035960856
 20
-3665.085553179929
 10
-302.079237195653
 20
-3665.085553179929
 97
        0
 75
     0
 76
     1
 98
        0
  0
LWPOLYLINE
  5
3B1
330
1F
100
AcDbEntity
  8
Ech.1_5
 62
     7
370
     9
100
AcDbPolyline
 90
        5
 70
     0
 43
0.0
 10
-302.079237195653
 20
-3665.989441979948
 10
-301.7459035960856
 20
-3665.989441979948
 10
-301.7459035960856
 20
-3665.085553179929
 10
-302.079237195653
 20
-3665.085553179929
 10
-302.079237195653
 20
-3665.989441979948
  0
HATCH
  5
3B2
330
1F
100
AcDbEntity
  8
Ech.1_5
 62
   252
440
 33554687
370
     5
100
AcDbHatch
 10
0.0
 20
0.0
 30
0.0
210
0.0
220
0.0
230
1.0
  2
SOLID
 70
     1
 71
     1
 91
        1
 92
        3
 72
     0
 73
     1
 93
        4
 10
-301.7459035960856
 20
-3665.989441979948
 10
-301.4125699965181
 20
-3665.989441979948
 10
-301.4125699965181
 20
-3665.085553179929
 10
-301.7459035960856
 20
-3665.085553179929
 97
        0
 75
     0
 76
     1
 98
        0
  0
LWPOLYLINE
  5
3B3
330
1F
100
AcDbEntity
  8
Ech.1_5
 62
     7
370
     9
100
AcDbPolyline
 90
        5
 70
     0
 43
0.0
 10
-301.7459035960856
 20
-3665.989441979948
 10
-301.4125699965181
 20
-3665.989441979948
 10
-301.4125699965181
 20
-3665.085553179929
 10
-301.7459035960856
 20
-3665.085553179929
 10
-301.7459035960856
 20
-3665.989441979948
  0
HATCH
  5
3B4
330
1F
100
AcDbEntity
  8
Ech.1_5
 62
   252
440
 33554687
370
     5
100
AcDbHatch
 10
0.0
 20
0.0
 30
0.0
210
0.0
220
0.0
230
1.0
  2
SOLID
 70
     1
 71
     1
 91
        1
 92
        3
 72
     0
 73
     1
 93
        4
 10
-301.4125707952204
 20
-3665.989441979948
 10
-301.079237195653
 20
-3665.989441979948
 10
-301.079237195653
 20
-3665.085553179929
 10
-301.4125707952204
 20
-3665.085553179929
 97
        0
 75
     0
 76
     1
 98
        0
  0
LWPOLYLINE
  5
3B5
330
1F
100
AcDbEntity
  8
Ech.1_5
 62
     7
370
     9
100
AcDbPolyline
 90
        5
 70
     0
 43
0.0
 10
-301.4125707952204
 20
-3665.989441979948
 10
-301.079237195653
 20
-3665.989441979948
 10
-301.079237195653
 20
-3665.085553179929
 10
-301.4125707952204
 20
-3665.085553179929
 10
-301.4125707952204
 20
-3665.989441979948
  0
HATCH
  5
3B6
330
1F
100
AcDbEntity
  8
Ech.1_5
 62
   252
440
 33554687
370
     5
100
AcDbHatch
 10
0.0
 20
0.0
 30
0.0
210
0.0
220
0.0
230
1.0
  2
SOLID
 70
     1
 71
     1
 91
        1
 92
        3
 72
     0
 73
     1
 93
        4
 10
-301.0792379943552
 20
-3665.989441979948
 10
-300.7459043947878
 20
-3665.989441979948
 10
-300.7459043947878
 20
-3665.085553179929
 10
-301.0792379943552
 20
-3665.085553179929
 97
        0
 75
     0
 76
     1
 98
        0
  0
LWPOLYLINE
  5
3B7
330
1F
100
AcDbEntity
  8
Ech.1_5
 62
     7
370
     9
100
AcDbPolyline
 90
        5
 70
     0
 43
0.0
 10
-301.0792379943552
 20
-3665.989441979948
 10
-300.7459043947878
 20
-3665.989441979948
 10
-300.7459043947878
 20
-3665.085553179929
 10
-301.0792379943552
 20
-3665.085553179929
 10
-301.0792379943552
 20
-3665.989441979948
  0
HATCH
  5
3B8
330
1F
100
AcDbEntity
  8
Ech.1_5
 62
   252
440
 33554687
370
     5
100
AcDbHatch
 10
0.0
 20
0.0
 30
0.0
210
0.0
220
0.0
230
1.0
  2
SOLID
 70
     1
 71
     1
 91
        1
 92
        3
 72
     0
 73
     1
 93
        4
 10
-300.7459043947878
 20
-3665.989441979948
 10
-300.4125707952204
 20
-3665.989441979948
 10
-300.4125707952204
 20
-3665.085553179929
 10
-300.7459043947878
 20
-3665.085553179929
 97
        0
 75
     0
 76
     1
 98
        0
  0
LWPOLYLINE
  5
3B9
330
1F
100
AcDbEntity
  8
Ech.1_5
 62
     7
370
     9
100
AcDbPolyline
 90
        5
 70
     0
 43
0.0
 10
-300.7459043947878
 20
-3665.989441979948
 10
-300.4125707952204
 20
-3665.989441979948
 10
-300.4125707952204
 20
-3665.085553179929
 10
-300.7459043947878
 20
-3665.085553179929
 10
-300.7459043947878
 20
-3665.989441979948
  0
HATCH
  5
3BA
330
1F
100
AcDbEntity
  8
Ech.1_5
 62
   252
440
 33554687
370
     5
100
AcDbHatch
 10
0.0
 20
0.0
 30
0.0
210
0.0
220
0.0
230
1.0
  2
SOLID
 70
     1
 71
     1
 91
        1
 92
        3
 72
     0
 73
     1
 93
        4
 10
-300.4125707952204
 20
-3665.989441979948
 10
-300.079237195653
 20
-3665.989441979948
 10
-300.079237195653
 20
-3665.085553179929
 10
-300.4125707952204
 20
-3665.085553179929
 97
        0
 75
     0
 76
     1
 98
        0
  0
LWPOLYLINE
  5
3BB
330
1F
100
AcDbEntity
  8
Ech.1_5
 62
     7
370
     9
100
AcDbPolyline
 90
        5
 70
     0
 43
0.0
 10
-300.4125707952204
 20
-3665.989441979948
 10
-300.079237195653
 20
-3665.989441979948
 10
-300.079237195653
 20
-3665.085553179929
 10
-300.4125707952204
 20
-3665.085553179929
 10
-300.4125707952204
 20
-3665.989441979948
  0
HATCH
  5
3BC
330
1F
100
AcDbEntity
  8
Ech.1_5
 62
   252
440
 33554687
370
     5
100
AcDbHatch
 10
0.0
 20
0.0
 30
0.0
210
0.0
220
0.0
230
1.0
  2
SOLID
 70
     1
 71
     1
 91
        1
 92
        3
 72
     0
 73
     1
 93
        4
 10
-300.079237195653
 20
-3665.989441979948
 10
-299.7459035960856
 20
-3665.989441979948
 10
-299.7459035960856
 20
-3665.085553179929
 10
-300.079237195653
 20
-3665.085553179929
 97
        0
 75
     0
 76
     1
 98
        0
  0
LWPOLYLINE
  5
3BD
330
1F
100
AcDbEntity
  8
Ech.1_5
 62
     7
370
     9
100
AcDbPolyline
 90
        5
 70
     0
 43
0.0
 10
-300.079237195653
 20
-3665.989441979948
 10
-299.7459035960856
 20
-3665.989441979948
 10
-299.7459035960856
 20
-3665.085553179929
 10
-300.079237195653
 20
-3665.085553179929
 10
-300.079237195653
 20
-3665.989441979948
  0
HATCH
  5
3BE
330
1F
100
AcDbEntity
  8
Ech.1_5
 62
   252
440
 33554687
370
     5
100
AcDbHatch
 10
0.0
 20
0.0
 30
0.0
210
0.0
220
0.0
230
1.0
  2
SOLID
 70
     1
 71
     1
 91
        1
 92
        3
 72
     0
 73
     1
 93
        4
 10
-299.7459043947878
 20
-3665.989441979948
 10
-299.4125707952204
 20
-3665.989441979948
 10
-299.4125707952204
 20
-3665.085553179929
 10
-299.7459043947878
 20
-3665.085553179929
 97
        0
 75
     0
 76
     1
 98
        0
  0
LWPOLYLINE
  5
3BF
330
1F
100
AcDbEntity
  8
Ech.1_5
 62
     7
370
     9
100
AcDbPolyline
 90
        5
 70
     0
 43
0.0
 10
-299.7459043947878
 20
-3665.989441979948
 10
-299.4125707952204
 20
-3665.989441979948
 10
-299.4125707952204
 20
-3665.085553179929
 10
-299.7459043947878
 20
-3665.085553179929
 10
-299.7459043947878
 20
-3665.989441979948
  0
HATCH
  5
3C0
330
1F
100
AcDbEntity
  8
Ech.1_5
 62
   252
440
 33554687
370
     5
100
AcDbHatch
 10
0.0
 20
0.0
 30
0.0
210
0.0
220
0.0
230
1.0
  2
SOLID
 70
     1
 71
     1
 91
        1
 92
        3
 72
     0
 73
     1
 93
        4
 10
-299.4125711945715
 20
-3665.989441979948
 10
-299.0792375950041
 20
-3665.989441979948
 10
-299.0792375950041
 20
-3665.085553179929
 10
-299.4125711945715
 20
-3665.085553179929
 97
        0
 75
     0
 76
     1
 98
        0
  0
LWPOLYLINE
  5
3C1
330
1F
100
AcDbEntity
  8
Ech.1_5
 62
     7
370
     9
100
AcDbPolyline
 90
        5
 70
     0
 43
0.0
 10
-299.4125711945715
 20
-3665.989441979948
 10
-299.0792375950041
 20
-3665.989441979948
 10
-299.0792375950041
 20
-3665.085553179929
 10
-299.4125711945715
 20
-3665.085553179929
 10
-299.4125711945715
 20
-3665.989441979948
  0
HATCH
  5
3C2
330
1F
100
AcDbEntity
  8
Ech.1_5
 62
   252
440
 33554687
370
     5
100
AcDbHatch
 10
0.0
 20
0.0
 30
0.0
210
0.0
220
0.0
230
1.0
  2
SOLID
 70
     1
 71
     1
 91
        1
 92
        3
 72
     0
 73
     1
 93
        4
 10
-299.0792375950041
 20
-3665.989441979948
 10
-298.7459039954367
 20
-3665.989441979948
 10
-298.7459039954367
 20
-3665.085553179929
 10
-299.0792375950041
 20
-3665.085553179929
 97
        0
 75
     0
 76
     1
 98
        0
  0
LWPOLYLINE
  5
3C3
330
1F
100
AcDbEntity
  8
Ech.1_5
 62
     7
370
     9
100
AcDbPolyline
 90
        5
 70
     0
 43
0.0
 10
-299.0792375950041
 20
-3665.989441979948
 10
-298.7459039954367
 20
-3665.989441979948
 10
-298.7459039954367
 20
-3665.085553179929
 10
-299.0792375950041
 20
-3665.085553179929
 10
-299.0792375950041
 20
-3665.989441979948
  0
HATCH
  5
3C4
330
1F
100
AcDbEntity
  8
Ech.1_5
 62
   252
440
 33554687
370
     5
100
AcDbHatch
 10
0.0
 20
0.0
 30
0.0
210
0.0
220
0.0
230
1.0
  2
SOLID
 70
     1
 71
     1
 91
        1
 92
        3
 72
     0
 73
     1
 93
        4
 10
-298.7459043947878
 20
-3665.989441979948
 10
-298.4125707952204
 20
-3665.989441979948
 10
-298.4125707952204
 20
-3665.085553179929
 10
-298.7459043947878
 20
-3665.085553179929
 97
        0
 75
     0
 76
     1
 98
        0
  0
LWPOLYLINE
  5
3C5
330
1F
100
AcDbEntity
  8
Ech.1_5
 62
     7
370
     9
100
AcDbPolyline
 90
        5
 70
     0
 43
0.0
 10
-298.7459043947878
 20
-3665.989441979948
 10
-298.4125707952204
 20
-3665.989441979948
 10
-298.4125707952204
 20
-3665.085553179929
 10
-298.7459043947878
 20
-3665.085553179929
 10
-298.7459043947878
 20
-3665.989441979948
  0
HATCH
  5
3C6
330
1F
100
AcDbEntity
  8
Ech.1_5
 62
   252
440
 33554687
370
     5
100
AcDbHatch
 10
0.0
 20
0.0
 30
0.0
210
0.0
220
0.0
230
1.0
  2
SOLID
 70
     1
 71
     1
 91
        1
 92
        3
 72
     0
 73
     1
 93
        4
 10
-298.4125707952204
 20
-3665.989441979948
 10
-298.079237195653
 20
-3665.989441979948
 10
-298.079237195653
 20
-3665.085553179929
 10
-298.4125707952204
 20
-3665.085553179929
 97
        0
 75
     0
 76
     1
 98
        0
  0
LWPOLYLINE
  5
3C7
330
1F
100
AcDbEntity
  8
Ech.1_5
 62
     7
370
     9
100
AcDbPolyline
 90
        5
 70
     0
 43
0.0
 10
-298.4125707952204
 20
-3665.989441979948
 10
-298.079237195653
 20
-3665.989441979948
 10
-298.079237195653
 20
-3665.085553179929
 10
-298.4125707952204
 20
-3665.085553179929
 10
-298.4125707952204
 20
-3665.989441979948
  0
HATCH
  5
3C8
330
1F
100
AcDbEntity
  8
Ech.1_5
 62
   252
440
 33554687
370
     5
100
AcDbHatch
 10
0.0
 20
0.0
 30
0.0
210
0.0
220
0.0
230
1.0
  2
SOLID
 70
     1
 71
     1
 91
        1
 92
        3
 72
     0
 73
     1
 93
        4
 10
-298.0792379943552
 20
-3665.989441979948
 10
-297.7459043947878
 20
-3665.989441979948
 10
-297.7459043947878
 20
-3665.085553179929
 10
-298.0792379943552
 20
-3665.085553179929
 97
        0
 75
     0
 76
     1
 98
        0
  0
LWPOLYLINE
  5
3C9
330
1F
100
AcDbEntity
  8
Ech.1_5
 62
     7
370
     9
100
AcDbPolyline
 90
        5
 70
     0
 43
0.0
 10
-298.0792379943552
 20
-3665.989441979948
 10
-297.7459043947878
 20
-3665.989441979948
 10
-297.7459043947878
 20
-3665.085553179929
 10
-298.0792379943552
 20
-3665.085553179929
 10
-298.0792379943552
 20
-3665.989441979948
  0
HATCH
  5
3CA
330
1F
100
AcDbEntity
  8
Ech.1_5
 62
   252
440
 33554687
370
     5
100
AcDbHatch
 10
0.0
 20
0.0
 30
0.0
210
0.0
220
0.0
230
1.0
  2
SOLID
 70
     1
 71
     1
 91
        1
 92
        3
 72
     0
 73
     1
 93
        4
 10
-297.7459043947878
 20
-3665.989441979948
 10
-297.4125707952204
 20
-3665.989441979948
 10
-297.4125707952204
 20
-3665.085553179929
 10
-297.7459043947878
 20
-3665.085553179929
 97
        0
 75
     0
 76
     1
 98
        0
  0
LWPOLYLINE
  5
3CB
330
1F
100
AcDbEntity
  8
Ech.1_5
 62
     7
370
     9
100
AcDbPolyline
 90
        5
 70
     0
 43
0.0
 10
-297.7459043947878
 20
-3665.989441979948
 10
-297.4125707952204
 20
-3665.989441979948
 10
-297.4125707952204
 20
-3665.085553179929
 10
-297.7459043947878
 20
-3665.085553179929
 10
-297.7459043947878
 20
-3665.989441979948
  0
HATCH
  5
3CC
330
1F
100
AcDbEntity
  8
Ech.1_5
 62
   252
440
 33554687
370
     5
100
AcDbHatch
 10
0.0
 20
0.0
 30
0.0
210
0.0
220
0.0
230
1.0
  2
SOLID
 70
     1
 71
     1
 91
        1
 92
        3
 72
     0
 73
     1
 93
        4
 10
-297.4125707952204
 20
-3665.989441979948
 10
-297.079237195653
 20
-3665.989441979948
 10
-297.079237195653
 20
-3665.085553179929
 10
-297.4125707952204
 20
-3665.085553179929
 97
        0
 75
     0
 76
     1
 98
        0
  0
LWPOLYLINE
  5
3CD
330
1F
100
AcDbEntity
  8
Ech.1_5
 62
     7
370
     9
100
AcDbPolyline
 90
        5
 70
     0
 43
0.0
 10
-297.4125707952204
 20
-3665.989441979948
 10
-297.079237195653
 20
-3665.989441979948
 10
-297.079237195653
 20
-3665.085553179929
 10
-297.4125707952204
 20
-3665.085553179929
 10
-297.4125707952204
 20
-3665.989441979948
  0
HATCH
  5
3CE
330
1F
100
AcDbEntity
  8
Ech.1_5
 62
   252
440
 33554687
370
     5
100
AcDbHatch
 10
0.0
 20
0.0
 30
0.0
210
0.0
220
0.0
230
1.0
  2
SOLID
 70
     1
 71
     1
 91
        1
 92
        3
 72
     0
 73
     1
 93
        4
 10
-297.079237195653
 20
-3665.989441979948
 10
-296.7459035960856
 20
-3665.989441979948
 10
-296.7459035960856
 20
-3665.085553179929
 10
-297.079237195653
 20
-3665.085553179929
 97
        0
 75
     0
 76
     1
 98
        0
  0
LWPOLYLINE
  5
3CF
330
1F
100
AcDbEntity
  8
Ech.1_5
 62
     7
370
     9
100
AcDbPolyline
 90
        5
 70
     0
 43
0.0
 10
-297.079237195653
 20
-3665.989441979948
 10
-296.7459035960856
 20
-3665.989441979948
 10
-296.7459035960856
 20
-3665.085553179929
 10
-297.079237195653
 20
-3665.085553179929
 10
-297.079237195653
 20
-3665.989441979948
  0
HATCH
  5
3D0
330
1F
100
AcDbEntity
  8
Ech.1_5
 62
   252
440
 33554687
370
     5
100
AcDbHatch
 10
0.0
 20
0.0
 30
0.0
210
0.0
220
0.0
230
1.0
  2
SOLID
 70
     1
 71
     1
 91
        1
 92
        3
 72
     1
 73
     1
 93
        4
 10
-292.4366105111316
 20
-3665.085553179929
 42
0.0
 10
-292.7459027973833
 20
-3665.085553179929
 42
0.0
 10
-292.7459027973833
 20
-3665.989441979948
 42
0.0
 10
-292.4366105111316
 20
-3665.989441979948
 42
-0.3513591548519267
 97
        0
 75
     0
 76
     1
 98
        0
  0
LWPOLYLINE
  5
3D1
330
1F
100
AcDbEntity
  8
Ech.1_5
 62
     7
370
     9
100
AcDbPolyline
 90
        5
 70
     0
 43
0.0
 10
-292.4366105111316
 20
-3665.085553179929
 10
-292.7459027973833
 20
-3665.085553179929
 10
-292.7459027973833
 20
-3665.989441979948
 10
-292.4366105111316
 20
-3665.989441979948
 42
-0.3513591548518972
 10
-292.4366105111316
 20
-3665.085553179929
  0
HATCH
  5
3D2
330
1F
100
AcDbEntity
  8
Ech.1_5
 62
   252
440
 33554687
370
     5
100
AcDbHatch
 10
0.0
 20
0.0
 30
0.0
210
0.0
220
0.0
230
1.0
  2
SOLID
 70
     1
 71
     1
 91
        1
 92
        3
 72
     1
 73
     1
 93
        3
 10
-291.3717997105792
 20
-3665.537497579926
 42
0.0
 10
-292.4366105111316
 20
-3665.085553179929
 42
0.3513591548519267
 10
-292.4366105111316
 20
-3665.989441979948
 42
0.0
 97
        0
 75
     0
 76
     1
 98
        0
  0
LWPOLYLINE
  5
3D3
330
1F
100
AcDbEntity
  8
Ech.1_5
 62
     7
370
     9
100
AcDbPolyline
 90
        4
 70
     0
 43
0.0
 10
-291.3717997105792
 20
-3665.537497579926
 10
-292.4366105111316
 20
-3665.085553179929
 42
0.3513591548518956
 10
-292.4366105111316
 20
-3665.989441979948
 10
-291.3717997105792
 20
-3665.537497579926
  0
HATCH
  5
3D4
330
1F
100
AcDbEntity
  8
Ech.1_5
 62
   252
440
 33554687
370
     5
100
AcDbHatch
 10
0.0
 20
0.0
 30
0.0
210
0.0
220
0.0
230
1.0
  2
SOLID
 70
     1
 71
     1
 91
        1
 92
        3
 72
     1
 73
     1
 93
        6
 10
-311.0792379943553
 20
-3665.989441979944
 42
0.0
 10
-311.779237595122
 20
-3665.989441979948
 42
0.4142135727488022
 10
-312.0014599948336
 20
-3666.211664379938
 42
0.0
 10
-312.0014599948336
 20
-3664.863330779912
 42
0.4142135726682018
 10
-311.779237595122
 20
-3665.085553179929
 42
0.0
 10
-311.0792379943553
 20
-3665.085553179929
 42
0.0
 97
        0
 75
     0
 76
     1
 98
        0
  0
LWPOLYLINE
  5
3D5
330
1F
100
AcDbEntity
  8
Ech.1_5
 62
     7
370
     9
100
AcDbPolyline
 90
        7
 70
     0
 43
0.0
 10
-311.0792379943553
 20
-3665.989441979944
 10
-311.779237595122
 20
-3665.989441979948
 42
0.4142135727497837
 10
-312.0014599948336
 20
-3666.211664379938
 10
-312.0014599948336
 20
-3664.863330779912
 42
0.414213572666436
 10
-311.779237595122
 20
-3665.085553179929
 10
-311.0792379943553
 20
-3665.085553179929
 10
-311.0792379943553
 20
-3665.989441979944
  0
HATCH
  5
3D6
330
1F
100
AcDbEntity
  8
Ech.1_5
 62
   252
440
 33554687
370
     5
100
AcDbHatch
 10
0.0
 20
0.0
 30
0.0
210
0.0
220
0.0
230
1.0
  2
SOLID
 70
     1
 71
     1
 91
        1
 92
        1
 93
        2
 72
     1
 10
-312.1236819951941
 20
-3666.544997590492
 11
-312.1236819951941
 21
-3664.529997569384
 72
     2
 10
-307.0984006388646
 20
-3665.537497579938
 40
5.125281356329573
 50
168.6632793503046
 51
191.3367206496955
 73
     1
 97
        0
 75
     0
 76
     1
 98
        0
  0
LWPOLYLINE
  5
3D7
330
1F
100
AcDbEntity
  8
Ech.1_5
 62
     7
370
     9
100
AcDbPolyline
 90
        3
 70
     0
 43
0.0
 10
-312.1236819951941
 20
-3666.544997590492
 10
-312.1236819951941
 20
-3664.529997569384
 42
0.0992555820868614
 10
-312.1236819951941
 20
-3666.544997590492
  0
HATCH
  5
3D8
330
1F
100
AcDbEntity
  8
Ech.1_5
 62
   252
440
 33554687
370
     5
100
AcDbHatch
 10
0.0
 20
0.0
 30
0.0
210
0.0
220
0.0
230
1.0
  2
SOLID
 70
     1
 71
     1
 91
        1
 92
        3
 72
     0
 73
     1
 93
        6
 10
-312.0014599948336
 20
-3666.544997579922
 10
-312.0014599948336
 20
-3666.211664379938
 10
-312.0014599948336
 20
-3664.863330779912
 10
-312.0014599948329
 20
-3664.529997579931
 10
-312.1236819951941
 20
-3664.529997569384
 10
-312.1236819951941
 20
-3666.544997590492
 97
        0
 75
     0
 76
     1
 98
        0
  0
LWPOLYLINE
  5
3D9
330
1F
100
AcDbEntity
  8
Ech.1_5
 62
     7
370
     9
100
AcDbPolyline
 90
        7
 70
     0
 43
0.0
 10
-312.0014599948336
 20
-3666.544997579922
 10
-312.0014599948336
 20
-3666.211664379938
 10
-312.0014599948336
 20
-3664.863330779912
 10
-312.0014599948329
 20
-3664.529997579931
 10
-312.1236819951941
 20
-3664.529997569384
 10
-312.1236819951941
 20
-3666.544997590492
 10
-312.0014599948336
 20
-3666.544997579922
  0
HATCH
  5
3DA
330
1F
100
AcDbEntity
  8
Ech.1_5
 62
   252
440
 33554687
370
     5
100
AcDbHatch
 10
0.0
 20
0.0
 30
0.0
210
0.0
220
0.0
230
1.0
  2
SOLID
 70
     1
 71
     1
 91
        1
 92
        3
 72
     0
 73
     1
 93
        4
 10
-296.7459035960856
 20
-3665.989441979948
 10
-296.4125699965181
 20
-3665.989441979948
 10
-296.4125699965181
 20
-3665.085553179929
 10
-296.7459035960856
 20
-3665.085553179929
 97
        0
 75
     0
 76
     1
 98
        0
  0
LWPOLYLINE
  5
3DB
330
1F
100
AcDbEntity
  8
Ech.1_5
 62
     7
370
     9
100
AcDbPolyline
 90
        5
 70
     0
 43
0.0
 10
-296.7459035960856
 20
-3665.989441979948
 10
-296.4125699965181
 20
-3665.989441979948
 10
-296.4125699965181
 20
-3665.085553179929
 10
-296.7459035960856
 20
-3665.085553179929
 10
-296.7459035960856
 20
-3665.989441979948
  0
LINE
  5
3DC
330
1F
100
AcDbEntity
  8
Ech.1_5
 62
   190
370
     9
100
AcDbLine
 10
-296.0792379943552
 20
-3665.085553179929
 30
0.0
 11
-296.0792379943552
 21
-3665.989441979948
 31
0.0
  0
LINE
  5
3DD
330
1F
100
AcDbEntity
  8
Ech.1_5
 62
   190
370
     9
100
AcDbLine
 10
-295.7459043947878
 20
-3665.085553179929
 30
0.0
 11
-295.7459043947878
 21
-3665.989441979948
 31
0.0
  0
LINE
  5
3DE
330
1F
100
AcDbEntity
  8
Ech.1_5
 62
   190
370
     9
100
AcDbLine
 10
-295.4125715939226
 20
-3665.085553179929
 30
0.0
 11
-295.4125715939226
 21
-3665.989441979948
 31
0.0
  0
LINE
  5
3DF
330
1F
100
AcDbEntity
  8
Ech.1_5
 62
   190
370
     9
100
AcDbLine
 10
-296.4125707952204
 20
-3665.085553179929
 30
0.0
 11
-296.4125707952204
 21
-3665.989441979948
 31
0.0
  0
HATCH
  5
3E0
330
1F
100
AcDbEntity
  8
Ech.1_5
 62
   252
440
 33554687
370
     5
100
AcDbHatch
 10
0.0
 20
0.0
 30
0.0
210
0.0
220
0.0
230
1.0
  2
SOLID
 70
     1
 71
     1
 91
        1
 92
        3
 72
     0
 73
     1
 93
        4
 10
-296.4125715939226
 20
-3665.989441979948
 10
-296.0792379943552
 20
-3665.989441979948
 10
-296.0792379943552
 20
-3665.085553179929
 10
-296.4125715939226
 20
-3665.085553179929
 97
        0
 75
     0
 76
     1
 98
        0
  0
LWPOLYLINE
  5
3E1
330
1F
100
AcDbEntity
  8
Ech.1_5
 62
     7
370
     9
100
AcDbPolyline
 90
        5
 70
     0
 43
0.0
 10
-296.4125715939226
 20
-3665.989441979948
 10
-296.0792379943552
 20
-3665.989441979948
 10
-296.0792379943552
 20
-3665.085553179929
 10
-296.4125715939226
 20
-3665.085553179929
 10
-296.4125715939226
 20
-3665.989441979948
  0
HATCH
  5
3E2
330
1F
100
AcDbEntity
  8
Ech.1_5
 62
   252
440
 33554687
370
     5
100
AcDbHatch
 10
0.0
 20
0.0
 30
0.0
210
0.0
220
0.0
230
1.0
  2
SOLID
 70
     1
 71
     1
 91
        1
 92
        3
 72
     0
 73
     1
 93
        4
 10
-295.74590519349
 20
-3665.989441979948
 10
-295.4125715939226
 20
-3665.989441979948
 10
-295.4125715939226
 20
-3665.085553179929
 10
-295.74590519349
 20
-3665.085553179929
 97
        0
 75
     0
 76
     1
 98
        0
  0
LWPOLYLINE
  5
3E3
330
1F
100
AcDbEntity
  8
Ech.1_5
 62
     7
370
     9
100
AcDbPolyline
 90
        5
 70
     0
 43
0.0
 10
-295.74590519349
 20
-3665.989441979948
 10
-295.4125715939226
 20
-3665.989441979948
 10
-295.4125715939226
 20
-3665.085553179929
 10
-295.74590519349
 20
-3665.085553179929
 10
-295.74590519349
 20
-3665.989441979948
  0
LINE
  5
3E4
330
1F
100
AcDbEntity
  8
Ech.1_5
 62
   190
370
     9
100
AcDbLine
 10
-295.0792379943552
 20
-3665.085553179929
 30
0.0
 11
-295.0792379943552
 21
-3665.989441979948
 31
0.0
  0
HATCH
  5
3E5
330
1F
100
AcDbEntity
  8
Ech.1_5
 62
   252
440
 33554687
370
     5
100
AcDbHatch
 10
0.0
 20
0.0
 30
0.0
210
0.0
220
0.0
230
1.0
  2
SOLID
 70
     1
 71
     1
 91
        1
 92
        3
 72
     0
 73
     1
 93
        4
 10
-295.4125715939226
 20
-3665.989441979948
 10
-295.0792379943552
 20
-3665.989441979948
 10
-295.0792379943552
 20
-3665.085553179929
 10
-295.4125715939226
 20
-3665.085553179929
 97
        0
 75
     0
 76
     1
 98
        0
  0
LWPOLYLINE
  5
3E6
330
1F
100
AcDbEntity
  8
Ech.1_5
 62
     7
370
     9
100
AcDbPolyline
 90
        5
 70
     0
 43
0.0
 10
-295.4125715939226
 20
-3665.989441979948
 10
-295.0792379943552
 20
-3665.989441979948
 10
-295.0792379943552
 20
-3665.085553179929
 10
-295.4125715939226
 20
-3665.085553179929
 10
-295.4125715939226
 20
-3665.989441979948
  0
LINE
  5
3E7
330
1F
100
AcDbEntity
  8
Ech.1_5
 62
   190
370
     9
100
AcDbLine
 10
-294.7459043947878
 20
-3665.085553179929
 30
0.0
 11
-294.7459043947878
 21
-3665.989441979948
 31
0.0
  0
HATCH
  5
3E8
330
1F
100
AcDbEntity
  8
Ech.1_5
 62
   252
440
 33554687
370
     5
100
AcDbHatch
 10
0.0
 20
0.0
 30
0.0
210
0.0
220
0.0
230
1.0
  2
SOLID
 70
     1
 71
     1
 91
        1
 92
        3
 72
     0
 73
     1
 93
        4
 10
-295.0792379943552
 20
-3665.989441979948
 10
-294.7459043947878
 20
-3665.989441979948
 10
-294.7459043947878
 20
-3665.085553179929
 10
-295.0792379943552
 20
-3665.085553179929
 97
        0
 75
     0
 76
     1
 98
        0
  0
LWPOLYLINE
  5
3E9
330
1F
100
AcDbEntity
  8
Ech.1_5
 62
     7
370
     9
100
AcDbPolyline
 90
        5
 70
     0
 43
0.0
 10
-295.0792379943552
 20
-3665.989441979948
 10
-294.7459043947878
 20
-3665.989441979948
 10
-294.7459043947878
 20
-3665.085553179929
 10
-295.0792379943552
 20
-3665.085553179929
 10
-295.0792379943552
 20
-3665.989441979948
  0
LINE
  5
3EA
330
1F
100
AcDbEntity
  8
Ech.1_5
 62
   190
370
     9
100
AcDbLine
 10
-294.4125707952204
 20
-3665.085553179929
 30
0.0
 11
-294.4125707952204
 21
-3665.989441979948
 31
0.0
  0
HATCH
  5
3EB
330
1F
100
AcDbEntity
  8
Ech.1_5
 62
   252
440
 33554687
370
     5
100
AcDbHatch
 10
0.0
 20
0.0
 30
0.0
210
0.0
220
0.0
230
1.0
  2
SOLID
 70
     1
 71
     1
 91
        1
 92
        3
 72
     0
 73
     1
 93
        4
 10
-294.7459043947878
 20
-3665.989441979948
 10
-294.4125707952204
 20
-3665.989441979948
 10
-294.4125707952204
 20
-3665.085553179929
 10
-294.7459043947878
 20
-3665.085553179929
 97
        0
 75
     0
 76
     1
 98
        0
  0
LWPOLYLINE
  5
3EC
330
1F
100
AcDbEntity
  8
Ech.1_5
 62
     7
370
     9
100
AcDbPolyline
 90
        5
 70
     0
 43
0.0
 10
-294.7459043947878
 20
-3665.989441979948
 10
-294.4125707952204
 20
-3665.989441979948
 10
-294.4125707952204
 20
-3665.085553179929
 10
-294.7459043947878
 20
-3665.085553179929
 10
-294.7459043947878
 20
-3665.989441979948
  0
LINE
  5
3ED
330
1F
100
AcDbEntity
  8
Ech.1_5
 62
   190
370
     9
100
AcDbLine
 10
-294.079237195653
 20
-3665.085553179929
 30
0.0
 11
-294.079237195653
 21
-3665.989441979948
 31
0.0
  0
HATCH
  5
3EE
330
1F
100
AcDbEntity
  8
Ech.1_5
 62
   252
440
 33554687
370
     5
100
AcDbHatch
 10
0.0
 20
0.0
 30
0.0
210
0.0
220
0.0
230
1.0
  2
SOLID
 70
     1
 71
     1
 91
        1
 92
        3
 72
     0
 73
     1
 93
        4
 10
-294.4125707952204
 20
-3665.989441979948
 10
-294.079237195653
 20
-3665.989441979948
 10
-294.079237195653
 20
-3665.085553179929
 10
-294.4125707952204
 20
-3665.085553179929
 97
        0
 75
     0
 76
     1
 98
        0
  0
LWPOLYLINE
  5
3EF
330
1F
100
AcDbEntity
  8
Ech.1_5
 62
     7
370
     9
100
AcDbPolyline
 90
        5
 70
     0
 43
0.0
 10
-294.4125707952204
 20
-3665.989441979948
 10
-294.079237195653
 20
-3665.989441979948
 10
-294.079237195653
 20
-3665.085553179929
 10
-294.4125707952204
 20
-3665.085553179929
 10
-294.4125707952204
 20
-3665.989441979948
  0
LINE
  5
3F0
330
1F
100
AcDbEntity
  8
Ech.1_5
 62
   190
370
     9
100
AcDbLine
 10
-293.7459035960856
 20
-3665.085553179929
 30
0.0
 11
-293.7459035960856
 21
-3665.989441979948
 31
0.0
  0
HATCH
  5
3F1
330
1F
100
AcDbEntity
  8
Ech.1_5
 62
   252
440
 33554687
370
     5
100
AcDbHatch
 10
0.0
 20
0.0
 30
0.0
210
0.0
220
0.0
230
1.0
  2
SOLID
 70
     1
 71
     1
 91
        1
 92
        3
 72
     0
 73
     1
 93
        4
 10
-294.079237195653
 20
-3665.989441979948
 10
-293.7459035960856
 20
-3665.989441979948
 10
-293.7459035960856
 20
-3665.085553179929
 10
-294.079237195653
 20
-3665.085553179929
 97
        0
 75
     0
 76
     1
 98
        0
  0
LWPOLYLINE
  5
3F2
330
1F
100
AcDbEntity
  8
Ech.1_5
 62
     7
370
     9
100
AcDbPolyline
 90
        5
 70
     0
 43
0.0
 10
-294.079237195653
 20
-3665.989441979948
 10
-293.7459035960856
 20
-3665.989441979948
 10
-293.7459035960856
 20
-3665.085553179929
 10
-294.079237195653
 20
-3665.085553179929
 10
-294.079237195653
 20
-3665.989441979948
  0
LINE
  5
3F3
330
1F
100
AcDbEntity
  8
Ech.1_5
 62
   190
370
     9
100
AcDbLine
 10
-293.4125699965181
 20
-3665.085553179929
 30
0.0
 11
-293.4125699965181
 21
-3665.989441979948
 31
0.0
  0
HATCH
  5
3F4
330
1F
100
AcDbEntity
  8
Ech.1_5
 62
   252
440
 33554687
370
     5
100
AcDbHatch
 10
0.0
 20
0.0
 30
0.0
210
0.0
220
0.0
230
1.0
  2
SOLID
 70
     1
 71
     1
 91
        1
 92
        3
 72
     0
 73
     1
 93
        4
 10
-293.7459035960856
 20
-3665.989441979948
 10
-293.4125699965181
 20
-3665.989441979948
 10
-293.4125699965181
 20
-3665.085553179929
 10
-293.7459035960856
 20
-3665.085553179929
 97
        0
 75
     0
 76
     1
 98
        0
  0
LWPOLYLINE
  5
3F5
330
1F
100
AcDbEntity
  8
Ech.1_5
 62
     7
370
     9
100
AcDbPolyline
 90
        5
 70
     0
 43
0.0
 10
-293.7459035960856
 20
-3665.989441979948
 10
-293.4125699965181
 20
-3665.989441979948
 10
-293.4125699965181
 20
-3665.085553179929
 10
-293.7459035960856
 20
-3665.085553179929
 10
-293.7459035960856
 20
-3665.989441979948
  0
LINE
  5
3F6
330
1F
100
AcDbEntity
  8
Ech.1_5
 62
   190
370
     9
100
AcDbLine
 10
-293.0792363969508
 20
-3665.085553179929
 30
0.0
 11
-293.0792363969508
 21
-3665.989441979948
 31
0.0
  0
HATCH
  5
3F7
330
1F
100
AcDbEntity
  8
Ech.1_5
 62
   252
440
 33554687
370
     5
100
AcDbHatch
 10
0.0
 20
0.0
 30
0.0
210
0.0
220
0.0
230
1.0
  2
SOLID
 70
     1
 71
     1
 91
        1
 92
        3
 72
     0
 73
     1
 93
        4
 10
-293.4125699965181
 20
-3665.989441979948
 10
-293.0792363969508
 20
-3665.989441979948
 10
-293.0792363969508
 20
-3665.085553179929
 10
-293.4125699965181
 20
-3665.085553179929
 97
        0
 75
     0
 76
     1
 98
        0
  0
LWPOLYLINE
  5
3F8
330
1F
100
AcDbEntity
  8
Ech.1_5
 62
     7
370
     9
100
AcDbPolyline
 90
        5
 70
     0
 43
0.0
 10
-293.4125699965181
 20
-3665.989441979948
 10
-293.0792363969508
 20
-3665.989441979948
 10
-293.0792363969508
 20
-3665.085553179929
 10
-293.4125699965181
 20
-3665.085553179929
 10
-293.4125699965181
 20
-3665.989441979948
  0
LINE
  5
3F9
330
1F
100
AcDbEntity
  8
Ech.1_5
 62
   190
370
     9
100
AcDbLine
 10
-292.7459027973833
 20
-3665.085553179929
 30
0.0
 11
-292.7459027973833
 21
-3665.989441979948
 31
0.0
  0
HATCH
  5
3FA
330
1F
100
AcDbEntity
  8
Ech.1_5
 62
   252
440
 33554687
370
     5
100
AcDbHatch
 10
0.0
 20
0.0
 30
0.0
210
0.0
220
0.0
230
1.0
  2
SOLID
 70
     1
 71
     1
 91
        1
 92
        3
 72
     0
 73
     1
 93
        4
 10
-293.0792363969508
 20
-3665.989441979948
 10
-292.7459027973833
 20
-3665.989441979948
 10
-292.7459027973833
 20
-3665.085553179929
 10
-293.0792363969508
 20
-3665.085553179929
 97
        0
 75
     0
 76
     1
 98
        0
  0
LWPOLYLINE
  5
3FB
330
1F
100
AcDbEntity
  8
Ech.1_5
 62
     7
370
     9
100
AcDbPolyline
 90
        5
 70
     0
 43
0.0
 10
-293.0792363969508
 20
-3665.989441979948
 10
-292.7459027973833
 20
-3665.989441979948
 10
-292.7459027973833
 20
-3665.085553179929
 10
-293.0792363969508
 20
-3665.085553179929
 10
-293.0792363969508
 20
-3665.989441979948
  0
DIMENSION
  5
3FD
102
{ACAD_REACTORS
330
3FE
102
}
330
1F
100
AcDbEntity
  8
Ech.1_5
 62
   190
370
    20
100
AcDbDimension
280
     0
  2
*D70
 10
-293.9407073341128
 20
-3581.862865136754
 30
0.0
 11
-298.4407073341128
 21
-3582.87954853187
 31
0.0
 70
   160
  1
5 mm
 71
     5
 42
2.03336679023232
 73
     0
 74
     0
 75
     0
 53
90.0
  3
Standard
100
AcDbAlignedDimension
 13
-296.3368974873105
 23
-3583.896231926987
 33
0.0
 14
-284.3368974873105
 24
-3581.862865136754
 34
0.0
 50
-90.0
100
AcDbRotatedDimension
1001
ACAD
1000
DSTYLE
1002
{
1070
   178
1070
   190
1070
   271
1070
     0
1070
   147
1040
0.0
1070
   140
1040
5.0
1070
   340
1005
3FC
1070
   144
1040
1.0
1070
    42
1040
0.0
1070
    44
1040
2.0
1070
    41
1040
2.0
1070
   342
1005
1AB
1070
   175
1070
     1
1070
   279
1070
     2
1070
   172
1070
     1
1002
}
  0
DIMENSION
  5
40E
102
{ACAD_REACTORS
330
40F
102
}
330
1F
100
AcDbEntity
  8
Ech.1_5
 62
   190
370
    20
100
AcDbDimension
280
     0
  2
*D71
 10
-293.9407073341128
 20
-3655.504130789693
 30
0.0
 11
-298.4407073341128
 21
-3656.52081418481
 31
0.0
 70
   160
  1
5 mm
 71
     5
 42
2.03336679023323
 73
     0
 74
     0
 75
     0
 53
90.0
  3
Standard
100
AcDbAlignedDimension
 13
-296.3368974873105
 23
-3657.537497579926
 33
0.0
 14
-284.3368974873105
 24
-3655.504130789693
 34
0.0
 50
-90.0
100
AcDbRotatedDimension
1001
ACAD
1000
DSTYLE
1002
{
1070
   178
1070
   190
1070
   271
1070
     0
1070
   147
1040
0.0
1070
   140
1040
5.0
1070
   340
1005
3FC
1070
   144
1040
1.0
1070
    42
1040
0.0
1070
    44
1040
2.0
1070
    41
1040
2.0
1070
   342
1005
1AB
1070
   175
1070
     1
1070
   279
1070
     2
1070
   172
1070
     1
1002
}
  0
MTEXT
  5
41E
330
1F
100
AcDbEntity
  8
Ech.1_5
 62
     4
420
    65535
100
AcDbMText
 10
-236.5203853481551
 20
-3857.515243748199
 30
0.0
 40
5.0
 41
195.3371538540771
 46
0.0
 71
     2
 72
     1
  1
{\fArial|b0|i0;\W1.000000;\H5.000000;\c16711848;Vue en coupe verticale}
 73
     1
 44
1.07999975538982
  0
MTEXT
  5
41F
330
1F
100
AcDbEntity
  8
Ech.1_5
 62
     4
420
    65535
100
AcDbMText
 10
-108.3923413398174
 20
-3857.448373151139
 30
0.0
 40
5.0
 41
50.91893416259846
 46
0.0
 71
     2
 72
     1
  1
{\fArial|b0|i0;\W1.000000;\H5.000000;\c16711848;Ech 1/5 }
 73
     1
 44
1.07999975538982
  0
MTEXT
  5
420
330
1F
100
AcDbEntity
  8
Ech.1_5
 62
     4
420
    65535
100
AcDbMText
 10
-367.9200058742645
 20
-3857.339670630146
 30
0.0
 40
5.0
 41
57.46208719814166
 46
0.0
 71
     2
 72
     1
  1
{\fArial|b0|i0;\W1.000000;\H5.000000;\c16711848;BLEVT140-01}
 73
     1
 44
1.07999975538982
  0
MTEXT
  5
421
330
1F
100
AcDbEntity
  8
Ech.1_5
 62
   200
420
 11010303
100
AcDbMText
 10
-277.4328742585182
 20
-3865.92231756488
 30
0.0
 40
2.25
 41
391.75
 46
0.0
 71
     2
 72
     1
  3
{\fArial|b0|i1;\W1.000000;\H2.250000;\c16711848; Il est rappelé à l'utilisateur qui consulte le site et utilise les informations qu'il contient, qu'il doit les utiliser sous sa seule responsabilité en vérifiant leur pertinence, leur cohérence et leur
  1
 non obsolescence.}
 73
     1
 44
1.07999975538982
  0
MTEXT
  5
422
330
1F
100
AcDbEntity
  8
Ech.1_5
 62
   200
420
 11010303
100
AcDbMText
 10
-277.4328742585182
 20
-3879.463128722283
 30
0.0
 40
2.75
 41
391.25
 46
0.0
 71
     2
 72
     1
  1
{\fArial|b0|i1;\W1.000000;\H2.750000;\c16711848;www.catalogue-bois-construction.fr}
 73
     1
 44
1.07999975538982
  0
MTEXT
  5
423
330
1F
100
AcDbEntity
  8
Ech.1_5
 62
     4
420
    65535
100
AcDbMText
 10
-277.4328742585182
 20
-3397.368888425389
 30
0.0
 40
6.0
 41
388.0
 46
0.0
 71
     2
 72
     1
  1
{\fArial|b0|i0;\W1.000000;\H6.000000;\c16711848;Traversée de paroi - Détail sur Conduit - Compatible niveau étanchéité Ee1}
 73
     1
 44
1.07999975538982
  0
MTEXT
  5
424
330
1F
100
AcDbEntity
  8
Ech.1_5
 62
     4
420
    65535
100
AcDbMText
 10
-333.7445338565238
 20
-3468.292683519348
 30
0.0
 40
5.5
 41
128.040702014303
 46
0.0
 71
     3
 72
     1
  1
{\fArial|b0|i0;\W1.000000;\H5.500000;\c16711848;Double-tasseautage bois support de bardage}
 73
     1
 44
1.07999975538982
  0
MTEXT
  5
425
330
1F
100
AcDbEntity
  8
Ech.1_5
 62
     4
420
    65535
100
AcDbMText
 10
-333.7445338565238
 20
-3492.45980532972
 30
0.0
 40
5.5
 41
73.49250351114318
 46
0.0
 71
     3
 72
     1
  1
{\fArial|b0|i0;\W1.000000;\H5.500000;\c16711848;Paroi support}
 73
     1
 44
1.07999975538982
  0
MTEXT
  5
426
330
1F
100
AcDbEntity
  8
Ech.1_5
 62
     4
420
    65535
100
AcDbMText
 10
-333.7445338565238
 20
-3513.913470108269
 30
0.0
 40
5.5
 41
124.199807772784
 46
0.0
 71
     3
 72
     1
  1
{\fArial|b0|i0;\W1.000000;\H5.500000;\c16711848;Bardage bois en lames à emboitement en pose verticale - épaisseur 26 mm mini}
 73
     1
 44
1.07999975538982
  0
MTEXT
  5
427
330
1F
100
AcDbEntity
  8
Ech.1_5
 62
     4
420
    65535
100
AcDbMText
 10
-170.5063963736328
 20
-3673.198130137302
 30
0.0
 40
5.5
 41
31.81121144732461
 46
0.0
 71
     1
 72
     1
  1
{\fArial|b0|i0;\W1.000000;\H5.500000;\c16711848;Conduit}
 73
     1
 44
1.07999975538982
  0
MTEXT
  5
428
330
1F
100
AcDbEntity
  8
Ech.1_5
 62
     4
420
    65535
100
AcDbMText
 10
-330.9945338565238
 20
-3708.369143081413
 30
0.0
 40
5.5
 41
122.9995030632126
 46
0.0
 71
     3
 72
     1
  1
{\fArial|b0|i0;\W1.000000;\H5.500000;\c16711848;Manchon ou manchette élastique en caoutchouc EPDM - diamètre fonction du fourreau}
 73
     1
 44
1.07999975538982
  0
MTEXT
  5
429
330
1F
100
AcDbEntity
  8
Ech.1_5
 62
     4
420
    65535
100
AcDbMText
 10
-330.9945338565238
 20
-3666.443635222272
 30
0.0
 40
5.5
 41
106.1882031679153
 46
0.0
 71
     3
 72
     1
  1
{\fArial|b0|i0;\W1.000000;\H5.500000;\c16711848;Tasseaux à prévoir de part et d'autre du percement pour fixation des lames de bardage}
 73
     1
 44
1.07999975538982
  0
MTEXT
  5
42A
330
1F
100
AcDbEntity
  8
Ech.1_5
 62
   200
420
 11010303
100
AcDbMText
 10
-277.4328742585174
 20
-3372.004899456169
 30
0.0
 40
6.0
 41
388.0000000000015
 46
0.0
 71
     2
 72
     1
  1
{\fArial|b1|i0;\W1.000000;\H6.000000;\c16711848;BARDAGES EN LAMES : lames à emboitement - pose verticale (épaisseur 26 mm mini)}
 73
     1
 44
1.07999975538982
1001
ACAD
1000
ACAD_MTEXT_TEXT_BORDERS_BEGIN
1070
    80
1070
    16
1070
    46
1040
1.5
1070
    81
1070
     1
1070
     5
1005
448
1000
ACAD_MTEXT_TEXT_BORDERS_END
  0
TEXT
  5
42C
330
1F
100
AcDbEntity
  8
Ech.1_5
 62
   190
100
AcDbText
 10
-453.704021977602
 20
-3862.31203037003
 30
0.0
 40
5.0
  1
15/10/2020
  7
arial-
100
AcDbText
  0
TEXT
  5
42D
330
1F
100
AcDbEntity
  8
Ech.1_5
 62
   190
100
AcDbText
 10
-330.9109565339073
 20
-3391.25828657245
 30
0.0
 40
6.6
  1
avec exigences feu façade
  7
arial-
100
AcDbText
  0
TEXT
  5
42F
330
1F
100
AcDbEntity
  8
Ech.1_5
 62
   154
420
    21156
100
AcDbText
 10
-138.9896312228892
 20
-3432.257310189297
 30
0.0
 40
5.999999999999999
  1
m
 50
8.975659904336128
 41
0.8000000000000003
  7
tahoma-b
100
AcDbText
  0
TEXT
  5
430
330
1F
100
AcDbEntity
  8
Ech.1_5
 62
   154
420
    21156
100
AcDbText
 10
-145.8411096404183
 20
-3434.504506931368
 30
0.0
 40
6.0
  1
C
 50
20.66888961048487
 41
0.8000000000000002
  7
tahoma-b
100
AcDbText
  0
TEXT
  5
431
330
1F
100
AcDbEntity
  8
Ech.1_5
 62
   154
420
    21156
100
AcDbText
 10
-142.2887205753148
 20
-3433.164374795034
 30
0.0
 40
6.0
  1
o
 50
15.37326472334289
 41
0.8000000000000003
  7
tahoma-b
100
AcDbText
  0
TEXT
  5
432
330
1F
100
AcDbEntity
  8
Ech.1_5
 62
   154
420
    21156
100
AcDbText
 10
-133.7576887372219
 20
-3431.430930115884
 30
0.0
 40
6.0
  1
p
 50
2.547444553695084
 41
0.8000000000000002
  7
tahoma-b
100
AcDbText
  0
TEXT
  5
433
330
1F
100
AcDbEntity
  8
Ech.1_5
 62
   154
420
    21156
100
AcDbText
 10
-130.2978988447947
 20
-3431.277001934805
 30
0.0
 40
6.000000000000001
  1
a
 50
357.5885357786794
 41
0.8000000000000002
  7
tahoma-b
100
AcDbText
  0
TEXT
  5
434
330
1F
100
AcDbEntity
  8
Ech.1_5
 62
   154
420
    21156
100
AcDbText
 10
-127.004405753241
 20
-3431.415700347022
 30
0.0
 40
6.0
  1
t
 50
353.609164414797
 41
0.8000000000000003
  7
tahoma-b
100
AcDbText
  0
TEXT
  5
435
330
1F
100
AcDbEntity
  8
Ech.1_5
 62
   154
420
    21156
100
AcDbText
 10
-124.8892001074368
 20
-3431.652616098804
 30
0.0
 40
6.0
  1
i
 50
350.976657171565
 41
0.8000000000000002
  7
tahoma-b
100
AcDbText
  0
TEXT
  5
436
330
1F
100
AcDbEntity
  8
Ech.1_5
 62
   154
420
    21156
100
AcDbText
 10
-123.4464936166791
 20
-3431.881720914359
 30
0.0
 40
6.0
  1
b
 50
347.3646125172069
 41
0.8000000000000002
  7
tahoma-b
100
AcDbText
  0
TEXT
  5
437
330
1F
100
AcDbEntity
  8
Ech.1_5
 62
   154
420
    21156
100
AcDbText
 10
-120.0671538535295
 20
-3432.639284607959
 30
0.0
 40
6.0
  1
l
 50
343.7525678627382
 41
0.8000000000000002
  7
tahoma-b
100
AcDbText
  0
TEXT
  5
438
330
1F
100
AcDbEntity
  8
Ech.1_5
 62
   154
420
    21156
100
AcDbText
 10
-118.6647096936191
 20
-3433.047991609758
 30
0.0
 40
6.0
  1
e
 50
340.2629653357314
 41
0.7999999999999999
  7
tahoma-b
100
AcDbText
  0
TEXT
  5
439
330
1F
100
AcDbEntity
  8
Ech.1_5
 62
   154
420
    21156
100
AcDbText
 10
-151.9066392237066
 20
-3484.505783161103
 30
0.0
 40
5.999999999999999
  1
s
 50
329.3124952401501
 41
0.8000000000000004
  7
tahoma-b
100
AcDbText
  0
TEXT
  5
43A
330
1F
100
AcDbEntity
  8
Ech.1_5
 62
   154
420
    21156
100
AcDbText
 10
-149.107694544136
 20
-3486.166849405378
 30
0.0
 40
6.0
  1
u
 50
334.6276163794432
 41
0.8000000000000002
  7
tahoma-b
100
AcDbText
  0
TEXT
  5
43B
330
1F
100
AcDbEntity
  8
Ech.1_5
 62
   154
420
    21156
100
AcDbText
 10
-145.451140097301
 20
-3487.900949781622
 30
0.0
 40
6.0
  1
r
 50
339.5478999136491
 41
0.8000000000000002
  7
tahoma-b
100
AcDbText
  0
TEXT
  5
43C
330
1F
100
AcDbEntity
  8
Ech.1_5
 62
   154
420
    21156
100
AcDbText
 10
-141.3822184735334
 20
-3489.324896117802
 30
0.0
 40
6.0
  1
p
 50
346.7359685598691
 41
0.8000000000000002
  7
tahoma-b
100
AcDbText
  0
TEXT
  5
43D
330
1F
100
AcDbEntity
  8
Ech.1_5
 62
   154
420
    21156
100
AcDbText
 10
-137.5244118910712
 20
-3490.234286183329
 30
0.0
 40
6.0
  1
a
 50
352.3548109071129
 41
0.8000000000000002
  7
tahoma-b
100
AcDbText
  0
TEXT
  5
43E
330
1F
100
AcDbEntity
  8
Ech.1_5
 62
   154
420
    21156
100
AcDbText
 10
-133.8026944094621
 20
-3490.733857203288
 30
0.0
 40
6.0
  1
r
 50
357.0624896304931
 41
0.8000000000000002
  7
tahoma-b
100
AcDbText
  0
TEXT
  5
43F
330
1F
100
AcDbEntity
  8
Ech.1_5
 62
   154
420
    21156
100
AcDbText
 10
-131.093751933569
 20
-3490.872864408461
 30
0.0
 40
5.999999999999999
  1
o
 50
1.861284750917796
 41
0.8
  7
tahoma-b
100
AcDbText
  0
TEXT
  5
440
330
1F
100
AcDbEntity
  8
Ech.1_5
 62
   154
420
    21156
100
AcDbText
 10
-127.215632152171
 20
-3490.746837229443
 30
0.0
 40
6.0
  1
i
 50
6.083009645690633
 41
0.8000000000000002
  7
tahoma-b
100
AcDbText
  0
TEXT
  5
441
330
1F
100
AcDbEntity
  8
Ech.1_5
 62
   154
420
    21156
100
AcDbText
 10
-123.7249164700268
 20
-3490.302930853908
 30
0.0
 40
6.0
  1
b
 50
12.69400806614421
 41
0.8000000000000002
  7
tahoma-b
100
AcDbText
  0
TEXT
  5
442
330
1F
100
AcDbEntity
  8
Ech.1_5
 62
   154
420
    21156
100
AcDbText
 10
-119.8582536288763
 20
-3489.431965646886
 30
0.0
 40
6.0
  1
o
 50
18.40396681049952
 41
0.8000000000000002
  7
tahoma-b
100
AcDbText
  0
TEXT
  5
443
330
1F
100
AcDbEntity
  8
Ech.1_5
 62
   154
420
    21156
100
AcDbText
 10
-116.1765410531363
 20
-3488.206939770278
 30
0.0
 40
6.0
  1
i
 50
22.62569170520567
 41
0.8000000000000002
  7
tahoma-b
100
AcDbText
  0
TEXT
  5
444
330
1F
100
AcDbEntity
  8
Ech.1_5
 62
   154
420
    21156
100
AcDbText
 10
-114.4044840195529
 20
-3487.468371166024
 30
0.0
 40
5.999999999999999
  1
s
 50
26.3918347880026
 41
0.8000000000000003
  7
tahoma-b
100
AcDbText
  0
TEXT
  5
445
330
1F
100
AcDbEntity
  8
Ech.1_5
 62
   154
420
    21156
100
AcDbText
 10
-140.1362038904547
 20
-3475.646819947819
 30
0.0
 40
10.0
  1
E
 50
345.2222144971117
 41
0.8
  7
tahoma-b
100
AcDbText
  0
TEXT
  5
446
330
1F
100
AcDbEntity
  8
Ech.1_5
 62
   154
420
    21156
100
AcDbText
 10
-133.8967428954907
 20
-3477.292768903301
 30
0.0
 40
10.0
  1
e
 50
359.2406769519343
 41
0.8
  7
tahoma-b
100
AcDbText
  0
TEXT
  5
447
330
1F
100
AcDbEntity
  8
Ech.1_5
 62
   154
420
    21156
100
AcDbText
 10
-127.6515194475847
 20
-3477.37553974246
 30
0.0
 40
10.0
  1
1
 50
13.4889499997951
 41
0.8
  7
tahoma-b
100
AcDbText
  0
LWPOLYLINE
  5
448
330
1F
100
AcDbEntity
  8
Ech.1_5
 62
   200
420
 11010303
100
AcDbPolyline
 90
        4
 70
     1
 43
0.0
 10
-474.4328742585182
 20
-3369.004899456169
 10
-80.43287425851668
 20
-3369.004899456169
 10
-80.43287425851668
 20
-3382.900899456169
 10
-474.4328742585182
 20
-3382.900899456169
  0
VIEWPORT
  5
233
330
22D
100
AcDbEntity
 67
     1
  8
0
100
AcDbViewport
 10
98.8
 20
135.8
 30
0.0
 40
209.0608
 41
287.3528000000001
 68
     1
 69
     1
 12
128.5
 22
97.5
 13
0.0
 23
0.0
 14
10.0
 24
10.0
 15
10.0
 25
10.0
 16
0.0
 26
0.0
 36
1.0
 17
0.0
 27
0.0
 37
0.0
 42
50.0
 43
0.0
 44
0.0
 45
222.18
 50
0.0
 51
0.0
 72
   100
 90
   557152
  1

281
     0
 71
     1
 74
     0
110
0.0
120
0.0
130
0.0
111
1.0
121
0.0
131
0.0
112
0.0
122
1.0
132
0.0
 79
     0
146
0.0
170
     0
 61
     5
348
2F
292
     1
282
     1
141
0.0
142
0.0
 63
   256
361
234
  0
VIEWPORT
  5
235
330
22D
100
AcDbEntity
 67
     1
  8
0
 60
     1
100
AcDbViewport
 10
98.8
 20
135.8
 30
0.0
 40
197.6
 41
271.6
 68
     2
 69
     2
 12
-277.4328742585182
 22
-3640.004899456169
 13
0.0
 23
0.0
 14
10.0
 24
10.0
 15
10.0
 25
10.0
 16
0.0
 26
0.0
 36
1.0
 17
0.0
 27
0.0
 37
0.0
 42
50.0
 43
0.0
 44
0.0
 45
543.2
 50
0.0
 51
0.0
 72
   100
 90
   557152
  1

281
     0
 71
     1
 74
     0
110
0.0
120
0.0
130
0.0
111
1.0
121
0.0
131
0.0
112
0.0
122
1.0
132
0.0
 79
     0
146
0.0
170
     0
 61
     5
348
2F
292
     1
282
     1
141
0.0
142
0.0
 63
   256
  0
ENDSEC
  0
SECTION
  2
OBJECTS
  0
DICTIONARY
  5
C
330
0
100
AcDbDictionary
281
     1
  3
ACAD_DETAILVIEWSTYLE
350
450
  3
ACAD_GROUP
350
D
  3
ACAD_IMAGE_DICT
350
246
  3
ACAD_IMAGE_VARS
350
6F
  3
ACAD_LAYOUT
350
1A
  3
ACAD_MATERIAL
350
43
  3
ACAD_MLEADERSTYLE
350
6B
  3
ACAD_MLINESTYLE
350
17
  3
ACAD_PLOTSETTINGS
350
19
  3
ACAD_PLOTSTYLENAME
350
E
  3
ACAD_SCALELIST
350
47
  3
ACAD_SECTIONVIEWSTYLE
350
451
  3
ACAD_TABLESTYLE
350
69
  3
ACAD_VISUALSTYLE
350
2A
  3
ACDB_RECOMPOSE_DATA
350
44D
  3
AcDbVariableDictionary
350
449
  0
SUN
  5
6D
330
29
100
AcDbSun
 90
        1
290
     0
 63
     7
421
 16777215
 40
1.0
291
     1
 91
  2455826
 92
 54000000
292
     0
 70
     2
 71
   256
280
     1
  0
IMAGEDEF_REACTOR
  5
249
330
248
100
AcDbRasterImageDefReactor
 90
        2
330
248
  0
IMAGEDEF_REACTOR
  5
24C
330
24B
100
AcDbRasterImageDefReactor
 90
        2
330
24B
  0
IMAGEDEF_REACTOR
  5
24F
330
24E
100
AcDbRasterImageDefReactor
 90
        2
330
24E
  0
SUN
  5
234
330
233
100
AcDbSun
 90
        1
290
     0
 63
     7
421
 16777215
 40
1.0
291
     1
 91
  2455826
 92
 54000000
292
     0
 70
     2
 71
   256
280
     1
  0
DICTIONARY
  5
450
102
{ACAD_REACTORS
330
C
102
}
330
C
100
AcDbDictionary
281
     1
  0
DICTIONARY
  5
D
102
{ACAD_REACTORS
330
C
102
}
330
C
100
AcDbDictionary
281
     1
  3
DIM74
350
3FE
  3
DIM75
350
40F
  0
DICTIONARY
  5
246
102
{ACAD_REACTORS
330
C
102
}
330
C
100
AcDbDictionary
281
     1
  3
C:\Users\MAIFFR~1\AppData\Local\Temp\EXE_LOGO_FBF_soutien_Q_L.jpg1
350
24A
  3
C:\Users\MAIFFR~1\AppData\Local\Temp\fcba.jpg0
350
247
  3
C:\Users\MAIFFR~1\AppData\Local\Temp\logo_codifab_baseline_soutien.jpg2
350
24D
  0
RASTERVARIABLES
  5
6F
102
{ACAD_REACTORS
330
C
102
}
330
C
100
AcDbRasterVariables
 90
        0
 70
     0
 71
     1
 72
     1
  0
DICTIONARY
  5
1A
102
{ACAD_REACTORS
330
C
102
}
330
C
100
AcDbDictionary
281
     1
  3
CompleteLayout
350
1E
  3
Model
350
22
  3
PrintFrame_141
350
22E
  0
DICTIONARY
  5
43
102
{ACAD_REACTORS
330
C
102
}
330
C
100
AcDbDictionary
281
     1
  3
ByBlock
350
45
  3
ByLayer
350
44
  3
Global
350
46
  0
DICTIONARY
  5
6B
102
{ACAD_REACTORS
330
C
102
}
330
C
100
AcDbDictionary
281
     1
  3
Standard
350
6C
  0
DICTIONARY
  5
17
102
{ACAD_REACTORS
330
C
102
}
330
C
100
AcDbDictionary
281
     1
  3
Standard
350
18
  0
DICTIONARY
  5
19
102
{ACAD_REACTORS
330
C
102
}
330
C
100
AcDbDictionary
281
     1
  3
PlotSettings_
350
231
  0
ACDBDICTIONARYWDFLT
  5
E
102
{ACAD_REACTORS
330
C
102
}
330
C
100
AcDbDictionary
281
     1
  3
Normal
350
F
100
AcDbDictionaryWithDefault
340
F
  0
DICTIONARY
  5
47
102
{ACAD_REACTORS
330
C
102
}
330
C
100
AcDbDictionary
281
     1
  3
A0
350
48
  3
A1
350
49
  3
A2
350
4A
  3
A3
350
4B
  3
A4
350
4C
  3
A5
350
4D
  3
A6
350
4E
  3
A7
350
4F
  3
A8
350
50
  3
A9
350
51
  3
B0
350
52
  3
B1
350
53
  3
B2
350
54
  3
B3
350
55
  3
B4
350
56
  3
B5
350
57
  3
B6
350
58
  3
B7
350
59
  3
B8
350
5A
  3
B9
350
5B
  3
C0
350
5C
  3
C1
350
5D
  3
C2
350
5E
  3
C3
350
5F
  3
C4
350
60
  3
C5
350
61
  3
C6
350
62
  3
C7
350
63
  3
C8
350
64
  3
C9
350
65
  3
D0
350
66
  3
D1
350
67
  3
D2
350
68
  0
DICTIONARY
  5
451
102
{ACAD_REACTORS
330
C
102
}
330
C
100
AcDbDictionary
281
     1
  0
DICTIONARY
  5
69
102
{ACAD_REACTORS
330
C
102
}
330
C
100
AcDbDictionary
281
     1
  3
Standard
350
6A
  0
DICTIONARY
  5
2A
102
{ACAD_REACTORS
330
C
102
}
330
C
100
AcDbDictionary
281
     1
  3
2dWireframe
350
2F
  3
Basic
350
32
  3
Brighten
350
36
  3
ColorChange
350
3A
  3
Conceptual
350
34
  3
Dim
350
35
  3
EdgeColorOff
350
3D
  3
Facepattern
350
39
  3
Flat
350
2B
  3
FlatWithEdges
350
2C
  3
Gouraud
350
2D
  3
GouraudWithEdges
350
2E
  3
Hidden
350
31
  3
JitterOff
350
3B
  3
Linepattern
350
38
  3
OverhangOff
350
3C
  3
Realistic
350
33
  3
Shaded
350
42
  3
Shaded with edges
350
41
  3
Shades of Gray
350
3E
  3
Sketchy
350
3F
  3
Thicken
350
37
  3
Wireframe
350
30
  3
X-Ray
350
40
  0
XRECORD
  5
44D
102
{ACAD_REACTORS
330
C
102
}
330
C
100
AcDbXrecord
280
     1
 90
        1
330
6A
  0
DICTIONARY
  5
449
102
{ACAD_REACTORS
330
C
102
}
330
C
100
AcDbDictionary
281
     1
  3
CANNOSCALE
350
44A
  3
CMLEADERSTYLE
350
44F
  3
CTABLESTYLE
350
44E
  3
WIPEOUTFRAME
350
452
  0
GROUP
  5
3FE
102
{ACAD_REACTORS
330
D
102
}
330
D
100
AcDbGroup
300

 70
     0
 71
     1
340
3FD
  0
GROUP
  5
40F
102
{ACAD_REACTORS
330
D
102
}
330
D
100
AcDbGroup
300

 70
     0
 71
     1
340
40E
  0
IMAGEDEF
  5
24A
102
{ACAD_REACTORS
330
246
330
24C
102
}
330
246
100
AcDbRasterImageDef
 90
        0
  1
EXE_LOGO_FBF_soutien_Q_L.jpg
 10
200.0
 20
133.0
 11
0.3527336860670194
 21
0.3527336860670194
280
     1
281
     3
  0
IMAGEDEF
  5
247
102
{ACAD_REACTORS
330
246
330
249
102
}
330
246
100
AcDbRasterImageDef
 90
        0
  1
fcba.jpg
 10
247.0
 20
171.0
 11
0.3527336860670194
 21
0.3527336860670194
280
     1
281
     3
  0
IMAGEDEF
  5
24D
102
{ACAD_REACTORS
330
246
330
24F
102
}
330
246
100
AcDbRasterImageDef
 90
        0
  1
logo_codifab_baseline_soutien.jpg
 10
1326.0
 20
580.0
 11
0.08466683600033867
 21
0.08466683600033867
280
     1
281
     3
  0
LAYOUT
  5
1E
102
{ACAD_REACTORS
330
1A
102
}
330
1A
100
AcDbPlotSettings
  1

  2
none_device
  4

  6

 40
0.0
 41
0.0
 42
0.0
 43
0.0
 44
0.0
 45
0.0
 46
0.0
 47
0.0
 48
0.0
 49
0.0
140
0.0
141
0.0
142
1.0
143
1.0
 70
   688
 72
     0
 73
     0
 74
     5
  7

 75
    16
 76
     0
 77
     2
 78
   300
147
1.0
148
0.0
149
0.0
100
AcDbLayout
  1
CompleteLayout
 70
     1
 71
     1
 10
0.0
 20
0.0
 11
12.0
 21
9.0
 12
0.0
 22
0.0
 32
0.0
 14
1.000000000000000E+20
 24
1.000000000000000E+20
 34
1.000000000000000E+20
 15
-1.000000000000000E+20
 25
-1.000000000000000E+20
 35
-1.000000000000000E+20
146
0.0
 13
0.0
 23
0.0
 33
0.0
 16
1.0
 26
0.0
 36
0.0
 17
0.0
 27
1.0
 37
0.0
 76
     0
330
1B
  0
LAYOUT
  5
22
102
{ACAD_REACTORS
330
1A
102
}
330
1A
100
AcDbPlotSettings
  1

  2
none_device
  4
Letter_(8.50_x_11.00_Inches)
  6

 40
6.35
 41
6.35
 42
6.35000508
 43
6.35000508
 44
215.9
 45
279.4
 46
0.0
 47
0.0
 48
0.0
 49
0.0
140
0.0
141
0.0
142
1.0
143
1.0
 70
  1712
 72
     0
 73
     0
 74
     0
  7

 75
     0
 76
     0
 77
     2
 78
   300
147
1.0
148
0.0
149
0.0
100
AcDbLayout
  1
Model
 70
     1
 71
     0
 10
0.0
 20
0.0
 11
12.0
 21
9.0
 12
0.0
 22
0.0
 32
0.0
 14
-474.4328742585182
 24
-3911.004899456169
 34
0.0
 15
-80.43287425851523
 25
-3369.004899456169
 35
0.0
146
0.0
 13
0.0
 23
0.0
 33
0.0
 16
1.0
 26
0.0
 36
0.0
 17
0.0
 27
1.0
 37
0.0
 76
     0
330
1F
331
29
  0
LAYOUT
  5
22E
102
{ACAD_REACTORS
330
1A
102
}
330
1A
100
AcDbPlotSettings
  1
PlotSettings_
  2
Custom Device
  4
Custom_210.000000x297.000000_12.700000_12.700000_6.200000_6.200000
  6

 40
6.2
 41
12.7
 42
6.2
 43
12.7
 44
210.0
 45
297.0
 46
0.0
 47
0.0
 48
0.0
 49
0.0
140
0.0
141
0.0
142
1.0
143
1.0
 70
   752
 72
     1
 73
     0
 74
     5
  7

 75
    16
 76
     0
 77
     2
 78
   300
147
1.0
148
0.0
149
0.0
100
AcDbLayout
  1
PrintFrame_141
 70
     0
 71
     2
 10
-20.0
 20
-7.5
 11
277.0
 21
202.5
 12
0.0
 22
0.0
 32
0.0
 14
0.0
 24
0.0
 34
0.0
 15
197.6
 25
271.6
 35
0.0
146
0.0
 13
0.0
 23
0.0
 33
0.0
 16
1.0
 26
0.0
 36
0.0
 17
0.0
 27
1.0
 37
0.0
 76
     0
330
22D
331
233
1001
PLOTTRANSPARENCY
1071
        1
1000
layout-user-created
1070
     1
1000
layout-line-weight-scale
1042
1.0
  0
MATERIAL
  5
45
102
{ACAD_REACTORS
330
43
102
}
330
43
100
AcDbMaterial
  1
ByBlock
 72
     1
 94
      127
  0
MATERIAL
  5
44
102
{ACAD_REACTORS
330
43
102
}
330
43
100
AcDbMaterial
  1
ByLayer
 72
     1
 94
      127
  0
MATERIAL
  5
46
102
{ACAD_REACTORS
330
43
102
}
330
43
100
AcDbMaterial
  1
Global
 72
     1
 94
      127
  0
MLEADERSTYLE
  5
6C
102
{ACAD_REACTORS
330
6B
102
}
330
6B
100
AcDbMLeaderStyle
179
     2
170
     2
171
     1
172
     0
 90
        2
 40
0.0
 41
0.0
173
     1
 91
-1056964608
340
14
 92
       -2
290
     1
 42
0.09
291
     1
 43
0.36
  3
Standard
341
0
 44
0.18
300

342
11
174
     1
178
     6
175
     1
176
     0
 93
-1056964608
 45
0.18
292
     0
297
     0
 46
0.18
343
0
 94
-1056964608
 47
1.0
 49
1.0
140
1.0
293
     1
141
0.0
294
     1
177
     0
142
1.0
295
     0
296
     0
143
0.125
271
     0
272
     9
273
     9
298
     0
  0
MLINESTYLE
  5
18
102
{ACAD_REACTORS
330
17
102
}
330
17
100
AcDbMlineStyle
  2
Standard
 70
     0
  3

 62
   256
 51
90.0
 52
90.0
 71
     2
 49
0.5
 62
   256
  6
BYLAYER
 49
-0.5
 62
   256
  6
BYLAYER
  0
PLOTSETTINGS
  5
231
102
{ACAD_REACTORS
330
19
102
}
330
19
100
AcDbPlotSettings
  1
PlotSettings_
  2
Custom Device
  4
Custom_210.000000x297.000000_12.700000_12.700000_6.200000_6.200000
  6

 40
6.2
 41
12.7
 42
6.2
 43
12.7
 44
210.0
 45
297.0
 46
0.0
 47
0.0
 48
0.0
 49
0.0
140
0.0
141
0.0
142
1.0
143
1.0
 70
   752
 72
     1
 73
     0
 74
     5
  7

 75
    16
 76
     0
 77
     2
 78
   300
147
1.0
148
0.0
149
0.0
1001
PLOTTRANSPARENCY
1071
        1
1000
layout-user-created
1070
     1
1000
layout-line-weight-scale
1042
1.0
  0
ACDBPLACEHOLDER
  5
F
102
{ACAD_REACTORS
330
E
102
}
330
E
  0
SCALE
  5
48
102
{ACAD_REACTORS
330
47
102
}
330
47
100
AcDbScale
 70
     0
300
1:1
140
1.0
141
1.0
290
     1
  0
SCALE
  5
49
102
{ACAD_REACTORS
330
47
102
}
330
47
100
AcDbScale
 70
     0
300
1:2
140
1.0
141
2.0
290
     0
  0
SCALE
  5
4A
102
{ACAD_REACTORS
330
47
102
}
330
47
100
AcDbScale
 70
     0
300
1:4
140
1.0
141
4.0
290
     0
  0
SCALE
  5
4B
102
{ACAD_REACTORS
330
47
102
}
330
47
100
AcDbScale
 70
     0
300
1:5
140
1.0
141
5.0
290
     0
  0
SCALE
  5
4C
102
{ACAD_REACTORS
330
47
102
}
330
47
100
AcDbScale
 70
     0
300
1:8
140
1.0
141
8.0
290
     0
  0
SCALE
  5
4D
102
{ACAD_REACTORS
330
47
102
}
330
47
100
AcDbScale
 70
     0
300
1:10
140
1.0
141
10.0
290
     0
  0
SCALE
  5
4E
102
{ACAD_REACTORS
330
47
102
}
330
47
100
AcDbScale
 70
     0
300
1:16
140
1.0
141
16.0
290
     0
  0
SCALE
  5
4F
102
{ACAD_REACTORS
330
47
102
}
330
47
100
AcDbScale
 70
     0
300
1:20
140
1.0
141
20.0
290
     0
  0
SCALE
  5
50
102
{ACAD_REACTORS
330
47
102
}
330
47
100
AcDbScale
 70
     0
300
1:30
140
1.0
141
30.0
290
     0
  0
SCALE
  5
51
102
{ACAD_REACTORS
330
47
102
}
330
47
100
AcDbScale
 70
     0
300
1:40
140
1.0
141
40.0
290
     0
  0
SCALE
  5
52
102
{ACAD_REACTORS
330
47
102
}
330
47
100
AcDbScale
 70
     0
300
1:50
140
1.0
141
50.0
290
     0
  0
SCALE
  5
53
102
{ACAD_REACTORS
330
47
102
}
330
47
100
AcDbScale
 70
     0
300
1:100
140
1.0
141
100.0
290
     0
  0
SCALE
  5
54
102
{ACAD_REACTORS
330
47
102
}
330
47
100
AcDbScale
 70
     0
300
2:1
140
2.0
141
1.0
290
     0
  0
SCALE
  5
55
102
{ACAD_REACTORS
330
47
102
}
330
47
100
AcDbScale
 70
     0
300
4:1
140
4.0
141
1.0
290
     0
  0
SCALE
  5
56
102
{ACAD_REACTORS
330
47
102
}
330
47
100
AcDbScale
 70
     0
300
8:1
140
8.0
141
1.0
290
     0
  0
SCALE
  5
57
102
{ACAD_REACTORS
330
47
102
}
330
47
100
AcDbScale
 70
     0
300
10:1
140
10.0
141
1.0
290
     0
  0
SCALE
  5
58
102
{ACAD_REACTORS
330
47
102
}
330
47
100
AcDbScale
 70
     0
300
100:1
140
100.0
141
1.0
290
     0
  0
SCALE
  5
59
102
{ACAD_REACTORS
330
47
102
}
330
47
100
AcDbScale
 70
     0
300
1/128" = 1'-0"
140
0.0078125
141
12.0
290
     0
  0
SCALE
  5
5A
102
{ACAD_REACTORS
330
47
102
}
330
47
100
AcDbScale
 70
     0
300
1/64" = 1'-0"
140
0.015625
141
12.0
290
     0
  0
SCALE
  5
5B
102
{ACAD_REACTORS
330
47
102
}
330
47
100
AcDbScale
 70
     0
300
1/32" = 1'-0"
140
0.03125
141
12.0
290
     0
  0
SCALE
  5
5C
102
{ACAD_REACTORS
330
47
102
}
330
47
100
AcDbScale
 70
     0
300
1/16" = 1'-0"
140
0.0625
141
12.0
290
     0
  0
SCALE
  5
5D
102
{ACAD_REACTORS
330
47
102
}
330
47
100
AcDbScale
 70
     0
300
3/32" = 1'-0"
140
0.09375
141
12.0
290
     0
  0
SCALE
  5
5E
102
{ACAD_REACTORS
330
47
102
}
330
47
100
AcDbScale
 70
     0
300
1/8" = 1'-0"
140
0.125
141
12.0
290
     0
  0
SCALE
  5
5F
102
{ACAD_REACTORS
330
47
102
}
330
47
100
AcDbScale
 70
     0
300
3/16" = 1'-0"
140
0.1875
141
12.0
290
     0
  0
SCALE
  5
60
102
{ACAD_REACTORS
330
47
102
}
330
47
100
AcDbScale
 70
     0
300
1/4" = 1'-0"
140
0.25
141
12.0
290
     0
  0
SCALE
  5
61
102
{ACAD_REACTORS
330
47
102
}
330
47
100
AcDbScale
 70
     0
300
3/8" = 1'-0"
140
0.375
141
12.0
290
     0
  0
SCALE
  5
62
102
{ACAD_REACTORS
330
47
102
}
330
47
100
AcDbScale
 70
     0
300
1/2" = 1'-0"
140
0.5
141
12.0
290
     0
  0
SCALE
  5
63
102
{ACAD_REACTORS
330
47
102
}
330
47
100
AcDbScale
 70
     0
300
3/4" = 1'-0"
140
0.75
141
12.0
290
     0
  0
SCALE
  5
64
102
{ACAD_REACTORS
330
47
102
}
330
47
100
AcDbScale
 70
     0
300
1" = 1'-0"
140
1.0
141
12.0
290
     0
  0
SCALE
  5
65
102
{ACAD_REACTORS
330
47
102
}
330
47
100
AcDbScale
 70
     0
300
1-1/2" = 1'-0"
140
1.5
141
12.0
290
     0
  0
SCALE
  5
66
102
{ACAD_REACTORS
330
47
102
}
330
47
100
AcDbScale
 70
     0
300
3" = 1'-0"
140
3.0
141
12.0
290
     0
  0
SCALE
  5
67
102
{ACAD_REACTORS
330
47
102
}
330
47
100
AcDbScale
 70
     0
300
6" = 1'-0"
140
6.0
141
12.0
290
     0
  0
SCALE
  5
68
102
{ACAD_REACTORS
330
47
102
}
330
47
100
AcDbScale
 70
     0
300
1'-0" = 1'-0"
140
12.0
141
12.0
290
     0
  0
TABLESTYLE
  5
6A
102
{ACAD_REACTORS
330
69
102
}
102
{ACAD_XDICTIONARY
360
44B
102
}
330
69
100
AcDbTableStyle
  3
Standard
 70
     0
 71
     0
 40
0.06
 41
0.06
280
     0
281
     0
  7
Standard
140
0.18
170
     2
 62
     0
 63
   257
283
     0
 90
        4
 91
        0
  1

274
    -2
284
     1
 64
     0
275
    -2
285
     1
 65
     0
276
    -2
286
     1
 66
     0
277
    -2
287
     1
 67
     0
278
    -2
288
     1
 68
     0
279
    -2
289
     1
 69
     0
  7
Standard
140
0.25
170
     5
 62
     0
 63
   257
283
     0
 90
        4
 91
        0
  1

274
    -2
284
     1
 64
     0
275
    -2
285
     1
 65
     0
276
    -2
286
     1
 66
     0
277
    -2
287
     1
 67
     0
278
    -2
288
     1
 68
     0
279
    -2
289
     1
 69
     0
  7
Standard
140
0.18
170
     5
 62
     0
 63
   257
283
     0
 90
        4
 91
        0
  1

274
    -2
284
     1
 64
     0
275
    -2
285
     1
 65
     0
276
    -2
286
     1
 66
     0
277
    -2
287
     1
 67
     0
278
    -2
288
     1
 68
     0
279
    -2
289
     1
 69
     0
  0
VISUALSTYLE
  5
2F
102
{ACAD_REACTORS
330
2A
102
}
330
2A
100
AcDbVisualStyle
  2
2dWireframe
 70
     4
177
     3
291
     0
 70
    58
 90
        0
176
     1
 90
        2
176
     1
 90
        0
176
     1
 90
        0
176
     1
 40
0.6
176
     1
 40
30.0
176
     1
 62
     7
420
 16777215
176
     1
 90
        1
176
     1
 90
        4
176
     1
 62
     7
176
     1
 62
   257
176
     1
 90
        1
176
     1
 90
        1
176
     1
 40
1.0
176
     1
 90
        0
176
     1
 62
   257
176
     1
 40
1.0
176
     1
 90
        1
176
     1
 90
        6
176
     1
 90
        2
176
     1
 62
     7
176
     1
 90
        5
176
     1
 90
        0
176
     1
 90
        0
176
     1
290
     0
176
     1
 90
        1
176
     1
 40
0.0
176
     1
 90
        0
176
     1
290
     1
176
     1
290
     1
176
     1
290
     0
176
     1
290
     0
176
     1
290
     0
176
     1
290
     0
176
     1
290
     0
176
     1
290
     0
176
     1
290
     0
176
     1
 90
       50
176
     1
 40
0.0
176
     1
 40
1.0
176
     1
 90
        0
176
     1
 62
    18
420
        0
176
     1
 90
       50
176
     1
 90
        3
176
     1
 62
     5
420
      255
176
     1
290
     0
176
     1
 90
       50
176
     1
 90
       50
176
     1
 90
       50
176
     1
290
     0
176
     1
 90
       50
176
     1
 62
   256
176
     0
 40
1.0
176
     0
 90
        2
176
     1
  1
strokes_ogs.tif
176
     1
290
     0
176
     1
 40
1.0
176
     1
 40
1.0
176
     1
  0
VISUALSTYLE
  5
32
102
{ACAD_REACTORS
330
2A
102
}
330
2A
100
AcDbVisualStyle
  2
Basic
 70
     7
177
     3
291
     1
 70
    58
 90
        1
176
     1
 90
        0
176
     1
 90
        1
176
     1
 90
        0
176
     1
 40
0.6
176
     1
 40
30.0
176
     1
 62
     7
420
 16777215
176
     1
 90
        0
176
     1
 90
        4
176
     1
 62
     7
176
     1
 62
   257
176
     1
 90
        1
176
     1
 90
        1
176
     1
 40
1.0
176
     1
 90
        8
176
     1
 62
     7
176
     1
 40
1.0
176
     1
 90
        1
176
     1
 90
        6
176
     1
 90
        2
176
     1
 62
     7
176
     1
 90
        5
176
     1
 90
        0
176
     1
 90
        0
176
     1
290
     0
176
     1
 90
        1
176
     1
 40
0.0
176
     1
 90
        0
176
     1
290
     0
176
     1
290
     1
176
     1
290
     1
176
     1
290
     0
176
     1
290
     0
176
     1
290
     0
176
     1
290
     0
176
     1
290
     0
176
     1
290
     0
176
     1
 90
       50
176
     1
 40
0.0
176
     1
 40
1.0
176
     1
 90
        0
176
     1
 62
    18
420
        0
176
     1
 90
       50
176
     1
 90
        3
176
     1
 62
     5
420
      255
176
     1
290
     0
176
     1
 90
       50
176
     1
 90
       50
176
     1
 90
       50
176
     1
290
     0
176
     1
 90
       50
176
     1
 62
   256
176
     0
 40
1.0
176
     0
 90
        2
176
     1
  1
strokes_ogs.tif
176
     1
290
     0
176
     1
 40
1.0
176
     1
 40
1.0
176
     1
  0
VISUALSTYLE
  5
36
102
{ACAD_REACTORS
330
2A
102
}
330
2A
100
AcDbVisualStyle
  2
Brighten
 70
    12
177
     3
291
     1
 70
    58
 90
        2
176
     1
 90
        2
176
     1
 90
        0
176
     1
 90
        0
176
     1
 40
0.6
176
     1
 40
30.0
176
     1
 62
     7
420
 16777215
176
     1
 90
        1
176
     1
 90
        4
176
     1
 62
     7
176
     1
 62
   257
176
     1
 90
        1
176
     1
 90
        1
176
     1
 40
1.0
176
     1
 90
        8
176
     1
 62
     7
176
     1
 40
1.0
176
     1
 90
        1
176
     1
 90
        6
176
     1
 90
        2
176
     1
 62
     7
176
     1
 90
        5
176
     1
 90
        0
176
     1
 90
        0
176
     1
290
     0
176
     1
 90
        1
176
     1
 40
50.0
176
     1
 90
        0
176
     1
290
     0
176
     1
290
     1
176
     1
290
     1
176
     1
290
     0
176
     1
290
     0
176
     1
290
     0
176
     1
290
     0
176
     1
290
     0
176
     1
290
     0
176
     1
 90
       50
176
     1
 40
0.0
176
     1
 40
1.0
176
     1
 90
        0
176
     1
 62
    18
420
        0
176
     1
 90
       50
176
     1
 90
        3
176
     1
 62
     5
420
      255
176
     1
290
     0
176
     1
 90
       50
176
     1
 90
       50
176
     1
 90
       50
176
     1
290
     0
176
     1
 90
       50
176
     1
 62
   256
176
     0
 40
1.0
176
     0
 90
        2
176
     1
  1
strokes_ogs.tif
176
     1
290
     0
176
     1
 40
1.0
176
     1
 40
1.0
176
     1
  0
VISUALSTYLE
  5
3A
102
{ACAD_REACTORS
330
2A
102
}
330
2A
100
AcDbVisualStyle
  2
ColorChange
 70
    16
177
     3
291
     1
 70
    58
 90
        2
176
     1
 90
        2
176
     1
 90
        3
176
     1
 90
        0
176
     1
 40
0.6
176
     1
 40
30.0
176
     1
 62
     8
420
  8421504
176
     1
 90
        1
176
     1
 90
        4
176
     1
 62
     7
176
     1
 62
   257
176
     1
 90
        1
176
     1
 90
        1
176
     1
 40
1.0
176
     1
 90
        8
176
     1
 62
     8
420
  8421504
176
     1
 40
1.0
176
     1
 90
        1
176
     1
 90
        6
176
     1
 90
        2
176
     1
 62
     7
176
     1
 90
        5
176
     1
 90
        0
176
     1
 90
        0
176
     1
290
     0
176
     1
 90
        1
176
     1
 40
0.0
176
     1
 90
        0
176
     1
290
     0
176
     1
290
     1
176
     1
290
     1
176
     1
290
     0
176
     1
290
     0
176
     1
290
     0
176
     1
290
     0
176
     1
290
     0
176
     1
290
     0
176
     1
 90
       50
176
     1
 40
0.0
176
     1
 40
1.0
176
     1
 90
        0
176
     1
 62
    18
420
        0
176
     1
 90
       50
176
     1
 90
        3
176
     1
 62
     5
420
      255
176
     1
290
     0
176
     1
 90
       50
176
     1
 90
       50
176
     1
 90
       50
176
     1
290
     0
176
     1
 90
       50
176
     1
 62
   256
176
     0
 40
1.0
176
     0
 90
        2
176
     1
  1
strokes_ogs.tif
176
     1
290
     0
176
     1
 40
1.0
176
     1
 40
1.0
176
     1
  0
VISUALSTYLE
  5
34
102
{ACAD_REACTORS
330
2A
102
}
330
2A
100
AcDbVisualStyle
  2
Conceptual
 70
     9
177
     3
291
     0
 70
    58
 90
        3
176
     1
 90
        2
176
     1
 90
        0
176
     1
 90
        0
176
     1
 40
0.6
176
     1
 40
30.0
176
     1
 62
     7
420
 16777215
176
     1
 90
        2
176
     1
 90
        2
176
     1
 62
     7
176
     1
 62
   257
176
     1
 90
        1
176
     1
 90
        1
176
     1
 40
179.0
176
     1
 90
        8
176
     1
 62
     7
176
     1
 40
1.0
176
     1
 90
        1
176
     1
 90
        6
176
     1
 90
        2
176
     1
 62
     7
176
     1
 90
        3
176
     1
 90
        0
176
     1
 90
        0
176
     1
290
     0
176
     1
 90
        1
176
     1
 40
0.0
176
     1
 90
        0
176
     1
290
     0
176
     1
290
     1
176
     1
290
     1
176
     1
290
     0
176
     1
290
     0
176
     1
290
     0
176
     1
290
     0
176
     1
290
     0
176
     1
290
     0
176
     1
 90
       50
176
     1
 40
0.0
176
     1
 40
1.0
176
     1
 90
        0
176
     1
 62
    18
420
        0
176
     1
 90
       50
176
     1
 90
        3
176
     1
 62
     5
420
      255
176
     1
290
     0
176
     1
 90
       50
176
     1
 90
       50
176
     1
 90
       50
176
     1
290
     0
176
     1
 90
       50
176
     1
 62
   256
176
     0
 40
1.0
176
     0
 90
        2
176
     1
  1
strokes_ogs.tif
176
     1
290
     0
176
     1
 40
1.0
176
     1
 40
1.0
176
     1
  0
VISUALSTYLE
  5
35
102
{ACAD_REACTORS
330
2A
102
}
330
2A
100
AcDbVisualStyle
  2
Dim
 70
    11
177
     3
291
     1
 70
    58
 90
        2
176
     1
 90
        2
176
     1
 90
        0
176
     1
 90
        0
176
     1
 40
0.6
176
     1
 40
30.0
176
     1
 62
     7
420
 16777215
176
     1
 90
        1
176
     1
 90
        4
176
     1
 62
     7
176
     1
 62
   257
176
     1
 90
        1
176
     1
 90
        1
176
     1
 40
1.0
176
     1
 90
        8
176
     1
 62
     7
176
     1
 40
1.0
176
     1
 90
        1
176
     1
 90
        6
176
     1
 90
        2
176
     1
 62
     7
176
     1
 90
        5
176
     1
 90
        0
176
     1
 90
        0
176
     1
290
     0
176
     1
 90
        1
176
     1
 40
-50.0
176
     1
 90
        0
176
     1
290
     0
176
     1
290
     1
176
     1
290
     1
176
     1
290
     0
176
     1
290
     0
176
     1
290
     0
176
     1
290
     0
176
     1
290
     0
176
     1
290
     0
176
     1
 90
       50
176
     1
 40
0.0
176
     1
 40
1.0
176
     1
 90
        0
176
     1
 62
    18
420
        0
176
     1
 90
       50
176
     1
 90
        3
176
     1
 62
     5
420
      255
176
     1
290
     0
176
     1
 90
       50
176
     1
 90
       50
176
     1
 90
       50
176
     1
290
     0
176
     1
 90
       50
176
     1
 62
   256
176
     0
 40
1.0
176
     0
 90
        2
176
     1
  1
strokes_ogs.tif
176
     1
290
     0
176
     1
 40
1.0
176
     1
 40
1.0
176
     1
  0
VISUALSTYLE
  5
3D
102
{ACAD_REACTORS
330
2A
102
}
330
2A
100
AcDbVisualStyle
  2
EdgeColorOff
 70
    22
177
     3
291
     1
 70
    58
 90
        2
176
     0
 90
        2
176
     0
 90
        0
176
     0
 90
        0
176
     0
 40
0.6
176
     0
 40
30.0
176
     0
 62
     7
420
 16777215
176
     0
 90
        1
176
     0
 90
        4
176
     0
 62
     7
176
     0
 62
   257
176
     0
 90
        1
176
     0
 90
        1
176
     0
 40
1.0
176
     0
 90
        8
176
     2
 62
     7
176
     0
 40
1.0
176
     0
 90
        1
176
     0
 90
        6
176
     0
 90
        2
176
     0
 62
     7
176
     0
 90
        5
176
     0
 90
        0
176
     0
 90
        0
176
     0
290
     0
176
     0
 90
        1
176
     0
 40
0.0
176
     0
 90
        0
176
     0
290
     0
176
     0
290
     1
176
     0
290
     1
176
     0
290
     0
176
     0
290
     0
176
     0
290
     0
176
     0
290
     0
176
     0
290
     0
176
     0
290
     0
176
     0
 90
       50
176
     0
 40
0.0
176
     0
 40
1.0
176
     0
 90
        0
176
     0
 62
    18
420
        0
176
     0
 90
       50
176
     0
 90
        3
176
     0
 62
     5
420
      255
176
     0
290
     0
176
     0
 90
       50
176
     0
 90
       50
176
     0
 90
       50
176
     0
290
     0
176
     0
 90
       50
176
     0
 62
   256
176
     0
 40
1.0
176
     0
 90
        2
176
     0
  1
strokes_ogs.tif
176
     0
290
     0
176
     0
 40
1.0
176
     0
 40
1.0
176
     0
  0
VISUALSTYLE
  5
39
102
{ACAD_REACTORS
330
2A
102
}
330
2A
100
AcDbVisualStyle
  2
Facepattern
 70
    15
177
     3
291
     1
 70
    58
 90
        2
176
     1
 90
        2
176
     1
 90
        0
176
     1
 90
        0
176
     1
 40
0.6
176
     1
 40
30.0
176
     1
 62
     7
420
 16777215
176
     1
 90
        1
176
     1
 90
        4
176
     1
 62
     7
176
     1
 62
   257
176
     1
 90
        1
176
     1
 90
        1
176
     1
 40
1.0
176
     1
 90
        8
176
     1
 62
     7
176
     1
 40
1.0
176
     1
 90
        1
176
     1
 90
        6
176
     1
 90
        2
176
     1
 62
     7
176
     1
 90
        5
176
     1
 90
        0
176
     1
 90
        0
176
     1
290
     0
176
     1
 90
        1
176
     1
 40
0.0
176
     1
 90
        0
176
     1
290
     0
176
     1
290
     1
176
     1
290
     1
176
     1
290
     0
176
     1
290
     0
176
     1
290
     0
176
     1
290
     0
176
     1
290
     0
176
     1
290
     0
176
     1
 90
       50
176
     1
 40
0.0
176
     1
 40
1.0
176
     1
 90
        0
176
     1
 62
    18
420
        0
176
     1
 90
       50
176
     1
 90
        3
176
     1
 62
     5
420
      255
176
     1
290
     0
176
     1
 90
       50
176
     1
 90
       50
176
     1
 90
       50
176
     1
290
     0
176
     1
 90
       50
176
     1
 62
   256
176
     0
 40
1.0
176
     0
 90
        2
176
     1
  1
strokes_ogs.tif
176
     1
290
     0
176
     1
 40
1.0
176
     1
 40
1.0
176
     1
  0
VISUALSTYLE
  5
2B
102
{ACAD_REACTORS
330
2A
102
}
330
2A
100
AcDbVisualStyle
  2
Flat
 70
     0
177
     3
291
     1
 70
    58
 90
        2
176
     1
 90
        1
176
     1
 90
        1
176
     1
 90
        2
176
     1
 40
0.6
176
     1
 40
30.0
176
     1
 62
     7
420
 16777215
176
     1
 90
        0
176
     1
 90
        0
176
     1
 62
     7
176
     1
 62
   257
176
     1
 90
        1
176
     1
 90
        1
176
     1
 40
1.0
176
     1
 90
        8
176
     1
 62
     7
176
     1
 40
1.0
176
     1
 90
        1
176
     1
 90
        6
176
     1
 90
        2
176
     1
 62
     7
176
     1
 90
        5
176
     1
 90
        0
176
     1
 90
        0
176
     1
290
     0
176
     1
 90
       13
176
     1
 40
0.0
176
     1
 90
        0
176
     1
290
     0
176
     1
290
     1
176
     1
290
     1
176
     1
290
     0
176
     1
290
     0
176
     1
290
     0
176
     1
290
     0
176
     1
290
     0
176
     1
290
     0
176
     1
 90
       50
176
     1
 40
0.0
176
     1
 40
1.0
176
     1
 90
        0
176
     1
 62
    18
420
        0
176
     1
 90
       50
176
     1
 90
        3
176
     1
 62
     5
420
      255
176
     1
290
     0
176
     1
 90
       50
176
     1
 90
       50
176
     1
 90
       50
176
     1
290
     0
176
     1
 90
       50
176
     1
 62
   256
176
     0
 40
1.0
176
     0
 90
        2
176
     1
  1
strokes_ogs.tif
176
     1
290
     0
176
     1
 40
1.0
176
     1
 40
1.0
176
     1
  0
VISUALSTYLE
  5
2C
102
{ACAD_REACTORS
330
2A
102
}
330
2A
100
AcDbVisualStyle
  2
FlatWithEdges
 70
     1
177
     3
291
     1
 70
    58
 90
        2
176
     1
 90
        1
176
     1
 90
        1
176
     1
 90
        2
176
     1
 40
0.6
176
     1
 40
30.0
176
     1
 62
     7
420
 16777215
176
     1
 90
        1
176
     1
 90
        0
176
     1
 62
     7
176
     1
 62
   257
176
     1
 90
        1
176
     1
 90
        1
176
     1
 40
1.0
176
     1
 90
        0
176
     1
 62
   257
176
     1
 40
1.0
176
     1
 90
        1
176
     1
 90
        6
176
     1
 90
        2
176
     1
 62
     7
176
     1
 90
        5
176
     1
 90
        0
176
     1
 90
        0
176
     1
290
     0
176
     1
 90
       13
176
     1
 40
0.0
176
     1
 90
        0
176
     1
290
     0
176
     1
290
     1
176
     1
290
     1
176
     1
290
     0
176
     1
290
     0
176
     1
290
     0
176
     1
290
     0
176
     1
290
     0
176
     1
290
     0
176
     1
 90
       50
176
     1
 40
0.0
176
     1
 40
1.0
176
     1
 90
        0
176
     1
 62
    18
420
        0
176
     1
 90
       50
176
     1
 90
        3
176
     1
 62
     5
420
      255
176
     1
290
     0
176
     1
 90
       50
176
     1
 90
       50
176
     1
 90
       50
176
     1
290
     0
176
     1
 90
       50
176
     1
 62
   256
176
     0
 40
1.0
176
     0
 90
        2
176
     1
  1
strokes_ogs.tif
176
     1
290
     0
176
     1
 40
1.0
176
     1
 40
1.0
176
     1
  0
VISUALSTYLE
  5
2D
102
{ACAD_REACTORS
330
2A
102
}
330
2A
100
AcDbVisualStyle
  2
Gouraud
 70
     2
177
     3
291
     1
 70
    58
 90
        2
176
     1
 90
        2
176
     1
 90
        1
176
     1
 90
        2
176
     1
 40
0.6
176
     1
 40
30.0
176
     1
 62
     7
420
 16777215
176
     1
 90
        0
176
     1
 90
        0
176
     1
 62
     7
176
     1
 62
   257
176
     1
 90
        1
176
     1
 90
        1
176
     1
 40
1.0
176
     1
 90
        0
176
     1
 62
     7
176
     1
 40
1.0
176
     1
 90
        1
176
     1
 90
        6
176
     1
 90
        2
176
     1
 62
     7
176
     1
 90
        5
176
     1
 90
        0
176
     1
 90
        0
176
     1
290
     0
176
     1
 90
       13
176
     1
 40
0.0
176
     1
 90
        0
176
     1
290
     0
176
     1
290
     1
176
     1
290
     1
176
     1
290
     0
176
     1
290
     0
176
     1
290
     0
176
     1
290
     0
176
     1
290
     0
176
     1
290
     0
176
     1
 90
       50
176
     1
 40
0.0
176
     1
 40
1.0
176
     1
 90
        0
176
     1
 62
    18
420
        0
176
     1
 90
       50
176
     1
 90
        3
176
     1
 62
     5
420
      255
176
     1
290
     0
176
     1
 90
       50
176
     1
 90
       50
176
     1
 90
       50
176
     1
290
     0
176
     1
 90
       50
176
     1
 62
   256
176
     0
 40
1.0
176
     0
 90
        2
176
     1
  1
strokes_ogs.tif
176
     1
290
     0
176
     1
 40
1.0
176
     1
 40
1.0
176
     1
  0
VISUALSTYLE
  5
2E
102
{ACAD_REACTORS
330
2A
102
}
330
2A
100
AcDbVisualStyle
  2
GouraudWithEdges
 70
     3
177
     3
291
     1
 70
    58
 90
        2
176
     1
 90
        2
176
     1
 90
        1
176
     1
 90
        2
176
     1
 40
0.6
176
     1
 40
30.0
176
     1
 62
     7
420
 16777215
176
     1
 90
        1
176
     1
 90
        0
176
     1
 62
     7
176
     1
 62
   257
176
     1
 90
        1
176
     1
 90
        1
176
     1
 40
1.0
176
     1
 90
        0
176
     1
 62
   257
176
     1
 40
1.0
176
     1
 90
        1
176
     1
 90
        6
176
     1
 90
        2
176
     1
 62
     7
176
     1
 90
        5
176
     1
 90
        0
176
     1
 90
        0
176
     1
290
     0
176
     1
 90
       13
176
     1
 40
0.0
176
     1
 90
        0
176
     1
290
     0
176
     1
290
     1
176
     1
290
     1
176
     1
290
     0
176
     1
290
     0
176
     1
290
     0
176
     1
290
     0
176
     1
290
     0
176
     1
290
     0
176
     1
 90
       50
176
     1
 40
0.0
176
     1
 40
1.0
176
     1
 90
        0
176
     1
 62
    18
420
        0
176
     1
 90
       50
176
     1
 90
        3
176
     1
 62
     5
420
      255
176
     1
290
     0
176
     1
 90
       50
176
     1
 90
       50
176
     1
 90
       50
176
     1
290
     0
176
     1
 90
       50
176
     1
 62
   256
176
     0
 40
1.0
176
     0
 90
        2
176
     1
  1
strokes_ogs.tif
176
     1
290
     0
176
     1
 40
1.0
176
     1
 40
1.0
176
     1
  0
VISUALSTYLE
  5
31
102
{ACAD_REACTORS
330
2A
102
}
330
2A
100
AcDbVisualStyle
  2
Hidden
 70
     6
177
     3
291
     0
 70
    58
 90
        1
176
     1
 90
        2
176
     1
 90
        2
176
     1
 90
        0
176
     1
 40
0.6
176
     1
 40
30.0
176
     1
 62
     7
420
 16777215
176
     1
 90
        2
176
     1
 90
        2
176
     1
 62
     7
176
     1
 62
   257
176
     1
 90
        2
176
     1
 90
        1
176
     1
 40
40.0
176
     1
 90
        0
176
     1
 62
   257
176
     1
 40
1.0
176
     1
 90
        1
176
     1
 90
        6
176
     1
 90
        2
176
     1
 62
     7
176
     1
 90
        3
176
     1
 90
        0
176
     1
 90
        0
176
     1
290
     0
176
     1
 90
        1
176
     1
 40
0.0
176
     1
 90
        0
176
     1
290
     0
176
     1
290
     1
176
     1
290
     1
176
     1
290
     0
176
     1
290
     0
176
     1
290
     0
176
     1
290
     0
176
     1
290
     0
176
     1
290
     0
176
     1
 90
       50
176
     1
 40
0.0
176
     1
 40
1.0
176
     1
 90
        0
176
     1
 62
    18
420
        0
176
     1
 90
       50
176
     1
 90
        3
176
     1
 62
     5
420
      255
176
     1
290
     0
176
     1
 90
       50
176
     1
 90
       50
176
     1
 90
       50
176
     1
290
     0
176
     1
 90
       50
176
     1
 62
   256
176
     0
 40
1.0
176
     0
 90
        2
176
     1
  1
strokes_ogs.tif
176
     1
290
     0
176
     1
 40
1.0
176
     1
 40
1.0
176
     1
  0
VISUALSTYLE
  5
3B
102
{ACAD_REACTORS
330
2A
102
}
330
2A
100
AcDbVisualStyle
  2
JitterOff
 70
    20
177
     3
291
     1
 70
    58
 90
        2
176
     0
 90
        2
176
     0
 90
        0
176
     0
 90
        0
176
     0
 40
0.6
176
     0
 40
30.0
176
     0
 62
     7
420
 16777215
176
     0
 90
        1
176
     0
 90
        4
176
     0
 62
     7
176
     0
 62
   257
176
     0
 90
        1
176
     0
 90
        1
176
     0
 40
1.0
176
     0
 90
       10
176
     2
 62
     7
176
     0
 40
1.0
176
     0
 90
        1
176
     0
 90
        6
176
     0
 90
        2
176
     0
 62
     7
176
     0
 90
        5
176
     0
 90
        0
176
     0
 90
        0
176
     0
290
     0
176
     0
 90
        1
176
     0
 40
0.0
176
     0
 90
        0
176
     0
290
     0
176
     0
290
     1
176
     0
290
     1
176
     0
290
     0
176
     0
290
     0
176
     0
290
     0
176
     0
290
     0
176
     0
290
     0
176
     0
290
     0
176
     0
 90
       50
176
     0
 40
0.0
176
     0
 40
1.0
176
     0
 90
        0
176
     0
 62
    18
420
        0
176
     0
 90
       50
176
     0
 90
        3
176
     0
 62
     5
420
      255
176
     0
290
     0
176
     0
 90
       50
176
     0
 90
       50
176
     0
 90
       50
176
     0
290
     0
176
     0
 90
       50
176
     0
 62
   256
176
     0
 40
1.0
176
     0
 90
        2
176
     0
  1
strokes_ogs.tif
176
     0
290
     0
176
     0
 40
1.0
176
     0
 40
1.0
176
     0
  0
VISUALSTYLE
  5
38
102
{ACAD_REACTORS
330
2A
102
}
330
2A
100
AcDbVisualStyle
  2
Linepattern
 70
    14
177
     3
291
     1
 70
    58
 90
        2
176
     1
 90
        2
176
     1
 90
        0
176
     1
 90
        0
176
     1
 40
0.6
176
     1
 40
30.0
176
     1
 62
     7
420
 16777215
176
     1
 90
        1
176
     1
 90
        4
176
     1
 62
     7
176
     1
 62
   257
176
     1
 90
        7
176
     1
 90
        7
176
     1
 40
1.0
176
     1
 90
        8
176
     1
 62
     7
176
     1
 40
1.0
176
     1
 90
        1
176
     1
 90
        6
176
     1
 90
        2
176
     1
 62
     7
176
     1
 90
        5
176
     1
 90
        0
176
     1
 90
        0
176
     1
290
     0
176
     1
 90
        1
176
     1
 40
0.0
176
     1
 90
        0
176
     1
290
     0
176
     1
290
     1
176
     1
290
     1
176
     1
290
     0
176
     1
290
     0
176
     1
290
     0
176
     1
290
     0
176
     1
290
     0
176
     1
290
     0
176
     1
 90
       50
176
     1
 40
0.0
176
     1
 40
1.0
176
     1
 90
        0
176
     1
 62
    18
420
        0
176
     1
 90
       50
176
     1
 90
        3
176
     1
 62
     5
420
      255
176
     1
290
     0
176
     1
 90
       50
176
     1
 90
       50
176
     1
 90
       50
176
     1
290
     0
176
     1
 90
       50
176
     1
 62
   256
176
     0
 40
1.0
176
     0
 90
        2
176
     1
  1
strokes_ogs.tif
176
     1
290
     0
176
     1
 40
1.0
176
     1
 40
1.0
176
     1
  0
VISUALSTYLE
  5
3C
102
{ACAD_REACTORS
330
2A
102
}
330
2A
100
AcDbVisualStyle
  2
OverhangOff
 70
    21
177
     3
291
     1
 70
    58
 90
        2
176
     0
 90
        2
176
     0
 90
        0
176
     0
 90
        0
176
     0
 40
0.6
176
     0
 40
30.0
176
     0
 62
     7
420
 16777215
176
     0
 90
        1
176
     0
 90
        4
176
     0
 62
     7
176
     0
 62
   257
176
     0
 90
        1
176
     0
 90
        1
176
     0
 40
1.0
176
     0
 90
        9
176
     2
 62
     7
176
     0
 40
1.0
176
     0
 90
        1
176
     0
 90
        6
176
     0
 90
        2
176
     0
 62
     7
176
     0
 90
        5
176
     0
 90
        0
176
     0
 90
        0
176
     0
290
     0
176
     0
 90
        1
176
     0
 40
0.0
176
     0
 90
        0
176
     0
290
     0
176
     0
290
     1
176
     0
290
     1
176
     0
290
     0
176
     0
290
     0
176
     0
290
     0
176
     0
290
     0
176
     0
290
     0
176
     0
290
     0
176
     0
 90
       50
176
     0
 40
0.0
176
     0
 40
1.0
176
     0
 90
        0
176
     0
 62
    18
420
        0
176
     0
 90
       50
176
     0
 90
        3
176
     0
 62
     5
420
      255
176
     0
290
     0
176
     0
 90
       50
176
     0
 90
       50
176
     0
 90
       50
176
     0
290
     0
176
     0
 90
       50
176
     0
 62
   256
176
     0
 40
1.0
176
     0
 90
        2
176
     0
  1
strokes_ogs.tif
176
     0
290
     0
176
     0
 40
1.0
176
     0
 40
1.0
176
     0
  0
VISUALSTYLE
  5
33
102
{ACAD_REACTORS
330
2A
102
}
330
2A
100
AcDbVisualStyle
  2
Realistic
 70
     8
177
     3
291
     0
 70
    58
 90
        2
176
     1
 90
        3
176
     1
 90
        0
176
     1
 90
        2
176
     1
 40
0.6
176
     1
 40
30.0
176
     1
 62
     7
420
 16777215
176
     1
 90
        0
176
     1
 90
        0
176
     1
 62
     7
176
     1
 62
   257
176
     1
 90
        1
176
     1
 90
        1
176
     1
 40
1.0
176
     1
 90
        8
176
     1
 62
   257
176
     1
 40
1.0
176
     1
 90
        1
176
     1
 90
        6
176
     1
 90
        2
176
     1
 62
     7
176
     1
 90
        3
176
     1
 90
        0
176
     1
 90
        0
176
     1
290
     0
176
     1
 90
       13
176
     1
 40
0.0
176
     1
 90
        0
176
     1
290
     0
176
     1
290
     1
176
     1
290
     1
176
     1
290
     0
176
     1
290
     0
176
     1
290
     0
176
     1
290
     0
176
     1
290
     0
176
     1
290
     0
176
     1
 90
       50
176
     1
 40
0.0
176
     1
 40
1.0
176
     1
 90
        0
176
     1
 62
    18
420
        0
176
     1
 90
       50
176
     1
 90
        3
176
     1
 62
     5
420
      255
176
     1
290
     0
176
     1
 90
       50
176
     1
 90
       50
176
     1
 90
       50
176
     1
290
     0
176
     1
 90
       50
176
     1
 62
   256
176
     0
 40
1.0
176
     0
 90
        2
176
     1
  1
strokes_ogs.tif
176
     1
290
     0
176
     1
 40
1.0
176
     1
 40
1.0
176
     1
  0
VISUALSTYLE
  5
42
102
{ACAD_REACTORS
330
2A
102
}
330
2A
100
AcDbVisualStyle
  2
Shaded
 70
    27
177
     3
291
     0
 70
    58
 90
        2
176
     1
 90
        2
176
     1
 90
        1
176
     1
 90
        2
176
     1
 40
0.6
176
     1
 40
30.0
176
     1
 62
     7
420
 16777215
176
     1
 90
        0
176
     1
 90
        4
176
     1
 62
     7
176
     1
 62
   257
176
     1
 90
        1
176
     1
 90
        1
176
     1
 40
1.0
176
     1
 90
        8
176
     1
 62
   257
176
     1
 40
1.0
176
     1
 90
        1
176
     1
 90
        6
176
     1
 90
        2
176
     1
 62
     8
420
  7895160
176
     1
 90
        3
176
     1
 90
        0
176
     1
 90
        0
176
     1
290
     0
176
     1
 90
        5
176
     1
 40
0.0
176
     1
 90
        0
176
     1
290
     0
176
     1
290
     1
176
     1
290
     1
176
     1
290
     0
176
     1
290
     0
176
     1
290
     0
176
     1
290
     0
176
     1
290
     0
176
     1
290
     0
176
     1
 90
       50
176
     1
 40
0.0
176
     1
 40
1.0
176
     1
 90
        0
176
     1
 62
    18
420
        0
176
     1
 90
       50
176
     1
 90
        3
176
     1
 62
     5
420
      255
176
     1
290
     0
176
     1
 90
       50
176
     1
 90
       50
176
     1
 90
       50
176
     1
290
     0
176
     1
 90
       50
176
     1
 62
   256
176
     0
 40
1.0
176
     0
 90
        2
176
     1
  1
strokes_ogs.tif
176
     1
290
     0
176
     1
 40
1.0
176
     1
 40
1.0
176
     1
  0
VISUALSTYLE
  5
41
102
{ACAD_REACTORS
330
2A
102
}
330
2A
100
AcDbVisualStyle
  2
Shaded with edges
 70
    26
177
     3
291
     0
 70
    58
 90
        2
176
     1
 90
        2
176
     1
 90
        1
176
     1
 90
        2
176
     1
 40
0.6
176
     1
 40
30.0
176
     1
 62
     7
420
 16777215
176
     1
 90
        1
176
     1
 90
       10
176
     1
 62
     7
176
     1
 62
   257
176
     1
 90
        2
176
     1
 90
        1
176
     1
 40
1.0
176
     1
 90
        8
176
     1
 62
   257
176
     1
 40
1.0
176
     1
 90
        1
176
     1
 90
        6
176
     1
 90
        2
176
     1
 62
     7
176
     1
 90
        3
176
     1
 90
        0
176
     1
 90
        0
176
     1
290
     0
176
     1
 90
        5
176
     1
 40
0.0
176
     1
 90
        0
176
     1
290
     0
176
     1
290
     1
176
     1
290
     1
176
     1
290
     0
176
     1
290
     0
176
     1
290
     0
176
     1
290
     0
176
     1
290
     0
176
     1
290
     0
176
     1
 90
       50
176
     1
 40
0.0
176
     1
 40
1.0
176
     1
 90
        0
176
     1
 62
    18
420
        0
176
     1
 90
       50
176
     1
 90
        3
176
     1
 62
     5
420
      255
176
     1
290
     0
176
     1
 90
       50
176
     1
 90
       50
176
     1
 90
       50
176
     1
290
     0
176
     1
 90
       50
176
     1
 62
   256
176
     0
 40
1.0
176
     0
 90
        2
176
     1
  1
strokes_ogs.tif
176
     1
290
     0
176
     1
 40
1.0
176
     1
 40
1.0
176
     1
  0
VISUALSTYLE
  5
3E
102
{ACAD_REACTORS
330
2A
102
}
330
2A
100
AcDbVisualStyle
  2
Shades of Gray
 70
    23
177
     3
291
     0
 70
    58
 90
        2
176
     1
 90
        2
176
     1
 90
        3
176
     1
 90
        0
176
     1
 40
0.6
176
     1
 40
30.0
176
     1
 62
     7
420
 16777215
176
     1
 90
        2
176
     1
 90
        2
176
     1
 62
     7
176
     1
 62
     7
176
     1
 90
        1
176
     1
 90
        1
176
     1
 40
40.0
176
     1
 90
        8
176
     1
 62
     7
176
     1
 40
1.0
176
     1
 90
        1
176
     1
 90
        6
176
     1
 90
        2
176
     1
 62
     7
176
     1
 90
        3
176
     1
 90
        0
176
     1
 90
        0
176
     1
290
     0
176
     1
 90
        1
176
     1
 40
0.0
176
     1
 90
        0
176
     1
290
     0
176
     1
290
     1
176
     1
290
     1
176
     1
290
     0
176
     1
290
     0
176
     1
290
     0
176
     1
290
     0
176
     1
290
     0
176
     1
290
     0
176
     1
 90
       50
176
     1
 40
0.0
176
     1
 40
1.0
176
     1
 90
        0
176
     1
 62
    18
420
        0
176
     1
 90
       50
176
     1
 90
        3
176
     1
 62
     5
420
      255
176
     1
290
     0
176
     1
 90
       50
176
     1
 90
       50
176
     1
 90
       50
176
     1
290
     0
176
     1
 90
       50
176
     1
 62
   256
176
     0
 40
1.0
176
     0
 90
        2
176
     1
  1
strokes_ogs.tif
176
     1
290
     0
176
     1
 40
1.0
176
     1
 40
1.0
176
     1
  0
VISUALSTYLE
  5
3F
102
{ACAD_REACTORS
330
2A
102
}
330
2A
100
AcDbVisualStyle
  2
Sketchy
 70
    24
177
     3
291
     0
 70
    58
 90
        1
176
     1
 90
        2
176
     1
 90
        2
176
     1
 90
        0
176
     1
 40
0.6
176
     1
 40
30.0
176
     1
 62
     7
420
 16777215
176
     1
 90
        2
176
     1
 90
        2
176
     1
 62
     7
176
     1
 62
     7
176
     1
 90
        1
176
     1
 90
        1
176
     1
 40
40.0
176
     1
 90
       11
176
     1
 62
     7
176
     1
 40
1.0
176
     1
 90
        1
176
     1
 90
        6
176
     1
 90
        2
176
     1
 62
     7
176
     1
 90
        6
176
     1
 90
        0
176
     1
 90
        0
176
     1
290
     0
176
     1
 90
        1
176
     1
 40
0.0
176
     1
 90
        0
176
     1
290
     0
176
     1
290
     1
176
     1
290
     1
176
     1
290
     0
176
     1
290
     0
176
     1
290
     0
176
     1
290
     0
176
     1
290
     0
176
     1
290
     0
176
     1
 90
       50
176
     1
 40
0.0
176
     1
 40
1.0
176
     1
 90
        0
176
     1
 62
    18
420
        0
176
     1
 90
       50
176
     1
 90
        3
176
     1
 62
     5
420
      255
176
     1
290
     0
176
     1
 90
       50
176
     1
 90
       50
176
     1
 90
       50
176
     1
290
     0
176
     1
 90
       50
176
     1
 62
   256
176
     0
 40
1.0
176
     0
 90
        2
176
     1
  1
strokes_ogs.tif
176
     1
290
     0
176
     1
 40
1.0
176
     1
 40
1.0
176
     1
  0
VISUALSTYLE
  5
37
102
{ACAD_REACTORS
330
2A
102
}
330
2A
100
AcDbVisualStyle
  2
Thicken
 70
    13
177
     3
291
     1
 70
    58
 90
        2
176
     1
 90
        2
176
     1
 90
        0
176
     1
 90
        0
176
     1
 40
0.6
176
     1
 40
30.0
176
     1
 62
     7
420
 16777215
176
     1
 90
        1
176
     1
 90
        4
176
     1
 62
     7
176
     1
 62
   257
176
     1
 90
        1
176
     1
 90
        1
176
     1
 40
1.0
176
     1
 90
       12
176
     1
 62
     7
176
     1
 40
1.0
176
     1
 90
        1
176
     1
 90
        6
176
     1
 90
        2
176
     1
 62
     7
176
     1
 90
        5
176
     1
 90
        0
176
     1
 90
        0
176
     1
290
     0
176
     1
 90
        1
176
     1
 40
0.0
176
     1
 90
        0
176
     1
290
     0
176
     1
290
     1
176
     1
290
     1
176
     1
290
     0
176
     1
290
     0
176
     1
290
     0
176
     1
290
     0
176
     1
290
     0
176
     1
290
     0
176
     1
 90
       50
176
     1
 40
0.0
176
     1
 40
1.0
176
     1
 90
        0
176
     1
 62
    18
420
        0
176
     1
 90
       50
176
     1
 90
        3
176
     1
 62
     5
420
      255
176
     1
290
     0
176
     1
 90
       50
176
     1
 90
       50
176
     1
 90
       50
176
     1
290
     0
176
     1
 90
       50
176
     1
 62
   256
176
     0
 40
1.0
176
     0
 90
        2
176
     1
  1
strokes_ogs.tif
176
     1
290
     0
176
     1
 40
1.0
176
     1
 40
1.0
176
     1
  0
VISUALSTYLE
  5
30
102
{ACAD_REACTORS
330
2A
102
}
330
2A
100
AcDbVisualStyle
  2
Wireframe
 70
     5
177
     3
291
     0
 70
    58
 90
        0
176
     1
 90
        2
176
     1
 90
        0
176
     1
 90
        0
176
     1
 40
0.6
176
     1
 40
30.0
176
     1
 62
     7
420
 16777215
176
     1
 90
        1
176
     1
 90
        4
176
     1
 62
     7
176
     1
 62
   257
176
     1
 90
        1
176
     1
 90
        1
176
     1
 40
1.0
176
     1
 90
        0
176
     1
 62
   257
176
     1
 40
1.0
176
     1
 90
        1
176
     1
 90
        6
176
     1
 90
        2
176
     1
 62
     7
176
     1
 90
        3
176
     1
 90
        0
176
     1
 90
        0
176
     1
290
     0
176
     1
 90
        1
176
     1
 40
0.0
176
     1
 90
        0
176
     1
290
     0
176
     1
290
     1
176
     1
290
     1
176
     1
290
     0
176
     1
290
     0
176
     1
290
     0
176
     1
290
     0
176
     1
290
     0
176
     1
290
     0
176
     1
 90
       50
176
     1
 40
0.0
176
     1
 40
1.0
176
     1
 90
        0
176
     1
 62
    18
420
        0
176
     1
 90
       50
176
     1
 90
        3
176
     1
 62
     5
420
      255
176
     1
290
     0
176
     1
 90
       50
176
     1
 90
       50
176
     1
 90
       50
176
     1
290
     0
176
     1
 90
       50
176
     1
 62
   256
176
     0
 40
1.0
176
     0
 90
        2
176
     1
  1
strokes_ogs.tif
176
     1
290
     0
176
     1
 40
1.0
176
     1
 40
1.0
176
     1
  0
VISUALSTYLE
  5
40
102
{ACAD_REACTORS
330
2A
102
}
330
2A
100
AcDbVisualStyle
  2
X-Ray
 70
    25
177
     3
291
     0
 70
    58
 90
        2
176
     1
 90
        2
176
     1
 90
        1
176
     1
 90
        1
176
     1
 40
0.5
176
     1
 40
30.0
176
     1
 62
     7
420
 16777215
176
     1
 90
        1
176
     1
 90
        0
176
     1
 62
     7
176
     1
 62
   257
176
     1
 90
        1
176
     1
 90
        1
176
     1
 40
1.0
176
     1
 90
        8
176
     1
 62
     7
176
     1
 40
1.0
176
     1
 90
        1
176
     1
 90
        6
176
     1
 90
        2
176
     1
 62
     7
176
     1
 90
        3
176
     1
 90
        0
176
     1
 90
        0
176
     1
290
     0
176
     1
 90
       13
176
     1
 40
0.0
176
     1
 90
        0
176
     1
290
     0
176
     1
290
     1
176
     1
290
     1
176
     1
290
     0
176
     1
290
     0
176
     1
290
     0
176
     1
290
     0
176
     1
290
     0
176
     1
290
     0
176
     1
 90
       50
176
     1
 40
0.0
176
     1
 40
1.0
176
     1
 90
        0
176
     1
 62
    18
420
        0
176
     1
 90
       50
176
     1
 90
        3
176
     1
 62
     5
420
      255
176
     1
290
     0
176
     1
 90
       50
176
     1
 90
       50
176
     1
 90
       50
176
     1
290
     0
176
     1
 90
       50
176
     1
 62
   256
176
     0
 40
1.0
176
     0
 90
        2
176
     1
  1
strokes_ogs.tif
176
     1
290
     0
176
     1
 40
1.0
176
     1
 40
1.0
176
     1
  0
DICTIONARYVAR
  5
44A
102
{ACAD_REACTORS
330
449
102
}
330
449
100
DictionaryVariables
280
     0
  1
1:1
  0
DICTIONARYVAR
  5
44F
102
{ACAD_REACTORS
330
449
102
}
330
449
100
DictionaryVariables
280
     0
  1
Standard
  0
DICTIONARYVAR
  5
44E
102
{ACAD_REACTORS
330
449
102
}
330
449
100
DictionaryVariables
280
     0
  1
Standard
  0
DICTIONARYVAR
  5
452
102
{ACAD_REACTORS
330
449
102
}
330
449
100
DictionaryVariables
280
     0
  1
0
  0
DICTIONARY
  5
44B
330
6A
100
AcDbDictionary
280
     1
281
     1
  3
ACAD_ROUNDTRIP_2008_TABLESTYLE_CELLSTYLEMAP
360
44C
  0
CELLSTYLEMAP
  5
44C
102
{ACAD_REACTORS
330
44B
102
}
330
44B
100
AcDbCellStyleMap
 90
        3
300
CELLSTYLE
  1
TABLEFORMAT_BEGIN
 90
        5
170
     1
 91
        0
 92
    32768
 62
   257
 93
        1
300
CONTENTFORMAT
  1
CONTENTFORMAT_BEGIN
 90
        0
 91
        0
 92
        4
 93
        0
300

 40
0.0
140
1.0
 94
        5
 62
     0
340
11
144
0.25
309
CONTENTFORMAT_END
171
     1
301
MARGIN
  1
CELLMARGIN_BEGIN
 40
0.06
 40
0.06
 40
0.06
 40
0.06
 40
0.06
 40
0.06
309
CELLMARGIN_END
 94
        6
 95
        1
302
GRIDFORMAT
  1
GRIDFORMAT_BEGIN
 90
        0
 91
        1
 62
     0
 92
       -2
340
14
 93
        0
 40
0.045
309
GRIDFORMAT_END
 95
        2
302
GRIDFORMAT
  1
GRIDFORMAT_BEGIN
 90
        0
 91
        1
 62
     0
 92
       -2
340
14
 93
        0
 40
0.045
309
GRIDFORMAT_END
 95
        4
302
GRIDFORMAT
  1
GRIDFORMAT_BEGIN
 90
        0
 91
        1
 62
     0
 92
       -2
340
14
 93
        0
 40
0.045
309
GRIDFORMAT_END
 95
        8
302
GRIDFORMAT
  1
GRIDFORMAT_BEGIN
 90
        0
 91
        1
 62
     0
 92
       -2
340
14
 93
        0
 40
0.045
309
GRIDFORMAT_END
 95
       16
302
GRIDFORMAT
  1
GRIDFORMAT_BEGIN
 90
        0
 91
        1
 62
     0
 92
       -2
340
14
 93
        0
 40
0.045
309
GRIDFORMAT_END
 95
       32
302
GRIDFORMAT
  1
GRIDFORMAT_BEGIN
 90
        0
 91
        1
 62
     0
 92
       -2
340
14
 93
        0
 40
0.045
309
GRIDFORMAT_END
309
TABLEFORMAT_END
  1
CELLSTYLE_BEGIN
 90
        1
 91
        1
300
_TITLE
309
CELLSTYLE_END
300
CELLSTYLE
  1
TABLEFORMAT_BEGIN
 90
        5
170
     1
 91
        0
 92
        0
 62
   257
 93
        1
300
CONTENTFORMAT
  1
CONTENTFORMAT_BEGIN
 90
        0
 91
        0
 92
        4
 93
        0
300

 40
0.0
140
1.0
 94
        5
 62
     0
340
11
144
0.18
309
CONTENTFORMAT_END
171
     1
301
MARGIN
  1
CELLMARGIN_BEGIN
 40
0.06
 40
0.06
 40
0.06
 40
0.06
 40
0.06
 40
0.06
309
CELLMARGIN_END
 94
        6
 95
        1
302
GRIDFORMAT
  1
GRIDFORMAT_BEGIN
 90
        0
 91
        1
 62
     0
 92
       -2
340
14
 93
        0
 40
0.045
309
GRIDFORMAT_END
 95
        2
302
GRIDFORMAT
  1
GRIDFORMAT_BEGIN
 90
        0
 91
        1
 62
     0
 92
       -2
340
14
 93
        0
 40
0.045
309
GRIDFORMAT_END
 95
        4
302
GRIDFORMAT
  1
GRIDFORMAT_BEGIN
 90
        0
 91
        1
 62
     0
 92
       -2
340
14
 93
        0
 40
0.045
309
GRIDFORMAT_END
 95
        8
302
GRIDFORMAT
  1
GRIDFORMAT_BEGIN
 90
        0
 91
        1
 62
     0
 92
       -2
340
14
 93
        0
 40
0.045
309
GRIDFORMAT_END
 95
       16
302
GRIDFORMAT
  1
GRIDFORMAT_BEGIN
 90
        0
 91
        1
 62
     0
 92
       -2
340
14
 93
        0
 40
0.045
309
GRIDFORMAT_END
 95
       32
302
GRIDFORMAT
  1
GRIDFORMAT_BEGIN
 90
        0
 91
        1
 62
     0
 92
       -2
340
14
 93
        0
 40
0.045
309
GRIDFORMAT_END
309
TABLEFORMAT_END
  1
CELLSTYLE_BEGIN
 90
        2
 91
        1
300
_HEADER
309
CELLSTYLE_END
300
CELLSTYLE
  1
TABLEFORMAT_BEGIN
 90
        5
170
     1
 91
        0
 92
        0
 62
   257
 93
        1
300
CONTENTFORMAT
  1
CONTENTFORMAT_BEGIN
 90
        0
 91
        0
 92
        4
 93
        0
300

 40
0.0
140
1.0
 94
        2
 62
     0
340
11
144
0.18
309
CONTENTFORMAT_END
171
     1
301
MARGIN
  1
CELLMARGIN_BEGIN
 40
0.06
 40
0.06
 40
0.06
 40
0.06
 40
0.06
 40
0.06
309
CELLMARGIN_END
 94
        6
 95
        1
302
GRIDFORMAT
  1
GRIDFORMAT_BEGIN
 90
        0
 91
        1
 62
     0
 92
       -2
340
14
 93
        0
 40
0.045
309
GRIDFORMAT_END
 95
        2
302
GRIDFORMAT
  1
GRIDFORMAT_BEGIN
 90
        0
 91
        1
 62
     0
 92
       -2
340
14
 93
        0
 40
0.045
309
GRIDFORMAT_END
 95
        4
302
GRIDFORMAT
  1
GRIDFORMAT_BEGIN
 90
        0
 91
        1
 62
     0
 92
       -2
340
14
 93
        0
 40
0.045
309
GRIDFORMAT_END
 95
        8
302
GRIDFORMAT
  1
GRIDFORMAT_BEGIN
 90
        0
 91
        1
 62
     0
 92
       -2
340
14
 93
        0
 40
0.045
309
GRIDFORMAT_END
 95
       16
302
GRIDFORMAT
  1
GRIDFORMAT_BEGIN
 90
        0
 91
        1
 62
     0
 92
       -2
340
14
 93
        0
 40
0.045
309
GRIDFORMAT_END
 95
       32
302
GRIDFORMAT
  1
GRIDFORMAT_BEGIN
 90
        0
 91
        1
 62
     0
 92
       -2
340
14
 93
        0
 40
0.045
309
GRIDFORMAT_END
309
TABLEFORMAT_END
  1
CELLSTYLE_BEGIN
 90
        3
 91
        2
300
_DATA
309
CELLSTYLE_END
  0
ENDSEC
  0
EOF
