  0
SECTION
  2
HEADER
  9
$ACADVER
  1
AC1027
  9
$ACADMAINTVER
 70
   105
  9
$DWGCODEPAGE
  3
ANSI_1252
  9
$REQUIREDVERSIONS
160
                 0
  9
$INSBASE
 10
0.0
 20
0.0
 30
0.0
  9
$EXTMIN
 10
1895.567125741485
 20
-330.8408568267787
 30
0.0
  9
$EXTMAX
 10
2289.567125741487
 20
211.1591431732195
 30
0.0
  9
$LIMMIN
 10
0.0
 20
0.0
  9
$LIMMAX
 10
12.0
 20
9.0
  9
$ORTHOMODE
 70
     0
  9
$REGENMODE
 70
     1
  9
$FILLMODE
 70
     1
  9
$QTEXTMODE
 70
     0
  9
$MIRRTEXT
 70
     1
  9
$LTSCALE
 40
2.0
  9
$ATTMODE
 70
     1
  9
$TEXTSIZE
 40
0.2
  9
$TRACEWID
 40
0.05
  9
$TEXTSTYLE
  7
Standard
  9
$CLAYER
  8
0
  9
$CELTYPE
  6
ByLayer
  9
$CECOLOR
 62
   256
  9
$CELTSCALE
 40
1.0
  9
$DISPSILH
 70
     0
  9
$DIMSCALE
 40
1.0
  9
$DIMASZ
 40
0.18
  9
$DIMEXO
 40
0.0625
  9
$DIMDLI
 40
0.38
  9
$DIMRND
 40
0.0
  9
$DIMDLE
 40
0.0
  9
$DIMEXE
 40
0.18
  9
$DIMTP
 40
0.0
  9
$DIMTM
 40
0.0
  9
$DIMTXT
 40
0.18
  9
$DIMCEN
 40
0.09
  9
$DIMTSZ
 40
0.0
  9
$DIMTOL
 70
     0
  9
$DIMLIM
 70
     0
  9
$DIMTIH
 70
     1
  9
$DIMTOH
 70
     1
  9
$DIMSE1
 70
     0
  9
$DIMSE2
 70
     0
  9
$DIMTAD
 70
     0
  9
$DIMZIN
 70
     0
  9
$DIMBLK
  1

  9
$DIMASO
 70
     1
  9
$DIMSHO
 70
     1
  9
$DIMPOST
  1

  9
$DIMAPOST
  1

  9
$DIMALT
 70
     0
  9
$DIMALTD
 70
     2
  9
$DIMALTF
 40
25.4
  9
$DIMLFAC
 40
1.0
  9
$DIMTOFL
 70
     1
  9
$DIMTVP
 40
0.0
  9
$DIMTIX
 70
     0
  9
$DIMSOXD
 70
     1
  9
$DIMSAH
 70
     0
  9
$DIMBLK1
  1

  9
$DIMBLK2
  1

  9
$DIMSTYLE
  2
Standard
  9
$DIMCLRD
 70
     0
  9
$DIMCLRE
 70
     0
  9
$DIMCLRT
 70
     0
  9
$DIMTFAC
 40
1.0
  9
$DIMGAP
 40
0.09
  9
$DIMJUST
 70
     0
  9
$DIMSD1
 70
     0
  9
$DIMSD2
 70
     0
  9
$DIMTOLJ
 70
     1
  9
$DIMTZIN
 70
     0
  9
$DIMALTZ
 70
     0
  9
$DIMALTTZ
 70
     0
  9
$DIMUPT
 70
     0
  9
$DIMDEC
 70
     4
  9
$DIMTDEC
 70
     4
  9
$DIMALTU
 70
     2
  9
$DIMALTTD
 70
     2
  9
$DIMTXSTY
  7
Standard
  9
$DIMAUNIT
 70
     0
  9
$DIMADEC
 70
     0
  9
$DIMALTRND
 40
0.0
  9
$DIMAZIN
 70
     0
  9
$DIMDSEP
 70
    46
  9
$DIMATFIT
 70
     3
  9
$DIMFRAC
 70
     0
  9
$DIMLDRBLK
  1

  9
$DIMLUNIT
 70
     2
  9
$DIMLWD
 70
    -2
  9
$DIMLWE
 70
    -2
  9
$DIMTMOVE
 70
     2
  9
$DIMFXL
 40
1.0
  9
$DIMFXLON
 70
     0
  9
$DIMJOGANG
 40
0.7853981633974483
  9
$DIMTFILL
 70
     0
  9
$DIMTFILLCLR
 70
     0
  9
$DIMARCSYM
 70
     0
  9
$DIMLTYPE
  6

  9
$DIMLTEX1
  6

  9
$DIMLTEX2
  6

  9
$DIMTXTDIRECTION
 70
     0
  9
$LUNITS
 70
     2
  9
$LUPREC
 70
     4
  9
$SKETCHINC
 40
0.1
  9
$FILLETRAD
 40
0.5
  9
$AUNITS
 70
     0
  9
$AUPREC
 70
     0
  9
$MENU
  1
.
  9
$ELEVATION
 40
0.0
  9
$PELEVATION
 40
0.0
  9
$THICKNESS
 40
0.0
  9
$LIMCHECK
 70
     0
  9
$CHAMFERA
 40
0.0
  9
$CHAMFERB
 40
0.0
  9
$CHAMFERC
 40
0.0
  9
$CHAMFERD
 40
0.0
  9
$SKPOLY
 70
     0
  9
$TDCREATE
 40
2459184.516136516
  9
$TDUCREATE
 40
2459184.474469849
  9
$TDUPDATE
 40
2459184.516138762
  9
$TDUUPDATE
 40
2459184.474472095
  9
$TDINDWG
 40
0.0000000116
  9
$TDUSRTIMER
 40
0.0000000116
  9
$USRTIMER
 70
     1
  9
$ANGBASE
 50
0.0
  9
$ANGDIR
 70
     0
  9
$PDMODE
 70
     0
  9
$PDSIZE
 40
0.0
  9
$PLINEWID
 40
0.0
  9
$SPLFRAME
 70
     0
  9
$SPLINETYPE
 70
     6
  9
$SPLINESEGS
 70
     8
  9
$HANDSEED
  5
41E
  9
$SURFTAB1
 70
     6
  9
$SURFTAB2
 70
     6
  9
$SURFTYPE
 70
     6
  9
$SURFU
 70
     6
  9
$SURFV
 70
     6
  9
$UCSBASE
  2

  9
$UCSNAME
  2

  9
$UCSORG
 10
0.0
 20
0.0
 30
0.0
  9
$UCSXDIR
 10
1.0
 20
0.0
 30
0.0
  9
$UCSYDIR
 10
0.0
 20
1.0
 30
0.0
  9
$UCSORTHOREF
  2

  9
$UCSORTHOVIEW
 70
     0
  9
$UCSORGTOP
 10
0.0
 20
0.0
 30
0.0
  9
$UCSORGBOTTOM
 10
0.0
 20
0.0
 30
0.0
  9
$UCSORGLEFT
 10
0.0
 20
0.0
 30
0.0
  9
$UCSORGRIGHT
 10
0.0
 20
0.0
 30
0.0
  9
$UCSORGFRONT
 10
0.0
 20
0.0
 30
0.0
  9
$UCSORGBACK
 10
0.0
 20
0.0
 30
0.0
  9
$PUCSBASE
  2

  9
$PUCSNAME
  2

  9
$PUCSORG
 10
0.0
 20
0.0
 30
0.0
  9
$PUCSXDIR
 10
1.0
 20
0.0
 30
0.0
  9
$PUCSYDIR
 10
0.0
 20
1.0
 30
0.0
  9
$PUCSORTHOREF
  2

  9
$PUCSORTHOVIEW
 70
     0
  9
$PUCSORGTOP
 10
0.0
 20
0.0
 30
0.0
  9
$PUCSORGBOTTOM
 10
0.0
 20
0.0
 30
0.0
  9
$PUCSORGLEFT
 10
0.0
 20
0.0
 30
0.0
  9
$PUCSORGRIGHT
 10
0.0
 20
0.0
 30
0.0
  9
$PUCSORGFRONT
 10
0.0
 20
0.0
 30
0.0
  9
$PUCSORGBACK
 10
0.0
 20
0.0
 30
0.0
  9
$USERI1
 70
     0
  9
$USERI2
 70
     0
  9
$USERI3
 70
     0
  9
$USERI4
 70
     0
  9
$USERI5
 70
     0
  9
$USERR1
 40
0.0
  9
$USERR2
 40
0.0
  9
$USERR3
 40
0.0
  9
$USERR4
 40
0.0
  9
$USERR5
 40
0.0
  9
$WORLDVIEW
 70
     1
  9
$SHADEDGE
 70
     3
  9
$SHADEDIF
 70
    70
  9
$TILEMODE
 70
     1
  9
$MAXACTVP
 70
    64
  9
$PINSBASE
 10
0.0
 20
0.0
 30
0.0
  9
$PLIMCHECK
 70
     0
  9
$PEXTMIN
 10
0.0
 20
0.0
 30
0.0
  9
$PEXTMAX
 10
197.6000000000009
 20
271.5999999999991
 30
0.0
  9
$PLIMMIN
 10
-20.0
 20
-7.5
  9
$PLIMMAX
 10
277.0
 20
202.5
  9
$UNITMODE
 70
     0
  9
$VISRETAIN
 70
     1
  9
$PLINEGEN
 70
     0
  9
$PSLTSCALE
 70
     0
  9
$TREEDEPTH
 70
  3020
  9
$CMLSTYLE
  2
Standard
  9
$CMLJUST
 70
     0
  9
$CMLSCALE
 40
1.0
  9
$PROXYGRAPHICS
 70
     1
  9
$MEASUREMENT
 70
     1
  9
$CELWEIGHT
370
    -1
  9
$ENDCAPS
280
     0
  9
$JOINSTYLE
280
     0
  9
$LWDISPLAY
290
     0
  9
$INSUNITS
 70
     4
  9
$HYPERLINKBASE
  1

  9
$STYLESHEET
  1

  9
$XEDIT
290
     1
  9
$CEPSNTYPE
380
     0
  9
$PSTYLEMODE
290
     0
  9
$FINGERPRINTGUID
  2
{CF5D4E22-CAA3-4512-87FA-0F376DDA8B92}
  9
$VERSIONGUID
  2
{FAEB1C32-E019-11D5-929B-00C0DF256EC4}
  9
$EXTNAMES
290
     1
  9
$PSVPSCALE
 40
0.0
  9
$OLESTARTUP
290
     0
  9
$SORTENTS
280
   127
  9
$INDEXCTL
280
     0
  9
$HIDETEXT
280
     1
  9
$XCLIPFRAME
280
     2
  9
$HALOGAP
280
     0
  9
$OBSCOLOR
 70
   257
  9
$OBSLTYPE
280
     0
  9
$INTERSECTIONDISPLAY
280
     0
  9
$INTERSECTIONCOLOR
 70
   257
  9
$DIMASSOC
280
     2
  9
$PROJECTNAME
  1

  9
$CAMERADISPLAY
290
     0
  9
$LENSLENGTH
 40
50.0
  9
$CAMERAHEIGHT
 40
0.0
  9
$STEPSPERSEC
 40
2.0
  9
$STEPSIZE
 40
6.0
  9
$3DDWFPREC
 40
2.0
  9
$PSOLWIDTH
 40
0.25
  9
$PSOLHEIGHT
 40
4.0
  9
$LOFTANG1
 40
1.570796326794897
  9
$LOFTANG2
 40
1.570796326794897
  9
$LOFTMAG1
 40
0.0
  9
$LOFTMAG2
 40
0.0
  9
$LOFTPARAM
 70
     7
  9
$LOFTNORMALS
280
     1
  9
$LATITUDE
 40
37.795
  9
$LONGITUDE
 40
-122.394
  9
$NORTHDIRECTION
 40
0.0
  9
$TIMEZONE
 70
 -8000
  9
$LIGHTGLYPHDISPLAY
280
     1
  9
$TILEMODELIGHTSYNCH
280
     1
  9
$CMATERIAL
347
44
  9
$SOLIDHIST
280
     0
  9
$SHOWHIST
280
     1
  9
$DWFFRAME
280
     2
  9
$DGNFRAME
280
     2
  9
$REALWORLDSCALE
290
     1
  9
$INTERFERECOLOR
 62
   256
  9
$CSHADOW
280
     0
  9
$SHADOWPLANELOCATION
 40
0.0
  0
ENDSEC
  0
SECTION
  2
CLASSES
  0
CLASS
  1
ACDBDICTIONARYWDFLT
  2
AcDbDictionaryWithDefault
  3
ObjectDBX Classes
 90
        0
 91
        3
280
     0
281
     0
  0
CLASS
  1
VISUALSTYLE
  2
AcDbVisualStyle
  3
ObjectDBX Classes
 90
     4095
 91
        3
280
     0
281
     0
  0
CLASS
  1
MATERIAL
  2
AcDbMaterial
  3
ObjectDBX Classes
 90
     1153
 91
        3
280
     0
281
     0
  0
CLASS
  1
SCALE
  2
AcDbScale
  3
ObjectDBX Classes
 90
     1153
 91
        3
280
     0
281
     0
  0
CLASS
  1
TABLESTYLE
  2
AcDbTableStyle
  3
ObjectDBX Classes
 90
     4095
 91
        3
280
     0
281
     0
  0
CLASS
  1
MLEADERSTYLE
  2
AcDbMLeaderStyle
  3
ACDB_MLEADERSTYLE_CLASS
 90
     4095
 91
        3
280
     0
281
     0
  0
CLASS
  1
SUN
  2
AcDbSun
  3
SCENEOE
 90
     1153
 91
        3
280
     0
281
     0
  0
CLASS
  1
RASTERVARIABLES
  2
AcDbRasterVariables
  3
ISM
 90
        0
 91
        3
280
     0
281
     0
  0
CLASS
  1
PLOTSETTINGS
  2
AcDbPlotSettings
  3
ObjectDBX Classes
 90
        0
 91
        3
280
     0
281
     0
  0
CLASS
  1
IMAGEDEF
  2
AcDbRasterImageDef
  3
ISM
 90
        0
 91
        3
280
     0
281
     0
  0
CLASS
  1
IMAGE
  2
AcDbRasterImage
  3
ISM
 90
      127
 91
        4
280
     0
281
     1
  0
CLASS
  1
IMAGEDEF_REACTOR
  2
AcDbRasterImageDefReactor
  3
ISM
 90
        1
 91
        3
280
     0
281
     0
  0
CLASS
  1
DICTIONARYVAR
  2
AcDbDictionaryVar
  3
ObjectDBX Classes
 90
        0
 91
        3
280
     0
281
     0
  0
CLASS
  1
CELLSTYLEMAP
  2
AcDbCellStyleMap
  3
ObjectDBX Classes
 90
     1152
 91
        3
280
     0
281
     0
  0
ENDSEC
  0
SECTION
  2
TABLES
  0
TABLE
  2
VPORT
  5
8
330
0
100
AcDbSymbolTable
 70
     1
  0
VPORT
  5
29
330
8
100
AcDbSymbolTableRecord
100
AcDbViewportTableRecord
  2
*Active
 70
     0
 10
0.0
 20
0.0
 11
1.0
 21
1.0
 12
10.42990654205607
 22
4.5
 13
0.0
 23
0.0
 14
0.5
 24
0.5
 15
0.5
 25
0.5
 16
0.0
 26
0.0
 36
1.0
 17
0.0
 27
0.0
 37
0.0
 40
9.0
 41
1.972972972850329
 42
50.0
 43
0.0
 44
0.0
 50
0.0
 51
0.0
 71
     0
 72
   100
 73
     1
 74
     3
 75
     0
 76
     0
 77
     0
 78
     0
281
     0
 65
     1
110
0.0
120
0.0
130
0.0
111
1.0
121
0.0
131
0.0
112
0.0
122
1.0
132
0.0
 79
     0
146
0.0
348
2F
 60
     3
 61
     5
292
     1
282
     1
141
0.0
142
0.0
 63
   250
361
6D
  0
ENDTAB
  0
TABLE
  2
LTYPE
  5
5
330
0
100
AcDbSymbolTable
 70
     2
  0
LTYPE
  5
14
330
5
100
AcDbSymbolTableRecord
100
AcDbLinetypeTableRecord
  2
ByBlock
 70
     0
  3

 72
    65
 73
     0
 40
0.0
  0
LTYPE
  5
15
330
5
100
AcDbSymbolTableRecord
100
AcDbLinetypeTableRecord
  2
ByLayer
 70
     0
  3

 72
    65
 73
     0
 40
0.0
  0
LTYPE
  5
16
330
5
100
AcDbSymbolTableRecord
100
AcDbLinetypeTableRecord
  2
Continuous
 70
     0
  3
Solid line
 72
    65
 73
     0
 40
0.0
  0
LTYPE
  5
182
330
5
100
AcDbSymbolTableRecord
100
AcDbLinetypeTableRecord
  2
CADWORK_3
 70
     0
  3

 72
    65
 73
     2
 40
4.0
 49
2.0
 74
     0
 49
-2.0
 74
     0
  0
ENDTAB
  0
TABLE
  2
LAYER
  5
2
330
0
100
AcDbSymbolTable
 70
    19
  0
LAYER
  5
10
330
2
100
AcDbSymbolTableRecord
100
AcDbLayerTableRecord
  2
0
 70
     0
 62
     7
  6
Continuous
370
    -3
390
F
347
46
348
0
  0
LAYER
  5
70
330
2
100
AcDbSymbolTableRecord
100
AcDbLayerTableRecord
  2
Standard
 70
     0
 62
     7
  6
Continuous
370
    -3
390
F
347
46
348
0
  0
LAYER
  5
71
330
2
100
AcDbSymbolTableRecord
100
AcDbLayerTableRecord
  2
Ech.1_1
 70
     0
 62
     7
  6
Continuous
370
    -3
390
F
347
46
348
0
  0
LAYER
  5
72
330
2
100
AcDbSymbolTableRecord
100
AcDbLayerTableRecord
  2
Ech.1_2
 70
     0
 62
     7
  6
Continuous
370
    -3
390
F
347
46
348
0
  0
LAYER
  5
73
330
2
100
AcDbSymbolTableRecord
100
AcDbLayerTableRecord
  2
Ech.1_5
 70
     0
 62
     7
  6
Continuous
370
    -3
390
F
347
46
348
0
  0
LAYER
  5
74
330
2
100
AcDbSymbolTableRecord
100
AcDbLayerTableRecord
  2
Ech.1_10
 70
     0
 62
     7
  6
Continuous
370
    -3
390
F
347
46
348
0
  0
LAYER
  5
75
330
2
100
AcDbSymbolTableRecord
100
AcDbLayerTableRecord
  2
Ech.1_20
 70
     0
 62
     7
  6
Continuous
370
    -3
390
F
347
46
348
0
  0
LAYER
  5
76
330
2
100
AcDbSymbolTableRecord
100
AcDbLayerTableRecord
  2
Ech.1_25
 70
     0
 62
     7
  6
Continuous
370
    -3
390
F
347
46
348
0
  0
LAYER
  5
77
330
2
100
AcDbSymbolTableRecord
100
AcDbLayerTableRecord
  2
Ech.1_33
 70
     0
 62
     7
  6
Continuous
370
    -3
390
F
347
46
348
0
  0
LAYER
  5
78
330
2
100
AcDbSymbolTableRecord
100
AcDbLayerTableRecord
  2
Ech.1_50
 70
     0
 62
     7
  6
Continuous
370
    -3
390
F
347
46
348
0
  0
LAYER
  5
79
330
2
100
AcDbSymbolTableRecord
100
AcDbLayerTableRecord
  2
Ech.1_75
 70
     0
 62
     7
  6
Continuous
370
    -3
390
F
347
46
348
0
  0
LAYER
  5
7A
330
2
100
AcDbSymbolTableRecord
100
AcDbLayerTableRecord
  2
Ech.1_100
 70
     0
 62
     7
  6
Continuous
370
    -3
390
F
347
46
348
0
  0
LAYER
  5
7B
330
2
100
AcDbSymbolTableRecord
100
AcDbLayerTableRecord
  2
Ech.1_200
 70
     0
 62
     7
  6
Continuous
370
    -3
390
F
347
46
348
0
  0
LAYER
  5
7C
330
2
100
AcDbSymbolTableRecord
100
AcDbLayerTableRecord
  2
Ech.1_500
 70
     0
 62
     7
  6
Continuous
370
    -3
390
F
347
46
348
0
  0
LAYER
  5
7D
330
2
100
AcDbSymbolTableRecord
100
AcDbLayerTableRecord
  2
Ech.1_1000
 70
     0
 62
     7
  6
Continuous
370
    -3
390
F
347
46
348
0
  0
LAYER
  5
7E
330
2
100
AcDbSymbolTableRecord
100
AcDbLayerTableRecord
  2
Cadres traceur
 70
     0
 62
     7
  6
Continuous
370
    -3
390
F
347
46
348
0
  0
LAYER
  5
7F
330
2
100
AcDbSymbolTableRecord
100
AcDbLayerTableRecord
  2
Cadres laser
 70
     0
 62
     7
  6
Continuous
370
    -3
390
F
347
46
348
0
  0
LAYER
  5
80
330
2
100
AcDbSymbolTableRecord
100
AcDbLayerTableRecord
  2
Légende d_aide
 70
     0
 62
     7
  6
Continuous
370
    -3
390
F
347
46
348
0
  0
LAYER
  5
3E1
330
2
100
AcDbSymbolTableRecord
100
AcDbLayerTableRecord
  2
Defpoints
 70
     0
 62
     7
  6
Continuous
290
     0
370
    -3
390
F
347
46
348
0
  0
ENDTAB
  0
TABLE
  2
STYLE
  5
3
330
0
100
AcDbSymbolTable
 70
     9
  0
STYLE
  5
11
330
3
100
AcDbSymbolTableRecord
100
AcDbTextStyleTableRecord
  2
Standard
 70
     0
 40
0.0
 41
1.0
 50
0.0
 71
     0
 42
0.2
  3
txt
  4

  0
STYLE
  5
81
330
3
100
AcDbSymbolTableRecord
100
AcDbTextStyleTableRecord
  2
CwStyleShx
 70
     0
 40
1.0
 41
1.0
 50
0.0
 71
     0
 42
0.2
  3

  4

  0
STYLE
  5
82
330
3
100
AcDbSymbolTableRecord
100
AcDbTextStyleTableRecord
  2
CwStyleShx16
 70
     0
 40
1.0
 41
1.0
 50
0.0
 71
     0
 42
0.2
  3

  4

  0
STYLE
  5
83
330
3
100
AcDbSymbolTableRecord
100
AcDbTextStyleTableRecord
  2
MONOTXT
 70
     0
 40
0.0
 41
1.0
 50
0.0
 71
     0
 42
0.2
  3
MONOTXT
  4

  0
STYLE
  5
84
330
3
100
AcDbSymbolTableRecord
100
AcDbTextStyleTableRecord
  2
SYMAP
 70
     0
 40
1.0
 41
1.0
 50
0.0
 71
     0
 42
0.2
  3
SYMAP
  4

  0
STYLE
  5
85
330
3
100
AcDbSymbolTableRecord
100
AcDbTextStyleTableRecord
  2
CwStyleTtf
 70
     0
 40
1.0
 41
1.0
 50
0.0
 71
     0
 42
0.2
  3
arial.ttf
  4

  0
STYLE
  5
23C
330
3
100
AcDbSymbolTableRecord
100
AcDbTextStyleTableRecord
  2
arial-
 70
     0
 40
1.0
 41
1.0
 50
0.0
 71
     0
 42
0.2
  3
arial.ttf
  4

1001
ACAD
1000
Arial
1071
        0
  0
STYLE
  5
23D
330
3
100
AcDbSymbolTableRecord
100
AcDbTextStyleTableRecord
  2
symbol-
 70
     0
 40
1.0
 41
1.0
 50
0.0
 71
     0
 42
0.2
  3
symbol.ttf
  4

1001
ACAD
1000
Symbol
1071
        0
  0
STYLE
  5
3ED
330
3
100
AcDbSymbolTableRecord
100
AcDbTextStyleTableRecord
  2
arial-z
 70
     0
 40
0.0
 41
1.0
 50
0.0
 71
     0
 42
0.2
  3

  4

1001
ACAD
1000
Arial
1071
        0
  0
ENDTAB
  0
TABLE
  2
VIEW
  5
6
330
0
100
AcDbSymbolTable
 70
     0
  0
ENDTAB
  0
TABLE
  2
UCS
  5
7
330
0
100
AcDbSymbolTable
 70
     0
  0
ENDTAB
  0
TABLE
  2
APPID
  5
9
330
0
100
AcDbSymbolTable
 70
     3
  0
APPID
  5
12
330
9
100
AcDbSymbolTableRecord
100
AcDbRegAppTableRecord
  2
ACAD
 70
     0
  0
APPID
  5
6E
330
9
100
AcDbSymbolTableRecord
100
AcDbRegAppTableRecord
  2
Cadwork
 70
     0
  0
APPID
  5
232
330
9
100
AcDbSymbolTableRecord
100
AcDbRegAppTableRecord
  2
PLOTTRANSPARENCY
 70
     0
  0
ENDTAB
  0
TABLE
  2
DIMSTYLE
  5
A
330
0
100
AcDbSymbolTable
 70
     1
100
AcDbDimStyleTable
  0
DIMSTYLE
105
27
102
{ACAD_REACTORS
330
3DF
330
3EE
330
3FC
102
}
330
A
100
AcDbSymbolTableRecord
100
AcDbDimStyleTableRecord
  2
Standard
 70
     0
178
     0
340
11
  0
ENDTAB
  0
TABLE
  2
BLOCK_RECORD
  5
1
330
0
100
AcDbSymbolTable
 70
    72
  0
BLOCK_RECORD
  5
1F
330
1
100
AcDbSymbolTableRecord
100
AcDbBlockTableRecord
  2
*Model_Space
340
22
 70
     0
280
     1
281
     0
  0
BLOCK_RECORD
  5
22D
330
1
100
AcDbSymbolTableRecord
100
AcDbBlockTableRecord
  2
*Paper_Space
340
22E
 70
     0
280
     1
281
     0
  0
BLOCK_RECORD
  5
86
330
1
100
AcDbSymbolTableRecord
100
AcDbBlockTableRecord
  2
CDWK_PTTYP1
340
0
 70
     0
280
     1
281
     1
  0
BLOCK_RECORD
  5
8D
330
1
100
AcDbSymbolTableRecord
100
AcDbBlockTableRecord
  2
CDWK_PTTYP2
340
0
 70
     0
280
     1
281
     1
  0
BLOCK_RECORD
  5
92
330
1
100
AcDbSymbolTableRecord
100
AcDbBlockTableRecord
  2
CDWK_PTTYP4
340
0
 70
     0
280
     1
281
     1
  0
BLOCK_RECORD
  5
96
330
1
100
AcDbSymbolTableRecord
100
AcDbBlockTableRecord
  2
CDWK_PTTYP5
340
0
 70
     0
280
     1
281
     1
  0
BLOCK_RECORD
  5
9F
330
1
100
AcDbSymbolTableRecord
100
AcDbBlockTableRecord
  2
CDWK_PTTYP6
340
0
 70
     0
280
     1
281
     1
  0
BLOCK_RECORD
  5
A7
330
1
100
AcDbSymbolTableRecord
100
AcDbBlockTableRecord
  2
CDWK_PTTYP7
340
0
 70
     0
280
     1
281
     1
  0
BLOCK_RECORD
  5
B0
330
1
100
AcDbSymbolTableRecord
100
AcDbBlockTableRecord
  2
CDWK_PTTYP8
340
0
 70
     0
280
     1
281
     1
  0
BLOCK_RECORD
  5
B4
330
1
100
AcDbSymbolTableRecord
100
AcDbBlockTableRecord
  2
CDWK_PTTYP9
340
0
 70
     0
280
     1
281
     1
  0
BLOCK_RECORD
  5
B9
330
1
100
AcDbSymbolTableRecord
100
AcDbBlockTableRecord
  2
CDWK_PTTYP10
340
0
 70
     0
280
     1
281
     1
  0
BLOCK_RECORD
  5
BD
330
1
100
AcDbSymbolTableRecord
100
AcDbBlockTableRecord
  2
CDWK_PTTYP11
340
0
 70
     0
280
     1
281
     1
  0
BLOCK_RECORD
  5
C2
330
1
100
AcDbSymbolTableRecord
100
AcDbBlockTableRecord
  2
CDWK_PTTYP12
340
0
 70
     0
280
     1
281
     1
  0
BLOCK_RECORD
  5
C7
330
1
100
AcDbSymbolTableRecord
100
AcDbBlockTableRecord
  2
CDWK_PTTYP13
340
0
 70
     0
280
     1
281
     1
  0
BLOCK_RECORD
  5
CD
330
1
100
AcDbSymbolTableRecord
100
AcDbBlockTableRecord
  2
CDWK_PTTYP16
340
0
 70
     0
280
     1
281
     1
  0
BLOCK_RECORD
  5
D4
330
1
100
AcDbSymbolTableRecord
100
AcDbBlockTableRecord
  2
CDWK_PTTYP17
340
0
 70
     0
280
     1
281
     1
  0
BLOCK_RECORD
  5
D9
330
1
100
AcDbSymbolTableRecord
100
AcDbBlockTableRecord
  2
CDWK_PTTYP18
340
0
 70
     0
280
     1
281
     1
  0
BLOCK_RECORD
  5
DE
330
1
100
AcDbSymbolTableRecord
100
AcDbBlockTableRecord
  2
CDWK_PTTYP19
340
0
 70
     0
280
     1
281
     1
  0
BLOCK_RECORD
  5
E4
330
1
100
AcDbSymbolTableRecord
100
AcDbBlockTableRecord
  2
CDWK_PTTYP20
340
0
 70
     0
280
     1
281
     1
  0
BLOCK_RECORD
  5
E9
330
1
100
AcDbSymbolTableRecord
100
AcDbBlockTableRecord
  2
CDWK_PTTYP21
340
0
 70
     0
280
     1
281
     1
  0
BLOCK_RECORD
  5
EE
330
1
100
AcDbSymbolTableRecord
100
AcDbBlockTableRecord
  2
CDWK_PTTYP25
340
0
 70
     0
280
     1
281
     1
  0
BLOCK_RECORD
  5
F5
330
1
100
AcDbSymbolTableRecord
100
AcDbBlockTableRecord
  2
CDWK_PTTYP26
340
0
 70
     0
280
     1
281
     1
  0
BLOCK_RECORD
  5
FC
330
1
100
AcDbSymbolTableRecord
100
AcDbBlockTableRecord
  2
CDWK_PTTYP27
340
0
 70
     0
280
     1
281
     1
  0
BLOCK_RECORD
  5
104
330
1
100
AcDbSymbolTableRecord
100
AcDbBlockTableRecord
  2
CDWK_PTTYP28
340
0
 70
     0
280
     1
281
     1
  0
BLOCK_RECORD
  5
10B
330
1
100
AcDbSymbolTableRecord
100
AcDbBlockTableRecord
  2
CDWK_PTTYP29
340
0
 70
     0
280
     1
281
     1
  0
BLOCK_RECORD
  5
111
330
1
100
AcDbSymbolTableRecord
100
AcDbBlockTableRecord
  2
CDWK_PTTYP30
340
0
 70
     0
280
     1
281
     1
  0
BLOCK_RECORD
  5
118
330
1
100
AcDbSymbolTableRecord
100
AcDbBlockTableRecord
  2
CDWK_PTTYP31
340
0
 70
     0
280
     1
281
     1
  0
BLOCK_RECORD
  5
120
330
1
100
AcDbSymbolTableRecord
100
AcDbBlockTableRecord
  2
CDWK_PTTYP32
340
0
 70
     0
280
     1
281
     1
  0
BLOCK_RECORD
  5
129
330
1
100
AcDbSymbolTableRecord
100
AcDbBlockTableRecord
  2
CDWK_PTTYP33
340
0
 70
     0
280
     1
281
     1
  0
BLOCK_RECORD
  5
12F
330
1
100
AcDbSymbolTableRecord
100
AcDbBlockTableRecord
  2
CDWK_PTTYP34
340
0
 70
     0
280
     1
281
     1
  0
BLOCK_RECORD
  5
135
330
1
100
AcDbSymbolTableRecord
100
AcDbBlockTableRecord
  2
CDWK_PTTYP35
340
0
 70
     0
280
     1
281
     1
  0
BLOCK_RECORD
  5
13B
330
1
100
AcDbSymbolTableRecord
100
AcDbBlockTableRecord
  2
CDWK_PTTYP36
340
0
 70
     0
280
     1
281
     1
  0
BLOCK_RECORD
  5
143
330
1
100
AcDbSymbolTableRecord
100
AcDbBlockTableRecord
  2
CDWK_PTTYP37
340
0
 70
     0
280
     1
281
     1
  0
BLOCK_RECORD
  5
148
330
1
100
AcDbSymbolTableRecord
100
AcDbBlockTableRecord
  2
CDWK_PTTYP38
340
0
 70
     0
280
     1
281
     1
  0
BLOCK_RECORD
  5
14E
330
1
100
AcDbSymbolTableRecord
100
AcDbBlockTableRecord
  2
CDWK_PTTYP41
340
0
 70
     0
280
     1
281
     1
  0
BLOCK_RECORD
  5
158
330
1
100
AcDbSymbolTableRecord
100
AcDbBlockTableRecord
  2
CDWK_PTTYP42
340
0
 70
     0
280
     1
281
     1
  0
BLOCK_RECORD
  5
161
330
1
100
AcDbSymbolTableRecord
100
AcDbBlockTableRecord
  2
CDWK_PTTYP43
340
0
 70
     0
280
     1
281
     1
  0
BLOCK_RECORD
  5
167
330
1
100
AcDbSymbolTableRecord
100
AcDbBlockTableRecord
  2
CDWK_PTTYP44
340
0
 70
     0
280
     1
281
     1
  0
BLOCK_RECORD
  5
170
330
1
100
AcDbSymbolTableRecord
100
AcDbBlockTableRecord
  2
CDWK_PTTYP45
340
0
 70
     0
280
     1
281
     1
  0
BLOCK_RECORD
  5
175
330
1
100
AcDbSymbolTableRecord
100
AcDbBlockTableRecord
  2
CDWK_PTTYP46
340
0
 70
     0
280
     1
281
     1
  0
BLOCK_RECORD
  5
17A
330
1
100
AcDbSymbolTableRecord
100
AcDbBlockTableRecord
  2
CDWK_PTTYP47
340
0
 70
     0
280
     1
281
     1
  0
BLOCK_RECORD
  5
183
330
1
100
AcDbSymbolTableRecord
100
AcDbBlockTableRecord
  2
CDWK_PTTYP48
340
0
 70
     0
280
     1
281
     1
  0
BLOCK_RECORD
  5
188
330
1
100
AcDbSymbolTableRecord
100
AcDbBlockTableRecord
  2
CDWK_PTTYP49
340
0
 70
     0
280
     1
281
     1
  0
BLOCK_RECORD
  5
18F
330
1
100
AcDbSymbolTableRecord
100
AcDbBlockTableRecord
  2
CDWK_PTTYP50
340
0
 70
     0
280
     1
281
     1
  0
BLOCK_RECORD
  5
199
330
1
100
AcDbSymbolTableRecord
100
AcDbBlockTableRecord
  2
CDWK_PTTYP51
340
0
 70
     0
280
     1
281
     1
  0
BLOCK_RECORD
  5
19E
330
1
100
AcDbSymbolTableRecord
100
AcDbBlockTableRecord
  2
CDWK_PTTYP52
340
0
 70
     0
280
     1
281
     1
  0
BLOCK_RECORD
  5
1A4
330
1
100
AcDbSymbolTableRecord
100
AcDbBlockTableRecord
  2
cw-dimension-symbol1
340
0
 70
     0
280
     1
281
     0
  0
BLOCK_RECORD
  5
1AB
330
1
100
AcDbSymbolTableRecord
100
AcDbBlockTableRecord
  2
cw-dimension-symbol2
340
0
102
{BLKREFS
331
3E9
331
3E8
331
3F7
331
3F6
331
405
331
404
102
}
 70
     0
280
     1
281
     0
  0
BLOCK_RECORD
  5
1B0
330
1
100
AcDbSymbolTableRecord
100
AcDbBlockTableRecord
  2
cw-dimension-symbol3
340
0
 70
     0
280
     1
281
     0
  0
BLOCK_RECORD
  5
1B5
330
1
100
AcDbSymbolTableRecord
100
AcDbBlockTableRecord
  2
cw-dimension-symbol5
340
0
 70
     0
280
     1
281
     0
  0
BLOCK_RECORD
  5
1BC
330
1
100
AcDbSymbolTableRecord
100
AcDbBlockTableRecord
  2
cw-dimension-symbol6
340
0
 70
     0
280
     1
281
     0
  0
BLOCK_RECORD
  5
1C2
330
1
100
AcDbSymbolTableRecord
100
AcDbBlockTableRecord
  2
cw-dimension-symbol11
340
0
 70
     0
280
     1
281
     0
  0
BLOCK_RECORD
  5
1C8
330
1
100
AcDbSymbolTableRecord
100
AcDbBlockTableRecord
  2
cw-dimension-symbol13
340
0
 70
     0
280
     1
281
     0
  0
BLOCK_RECORD
  5
1CE
330
1
100
AcDbSymbolTableRecord
100
AcDbBlockTableRecord
  2
cw-dimension-symbol15
340
0
 70
     0
280
     1
281
     0
  0
BLOCK_RECORD
  5
1D5
330
1
100
AcDbSymbolTableRecord
100
AcDbBlockTableRecord
  2
cw-dimension-symbol16
340
0
 70
     0
280
     1
281
     0
  0
BLOCK_RECORD
  5
1DC
330
1
100
AcDbSymbolTableRecord
100
AcDbBlockTableRecord
  2
cw-dimension-symbol17
340
0
 70
     0
280
     1
281
     0
  0
BLOCK_RECORD
  5
1E3
330
1
100
AcDbSymbolTableRecord
100
AcDbBlockTableRecord
  2
cw-dimension-symbol18
340
0
 70
     0
280
     1
281
     0
  0
BLOCK_RECORD
  5
1EA
330
1
100
AcDbSymbolTableRecord
100
AcDbBlockTableRecord
  2
cw-dimension-symbol19
340
0
 70
     0
280
     1
281
     0
  0
BLOCK_RECORD
  5
1ED
330
1
100
AcDbSymbolTableRecord
100
AcDbBlockTableRecord
  2
cw-dimension-symbol20
340
0
 70
     0
280
     1
281
     0
  0
BLOCK_RECORD
  5
1F4
330
1
100
AcDbSymbolTableRecord
100
AcDbBlockTableRecord
  2
cw-dimension-symbol21
340
0
 70
     0
280
     1
281
     0
  0
BLOCK_RECORD
  5
1FB
330
1
100
AcDbSymbolTableRecord
100
AcDbBlockTableRecord
  2
cw-line-extremity0
340
0
 70
     0
280
     1
281
     0
  0
BLOCK_RECORD
  5
1FF
330
1
100
AcDbSymbolTableRecord
100
AcDbBlockTableRecord
  2
cw-line-extremity2
340
0
 70
     0
280
     1
281
     0
  0
BLOCK_RECORD
  5
204
330
1
100
AcDbSymbolTableRecord
100
AcDbBlockTableRecord
  2
cw-line-extremity3
340
0
 70
     0
280
     1
281
     0
  0
BLOCK_RECORD
  5
209
330
1
100
AcDbSymbolTableRecord
100
AcDbBlockTableRecord
  2
cw-line-extremity301
340
0
 70
     0
280
     1
281
     0
  0
BLOCK_RECORD
  5
20B
330
1
100
AcDbSymbolTableRecord
100
AcDbBlockTableRecord
  2
cw-line-extremity4
340
0
 70
     0
280
     1
281
     0
  0
BLOCK_RECORD
  5
20D
330
1
100
AcDbSymbolTableRecord
100
AcDbBlockTableRecord
  2
cw-line-extremity5
340
0
 70
     0
280
     1
281
     0
  0
BLOCK_RECORD
  5
20F
330
1
100
AcDbSymbolTableRecord
100
AcDbBlockTableRecord
  2
cw-line-extremity6
340
0
 70
     0
280
     1
281
     0
  0
BLOCK_RECORD
  5
211
330
1
100
AcDbSymbolTableRecord
100
AcDbBlockTableRecord
  2
cw-line-extremity9
340
0
 70
     0
280
     1
281
     0
  0
BLOCK_RECORD
  5
213
330
1
100
AcDbSymbolTableRecord
100
AcDbBlockTableRecord
  2
cw-line-extremity10
340
0
 70
     0
280
     1
281
     0
  0
BLOCK_RECORD
  5
215
330
1
100
AcDbSymbolTableRecord
100
AcDbBlockTableRecord
  2
cw-line-extremity1
340
0
 70
     0
280
     1
281
     0
  0
BLOCK_RECORD
  5
1B
330
1
100
AcDbSymbolTableRecord
100
AcDbBlockTableRecord
  2
*Paper_Space69
340
1E
 70
     0
280
     1
281
     0
  0
BLOCK_RECORD
  5
3E2
330
1
100
AcDbSymbolTableRecord
100
AcDbBlockTableRecord
  2
*D70
340
0
 70
     0
280
     1
281
     0
  0
BLOCK_RECORD
  5
3F0
330
1
100
AcDbSymbolTableRecord
100
AcDbBlockTableRecord
  2
*D71
340
0
 70
     0
280
     1
281
     0
  0
BLOCK_RECORD
  5
3FE
330
1
100
AcDbSymbolTableRecord
100
AcDbBlockTableRecord
  2
*D72
340
0
 70
     0
280
     1
281
     0
  0
ENDTAB
  0
ENDSEC
  0
SECTION
  2
BLOCKS
  0
BLOCK
  5
20
330
1F
100
AcDbEntity
  8
0
100
AcDbBlockBegin
  2
*Model_Space
 70
     0
 10
0.0
 20
0.0
 30
0.0
  3
*Model_Space
  1

  0
ENDBLK
  5
21
330
1F
100
AcDbEntity
  8
0
100
AcDbBlockEnd
  0
BLOCK
  5
22F
330
22D
100
AcDbEntity
 67
     1
  8
0
100
AcDbBlockBegin
  2
*Paper_Space
 70
     0
 10
0.0
 20
0.0
 30
0.0
  3
*Paper_Space
  1

  0
ENDBLK
  5
230
330
22D
100
AcDbEntity
 67
     1
  8
0
100
AcDbBlockEnd
  0
BLOCK
  5
8B
330
86
100
AcDbEntity
  8
0
100
AcDbBlockBegin
  2
CDWK_PTTYP1
 70
     0
 10
0.0
 20
0.0
 30
0.0
  3
CDWK_PTTYP1
  1

  0
LINE
  5
87
330
86
100
AcDbEntity
  8
0
 62
     0
370
    -2
100
AcDbLine
 10
-0.5
 20
0.5
 30
0.0
 11
0.5
 21
0.5
 31
0.0
  0
LINE
  5
88
330
86
100
AcDbEntity
  8
0
 62
     0
370
    -2
100
AcDbLine
 10
0.5
 20
0.5
 30
0.0
 11
0.5
 21
-0.5
 31
0.0
  0
LINE
  5
89
330
86
100
AcDbEntity
  8
0
 62
     0
370
    -2
100
AcDbLine
 10
0.5
 20
-0.5
 30
0.0
 11
-0.5
 21
-0.5
 31
0.0
  0
LINE
  5
8A
330
86
100
AcDbEntity
  8
0
 62
     0
370
    -2
100
AcDbLine
 10
-0.5
 20
-0.5
 30
0.0
 11
-0.5
 21
0.5
 31
0.0
  0
ENDBLK
  5
8C
330
86
100
AcDbEntity
  8
0
100
AcDbBlockEnd
  0
BLOCK
  5
90
330
8D
100
AcDbEntity
  8
0
100
AcDbBlockBegin
  2
CDWK_PTTYP2
 70
     0
 10
0.0
 20
0.0
 30
0.0
  3
CDWK_PTTYP2
  1

  0
LINE
  5
8E
330
8D
100
AcDbEntity
  8
0
 62
     0
370
    -2
100
AcDbLine
 10
0.0
 20
0.5
 30
0.0
 11
0.0
 21
-0.5
 31
0.0
  0
LINE
  5
8F
330
8D
100
AcDbEntity
  8
0
 62
     0
370
    -2
100
AcDbLine
 10
0.5
 20
0.0
 30
0.0
 11
-0.5
 21
0.0
 31
0.0
  0
ENDBLK
  5
91
330
8D
100
AcDbEntity
  8
0
100
AcDbBlockEnd
  0
BLOCK
  5
94
330
92
100
AcDbEntity
  8
0
100
AcDbBlockBegin
  2
CDWK_PTTYP4
 70
     0
 10
0.0
 20
0.0
 30
0.0
  3
CDWK_PTTYP4
  1

  0
HATCH
  5
93
330
92
100
AcDbEntity
  8
0
 62
     0
370
    -2
100
AcDbHatch
 10
0.0
 20
0.0
 30
0.0
210
0.0
220
0.0
230
1.0
  2
SOLID
 70
     1
 71
     1
 91
        1
 92
        1
 93
        1
 72
     2
 10
0.0
 20
0.0
 40
0.5
 50
0.0
 51
360.0
 73
     1
 97
        0
 75
     0
 76
     1
 98
        0
  0
ENDBLK
  5
95
330
92
100
AcDbEntity
  8
0
100
AcDbBlockEnd
  0
BLOCK
  5
9D
330
96
100
AcDbEntity
  8
0
100
AcDbBlockBegin
  2
CDWK_PTTYP5
 70
     0
 10
0.0
 20
0.0
 30
0.0
  3
CDWK_PTTYP5
  1

  0
LINE
  5
97
330
96
100
AcDbEntity
  8
0
 62
     0
370
    -2
100
AcDbLine
 10
-0.5
 20
0.5
 30
0.0
 11
0.5
 21
0.5
 31
0.0
  0
LINE
  5
98
330
96
100
AcDbEntity
  8
0
 62
     0
370
    -2
100
AcDbLine
 10
0.5
 20
0.5
 30
0.0
 11
0.5
 21
-0.5
 31
0.0
  0
LINE
  5
99
330
96
100
AcDbEntity
  8
0
 62
     0
370
    -2
100
AcDbLine
 10
0.5
 20
-0.5
 30
0.0
 11
-0.5
 21
-0.5
 31
0.0
  0
LINE
  5
9A
330
96
100
AcDbEntity
  8
0
 62
     0
370
    -2
100
AcDbLine
 10
-0.5
 20
-0.5
 30
0.0
 11
-0.5
 21
0.5
 31
0.0
  0
HATCH
  5
9B
330
96
100
AcDbEntity
  8
0
 62
     0
370
    -2
100
AcDbHatch
 10
0.0
 20
0.0
 30
0.0
210
0.0
220
0.0
230
1.0
  2
SOLID
 70
     1
 71
     1
 91
        1
 92
        3
 72
     0
 73
     1
 93
        4
 10
-0.5
 20
0.0
 10
0.0
 20
0.0
 10
0.0
 20
-0.5
 10
-0.5
 20
-0.5
 97
        0
 75
     0
 76
     1
 98
        0
  0
HATCH
  5
9C
330
96
100
AcDbEntity
  8
0
 62
     0
370
    -2
100
AcDbHatch
 10
0.0
 20
0.0
 30
0.0
210
0.0
220
0.0
230
1.0
  2
SOLID
 70
     1
 71
     1
 91
        1
 92
        3
 72
     0
 73
     1
 93
        4
 10
0.0
 20
0.0
 10
0.5
 20
0.0
 10
0.5
 20
0.5
 10
0.0
 20
0.5
 97
        0
 75
     0
 76
     1
 98
        0
  0
ENDBLK
  5
9E
330
96
100
AcDbEntity
  8
0
100
AcDbBlockEnd
  0
BLOCK
  5
A5
330
9F
100
AcDbEntity
  8
0
100
AcDbBlockBegin
  2
CDWK_PTTYP6
 70
     0
 10
0.0
 20
0.0
 30
0.0
  3
CDWK_PTTYP6
  1

  0
LINE
  5
A0
330
9F
100
AcDbEntity
  8
0
 62
     0
370
    -2
100
AcDbLine
 10
-0.5
 20
0.5
 30
0.0
 11
0.5
 21
0.5
 31
0.0
  0
LINE
  5
A1
330
9F
100
AcDbEntity
  8
0
 62
     0
370
    -2
100
AcDbLine
 10
0.5
 20
0.5
 30
0.0
 11
0.5
 21
-0.5
 31
0.0
  0
LINE
  5
A2
330
9F
100
AcDbEntity
  8
0
 62
     0
370
    -2
100
AcDbLine
 10
0.5
 20
-0.5
 30
0.0
 11
-0.5
 21
-0.5
 31
0.0
  0
LINE
  5
A3
330
9F
100
AcDbEntity
  8
0
 62
     0
370
    -2
100
AcDbLine
 10
-0.5
 20
-0.5
 30
0.0
 11
-0.5
 21
0.5
 31
0.0
  0
HATCH
  5
A4
330
9F
100
AcDbEntity
  8
0
 62
     0
370
    -2
100
AcDbHatch
 10
0.0
 20
0.0
 30
0.0
210
0.0
220
0.0
230
1.0
  2
SOLID
 70
     1
 71
     1
 91
        1
 92
        3
 72
     0
 73
     1
 93
        3
 10
-0.5
 20
-0.5
 10
-0.5
 20
0.5
 10
0.5
 20
0.5
 97
        0
 75
     0
 76
     1
 98
        0
  0
ENDBLK
  5
A6
330
9F
100
AcDbEntity
  8
0
100
AcDbBlockEnd
  0
BLOCK
  5
AE
330
A7
100
AcDbEntity
  8
0
100
AcDbBlockBegin
  2
CDWK_PTTYP7
 70
     0
 10
0.0
 20
0.0
 30
0.0
  3
CDWK_PTTYP7
  1

  0
LINE
  5
A8
330
A7
100
AcDbEntity
  8
0
 62
     0
370
    -2
100
AcDbLine
 10
-0.5
 20
0.5
 30
0.0
 11
0.5
 21
0.5
 31
0.0
  0
LINE
  5
A9
330
A7
100
AcDbEntity
  8
0
 62
     0
370
    -2
100
AcDbLine
 10
0.5
 20
0.5
 30
0.0
 11
0.5
 21
-0.5
 31
0.0
  0
LINE
  5
AA
330
A7
100
AcDbEntity
  8
0
 62
     0
370
    -2
100
AcDbLine
 10
0.5
 20
-0.5
 30
0.0
 11
-0.5
 21
-0.5
 31
0.0
  0
LINE
  5
AB
330
A7
100
AcDbEntity
  8
0
 62
     0
370
    -2
100
AcDbLine
 10
-0.5
 20
-0.5
 30
0.0
 11
-0.5
 21
0.5
 31
0.0
  0
LINE
  5
AC
330
A7
100
AcDbEntity
  8
0
 62
     0
370
    -2
100
AcDbLine
 10
0.0
 20
0.5
 30
0.0
 11
0.0
 21
-0.5
 31
0.0
  0
LINE
  5
AD
330
A7
100
AcDbEntity
  8
0
 62
     0
370
    -2
100
AcDbLine
 10
0.5
 20
0.0
 30
0.0
 11
-0.5
 21
0.0
 31
0.0
  0
ENDBLK
  5
AF
330
A7
100
AcDbEntity
  8
0
100
AcDbBlockEnd
  0
BLOCK
  5
B2
330
B0
100
AcDbEntity
  8
0
100
AcDbBlockBegin
  2
CDWK_PTTYP8
 70
     0
 10
0.0
 20
0.0
 30
0.0
  3
CDWK_PTTYP8
  1

  0
HATCH
  5
B1
330
B0
100
AcDbEntity
  8
0
 62
     0
370
    -2
100
AcDbHatch
 10
0.0
 20
0.0
 30
0.0
210
0.0
220
0.0
230
1.0
  2
SOLID
 70
     1
 71
     1
 91
        1
 92
        3
 72
     0
 73
     1
 93
        4
 10
0.5
 20
0.5
 10
0.5
 20
-0.5
 10
-0.5
 20
-0.5
 10
-0.5
 20
0.5
 97
        0
 75
     0
 76
     1
 98
        0
  0
ENDBLK
  5
B3
330
B0
100
AcDbEntity
  8
0
100
AcDbBlockEnd
  0
BLOCK
  5
B7
330
B4
100
AcDbEntity
  8
0
100
AcDbBlockBegin
  2
CDWK_PTTYP9
 70
     0
 10
0.0
 20
0.0
 30
0.0
  3
CDWK_PTTYP9
  1

  0
CIRCLE
  5
B5
330
B4
100
AcDbEntity
  8
0
 62
     0
370
    -2
100
AcDbCircle
 10
0.0
 20
0.0
 30
0.0
 40
0.1666666666666667
  0
CIRCLE
  5
B6
330
B4
100
AcDbEntity
  8
0
 62
     0
370
    -2
100
AcDbCircle
 10
0.0
 20
0.0
 30
0.0
 40
0.5
  0
ENDBLK
  5
B8
330
B4
100
AcDbEntity
  8
0
100
AcDbBlockEnd
  0
BLOCK
  5
BB
330
B9
100
AcDbEntity
  8
0
100
AcDbBlockBegin
  2
CDWK_PTTYP10
 70
     0
 10
0.0
 20
0.0
 30
0.0
  3
CDWK_PTTYP10
  1

  0
CIRCLE
  5
BA
330
B9
100
AcDbEntity
  8
0
 62
     0
370
    -2
100
AcDbCircle
 10
0.0
 20
0.0
 30
0.0
 40
0.5
  0
ENDBLK
  5
BC
330
B9
100
AcDbEntity
  8
0
100
AcDbBlockEnd
  0
BLOCK
  5
C0
330
BD
100
AcDbEntity
  8
0
100
AcDbBlockBegin
  2
CDWK_PTTYP11
 70
     0
 10
0.0
 20
0.0
 30
0.0
  3
CDWK_PTTYP11
  1

  0
CIRCLE
  5
BE
330
BD
100
AcDbEntity
  8
0
 62
     0
370
    -2
100
AcDbCircle
 10
0.0
 20
0.0
 30
0.0
 40
0.25
  0
CIRCLE
  5
BF
330
BD
100
AcDbEntity
  8
0
 62
     0
370
    -2
100
AcDbCircle
 10
0.0
 20
0.0
 30
0.0
 40
0.5
  0
ENDBLK
  5
C1
330
BD
100
AcDbEntity
  8
0
100
AcDbBlockEnd
  0
BLOCK
  5
C5
330
C2
100
AcDbEntity
  8
0
100
AcDbBlockBegin
  2
CDWK_PTTYP12
 70
     0
 10
0.0
 20
0.0
 30
0.0
  3
CDWK_PTTYP12
  1

  0
CIRCLE
  5
C3
330
C2
100
AcDbEntity
  8
0
 62
     0
370
    -2
100
AcDbCircle
 10
0.25
 20
0.0
 30
0.0
 40
0.25
  0
CIRCLE
  5
C4
330
C2
100
AcDbEntity
  8
0
 62
     0
370
    -2
100
AcDbCircle
 10
0.0
 20
0.0
 30
0.0
 40
0.5
  0
ENDBLK
  5
C6
330
C2
100
AcDbEntity
  8
0
100
AcDbBlockEnd
  0
BLOCK
  5
CB
330
C7
100
AcDbEntity
  8
0
100
AcDbBlockBegin
  2
CDWK_PTTYP13
 70
     0
 10
0.0
 20
0.0
 30
0.0
  3
CDWK_PTTYP13
  1

  0
CIRCLE
  5
C8
330
C7
100
AcDbEntity
  8
0
 62
     0
370
    -2
100
AcDbCircle
 10
-0.25
 20
0.0
 30
0.0
 40
0.25
  0
CIRCLE
  5
C9
330
C7
100
AcDbEntity
  8
0
 62
     0
370
    -2
100
AcDbCircle
 10
0.25
 20
0.0
 30
0.0
 40
0.25
  0
CIRCLE
  5
CA
330
C7
100
AcDbEntity
  8
0
 62
     0
370
    -2
100
AcDbCircle
 10
0.0
 20
0.0
 30
0.0
 40
0.5
  0
ENDBLK
  5
CC
330
C7
100
AcDbEntity
  8
0
100
AcDbBlockEnd
  0
BLOCK
  5
D2
330
CD
100
AcDbEntity
  8
0
100
AcDbBlockBegin
  2
CDWK_PTTYP16
 70
     0
 10
0.0
 20
0.0
 30
0.0
  3
CDWK_PTTYP16
  1

  0
LINE
  5
CE
330
CD
100
AcDbEntity
  8
0
 62
     0
370
    -2
100
AcDbLine
 10
-0.5
 20
-0.289
 30
0.0
 11
0.5
 21
-0.289
 31
0.0
  0
LINE
  5
CF
330
CD
100
AcDbEntity
  8
0
 62
     0
370
    -2
100
AcDbLine
 10
0.5
 20
-0.289
 30
0.0
 11
0.0
 21
0.577
 31
0.0
  0
LINE
  5
D0
330
CD
100
AcDbEntity
  8
0
 62
     0
370
    -2
100
AcDbLine
 10
0.0
 20
0.577
 30
0.0
 11
-0.5
 21
-0.289
 31
0.0
  0
CIRCLE
  5
D1
330
CD
100
AcDbEntity
  8
0
 62
     0
370
    -2
100
AcDbCircle
 10
0.0
 20
0.0
 30
0.0
 40
0.289
  0
ENDBLK
  5
D3
330
CD
100
AcDbEntity
  8
0
100
AcDbBlockEnd
  0
BLOCK
  5
D7
330
D4
100
AcDbEntity
  8
0
100
AcDbBlockBegin
  2
CDWK_PTTYP17
 70
     0
 10
0.0
 20
0.0
 30
0.0
  3
CDWK_PTTYP17
  1

  0
CIRCLE
  5
D5
330
D4
100
AcDbEntity
  8
0
 62
     0
370
    -2
100
AcDbCircle
 10
0.0
 20
0.0
 30
0.0
 40
0.5
  0
HATCH
  5
D6
330
D4
100
AcDbEntity
  8
0
 62
     0
370
    -2
100
AcDbHatch
 10
0.0
 20
0.0
 30
0.0
210
0.0
220
0.0
230
1.0
  2
SOLID
 70
     1
 71
     1
 91
        1
 92
        1
 93
        1
 72
     2
 10
0.0
 20
0.0
 40
0.25
 50
0.0
 51
360.0
 73
     1
 97
        0
 75
     0
 76
     1
 98
        0
  0
ENDBLK
  5
D8
330
D4
100
AcDbEntity
  8
0
100
AcDbBlockEnd
  0
BLOCK
  5
DC
330
D9
100
AcDbEntity
  8
0
100
AcDbBlockBegin
  2
CDWK_PTTYP18
 70
     0
 10
0.0
 20
0.0
 30
0.0
  3
CDWK_PTTYP18
  1

  0
CIRCLE
  5
DA
330
D9
100
AcDbEntity
  8
0
 62
     0
370
    -2
100
AcDbCircle
 10
0.0
 20
0.0
 30
0.0
 40
0.5
  0
CIRCLE
  5
DB
330
D9
100
AcDbEntity
  8
0
 62
     0
370
    -2
100
AcDbCircle
 10
0.0
 20
0.0
 30
0.0
 40
0.208
  0
ENDBLK
  5
DD
330
D9
100
AcDbEntity
  8
0
100
AcDbBlockEnd
  0
BLOCK
  5
E2
330
DE
100
AcDbEntity
  8
0
100
AcDbBlockBegin
  2
CDWK_PTTYP19
 70
     0
 10
0.0
 20
0.0
 30
0.0
  3
CDWK_PTTYP19
  1

  0
CIRCLE
  5
DF
330
DE
100
AcDbEntity
  8
0
 62
     0
370
    -2
100
AcDbCircle
 10
0.0
 20
0.0
 30
0.0
 40
0.25
  0
CIRCLE
  5
E0
330
DE
100
AcDbEntity
  8
0
 62
     0
370
    -2
100
AcDbCircle
 10
0.0
 20
0.0
 30
0.0
 40
0.35
  0
LINE
  5
E1
330
DE
100
AcDbEntity
  8
0
 62
     0
370
    -2
100
AcDbLine
 10
-0.25
 20
0.0
 30
0.0
 11
0.25
 21
0.0
 31
0.0
  0
ENDBLK
  5
E3
330
DE
100
AcDbEntity
  8
0
100
AcDbBlockEnd
  0
BLOCK
  5
E7
330
E4
100
AcDbEntity
  8
0
100
AcDbBlockBegin
  2
CDWK_PTTYP20
 70
     0
 10
0.0
 20
0.0
 30
0.0
  3
CDWK_PTTYP20
  1

  0
CIRCLE
  5
E5
330
E4
100
AcDbEntity
  8
0
 62
     0
370
    -2
100
AcDbCircle
 10
0.0
 20
0.0
 30
0.0
 40
0.3333333333333333
  0
CIRCLE
  5
E6
330
E4
100
AcDbEntity
  8
0
 62
     0
370
    -2
100
AcDbCircle
 10
0.0
 20
0.0
 30
0.0
 40
0.5
  0
ENDBLK
  5
E8
330
E4
100
AcDbEntity
  8
0
100
AcDbBlockEnd
  0
BLOCK
  5
EC
330
E9
100
AcDbEntity
  8
0
100
AcDbBlockBegin
  2
CDWK_PTTYP21
 70
     0
 10
0.0
 20
0.0
 30
0.0
  3
CDWK_PTTYP21
  1

  0
CIRCLE
  5
EA
330
E9
100
AcDbEntity
  8
0
 62
     0
370
    -2
100
AcDbCircle
 10
0.0
 20
0.0
 30
0.0
 40
0.5
  0
LINE
  5
EB
330
E9
100
AcDbEntity
  8
0
 62
     0
370
    -2
100
AcDbLine
 10
-0.5
 20
0.0
 30
0.0
 11
0.5
 21
0.0
 31
0.0
  0
ENDBLK
  5
ED
330
E9
100
AcDbEntity
  8
0
100
AcDbBlockEnd
  0
BLOCK
  5
F3
330
EE
100
AcDbEntity
  8
0
100
AcDbBlockBegin
  2
CDWK_PTTYP25
 70
     0
 10
0.0
 20
0.0
 30
0.0
  3
CDWK_PTTYP25
  1

  0
LINE
  5
EF
330
EE
100
AcDbEntity
  8
0
 62
     0
370
    -2
100
AcDbLine
 10
0.0
 20
0.5
 30
0.0
 11
-0.4330127018922193
 21
-0.25
 31
0.0
  0
LINE
  5
F0
330
EE
100
AcDbEntity
  8
0
 62
     0
370
    -2
100
AcDbLine
 10
-0.4330127018922193
 20
-0.25
 30
0.0
 11
0.4330127018922193
 21
-0.25
 31
0.0
  0
LINE
  5
F1
330
EE
100
AcDbEntity
  8
0
 62
     0
370
    -2
100
AcDbLine
 10
0.4330127018922193
 20
-0.25
 30
0.0
 11
0.0
 21
0.5
 31
0.0
  0
CIRCLE
  5
F2
330
EE
100
AcDbEntity
  8
0
 62
     0
370
    -2
100
AcDbCircle
 10
0.0
 20
0.0
 30
0.0
 40
0.5
  0
ENDBLK
  5
F4
330
EE
100
AcDbEntity
  8
0
100
AcDbBlockEnd
  0
BLOCK
  5
FA
330
F5
100
AcDbEntity
  8
0
100
AcDbBlockBegin
  2
CDWK_PTTYP26
 70
     0
 10
0.0
 20
0.0
 30
0.0
  3
CDWK_PTTYP26
  1

  0
LINE
  5
F6
330
F5
100
AcDbEntity
  8
0
 62
     0
370
    -2
100
AcDbLine
 10
-0.5
 20
-0.289
 30
0.0
 11
0.5
 21
-0.289
 31
0.0
  0
LINE
  5
F7
330
F5
100
AcDbEntity
  8
0
 62
     0
370
    -2
100
AcDbLine
 10
0.5
 20
-0.289
 30
0.0
 11
0.0
 21
0.577
 31
0.0
  0
LINE
  5
F8
330
F5
100
AcDbEntity
  8
0
 62
     0
370
    -2
100
AcDbLine
 10
0.0
 20
0.577
 30
0.0
 11
-0.5
 21
-0.289
 31
0.0
  0
CIRCLE
  5
F9
330
F5
100
AcDbEntity
  8
0
 62
     0
370
    -2
100
AcDbCircle
 10
0.0
 20
0.0
 30
0.0
 40
0.125
  0
ENDBLK
  5
FB
330
F5
100
AcDbEntity
  8
0
100
AcDbBlockEnd
  0
BLOCK
  5
102
330
FC
100
AcDbEntity
  8
0
100
AcDbBlockBegin
  2
CDWK_PTTYP27
 70
     0
 10
0.0
 20
0.0
 30
0.0
  3
CDWK_PTTYP27
  1

  0
LINE
  5
FD
330
FC
100
AcDbEntity
  8
0
 62
     0
370
    -2
100
AcDbLine
 10
0.0
 20
0.5
 30
0.0
 11
-0.4330127018922193
 21
-0.25
 31
0.0
  0
LINE
  5
FE
330
FC
100
AcDbEntity
  8
0
 62
     0
370
    -2
100
AcDbLine
 10
-0.4330127018922193
 20
-0.25
 30
0.0
 11
0.4330127018922193
 21
-0.25
 31
0.0
  0
LINE
  5
FF
330
FC
100
AcDbEntity
  8
0
 62
     0
370
    -2
100
AcDbLine
 10
0.4330127018922193
 20
-0.25
 30
0.0
 11
0.0
 21
0.5
 31
0.0
  0
CIRCLE
  5
100
330
FC
100
AcDbEntity
  8
0
 62
     0
370
    -2
100
AcDbCircle
 10
0.0
 20
0.0
 30
0.0
 40
0.125
  0
CIRCLE
  5
101
330
FC
100
AcDbEntity
  8
0
 62
     0
370
    -2
100
AcDbCircle
 10
0.0
 20
0.0
 30
0.0
 40
0.5
  0
ENDBLK
  5
103
330
FC
100
AcDbEntity
  8
0
100
AcDbBlockEnd
  0
BLOCK
  5
109
330
104
100
AcDbEntity
  8
0
100
AcDbBlockBegin
  2
CDWK_PTTYP28
 70
     0
 10
0.0
 20
0.0
 30
0.0
  3
CDWK_PTTYP28
  1

  0
LINE
  5
105
330
104
100
AcDbEntity
  8
0
 62
     0
370
    -2
100
AcDbLine
 10
-0.5
 20
0.5
 30
0.0
 11
0.5
 21
0.5
 31
0.0
  0
LINE
  5
106
330
104
100
AcDbEntity
  8
0
 62
     0
370
    -2
100
AcDbLine
 10
0.5
 20
0.5
 30
0.0
 11
-0.5
 21
-0.5
 31
0.0
  0
LINE
  5
107
330
104
100
AcDbEntity
  8
0
 62
     0
370
    -2
100
AcDbLine
 10
0.5
 20
-0.5
 30
0.0
 11
-0.5
 21
-0.5
 31
0.0
  0
LINE
  5
108
330
104
100
AcDbEntity
  8
0
 62
     0
370
    -2
100
AcDbLine
 10
-0.5
 20
0.5
 30
0.0
 11
0.5
 21
-0.5
 31
0.0
  0
ENDBLK
  5
10A
330
104
100
AcDbEntity
  8
0
100
AcDbBlockEnd
  0
BLOCK
  5
10F
330
10B
100
AcDbEntity
  8
0
100
AcDbBlockBegin
  2
CDWK_PTTYP29
 70
     0
 10
0.0
 20
0.0
 30
0.0
  3
CDWK_PTTYP29
  1

  0
CIRCLE
  5
10C
330
10B
100
AcDbEntity
  8
0
 62
     0
370
    -2
100
AcDbCircle
 10
0.0
 20
0.0
 30
0.0
 40
0.2
  0
CIRCLE
  5
10D
330
10B
100
AcDbEntity
  8
0
 62
     0
370
    -2
100
AcDbCircle
 10
0.0
 20
0.0
 30
0.0
 40
0.35
  0
CIRCLE
  5
10E
330
10B
100
AcDbEntity
  8
0
 62
     0
370
    -2
100
AcDbCircle
 10
0.0
 20
0.0
 30
0.0
 40
0.5
  0
ENDBLK
  5
110
330
10B
100
AcDbEntity
  8
0
100
AcDbBlockEnd
  0
BLOCK
  5
116
330
111
100
AcDbEntity
  8
0
100
AcDbBlockBegin
  2
CDWK_PTTYP30
 70
     0
 10
0.0
 20
0.0
 30
0.0
  3
CDWK_PTTYP30
  1

  0
LINE
  5
112
330
111
100
AcDbEntity
  8
0
 62
     0
370
    -2
100
AcDbLine
 10
-0.5
 20
0.5
 30
0.0
 11
-0.1
 21
0.1
 31
0.0
  0
LINE
  5
113
330
111
100
AcDbEntity
  8
0
 62
     0
370
    -2
100
AcDbLine
 10
0.5
 20
0.5
 30
0.0
 11
0.1
 21
0.1
 31
0.0
  0
LINE
  5
114
330
111
100
AcDbEntity
  8
0
 62
     0
370
    -2
100
AcDbLine
 10
0.5
 20
-0.5
 30
0.0
 11
0.1
 21
-0.1
 31
0.0
  0
LINE
  5
115
330
111
100
AcDbEntity
  8
0
 62
     0
370
    -2
100
AcDbLine
 10
-0.5
 20
-0.5
 30
0.0
 11
-0.1
 21
-0.1
 31
0.0
  0
ENDBLK
  5
117
330
111
100
AcDbEntity
  8
0
100
AcDbBlockEnd
  0
BLOCK
  5
11E
330
118
100
AcDbEntity
  8
0
100
AcDbBlockBegin
  2
CDWK_PTTYP31
 70
     0
 10
0.0
 20
0.0
 30
0.0
  3
CDWK_PTTYP31
  1

  0
LINE
  5
119
330
118
100
AcDbEntity
  8
0
 62
     0
370
    -2
100
AcDbLine
 10
-0.5
 20
0.0
 30
0.0
 11
-0.1
 21
0.0
 31
0.0
  0
LINE
  5
11A
330
118
100
AcDbEntity
  8
0
 62
     0
370
    -2
100
AcDbLine
 10
0.1
 20
0.0
 30
0.0
 11
0.5
 21
0.0
 31
0.0
  0
LINE
  5
11B
330
118
100
AcDbEntity
  8
0
 62
     0
370
    -2
100
AcDbLine
 10
0.0
 20
0.5
 30
0.0
 11
0.0
 21
0.1
 31
0.0
  0
LINE
  5
11C
330
118
100
AcDbEntity
  8
0
 62
     0
370
    -2
100
AcDbLine
 10
0.0
 20
-0.1
 30
0.0
 11
0.0
 21
-0.5
 31
0.0
  0
CIRCLE
  5
11D
330
118
100
AcDbEntity
  8
0
 62
     0
370
    -2
100
AcDbCircle
 10
0.0
 20
0.0
 30
0.0
 40
0.1
  0
ENDBLK
  5
11F
330
118
100
AcDbEntity
  8
0
100
AcDbBlockEnd
  0
BLOCK
  5
127
330
120
100
AcDbEntity
  8
0
100
AcDbBlockBegin
  2
CDWK_PTTYP32
 70
     0
 10
0.0
 20
0.0
 30
0.0
  3
CDWK_PTTYP32
  1

  0
CIRCLE
  5
121
330
120
100
AcDbEntity
  8
0
 62
     0
370
    -2
100
AcDbCircle
 10
0.0
 20
0.0
 30
0.0
 40
0.2
  0
CIRCLE
  5
122
330
120
100
AcDbEntity
  8
0
 62
     0
370
    -2
100
AcDbCircle
 10
0.0
 20
0.0
 30
0.0
 40
0.5
  0
LINE
  5
123
330
120
100
AcDbEntity
  8
0
 62
     0
370
    -2
100
AcDbLine
 10
0.1414213562373095
 20
0.1414213562373095
 30
0.0
 11
0.3535533905932738
 21
0.3535533905932738
 31
0.0
  0
LINE
  5
124
330
120
100
AcDbEntity
  8
0
 62
     0
370
    -2
100
AcDbLine
 10
-0.1414213562373095
 20
0.1414213562373095
 30
0.0
 11
-0.3535533905932738
 21
0.3535533905932738
 31
0.0
  0
LINE
  5
125
330
120
100
AcDbEntity
  8
0
 62
     0
370
    -2
100
AcDbLine
 10
0.1414213562373095
 20
-0.1414213562373095
 30
0.0
 11
0.3535533905932738
 21
-0.3535533905932738
 31
0.0
  0
LINE
  5
126
330
120
100
AcDbEntity
  8
0
 62
     0
370
    -2
100
AcDbLine
 10
-0.1414213562373095
 20
-0.1414213562373095
 30
0.0
 11
-0.3535533905932738
 21
-0.3535533905932738
 31
0.0
  0
ENDBLK
  5
128
330
120
100
AcDbEntity
  8
0
100
AcDbBlockEnd
  0
BLOCK
  5
12D
330
129
100
AcDbEntity
  8
0
100
AcDbBlockBegin
  2
CDWK_PTTYP33
 70
     0
 10
0.0
 20
0.0
 30
0.0
  3
CDWK_PTTYP33
  1

  0
LINE
  5
12A
330
129
100
AcDbEntity
  8
0
 62
     0
370
    -2
100
AcDbLine
 10
0.0
 20
-0.5
 30
0.0
 11
0.0
 21
0.5
 31
0.0
  0
LINE
  5
12B
330
129
100
AcDbEntity
  8
0
 62
     0
370
    -2
100
AcDbLine
 10
0.5
 20
0.0
 30
0.0
 11
-0.5
 21
0.0
 31
0.0
  0
CIRCLE
  5
12C
330
129
100
AcDbEntity
  8
0
 62
     0
370
    -2
100
AcDbCircle
 10
0.0
 20
0.0
 30
0.0
 40
0.5
  0
ENDBLK
  5
12E
330
129
100
AcDbEntity
  8
0
100
AcDbBlockEnd
  0
BLOCK
  5
133
330
12F
100
AcDbEntity
  8
0
100
AcDbBlockBegin
  2
CDWK_PTTYP34
 70
     0
 10
0.0
 20
0.0
 30
0.0
  3
CDWK_PTTYP34
  1

  0
CIRCLE
  5
130
330
12F
100
AcDbEntity
  8
0
 62
     0
370
    -2
100
AcDbCircle
 10
0.0
 20
0.0
 30
0.0
 40
0.5
  0
LINE
  5
131
330
12F
100
AcDbEntity
  8
0
 62
     0
370
    -2
100
AcDbLine
 10
-0.4
 20
-0.3
 30
0.0
 11
0.3
 21
0.4
 31
0.0
  0
LINE
  5
132
330
12F
100
AcDbEntity
  8
0
 62
     0
370
    -2
100
AcDbLine
 10
-0.3
 20
-0.4
 30
0.0
 11
0.4
 21
0.3
 31
0.0
  0
ENDBLK
  5
134
330
12F
100
AcDbEntity
  8
0
100
AcDbBlockEnd
  0
BLOCK
  5
139
330
135
100
AcDbEntity
  8
0
100
AcDbBlockBegin
  2
CDWK_PTTYP35
 70
     0
 10
0.0
 20
0.0
 30
0.0
  3
CDWK_PTTYP35
  1

  0
LINE
  5
136
330
135
100
AcDbEntity
  8
0
 62
     0
370
    -2
100
AcDbLine
 10
0.0
 20
0.2
 30
0.0
 11
0.0
 21
0.5
 31
0.0
  0
LINE
  5
137
330
135
100
AcDbEntity
  8
0
 62
     0
370
    -2
100
AcDbLine
 10
0.0
 20
-0.2
 30
0.0
 11
0.0
 21
-0.5
 31
0.0
  0
CIRCLE
  5
138
330
135
100
AcDbEntity
  8
0
 62
     0
370
    -2
100
AcDbCircle
 10
0.0
 20
0.0
 30
0.0
 40
0.2
  0
ENDBLK
  5
13A
330
135
100
AcDbEntity
  8
0
100
AcDbBlockEnd
  0
BLOCK
  5
141
330
13B
100
AcDbEntity
  8
0
100
AcDbBlockBegin
  2
CDWK_PTTYP36
 70
     0
 10
0.0
 20
0.0
 30
0.0
  3
CDWK_PTTYP36
  1

  0
LINE
  5
13C
330
13B
100
AcDbEntity
  8
0
 62
     0
370
    -2
100
AcDbLine
 10
-0.5
 20
0.2
 30
0.0
 11
0.5
 21
0.2
 31
0.0
  0
LINE
  5
13D
330
13B
100
AcDbEntity
  8
0
 62
     0
370
    -2
100
AcDbLine
 10
0.5
 20
0.2
 30
0.0
 11
0.5
 21
-0.2
 31
0.0
  0
LINE
  5
13E
330
13B
100
AcDbEntity
  8
0
 62
     0
370
    -2
100
AcDbLine
 10
0.5
 20
-0.2
 30
0.0
 11
-0.5
 21
-0.2
 31
0.0
  0
LINE
  5
13F
330
13B
100
AcDbEntity
  8
0
 62
     0
370
    -2
100
AcDbLine
 10
-0.5
 20
-0.2
 30
0.0
 11
-0.5
 21
0.2
 31
0.0
  0
HATCH
  5
140
330
13B
100
AcDbEntity
  8
0
 62
     0
370
    -2
100
AcDbHatch
 10
0.0
 20
0.0
 30
0.0
210
0.0
220
0.0
230
1.0
  2
SOLID
 70
     1
 71
     1
 91
        1
 92
        3
 72
     0
 73
     1
 93
        3
 10
-0.5
 20
-0.2
 10
0.5
 20
-0.2
 10
0.5
 20
0.2
 97
        0
 75
     0
 76
     1
 98
        0
  0
ENDBLK
  5
142
330
13B
100
AcDbEntity
  8
0
100
AcDbBlockEnd
  0
BLOCK
  5
146
330
143
100
AcDbEntity
  8
0
100
AcDbBlockBegin
  2
CDWK_PTTYP37
 70
     0
 10
0.0
 20
0.0
 30
0.0
  3
CDWK_PTTYP37
  1

  0
HATCH
  5
144
330
143
100
AcDbEntity
  8
0
 62
     0
370
    -2
100
AcDbHatch
 10
0.0
 20
0.0
 30
0.0
210
0.0
220
0.0
230
1.0
  2
SOLID
 70
     1
 71
     1
 91
        1
 92
        3
 72
     0
 73
     1
 93
      202
 10
-0.3535533905932738
 20
-0.3535533905932738
 10
-0.3485533905932738
 20
-0.3535533905932737
 10
-0.3435533905932738
 20
-0.3584836591895546
 10
-0.3385533905932738
 20
-0.3632782236961988
 10
-0.3335533905932738
 20
-0.367942389128785
 10
-0.3285533905932738
 20
-0.372481054046687
 10
-0.3235533905932738
 20
-0.3768987523588579
 10
-0.3185533905932738
 20
-0.3811996897107819
 10
-0.3135533905932738
 20
-0.3853877752881235
 10
-0.3085533905932737
 20
-0.3894666497242888
 10
-0.3035533905932737
 20
-0.3934397096803965
 10
-0.2985533905932737
 20
-0.3973101295704999
 10
-0.2935533905932737
 20
-0.4010808808273714
 10
-0.2885533905932737
 20
-0.4047547490409382
 10
-0.2835533905932737
 20
-0.4083343492496384
 10
-0.2785533905932737
 20
-0.4118221396222626
 10
-0.2735533905932737
 20
-0.4152204337324827
 10
-0.2685533905932737
 20
-0.4185314115988474
 10
-0.2635533905932737
 20
-0.4217571296384408
 10
-0.2585533905932737
 20
-0.4248995296617653
 10
-0.2535533905932737
 20
-0.4279604470190231
 10
-0.2485533905932737
 20
-0.4309416179932669
 10
-0.2435533905932737
 20
-0.4338446865234004
 10
-0.2385533905932737
 20
-0.4366712103293738
 10
-0.2335533905932737
 20
-0.439422666502825
 10
-0.2285533905932737
 20
-0.4421004566186126
 10
-0.2235533905932737
 20
-0.4447059114159811
 10
-0.2185533905932737
 20
-0.4472402950923041
 10
-0.2135533905932737
 20
-0.4497048092473372
 10
-0.2085533905932737
 20
-0.4521005965115692
 10
-0.2035533905932737
 20
-0.4544287438884664
 10
-0.1985533905932736
 20
-0.456690285837111
 10
-0.1935533905932736
 20
-0.45888620711884
 10
-0.1885533905932736
 20
-0.4610174454289638
 10
-0.1835533905932736
 20
-0.4630848938324164
 10
-0.1785533905932736
 20
-0.4650894030202291
 10
-0.1735533905932736
 20
-0.4670317834019928
 10
-0.1685533905932736
 20
-0.46891280704794
 10
-0.1635533905932736
 20
-0.4707332094929264
 10
-0.1585533905932736
 20
-0.4724936914133818
 10
-0.1535533905932736
 20
-0.4741949201872336
 10
-0.1485533905932736
 20
-0.4758375313458466
 10
-0.1435533905932736
 20
-0.4774221299261716
 10
-0.1385533905932736
 20
-0.4789492917305286
 10
-0.1335533905932736
 20
-0.4804195645007682
 10
-0.1285533905932736
 20
-0.4818334690129366
 10
-0.1235533905932736
 20
-0.4831915000980183
 10
-0.1185533905932736
 20
-0.4844941275938295
 10
-0.1135533905932736
 20
-0.4857417972326848
 10
-0.1085533905932736
 20
-0.4869349314690531
 10
-0.1035533905932736
 20
-0.4880739302510473
 10
-0.0985533905932736
 20
-0.489159171739258
 10
-0.0935533905932736
 20
-0.4901910129761353
 10
-0.0885533905932736
 20
-0.4911697905088447
 10
-0.0835533905932735
 20
-0.4920958209682695
 10
-0.0785533905932735
 20
-0.4929694016065986
 10
-0.0735533905932735
 20
-0.4937908107957261
 10
-0.0685533905932735
 20
-0.494560308488493
 10
-0.0635533905932735
 20
-0.4952781366446192
 10
-0.0585533905932735
 20
-0.4959445196230107
 10
-0.0535533905932735
 20
-0.4965596645419678
 10
-0.0485533905932735
 20
-0.4971237616086806
 10
-0.0435533905932735
 20
-0.4976369844192622
 10
-0.0385533905932735
 20
-0.4980994902304456
 10
-0.0335533905932735
 20
-0.4985114202039533
 10
-0.0285533905932735
 20
-0.4988728996244386
 10
-0.0235533905932735
 20
-0.4991840380917923
 10
-0.0185533905932735
 20
-0.49944492968851
 10
-0.0135533905932735
 20
-0.4996556531227215
 10
-0.0085533905932735
 20
-0.4998162718473921
 10
-0.0035533905932735
 20
-0.4999268341561182
 10
0.0014466094067265
 20
-0.499987373255857
 10
0.0064466094067265
 20
-0.4999979073168451
 10
0.0114466094067265
 20
-0.4999584394998819
 10
0.0164466094067265
 20
-0.4998689579610739
 10
0.0214466094067265
 20
-0.4997294358340547
 10
0.0264466094067265
 20
-0.4995398311896213
 10
0.0314466094067265
 20
-0.4993000869726422
 10
0.0364466094067265
 20
-0.4990101309160174
 10
0.0414466094067265
 20
-0.4986698754313855
 10
0.0464466094067265
 20
-0.498279217476192
 10
0.0514466094067265
 20
-0.4978380383966446
 10
0.0564466094067265
 20
-0.497346203745994
 10
0.0614466094067265
 20
-0.4968035630774849
 10
0.0664466094067264
 20
-0.4962099497112257
 10
0.0714466094067265
 20
-0.4955651804741228
 10
0.0764466094067265
 20
-0.4948690554119167
 10
0.0814466094067265
 20
-0.4941213574722463
 10
0.0864466094067265
 20
-0.4933218521575424
 10
0.0914466094067265
 20
-0.4924702871464235
 10
0.0964466094067265
 20
-0.4915663918821278
 10
0.1014466094067265
 20
-0.4906098771263643
 10
0.1064466094067265
 20
-0.4896004344768079
 10
0.1114466094067265
 20
-0.4885377358462822
 10
0.1164466094067265
 20
-0.4874214329014929
 10
0.1214466094067265
 20
-0.4862511564589613
 10
0.1264466094067265
 20
-0.4850265158355881
 10
0.1314466094067265
 20
-0.4837470981510305
 10
0.1364466094067265
 20
-0.482412467578809
 10
0.1414466094067265
 20
-0.4810221645427664
 10
0.1464466094067265
 20
-0.4795757048551781
 10
0.1514466094067265
 20
-0.4780725787924608
 10
0.1564466094067265
 20
-0.4765122501040308
 10
0.1614466094067265
 20
-0.4748941549494363
 10
0.1664466094067265
 20
-0.4732177007584056
 10
0.1714466094067265
 20
-0.4714822650079264
 10
0.1764466094067265
 20
-0.4696871939098801
 10
0.1814466094067266
 20
-0.4678318010021017
 10
0.1864466094067266
 20
-0.4659153656350076
 10
0.1914466094067266
 20
-0.4639371313451162
 10
0.1964466094067266
 20
-0.4618963041058764
 10
0.2014466094067266
 20
-0.4597920504451997
 10
0.2064466094067266
 20
-0.4576234954179405
 10
0.2114466094067266
 20
-0.4553897204202862
 10
0.2164466094067266
 20
-0.4530897608315588
 10
0.2214466094067266
 20
-0.45072260346729
 10
0.2264466094067266
 20
-0.4482871838255748
 10
0.2314466094067266
 20
-0.4457823831065977
 10
0.2364466094067266
 20
-0.4432070249828292
 10
0.2414466094067266
 20
-0.4405598720946596
 10
0.2464466094067266
 20
-0.4378396222431172
 10
0.2514466094067266
 20
-0.4350449042477435
 10
0.2564466094067266
 20
-0.4321742734336012
 10
0.2614466094067266
 20
-0.4292262067066663
 10
0.2664466094067266
 20
-0.4261990971714118
 10
0.2714466094067266
 20
-0.4230912482380831
 10
0.2764466094067266
 20
-0.4199008671598476
 10
0.2814466094067266
 20
-0.4166260579314797
 10
0.2864466094067266
 20
-0.4132648134712868
 10
0.2914466094067266
 20
-0.4098150069963156
 10
0.2964466094067266
 20
-0.4062743824871597
 10
0.3014466094067266
 20
-0.4026405441224911
 10
0.3064466094067266
 20
-0.3989109445442534
 10
0.3114466094067266
 20
-0.3950828717916294
 10
0.3164466094067266
 20
-0.391153434714632
 10
0.3214466094067266
 20
-0.3871195466454601
 10
0.3264466094067267
 20
-0.3829779070663467
 10
0.3314466094067267
 20
-0.3787249809648844
 10
0.3364466094067267
 20
-0.3743569755097196
 10
0.3414466094067267
 20
-0.3698698136084067
 10
0.3464466094067267
 20
-0.3652591038217257
 10
0.3514466094067267
 20
-0.3605201060004601
 10
0.3564466094067267
 20
-0.3556476918757041
 10
0.3614466094067267
 20
-0.3506362996645505
 10
0.3664466094067267
 20
-0.34547988153926
 10
0.3714466094067267
 20
-0.3401718425359658
 10
0.3764466094067267
 20
-0.334704969129899
 10
0.3814466094067267
 20
-0.3290713452523318
 10
0.3864466094067267
 20
-0.3232622529342269
 10
0.3914466094067267
 20
-0.3172680539828188
 10
0.3964466094067267
 20
-0.3110780480586465
 10
0.4014466094067267
 20
-0.304680301118911
 10
0.4064466094067267
 20
-0.2980614362775617
 10
0.4114466094067267
 20
-0.291206376478565
 10
0.4164466094067267
 20
-0.2840980246459106
 10
0.4214466094067267
 20
-0.276716861635935
 10
0.4264466094067267
 20
-0.2690404345439063
 10
0.4314466094067267
 20
-0.2610426963649944
 10
0.4364466094067267
 20
-0.2526931404518915
 10
0.4414466094067268
 20
-0.2439556458403291
 10
0.4464466094067268
 20
-0.2347869056044327
 10
0.4514466094067268
 20
-0.2251342376211081
 10
0.4564466094067268
 20
-0.2149324518428296
 10
0.4614466094067268
 20
-0.2040992228331676
 10
0.4664466094067268
 20
-0.1925279893081412
 10
0.4714466094067268
 20
-0.1800765408735088
 10
0.4764466094067268
 20
-0.1665475742210051
 10
0.4814466094067268
 20
-0.1516529867323223
 10
0.4864466094067268
 20
-0.1349413290684758
 10
0.4914466094067268
 20
-0.1156274024472547
 10
0.4964466094067268
 20
-0.0920881648347501
 10
0.5
 20
0.0
 10
0.495
 20
0.0
 10
0.49
 20
0.0705336798983295
 10
0.485
 20
0.0994987437106621
 10
0.48
 20
0.1215524578114322
 10
0.475
 20
0.14
 10
0.47
 20
0.15612494995996
 10
0.465
 20
0.1705872210923199
 10
0.46
 20
0.1837797594948911
 10
0.455
 20
0.1959591794226544
 10
0.45
 20
0.2073041244162789
 10
0.445
 20
0.2179449471770338
 10
0.4399999999999999
 20
0.2279802623035601
 10
0.4349999999999999
 20
0.2374868417407584
 10
0.4299999999999999
 20
0.2465258607124211
 10
0.4249999999999999
 20
0.2551470164434615
 10
0.4199999999999999
 20
0.2633913438213186
 10
0.4149999999999999
 20
0.2712931993250108
 10
0.4099999999999999
 20
0.2788816953476869
 10
0.4049999999999999
 20
0.2861817604250838
 10
0.3999999999999999
 20
0.2932149382279151
 10
0.3949999999999999
 20
0.3000000000000002
 10
0.3899999999999999
 20
0.3065534211193868
 10
0.3849999999999999
 20
0.3128897569432404
 10
0.3799999999999999
 20
0.3190219428189855
 10
0.3749999999999999
 20
0.3249615361854385
 10
0.3699999999999999
 20
0.330718913883074
 10
0.3649999999999999
 20
0.3363034344160049
 10
0.3599999999999999
 20
0.3417235724968357
 10
0.3549999999999999
 20
0.3469870314579496
 10
0.3535533905932738
 20
0.3535533905932738
 97
        0
 75
     0
 76
     1
 98
        0
  0
CIRCLE
  5
145
330
143
100
AcDbEntity
  8
0
 62
     0
370
    -2
100
AcDbCircle
 10
0.0
 20
0.0
 30
0.0
 40
0.5
  0
ENDBLK
  5
147
330
143
100
AcDbEntity
  8
0
100
AcDbBlockEnd
  0
BLOCK
  5
14C
330
148
100
AcDbEntity
  8
0
100
AcDbBlockBegin
  2
CDWK_PTTYP38
 70
     0
 10
0.0
 20
0.0
 30
0.0
  3
CDWK_PTTYP38
  1

  0
HATCH
  5
149
330
148
100
AcDbEntity
  8
0
 62
     0
370
    -2
100
AcDbHatch
 10
0.0
 20
0.0
 30
0.0
210
0.0
220
0.0
230
1.0
  2
SOLID
 70
     1
 71
     1
 91
        1
 92
        3
 72
     0
 73
     1
 93
      102
 10
0.0
 20
0.0
 10
0.0
 20
0.5
 10
0.005
 20
0.5
 10
0.01
 20
0.4999749993749688
 10
0.015
 20
0.4998999899979995
 10
0.02
 20
0.4997749493522059
 10
0.025
 20
0.4995998398718718
 10
0.03
 20
0.4993746088859545
 10
0.035
 20
0.4990991885387112
 10
0.04
 20
0.4987734956871706
 10
0.045
 20
0.4983974317750845
 10
0.05
 20
0.4979708826829135
 10
0.055
 20
0.49749371855331
 10
0.06
 20
0.4969657935914704
 10
0.065
 20
0.4963869458396343
 10
0.07
 20
0.4957569969249047
 10
0.075
 20
0.4950757517794626
 10
0.08
 20
0.4943429983321297
 10
0.085
 20
0.4935585071701227
 10
0.09
 20
0.4927220311697053
 10
0.095
 20
0.4918333050943175
 10
0.1
 20
0.4908920451586071
 10
0.105
 20
0.4898979485566356
 10
0.11
 20
0.4888506929523574
 10
0.115
 20
0.4877499359302879
 10
0.12
 20
0.4865953144040744
 10
0.125
 20
0.4853864439804639
 10
0.13
 20
0.4841229182759271
 10
0.135
 20
0.4828043081829325
 10
0.14
 20
0.4814301610825811
 10
0.145
 20
0.48
 10
0.15
 20
0.478513322698543
 10
0.1550000000000001
 20
0.4769696007084728
 10
0.1600000000000001
 20
0.4753682782853731
 10
0.1650000000000001
 20
0.4737087712930804
 10
0.1700000000000001
 20
0.4719904660054056
 10
0.1750000000000001
 20
0.4702127178203498
 10
0.1800000000000001
 20
0.4683748498798799
 10
0.1850000000000001
 20
0.466476151587624
 10
0.1900000000000001
 20
0.4645158770160606
 10
0.1950000000000001
 20
0.4624932431938871
 10
0.2000000000000001
 20
0.460407428263272
 10
0.2050000000000001
 20
0.4582575694955839
 10
0.2100000000000001
 20
0.4560427611529427
 10
0.2150000000000001
 20
0.4537620521815371
 10
0.2200000000000001
 20
0.4514144437210665
 10
0.2250000000000001
 20
0.4489988864128729
 10
0.2300000000000001
 20
0.4465142774872937
 10
0.2350000000000001
 20
0.4439594576084622
 10
0.2400000000000001
 20
0.4413332074521472
 10
0.2450000000000001
 20
0.4386342439892261
 10
0.2500000000000001
 20
0.4358612164439502
 10
0.2550000000000001
 20
0.4330127018922192
 10
0.2600000000000001
 20
0.4300872004605577
 10
0.2650000000000001
 20
0.4270831300812524
 10
0.2700000000000001
 20
0.423998820753077
 10
0.2750000000000001
 20
0.4208325082500162
 10
0.2800000000000001
 20
0.4175823272122516
 10
0.2850000000000001
 20
0.4142463035441595
 10
0.2900000000000001
 20
0.4108223460329293
 10
0.2950000000000002
 20
0.4073082370883259
 10
0.3000000000000002
 20
0.403701622488689
 10
0.3050000000000002
 20
0.3999999999999999
 10
0.3100000000000002
 20
0.3962007067131506
 10
0.3150000000000002
 20
0.3923009049186605
 10
0.3200000000000002
 20
0.3882975663070783
 10
0.3250000000000002
 20
0.3841874542459708
 10
0.3300000000000002
 20
0.3799671038392664
 10
0.3350000000000002
 20
0.3756327994198588
 10
0.3400000000000002
 20
0.3711805490593491
 10
0.3450000000000002
 20
0.366606055596467
 10
0.3500000000000002
 20
0.3619046835839512
 10
0.3550000000000002
 20
0.3570714214271423
 10
0.3600000000000002
 20
0.3521008378291649
 10
0.3650000000000002
 20
0.3469870314579492
 10
0.3700000000000002
 20
0.3417235724968353
 10
0.3750000000000002
 20
0.3363034344160045
 10
0.3800000000000002
 20
0.3307189138830736
 10
0.3850000000000002
 20
0.3249615361854382
 10
0.3900000000000002
 20
0.3190219428189851
 10
0.3950000000000002
 20
0.31288975694324
 10
0.4000000000000002
 20
0.3065534211193863
 10
0.4050000000000002
 20
0.2999999999999997
 10
0.4100000000000003
 20
0.2932149382279147
 10
0.4150000000000003
 20
0.2861817604250834
 10
0.4200000000000003
 20
0.2788816953476864
 10
0.4250000000000003
 20
0.2712931993250103
 10
0.4300000000000003
 20
0.263391343821318
 10
0.4350000000000003
 20
0.255147016443461
 10
0.4400000000000003
 20
0.2465258607124206
 10
0.4450000000000003
 20
0.2374868417407578
 10
0.4500000000000003
 20
0.2279802623035594
 10
0.4550000000000003
 20
0.2179449471770331
 10
0.4600000000000003
 20
0.2073041244162782
 10
0.4650000000000003
 20
0.1959591794226536
 10
0.4700000000000003
 20
0.1837797594948903
 10
0.4750000000000003
 20
0.170587221092319
 10
0.4800000000000003
 20
0.156124949959959
 10
0.4850000000000003
 20
0.1399999999999989
 10
0.4900000000000003
 20
0.1215524578114309
 10
0.4950000000000003
 20
0.0994987437106604
 10
0.5
 20
0.0
 97
        0
 75
     0
 76
     1
 98
        0
  0
HATCH
  5
14A
330
148
100
AcDbEntity
  8
0
 62
     0
370
    -2
100
AcDbHatch
 10
0.0
 20
0.0
 30
0.0
210
0.0
220
0.0
230
1.0
  2
SOLID
 70
     1
 71
     1
 91
        1
 92
        3
 72
     0
 73
     1
 93
      102
 10
0.0
 20
0.0
 10
-0.5
 20
0.0
 10
-0.495
 20
0.0
 10
-0.49
 20
-0.0705336798983295
 10
-0.485
 20
-0.0994987437106621
 10
-0.48
 20
-0.1215524578114322
 10
-0.475
 20
-0.14
 10
-0.47
 20
-0.15612494995996
 10
-0.465
 20
-0.1705872210923199
 10
-0.46
 20
-0.1837797594948911
 10
-0.455
 20
-0.1959591794226544
 10
-0.45
 20
-0.2073041244162789
 10
-0.445
 20
-0.2179449471770338
 10
-0.4399999999999999
 20
-0.2279802623035601
 10
-0.4349999999999999
 20
-0.2374868417407584
 10
-0.4299999999999999
 20
-0.2465258607124211
 10
-0.4249999999999999
 20
-0.2551470164434615
 10
-0.4199999999999999
 20
-0.2633913438213186
 10
-0.4149999999999999
 20
-0.2712931993250108
 10
-0.4099999999999999
 20
-0.2788816953476869
 10
-0.4049999999999999
 20
-0.2861817604250838
 10
-0.3999999999999999
 20
-0.2932149382279151
 10
-0.3949999999999999
 20
-0.3000000000000002
 10
-0.3899999999999999
 20
-0.3065534211193868
 10
-0.3849999999999999
 20
-0.3128897569432404
 10
-0.3799999999999999
 20
-0.3190219428189855
 10
-0.3749999999999999
 20
-0.3249615361854385
 10
-0.3699999999999999
 20
-0.330718913883074
 10
-0.3649999999999999
 20
-0.3363034344160049
 10
-0.3599999999999999
 20
-0.3417235724968357
 10
-0.3549999999999999
 20
-0.3469870314579496
 10
-0.3499999999999999
 20
-0.3521008378291652
 10
-0.3449999999999999
 20
-0.3570714214271427
 10
-0.3399999999999999
 20
-0.3619046835839516
 10
-0.3349999999999999
 20
-0.3666060555964674
 10
-0.3299999999999998
 20
-0.3711805490593494
 10
-0.3249999999999998
 20
-0.3756327994198591
 10
-0.3199999999999998
 20
-0.3799671038392667
 10
-0.3149999999999998
 20
-0.3841874542459711
 10
-0.3099999999999998
 20
-0.3882975663070786
 10
-0.3049999999999998
 20
-0.3923009049186608
 10
-0.2999999999999998
 20
-0.3962007067131507
 10
-0.2949999999999998
 20
-0.4000000000000001
 10
-0.2899999999999998
 20
-0.4037016224886891
 10
-0.2849999999999998
 20
-0.4073082370883261
 10
-0.2799999999999998
 20
-0.4108223460329296
 10
-0.2749999999999998
 20
-0.4142463035441597
 10
-0.2699999999999998
 20
-0.4175823272122518
 10
-0.2649999999999998
 20
-0.4208325082500164
 10
-0.2599999999999998
 20
-0.4239988207530773
 10
-0.2549999999999998
 20
-0.4270831300812526
 10
-0.2499999999999998
 20
-0.4300872004605579
 10
-0.2449999999999998
 20
-0.4330127018922195
 10
-0.2399999999999998
 20
-0.4358612164439503
 10
-0.2349999999999998
 20
-0.4386342439892263
 10
-0.2299999999999998
 20
-0.4413332074521473
 10
-0.2249999999999998
 20
-0.4439594576084624
 10
-0.2199999999999998
 20
-0.4465142774872939
 10
-0.2149999999999997
 20
-0.4489988864128731
 10
-0.2099999999999997
 20
-0.4514144437210667
 10
-0.2049999999999997
 20
-0.4537620521815372
 10
-0.1999999999999997
 20
-0.4560427611529429
 10
-0.1949999999999997
 20
-0.4582575694955841
 10
-0.1899999999999997
 20
-0.4604074282632722
 10
-0.1849999999999997
 20
-0.4624932431938872
 10
-0.1799999999999997
 20
-0.4645158770160608
 10
-0.1749999999999997
 20
-0.4664761515876241
 10
-0.1699999999999997
 20
-0.46837484987988
 10
-0.1649999999999997
 20
-0.47021271782035
 10
-0.1599999999999997
 20
-0.4719904660054058
 10
-0.1549999999999997
 20
-0.4737087712930805
 10
-0.1499999999999997
 20
-0.4753682782853733
 10
-0.1449999999999997
 20
-0.4769696007084729
 10
-0.1399999999999997
 20
-0.4785133226985431
 10
-0.1349999999999997
 20
-0.4800000000000001
 10
-0.1299999999999997
 20
-0.4814301610825812
 10
-0.1249999999999997
 20
-0.4828043081829325
 10
-0.1199999999999997
 20
-0.4841229182759272
 10
-0.1149999999999997
 20
-0.485386443980464
 10
-0.1099999999999997
 20
-0.4865953144040744
 10
-0.1049999999999996
 20
-0.487749935930288
 10
-0.0999999999999996
 20
-0.4888506929523574
 10
-0.0949999999999996
 20
-0.4898979485566357
 10
-0.0899999999999996
 20
-0.4908920451586072
 10
-0.0849999999999996
 20
-0.4918333050943176
 10
-0.0799999999999996
 20
-0.4927220311697053
 10
-0.0749999999999996
 20
-0.4935585071701227
 10
-0.0699999999999996
 20
-0.4943429983321298
 10
-0.0649999999999996
 20
-0.4950757517794626
 10
-0.0599999999999996
 20
-0.4957569969249048
 10
-0.0549999999999996
 20
-0.4963869458396343
 10
-0.0499999999999996
 20
-0.4969657935914705
 10
-0.0449999999999996
 20
-0.49749371855331
 10
-0.0399999999999996
 20
-0.4979708826829135
 10
-0.0349999999999996
 20
-0.4983974317750846
 10
-0.0299999999999996
 20
-0.4987734956871706
 10
-0.0249999999999996
 20
-0.4990991885387112
 10
-0.0199999999999996
 20
-0.4993746088859545
 10
-0.0149999999999996
 20
-0.4995998398718719
 10
-0.0099999999999996
 20
-0.499774949352206
 10
-0.0049999999999996
 20
-0.4998999899979995
 10
0.0
 20
-0.5
 97
        0
 75
     0
 76
     1
 98
        0
  0
CIRCLE
  5
14B
330
148
100
AcDbEntity
  8
0
 62
     0
370
    -2
100
AcDbCircle
 10
0.0
 20
0.0
 30
0.0
 40
0.5
  0
ENDBLK
  5
14D
330
148
100
AcDbEntity
  8
0
100
AcDbBlockEnd
  0
BLOCK
  5
156
330
14E
100
AcDbEntity
  8
0
100
AcDbBlockBegin
  2
CDWK_PTTYP41
 70
     0
 10
0.0
 20
0.0
 30
0.0
  3
CDWK_PTTYP41
  1

  0
LINE
  5
14F
330
14E
100
AcDbEntity
  8
0
 62
     0
370
    -2
100
AcDbLine
 10
-0.5
 20
0.5
 30
0.0
 11
0.5
 21
0.5
 31
0.0
  0
LINE
  5
150
330
14E
100
AcDbEntity
  8
0
 62
     0
370
    -2
100
AcDbLine
 10
0.5
 20
0.5
 30
0.0
 11
0.5
 21
-0.5
 31
0.0
  0
LINE
  5
151
330
14E
100
AcDbEntity
  8
0
 62
     0
370
    -2
100
AcDbLine
 10
0.5
 20
-0.5
 30
0.0
 11
-0.5
 21
-0.5
 31
0.0
  0
LINE
  5
152
330
14E
100
AcDbEntity
  8
0
 62
     0
370
    -2
100
AcDbLine
 10
-0.5
 20
-0.5
 30
0.0
 11
-0.5
 21
0.5
 31
0.0
  0
LINE
  5
153
330
14E
100
AcDbEntity
  8
0
 62
     0
370
    -2
100
AcDbLine
 10
-0.375
 20
0.25
 30
0.0
 11
0.375
 21
0.25
 31
0.0
  0
LINE
  5
154
330
14E
100
AcDbEntity
  8
0
 62
     0
370
    -2
100
AcDbLine
 10
-0.375
 20
0.0
 30
0.0
 11
0.375
 21
0.0
 31
0.0
  0
LINE
  5
155
330
14E
100
AcDbEntity
  8
0
 62
     0
370
    -2
100
AcDbLine
 10
-0.375
 20
-0.25
 30
0.0
 11
0.375
 21
-0.25
 31
0.0
  0
ENDBLK
  5
157
330
14E
100
AcDbEntity
  8
0
100
AcDbBlockEnd
  0
BLOCK
  5
15F
330
158
100
AcDbEntity
  8
0
100
AcDbBlockBegin
  2
CDWK_PTTYP42
 70
     0
 10
0.0
 20
0.0
 30
0.0
  3
CDWK_PTTYP42
  1

  0
LINE
  5
159
330
158
100
AcDbEntity
  8
0
 62
     0
370
    -2
100
AcDbLine
 10
-0.5
 20
0.5
 30
0.0
 11
0.5
 21
0.5
 31
0.0
  0
LINE
  5
15A
330
158
100
AcDbEntity
  8
0
 62
     0
370
    -2
100
AcDbLine
 10
0.5
 20
0.5
 30
0.0
 11
0.5
 21
-0.5
 31
0.0
  0
LINE
  5
15B
330
158
100
AcDbEntity
  8
0
 62
     0
370
    -2
100
AcDbLine
 10
0.5
 20
-0.5
 30
0.0
 11
-0.5
 21
-0.5
 31
0.0
  0
LINE
  5
15C
330
158
100
AcDbEntity
  8
0
 62
     0
370
    -2
100
AcDbLine
 10
-0.5
 20
-0.5
 30
0.0
 11
-0.5
 21
0.5
 31
0.0
  0
LINE
  5
15D
330
158
100
AcDbEntity
  8
0
 62
     0
370
    -2
100
AcDbLine
 10
-0.375
 20
0.125
 30
0.0
 11
0.375
 21
0.125
 31
0.0
  0
LINE
  5
15E
330
158
100
AcDbEntity
  8
0
 62
     0
370
    -2
100
AcDbLine
 10
-0.375
 20
-0.125
 30
0.0
 11
0.375
 21
-0.125
 31
0.0
  0
ENDBLK
  5
160
330
158
100
AcDbEntity
  8
0
100
AcDbBlockEnd
  0
BLOCK
  5
165
330
161
100
AcDbEntity
  8
0
100
AcDbBlockBegin
  2
CDWK_PTTYP43
 70
     0
 10
0.0
 20
0.0
 30
0.0
  3
CDWK_PTTYP43
  1

  0
CIRCLE
  5
162
330
161
100
AcDbEntity
  8
0
 62
     0
370
    -2
100
AcDbCircle
 10
0.0
 20
0.0
 30
0.0
 40
0.5
  0
LINE
  5
163
330
161
100
AcDbEntity
  8
0
 62
     0
370
    -2
100
AcDbLine
 10
-0.375
 20
0.166
 30
0.0
 11
0.375
 21
0.166
 31
0.0
  0
LINE
  5
164
330
161
100
AcDbEntity
  8
0
 62
     0
370
    -2
100
AcDbLine
 10
-0.375
 20
-0.166
 30
0.0
 11
0.375
 21
-0.166
 31
0.0
  0
ENDBLK
  5
166
330
161
100
AcDbEntity
  8
0
100
AcDbBlockEnd
  0
BLOCK
  5
16E
330
167
100
AcDbEntity
  8
0
100
AcDbBlockBegin
  2
CDWK_PTTYP44
 70
     0
 10
0.0
 20
0.0
 30
0.0
  3
CDWK_PTTYP44
  1

  0
CIRCLE
  5
168
330
167
100
AcDbEntity
  8
0
 62
     0
370
    -2
100
AcDbCircle
 10
0.0
 20
0.0
 30
0.0
 40
0.5
  0
LINE
  5
169
330
167
100
AcDbEntity
  8
0
 62
     0
370
    -2
100
AcDbLine
 10
-0.375
 20
0.333
 30
0.0
 11
0.375
 21
0.333
 31
0.0
  0
LINE
  5
16A
330
167
100
AcDbEntity
  8
0
 62
     0
370
    -2
100
AcDbLine
 10
-0.375
 20
0.166
 30
0.0
 11
0.375
 21
0.166
 31
0.0
  0
LINE
  5
16B
330
167
100
AcDbEntity
  8
0
 62
     0
370
    -2
100
AcDbLine
 10
-0.375
 20
0.0
 30
0.0
 11
0.375
 21
0.0
 31
0.0
  0
LINE
  5
16C
330
167
100
AcDbEntity
  8
0
 62
     0
370
    -2
100
AcDbLine
 10
-0.375
 20
-0.166
 30
0.0
 11
0.375
 21
-0.166
 31
0.0
  0
LINE
  5
16D
330
167
100
AcDbEntity
  8
0
 62
     0
370
    -2
100
AcDbLine
 10
-0.375
 20
-0.333
 30
0.0
 11
0.375
 21
-0.333
 31
0.0
  0
ENDBLK
  5
16F
330
167
100
AcDbEntity
  8
0
100
AcDbBlockEnd
  0
BLOCK
  5
173
330
170
100
AcDbEntity
  8
0
100
AcDbBlockBegin
  2
CDWK_PTTYP45
 70
     0
 10
0.0
 20
0.0
 30
0.0
  3
CDWK_PTTYP45
  1

  0
ELLIPSE
  5
171
330
170
100
AcDbEntity
  8
0
 62
     0
370
    -2
100
AcDbEllipse
 10
0.0
 20
0.0
 30
0.0
 11
0.5
 21
0.0
 31
0.0
210
0.0
220
0.0
230
1.0
 40
0.82
 41
0.0
 42
6.283185307179586
  0
CIRCLE
  5
172
330
170
100
AcDbEntity
  8
0
 62
     0
370
    -2
100
AcDbCircle
 10
-0.235
 20
0.0
 30
0.0
 40
0.26
  0
ENDBLK
  5
174
330
170
100
AcDbEntity
  8
0
100
AcDbBlockEnd
  0
BLOCK
  5
178
330
175
100
AcDbEntity
  8
0
100
AcDbBlockBegin
  2
CDWK_PTTYP46
 70
     0
 10
0.0
 20
0.0
 30
0.0
  3
CDWK_PTTYP46
  1

  0
ELLIPSE
  5
176
330
175
100
AcDbEntity
  8
0
 62
     0
370
    -2
100
AcDbEllipse
 10
0.0
 20
0.0
 30
0.0
 11
0.5
 21
0.0
 31
0.0
210
0.0
220
0.0
230
1.0
 40
0.82
 41
0.0
 42
6.283185307179586
  0
CIRCLE
  5
177
330
175
100
AcDbEntity
  8
0
 62
     0
370
    -2
100
AcDbCircle
 10
0.0
 20
0.15
 30
0.0
 40
0.26
  0
ENDBLK
  5
179
330
175
100
AcDbEntity
  8
0
100
AcDbBlockEnd
  0
BLOCK
  5
180
330
17A
100
AcDbEntity
  8
0
100
AcDbBlockBegin
  2
CDWK_PTTYP47
 70
     0
 10
0.0
 20
0.0
 30
0.0
  3
CDWK_PTTYP47
  1

  0
LINE
  5
17B
330
17A
100
AcDbEntity
  8
0
 62
     0
370
    -2
100
AcDbLine
 10
-0.5
 20
0.166
 30
0.0
 11
0.5
 21
0.166
 31
0.0
  0
LINE
  5
17C
330
17A
100
AcDbEntity
  8
0
 62
     0
370
    -2
100
AcDbLine
 10
0.5
 20
0.166
 30
0.0
 11
0.5
 21
-0.166
 31
0.0
  0
LINE
  5
17D
330
17A
100
AcDbEntity
  8
0
 62
     0
370
    -2
100
AcDbLine
 10
0.5
 20
-0.166
 30
0.0
 11
-0.5
 21
-0.166
 31
0.0
  0
LINE
  5
17E
330
17A
100
AcDbEntity
  8
0
 62
     0
370
    -2
100
AcDbLine
 10
-0.5
 20
-0.166
 30
0.0
 11
-0.5
 21
0.166
 31
0.0
  0
CIRCLE
  5
17F
330
17A
100
AcDbEntity
  8
0
 62
     0
370
    -2
100
AcDbCircle
 10
0.0
 20
-0.313
 30
0.0
 40
0.4
  0
ENDBLK
  5
181
330
17A
100
AcDbEntity
  8
0
100
AcDbBlockEnd
  0
BLOCK
  5
186
330
183
100
AcDbEntity
  8
0
100
AcDbBlockBegin
  2
CDWK_PTTYP48
 70
     0
 10
0.0
 20
0.0
 30
0.0
  3
CDWK_PTTYP48
  1

  0
CIRCLE
  5
184
330
183
100
AcDbEntity
  8
0
  6
CADWORK_3
 62
     0
 48
0.1
370
    -2
100
AcDbCircle
 10
0.0
 20
0.0
 30
0.0
 40
0.5
  0
CIRCLE
  5
185
330
183
100
AcDbEntity
  8
0
 62
     0
370
    -2
100
AcDbCircle
 10
0.0
 20
0.0
 30
0.0
 40
0.25
  0
ENDBLK
  5
187
330
183
100
AcDbEntity
  8
0
100
AcDbBlockEnd
  0
BLOCK
  5
18D
330
188
100
AcDbEntity
  8
0
100
AcDbBlockBegin
  2
CDWK_PTTYP49
 70
     0
 10
0.0
 20
0.0
 30
0.0
  3
CDWK_PTTYP49
  1

  0
LINE
  5
189
330
188
100
AcDbEntity
  8
0
 62
     0
370
    -2
100
AcDbLine
 10
-0.5
 20
0.166
 30
0.0
 11
0.5
 21
0.166
 31
0.0
  0
LINE
  5
18A
330
188
100
AcDbEntity
  8
0
 62
     0
370
    -2
100
AcDbLine
 10
0.5
 20
0.166
 30
0.0
 11
0.5
 21
-0.166
 31
0.0
  0
LINE
  5
18B
330
188
100
AcDbEntity
  8
0
 62
     0
370
    -2
100
AcDbLine
 10
0.5
 20
-0.166
 30
0.0
 11
-0.5
 21
-0.166
 31
0.0
  0
LINE
  5
18C
330
188
100
AcDbEntity
  8
0
 62
     0
370
    -2
100
AcDbLine
 10
-0.5
 20
-0.166
 30
0.0
 11
-0.5
 21
0.166
 31
0.0
  0
ENDBLK
  5
18E
330
188
100
AcDbEntity
  8
0
100
AcDbBlockEnd
  0
BLOCK
  5
197
330
18F
100
AcDbEntity
  8
0
100
AcDbBlockBegin
  2
CDWK_PTTYP50
 70
     0
 10
0.0
 20
0.0
 30
0.0
  3
CDWK_PTTYP50
  1

  0
LINE
  5
190
330
18F
100
AcDbEntity
  8
0
 62
     0
370
    -2
100
AcDbLine
 10
-0.5
 20
0.166
 30
0.0
 11
0.5
 21
0.166
 31
0.0
  0
LINE
  5
191
330
18F
100
AcDbEntity
  8
0
 62
     0
370
    -2
100
AcDbLine
 10
0.5
 20
0.166
 30
0.0
 11
0.5
 21
-0.166
 31
0.0
  0
LINE
  5
192
330
18F
100
AcDbEntity
  8
0
 62
     0
370
    -2
100
AcDbLine
 10
0.5
 20
-0.166
 30
0.0
 11
-0.5
 21
-0.166
 31
0.0
  0
LINE
  5
193
330
18F
100
AcDbEntity
  8
0
 62
     0
370
    -2
100
AcDbLine
 10
-0.5
 20
-0.166
 30
0.0
 11
-0.5
 21
0.166
 31
0.0
  0
LINE
  5
194
330
18F
100
AcDbEntity
  8
0
 62
     0
370
    -2
100
AcDbLine
 10
-0.25
 20
-0.166
 30
0.0
 11
-0.25
 21
0.166
 31
0.0
  0
LINE
  5
195
330
18F
100
AcDbEntity
  8
0
 62
     0
370
    -2
100
AcDbLine
 10
0.0
 20
-0.166
 30
0.0
 11
0.0
 21
0.166
 31
0.0
  0
LINE
  5
196
330
18F
100
AcDbEntity
  8
0
 62
     0
370
    -2
100
AcDbLine
 10
0.25
 20
-0.166
 30
0.0
 11
0.25
 21
0.166
 31
0.0
  0
ENDBLK
  5
198
330
18F
100
AcDbEntity
  8
0
100
AcDbBlockEnd
  0
BLOCK
  5
19C
330
199
100
AcDbEntity
  8
0
100
AcDbBlockBegin
  2
CDWK_PTTYP51
 70
     0
 10
0.0
 20
0.0
 30
0.0
  3
CDWK_PTTYP51
  1

  0
SPLINE
  5
19A
330
199
100
AcDbEntity
  8
0
 62
     0
370
    -2
100
AcDbSpline
210
0.0
220
0.0
230
1.0
 70
  1064
 71
     3
 72
    12
 73
     8
 74
     6
 42
0.000000001
 43
0.0000000001
 44
0.0000000001
 40
0.0
 40
0.0
 40
0.0
 40
0.0
 40
0.1690118339052032
 40
0.5175774661755118
 40
0.8011704844252565
 40
0.9154070810132151
 40
0.975822310881188
 40
0.975822310881188
 40
0.975822310881188
 40
0.975822310881188
 10
-0.5
 20
-0.077
 30
0.0
 10
-0.443824324006723
 20
-0.0900581618560981
 30
0.0
 10
-0.2717933876546281
 20
-0.1300471387828842
 30
0.0
 10
-0.0276699186086479
 20
-0.0006977790990417
 30
0.0
 10
0.2303349729129116
 20
0.0817803270207037
 30
0.0
 10
0.3686157174766292
 20
0.0066250198607167
 30
0.0
 10
0.4216533294581816
 20
-0.0168719667726145
 30
0.0
 10
0.44
 20
-0.025
 30
0.0
 11
-0.5
 21
-0.077
 31
0.0
 11
-0.333
 21
-0.103
 31
0.0
 11
0.0
 21
0.0
 31
0.0
 11
0.28
 21
0.045
 31
0.0
 11
0.385
 21
0.0
 31
0.0
 11
0.44
 21
-0.025
 31
0.0
  0
HATCH
  5
19B
330
199
100
AcDbEntity
  8
0
 62
     0
370
    -2
100
AcDbHatch
 10
0.0
 20
0.0
 30
0.0
210
0.0
220
0.0
230
1.0
  2
SOLID
 70
     1
 71
     1
 91
        1
 92
        3
 72
     0
 73
     1
 93
        3
 10
0.365
 20
-0.05
 10
0.5
 20
-0.042
 10
0.395
 20
0.045
 97
        0
 75
     0
 76
     1
 98
        0
  0
ENDBLK
  5
19D
330
199
100
AcDbEntity
  8
0
100
AcDbBlockEnd
  0
BLOCK
  5
1A2
330
19E
100
AcDbEntity
  8
0
100
AcDbBlockBegin
  2
CDWK_PTTYP52
 70
     0
 10
0.0
 20
0.0
 30
0.0
  3
CDWK_PTTYP52
  1

  0
LINE
  5
19F
330
19E
100
AcDbEntity
  8
0
 62
     0
370
    -2
100
AcDbLine
 10
-0.5
 20
-0.289
 30
0.0
 11
0.5
 21
-0.289
 31
0.0
  0
LINE
  5
1A0
330
19E
100
AcDbEntity
  8
0
 62
     0
370
    -2
100
AcDbLine
 10
0.5
 20
-0.289
 30
0.0
 11
0.0
 21
0.577
 31
0.0
  0
LINE
  5
1A1
330
19E
100
AcDbEntity
  8
0
 62
     0
370
    -2
100
AcDbLine
 10
0.0
 20
0.577
 30
0.0
 11
-0.5
 21
-0.289
 31
0.0
  0
ENDBLK
  5
1A3
330
19E
100
AcDbEntity
  8
0
100
AcDbBlockEnd
  0
BLOCK
  5
1A9
330
1A4
100
AcDbEntity
  8
0
100
AcDbBlockBegin
  2
cw-dimension-symbol1
 70
     0
 10
0.0
 20
0.0
 30
0.0
  3
cw-dimension-symbol1
  1

  0
LINE
  5
1A5
330
1A4
100
AcDbEntity
  8
0
 62
     0
370
    -2
100
AcDbLine
 10
0.0
 20
0.0
 30
0.0
 11
-1.0
 21
0.25
 31
0.0
  0
LINE
  5
1A6
330
1A4
100
AcDbEntity
  8
0
 62
     0
370
    -2
100
AcDbLine
 10
0.0
 20
0.0
 30
0.0
 11
-1.0
 21
-0.25
 31
0.0
  0
LINE
  5
1A7
330
1A4
100
AcDbEntity
  8
0
 62
     0
370
    -2
100
AcDbLine
 10
-1.0
 20
0.25
 30
0.0
 11
-1.0
 21
-0.25
 31
0.0
  0
LINE
  5
1A8
330
1A4
100
AcDbEntity
  8
0
 62
     0
370
    -2
100
AcDbLine
 10
0.0
 20
0.0
 30
0.0
 11
-1.0
 21
0.0
 31
0.0
  0
ENDBLK
  5
1AA
330
1A4
100
AcDbEntity
  8
0
100
AcDbBlockEnd
  0
BLOCK
  5
1AE
330
1AB
100
AcDbEntity
  8
0
100
AcDbBlockBegin
  2
cw-dimension-symbol2
 70
     0
 10
0.0
 20
0.0
 30
0.0
  3
cw-dimension-symbol2
  1

  0
LINE
  5
1AC
330
1AB
100
AcDbEntity
  8
0
 62
     0
370
    -2
100
AcDbLine
 10
-1.0
 20
0.0
 30
0.0
 11
1.0
 21
0.0
 31
0.0
  0
LINE
  5
1AD
330
1AB
100
AcDbEntity
  8
0
 62
     0
370
    -2
100
AcDbLine
 10
-0.5
 20
-0.5
 30
0.0
 11
0.5
 21
0.5
 31
0.0
  0
ENDBLK
  5
1AF
330
1AB
100
AcDbEntity
  8
0
100
AcDbBlockEnd
  0
BLOCK
  5
1B3
330
1B0
100
AcDbEntity
  8
0
100
AcDbBlockBegin
  2
cw-dimension-symbol3
 70
     0
 10
0.0
 20
0.0
 30
0.0
  3
cw-dimension-symbol3
  1

  0
LINE
  5
1B1
330
1B0
100
AcDbEntity
  8
0
 62
     0
370
    -2
100
AcDbLine
 10
-1.0
 20
0.0
 30
0.0
 11
1.0
 21
0.0
 31
0.0
  0
CIRCLE
  5
1B2
330
1B0
100
AcDbEntity
  8
0
 62
     0
370
    -2
100
AcDbCircle
 10
0.0
 20
0.0
 30
0.0
 40
0.25
  0
ENDBLK
  5
1B4
330
1B0
100
AcDbEntity
  8
0
100
AcDbBlockEnd
  0
BLOCK
  5
1BA
330
1B5
100
AcDbEntity
  8
0
100
AcDbBlockBegin
  2
cw-dimension-symbol5
 70
     0
 10
0.0
 20
0.0
 30
0.0
  3
cw-dimension-symbol5
  1

  0
HATCH
  5
1B6
330
1B5
100
AcDbEntity
  8
0
 62
     0
370
    -2
100
AcDbHatch
 10
0.0
 20
0.0
 30
0.0
210
0.0
220
0.0
230
1.0
  2
SOLID
 70
     1
 71
     1
 91
        1
 92
        3
 72
     0
 73
     1
 93
        3
 10
0.0
 20
0.0
 10
-1.0
 20
0.25
 10
-1.0
 20
-0.25
 97
        0
 75
     0
 76
     1
 98
        0
  0
LINE
  5
1B7
330
1B5
100
AcDbEntity
  8
0
 62
     0
370
    -2
100
AcDbLine
 10
0.0
 20
0.0
 30
0.0
 11
-1.0
 21
0.25
 31
0.0
  0
LINE
  5
1B8
330
1B5
100
AcDbEntity
  8
0
 62
     0
370
    -2
100
AcDbLine
 10
-1.0
 20
0.25
 30
0.0
 11
-1.0
 21
-0.25
 31
0.0
  0
LINE
  5
1B9
330
1B5
100
AcDbEntity
  8
0
 62
     0
370
    -2
100
AcDbLine
 10
-1.0
 20
-0.25
 30
0.0
 11
0.0
 21
0.0
 31
0.0
  0
ENDBLK
  5
1BB
330
1B5
100
AcDbEntity
  8
0
100
AcDbBlockEnd
  0
BLOCK
  5
1C0
330
1BC
100
AcDbEntity
  8
0
100
AcDbBlockBegin
  2
cw-dimension-symbol6
 70
     0
 10
0.0
 20
0.0
 30
0.0
  3
cw-dimension-symbol6
  1

  0
LINE
  5
1BD
330
1BC
100
AcDbEntity
  8
0
 62
     0
370
    -2
100
AcDbLine
 10
0.0
 20
0.0
 30
0.0
 11
-1.0
 21
0.25
 31
0.0
  0
LINE
  5
1BE
330
1BC
100
AcDbEntity
  8
0
 62
     0
370
    -2
100
AcDbLine
 10
0.0
 20
0.0
 30
0.0
 11
-1.0
 21
-0.25
 31
0.0
  0
LINE
  5
1BF
330
1BC
100
AcDbEntity
  8
0
 62
     0
370
    -2
100
AcDbLine
 10
0.0
 20
0.0
 30
0.0
 11
-1.0
 21
0.0
 31
0.0
  0
ENDBLK
  5
1C1
330
1BC
100
AcDbEntity
  8
0
100
AcDbBlockEnd
  0
BLOCK
  5
1C6
330
1C2
100
AcDbEntity
  8
0
100
AcDbBlockBegin
  2
cw-dimension-symbol11
 70
     0
 10
0.0
 20
0.0
 30
0.0
  3
cw-dimension-symbol11
  1

  0
LINE
  5
1C3
330
1C2
100
AcDbEntity
  8
0
 62
     0
370
    -2
100
AcDbLine
 10
-1.0
 20
1.0
 30
0.0
 11
1.0
 21
1.0
 31
0.0
  0
LINE
  5
1C4
330
1C2
100
AcDbEntity
  8
0
 62
     0
370
    -2
100
AcDbLine
 10
0.0
 20
0.0
 30
0.0
 11
-1.0
 21
1.0
 31
0.0
  0
LINE
  5
1C5
330
1C2
100
AcDbEntity
  8
0
 62
     0
370
    -2
100
AcDbLine
 10
0.0
 20
0.0
 30
0.0
 11
1.0
 21
1.0
 31
0.0
  0
ENDBLK
  5
1C7
330
1C2
100
AcDbEntity
  8
0
100
AcDbBlockEnd
  0
BLOCK
  5
1CC
330
1C8
100
AcDbEntity
  8
0
100
AcDbBlockBegin
  2
cw-dimension-symbol13
 70
     0
 10
0.0
 20
0.0
 30
0.0
  3
cw-dimension-symbol13
  1

  0
LINE
  5
1C9
330
1C8
100
AcDbEntity
  8
0
 62
     0
370
    -2
100
AcDbLine
 10
-1.0
 20
-1.0
 30
0.0
 11
1.0
 21
-1.0
 31
0.0
  0
LINE
  5
1CA
330
1C8
100
AcDbEntity
  8
0
 62
     0
370
    -2
100
AcDbLine
 10
0.0
 20
0.0
 30
0.0
 11
-1.0
 21
-1.0
 31
0.0
  0
LINE
  5
1CB
330
1C8
100
AcDbEntity
  8
0
 62
     0
370
    -2
100
AcDbLine
 10
0.0
 20
0.0
 30
0.0
 11
1.0
 21
-1.0
 31
0.0
  0
ENDBLK
  5
1CD
330
1C8
100
AcDbEntity
  8
0
100
AcDbBlockEnd
  0
BLOCK
  5
1D3
330
1CE
100
AcDbEntity
  8
0
100
AcDbBlockBegin
  2
cw-dimension-symbol15
 70
     0
 10
0.0
 20
0.0
 30
0.0
  3
cw-dimension-symbol15
  1

  0
HATCH
  5
1CF
330
1CE
100
AcDbEntity
  8
0
 62
     0
370
    -2
100
AcDbHatch
 10
0.0
 20
0.0
 30
0.0
210
0.0
220
0.0
230
1.0
  2
SOLID
 70
     1
 71
     1
 91
        1
 92
        3
 72
     0
 73
     1
 93
        3
 10
0.0
 20
0.0
 10
-1.0
 20
1.0
 10
1.0
 20
1.0
 97
        0
 75
     0
 76
     1
 98
        0
  0
LINE
  5
1D0
330
1CE
100
AcDbEntity
  8
0
 62
     0
370
    -2
100
AcDbLine
 10
0.0
 20
0.0
 30
0.0
 11
-1.0
 21
1.0
 31
0.0
  0
LINE
  5
1D1
330
1CE
100
AcDbEntity
  8
0
 62
     0
370
    -2
100
AcDbLine
 10
-1.0
 20
1.0
 30
0.0
 11
1.0
 21
1.0
 31
0.0
  0
LINE
  5
1D2
330
1CE
100
AcDbEntity
  8
0
 62
     0
370
    -2
100
AcDbLine
 10
1.0
 20
1.0
 30
0.0
 11
0.0
 21
0.0
 31
0.0
  0
ENDBLK
  5
1D4
330
1CE
100
AcDbEntity
  8
0
100
AcDbBlockEnd
  0
BLOCK
  5
1DA
330
1D5
100
AcDbEntity
  8
0
100
AcDbBlockBegin
  2
cw-dimension-symbol16
 70
     0
 10
0.0
 20
0.0
 30
0.0
  3
cw-dimension-symbol16
  1

  0
HATCH
  5
1D6
330
1D5
100
AcDbEntity
  8
0
 62
     0
370
    -2
100
AcDbHatch
 10
0.0
 20
0.0
 30
0.0
210
0.0
220
0.0
230
1.0
  2
SOLID
 70
     1
 71
     1
 91
        1
 92
        3
 72
     0
 73
     1
 93
        3
 10
0.0
 20
0.0
 10
-1.0
 20
-1.0
 10
1.0
 20
-1.0
 97
        0
 75
     0
 76
     1
 98
        0
  0
LINE
  5
1D7
330
1D5
100
AcDbEntity
  8
0
 62
     0
370
    -2
100
AcDbLine
 10
0.0
 20
0.0
 30
0.0
 11
-1.0
 21
-1.0
 31
0.0
  0
LINE
  5
1D8
330
1D5
100
AcDbEntity
  8
0
 62
     0
370
    -2
100
AcDbLine
 10
-1.0
 20
-1.0
 30
0.0
 11
1.0
 21
-1.0
 31
0.0
  0
LINE
  5
1D9
330
1D5
100
AcDbEntity
  8
0
 62
     0
370
    -2
100
AcDbLine
 10
1.0
 20
-1.0
 30
0.0
 11
0.0
 21
0.0
 31
0.0
  0
ENDBLK
  5
1DB
330
1D5
100
AcDbEntity
  8
0
100
AcDbBlockEnd
  0
BLOCK
  5
1E1
330
1DC
100
AcDbEntity
  8
0
100
AcDbBlockBegin
  2
cw-dimension-symbol17
 70
     0
 10
0.0
 20
0.0
 30
0.0
  3
cw-dimension-symbol17
  1

  0
LINE
  5
1DD
330
1DC
100
AcDbEntity
  8
0
 62
     0
370
    -2
100
AcDbLine
 10
0.0
 20
0.0
 30
0.0
 11
1.0
 21
1.0
 31
0.0
  0
LINE
  5
1DE
330
1DC
100
AcDbEntity
  8
0
 62
     0
370
    -2
100
AcDbLine
 10
1.0
 20
1.0
 30
0.0
 11
-1.0
 21
1.0
 31
0.0
  0
LINE
  5
1DF
330
1DC
100
AcDbEntity
  8
0
 62
     0
370
    -2
100
AcDbLine
 10
-1.0
 20
1.0
 30
0.0
 11
0.0
 21
0.0
 31
0.0
  0
HATCH
  5
1E0
330
1DC
100
AcDbEntity
  8
0
 62
     0
370
    -2
100
AcDbHatch
 10
0.0
 20
0.0
 30
0.0
210
0.0
220
0.0
230
1.0
  2
SOLID
 70
     1
 71
     1
 91
        1
 92
        3
 72
     0
 73
     1
 93
        3
 10
0.0
 20
0.0
 10
-1.0
 20
1.0
 10
0.0
 20
1.0
 97
        0
 75
     0
 76
     1
 98
        0
  0
ENDBLK
  5
1E2
330
1DC
100
AcDbEntity
  8
0
100
AcDbBlockEnd
  0
BLOCK
  5
1E8
330
1E3
100
AcDbEntity
  8
0
100
AcDbBlockBegin
  2
cw-dimension-symbol18
 70
     0
 10
0.0
 20
0.0
 30
0.0
  3
cw-dimension-symbol18
  1

  0
LINE
  5
1E4
330
1E3
100
AcDbEntity
  8
0
 62
     0
370
    -2
100
AcDbLine
 10
0.0
 20
0.0
 30
0.0
 11
1.0
 21
-1.0
 31
0.0
  0
LINE
  5
1E5
330
1E3
100
AcDbEntity
  8
0
 62
     0
370
    -2
100
AcDbLine
 10
1.0
 20
-1.0
 30
0.0
 11
-1.0
 21
-1.0
 31
0.0
  0
LINE
  5
1E6
330
1E3
100
AcDbEntity
  8
0
 62
     0
370
    -2
100
AcDbLine
 10
-1.0
 20
-1.0
 30
0.0
 11
0.0
 21
0.0
 31
0.0
  0
HATCH
  5
1E7
330
1E3
100
AcDbEntity
  8
0
 62
     0
370
    -2
100
AcDbHatch
 10
0.0
 20
0.0
 30
0.0
210
0.0
220
0.0
230
1.0
  2
SOLID
 70
     1
 71
     1
 91
        1
 92
        3
 72
     0
 73
     1
 93
        3
 10
0.0
 20
0.0
 10
-1.0
 20
-1.0
 10
0.0
 20
-1.0
 97
        0
 75
     0
 76
     1
 98
        0
  0
ENDBLK
  5
1E9
330
1E3
100
AcDbEntity
  8
0
100
AcDbBlockEnd
  0
BLOCK
  5
1EB
330
1EA
100
AcDbEntity
  8
0
100
AcDbBlockBegin
  2
cw-dimension-symbol19
 70
     0
 10
0.0
 20
0.0
 30
0.0
  3
cw-dimension-symbol19
  1

  0
ENDBLK
  5
1EC
330
1EA
100
AcDbEntity
  8
0
100
AcDbBlockEnd
  0
BLOCK
  5
1F2
330
1ED
100
AcDbEntity
  8
0
100
AcDbBlockBegin
  2
cw-dimension-symbol20
 70
     0
 10
0.0
 20
0.0
 30
0.0
  3
cw-dimension-symbol20
  1

  0
LINE
  5
1EE
330
1ED
100
AcDbEntity
  8
0
 62
     0
370
    -2
100
AcDbLine
 10
0.0
 20
0.0
 30
0.0
 11
0.0
 21
2.0
 31
0.0
  0
LINE
  5
1EF
330
1ED
100
AcDbEntity
  8
0
 62
     0
370
    -2
100
AcDbLine
 10
0.0
 20
0.0
 30
0.0
 11
-1.0
 21
0.33
 31
0.0
  0
LINE
  5
1F0
330
1ED
100
AcDbEntity
  8
0
 62
     0
370
    -2
100
AcDbLine
 10
0.0
 20
0.0
 30
0.0
 11
1.0
 21
0.33
 31
0.0
  0
LINE
  5
1F1
330
1ED
100
AcDbEntity
  8
0
 62
     0
370
    -2
100
AcDbLine
 10
0.0
 20
2.0
 30
0.0
 11
4.15
 21
2.0
 31
0.0
  0
ENDBLK
  5
1F3
330
1ED
100
AcDbEntity
  8
0
100
AcDbBlockEnd
  0
BLOCK
  5
1F9
330
1F4
100
AcDbEntity
  8
0
100
AcDbBlockBegin
  2
cw-dimension-symbol21
 70
     0
 10
0.0
 20
0.0
 30
0.0
  3
cw-dimension-symbol21
  1

  0
LINE
  5
1F5
330
1F4
100
AcDbEntity
  8
0
 62
     0
370
    -2
100
AcDbLine
 10
0.0
 20
0.0
 30
0.0
 11
0.0
 21
-2.0
 31
0.0
  0
LINE
  5
1F6
330
1F4
100
AcDbEntity
  8
0
 62
     0
370
    -2
100
AcDbLine
 10
0.0
 20
0.0
 30
0.0
 11
-1.0
 21
-0.33
 31
0.0
  0
LINE
  5
1F7
330
1F4
100
AcDbEntity
  8
0
 62
     0
370
    -2
100
AcDbLine
 10
0.0
 20
0.0
 30
0.0
 11
1.0
 21
-0.33
 31
0.0
  0
LINE
  5
1F8
330
1F4
100
AcDbEntity
  8
0
 62
     0
370
    -2
100
AcDbLine
 10
0.0
 20
-2.0
 30
0.0
 11
4.15
 21
-2.0
 31
0.0
  0
ENDBLK
  5
1FA
330
1F4
100
AcDbEntity
  8
0
100
AcDbBlockEnd
  0
BLOCK
  5
22B
330
1FB
100
AcDbEntity
  8
0
100
AcDbBlockBegin
  2
cw-line-extremity0
 70
     0
 10
0.0
 20
0.0
 30
0.0
  3
cw-line-extremity0
  1

  0
LINE
  5
1FC
330
1FB
100
AcDbEntity
  8
0
 62
     0
370
    -2
100
AcDbLine
 10
0.0
 20
0.0
 30
0.0
 11
4.0
 21
1.0
 31
0.0
  0
LINE
  5
1FD
330
1FB
100
AcDbEntity
  8
0
 62
     0
370
    -2
100
AcDbLine
 10
0.0
 20
0.0
 30
0.0
 11
4.0
 21
-1.0
 31
0.0
  0
LINE
  5
1FE
330
1FB
100
AcDbEntity
  8
0
 62
     0
370
    -2
100
AcDbLine
 10
4.0
 20
1.0
 30
0.0
 11
4.0
 21
-1.0
 31
0.0
  0
ENDBLK
  5
22C
330
1FB
100
AcDbEntity
  8
0
100
AcDbBlockEnd
  0
BLOCK
  5
229
330
1FF
100
AcDbEntity
  8
0
100
AcDbBlockBegin
  2
cw-line-extremity2
 70
     0
 10
0.0
 20
0.0
 30
0.0
  3
cw-line-extremity2
  1

  0
HATCH
  5
200
330
1FF
100
AcDbEntity
  8
0
 62
     0
370
     0
100
AcDbHatch
 10
0.0
 20
0.0
 30
0.0
210
0.0
220
0.0
230
1.0
  2
SOLID
 70
     1
 71
     1
 91
        1
 92
        3
 72
     0
 73
     1
 93
        3
 10
0.0
 20
0.0
 10
4.0
 20
1.0
 10
4.0
 20
-1.0
 97
        0
 75
     0
 76
     1
 98
        0
  0
LINE
  5
201
330
1FF
100
AcDbEntity
  8
0
 62
     0
370
    -2
100
AcDbLine
 10
0.0
 20
0.0
 30
0.0
 11
4.0
 21
1.0
 31
0.0
  0
LINE
  5
202
330
1FF
100
AcDbEntity
  8
0
 62
     0
370
    -2
100
AcDbLine
 10
4.0
 20
1.0
 30
0.0
 11
4.0
 21
-1.0
 31
0.0
  0
LINE
  5
203
330
1FF
100
AcDbEntity
  8
0
 62
     0
370
    -2
100
AcDbLine
 10
4.0
 20
-1.0
 30
0.0
 11
0.0
 21
0.0
 31
0.0
  0
ENDBLK
  5
22A
330
1FF
100
AcDbEntity
  8
0
100
AcDbBlockEnd
  0
BLOCK
  5
227
330
204
100
AcDbEntity
  8
0
100
AcDbBlockBegin
  2
cw-line-extremity3
 70
     0
 10
0.0
 20
0.0
 30
0.0
  3
cw-line-extremity3
  1

  0
HATCH
  5
205
330
204
100
AcDbEntity
  8
0
 62
     0
370
     0
100
AcDbHatch
 10
0.0
 20
0.0
 30
0.0
210
0.0
220
0.0
230
1.0
  2
SOLID
 70
     1
 71
     1
 91
        1
 92
        3
 72
     0
 73
     1
 93
        3
 10
0.0
 20
0.0
 10
4.0
 20
1.0
 10
4.0
 20
-1.0
 97
        0
 75
     0
 76
     1
 98
        0
  0
LINE
  5
206
330
204
100
AcDbEntity
  8
0
 62
     0
370
    -2
100
AcDbLine
 10
0.0
 20
0.0
 30
0.0
 11
4.0
 21
1.0
 31
0.0
  0
LINE
  5
207
330
204
100
AcDbEntity
  8
0
 62
     0
370
    -2
100
AcDbLine
 10
4.0
 20
1.0
 30
0.0
 11
4.0
 21
-1.0
 31
0.0
  0
LINE
  5
208
330
204
100
AcDbEntity
  8
0
 62
     0
370
    -2
100
AcDbLine
 10
4.0
 20
-1.0
 30
0.0
 11
0.0
 21
0.0
 31
0.0
  0
ENDBLK
  5
228
330
204
100
AcDbEntity
  8
0
100
AcDbBlockEnd
  0
BLOCK
  5
225
330
209
100
AcDbEntity
  8
0
100
AcDbBlockBegin
  2
cw-line-extremity301
 70
     0
 10
0.0
 20
0.0
 30
0.0
  3
cw-line-extremity301
  1

  0
LINE
  5
20A
330
209
100
AcDbEntity
  8
0
 62
     0
370
    -2
100
AcDbLine
 10
0.0
 20
2.66666
 30
0.0
 11
0.0
 21
-2.66666
 31
0.0
  0
ENDBLK
  5
226
330
209
100
AcDbEntity
  8
0
100
AcDbBlockEnd
  0
BLOCK
  5
223
330
20B
100
AcDbEntity
  8
0
100
AcDbBlockBegin
  2
cw-line-extremity4
 70
     0
 10
0.0
 20
0.0
 30
0.0
  3
cw-line-extremity4
  1

  0
HATCH
  5
20C
330
20B
100
AcDbEntity
  8
0
 62
     0
370
     5
100
AcDbHatch
 10
0.0
 20
0.0
 30
0.0
210
0.0
220
0.0
230
1.0
  2
SOLID
 70
     1
 71
     1
 91
        1
 92
        1
 93
        1
 72
     2
 10
0.0
 20
0.0
 40
1.0
 50
0.0
 51
360.0
 73
     1
 97
        0
 75
     0
 76
     1
 98
        0
  0
ENDBLK
  5
224
330
20B
100
AcDbEntity
  8
0
100
AcDbBlockEnd
  0
BLOCK
  5
221
330
20D
100
AcDbEntity
  8
0
100
AcDbBlockBegin
  2
cw-line-extremity5
 70
     0
 10
0.0
 20
0.0
 30
0.0
  3
cw-line-extremity5
  1

  0
LINE
  5
20E
330
20D
100
AcDbEntity
  8
0
 62
     0
370
    -2
100
AcDbLine
 10
0.0
 20
0.0
 30
0.0
 11
-1.0
 21
0.0
 31
0.0
  0
ENDBLK
  5
222
330
20D
100
AcDbEntity
  8
0
100
AcDbBlockEnd
  0
BLOCK
  5
21F
330
20F
100
AcDbEntity
  8
0
100
AcDbBlockBegin
  2
cw-line-extremity6
 70
     0
 10
0.0
 20
0.0
 30
0.0
  3
cw-line-extremity6
  1

  0
LINE
  5
210
330
20F
100
AcDbEntity
  8
0
 62
     0
370
    18
100
AcDbLine
 10
0.0
 20
1.0
 30
0.0
 11
0.0
 21
-1.0
 31
0.0
  0
ENDBLK
  5
220
330
20F
100
AcDbEntity
  8
0
100
AcDbBlockEnd
  0
BLOCK
  5
21D
330
211
100
AcDbEntity
  8
0
100
AcDbBlockBegin
  2
cw-line-extremity9
 70
     0
 10
0.0
 20
0.0
 30
0.0
  3
cw-line-extremity9
  1

  0
LINE
  5
212
330
211
100
AcDbEntity
  8
0
 62
     0
370
    18
100
AcDbLine
 10
-1.0
 20
-1.0
 30
0.0
 11
1.0
 21
1.0
 31
0.0
  0
ENDBLK
  5
21E
330
211
100
AcDbEntity
  8
0
100
AcDbBlockEnd
  0
BLOCK
  5
21B
330
213
100
AcDbEntity
  8
0
100
AcDbBlockBegin
  2
cw-line-extremity10
 70
     0
 10
0.0
 20
0.0
 30
0.0
  3
cw-line-extremity10
  1

  0
CIRCLE
  5
214
330
213
100
AcDbEntity
  8
0
 62
     0
370
    -2
100
AcDbCircle
 10
0.0
 20
0.0
 30
0.0
 40
1.0
  0
ENDBLK
  5
21C
330
213
100
AcDbEntity
  8
0
100
AcDbBlockEnd
  0
BLOCK
  5
219
330
215
100
AcDbEntity
  8
0
100
AcDbBlockBegin
  2
cw-line-extremity1
 70
     0
 10
0.0
 20
0.0
 30
0.0
  3
cw-line-extremity1
  1

  0
LINE
  5
216
330
215
100
AcDbEntity
  8
0
 62
     0
370
    -2
100
AcDbLine
 10
0.0
 20
0.0
 30
0.0
 11
0.0
 21
1.0
 31
0.0
  0
LINE
  5
217
330
215
100
AcDbEntity
  8
0
 62
     0
370
    -2
100
AcDbLine
 10
0.0
 20
1.0
 30
0.0
 11
0.5
 21
1.5
 31
0.0
  0
LINE
  5
218
330
215
100
AcDbEntity
  8
0
 62
     0
370
    -2
100
AcDbLine
 10
0.5
 20
1.5
 30
0.0
 11
1.5
 21
1.5
 31
0.0
  0
ENDBLK
  5
21A
330
215
100
AcDbEntity
  8
0
100
AcDbBlockEnd
  0
BLOCK
  5
1C
330
1B
100
AcDbEntity
  8
0
100
AcDbBlockBegin
  2
*Paper_Space69
 70
     0
 10
0.0
 20
0.0
 30
0.0
  3
*Paper_Space69
  1

  0
ENDBLK
  5
1D
330
1B
100
AcDbEntity
  8
0
100
AcDbBlockEnd
  0
BLOCK
  5
3E3
330
3E2
100
AcDbEntity
  8
0
100
AcDbBlockBegin
  2
*D70
 70
     1
 10
0.0
 20
0.0
 30
0.0
  3
*D70
  1

  0
LINE
  5
3E5
330
3E2
100
AcDbEntity
  8
Ech.1_2
 62
     0
370
    -2
100
AcDbLine
 10
2032.998001964683
 20
42.74570687601772
 30
0.0
 11
2032.998001964683
 21
66.67647127953752
 31
0.0
  0
LINE
  5
3E6
330
3E2
100
AcDbEntity
  8
Ech.1_2
 62
     0
370
    -2
100
AcDbLine
 10
2120.614537870782
 20
41.85415149678192
 30
0.0
 11
2120.614537870782
 21
66.67647127953751
 31
0.0
  0
LINE
  5
3E7
330
3E2
100
AcDbEntity
  8
Ech.1_2
 62
     0
370
    -2
100
AcDbLine
 10
2034.998001964683
 20
64.67647127953752
 30
0.0
 11
2118.614537870782
 21
64.67647127953751
 31
0.0
  0
INSERT
  5
3E8
330
3E2
100
AcDbEntity
  8
Ech.1_2
 62
     0
370
    -2
100
AcDbBlockReference
  2
cw-dimension-symbol2
 10
2032.998001964683
 20
64.67647127953752
 30
0.0
 41
2.0
 42
2.0
 43
2.0
 50
180.0
  0
INSERT
  5
3E9
330
3E2
100
AcDbEntity
  8
Ech.1_2
 62
     0
370
    -2
100
AcDbBlockReference
  2
cw-dimension-symbol2
 10
2120.614537870782
 20
64.67647127953751
 30
0.0
 41
2.0
 42
2.0
 43
2.0
 50
360.0
  0
POINT
  5
3EA
330
3E2
100
AcDbEntity
  8
Defpoints
 62
     0
100
AcDbPoint
 10
2032.998001964683
 20
42.74570687601772
 30
0.0
  0
POINT
  5
3EB
330
3E2
100
AcDbEntity
  8
Defpoints
 62
     0
100
AcDbPoint
 10
2120.614537870782
 20
41.85415149678192
 30
0.0
  0
POINT
  5
3EC
330
3E2
100
AcDbEntity
  8
Defpoints
 62
     0
100
AcDbPoint
 10
2120.614537870782
 20
64.67647127953751
 30
0.0
  0
ENDBLK
  5
3E4
330
3E2
100
AcDbEntity
  8
0
100
AcDbBlockEnd
  0
BLOCK
  5
3F1
330
3F0
100
AcDbEntity
  8
0
100
AcDbBlockBegin
  2
*D71
 70
     1
 10
0.0
 20
0.0
 30
0.0
  3
*D71
  1

  0
LINE
  5
3F3
330
3F0
100
AcDbEntity
  8
Ech.1_2
 62
     0
370
    -2
100
AcDbLine
 10
2055.228479047868
 20
-101.2254270842459
 30
0.0
 11
2055.228479048711
 21
-144.1445702921155
 31
0.0
  0
LINE
  5
3F4
330
3F0
100
AcDbEntity
  8
Ech.1_2
 62
     0
370
    -2
100
AcDbLine
 10
2070.228479047839
 20
-101.2254270839512
 30
0.0
 11
2070.228479048682
 21
-144.1445702918209
 31
0.0
  0
LINE
  5
3F5
330
3F0
100
AcDbEntity
  8
Ech.1_2
 62
     0
370
    -2
100
AcDbLine
 10
2057.228479048672
 20
-142.1445702920763
 30
0.0
 11
2068.228479048643
 21
-142.1445702918601
 31
0.0
  0
INSERT
  5
3F6
330
3F0
100
AcDbEntity
  8
Ech.1_2
 62
     0
370
    -2
100
AcDbBlockReference
  2
cw-dimension-symbol2
 10
2055.228479048672
 20
-142.1445702921155
 30
0.0
 41
2.0
 42
2.0
 43
2.0
 50
180.0000000011256
  0
INSERT
  5
3F7
330
3F0
100
AcDbEntity
  8
Ech.1_2
 62
     0
370
    -2
100
AcDbBlockReference
  2
cw-dimension-symbol2
 10
2070.228479048643
 20
-142.1445702918209
 30
0.0
 41
2.0
 42
2.0
 43
2.0
 50
0.0000000011255805
  0
MTEXT
  5
3F8
330
3F0
100
AcDbEntity
  8
Ech.1_2
 62
   190
370
    20
100
AcDbMText
 10
2062.728479047853
 20
-137.6445702919682
 30
0.0
 40
5.0
 41
0.0
 46
0.0
 71
     5
 72
     1
  1
\A1;15
  7
arial-z
 73
     1
 44
1.0
  0
POINT
  5
3F9
330
3F0
100
AcDbEntity
  8
Defpoints
 62
     0
100
AcDbPoint
 10
2055.228479047868
 20
-101.2254270842459
 30
0.0
  0
POINT
  5
3FA
330
3F0
100
AcDbEntity
  8
Defpoints
 62
     0
100
AcDbPoint
 10
2070.228479047839
 20
-101.2254270839512
 30
0.0
  0
POINT
  5
3FB
330
3F0
100
AcDbEntity
  8
Defpoints
 62
     0
100
AcDbPoint
 10
2070.228479048643
 20
-142.1445702918209
 30
0.0
  0
ENDBLK
  5
3F2
330
3F0
100
AcDbEntity
  8
0
100
AcDbBlockEnd
  0
BLOCK
  5
3FF
330
3FE
100
AcDbEntity
  8
0
100
AcDbBlockBegin
  2
*D72
 70
     1
 10
0.0
 20
0.0
 30
0.0
  3
*D72
  1

  0
LINE
  5
401
330
3FE
100
AcDbEntity
  8
Ech.1_2
 62
     0
370
    -2
100
AcDbLine
 10
2032.998001964683
 20
-76.97089259755376
 30
0.0
 11
2032.998001964683
 21
-53.04012819403396
 31
0.0
  0
LINE
  5
402
330
3FE
100
AcDbEntity
  8
Ech.1_2
 62
     0
370
    -2
100
AcDbLine
 10
2120.614537870782
 20
-77.86244797678955
 30
0.0
 11
2120.614537870782
 21
-53.04012819403398
 31
0.0
  0
LINE
  5
403
330
3FE
100
AcDbEntity
  8
Ech.1_2
 62
     0
370
    -2
100
AcDbLine
 10
2034.998001964683
 20
-55.04012819403396
 30
0.0
 11
2118.614537870782
 21
-55.04012819403398
 31
0.0
  0
INSERT
  5
404
330
3FE
100
AcDbEntity
  8
Ech.1_2
 62
     0
370
    -2
100
AcDbBlockReference
  2
cw-dimension-symbol2
 10
2032.998001964683
 20
-55.04012819403396
 30
0.0
 41
2.0
 42
2.0
 43
2.0
 50
180.0
  0
INSERT
  5
405
330
3FE
100
AcDbEntity
  8
Ech.1_2
 62
     0
370
    -2
100
AcDbBlockReference
  2
cw-dimension-symbol2
 10
2120.614537870782
 20
-55.04012819403398
 30
0.0
 41
2.0
 42
2.0
 43
2.0
 50
360.0
  0
POINT
  5
406
330
3FE
100
AcDbEntity
  8
Defpoints
 62
     0
100
AcDbPoint
 10
2032.998001964683
 20
-76.97089259755376
 30
0.0
  0
POINT
  5
407
330
3FE
100
AcDbEntity
  8
Defpoints
 62
     0
100
AcDbPoint
 10
2120.614537870782
 20
-77.86244797678955
 30
0.0
  0
POINT
  5
408
330
3FE
100
AcDbEntity
  8
Defpoints
 62
     0
100
AcDbPoint
 10
2120.614537870782
 20
-55.04012819403398
 30
0.0
  0
ENDBLK
  5
400
330
3FE
100
AcDbEntity
  8
0
100
AcDbBlockEnd
  0
ENDSEC
  0
SECTION
  2
ENTITIES
  0
LWPOLYLINE
  5
236
330
1F
100
AcDbEntity
  8
Ech.1_2
 62
     7
370
    20
100
AcDbPolyline
 90
       16
 70
     0
 43
0.0
 10
2112.795607023467
 20
38.46749753695622
 10
2035.191996912166
 20
38.46749753695622
 42
0.453913337307332
 10
2033.614537870781
 20
35.85415149678192
 10
2034.985459724499
 20
32.28861783984394
 42
0.2543174404515988
 10
2036.411917418891
 20
31.03462046048662
 10
2055.228479047868
 20
31.03462046048662
 10
2055.228479047868
 20
24.49117238932558
 10
2042.6877921169
 20
24.49117238932558
 10
2042.6877921169
 20
18.45319391283738
 10
2073.039853193224
 20
18.45319391283738
 10
2077.039853192933
 20
22.45319391254998
 10
2081.039853192933
 20
18.45319391283738
 10
2100.544144818728
 20
18.45319391283738
 10
2104.544144818437
 20
22.45319391254998
 10
2108.544144818437
 20
18.45319391283738
 10
2112.795607023467
 20
18.45319391283738
  0
LWPOLYLINE
  5
237
330
1F
100
AcDbEntity
  8
Ech.1_2
 62
     7
370
    20
100
AcDbPolyline
 90
       15
 70
     0
 43
0.0
 10
2109.538787124913
 20
18.4531939128392
 10
2129.687792116902
 20
18.4531939128392
 10
2129.687792116902
 20
24.92335315310811
 10
2137.580625979843
 20
24.92335315310811
 10
2141.531714850333
 20
26.16703000159578
 10
2141.531714850333
 20
29.6620775501724
 10
2138.871874457198
 20
30.47290076548597
 10
2128.178996787357
 20
30.47290076548597
 10
2126.998620469343
 20
29.56056535041535
 10
2125.92643905413
 20
30.47290076548597
 10
2117.80070416182
 20
30.47290076548597
 42
-0.3131334096943191
 10
2115.983394808181
 20
31.77443623110048
 10
2113.96854144292
 20
37.41528509110321
 42
0.2555986236769957
 10
2112.795607023467
 20
38.46749753695804
 10
2099.801092490687
 20
38.46749753695804
  0
HATCH
  5
238
330
1F
100
AcDbEntity
  8
Ech.1_2
 62
    17
420
  8405056
440
 33554687
370
    20
100
AcDbHatch
 10
0.0
 20
0.0
 30
0.0
210
0.0
220
0.0
230
1.0
  2
SOLID
 70
     1
 71
     1
 91
        1
 92
        3
 72
     1
 73
     1
 93
       27
 10
2137.580625979843
 20
24.92335315310811
 42
0.0
 10
2129.687792116902
 20
24.92335315310811
 42
0.0
 10
2129.687792116902
 20
18.4531939128392
 42
0.0
 10
2108.544144818437
 20
18.45319391283738
 42
0.0
 10
2104.544144818437
 20
22.45319391254998
 42
0.0
 10
2100.544144818728
 20
18.45319391283738
 42
0.0
 10
2081.039853192933
 20
18.45319391283738
 42
0.0
 10
2077.039853192933
 20
22.45319391254998
 42
0.0
 10
2073.039853193224
 20
18.45319391283738
 42
0.0
 10
2042.6877921169
 20
18.45319391283738
 42
0.0
 10
2042.6877921169
 20
24.49117238932558
 42
0.0
 10
2055.228479047868
 20
24.49117238932558
 42
0.0
 10
2055.228479047868
 20
31.03462046048662
 42
0.0
 10
2036.411917418891
 20
31.03462046048662
 42
-0.2543174404516073
 10
2034.985459724499
 20
32.28861783984394
 42
0.0
 10
2033.614537870781
 20
35.85415149678192
 42
-0.4539133373073938
 10
2035.191996912166
 20
38.46749753695622
 42
0.0
 10
2112.795607023467
 20
38.46749753695804
 42
-0.2555986236767512
 10
2113.96854144292
 20
37.41528509110321
 42
0.0
 10
2115.983394808181
 20
31.77443623110048
 42
0.3131334096943572
 10
2117.80070416182
 20
30.47290076548597
 42
0.0
 10
2125.92643905413
 20
30.47290076548597
 42
0.0
 10
2126.998620469343
 20
29.56056535041535
 42
0.0
 10
2128.178996787357
 20
30.47290076548597
 42
0.0
 10
2138.871874457198
 20
30.47290076548597
 42
0.0
 10
2141.531714850333
 20
29.6620775501724
 42
0.0
 10
2141.531714850333
 20
26.16703000159578
 42
0.0
 97
        0
 75
     0
 76
     1
 98
        0
  0
LWPOLYLINE
  5
239
330
1F
100
AcDbEntity
  8
Ech.1_2
 62
     7
370
    50
100
AcDbPolyline
 90
       28
 70
     0
 43
0.0
 10
2137.580625979843
 20
24.92335315310811
 10
2129.687792116902
 20
24.92335315310811
 10
2129.687792116902
 20
18.4531939128392
 10
2108.544144818437
 20
18.45319391283738
 10
2104.544144818437
 20
22.45319391254998
 10
2100.544144818728
 20
18.45319391283738
 10
2081.039853192933
 20
18.45319391283738
 10
2077.039853192933
 20
22.45319391254998
 10
2073.039853193224
 20
18.45319391283738
 10
2042.6877921169
 20
18.45319391283738
 10
2042.6877921169
 20
24.49117238932558
 10
2055.228479047868
 20
24.49117238932558
 10
2055.228479047868
 20
31.03462046048662
 10
2036.411917418891
 20
31.03462046048662
 42
-0.2543174404516014
 10
2034.985459724499
 20
32.28861783984394
 10
2033.614537870781
 20
35.85415149678192
 42
-0.4539133373073301
 10
2035.191996912166
 20
38.46749753695622
 10
2112.795607023467
 20
38.46749753695804
 42
-0.255598623677001
 10
2113.96854144292
 20
37.41528509110321
 10
2115.983394808181
 20
31.77443623110048
 42
0.3131334096943231
 10
2117.80070416182
 20
30.47290076548597
 10
2125.92643905413
 20
30.47290076548597
 10
2126.998620469343
 20
29.56056535041535
 10
2128.178996787357
 20
30.47290076548597
 10
2138.871874457198
 20
30.47290076548597
 10
2141.531714850333
 20
29.6620775501724
 10
2141.531714850333
 20
26.16703000159578
 10
2137.580625979843
 20
24.92335315310811
  0
HATCH
  5
23A
330
1F
100
AcDbEntity
  8
Ech.1_2
 62
    17
420
  8405056
440
 33554687
370
    20
100
AcDbHatch
 10
0.0
 20
0.0
 30
0.0
210
0.0
220
0.0
230
1.0
  2
SOLID
 70
     1
 71
     1
 91
        1
 92
        3
 72
     1
 73
     1
 93
        6
 10
2210.411917418893
 20
31.03462046048662
 42
0.0
 10
2215.007805261335
 20
31.03462046048662
 42
0.0
 10
2215.007805261335
 20
38.46749753695622
 42
0.0
 10
2209.19199691217
 20
38.46749753695622
 42
0.4539133373073938
 10
2207.614537870784
 20
35.85415149678192
 42
0.0
 10
2208.985459724503
 20
32.28861783984393
 42
0.2543174404524748
 97
        0
 75
     0
 76
     1
 98
        0
  0
LWPOLYLINE
  5
23B
330
1F
100
AcDbEntity
  8
Ech.1_2
 62
     7
370
    50
100
AcDbPolyline
 90
        7
 70
     0
 43
0.0
 10
2210.411917418893
 20
31.03462046048662
 10
2215.007805261335
 20
31.03462046048662
 10
2215.007805261335
 20
38.46749753695622
 10
2209.19199691217
 20
38.46749753695622
 42
0.453913337307332
 10
2207.614537870784
 20
35.85415149678192
 10
2208.985459724503
 20
32.28861783984394
 42
0.2543174404525819
 10
2210.411917418893
 20
31.03462046048662
  0
TEXT
  5
23E
330
1F
100
AcDbEntity
  8
Ech.1_2
 62
     7
100
AcDbText
 10
2041.394120662376
 20
67.50234707206982
 30
0.0
 40
6.034412384033203
  1
L
 41
1.007782800673266
  7
arial-
100
AcDbText
  0
TEXT
  5
23F
330
1F
100
AcDbEntity
  8
Ech.1_2
 62
     7
100
AcDbText
 10
2046.102390215234
 20
67.51419358104332
 30
0.0
 40
5.978612005316912
  1
a
 41
0.9939067915578286
  7
arial-
100
AcDbText
  0
TEXT
  5
240
330
1F
100
AcDbEntity
  8
Ech.1_2
 62
     7
100
AcDbText
 10
2050.828136579351
 20
67.50234707206982
 30
0.0
 40
5.994599196914076
  1
r
 41
1.002257544015148
  7
arial-
100
AcDbText
  0
TEXT
  5
241
330
1F
100
AcDbEntity
  8
Ech.1_2
 62
     7
100
AcDbText
 10
2053.555532273245
 20
67.55981535033492
 30
0.0
 40
5.917044165517191
  1
g
 41
1.005219785747038
  7
arial-
100
AcDbText
  0
TEXT
  5
242
330
1F
100
AcDbEntity
  8
Ech.1_2
 62
     7
100
AcDbText
 10
2058.233293750529
 20
67.51419358104332
 30
0.0
 40
5.978612005316912
  1
e
 41
1.015053744569697
  7
arial-
100
AcDbText
  0
TEXT
  5
243
330
1F
100
AcDbEntity
  8
Ech.1_2
 62
     7
100
AcDbText
 10
2062.981169104561
 20
67.51444937610887
 30
0.0
 40
5.994599196914076
  1
u
 41
1.006526102550136
  7
arial-
100
AcDbText
  0
TEXT
  5
244
330
1F
100
AcDbEntity
  8
Ech.1_2
 62
     7
100
AcDbText
 10
2067.713348591385
 20
67.50234707206982
 30
0.0
 40
5.994599196914076
  1
r
 41
0.9664626317288931
  7
arial-
100
AcDbText
  0
TEXT
  5
245
330
1F
100
AcDbEntity
  8
Ech.1_2
 62
     7
100
AcDbText
 10
2070.433101323622
 20
67.50234707206982
 30
0.0
 40
6.053029596805573
  1
 
  7
arial-
100
AcDbText
  0
TEXT
  5
246
330
1F
100
AcDbEntity
  8
Ech.1_2
 62
     7
100
AcDbText
 10
2072.860380911324
 20
67.51444937610887
 30
0.0
 40
5.994599196914076
  1
u
 41
0.9825611953465617
  7
arial-
100
AcDbText
  0
TEXT
  5
247
330
1F
100
AcDbEntity
  8
Ech.1_2
 62
     7
100
AcDbText
 10
2077.54241658512
 20
67.47961283737965
 30
0.0
 40
6.10770484213887
  1
t
 41
0.9750630728321976
  7
arial-
100
AcDbText
  0
TEXT
  5
248
330
1F
100
AcDbEntity
  8
Ech.1_2
 62
     7
100
AcDbText
 10
2079.89433957703
 20
67.50234707206982
 30
0.0
 40
6.034412384033203
  1
i
 41
1.022530841658728
  7
arial-
100
AcDbText
  0
TEXT
  5
249
330
1F
100
AcDbEntity
  8
Ech.1_2
 62
     7
100
AcDbText
 10
2081.919593040839
 20
67.50234707206982
 30
0.0
 40
6.034412384033203
  1
l
 41
0.9089163036966471
  7
arial-
100
AcDbText
  0
TEXT
  5
24A
330
1F
100
AcDbEntity
  8
Ech.1_2
 62
     7
100
AcDbText
 10
2083.525374222986
 20
67.51419358104332
 30
0.0
 40
5.978612005316912
  1
e
 41
1.036200697581566
  7
arial-
100
AcDbText
  0
TEXT
  5
24B
330
1F
100
AcDbEntity
  8
Ech.1_2
 62
     7
100
AcDbText
 10
2088.310728040713
 20
67.50234707206982
 30
0.0
 40
6.053029596805573
  1
 
  7
arial-
100
AcDbText
  0
TEXT
  5
24C
330
1F
100
AcDbEntity
  8
Ech.1_2
 62
     7
100
AcDbText
 10
2090.67483189904
 20
67.50234707206982
 30
0.0
 40
5.581319071840511
  1
£
 41
1.042003435776195
  7
symbol-
100
AcDbText
  0
TEXT
  5
24D
330
1F
100
AcDbEntity
  8
Ech.1_2
 62
     7
100
AcDbText
 10
2095.30998755731
 20
67.50234707206982
 30
0.0
 40
6.053029596805573
  1
 
  7
arial-
100
AcDbText
  0
TEXT
  5
24E
330
1F
100
AcDbEntity
  8
Ech.1_2
 62
     7
100
AcDbText
 10
2097.693182259137
 20
67.50234707206982
 30
0.0
 40
6.010370900431477
  1
1
 41
0.9912843738378958
  7
arial-
100
AcDbText
  0
TEXT
  5
24F
330
1F
100
AcDbEntity
  8
Ech.1_2
 62
     7
100
AcDbText
 10
2102.469613577368
 20
67.52040631035048
 30
0.0
 40
5.992383611307322
  1
0
 41
0.9943773872271178
  7
arial-
100
AcDbText
  0
TEXT
  5
250
330
1F
100
AcDbEntity
  8
Ech.1_2
 62
     7
100
AcDbText
 10
2107.192005540373
 20
67.52040631035048
 30
0.0
 40
5.992383611307322
  1
0
 41
0.9943773872271178
  7
arial-
100
AcDbText
  0
LINE
  5
251
330
1F
100
AcDbEntity
  8
Ech.1_2
 62
   190
370
     9
100
AcDbLine
 10
2124.289859468321
 20
30.50640483159987
 30
0.0
 11
2124.289859468323
 21
30.81195983250109
 31
0.0
  0
HATCH
  5
252
330
1F
100
AcDbEntity
  8
Ech.1_2
 62
   252
440
 33554687
370
     5
100
AcDbHatch
 10
0.0
 20
0.0
 30
0.0
210
0.0
220
0.0
230
1.0
  2
SOLID
 70
     1
 71
     1
 91
        1
 92
        3
 72
     0
 73
     1
 93
        4
 10
2125.678748468259
 20
-9.299150169596032
 10
2125.678748468261
 20
-10.13248416851275
 10
2127.938470468305
 20
-10.13248416851457
 10
2127.938470468305
 20
-9.299150169596032
 97
        0
 75
     0
 76
     1
 98
        0
  0
LWPOLYLINE
  5
253
330
1F
100
AcDbEntity
  8
Ech.1_2
 62
     7
370
     9
100
AcDbPolyline
 90
        5
 70
     0
 43
0.0
 10
2125.678748468259
 20
-9.299150169596032
 10
2125.678748468261
 20
-10.13248416851275
 10
2127.938470468305
 20
-10.13248416851457
 10
2127.938470468305
 20
-9.299150169596032
 10
2125.678748468259
 20
-9.299150169596032
  0
LINE
  5
254
330
1F
100
AcDbEntity
  8
Ech.1_2
 62
   190
370
     9
100
AcDbLine
 10
2127.938470468305
 20
-12.33156816701921
 30
0.0
 11
2127.938470468305
 21
29.95084883232084
 31
0.0
  0
LINE
  5
255
330
1F
100
AcDbEntity
  8
Ech.1_2
 62
   190
370
     9
100
AcDbLine
 10
2125.678748468261
 20
-12.33156816701921
 30
0.0
 11
2125.678748468259
 21
29.95084883232266
 31
0.0
  0
ARC
  5
256
330
1F
100
AcDbEntity
  8
Ech.1_2
 62
   190
370
     9
100
AcDbCircle
 10
2126.808609468281
 20
18.24875644165768
 30
0.0
 40
12.81320339084341
100
AcDbArc
 50
78.66327935031738
 51
101.3367206496826
  0
LINE
  5
257
330
1F
100
AcDbEntity
  8
Ech.1_2
 62
   190
370
     9
100
AcDbLine
 10
2129.3273594683
 20
30.50640483159987
 30
0.0
 11
2128.494026468341
 21
30.50640483159987
 31
0.0
  0
ARC
  5
258
330
1F
100
AcDbEntity
  8
Ech.1_2
 62
   190
370
     9
100
AcDbCircle
 10
2128.494026458204
 20
29.95084884170099
 30
0.0
 40
0.5555559898988738
100
AcDbArc
 50
89.99999895457104
 51
180.0000009673965
  0
LINE
  5
259
330
1F
100
AcDbEntity
  8
Ech.1_2
 62
   190
370
     9
100
AcDbLine
 10
2128.494026468341
 20
30.50640483159987
 30
0.0
 11
2125.123192468282
 21
30.50640483159987
 31
0.0
  0
ARC
  5
25A
330
1F
100
AcDbEntity
  8
Ech.1_2
 62
   190
370
     9
100
AcDbCircle
 10
2125.12319247846
 20
29.95084884180036
 30
0.0
 40
0.5555559897995072
100
AcDbArc
 50
359.9999990225433
 51
90.00000104969679
  0
LINE
  5
25B
330
1F
100
AcDbEntity
  8
Ech.1_2
 62
   190
370
     9
100
AcDbLine
 10
2124.289859468321
 20
30.50640483159987
 30
0.0
 11
2125.123192468282
 21
30.50640483159987
 31
0.0
  0
LINE
  5
25C
330
1F
100
AcDbEntity
  8
Ech.1_2
 62
   190
370
     9
100
AcDbLine
 10
2127.938470468303
 20
19.86751583148543
 30
0.0
 11
2125.678748468259
 21
19.86751583148543
 31
0.0
  0
LINE
  5
25D
330
1F
100
AcDbEntity
  8
Ech.1_2
 62
   190
370
     9
100
AcDbLine
 10
2127.938470468305
 20
19.0341828309447
 30
0.0
 11
2125.678748468259
 21
19.0341828309447
 31
0.0
  0
LINE
  5
25E
330
1F
100
AcDbEntity
  8
Ech.1_2
 62
   190
370
     9
100
AcDbLine
 10
2127.938470468307
 20
22.36751583148543
 30
0.0
 11
2125.678748468259
 21
22.36751583148543
 31
0.0
  0
LINE
  5
25F
330
1F
100
AcDbEntity
  8
Ech.1_2
 62
   190
370
     9
100
AcDbLine
 10
2127.938470468305
 20
21.5341828309447
 30
0.0
 11
2125.678748468259
 21
21.53418283094652
 31
0.0
  0
LINE
  5
260
330
1F
100
AcDbEntity
  8
Ech.1_2
 62
   190
370
     9
100
AcDbLine
 10
2127.938470468305
 20
20.70084983040397
 30
0.0
 11
2125.678748468261
 21
20.70084983040579
 31
0.0
  0
LINE
  5
261
330
1F
100
AcDbEntity
  8
Ech.1_2
 62
   190
370
     9
100
AcDbLine
 10
2127.938470468305
 20
24.86751583148725
 30
0.0
 11
2125.678748468259
 21
24.86751583148543
 31
0.0
  0
LINE
  5
262
330
1F
100
AcDbEntity
  8
Ech.1_2
 62
   190
370
     9
100
AcDbLine
 10
2127.938470468305
 20
24.0341828309447
 30
0.0
 11
2125.678748468259
 21
24.0341828309447
 31
0.0
  0
LINE
  5
263
330
1F
100
AcDbEntity
  8
Ech.1_2
 62
   190
370
     9
100
AcDbLine
 10
2127.938470468305
 20
23.20084983040397
 30
0.0
 11
2125.678748468259
 21
23.20084983040579
 31
0.0
  0
LINE
  5
264
330
1F
100
AcDbEntity
  8
Ech.1_2
 62
   190
370
     9
100
AcDbLine
 10
2127.938470468305
 20
25.70084983040397
 30
0.0
 11
2125.678748468259
 21
25.70084983040397
 31
0.0
  0
LINE
  5
265
330
1F
100
AcDbEntity
  8
Ech.1_2
 62
   190
370
     9
100
AcDbLine
 10
2127.938470468303
 20
26.5341828309447
 30
0.0
 11
2125.678748468259
 21
26.5341828309447
 31
0.0
  0
LINE
  5
266
330
1F
100
AcDbEntity
  8
Ech.1_2
 62
   190
370
     9
100
AcDbLine
 10
2127.938470468305
 20
27.36751583148543
 30
0.0
 11
2125.678748468259
 21
27.36751583148543
 31
0.0
  0
LINE
  5
267
330
1F
100
AcDbEntity
  8
Ech.1_2
 62
   190
370
     9
100
AcDbLine
 10
2127.938470468305
 20
28.20084983040397
 30
0.0
 11
2125.678748468259
 21
28.20084983040579
 31
0.0
  0
LINE
  5
268
330
1F
100
AcDbEntity
  8
Ech.1_2
 62
   190
370
     9
100
AcDbLine
 10
2127.938470468305
 20
-6.799150169594213
 30
0.0
 11
2125.678748468259
 21
-6.799150169596032
 31
0.0
  0
LINE
  5
269
330
1F
100
AcDbEntity
  8
Ech.1_2
 62
   190
370
     9
100
AcDbLine
 10
2127.938470468305
 20
-5.965817169055299
 30
0.0
 11
2125.678748468257
 21
-5.965817169055299
 31
0.0
  0
LINE
  5
26A
330
1F
100
AcDbEntity
  8
Ech.1_2
 62
   190
370
     9
100
AcDbLine
 10
2127.938470468305
 20
-7.632484168514566
 30
0.0
 11
2125.678748468259
 21
-7.632484168512747
 31
0.0
  0
LINE
  5
26B
330
1F
100
AcDbEntity
  8
Ech.1_2
 62
   190
370
     9
100
AcDbLine
 10
2127.938470468305
 20
-3.465817169055299
 30
0.0
 11
2125.678748468259
 21
-3.46581716905348
 31
0.0
  0
LINE
  5
26C
330
1F
100
AcDbEntity
  8
Ech.1_2
 62
   190
370
     9
100
AcDbLine
 10
2127.938470468305
 20
-4.299150169596032
 30
0.0
 11
2125.678748468259
 21
-4.299150169596032
 31
0.0
  0
LINE
  5
26D
330
1F
100
AcDbEntity
  8
Ech.1_2
 62
   190
370
     9
100
AcDbLine
 10
2127.938470468305
 20
-5.132484168514566
 30
0.0
 11
2125.678748468259
 21
-5.132484168514566
 31
0.0
  0
LINE
  5
26E
330
1F
100
AcDbEntity
  8
Ech.1_2
 62
   190
370
     9
100
AcDbLine
 10
2127.938470468305
 20
-0.965817169055299
 30
0.0
 11
2125.678748468259
 21
-0.965817169055299
 31
0.0
  0
LINE
  5
26F
330
1F
100
AcDbEntity
  8
Ech.1_2
 62
   190
370
     9
100
AcDbLine
 10
2127.938470468305
 20
-1.799150169596032
 30
0.0
 11
2125.678748468261
 21
-1.799150169594213
 31
0.0
  0
LINE
  5
270
330
1F
100
AcDbEntity
  8
Ech.1_2
 62
   190
370
     9
100
AcDbLine
 10
2127.938470468303
 20
-2.632484168514566
 30
0.0
 11
2125.678748468259
 21
-2.632484168512747
 31
0.0
  0
LINE
  5
271
330
1F
100
AcDbEntity
  8
Ech.1_2
 62
   190
370
     9
100
AcDbLine
 10
2127.938470468305
 20
1.534182830944701
 30
0.0
 11
2125.678748468259
 21
1.53418283094652
 31
0.0
  0
LINE
  5
272
330
1F
100
AcDbEntity
  8
Ech.1_2
 62
   190
370
     9
100
AcDbLine
 10
2127.938470468305
 20
0.7008498304057866
 30
0.0
 11
2125.678748468257
 21
0.7008498304039676
 31
0.0
  0
LINE
  5
273
330
1F
100
AcDbEntity
  8
Ech.1_2
 62
   190
370
     9
100
AcDbLine
 10
2127.938470468307
 20
-0.1324841685127467
 30
0.0
 11
2125.678748468259
 21
-0.1324841685145657
 31
0.0
  0
LINE
  5
274
330
1F
100
AcDbEntity
  8
Ech.1_2
 62
   190
370
     9
100
AcDbLine
 10
2127.938470468305
 20
2.367515831485434
 30
0.0
 11
2125.678748468259
 21
2.367515831485434
 31
0.0
  0
LINE
  5
275
330
1F
100
AcDbEntity
  8
Ech.1_2
 62
   190
370
     9
100
AcDbLine
 10
2127.938470468305
 20
15.70084983040579
 30
0.0
 11
2125.678748468259
 21
15.70084983040397
 31
0.0
  0
LINE
  5
276
330
1F
100
AcDbEntity
  8
Ech.1_2
 62
   190
370
     9
100
AcDbLine
 10
2127.938470468305
 20
14.86751583148543
 30
0.0
 11
2125.678748468259
 21
14.86751583148543
 31
0.0
  0
LINE
  5
277
330
1F
100
AcDbEntity
  8
Ech.1_2
 62
   190
370
     9
100
AcDbLine
 10
2127.938470468305
 20
14.0341828309447
 30
0.0
 11
2125.678748468261
 21
14.03418283094652
 31
0.0
  0
LINE
  5
278
330
1F
100
AcDbEntity
  8
Ech.1_2
 62
   190
370
     9
100
AcDbLine
 10
2127.938470468305
 20
13.20084983040579
 30
0.0
 11
2125.678748468259
 21
13.20084983040397
 31
0.0
  0
LINE
  5
279
330
1F
100
AcDbEntity
  8
Ech.1_2
 62
   190
370
     9
100
AcDbLine
 10
2129.3273594683
 20
30.50640483159987
 30
0.0
 11
2129.3273594683
 21
30.81195983250109
 31
0.0
  0
LINE
  5
27A
330
1F
100
AcDbEntity
  8
Ech.1_2
 62
   190
370
     9
100
AcDbLine
 10
2127.938470468303
 20
10.70084983040397
 30
0.0
 11
2125.678748468259
 21
10.70084983040397
 31
0.0
  0
LINE
  5
27B
330
1F
100
AcDbEntity
  8
Ech.1_2
 62
   190
370
     9
100
AcDbLine
 10
2127.938470468305
 20
11.5341828309447
 30
0.0
 11
2125.678748468259
 21
11.5341828309447
 31
0.0
  0
LINE
  5
27C
330
1F
100
AcDbEntity
  8
Ech.1_2
 62
   190
370
     9
100
AcDbLine
 10
2127.938470468305
 20
12.36751583148543
 30
0.0
 11
2125.678748468259
 21
12.36751583148725
 31
0.0
  0
LINE
  5
27D
330
1F
100
AcDbEntity
  8
Ech.1_2
 62
   190
370
     9
100
AcDbLine
 10
2127.938470468307
 20
8.200849830405787
 30
0.0
 11
2125.678748468259
 21
8.200849830403968
 31
0.0
  0
LINE
  5
27E
330
1F
100
AcDbEntity
  8
Ech.1_2
 62
   190
370
     9
100
AcDbLine
 10
2127.938470468305
 20
9.03418283094652
 30
0.0
 11
2125.678748468259
 21
9.034182830944701
 31
0.0
  0
LINE
  5
27F
330
1F
100
AcDbEntity
  8
Ech.1_2
 62
   190
370
     9
100
AcDbLine
 10
2127.938470468305
 20
9.867515831485434
 30
0.0
 11
2125.678748468257
 21
9.867515831485434
 31
0.0
  0
LINE
  5
280
330
1F
100
AcDbEntity
  8
Ech.1_2
 62
   190
370
     9
100
AcDbLine
 10
2127.938470468305
 20
5.700849830403968
 30
0.0
 11
2125.678748468259
 21
5.700849830405787
 31
0.0
  0
LINE
  5
281
330
1F
100
AcDbEntity
  8
Ech.1_2
 62
   190
370
     9
100
AcDbLine
 10
2127.938470468307
 20
6.534182830944701
 30
0.0
 11
2125.678748468259
 21
6.534182830944701
 31
0.0
  0
LINE
  5
282
330
1F
100
AcDbEntity
  8
Ech.1_2
 62
   190
370
     9
100
AcDbLine
 10
2127.938470468305
 20
7.367515831485434
 30
0.0
 11
2125.678748468257
 21
7.367515831485434
 31
0.0
  0
LINE
  5
283
330
1F
100
AcDbEntity
  8
Ech.1_2
 62
   190
370
     9
100
AcDbLine
 10
2127.938470468305
 20
3.200849830403968
 30
0.0
 11
2125.678748468259
 21
3.200849830403968
 31
0.0
  0
LINE
  5
284
330
1F
100
AcDbEntity
  8
Ech.1_2
 62
   190
370
     9
100
AcDbLine
 10
2127.938470468303
 20
4.034182830944701
 30
0.0
 11
2125.678748468259
 21
4.034182830944701
 31
0.0
  0
LINE
  5
285
330
1F
100
AcDbEntity
  8
Ech.1_2
 62
   190
370
     9
100
AcDbLine
 10
2127.938470468305
 20
4.867515831487253
 30
0.0
 11
2125.678748468259
 21
4.867515831485434
 31
0.0
  0
LINE
  5
286
330
1F
100
AcDbEntity
  8
Ech.1_2
 62
   190
370
     9
100
AcDbLine
 10
2127.938470468305
 20
17.36751583148543
 30
0.0
 11
2125.678748468259
 21
17.36751583148725
 31
0.0
  0
LINE
  5
287
330
1F
100
AcDbEntity
  8
Ech.1_2
 62
   190
370
     9
100
AcDbLine
 10
2127.938470468305
 20
16.53418283094652
 30
0.0
 11
2125.678748468257
 21
16.5341828309447
 31
0.0
  0
LINE
  5
288
330
1F
100
AcDbEntity
  8
Ech.1_2
 62
   190
370
     9
100
AcDbLine
 10
2127.938470468305
 20
15.70084983040579
 30
0.0
 11
2125.678748468259
 21
15.70084983040397
 31
0.0
  0
LINE
  5
289
330
1F
100
AcDbEntity
  8
Ech.1_2
 62
   190
370
     9
100
AcDbLine
 10
2127.938470468305
 20
18.20084983040397
 30
0.0
 11
2125.678748468257
 21
18.20084983040397
 31
0.0
  0
LINE
  5
28A
330
1F
100
AcDbEntity
  8
Ech.1_2
 62
   190
370
     9
100
AcDbLine
 10
2126.808609468311
 20
-14.99359516839831
 30
0.0
 11
2127.938470468305
 21
-12.33156816701921
 31
0.0
  0
ARC
  5
28B
330
1F
100
AcDbEntity
  8
Ech.1_2
 62
   190
370
     9
100
AcDbCircle
 10
2126.808609468311
 20
-13.74091915763335
 30
0.0
 40
1.806337996682365
100
AcDbArc
 50
51.28123991447395
 51
128.7187600855261
  0
LINE
  5
28C
330
1F
100
AcDbEntity
  8
Ech.1_2
 62
   190
370
     9
100
AcDbLine
 10
2126.808609468311
 20
-14.99359516839831
 30
0.0
 11
2125.678748468261
 21
-12.33156816701921
 31
0.0
  0
HATCH
  5
28D
330
1F
100
AcDbEntity
  8
Ech.1_2
 62
   252
440
 33554687
370
     5
100
AcDbHatch
 10
0.0
 20
0.0
 30
0.0
210
0.0
220
0.0
230
1.0
  2
SOLID
 70
     1
 71
     1
 91
        1
 92
        3
 72
     0
 73
     1
 93
        4
 10
2125.678748468259
 20
28.20084983040579
 10
2125.678748468259
 20
27.36751583148543
 10
2127.938470468305
 20
27.36751583148543
 10
2127.938470468305
 20
28.20084983040397
 97
        0
 75
     0
 76
     1
 98
        0
  0
LWPOLYLINE
  5
28E
330
1F
100
AcDbEntity
  8
Ech.1_2
 62
     7
370
     9
100
AcDbPolyline
 90
        5
 70
     0
 43
0.0
 10
2125.678748468259
 20
28.20084983040579
 10
2125.678748468259
 20
27.36751583148543
 10
2127.938470468305
 20
27.36751583148543
 10
2127.938470468305
 20
28.20084983040397
 10
2125.678748468259
 20
28.20084983040579
  0
HATCH
  5
28F
330
1F
100
AcDbEntity
  8
Ech.1_2
 62
   252
440
 33554687
370
     5
100
AcDbHatch
 10
0.0
 20
0.0
 30
0.0
210
0.0
220
0.0
230
1.0
  2
SOLID
 70
     1
 71
     1
 91
        1
 92
        3
 72
     0
 73
     1
 93
        4
 10
2125.678748468259
 20
27.36751583148543
 10
2125.678748468259
 20
26.5341818325669
 10
2127.938470468305
 20
26.5341818325669
 10
2127.938470468305
 20
27.36751583148543
 97
        0
 75
     0
 76
     1
 98
        0
  0
LWPOLYLINE
  5
290
330
1F
100
AcDbEntity
  8
Ech.1_2
 62
     7
370
     9
100
AcDbPolyline
 90
        5
 70
     0
 43
0.0
 10
2125.678748468259
 20
27.36751583148543
 10
2125.678748468259
 20
26.5341818325669
 10
2127.938470468305
 20
26.5341818325669
 10
2127.938470468305
 20
27.36751583148543
 10
2125.678748468259
 20
27.36751583148543
  0
HATCH
  5
291
330
1F
100
AcDbEntity
  8
Ech.1_2
 62
   252
440
 33554687
370
     5
100
AcDbHatch
 10
0.0
 20
0.0
 30
0.0
210
0.0
220
0.0
230
1.0
  2
SOLID
 70
     1
 71
     1
 91
        1
 92
        3
 72
     0
 73
     1
 93
        4
 10
2125.678748468259
 20
26.5341818325669
 10
2125.678748468259
 20
25.70084783364837
 10
2127.938470468305
 20
25.70084783365019
 10
2127.938470468305
 20
26.5341818325669
 97
        0
 75
     0
 76
     1
 98
        0
  0
LWPOLYLINE
  5
292
330
1F
100
AcDbEntity
  8
Ech.1_2
 62
     7
370
     9
100
AcDbPolyline
 90
        5
 70
     0
 43
0.0
 10
2125.678748468259
 20
26.5341818325669
 10
2125.678748468259
 20
25.70084783364837
 10
2127.938470468305
 20
25.70084783365019
 10
2127.938470468305
 20
26.5341818325669
 10
2125.678748468259
 20
26.5341818325669
  0
HATCH
  5
293
330
1F
100
AcDbEntity
  8
Ech.1_2
 62
   252
440
 33554687
370
     5
100
AcDbHatch
 10
0.0
 20
0.0
 30
0.0
210
0.0
220
0.0
230
1.0
  2
SOLID
 70
     1
 71
     1
 91
        1
 92
        3
 72
     0
 73
     1
 93
        4
 10
2125.678748468259
 20
25.70084783364837
 10
2125.678748468259
 20
24.86751383473165
 10
2127.938470468305
 20
24.86751383472983
 10
2127.938470468305
 20
25.70084783365019
 97
        0
 75
     0
 76
     1
 98
        0
  0
LWPOLYLINE
  5
294
330
1F
100
AcDbEntity
  8
Ech.1_2
 62
     7
370
     9
100
AcDbPolyline
 90
        5
 70
     0
 43
0.0
 10
2125.678748468259
 20
25.70084783364837
 10
2125.678748468259
 20
24.86751383473165
 10
2127.938470468305
 20
24.86751383472983
 10
2127.938470468305
 20
25.70084783365019
 10
2125.678748468259
 20
25.70084783364837
  0
HATCH
  5
295
330
1F
100
AcDbEntity
  8
Ech.1_2
 62
   252
440
 33554687
370
     5
100
AcDbHatch
 10
0.0
 20
0.0
 30
0.0
210
0.0
220
0.0
230
1.0
  2
SOLID
 70
     1
 71
     1
 91
        1
 92
        3
 72
     0
 73
     1
 93
        4
 10
2125.678748468259
 20
24.86751583148543
 10
2125.678748468259
 20
24.03418183256872
 10
2127.938470468305
 20
24.0341818325669
 10
2127.938470468305
 20
24.86751583148725
 97
        0
 75
     0
 76
     1
 98
        0
  0
LWPOLYLINE
  5
296
330
1F
100
AcDbEntity
  8
Ech.1_2
 62
     7
370
     9
100
AcDbPolyline
 90
        5
 70
     0
 43
0.0
 10
2125.678748468259
 20
24.86751583148543
 10
2125.678748468259
 20
24.03418183256872
 10
2127.938470468305
 20
24.0341818325669
 10
2127.938470468305
 20
24.86751583148725
 10
2125.678748468259
 20
24.86751583148543
  0
HATCH
  5
297
330
1F
100
AcDbEntity
  8
Ech.1_2
 62
   252
440
 33554687
370
     5
100
AcDbHatch
 10
0.0
 20
0.0
 30
0.0
210
0.0
220
0.0
230
1.0
  2
SOLID
 70
     1
 71
     1
 91
        1
 92
        3
 72
     0
 73
     1
 93
        4
 10
2125.678748468259
 20
24.0341828309447
 10
2125.678748468259
 20
23.20084883202617
 10
2127.938470468305
 20
23.20084883202617
 10
2127.938470468305
 20
24.0341828309447
 97
        0
 75
     0
 76
     1
 98
        0
  0
LWPOLYLINE
  5
298
330
1F
100
AcDbEntity
  8
Ech.1_2
 62
     7
370
     9
100
AcDbPolyline
 90
        5
 70
     0
 43
0.0
 10
2125.678748468259
 20
24.0341828309447
 10
2125.678748468259
 20
23.20084883202617
 10
2127.938470468305
 20
23.20084883202617
 10
2127.938470468305
 20
24.0341828309447
 10
2125.678748468259
 20
24.0341828309447
  0
HATCH
  5
299
330
1F
100
AcDbEntity
  8
Ech.1_2
 62
   252
440
 33554687
370
     5
100
AcDbHatch
 10
0.0
 20
0.0
 30
0.0
210
0.0
220
0.0
230
1.0
  2
SOLID
 70
     1
 71
     1
 91
        1
 92
        3
 72
     0
 73
     1
 93
        4
 10
2125.678748468259
 20
23.20084883202617
 10
2125.678748468259
 20
22.36751483310945
 10
2127.938470468305
 20
22.36751483310763
 10
2127.938470468305
 20
23.20084883202617
 97
        0
 75
     0
 76
     1
 98
        0
  0
LWPOLYLINE
  5
29A
330
1F
100
AcDbEntity
  8
Ech.1_2
 62
     7
370
     9
100
AcDbPolyline
 90
        5
 70
     0
 43
0.0
 10
2125.678748468259
 20
23.20084883202617
 10
2125.678748468259
 20
22.36751483310945
 10
2127.938470468305
 20
22.36751483310763
 10
2127.938470468305
 20
23.20084883202617
 10
2125.678748468259
 20
23.20084883202617
  0
HATCH
  5
29B
330
1F
100
AcDbEntity
  8
Ech.1_2
 62
   252
440
 33554687
370
     5
100
AcDbHatch
 10
0.0
 20
0.0
 30
0.0
210
0.0
220
0.0
230
1.0
  2
SOLID
 70
     1
 71
     1
 91
        1
 92
        3
 72
     0
 73
     1
 93
        4
 10
2125.678748468259
 20
22.36751583148543
 10
2125.678748468261
 20
21.53418183256872
 10
2127.938470468305
 20
21.53418183256872
 10
2127.938470468307
 20
22.36751583148543
 97
        0
 75
     0
 76
     1
 98
        0
  0
LWPOLYLINE
  5
29C
330
1F
100
AcDbEntity
  8
Ech.1_2
 62
     7
370
     9
100
AcDbPolyline
 90
        5
 70
     0
 43
0.0
 10
2125.678748468259
 20
22.36751583148543
 10
2125.678748468261
 20
21.53418183256872
 10
2127.938470468305
 20
21.53418183256872
 10
2127.938470468307
 20
22.36751583148543
 10
2125.678748468259
 20
22.36751583148543
  0
HATCH
  5
29D
330
1F
100
AcDbEntity
  8
Ech.1_2
 62
   252
440
 33554687
370
     5
100
AcDbHatch
 10
0.0
 20
0.0
 30
0.0
210
0.0
220
0.0
230
1.0
  2
SOLID
 70
     1
 71
     1
 91
        1
 92
        3
 72
     0
 73
     1
 93
        4
 10
2125.678748468261
 20
21.53418183256872
 10
2125.678748468259
 20
20.70084783364837
 10
2127.938470468303
 20
20.70084783364837
 10
2127.938470468305
 20
21.53418183256872
 97
        0
 75
     0
 76
     1
 98
        0
  0
LWPOLYLINE
  5
29E
330
1F
100
AcDbEntity
  8
Ech.1_2
 62
     7
370
     9
100
AcDbPolyline
 90
        5
 70
     0
 43
0.0
 10
2125.678748468261
 20
21.53418183256872
 10
2125.678748468259
 20
20.70084783364837
 10
2127.938470468303
 20
20.70084783364837
 10
2127.938470468305
 20
21.53418183256872
 10
2125.678748468261
 20
21.53418183256872
  0
HATCH
  5
29F
330
1F
100
AcDbEntity
  8
Ech.1_2
 62
   252
440
 33554687
370
     5
100
AcDbHatch
 10
0.0
 20
0.0
 30
0.0
210
0.0
220
0.0
230
1.0
  2
SOLID
 70
     1
 71
     1
 91
        1
 92
        3
 72
     0
 73
     1
 93
        4
 10
2125.678748468261
 20
20.70084983040579
 10
2125.678748468259
 20
19.86751583148543
 10
2127.938470468303
 20
19.86751583148543
 10
2127.938470468305
 20
20.70084983040397
 97
        0
 75
     0
 76
     1
 98
        0
  0
LWPOLYLINE
  5
2A0
330
1F
100
AcDbEntity
  8
Ech.1_2
 62
     7
370
     9
100
AcDbPolyline
 90
        5
 70
     0
 43
0.0
 10
2125.678748468261
 20
20.70084983040579
 10
2125.678748468259
 20
19.86751583148543
 10
2127.938470468303
 20
19.86751583148543
 10
2127.938470468305
 20
20.70084983040397
 10
2125.678748468261
 20
20.70084983040579
  0
HATCH
  5
2A1
330
1F
100
AcDbEntity
  8
Ech.1_2
 62
   252
440
 33554687
370
     5
100
AcDbHatch
 10
0.0
 20
0.0
 30
0.0
210
0.0
220
0.0
230
1.0
  2
SOLID
 70
     1
 71
     1
 91
        1
 92
        3
 72
     0
 73
     1
 93
        4
 10
2125.678748468259
 20
19.86751583148543
 10
2125.678748468257
 20
19.0341818325669
 10
2127.938470468305
 20
19.0341818325669
 10
2127.938470468303
 20
19.86751583148543
 97
        0
 75
     0
 76
     1
 98
        0
  0
LWPOLYLINE
  5
2A2
330
1F
100
AcDbEntity
  8
Ech.1_2
 62
     7
370
     9
100
AcDbPolyline
 90
        5
 70
     0
 43
0.0
 10
2125.678748468259
 20
19.86751583148543
 10
2125.678748468257
 20
19.0341818325669
 10
2127.938470468305
 20
19.0341818325669
 10
2127.938470468303
 20
19.86751583148543
 10
2125.678748468259
 20
19.86751583148543
  0
HATCH
  5
2A3
330
1F
100
AcDbEntity
  8
Ech.1_2
 62
   252
440
 33554687
370
     5
100
AcDbHatch
 10
0.0
 20
0.0
 30
0.0
210
0.0
220
0.0
230
1.0
  2
SOLID
 70
     1
 71
     1
 91
        1
 92
        3
 72
     0
 73
     1
 93
        4
 10
2125.678748468257
 20
19.0341818325669
 10
2125.678748468259
 20
18.20084783365019
 10
2127.938470468305
 20
18.20084783364837
 10
2127.938470468305
 20
19.0341818325669
 97
        0
 75
     0
 76
     1
 98
        0
  0
LWPOLYLINE
  5
2A4
330
1F
100
AcDbEntity
  8
Ech.1_2
 62
     7
370
     9
100
AcDbPolyline
 90
        5
 70
     0
 43
0.0
 10
2125.678748468257
 20
19.0341818325669
 10
2125.678748468259
 20
18.20084783365019
 10
2127.938470468305
 20
18.20084783364837
 10
2127.938470468305
 20
19.0341818325669
 10
2125.678748468257
 20
19.0341818325669
  0
HATCH
  5
2A5
330
1F
100
AcDbEntity
  8
Ech.1_2
 62
   252
440
 33554687
370
     5
100
AcDbHatch
 10
0.0
 20
0.0
 30
0.0
210
0.0
220
0.0
230
1.0
  2
SOLID
 70
     1
 71
     1
 91
        1
 92
        3
 72
     0
 73
     1
 93
        4
 10
2125.678748468259
 20
18.20084783365019
 10
2125.678748468259
 20
17.36751383472983
 10
2127.938470468305
 20
17.36751383473165
 10
2127.938470468305
 20
18.20084783364837
 97
        0
 75
     0
 76
     1
 98
        0
  0
LWPOLYLINE
  5
2A6
330
1F
100
AcDbEntity
  8
Ech.1_2
 62
     7
370
     9
100
AcDbPolyline
 90
        5
 70
     0
 43
0.0
 10
2125.678748468259
 20
18.20084783365019
 10
2125.678748468259
 20
17.36751383472983
 10
2127.938470468305
 20
17.36751383473165
 10
2127.938470468305
 20
18.20084783364837
 10
2125.678748468259
 20
18.20084783365019
  0
HATCH
  5
2A7
330
1F
100
AcDbEntity
  8
Ech.1_2
 62
   252
440
 33554687
370
     5
100
AcDbHatch
 10
0.0
 20
0.0
 30
0.0
210
0.0
220
0.0
230
1.0
  2
SOLID
 70
     1
 71
     1
 91
        1
 92
        3
 72
     0
 73
     1
 93
        4
 10
2125.678748468259
 20
17.36751383472983
 10
2125.678748468259
 20
16.5341798358113
 10
2127.938470468305
 20
16.5341798358113
 10
2127.938470468305
 20
17.36751383473165
 97
        0
 75
     0
 76
     1
 98
        0
  0
LWPOLYLINE
  5
2A8
330
1F
100
AcDbEntity
  8
Ech.1_2
 62
     7
370
     9
100
AcDbPolyline
 90
        5
 70
     0
 43
0.0
 10
2125.678748468259
 20
17.36751383472983
 10
2125.678748468259
 20
16.5341798358113
 10
2127.938470468305
 20
16.5341798358113
 10
2127.938470468305
 20
17.36751383473165
 10
2125.678748468259
 20
17.36751383472983
  0
HATCH
  5
2A9
330
1F
100
AcDbEntity
  8
Ech.1_2
 62
   252
440
 33554687
370
     5
100
AcDbHatch
 10
0.0
 20
0.0
 30
0.0
210
0.0
220
0.0
230
1.0
  2
SOLID
 70
     1
 71
     1
 91
        1
 92
        3
 72
     0
 73
     1
 93
        4
 10
2125.678748468259
 20
16.5341818325669
 10
2125.678748468259
 20
15.70084783364837
 10
2127.938470468305
 20
15.70084783364837
 10
2127.938470468305
 20
16.53418183256872
 97
        0
 75
     0
 76
     1
 98
        0
  0
LWPOLYLINE
  5
2AA
330
1F
100
AcDbEntity
  8
Ech.1_2
 62
     7
370
     9
100
AcDbPolyline
 90
        5
 70
     0
 43
0.0
 10
2125.678748468259
 20
16.5341818325669
 10
2125.678748468259
 20
15.70084783364837
 10
2127.938470468305
 20
15.70084783364837
 10
2127.938470468305
 20
16.53418183256872
 10
2125.678748468259
 20
16.5341818325669
  0
HATCH
  5
2AB
330
1F
100
AcDbEntity
  8
Ech.1_2
 62
   252
440
 33554687
370
     5
100
AcDbHatch
 10
0.0
 20
0.0
 30
0.0
210
0.0
220
0.0
230
1.0
  2
SOLID
 70
     1
 71
     1
 91
        1
 92
        3
 72
     0
 73
     1
 93
        4
 10
2125.678748468259
 20
15.70084883202617
 10
2125.678748468261
 20
14.86751483310945
 10
2127.938470468305
 20
14.86751483310763
 10
2127.938470468307
 20
15.70084883202799
 97
        0
 75
     0
 76
     1
 98
        0
  0
LWPOLYLINE
  5
2AC
330
1F
100
AcDbEntity
  8
Ech.1_2
 62
     7
370
     9
100
AcDbPolyline
 90
        5
 70
     0
 43
0.0
 10
2125.678748468259
 20
15.70084883202617
 10
2125.678748468261
 20
14.86751483310945
 10
2127.938470468305
 20
14.86751483310763
 10
2127.938470468307
 20
15.70084883202799
 10
2125.678748468259
 20
15.70084883202617
  0
HATCH
  5
2AD
330
1F
100
AcDbEntity
  8
Ech.1_2
 62
   252
440
 33554687
370
     5
100
AcDbHatch
 10
0.0
 20
0.0
 30
0.0
210
0.0
220
0.0
230
1.0
  2
SOLID
 70
     1
 71
     1
 91
        1
 92
        3
 72
     0
 73
     1
 93
        4
 10
2125.678748468261
 20
14.86751483310945
 10
2125.678748468259
 20
14.03418083419092
 10
2127.938470468305
 20
14.0341808341891
 10
2127.938470468305
 20
14.86751483310763
 97
        0
 75
     0
 76
     1
 98
        0
  0
LWPOLYLINE
  5
2AE
330
1F
100
AcDbEntity
  8
Ech.1_2
 62
     7
370
     9
100
AcDbPolyline
 90
        5
 70
     0
 43
0.0
 10
2125.678748468261
 20
14.86751483310945
 10
2125.678748468259
 20
14.03418083419092
 10
2127.938470468305
 20
14.0341808341891
 10
2127.938470468305
 20
14.86751483310763
 10
2125.678748468261
 20
14.86751483310945
  0
HATCH
  5
2AF
330
1F
100
AcDbEntity
  8
Ech.1_2
 62
   252
440
 33554687
370
     5
100
AcDbHatch
 10
0.0
 20
0.0
 30
0.0
210
0.0
220
0.0
230
1.0
  2
SOLID
 70
     1
 71
     1
 91
        1
 92
        3
 72
     0
 73
     1
 93
        4
 10
2125.678748468259
 20
14.0341818325669
 10
2125.678748468259
 20
13.20084783365019
 10
2127.938470468305
 20
13.20084783364837
 10
2127.938470468305
 20
14.03418183256872
 97
        0
 75
     0
 76
     1
 98
        0
  0
LWPOLYLINE
  5
2B0
330
1F
100
AcDbEntity
  8
Ech.1_2
 62
     7
370
     9
100
AcDbPolyline
 90
        5
 70
     0
 43
0.0
 10
2125.678748468259
 20
14.0341818325669
 10
2125.678748468259
 20
13.20084783365019
 10
2127.938470468305
 20
13.20084783364837
 10
2127.938470468305
 20
14.03418183256872
 10
2125.678748468259
 20
14.0341818325669
  0
HATCH
  5
2B1
330
1F
100
AcDbEntity
  8
Ech.1_2
 62
   252
440
 33554687
370
     5
100
AcDbHatch
 10
0.0
 20
0.0
 30
0.0
210
0.0
220
0.0
230
1.0
  2
SOLID
 70
     1
 71
     1
 91
        1
 92
        3
 72
     0
 73
     1
 93
        4
 10
2125.678748468259
 20
13.20084783365019
 10
2125.678748468259
 20
12.36751383472983
 10
2127.938470468303
 20
12.36751383472983
 10
2127.938470468305
 20
13.20084783364837
 97
        0
 75
     0
 76
     1
 98
        0
  0
LWPOLYLINE
  5
2B2
330
1F
100
AcDbEntity
  8
Ech.1_2
 62
     7
370
     9
100
AcDbPolyline
 90
        5
 70
     0
 43
0.0
 10
2125.678748468259
 20
13.20084783365019
 10
2125.678748468259
 20
12.36751383472983
 10
2127.938470468303
 20
12.36751383472983
 10
2127.938470468305
 20
13.20084783364837
 10
2125.678748468259
 20
13.20084783365019
  0
HATCH
  5
2B3
330
1F
100
AcDbEntity
  8
Ech.1_2
 62
   252
440
 33554687
370
     5
100
AcDbHatch
 10
0.0
 20
0.0
 30
0.0
210
0.0
220
0.0
230
1.0
  2
SOLID
 70
     1
 71
     1
 91
        1
 92
        3
 72
     0
 73
     1
 93
        4
 10
2125.678748468259
 20
12.36751583148725
 10
2125.678748468259
 20
11.5341818325669
 10
2127.938470468303
 20
11.5341818325669
 10
2127.938470468305
 20
12.36751583148543
 97
        0
 75
     0
 76
     1
 98
        0
  0
LWPOLYLINE
  5
2B4
330
1F
100
AcDbEntity
  8
Ech.1_2
 62
     7
370
     9
100
AcDbPolyline
 90
        5
 70
     0
 43
0.0
 10
2125.678748468259
 20
12.36751583148725
 10
2125.678748468259
 20
11.5341818325669
 10
2127.938470468303
 20
11.5341818325669
 10
2127.938470468305
 20
12.36751583148543
 10
2125.678748468259
 20
12.36751583148725
  0
HATCH
  5
2B5
330
1F
100
AcDbEntity
  8
Ech.1_2
 62
   252
440
 33554687
370
     5
100
AcDbHatch
 10
0.0
 20
0.0
 30
0.0
210
0.0
220
0.0
230
1.0
  2
SOLID
 70
     1
 71
     1
 91
        1
 92
        3
 72
     0
 73
     1
 93
        4
 10
2125.678748468259
 20
11.5341818325669
 10
2125.678748468257
 20
10.70084783364837
 10
2127.938470468305
 20
10.70084783364837
 10
2127.938470468303
 20
11.5341818325669
 97
        0
 75
     0
 76
     1
 98
        0
  0
LWPOLYLINE
  5
2B6
330
1F
100
AcDbEntity
  8
Ech.1_2
 62
     7
370
     9
100
AcDbPolyline
 90
        5
 70
     0
 43
0.0
 10
2125.678748468259
 20
11.5341818325669
 10
2125.678748468257
 20
10.70084783364837
 10
2127.938470468305
 20
10.70084783364837
 10
2127.938470468303
 20
11.5341818325669
 10
2125.678748468259
 20
11.5341818325669
  0
HATCH
  5
2B7
330
1F
100
AcDbEntity
  8
Ech.1_2
 62
   252
440
 33554687
370
     5
100
AcDbHatch
 10
0.0
 20
0.0
 30
0.0
210
0.0
220
0.0
230
1.0
  2
SOLID
 70
     1
 71
     1
 91
        1
 92
        3
 72
     0
 73
     1
 93
        4
 10
2125.678748468257
 20
10.70084783364837
 10
2125.678748468259
 20
9.867513834729834
 10
2127.938470468307
 20
9.867513834731653
 10
2127.938470468305
 20
10.70084783364837
 97
        0
 75
     0
 76
     1
 98
        0
  0
LWPOLYLINE
  5
2B8
330
1F
100
AcDbEntity
  8
Ech.1_2
 62
     7
370
     9
100
AcDbPolyline
 90
        5
 70
     0
 43
0.0
 10
2125.678748468257
 20
10.70084783364837
 10
2125.678748468259
 20
9.867513834729834
 10
2127.938470468307
 20
9.867513834731653
 10
2127.938470468305
 20
10.70084783364837
 10
2125.678748468257
 20
10.70084783364837
  0
HATCH
  5
2B9
330
1F
100
AcDbEntity
  8
Ech.1_2
 62
   252
440
 33554687
370
     5
100
AcDbHatch
 10
0.0
 20
0.0
 30
0.0
210
0.0
220
0.0
230
1.0
  2
SOLID
 70
     1
 71
     1
 91
        1
 92
        3
 72
     0
 73
     1
 93
        4
 10
2125.678748468259
 20
9.867513834729834
 10
2125.678748468259
 20
9.034179835811301
 10
2127.938470468305
 20
9.034179835811301
 10
2127.938470468307
 20
9.867513834731653
 97
        0
 75
     0
 76
     1
 98
        0
  0
LWPOLYLINE
  5
2BA
330
1F
100
AcDbEntity
  8
Ech.1_2
 62
     7
370
     9
100
AcDbPolyline
 90
        5
 70
     0
 43
0.0
 10
2125.678748468259
 20
9.867513834729834
 10
2125.678748468259
 20
9.034179835811301
 10
2127.938470468305
 20
9.034179835811301
 10
2127.938470468307
 20
9.867513834731653
 10
2125.678748468259
 20
9.867513834729834
  0
HATCH
  5
2BB
330
1F
100
AcDbEntity
  8
Ech.1_2
 62
   252
440
 33554687
370
     5
100
AcDbHatch
 10
0.0
 20
0.0
 30
0.0
210
0.0
220
0.0
230
1.0
  2
SOLID
 70
     1
 71
     1
 91
        1
 92
        3
 72
     0
 73
     1
 93
        4
 10
2125.678748468259
 20
9.034179835811301
 10
2125.678748468259
 20
8.200845836894587
 10
2127.938470468305
 20
8.200845836892768
 10
2127.938470468305
 20
9.034179835811301
 97
        0
 75
     0
 76
     1
 98
        0
  0
LWPOLYLINE
  5
2BC
330
1F
100
AcDbEntity
  8
Ech.1_2
 62
     7
370
     9
100
AcDbPolyline
 90
        5
 70
     0
 43
0.0
 10
2125.678748468259
 20
9.034179835811301
 10
2125.678748468259
 20
8.200845836894587
 10
2127.938470468305
 20
8.200845836892768
 10
2127.938470468305
 20
9.034179835811301
 10
2125.678748468259
 20
9.034179835811301
  0
HATCH
  5
2BD
330
1F
100
AcDbEntity
  8
Ech.1_2
 62
   252
440
 33554687
370
     5
100
AcDbHatch
 10
0.0
 20
0.0
 30
0.0
210
0.0
220
0.0
230
1.0
  2
SOLID
 70
     1
 71
     1
 91
        1
 92
        3
 72
     0
 73
     1
 93
        4
 10
2125.678748468257
 20
8.200847833648368
 10
2125.678748468259
 20
7.367513834731653
 10
2127.938470468305
 20
7.367513834729834
 10
2127.938470468305
 20
8.200847833648368
 97
        0
 75
     0
 76
     1
 98
        0
  0
LWPOLYLINE
  5
2BE
330
1F
100
AcDbEntity
  8
Ech.1_2
 62
     7
370
     9
100
AcDbPolyline
 90
        5
 70
     0
 43
0.0
 10
2125.678748468257
 20
8.200847833648368
 10
2125.678748468259
 20
7.367513834731653
 10
2127.938470468305
 20
7.367513834729834
 10
2127.938470468305
 20
8.200847833648368
 10
2125.678748468257
 20
8.200847833648368
  0
HATCH
  5
2BF
330
1F
100
AcDbEntity
  8
Ech.1_2
 62
   252
440
 33554687
370
     5
100
AcDbHatch
 10
0.0
 20
0.0
 30
0.0
210
0.0
220
0.0
230
1.0
  2
SOLID
 70
     1
 71
     1
 91
        1
 92
        3
 72
     0
 73
     1
 93
        4
 10
2125.678748468259
 20
7.367514833107634
 10
2125.678748468261
 20
6.53418083419092
 10
2127.938470468305
 20
6.53418083419092
 10
2127.938470468307
 20
7.367514833107634
 97
        0
 75
     0
 76
     1
 98
        0
  0
LWPOLYLINE
  5
2C0
330
1F
100
AcDbEntity
  8
Ech.1_2
 62
     7
370
     9
100
AcDbPolyline
 90
        5
 70
     0
 43
0.0
 10
2125.678748468259
 20
7.367514833107634
 10
2125.678748468261
 20
6.53418083419092
 10
2127.938470468305
 20
6.53418083419092
 10
2127.938470468307
 20
7.367514833107634
 10
2125.678748468259
 20
7.367514833107634
  0
HATCH
  5
2C1
330
1F
100
AcDbEntity
  8
Ech.1_2
 62
   252
440
 33554687
370
     5
100
AcDbHatch
 10
0.0
 20
0.0
 30
0.0
210
0.0
220
0.0
230
1.0
  2
SOLID
 70
     1
 71
     1
 91
        1
 92
        3
 72
     0
 73
     1
 93
        4
 10
2125.678748468261
 20
6.53418083419092
 10
2125.678748468259
 20
5.700846835270568
 10
2127.938470468303
 20
5.700846835270568
 10
2127.938470468305
 20
6.53418083419092
 97
        0
 75
     0
 76
     1
 98
        0
  0
LWPOLYLINE
  5
2C2
330
1F
100
AcDbEntity
  8
Ech.1_2
 62
     7
370
     9
100
AcDbPolyline
 90
        5
 70
     0
 43
0.0
 10
2125.678748468261
 20
6.53418083419092
 10
2125.678748468259
 20
5.700846835270568
 10
2127.938470468303
 20
5.700846835270568
 10
2127.938470468305
 20
6.53418083419092
 10
2125.678748468261
 20
6.53418083419092
  0
HATCH
  5
2C3
330
1F
100
AcDbEntity
  8
Ech.1_2
 62
   252
440
 33554687
370
     5
100
AcDbHatch
 10
0.0
 20
0.0
 30
0.0
210
0.0
220
0.0
230
1.0
  2
SOLID
 70
     1
 71
     1
 91
        1
 92
        3
 72
     0
 73
     1
 93
        4
 10
2125.678748468259
 20
5.700847833648368
 10
2125.678748468259
 20
4.867513834729834
 10
2127.938470468305
 20
4.867513834729834
 10
2127.938470468305
 20
5.700847833650187
 97
        0
 75
     0
 76
     1
 98
        0
  0
LWPOLYLINE
  5
2C4
330
1F
100
AcDbEntity
  8
Ech.1_2
 62
     7
370
     9
100
AcDbPolyline
 90
        5
 70
     0
 43
0.0
 10
2125.678748468259
 20
5.700847833648368
 10
2125.678748468259
 20
4.867513834729834
 10
2127.938470468305
 20
4.867513834729834
 10
2127.938470468305
 20
5.700847833650187
 10
2125.678748468259
 20
5.700847833648368
  0
HATCH
  5
2C5
330
1F
100
AcDbEntity
  8
Ech.1_2
 62
   252
440
 33554687
370
     5
100
AcDbHatch
 10
0.0
 20
0.0
 30
0.0
210
0.0
220
0.0
230
1.0
  2
SOLID
 70
     1
 71
     1
 91
        1
 92
        3
 72
     0
 73
     1
 93
        4
 10
2125.678748468259
 20
4.867513834729834
 10
2125.678748468259
 20
4.034179835811301
 10
2127.938470468305
 20
4.03417983581312
 10
2127.938470468305
 20
4.867513834729834
 97
        0
 75
     0
 76
     1
 98
        0
  0
LWPOLYLINE
  5
2C6
330
1F
100
AcDbEntity
  8
Ech.1_2
 62
     7
370
     9
100
AcDbPolyline
 90
        5
 70
     0
 43
0.0
 10
2125.678748468259
 20
4.867513834729834
 10
2125.678748468259
 20
4.034179835811301
 10
2127.938470468305
 20
4.03417983581312
 10
2127.938470468305
 20
4.867513834729834
 10
2125.678748468259
 20
4.867513834729834
  0
HATCH
  5
2C7
330
1F
100
AcDbEntity
  8
Ech.1_2
 62
   252
440
 33554687
370
     5
100
AcDbHatch
 10
0.0
 20
0.0
 30
0.0
210
0.0
220
0.0
230
1.0
  2
SOLID
 70
     1
 71
     1
 91
        1
 92
        3
 72
     0
 73
     1
 93
        4
 10
2125.678748468259
 20
4.034181832566901
 10
2125.678748468259
 20
3.200847833648368
 10
2127.938470468305
 20
3.200847833648368
 10
2127.938470468305
 20
4.034181832566901
 97
        0
 75
     0
 76
     1
 98
        0
  0
LWPOLYLINE
  5
2C8
330
1F
100
AcDbEntity
  8
Ech.1_2
 62
     7
370
     9
100
AcDbPolyline
 90
        5
 70
     0
 43
0.0
 10
2125.678748468259
 20
4.034181832566901
 10
2125.678748468259
 20
3.200847833648368
 10
2127.938470468305
 20
3.200847833648368
 10
2127.938470468305
 20
4.034181832566901
 10
2125.678748468259
 20
4.034181832566901
  0
HATCH
  5
2C9
330
1F
100
AcDbEntity
  8
Ech.1_2
 62
   252
440
 33554687
370
     5
100
AcDbHatch
 10
0.0
 20
0.0
 30
0.0
210
0.0
220
0.0
230
1.0
  2
SOLID
 70
     1
 71
     1
 91
        1
 92
        3
 72
     0
 73
     1
 93
        4
 10
2125.678748468259
 20
3.200849830403968
 10
2125.678748468259
 20
2.367515831485434
 10
2127.938470468305
 20
2.367515831485434
 10
2127.938470468305
 20
3.200849830403968
 97
        0
 75
     0
 76
     1
 98
        0
  0
LWPOLYLINE
  5
2CA
330
1F
100
AcDbEntity
  8
Ech.1_2
 62
     7
370
     9
100
AcDbPolyline
 90
        5
 70
     0
 43
0.0
 10
2125.678748468259
 20
3.200849830403968
 10
2125.678748468259
 20
2.367515831485434
 10
2127.938470468305
 20
2.367515831485434
 10
2127.938470468305
 20
3.200849830403968
 10
2125.678748468259
 20
3.200849830403968
  0
HATCH
  5
2CB
330
1F
100
AcDbEntity
  8
Ech.1_2
 62
   252
440
 33554687
370
     5
100
AcDbHatch
 10
0.0
 20
0.0
 30
0.0
210
0.0
220
0.0
230
1.0
  2
SOLID
 70
     1
 71
     1
 91
        1
 92
        3
 72
     0
 73
     1
 93
        4
 10
2125.678748468259
 20
2.367515831485434
 10
2125.678748468257
 20
1.534181832566901
 10
2127.938470468305
 20
1.534181832566901
 10
2127.938470468305
 20
2.367515831485434
 97
        0
 75
     0
 76
     1
 98
        0
  0
LWPOLYLINE
  5
2CC
330
1F
100
AcDbEntity
  8
Ech.1_2
 62
     7
370
     9
100
AcDbPolyline
 90
        5
 70
     0
 43
0.0
 10
2125.678748468259
 20
2.367515831485434
 10
2125.678748468257
 20
1.534181832566901
 10
2127.938470468305
 20
1.534181832566901
 10
2127.938470468305
 20
2.367515831485434
 10
2125.678748468259
 20
2.367515831485434
  0
HATCH
  5
2CD
330
1F
100
AcDbEntity
  8
Ech.1_2
 62
   252
440
 33554687
370
     5
100
AcDbHatch
 10
0.0
 20
0.0
 30
0.0
210
0.0
220
0.0
230
1.0
  2
SOLID
 70
     1
 71
     1
 91
        1
 92
        3
 72
     0
 73
     1
 93
        4
 10
2125.678748468257
 20
1.534181832566901
 10
2125.678748468259
 20
0.7008478336483677
 10
2127.938470468307
 20
0.7008478336501867
 10
2127.938470468305
 20
1.534181832566901
 97
        0
 75
     0
 76
     1
 98
        0
  0
LWPOLYLINE
  5
2CE
330
1F
100
AcDbEntity
  8
Ech.1_2
 62
     7
370
     9
100
AcDbPolyline
 90
        5
 70
     0
 43
0.0
 10
2125.678748468257
 20
1.534181832566901
 10
2125.678748468259
 20
0.7008478336483677
 10
2127.938470468307
 20
0.7008478336501867
 10
2127.938470468305
 20
1.534181832566901
 10
2125.678748468257
 20
1.534181832566901
  0
HATCH
  5
2CF
330
1F
100
AcDbEntity
  8
Ech.1_2
 62
   252
440
 33554687
370
     5
100
AcDbHatch
 10
0.0
 20
0.0
 30
0.0
210
0.0
220
0.0
230
1.0
  2
SOLID
 70
     1
 71
     1
 91
        1
 92
        3
 72
     0
 73
     1
 93
        4
 10
2125.678748468259
 20
0.7008478336483677
 10
2125.678748468261
 20
-0.1324861652683467
 10
2127.938470468305
 20
-0.1324861652701657
 10
2127.938470468307
 20
0.7008478336501867
 97
        0
 75
     0
 76
     1
 98
        0
  0
LWPOLYLINE
  5
2D0
330
1F
100
AcDbEntity
  8
Ech.1_2
 62
     7
370
     9
100
AcDbPolyline
 90
        5
 70
     0
 43
0.0
 10
2125.678748468259
 20
0.7008478336483677
 10
2125.678748468261
 20
-0.1324861652683467
 10
2127.938470468305
 20
-0.1324861652701657
 10
2127.938470468307
 20
0.7008478336501867
 10
2125.678748468259
 20
0.7008478336483677
  0
HATCH
  5
2D1
330
1F
100
AcDbEntity
  8
Ech.1_2
 62
   252
440
 33554687
370
     5
100
AcDbHatch
 10
0.0
 20
0.0
 30
0.0
210
0.0
220
0.0
230
1.0
  2
SOLID
 70
     1
 71
     1
 91
        1
 92
        3
 72
     0
 73
     1
 93
        4
 10
2125.678748468259
 20
-0.1324841685145657
 10
2125.678748468261
 20
-0.96581816743128
 10
2127.938470468305
 20
-0.965818167433099
 10
2127.938470468307
 20
-0.1324841685127467
 97
        0
 75
     0
 76
     1
 98
        0
  0
LWPOLYLINE
  5
2D2
330
1F
100
AcDbEntity
  8
Ech.1_2
 62
     7
370
     9
100
AcDbPolyline
 90
        5
 70
     0
 43
0.0
 10
2125.678748468259
 20
-0.1324841685145657
 10
2125.678748468261
 20
-0.96581816743128
 10
2127.938470468305
 20
-0.965818167433099
 10
2127.938470468307
 20
-0.1324841685127467
 10
2125.678748468259
 20
-0.1324841685145657
  0
HATCH
  5
2D3
330
1F
100
AcDbEntity
  8
Ech.1_2
 62
   252
440
 33554687
370
     5
100
AcDbHatch
 10
0.0
 20
0.0
 30
0.0
210
0.0
220
0.0
230
1.0
  2
SOLID
 70
     1
 71
     1
 91
        1
 92
        3
 72
     0
 73
     1
 93
        4
 10
2125.678748468259
 20
-0.965817169055299
 10
2125.678748468259
 20
-1.799151167973832
 10
2127.938470468305
 20
-1.799151167972013
 10
2127.938470468305
 20
-0.965817169055299
 97
        0
 75
     0
 76
     1
 98
        0
  0
LWPOLYLINE
  5
2D4
330
1F
100
AcDbEntity
  8
Ech.1_2
 62
     7
370
     9
100
AcDbPolyline
 90
        5
 70
     0
 43
0.0
 10
2125.678748468259
 20
-0.965817169055299
 10
2125.678748468259
 20
-1.799151167973832
 10
2127.938470468305
 20
-1.799151167972013
 10
2127.938470468305
 20
-0.965817169055299
 10
2125.678748468259
 20
-0.965817169055299
  0
HATCH
  5
2D5
330
1F
100
AcDbEntity
  8
Ech.1_2
 62
   252
440
 33554687
370
     5
100
AcDbHatch
 10
0.0
 20
0.0
 30
0.0
210
0.0
220
0.0
230
1.0
  2
SOLID
 70
     1
 71
     1
 91
        1
 92
        3
 72
     0
 73
     1
 93
        4
 10
2125.678748468259
 20
-1.799151167973832
 10
2125.678748468259
 20
-2.632485166890547
 10
2127.938470468305
 20
-2.632485166892366
 10
2127.938470468305
 20
-1.799151167972013
 97
        0
 75
     0
 76
     1
 98
        0
  0
LWPOLYLINE
  5
2D6
330
1F
100
AcDbEntity
  8
Ech.1_2
 62
     7
370
     9
100
AcDbPolyline
 90
        5
 70
     0
 43
0.0
 10
2125.678748468259
 20
-1.799151167973832
 10
2125.678748468259
 20
-2.632485166890547
 10
2127.938470468305
 20
-2.632485166892366
 10
2127.938470468305
 20
-1.799151167972013
 10
2125.678748468259
 20
-1.799151167973832
  0
HATCH
  5
2D7
330
1F
100
AcDbEntity
  8
Ech.1_2
 62
   252
440
 33554687
370
     5
100
AcDbHatch
 10
0.0
 20
0.0
 30
0.0
210
0.0
220
0.0
230
1.0
  2
SOLID
 70
     1
 71
     1
 91
        1
 92
        3
 72
     0
 73
     1
 93
        4
 10
2125.678748468259
 20
-2.632484168512747
 10
2125.678748468259
 20
-3.465818167433099
 10
2127.938470468305
 20
-3.465818167433099
 10
2127.938470468303
 20
-2.632484168514566
 97
        0
 75
     0
 76
     1
 98
        0
  0
LWPOLYLINE
  5
2D8
330
1F
100
AcDbEntity
  8
Ech.1_2
 62
     7
370
     9
100
AcDbPolyline
 90
        5
 70
     0
 43
0.0
 10
2125.678748468259
 20
-2.632484168512747
 10
2125.678748468259
 20
-3.465818167433099
 10
2127.938470468305
 20
-3.465818167433099
 10
2127.938470468303
 20
-2.632484168514566
 10
2125.678748468259
 20
-2.632484168512747
  0
HATCH
  5
2D9
330
1F
100
AcDbEntity
  8
Ech.1_2
 62
   252
440
 33554687
370
     5
100
AcDbHatch
 10
0.0
 20
0.0
 30
0.0
210
0.0
220
0.0
230
1.0
  2
SOLID
 70
     1
 71
     1
 91
        1
 92
        3
 72
     0
 73
     1
 93
        4
 10
2125.678748468259
 20
-3.465818167433099
 10
2125.678748468259
 20
-4.299152166351632
 10
2127.938470468305
 20
-4.299152166351632
 10
2127.938470468305
 20
-3.465818167433099
 97
        0
 75
     0
 76
     1
 98
        0
  0
LWPOLYLINE
  5
2DA
330
1F
100
AcDbEntity
  8
Ech.1_2
 62
     7
370
     9
100
AcDbPolyline
 90
        5
 70
     0
 43
0.0
 10
2125.678748468259
 20
-3.465818167433099
 10
2125.678748468259
 20
-4.299152166351632
 10
2127.938470468305
 20
-4.299152166351632
 10
2127.938470468305
 20
-3.465818167433099
 10
2125.678748468259
 20
-3.465818167433099
  0
HATCH
  5
2DB
330
1F
100
AcDbEntity
  8
Ech.1_2
 62
   252
440
 33554687
370
     5
100
AcDbHatch
 10
0.0
 20
0.0
 30
0.0
210
0.0
220
0.0
230
1.0
  2
SOLID
 70
     1
 71
     1
 91
        1
 92
        3
 72
     0
 73
     1
 93
        4
 10
2125.678748468259
 20
-4.299150169596032
 10
2125.678748468259
 20
-5.132484168514566
 10
2127.938470468305
 20
-5.132484168514566
 10
2127.938470468305
 20
-4.299150169596032
 97
        0
 75
     0
 76
     1
 98
        0
  0
LWPOLYLINE
  5
2DC
330
1F
100
AcDbEntity
  8
Ech.1_2
 62
     7
370
     9
100
AcDbPolyline
 90
        5
 70
     0
 43
0.0
 10
2125.678748468259
 20
-4.299150169596032
 10
2125.678748468259
 20
-5.132484168514566
 10
2127.938470468305
 20
-5.132484168514566
 10
2127.938470468305
 20
-4.299150169596032
 10
2125.678748468259
 20
-4.299150169596032
  0
HATCH
  5
2DD
330
1F
100
AcDbEntity
  8
Ech.1_2
 62
   252
440
 33554687
370
     5
100
AcDbHatch
 10
0.0
 20
0.0
 30
0.0
210
0.0
220
0.0
230
1.0
  2
SOLID
 70
     1
 71
     1
 91
        1
 92
        3
 72
     0
 73
     1
 93
        4
 10
2125.678748468259
 20
-5.132484168514566
 10
2125.678748468259
 20
-5.965818167433099
 10
2127.938470468305
 20
-5.96581816743128
 10
2127.938470468305
 20
-5.132484168514566
 97
        0
 75
     0
 76
     1
 98
        0
  0
LWPOLYLINE
  5
2DE
330
1F
100
AcDbEntity
  8
Ech.1_2
 62
     7
370
     9
100
AcDbPolyline
 90
        5
 70
     0
 43
0.0
 10
2125.678748468259
 20
-5.132484168514566
 10
2125.678748468259
 20
-5.965818167433099
 10
2127.938470468305
 20
-5.96581816743128
 10
2127.938470468305
 20
-5.132484168514566
 10
2125.678748468259
 20
-5.132484168514566
  0
HATCH
  5
2DF
330
1F
100
AcDbEntity
  8
Ech.1_2
 62
   252
440
 33554687
370
     5
100
AcDbHatch
 10
0.0
 20
0.0
 30
0.0
210
0.0
220
0.0
230
1.0
  2
SOLID
 70
     1
 71
     1
 91
        1
 92
        3
 72
     0
 73
     1
 93
        4
 10
2125.678748468259
 20
-5.965818167433099
 10
2125.678748468259
 20
-6.799152166351632
 10
2127.938470468305
 20
-6.799152166351632
 10
2127.938470468305
 20
-5.96581816743128
 97
        0
 75
     0
 76
     1
 98
        0
  0
LWPOLYLINE
  5
2E0
330
1F
100
AcDbEntity
  8
Ech.1_2
 62
     7
370
     9
100
AcDbPolyline
 90
        5
 70
     0
 43
0.0
 10
2125.678748468259
 20
-5.965818167433099
 10
2125.678748468259
 20
-6.799152166351632
 10
2127.938470468305
 20
-6.799152166351632
 10
2127.938470468305
 20
-5.96581816743128
 10
2125.678748468259
 20
-5.965818167433099
  0
HATCH
  5
2E1
330
1F
100
AcDbEntity
  8
Ech.1_2
 62
   252
440
 33554687
370
     5
100
AcDbHatch
 10
0.0
 20
0.0
 30
0.0
210
0.0
220
0.0
230
1.0
  2
SOLID
 70
     1
 71
     1
 91
        1
 92
        3
 72
     0
 73
     1
 93
        4
 10
2125.678748468259
 20
-6.799152166351632
 10
2125.678748468259
 20
-7.632486165270166
 10
2127.938470468305
 20
-7.632486165270166
 10
2127.938470468305
 20
-6.799152166351632
 97
        0
 75
     0
 76
     1
 98
        0
  0
LWPOLYLINE
  5
2E2
330
1F
100
AcDbEntity
  8
Ech.1_2
 62
     7
370
     9
100
AcDbPolyline
 90
        5
 70
     0
 43
0.0
 10
2125.678748468259
 20
-6.799152166351632
 10
2125.678748468259
 20
-7.632486165270166
 10
2127.938470468305
 20
-7.632486165270166
 10
2127.938470468305
 20
-6.799152166351632
 10
2125.678748468259
 20
-6.799152166351632
  0
HATCH
  5
2E3
330
1F
100
AcDbEntity
  8
Ech.1_2
 62
   252
440
 33554687
370
     5
100
AcDbHatch
 10
0.0
 20
0.0
 30
0.0
210
0.0
220
0.0
230
1.0
  2
SOLID
 70
     1
 71
     1
 91
        1
 92
        3
 72
     1
 73
     1
 93
        4
 10
2127.938470468305
 20
-12.33156816701921
 42
0.0
 10
2127.938470468305
 20
-10.9658161706775
 42
0.0
 10
2125.678748468261
 20
-10.96581617067568
 42
0.0
 10
2125.678748468261
 20
-12.33156816701921
 42
-0.3513591548521797
 97
        0
 75
     0
 76
     1
 98
        0
  0
LWPOLYLINE
  5
2E4
330
1F
100
AcDbEntity
  8
Ech.1_2
 62
     7
370
     9
100
AcDbPolyline
 90
        5
 70
     0
 43
0.0
 10
2127.938470468305
 20
-12.33156816701921
 10
2127.938470468305
 20
-10.9658161706775
 10
2125.678748468261
 20
-10.96581617067568
 10
2125.678748468261
 20
-12.33156816701921
 42
-0.3513591548521791
 10
2127.938470468305
 20
-12.33156816701921
  0
HATCH
  5
2E5
330
1F
100
AcDbEntity
  8
Ech.1_2
 62
   252
440
 33554687
370
     5
100
AcDbHatch
 10
0.0
 20
0.0
 30
0.0
210
0.0
220
0.0
230
1.0
  2
SOLID
 70
     1
 71
     1
 91
        1
 92
        3
 72
     1
 73
     1
 93
        3
 10
2126.808609468311
 20
-14.99359516839831
 42
0.0
 10
2127.938470468305
 20
-12.33156816701921
 42
0.3513591548521797
 10
2125.678748468261
 20
-12.33156816701921
 42
0.0
 97
        0
 75
     0
 76
     1
 98
        0
  0
LWPOLYLINE
  5
2E6
330
1F
100
AcDbEntity
  8
Ech.1_2
 62
     7
370
     9
100
AcDbPolyline
 90
        4
 70
     0
 43
0.0
 10
2126.808609468311
 20
-14.99359516839831
 10
2127.938470468305
 20
-12.33156816701921
 42
0.3513591548521784
 10
2125.678748468261
 20
-12.33156816701921
 10
2126.808609468311
 20
-14.99359516839831
  0
HATCH
  5
2E7
330
1F
100
AcDbEntity
  8
Ech.1_2
 62
   252
440
 33554687
370
     5
100
AcDbHatch
 10
0.0
 20
0.0
 30
0.0
210
0.0
220
0.0
230
1.0
  2
SOLID
 70
     1
 71
     1
 91
        1
 92
        3
 72
     1
 73
     1
 93
        6
 10
2125.678748468259
 20
28.20084983040579
 42
0.0
 10
2125.678748468259
 20
29.95084883232266
 42
0.4142135727361107
 10
2125.123192468282
 20
30.50640483159987
 42
0.0
 10
2128.494026468341
 20
30.50640483159987
 42
0.4142135726628555
 10
2127.938470468305
 20
29.95084883232084
 42
0.0
 10
2127.938470468305
 20
28.20084983040397
 42
0.0
 97
        0
 75
     0
 76
     1
 98
        0
  0
LWPOLYLINE
  5
2E8
330
1F
100
AcDbEntity
  8
Ech.1_2
 62
     7
370
     9
100
AcDbPolyline
 90
        7
 70
     0
 43
0.0
 10
2125.678748468259
 20
28.20084983040579
 10
2125.678748468259
 20
29.95084883232266
 42
0.4142135727357263
 10
2125.123192468282
 20
30.50640483159987
 10
2128.494026468341
 20
30.50640483159987
 42
0.4142135726626001
 10
2127.938470468305
 20
29.95084883232084
 10
2127.938470468305
 20
28.20084983040397
 10
2125.678748468259
 20
28.20084983040579
  0
HATCH
  5
2E9
330
1F
100
AcDbEntity
  8
Ech.1_2
 62
   252
440
 33554687
370
     5
100
AcDbHatch
 10
0.0
 20
0.0
 30
0.0
210
0.0
220
0.0
230
1.0
  2
SOLID
 70
     1
 71
     1
 91
        1
 92
        1
 93
        2
 72
     1
 10
2124.289859441895
 20
30.81195983250109
 11
2129.327359494668
 21
30.81195983250109
 72
     2
 10
2126.808609468281
 20
18.24875644175491
 40
12.81320339074808
 50
78.66327935023192
 51
101.3367206497681
 73
     1
 97
        0
 75
     0
 76
     1
 98
        0
  0
LWPOLYLINE
  5
2EA
330
1F
100
AcDbEntity
  8
Ech.1_2
 62
     7
370
     9
100
AcDbPolyline
 90
        3
 70
     0
 43
0.0
 10
2124.289859441895
 20
30.81195983250109
 10
2129.327359494668
 20
30.81195983250109
 42
0.0992555820875019
 10
2124.289859441895
 20
30.81195983250109
  0
HATCH
  5
2EB
330
1F
100
AcDbEntity
  8
Ech.1_2
 62
   252
440
 33554687
370
     5
100
AcDbHatch
 10
0.0
 20
0.0
 30
0.0
210
0.0
220
0.0
230
1.0
  2
SOLID
 70
     1
 71
     1
 91
        1
 92
        3
 72
     0
 73
     1
 93
        6
 10
2124.289859468321
 20
30.50640483159987
 10
2125.123192468282
 20
30.50640483159987
 10
2128.494026468341
 20
30.50640483159987
 10
2129.3273594683
 20
30.50640483159987
 10
2129.327359494668
 20
30.81195983250109
 10
2124.289859441895
 20
30.81195983250109
 97
        0
 75
     0
 76
     1
 98
        0
  0
LWPOLYLINE
  5
2EC
330
1F
100
AcDbEntity
  8
Ech.1_2
 62
     7
370
     9
100
AcDbPolyline
 90
        7
 70
     0
 43
0.0
 10
2124.289859468321
 20
30.50640483159987
 10
2125.123192468282
 20
30.50640483159987
 10
2128.494026468341
 20
30.50640483159987
 10
2129.3273594683
 20
30.50640483159987
 10
2129.327359494668
 20
30.81195983250109
 10
2124.289859441895
 20
30.81195983250109
 10
2124.289859468321
 20
30.50640483159987
  0
HATCH
  5
2ED
330
1F
100
AcDbEntity
  8
Ech.1_2
 62
   252
440
 33554687
370
     5
100
AcDbHatch
 10
0.0
 20
0.0
 30
0.0
210
0.0
220
0.0
230
1.0
  2
SOLID
 70
     1
 71
     1
 91
        1
 92
        3
 72
     0
 73
     1
 93
        4
 10
2125.678748468259
 20
-7.632486165270166
 10
2125.678748468259
 20
-8.46582016418688
 10
2127.938470468305
 20
-8.46582016418688
 10
2127.938470468305
 20
-7.632486165270166
 97
        0
 75
     0
 76
     1
 98
        0
  0
LWPOLYLINE
  5
2EE
330
1F
100
AcDbEntity
  8
Ech.1_2
 62
     7
370
     9
100
AcDbPolyline
 90
        5
 70
     0
 43
0.0
 10
2125.678748468259
 20
-7.632486165270166
 10
2125.678748468259
 20
-8.46582016418688
 10
2127.938470468305
 20
-8.46582016418688
 10
2127.938470468305
 20
-7.632486165270166
 10
2125.678748468259
 20
-7.632486165270166
  0
LINE
  5
2EF
330
1F
100
AcDbEntity
  8
Ech.1_2
 62
   190
370
     9
100
AcDbLine
 10
2127.938470468305
 20
-9.299150169596032
 30
0.0
 11
2125.678748468259
 21
-9.299150169596032
 31
0.0
  0
LINE
  5
2F0
330
1F
100
AcDbEntity
  8
Ech.1_2
 62
   190
370
     9
100
AcDbLine
 10
2127.938470468305
 20
-10.13248416851457
 30
0.0
 11
2125.678748468261
 21
-10.13248416851275
 31
0.0
  0
LINE
  5
2F1
330
1F
100
AcDbEntity
  8
Ech.1_2
 62
   190
370
     9
100
AcDbLine
 10
2127.938470468305
 20
-10.9658161706775
 30
0.0
 11
2125.678748468261
 21
-10.96581617067568
 31
0.0
  0
LINE
  5
2F2
330
1F
100
AcDbEntity
  8
Ech.1_2
 62
   190
370
     9
100
AcDbLine
 10
2127.938470468305
 20
-8.465818167433099
 30
0.0
 11
2125.678748468259
 21
-8.465818167433099
 31
0.0
  0
HATCH
  5
2F3
330
1F
100
AcDbEntity
  8
Ech.1_2
 62
   252
440
 33554687
370
     5
100
AcDbHatch
 10
0.0
 20
0.0
 30
0.0
210
0.0
220
0.0
230
1.0
  2
SOLID
 70
     1
 71
     1
 91
        1
 92
        3
 72
     0
 73
     1
 93
        4
 10
2125.678748468259
 20
-8.46581617067568
 10
2125.678748468259
 20
-9.299150169596032
 10
2127.938470468305
 20
-9.299150169596032
 10
2127.938470468305
 20
-8.465816170677499
 97
        0
 75
     0
 76
     1
 98
        0
  0
LWPOLYLINE
  5
2F4
330
1F
100
AcDbEntity
  8
Ech.1_2
 62
     7
370
     9
100
AcDbPolyline
 90
        5
 70
     0
 43
0.0
 10
2125.678748468259
 20
-8.46581617067568
 10
2125.678748468259
 20
-9.299150169596032
 10
2127.938470468305
 20
-9.299150169596032
 10
2127.938470468305
 20
-8.465816170677499
 10
2125.678748468259
 20
-8.46581617067568
  0
HATCH
  5
2F5
330
1F
100
AcDbEntity
  8
Ech.1_2
 62
   252
440
 33554687
370
     5
100
AcDbHatch
 10
0.0
 20
0.0
 30
0.0
210
0.0
220
0.0
230
1.0
  2
SOLID
 70
     1
 71
     1
 91
        1
 92
        3
 72
     0
 73
     1
 93
        4
 10
2125.678748468259
 20
-10.13248217175897
 10
2125.678748468261
 20
-10.96581617067568
 10
2127.938470468305
 20
-10.9658161706775
 10
2127.938470468307
 20
-10.13248217175897
 97
        0
 75
     0
 76
     1
 98
        0
  0
LWPOLYLINE
  5
2F6
330
1F
100
AcDbEntity
  8
Ech.1_2
 62
     7
370
     9
100
AcDbPolyline
 90
        5
 70
     0
 43
0.0
 10
2125.678748468259
 20
-10.13248217175897
 10
2125.678748468261
 20
-10.96581617067568
 10
2127.938470468305
 20
-10.9658161706775
 10
2127.938470468307
 20
-10.13248217175897
 10
2125.678748468259
 20
-10.13248217175897
  0
LINE
  5
2F7
330
1F
100
AcDbEntity
  8
Ech.1_2
 62
   190
370
     9
100
AcDbLine
 10
2129.3273594683
 20
30.81195983250109
 30
0.0
 11
2124.289859468323
 21
30.81195983250109
 31
0.0
  0
LWPOLYLINE
  5
2F8
330
1F
100
AcDbEntity
  8
Ech.1_2
 62
     7
370
    20
100
AcDbPolyline
 90
       16
 70
     0
 43
0.0
 10
2112.795607023467
 20
-81.24910193661526
 10
2035.191996912166
 20
-81.24910193661526
 42
0.453913337307332
 10
2033.614537870781
 20
-83.86244797678955
 10
2034.985459724499
 20
-87.42798163372754
 42
0.2543174404515988
 10
2036.411917418891
 20
-88.68197901308486
 10
2055.228479047868
 20
-88.68197901308486
 10
2055.228479047868
 20
-95.2254270842459
 10
2042.6877921169
 20
-95.2254270842459
 10
2042.6877921169
 20
-101.2634055607341
 10
2073.039853193224
 20
-101.2634055607341
 10
2077.039853192933
 20
-97.2634055610215
 10
2081.039853192933
 20
-101.2634055607341
 10
2100.544144818728
 20
-101.2634055607341
 10
2104.544144818437
 20
-97.2634055610215
 10
2108.544144818437
 20
-101.2634055607341
 10
2112.795607023467
 20
-101.2634055607341
  0
LWPOLYLINE
  5
2F9
330
1F
100
AcDbEntity
  8
Ech.1_2
 62
     7
370
    20
100
AcDbPolyline
 90
       15
 70
     0
 43
0.0
 10
2109.538787124913
 20
-101.2634055607323
 10
2129.687792116902
 20
-101.2634055607323
 10
2129.687792116902
 20
-94.79324632046337
 10
2137.580625979843
 20
-94.79324632046337
 10
2141.531714850333
 20
-93.5495694719757
 10
2141.531714850333
 20
-90.05452192339908
 10
2138.871874457198
 20
-89.2436987080855
 10
2128.178996787357
 20
-89.2436987080855
 10
2126.998620469343
 20
-90.15603412315613
 10
2125.92643905413
 20
-89.2436987080855
 10
2117.80070416182
 20
-89.2436987080855
 42
-0.3131334096943191
 10
2115.983394808181
 20
-87.942163242471
 10
2113.96854144292
 20
-82.30131438246826
 42
0.2555986236769957
 10
2112.795607023467
 20
-81.24910193661344
 10
2099.801092490687
 20
-81.24910193661344
  0
HATCH
  5
2FA
330
1F
100
AcDbEntity
  8
Ech.1_2
 62
    17
420
  8405056
440
 33554687
370
    20
100
AcDbHatch
 10
0.0
 20
0.0
 30
0.0
210
0.0
220
0.0
230
1.0
  2
SOLID
 70
     1
 71
     1
 91
        1
 92
        3
 72
     1
 73
     1
 93
       27
 10
2137.580625979843
 20
-94.79324632046337
 42
0.0
 10
2129.687792116902
 20
-94.79324632046337
 42
0.0
 10
2129.687792116902
 20
-101.2634055607323
 42
0.0
 10
2108.544144818437
 20
-101.2634055607341
 42
0.0
 10
2104.544144818437
 20
-97.2634055610215
 42
0.0
 10
2100.544144818728
 20
-101.2634055607341
 42
0.0
 10
2081.039853192933
 20
-101.2634055607341
 42
0.0
 10
2077.039853192933
 20
-97.2634055610215
 42
0.0
 10
2073.039853193224
 20
-101.2634055607341
 42
0.0
 10
2042.6877921169
 20
-101.2634055607341
 42
0.0
 10
2042.6877921169
 20
-95.2254270842459
 42
0.0
 10
2055.228479047868
 20
-95.2254270842459
 42
0.0
 10
2055.228479047868
 20
-88.68197901308486
 42
0.0
 10
2036.411917418891
 20
-88.68197901308486
 42
-0.2543174404516101
 10
2034.985459724499
 20
-87.42798163372754
 42
0.0
 10
2033.614537870781
 20
-83.86244797678955
 42
-0.4539133373073938
 10
2035.191996912166
 20
-81.24910193661526
 42
0.0
 10
2112.795607023467
 20
-81.24910193661344
 42
-0.2555986236767512
 10
2113.96854144292
 20
-82.30131438246826
 42
0.0
 10
2115.983394808181
 20
-87.942163242471
 42
0.3131334096943598
 10
2117.80070416182
 20
-89.2436987080855
 42
0.0
 10
2125.92643905413
 20
-89.2436987080855
 42
0.0
 10
2126.998620469343
 20
-90.15603412315613
 42
0.0
 10
2128.178996787357
 20
-89.2436987080855
 42
0.0
 10
2138.871874457198
 20
-89.2436987080855
 42
0.0
 10
2141.531714850333
 20
-90.05452192339908
 42
0.0
 10
2141.531714850333
 20
-93.5495694719757
 42
0.0
 97
        0
 75
     0
 76
     1
 98
        0
  0
LWPOLYLINE
  5
2FB
330
1F
100
AcDbEntity
  8
Ech.1_2
 62
     7
370
    50
100
AcDbPolyline
 90
       28
 70
     0
 43
0.0
 10
2137.580625979843
 20
-94.79324632046337
 10
2129.687792116902
 20
-94.79324632046337
 10
2129.687792116902
 20
-101.2634055607323
 10
2108.544144818437
 20
-101.2634055607341
 10
2104.544144818437
 20
-97.2634055610215
 10
2100.544144818728
 20
-101.2634055607341
 10
2081.039853192933
 20
-101.2634055607341
 10
2077.039853192933
 20
-97.2634055610215
 10
2073.039853193224
 20
-101.2634055607341
 10
2042.6877921169
 20
-101.2634055607341
 10
2042.6877921169
 20
-95.2254270842459
 10
2055.228479047868
 20
-95.2254270842459
 10
2055.228479047868
 20
-88.68197901308486
 10
2036.411917418891
 20
-88.68197901308486
 42
-0.2543174404516014
 10
2034.985459724499
 20
-87.42798163372754
 10
2033.614537870781
 20
-83.86244797678955
 42
-0.4539133373073301
 10
2035.191996912166
 20
-81.24910193661526
 10
2112.795607023467
 20
-81.24910193661344
 42
-0.255598623677001
 10
2113.96854144292
 20
-82.30131438246826
 10
2115.983394808181
 20
-87.942163242471
 42
0.3131334096943231
 10
2117.80070416182
 20
-89.2436987080855
 10
2125.92643905413
 20
-89.2436987080855
 10
2126.998620469343
 20
-90.15603412315613
 10
2128.178996787357
 20
-89.2436987080855
 10
2138.871874457198
 20
-89.2436987080855
 10
2141.531714850333
 20
-90.05452192339908
 10
2141.531714850333
 20
-93.5495694719757
 10
2137.580625979843
 20
-94.79324632046337
  0
TEXT
  5
2FC
330
1F
100
AcDbEntity
  8
Ech.1_2
 62
     7
100
AcDbText
 10
2041.394120662376
 20
-52.21425240150165
 30
0.0
 40
6.034412384033203
  1
L
 41
1.007782800673266
  7
arial-
100
AcDbText
  0
TEXT
  5
2FD
330
1F
100
AcDbEntity
  8
Ech.1_2
 62
     7
100
AcDbText
 10
2046.102390215234
 20
-52.20240589252816
 30
0.0
 40
5.978612005316912
  1
a
 41
0.9939067915578286
  7
arial-
100
AcDbText
  0
TEXT
  5
2FE
330
1F
100
AcDbEntity
  8
Ech.1_2
 62
     7
100
AcDbText
 10
2050.828136579351
 20
-52.21425240150165
 30
0.0
 40
5.994599196914076
  1
r
 41
1.002257544015148
  7
arial-
100
AcDbText
  0
TEXT
  5
2FF
330
1F
100
AcDbEntity
  8
Ech.1_2
 62
     7
100
AcDbText
 10
2053.555532273245
 20
-52.15678412323656
 30
0.0
 40
5.917044165517191
  1
g
 41
1.005219785747038
  7
arial-
100
AcDbText
  0
TEXT
  5
300
330
1F
100
AcDbEntity
  8
Ech.1_2
 62
     7
100
AcDbText
 10
2058.233293750529
 20
-52.20240589252816
 30
0.0
 40
5.978612005316912
  1
e
 41
1.015053744569697
  7
arial-
100
AcDbText
  0
TEXT
  5
301
330
1F
100
AcDbEntity
  8
Ech.1_2
 62
     7
100
AcDbText
 10
2062.981169104561
 20
-52.2021500974626
 30
0.0
 40
5.994599196914076
  1
u
 41
1.006526102550136
  7
arial-
100
AcDbText
  0
TEXT
  5
302
330
1F
100
AcDbEntity
  8
Ech.1_2
 62
     7
100
AcDbText
 10
2067.713348591385
 20
-52.21425240150165
 30
0.0
 40
5.994599196914076
  1
r
 41
0.9664626317288931
  7
arial-
100
AcDbText
  0
TEXT
  5
303
330
1F
100
AcDbEntity
  8
Ech.1_2
 62
     7
100
AcDbText
 10
2070.433101323622
 20
-52.21425240150165
 30
0.0
 40
6.053029596805573
  1
 
  7
arial-
100
AcDbText
  0
TEXT
  5
304
330
1F
100
AcDbEntity
  8
Ech.1_2
 62
     7
100
AcDbText
 10
2072.860380911324
 20
-52.2021500974626
 30
0.0
 40
5.994599196914076
  1
u
 41
0.9825611953465617
  7
arial-
100
AcDbText
  0
TEXT
  5
305
330
1F
100
AcDbEntity
  8
Ech.1_2
 62
     7
100
AcDbText
 10
2077.54241658512
 20
-52.23698663619184
 30
0.0
 40
6.10770484213887
  1
t
 41
0.9750630728321976
  7
arial-
100
AcDbText
  0
TEXT
  5
306
330
1F
100
AcDbEntity
  8
Ech.1_2
 62
     7
100
AcDbText
 10
2079.89433957703
 20
-52.21425240150165
 30
0.0
 40
6.034412384033203
  1
i
 41
1.022530841658728
  7
arial-
100
AcDbText
  0
TEXT
  5
307
330
1F
100
AcDbEntity
  8
Ech.1_2
 62
     7
100
AcDbText
 10
2081.919593040839
 20
-52.21425240150165
 30
0.0
 40
6.034412384033203
  1
l
 41
0.9089163036966471
  7
arial-
100
AcDbText
  0
TEXT
  5
308
330
1F
100
AcDbEntity
  8
Ech.1_2
 62
     7
100
AcDbText
 10
2083.525374222986
 20
-52.20240589252816
 30
0.0
 40
5.978612005316912
  1
e
 41
1.036200697581566
  7
arial-
100
AcDbText
  0
TEXT
  5
309
330
1F
100
AcDbEntity
  8
Ech.1_2
 62
     7
100
AcDbText
 10
2088.310728040713
 20
-52.21425240150165
 30
0.0
 40
6.053029596805573
  1
 
  7
arial-
100
AcDbText
  0
TEXT
  5
30A
330
1F
100
AcDbEntity
  8
Ech.1_2
 62
     7
100
AcDbText
 10
2090.67483189904
 20
-52.21425240150165
 30
0.0
 40
5.581319071840511
  1
£
 41
1.042003435776195
  7
symbol-
100
AcDbText
  0
TEXT
  5
30B
330
1F
100
AcDbEntity
  8
Ech.1_2
 62
     7
100
AcDbText
 10
2095.30998755731
 20
-52.21425240150165
 30
0.0
 40
6.053029596805573
  1
 
  7
arial-
100
AcDbText
  0
TEXT
  5
30C
330
1F
100
AcDbEntity
  8
Ech.1_2
 62
     7
100
AcDbText
 10
2097.693182259137
 20
-52.21425240150165
 30
0.0
 40
6.010370900431477
  1
1
 41
0.9912843738378958
  7
arial-
100
AcDbText
  0
TEXT
  5
30D
330
1F
100
AcDbEntity
  8
Ech.1_2
 62
     7
100
AcDbText
 10
2102.469613577368
 20
-52.196193163221
 30
0.0
 40
5.992383611307322
  1
0
 41
0.9943773872271178
  7
arial-
100
AcDbText
  0
TEXT
  5
30E
330
1F
100
AcDbEntity
  8
Ech.1_2
 62
     7
100
AcDbText
 10
2107.192005540373
 20
-52.196193163221
 30
0.0
 40
5.992383611307322
  1
0
 41
0.9943773872271178
  7
arial-
100
AcDbText
  0
LINE
  5
30F
330
1F
100
AcDbEntity
  8
Ech.1_2
 62
   190
370
     9
100
AcDbLine
 10
2072.747229047856
 20
-80.41987208363935
 30
0.0
 11
2067.70972904788
 21
-80.41987208363935
 31
0.0
  0
LINE
  5
310
330
1F
100
AcDbEntity
  8
Ech.1_2
 62
   190
370
     9
100
AcDbLine
 10
2067.70972904788
 20
-80.72542708454057
 30
0.0
 11
2067.70972904788
 21
-80.41987208363935
 31
0.0
  0
HATCH
  5
311
330
1F
100
AcDbEntity
  8
Ech.1_2
 62
   252
440
 33554687
370
     5
100
AcDbHatch
 10
0.0
 20
0.0
 30
0.0
210
0.0
220
0.0
230
1.0
  2
SOLID
 70
     1
 71
     1
 91
        1
 92
        3
 72
     0
 73
     1
 93
        4
 10
2069.098618047816
 20
-120.5309820857365
 10
2069.098618047816
 20
-121.364316084655
 10
2071.358340047862
 20
-121.364316084655
 10
2071.358340047862
 20
-120.5309820857365
 97
        0
 75
     0
 76
     1
 98
        0
  0
LWPOLYLINE
  5
312
330
1F
100
AcDbEntity
  8
Ech.1_2
 62
     7
370
     9
100
AcDbPolyline
 90
        5
 70
     0
 43
0.0
 10
2069.098618047816
 20
-120.5309820857365
 10
2069.098618047816
 20
-121.364316084655
 10
2071.358340047862
 20
-121.364316084655
 10
2071.358340047862
 20
-120.5309820857365
 10
2069.098618047816
 20
-120.5309820857365
  0
LINE
  5
313
330
1F
100
AcDbEntity
  8
Ech.1_2
 62
   190
370
     9
100
AcDbLine
 10
2071.358340047862
 20
-123.5634000831596
 30
0.0
 11
2071.358340047862
 21
-81.28098308381959
 31
0.0
  0
LINE
  5
314
330
1F
100
AcDbEntity
  8
Ech.1_2
 62
   190
370
     9
100
AcDbLine
 10
2069.098618047816
 20
-123.5634000831596
 30
0.0
 11
2069.098618047816
 21
-81.28098308381959
 31
0.0
  0
ARC
  5
315
330
1F
100
AcDbEntity
  8
Ech.1_2
 62
   190
370
     9
100
AcDbCircle
 10
2070.228479047839
 20
-92.9830754744736
 30
0.0
 40
12.81320339083424
100
AcDbArc
 50
78.66327935031332
 51
101.3367206496867
  0
LINE
  5
316
330
1F
100
AcDbEntity
  8
Ech.1_2
 62
   190
370
     9
100
AcDbLine
 10
2072.747229047856
 20
-80.72542708454239
 30
0.0
 11
2071.913896047905
 21
-80.72542708454057
 31
0.0
  0
ARC
  5
317
330
1F
100
AcDbEntity
  8
Ech.1_2
 62
   190
370
     9
100
AcDbCircle
 10
2071.913896037761
 20
-81.28098307443945
 30
0.0
 40
0.5555559898988738
100
AcDbArc
 50
89.99999895382065
 51
180.0000009673961
  0
LINE
  5
318
330
1F
100
AcDbEntity
  8
Ech.1_2
 62
   190
370
     9
100
AcDbLine
 10
2071.913896047905
 20
-80.72542708454057
 30
0.0
 11
2068.543062047838
 21
-80.72542708454057
 31
0.0
  0
ARC
  5
319
330
1F
100
AcDbEntity
  8
Ech.1_2
 62
   190
370
     9
100
AcDbCircle
 10
2068.543062058029
 20
-81.28098307432765
 30
0.0
 40
0.5555559897870863
100
AcDbArc
 50
359.999999021074
 51
90.00000105096305
  0
LINE
  5
31A
330
1F
100
AcDbEntity
  8
Ech.1_2
 62
   190
370
     9
100
AcDbLine
 10
2067.70972904788
 20
-80.72542708454057
 30
0.0
 11
2068.543062047838
 21
-80.72542708454057
 31
0.0
  0
LINE
  5
31B
330
1F
100
AcDbEntity
  8
Ech.1_2
 62
   190
370
     9
100
AcDbLine
 10
2071.358340047862
 20
-91.364316084655
 30
0.0
 11
2069.098618047816
 21
-91.364316084655
 31
0.0
  0
LINE
  5
31C
330
1F
100
AcDbEntity
  8
Ech.1_2
 62
   190
370
     9
100
AcDbLine
 10
2071.358340047862
 20
-92.19764908519574
 30
0.0
 11
2069.098618047816
 21
-92.19764908519574
 31
0.0
  0
LINE
  5
31D
330
1F
100
AcDbEntity
  8
Ech.1_2
 62
   190
370
     9
100
AcDbLine
 10
2071.358340047862
 20
-88.864316084655
 30
0.0
 11
2069.098618047816
 21
-88.864316084655
 31
0.0
  0
LINE
  5
31E
330
1F
100
AcDbEntity
  8
Ech.1_2
 62
   190
370
     9
100
AcDbLine
 10
2071.358340047862
 20
-89.69764908519574
 30
0.0
 11
2069.098618047816
 21
-89.69764908519574
 31
0.0
  0
LINE
  5
31F
330
1F
100
AcDbEntity
  8
Ech.1_2
 62
   190
370
     9
100
AcDbLine
 10
2071.358340047862
 20
-90.53098208573647
 30
0.0
 11
2069.098618047816
 21
-90.53098208573647
 31
0.0
  0
LINE
  5
320
330
1F
100
AcDbEntity
  8
Ech.1_2
 62
   190
370
     9
100
AcDbLine
 10
2071.358340047862
 20
-86.364316084655
 30
0.0
 11
2069.098618047816
 21
-86.364316084655
 31
0.0
  0
LINE
  5
321
330
1F
100
AcDbEntity
  8
Ech.1_2
 62
   190
370
     9
100
AcDbLine
 10
2071.358340047862
 20
-87.19764908519574
 30
0.0
 11
2069.098618047816
 21
-87.19764908519574
 31
0.0
  0
LINE
  5
322
330
1F
100
AcDbEntity
  8
Ech.1_2
 62
   190
370
     9
100
AcDbLine
 10
2071.358340047862
 20
-88.03098208573647
 30
0.0
 11
2069.098618047816
 21
-88.03098208573647
 31
0.0
  0
LINE
  5
323
330
1F
100
AcDbEntity
  8
Ech.1_2
 62
   190
370
     9
100
AcDbLine
 10
2071.358340047862
 20
-85.53098208573647
 30
0.0
 11
2069.098618047816
 21
-85.53098208573647
 31
0.0
  0
LINE
  5
324
330
1F
100
AcDbEntity
  8
Ech.1_2
 62
   190
370
     9
100
AcDbLine
 10
2071.358340047862
 20
-84.69764908519574
 30
0.0
 11
2069.098618047816
 21
-84.69764908519574
 31
0.0
  0
LINE
  5
325
330
1F
100
AcDbEntity
  8
Ech.1_2
 62
   190
370
     9
100
AcDbLine
 10
2071.358340047862
 20
-83.864316084655
 30
0.0
 11
2069.098618047816
 21
-83.864316084655
 31
0.0
  0
LINE
  5
326
330
1F
100
AcDbEntity
  8
Ech.1_2
 62
   190
370
     9
100
AcDbLine
 10
2071.358340047862
 20
-83.03098208573647
 30
0.0
 11
2069.098618047823
 21
-83.03098208573647
 31
0.0
  0
LINE
  5
327
330
1F
100
AcDbEntity
  8
Ech.1_2
 62
   190
370
     9
100
AcDbLine
 10
2071.358340047862
 20
-118.0309820857365
 30
0.0
 11
2069.098618047816
 21
-118.0309820857365
 31
0.0
  0
LINE
  5
328
330
1F
100
AcDbEntity
  8
Ech.1_2
 62
   190
370
     9
100
AcDbLine
 10
2071.358340047862
 20
-117.1976490851957
 30
0.0
 11
2069.098618047816
 21
-117.1976490851957
 31
0.0
  0
LINE
  5
329
330
1F
100
AcDbEntity
  8
Ech.1_2
 62
   190
370
     9
100
AcDbLine
 10
2071.358340047862
 20
-118.864316084655
 30
0.0
 11
2069.098618047816
 21
-118.864316084655
 31
0.0
  0
LINE
  5
32A
330
1F
100
AcDbEntity
  8
Ech.1_2
 62
   190
370
     9
100
AcDbLine
 10
2071.358340047862
 20
-114.6976490851957
 30
0.0
 11
2069.098618047816
 21
-114.6976490851957
 31
0.0
  0
LINE
  5
32B
330
1F
100
AcDbEntity
  8
Ech.1_2
 62
   190
370
     9
100
AcDbLine
 10
2071.358340047862
 20
-115.5309820857365
 30
0.0
 11
2069.098618047816
 21
-115.5309820857365
 31
0.0
  0
LINE
  5
32C
330
1F
100
AcDbEntity
  8
Ech.1_2
 62
   190
370
     9
100
AcDbLine
 10
2071.358340047862
 20
-116.364316084655
 30
0.0
 11
2069.098618047816
 21
-116.364316084655
 31
0.0
  0
LINE
  5
32D
330
1F
100
AcDbEntity
  8
Ech.1_2
 62
   190
370
     9
100
AcDbLine
 10
2071.358340047862
 20
-112.1976490851957
 30
0.0
 11
2069.098618047816
 21
-112.1976490851957
 31
0.0
  0
LINE
  5
32E
330
1F
100
AcDbEntity
  8
Ech.1_2
 62
   190
370
     9
100
AcDbLine
 10
2071.358340047862
 20
-113.0309820857365
 30
0.0
 11
2069.098618047816
 21
-113.0309820857365
 31
0.0
  0
LINE
  5
32F
330
1F
100
AcDbEntity
  8
Ech.1_2
 62
   190
370
     9
100
AcDbLine
 10
2071.358340047862
 20
-113.864316084655
 30
0.0
 11
2069.098618047816
 21
-113.864316084655
 31
0.0
  0
LINE
  5
330
330
1F
100
AcDbEntity
  8
Ech.1_2
 62
   190
370
     9
100
AcDbLine
 10
2071.358340047862
 20
-109.6976490851957
 30
0.0
 11
2069.098618047816
 21
-109.6976490851957
 31
0.0
  0
LINE
  5
331
330
1F
100
AcDbEntity
  8
Ech.1_2
 62
   190
370
     9
100
AcDbLine
 10
2071.358340047862
 20
-110.5309820857365
 30
0.0
 11
2069.098618047816
 21
-110.5309820857365
 31
0.0
  0
LINE
  5
332
330
1F
100
AcDbEntity
  8
Ech.1_2
 62
   190
370
     9
100
AcDbLine
 10
2071.358340047862
 20
-111.364316084655
 30
0.0
 11
2069.098618047816
 21
-111.364316084655
 31
0.0
  0
LINE
  5
333
330
1F
100
AcDbEntity
  8
Ech.1_2
 62
   190
370
     9
100
AcDbLine
 10
2071.358340047862
 20
-108.864316084655
 30
0.0
 11
2069.098618047816
 21
-108.864316084655
 31
0.0
  0
LINE
  5
334
330
1F
100
AcDbEntity
  8
Ech.1_2
 62
   190
370
     9
100
AcDbLine
 10
2071.358340047862
 20
-95.53098208573647
 30
0.0
 11
2069.098618047816
 21
-95.53098208573647
 31
0.0
  0
LINE
  5
335
330
1F
100
AcDbEntity
  8
Ech.1_2
 62
   190
370
     9
100
AcDbLine
 10
2071.358340047862
 20
-96.364316084655
 30
0.0
 11
2069.098618047816
 21
-96.364316084655
 31
0.0
  0
LINE
  5
336
330
1F
100
AcDbEntity
  8
Ech.1_2
 62
   190
370
     9
100
AcDbLine
 10
2071.358340047862
 20
-97.19764908519574
 30
0.0
 11
2069.098618047816
 21
-97.19764908519574
 31
0.0
  0
LINE
  5
337
330
1F
100
AcDbEntity
  8
Ech.1_2
 62
   190
370
     9
100
AcDbLine
 10
2071.358340047862
 20
-98.03098208573647
 30
0.0
 11
2069.098618047816
 21
-98.03098208573647
 31
0.0
  0
LINE
  5
338
330
1F
100
AcDbEntity
  8
Ech.1_2
 62
   190
370
     9
100
AcDbLine
 10
2072.747229047856
 20
-80.72542708454239
 30
0.0
 11
2072.747229047856
 21
-80.41987208363935
 31
0.0
  0
LINE
  5
339
330
1F
100
AcDbEntity
  8
Ech.1_2
 62
   190
370
     9
100
AcDbLine
 10
2071.358340047862
 20
-100.5309820857365
 30
0.0
 11
2069.098618047816
 21
-100.5309820857365
 31
0.0
  0
LINE
  5
33A
330
1F
100
AcDbEntity
  8
Ech.1_2
 62
   190
370
     9
100
AcDbLine
 10
2071.358340047862
 20
-99.69764908519574
 30
0.0
 11
2069.098618047816
 21
-99.69764908519574
 31
0.0
  0
LINE
  5
33B
330
1F
100
AcDbEntity
  8
Ech.1_2
 62
   190
370
     9
100
AcDbLine
 10
2071.358340047862
 20
-98.864316084655
 30
0.0
 11
2069.098618047816
 21
-98.864316084655
 31
0.0
  0
LINE
  5
33C
330
1F
100
AcDbEntity
  8
Ech.1_2
 62
   190
370
     9
100
AcDbLine
 10
2071.358340047862
 20
-103.0309820857365
 30
0.0
 11
2069.098618047816
 21
-103.0309820857365
 31
0.0
  0
LINE
  5
33D
330
1F
100
AcDbEntity
  8
Ech.1_2
 62
   190
370
     9
100
AcDbLine
 10
2071.358340047862
 20
-102.1976490851957
 30
0.0
 11
2069.098618047816
 21
-102.1976490851957
 31
0.0
  0
LINE
  5
33E
330
1F
100
AcDbEntity
  8
Ech.1_2
 62
   190
370
     9
100
AcDbLine
 10
2071.358340047862
 20
-101.364316084655
 30
0.0
 11
2069.098618047816
 21
-101.364316084655
 31
0.0
  0
LINE
  5
33F
330
1F
100
AcDbEntity
  8
Ech.1_2
 62
   190
370
     9
100
AcDbLine
 10
2071.358340047862
 20
-105.5309820857365
 30
0.0
 11
2069.098618047816
 21
-105.5309820857365
 31
0.0
  0
LINE
  5
340
330
1F
100
AcDbEntity
  8
Ech.1_2
 62
   190
370
     9
100
AcDbLine
 10
2071.358340047862
 20
-104.6976490851957
 30
0.0
 11
2069.098618047816
 21
-104.6976490851957
 31
0.0
  0
LINE
  5
341
330
1F
100
AcDbEntity
  8
Ech.1_2
 62
   190
370
     9
100
AcDbLine
 10
2071.358340047862
 20
-103.864316084655
 30
0.0
 11
2069.098618047816
 21
-103.864316084655
 31
0.0
  0
LINE
  5
342
330
1F
100
AcDbEntity
  8
Ech.1_2
 62
   190
370
     9
100
AcDbLine
 10
2071.358340047862
 20
-108.0309820857365
 30
0.0
 11
2069.098618047816
 21
-108.0309820857365
 31
0.0
  0
LINE
  5
343
330
1F
100
AcDbEntity
  8
Ech.1_2
 62
   190
370
     9
100
AcDbLine
 10
2071.358340047862
 20
-107.1976490851957
 30
0.0
 11
2069.098618047816
 21
-107.1976490851957
 31
0.0
  0
LINE
  5
344
330
1F
100
AcDbEntity
  8
Ech.1_2
 62
   190
370
     9
100
AcDbLine
 10
2071.358340047862
 20
-106.364316084655
 30
0.0
 11
2069.098618047816
 21
-106.364316084655
 31
0.0
  0
LINE
  5
345
330
1F
100
AcDbEntity
  8
Ech.1_2
 62
   190
370
     9
100
AcDbLine
 10
2071.358340047862
 20
-93.864316084655
 30
0.0
 11
2069.098618047816
 21
-93.864316084655
 31
0.0
  0
LINE
  5
346
330
1F
100
AcDbEntity
  8
Ech.1_2
 62
   190
370
     9
100
AcDbLine
 10
2071.358340047862
 20
-94.69764908519574
 30
0.0
 11
2069.098618047816
 21
-94.69764908519574
 31
0.0
  0
LINE
  5
347
330
1F
100
AcDbEntity
  8
Ech.1_2
 62
   190
370
     9
100
AcDbLine
 10
2071.358340047862
 20
-95.53098208573647
 30
0.0
 11
2069.098618047816
 21
-95.53098208573647
 31
0.0
  0
LINE
  5
348
330
1F
100
AcDbEntity
  8
Ech.1_2
 62
   190
370
     9
100
AcDbLine
 10
2071.358340047862
 20
-93.03098208573647
 30
0.0
 11
2069.098618047816
 21
-93.03098208573647
 31
0.0
  0
LINE
  5
349
330
1F
100
AcDbEntity
  8
Ech.1_2
 62
   190
370
     9
100
AcDbLine
 10
2070.228479047868
 20
-126.2254270845406
 30
0.0
 11
2071.358340047862
 21
-123.5634000831596
 31
0.0
  0
ARC
  5
34A
330
1F
100
AcDbEntity
  8
Ech.1_2
 62
   190
370
     9
100
AcDbCircle
 10
2070.228479047872
 20
-124.972751073757
 30
0.0
 40
1.806337996665553
100
AcDbArc
 50
51.28123991419421
 51
128.7187600858058
  0
LINE
  5
34B
330
1F
100
AcDbEntity
  8
Ech.1_2
 62
   190
370
     9
100
AcDbLine
 10
2070.228479047868
 20
-126.2254270845406
 30
0.0
 11
2069.098618047816
 21
-123.5634000831596
 31
0.0
  0
HATCH
  5
34C
330
1F
100
AcDbEntity
  8
Ech.1_2
 62
   252
440
 33554687
370
     5
100
AcDbHatch
 10
0.0
 20
0.0
 30
0.0
210
0.0
220
0.0
230
1.0
  2
SOLID
 70
     1
 71
     1
 91
        1
 92
        3
 72
     0
 73
     1
 93
        4
 10
2069.098618047823
 20
-83.03098208573647
 10
2069.098618047816
 20
-83.864316084655
 10
2071.358340047862
 20
-83.864316084655
 10
2071.358340047862
 20
-83.03098208573647
 97
        0
 75
     0
 76
     1
 98
        0
  0
LWPOLYLINE
  5
34D
330
1F
100
AcDbEntity
  8
Ech.1_2
 62
     7
370
     9
100
AcDbPolyline
 90
        5
 70
     0
 43
0.0
 10
2069.098618047823
 20
-83.03098208573647
 10
2069.098618047816
 20
-83.864316084655
 10
2071.358340047862
 20
-83.864316084655
 10
2071.358340047862
 20
-83.03098208573647
 10
2069.098618047823
 20
-83.03098208573647
  0
HATCH
  5
34E
330
1F
100
AcDbEntity
  8
Ech.1_2
 62
   252
440
 33554687
370
     5
100
AcDbHatch
 10
0.0
 20
0.0
 30
0.0
210
0.0
220
0.0
230
1.0
  2
SOLID
 70
     1
 71
     1
 91
        1
 92
        3
 72
     0
 73
     1
 93
        4
 10
2069.098618047816
 20
-83.864316084655
 10
2069.098618047816
 20
-84.69765008357354
 10
2071.358340047862
 20
-84.69765008357354
 10
2071.358340047862
 20
-83.864316084655
 97
        0
 75
     0
 76
     1
 98
        0
  0
LWPOLYLINE
  5
34F
330
1F
100
AcDbEntity
  8
Ech.1_2
 62
     7
370
     9
100
AcDbPolyline
 90
        5
 70
     0
 43
0.0
 10
2069.098618047816
 20
-83.864316084655
 10
2069.098618047816
 20
-84.69765008357354
 10
2071.358340047862
 20
-84.69765008357354
 10
2071.358340047862
 20
-83.864316084655
 10
2069.098618047816
 20
-83.864316084655
  0
HATCH
  5
350
330
1F
100
AcDbEntity
  8
Ech.1_2
 62
   252
440
 33554687
370
     5
100
AcDbHatch
 10
0.0
 20
0.0
 30
0.0
210
0.0
220
0.0
230
1.0
  2
SOLID
 70
     1
 71
     1
 91
        1
 92
        3
 72
     0
 73
     1
 93
        4
 10
2069.098618047816
 20
-84.69765008357354
 10
2069.098618047816
 20
-85.53098408249207
 10
2071.358340047862
 20
-85.53098408249207
 10
2071.358340047862
 20
-84.69765008357354
 97
        0
 75
     0
 76
     1
 98
        0
  0
LWPOLYLINE
  5
351
330
1F
100
AcDbEntity
  8
Ech.1_2
 62
     7
370
     9
100
AcDbPolyline
 90
        5
 70
     0
 43
0.0
 10
2069.098618047816
 20
-84.69765008357354
 10
2069.098618047816
 20
-85.53098408249207
 10
2071.358340047862
 20
-85.53098408249207
 10
2071.358340047862
 20
-84.69765008357354
 10
2069.098618047816
 20
-84.69765008357354
  0
HATCH
  5
352
330
1F
100
AcDbEntity
  8
Ech.1_2
 62
   252
440
 33554687
370
     5
100
AcDbHatch
 10
0.0
 20
0.0
 30
0.0
210
0.0
220
0.0
230
1.0
  2
SOLID
 70
     1
 71
     1
 91
        1
 92
        3
 72
     0
 73
     1
 93
        4
 10
2069.098618047816
 20
-85.53098408249207
 10
2069.098618047816
 20
-86.3643180814106
 10
2071.358340047862
 20
-86.3643180814106
 10
2071.358340047862
 20
-85.53098408249207
 97
        0
 75
     0
 76
     1
 98
        0
  0
LWPOLYLINE
  5
353
330
1F
100
AcDbEntity
  8
Ech.1_2
 62
     7
370
     9
100
AcDbPolyline
 90
        5
 70
     0
 43
0.0
 10
2069.098618047816
 20
-85.53098408249207
 10
2069.098618047816
 20
-86.3643180814106
 10
2071.358340047862
 20
-86.3643180814106
 10
2071.358340047862
 20
-85.53098408249207
 10
2069.098618047816
 20
-85.53098408249207
  0
HATCH
  5
354
330
1F
100
AcDbEntity
  8
Ech.1_2
 62
   252
440
 33554687
370
     5
100
AcDbHatch
 10
0.0
 20
0.0
 30
0.0
210
0.0
220
0.0
230
1.0
  2
SOLID
 70
     1
 71
     1
 91
        1
 92
        3
 72
     0
 73
     1
 93
        4
 10
2069.098618047816
 20
-86.364316084655
 10
2069.098618047816
 20
-87.19765008357354
 10
2071.358340047862
 20
-87.19765008357354
 10
2071.358340047862
 20
-86.364316084655
 97
        0
 75
     0
 76
     1
 98
        0
  0
LWPOLYLINE
  5
355
330
1F
100
AcDbEntity
  8
Ech.1_2
 62
     7
370
     9
100
AcDbPolyline
 90
        5
 70
     0
 43
0.0
 10
2069.098618047816
 20
-86.364316084655
 10
2069.098618047816
 20
-87.19765008357354
 10
2071.358340047862
 20
-87.19765008357354
 10
2071.358340047862
 20
-86.364316084655
 10
2069.098618047816
 20
-86.364316084655
  0
HATCH
  5
356
330
1F
100
AcDbEntity
  8
Ech.1_2
 62
   252
440
 33554687
370
     5
100
AcDbHatch
 10
0.0
 20
0.0
 30
0.0
210
0.0
220
0.0
230
1.0
  2
SOLID
 70
     1
 71
     1
 91
        1
 92
        3
 72
     0
 73
     1
 93
        4
 10
2069.098618047816
 20
-87.19764908519574
 10
2069.098618047816
 20
-88.03098308411427
 10
2071.358340047869
 20
-88.03098308411427
 10
2071.358340047862
 20
-87.19764908519574
 97
        0
 75
     0
 76
     1
 98
        0
  0
LWPOLYLINE
  5
357
330
1F
100
AcDbEntity
  8
Ech.1_2
 62
     7
370
     9
100
AcDbPolyline
 90
        5
 70
     0
 43
0.0
 10
2069.098618047816
 20
-87.19764908519574
 10
2069.098618047816
 20
-88.03098308411427
 10
2071.358340047869
 20
-88.03098308411427
 10
2071.358340047862
 20
-87.19764908519574
 10
2069.098618047816
 20
-87.19764908519574
  0
HATCH
  5
358
330
1F
100
AcDbEntity
  8
Ech.1_2
 62
   252
440
 33554687
370
     5
100
AcDbHatch
 10
0.0
 20
0.0
 30
0.0
210
0.0
220
0.0
230
1.0
  2
SOLID
 70
     1
 71
     1
 91
        1
 92
        3
 72
     0
 73
     1
 93
        4
 10
2069.098618047816
 20
-88.03098308411427
 10
2069.098618047816
 20
-88.8643170830328
 10
2071.358340047862
 20
-88.8643170830328
 10
2071.358340047869
 20
-88.03098308411427
 97
        0
 75
     0
 76
     1
 98
        0
  0
LWPOLYLINE
  5
359
330
1F
100
AcDbEntity
  8
Ech.1_2
 62
     7
370
     9
100
AcDbPolyline
 90
        5
 70
     0
 43
0.0
 10
2069.098618047816
 20
-88.03098308411427
 10
2069.098618047816
 20
-88.8643170830328
 10
2071.358340047862
 20
-88.8643170830328
 10
2071.358340047869
 20
-88.03098308411427
 10
2069.098618047816
 20
-88.03098308411427
  0
HATCH
  5
35A
330
1F
100
AcDbEntity
  8
Ech.1_2
 62
   252
440
 33554687
370
     5
100
AcDbHatch
 10
0.0
 20
0.0
 30
0.0
210
0.0
220
0.0
230
1.0
  2
SOLID
 70
     1
 71
     1
 91
        1
 92
        3
 72
     0
 73
     1
 93
        4
 10
2069.098618047816
 20
-88.864316084655
 10
2069.098618047816
 20
-89.69765008357354
 10
2071.358340047862
 20
-89.69765008357354
 10
2071.358340047862
 20
-88.864316084655
 97
        0
 75
     0
 76
     1
 98
        0
  0
LWPOLYLINE
  5
35B
330
1F
100
AcDbEntity
  8
Ech.1_2
 62
     7
370
     9
100
AcDbPolyline
 90
        5
 70
     0
 43
0.0
 10
2069.098618047816
 20
-88.864316084655
 10
2069.098618047816
 20
-89.69765008357354
 10
2071.358340047862
 20
-89.69765008357354
 10
2071.358340047862
 20
-88.864316084655
 10
2069.098618047816
 20
-88.864316084655
  0
HATCH
  5
35C
330
1F
100
AcDbEntity
  8
Ech.1_2
 62
   252
440
 33554687
370
     5
100
AcDbHatch
 10
0.0
 20
0.0
 30
0.0
210
0.0
220
0.0
230
1.0
  2
SOLID
 70
     1
 71
     1
 91
        1
 92
        3
 72
     0
 73
     1
 93
        4
 10
2069.098618047816
 20
-89.69765008357354
 10
2069.098618047816
 20
-90.53098408249207
 10
2071.358340047862
 20
-90.53098408249207
 10
2071.358340047862
 20
-89.69765008357354
 97
        0
 75
     0
 76
     1
 98
        0
  0
LWPOLYLINE
  5
35D
330
1F
100
AcDbEntity
  8
Ech.1_2
 62
     7
370
     9
100
AcDbPolyline
 90
        5
 70
     0
 43
0.0
 10
2069.098618047816
 20
-89.69765008357354
 10
2069.098618047816
 20
-90.53098408249207
 10
2071.358340047862
 20
-90.53098408249207
 10
2071.358340047862
 20
-89.69765008357354
 10
2069.098618047816
 20
-89.69765008357354
  0
HATCH
  5
35E
330
1F
100
AcDbEntity
  8
Ech.1_2
 62
   252
440
 33554687
370
     5
100
AcDbHatch
 10
0.0
 20
0.0
 30
0.0
210
0.0
220
0.0
230
1.0
  2
SOLID
 70
     1
 71
     1
 91
        1
 92
        3
 72
     0
 73
     1
 93
        4
 10
2069.098618047816
 20
-90.53098208573647
 10
2069.098618047816
 20
-91.364316084655
 10
2071.358340047862
 20
-91.364316084655
 10
2071.358340047862
 20
-90.53098208573647
 97
        0
 75
     0
 76
     1
 98
        0
  0
LWPOLYLINE
  5
35F
330
1F
100
AcDbEntity
  8
Ech.1_2
 62
     7
370
     9
100
AcDbPolyline
 90
        5
 70
     0
 43
0.0
 10
2069.098618047816
 20
-90.53098208573647
 10
2069.098618047816
 20
-91.364316084655
 10
2071.358340047862
 20
-91.364316084655
 10
2071.358340047862
 20
-90.53098208573647
 10
2069.098618047816
 20
-90.53098208573647
  0
HATCH
  5
360
330
1F
100
AcDbEntity
  8
Ech.1_2
 62
   252
440
 33554687
370
     5
100
AcDbHatch
 10
0.0
 20
0.0
 30
0.0
210
0.0
220
0.0
230
1.0
  2
SOLID
 70
     1
 71
     1
 91
        1
 92
        3
 72
     0
 73
     1
 93
        4
 10
2069.098618047816
 20
-91.364316084655
 10
2069.098618047816
 20
-92.19765008357354
 10
2071.358340047862
 20
-92.19765008357354
 10
2071.358340047862
 20
-91.364316084655
 97
        0
 75
     0
 76
     1
 98
        0
  0
LWPOLYLINE
  5
361
330
1F
100
AcDbEntity
  8
Ech.1_2
 62
     7
370
     9
100
AcDbPolyline
 90
        5
 70
     0
 43
0.0
 10
2069.098618047816
 20
-91.364316084655
 10
2069.098618047816
 20
-92.19765008357354
 10
2071.358340047862
 20
-92.19765008357354
 10
2071.358340047862
 20
-91.364316084655
 10
2069.098618047816
 20
-91.364316084655
  0
HATCH
  5
362
330
1F
100
AcDbEntity
  8
Ech.1_2
 62
   252
440
 33554687
370
     5
100
AcDbHatch
 10
0.0
 20
0.0
 30
0.0
210
0.0
220
0.0
230
1.0
  2
SOLID
 70
     1
 71
     1
 91
        1
 92
        3
 72
     0
 73
     1
 93
        4
 10
2069.098618047816
 20
-92.19765008357354
 10
2069.098618047816
 20
-93.03098408249207
 10
2071.358340047862
 20
-93.03098408249389
 10
2071.358340047862
 20
-92.19765008357354
 97
        0
 75
     0
 76
     1
 98
        0
  0
LWPOLYLINE
  5
363
330
1F
100
AcDbEntity
  8
Ech.1_2
 62
     7
370
     9
100
AcDbPolyline
 90
        5
 70
     0
 43
0.0
 10
2069.098618047816
 20
-92.19765008357354
 10
2069.098618047816
 20
-93.03098408249207
 10
2071.358340047862
 20
-93.03098408249389
 10
2071.358340047862
 20
-92.19765008357354
 10
2069.098618047816
 20
-92.19765008357354
  0
HATCH
  5
364
330
1F
100
AcDbEntity
  8
Ech.1_2
 62
   252
440
 33554687
370
     5
100
AcDbHatch
 10
0.0
 20
0.0
 30
0.0
210
0.0
220
0.0
230
1.0
  2
SOLID
 70
     1
 71
     1
 91
        1
 92
        3
 72
     0
 73
     1
 93
        4
 10
2069.098618047816
 20
-93.03098408249207
 10
2069.098618047816
 20
-93.8643180814106
 10
2071.358340047862
 20
-93.8643180814106
 10
2071.358340047862
 20
-93.03098408249389
 97
        0
 75
     0
 76
     1
 98
        0
  0
LWPOLYLINE
  5
365
330
1F
100
AcDbEntity
  8
Ech.1_2
 62
     7
370
     9
100
AcDbPolyline
 90
        5
 70
     0
 43
0.0
 10
2069.098618047816
 20
-93.03098408249207
 10
2069.098618047816
 20
-93.8643180814106
 10
2071.358340047862
 20
-93.8643180814106
 10
2071.358340047862
 20
-93.03098408249389
 10
2069.098618047816
 20
-93.03098408249207
  0
HATCH
  5
366
330
1F
100
AcDbEntity
  8
Ech.1_2
 62
   252
440
 33554687
370
     5
100
AcDbHatch
 10
0.0
 20
0.0
 30
0.0
210
0.0
220
0.0
230
1.0
  2
SOLID
 70
     1
 71
     1
 91
        1
 92
        3
 72
     0
 73
     1
 93
        4
 10
2069.098618047816
 20
-93.8643180814106
 10
2069.098618047816
 20
-94.69765208032914
 10
2071.358340047862
 20
-94.69765208032914
 10
2071.358340047862
 20
-93.8643180814106
 97
        0
 75
     0
 76
     1
 98
        0
  0
LWPOLYLINE
  5
367
330
1F
100
AcDbEntity
  8
Ech.1_2
 62
     7
370
     9
100
AcDbPolyline
 90
        5
 70
     0
 43
0.0
 10
2069.098618047816
 20
-93.8643180814106
 10
2069.098618047816
 20
-94.69765208032914
 10
2071.358340047862
 20
-94.69765208032914
 10
2071.358340047862
 20
-93.8643180814106
 10
2069.098618047816
 20
-93.8643180814106
  0
HATCH
  5
368
330
1F
100
AcDbEntity
  8
Ech.1_2
 62
   252
440
 33554687
370
     5
100
AcDbHatch
 10
0.0
 20
0.0
 30
0.0
210
0.0
220
0.0
230
1.0
  2
SOLID
 70
     1
 71
     1
 91
        1
 92
        3
 72
     0
 73
     1
 93
        4
 10
2069.098618047816
 20
-94.69765008357354
 10
2069.098618047816
 20
-95.53098408249207
 10
2071.358340047862
 20
-95.53098408249207
 10
2071.358340047862
 20
-94.69765008357354
 97
        0
 75
     0
 76
     1
 98
        0
  0
LWPOLYLINE
  5
369
330
1F
100
AcDbEntity
  8
Ech.1_2
 62
     7
370
     9
100
AcDbPolyline
 90
        5
 70
     0
 43
0.0
 10
2069.098618047816
 20
-94.69765008357354
 10
2069.098618047816
 20
-95.53098408249207
 10
2071.358340047862
 20
-95.53098408249207
 10
2071.358340047862
 20
-94.69765008357354
 10
2069.098618047816
 20
-94.69765008357354
  0
HATCH
  5
36A
330
1F
100
AcDbEntity
  8
Ech.1_2
 62
   252
440
 33554687
370
     5
100
AcDbHatch
 10
0.0
 20
0.0
 30
0.0
210
0.0
220
0.0
230
1.0
  2
SOLID
 70
     1
 71
     1
 91
        1
 92
        3
 72
     0
 73
     1
 93
        4
 10
2069.098618047816
 20
-95.53098308411427
 10
2069.098618047816
 20
-96.3643170830328
 10
2071.358340047862
 20
-96.3643170830328
 10
2071.358340047862
 20
-95.53098308411427
 97
        0
 75
     0
 76
     1
 98
        0
  0
LWPOLYLINE
  5
36B
330
1F
100
AcDbEntity
  8
Ech.1_2
 62
     7
370
     9
100
AcDbPolyline
 90
        5
 70
     0
 43
0.0
 10
2069.098618047816
 20
-95.53098308411427
 10
2069.098618047816
 20
-96.3643170830328
 10
2071.358340047862
 20
-96.3643170830328
 10
2071.358340047862
 20
-95.53098308411427
 10
2069.098618047816
 20
-95.53098308411427
  0
HATCH
  5
36C
330
1F
100
AcDbEntity
  8
Ech.1_2
 62
   252
440
 33554687
370
     5
100
AcDbHatch
 10
0.0
 20
0.0
 30
0.0
210
0.0
220
0.0
230
1.0
  2
SOLID
 70
     1
 71
     1
 91
        1
 92
        3
 72
     0
 73
     1
 93
        4
 10
2069.098618047816
 20
-96.3643170830328
 10
2069.098618047816
 20
-97.19765108195134
 10
2071.358340047862
 20
-97.19765108195134
 10
2071.358340047862
 20
-96.3643170830328
 97
        0
 75
     0
 76
     1
 98
        0
  0
LWPOLYLINE
  5
36D
330
1F
100
AcDbEntity
  8
Ech.1_2
 62
     7
370
     9
100
AcDbPolyline
 90
        5
 70
     0
 43
0.0
 10
2069.098618047816
 20
-96.3643170830328
 10
2069.098618047816
 20
-97.19765108195134
 10
2071.358340047862
 20
-97.19765108195134
 10
2071.358340047862
 20
-96.3643170830328
 10
2069.098618047816
 20
-96.3643170830328
  0
HATCH
  5
36E
330
1F
100
AcDbEntity
  8
Ech.1_2
 62
   252
440
 33554687
370
     5
100
AcDbHatch
 10
0.0
 20
0.0
 30
0.0
210
0.0
220
0.0
230
1.0
  2
SOLID
 70
     1
 71
     1
 91
        1
 92
        3
 72
     0
 73
     1
 93
        4
 10
2069.098618047816
 20
-97.19765008357354
 10
2069.098618047816
 20
-98.03098408249207
 10
2071.358340047862
 20
-98.03098408249207
 10
2071.358340047862
 20
-97.19765008357354
 97
        0
 75
     0
 76
     1
 98
        0
  0
LWPOLYLINE
  5
36F
330
1F
100
AcDbEntity
  8
Ech.1_2
 62
     7
370
     9
100
AcDbPolyline
 90
        5
 70
     0
 43
0.0
 10
2069.098618047816
 20
-97.19765008357354
 10
2069.098618047816
 20
-98.03098408249207
 10
2071.358340047862
 20
-98.03098408249207
 10
2071.358340047862
 20
-97.19765008357354
 10
2069.098618047816
 20
-97.19765008357354
  0
HATCH
  5
370
330
1F
100
AcDbEntity
  8
Ech.1_2
 62
   252
440
 33554687
370
     5
100
AcDbHatch
 10
0.0
 20
0.0
 30
0.0
210
0.0
220
0.0
230
1.0
  2
SOLID
 70
     1
 71
     1
 91
        1
 92
        3
 72
     0
 73
     1
 93
        4
 10
2069.098618047816
 20
-98.03098408249207
 10
2069.098618047816
 20
-98.8643180814106
 10
2071.358340047862
 20
-98.8643180814106
 10
2071.358340047862
 20
-98.03098408249207
 97
        0
 75
     0
 76
     1
 98
        0
  0
LWPOLYLINE
  5
371
330
1F
100
AcDbEntity
  8
Ech.1_2
 62
     7
370
     9
100
AcDbPolyline
 90
        5
 70
     0
 43
0.0
 10
2069.098618047816
 20
-98.03098408249207
 10
2069.098618047816
 20
-98.8643180814106
 10
2071.358340047862
 20
-98.8643180814106
 10
2071.358340047862
 20
-98.03098408249207
 10
2069.098618047816
 20
-98.03098408249207
  0
HATCH
  5
372
330
1F
100
AcDbEntity
  8
Ech.1_2
 62
   252
440
 33554687
370
     5
100
AcDbHatch
 10
0.0
 20
0.0
 30
0.0
210
0.0
220
0.0
230
1.0
  2
SOLID
 70
     1
 71
     1
 91
        1
 92
        3
 72
     0
 73
     1
 93
        4
 10
2069.098618047816
 20
-98.864316084655
 10
2069.098618047816
 20
-99.69765008357354
 10
2071.358340047862
 20
-99.69765008357354
 10
2071.358340047862
 20
-98.864316084655
 97
        0
 75
     0
 76
     1
 98
        0
  0
LWPOLYLINE
  5
373
330
1F
100
AcDbEntity
  8
Ech.1_2
 62
     7
370
     9
100
AcDbPolyline
 90
        5
 70
     0
 43
0.0
 10
2069.098618047816
 20
-98.864316084655
 10
2069.098618047816
 20
-99.69765008357354
 10
2071.358340047862
 20
-99.69765008357354
 10
2071.358340047862
 20
-98.864316084655
 10
2069.098618047816
 20
-98.864316084655
  0
HATCH
  5
374
330
1F
100
AcDbEntity
  8
Ech.1_2
 62
   252
440
 33554687
370
     5
100
AcDbHatch
 10
0.0
 20
0.0
 30
0.0
210
0.0
220
0.0
230
1.0
  2
SOLID
 70
     1
 71
     1
 91
        1
 92
        3
 72
     0
 73
     1
 93
        4
 10
2069.098618047816
 20
-99.69765008357354
 10
2069.098618047816
 20
-100.5309840824921
 10
2071.358340047862
 20
-100.5309840824921
 10
2071.358340047862
 20
-99.69765008357354
 97
        0
 75
     0
 76
     1
 98
        0
  0
LWPOLYLINE
  5
375
330
1F
100
AcDbEntity
  8
Ech.1_2
 62
     7
370
     9
100
AcDbPolyline
 90
        5
 70
     0
 43
0.0
 10
2069.098618047816
 20
-99.69765008357354
 10
2069.098618047816
 20
-100.5309840824921
 10
2071.358340047862
 20
-100.5309840824921
 10
2071.358340047862
 20
-99.69765008357354
 10
2069.098618047816
 20
-99.69765008357354
  0
HATCH
  5
376
330
1F
100
AcDbEntity
  8
Ech.1_2
 62
   252
440
 33554687
370
     5
100
AcDbHatch
 10
0.0
 20
0.0
 30
0.0
210
0.0
220
0.0
230
1.0
  2
SOLID
 70
     1
 71
     1
 91
        1
 92
        3
 72
     0
 73
     1
 93
        4
 10
2069.098618047816
 20
-100.5309840824921
 10
2069.098618047816
 20
-101.3643180814106
 10
2071.358340047862
 20
-101.3643180814106
 10
2071.358340047862
 20
-100.5309840824921
 97
        0
 75
     0
 76
     1
 98
        0
  0
LWPOLYLINE
  5
377
330
1F
100
AcDbEntity
  8
Ech.1_2
 62
     7
370
     9
100
AcDbPolyline
 90
        5
 70
     0
 43
0.0
 10
2069.098618047816
 20
-100.5309840824921
 10
2069.098618047816
 20
-101.3643180814106
 10
2071.358340047862
 20
-101.3643180814106
 10
2071.358340047862
 20
-100.5309840824921
 10
2069.098618047816
 20
-100.5309840824921
  0
HATCH
  5
378
330
1F
100
AcDbEntity
  8
Ech.1_2
 62
   252
440
 33554687
370
     5
100
AcDbHatch
 10
0.0
 20
0.0
 30
0.0
210
0.0
220
0.0
230
1.0
  2
SOLID
 70
     1
 71
     1
 91
        1
 92
        3
 72
     0
 73
     1
 93
        4
 10
2069.098618047816
 20
-101.3643180814106
 10
2069.098618047816
 20
-102.197652080331
 10
2071.358340047862
 20
-102.1976520803291
 10
2071.358340047862
 20
-101.3643180814106
 97
        0
 75
     0
 76
     1
 98
        0
  0
LWPOLYLINE
  5
379
330
1F
100
AcDbEntity
  8
Ech.1_2
 62
     7
370
     9
100
AcDbPolyline
 90
        5
 70
     0
 43
0.0
 10
2069.098618047816
 20
-101.3643180814106
 10
2069.098618047816
 20
-102.197652080331
 10
2071.358340047862
 20
-102.1976520803291
 10
2071.358340047862
 20
-101.3643180814106
 10
2069.098618047816
 20
-101.3643180814106
  0
HATCH
  5
37A
330
1F
100
AcDbEntity
  8
Ech.1_2
 62
   252
440
 33554687
370
     5
100
AcDbHatch
 10
0.0
 20
0.0
 30
0.0
210
0.0
220
0.0
230
1.0
  2
SOLID
 70
     1
 71
     1
 91
        1
 92
        3
 72
     0
 73
     1
 93
        4
 10
2069.098618047816
 20
-102.197652080331
 10
2069.098618047816
 20
-103.0309860792477
 10
2071.358340047862
 20
-103.0309860792477
 10
2071.358340047862
 20
-102.1976520803291
 97
        0
 75
     0
 76
     1
 98
        0
  0
LWPOLYLINE
  5
37B
330
1F
100
AcDbEntity
  8
Ech.1_2
 62
     7
370
     9
100
AcDbPolyline
 90
        5
 70
     0
 43
0.0
 10
2069.098618047816
 20
-102.197652080331
 10
2069.098618047816
 20
-103.0309860792477
 10
2071.358340047862
 20
-103.0309860792477
 10
2071.358340047862
 20
-102.1976520803291
 10
2069.098618047816
 20
-102.197652080331
  0
HATCH
  5
37C
330
1F
100
AcDbEntity
  8
Ech.1_2
 62
   252
440
 33554687
370
     5
100
AcDbHatch
 10
0.0
 20
0.0
 30
0.0
210
0.0
220
0.0
230
1.0
  2
SOLID
 70
     1
 71
     1
 91
        1
 92
        3
 72
     0
 73
     1
 93
        4
 10
2069.098618047816
 20
-103.0309840824921
 10
2069.098618047816
 20
-103.8643180814106
 10
2071.358340047862
 20
-103.8643180814106
 10
2071.358340047862
 20
-103.0309840824921
 97
        0
 75
     0
 76
     1
 98
        0
  0
LWPOLYLINE
  5
37D
330
1F
100
AcDbEntity
  8
Ech.1_2
 62
     7
370
     9
100
AcDbPolyline
 90
        5
 70
     0
 43
0.0
 10
2069.098618047816
 20
-103.0309840824921
 10
2069.098618047816
 20
-103.8643180814106
 10
2071.358340047862
 20
-103.8643180814106
 10
2071.358340047862
 20
-103.0309840824921
 10
2069.098618047816
 20
-103.0309840824921
  0
HATCH
  5
37E
330
1F
100
AcDbEntity
  8
Ech.1_2
 62
   252
440
 33554687
370
     5
100
AcDbHatch
 10
0.0
 20
0.0
 30
0.0
210
0.0
220
0.0
230
1.0
  2
SOLID
 70
     1
 71
     1
 91
        1
 92
        3
 72
     0
 73
     1
 93
        4
 10
2069.098618047816
 20
-103.8643170830328
 10
2069.098618047816
 20
-104.6976510819513
 10
2071.358340047862
 20
-104.6976510819513
 10
2071.358340047862
 20
-103.8643170830328
 97
        0
 75
     0
 76
     1
 98
        0
  0
LWPOLYLINE
  5
37F
330
1F
100
AcDbEntity
  8
Ech.1_2
 62
     7
370
     9
100
AcDbPolyline
 90
        5
 70
     0
 43
0.0
 10
2069.098618047816
 20
-103.8643170830328
 10
2069.098618047816
 20
-104.6976510819513
 10
2071.358340047862
 20
-104.6976510819513
 10
2071.358340047862
 20
-103.8643170830328
 10
2069.098618047816
 20
-103.8643170830328
  0
HATCH
  5
380
330
1F
100
AcDbEntity
  8
Ech.1_2
 62
   252
440
 33554687
370
     5
100
AcDbHatch
 10
0.0
 20
0.0
 30
0.0
210
0.0
220
0.0
230
1.0
  2
SOLID
 70
     1
 71
     1
 91
        1
 92
        3
 72
     0
 73
     1
 93
        4
 10
2069.098618047816
 20
-104.6976510819513
 10
2069.098618047816
 20
-105.5309850808699
 10
2071.358340047862
 20
-105.5309850808699
 10
2071.358340047862
 20
-104.6976510819513
 97
        0
 75
     0
 76
     1
 98
        0
  0
LWPOLYLINE
  5
381
330
1F
100
AcDbEntity
  8
Ech.1_2
 62
     7
370
     9
100
AcDbPolyline
 90
        5
 70
     0
 43
0.0
 10
2069.098618047816
 20
-104.6976510819513
 10
2069.098618047816
 20
-105.5309850808699
 10
2071.358340047862
 20
-105.5309850808699
 10
2071.358340047862
 20
-104.6976510819513
 10
2069.098618047816
 20
-104.6976510819513
  0
HATCH
  5
382
330
1F
100
AcDbEntity
  8
Ech.1_2
 62
   252
440
 33554687
370
     5
100
AcDbHatch
 10
0.0
 20
0.0
 30
0.0
210
0.0
220
0.0
230
1.0
  2
SOLID
 70
     1
 71
     1
 91
        1
 92
        3
 72
     0
 73
     1
 93
        4
 10
2069.098618047816
 20
-105.5309840824921
 10
2069.098618047816
 20
-106.3643180814106
 10
2071.358340047862
 20
-106.3643180814106
 10
2071.358340047862
 20
-105.5309840824921
 97
        0
 75
     0
 76
     1
 98
        0
  0
LWPOLYLINE
  5
383
330
1F
100
AcDbEntity
  8
Ech.1_2
 62
     7
370
     9
100
AcDbPolyline
 90
        5
 70
     0
 43
0.0
 10
2069.098618047816
 20
-105.5309840824921
 10
2069.098618047816
 20
-106.3643180814106
 10
2071.358340047862
 20
-106.3643180814106
 10
2071.358340047862
 20
-105.5309840824921
 10
2069.098618047816
 20
-105.5309840824921
  0
HATCH
  5
384
330
1F
100
AcDbEntity
  8
Ech.1_2
 62
   252
440
 33554687
370
     5
100
AcDbHatch
 10
0.0
 20
0.0
 30
0.0
210
0.0
220
0.0
230
1.0
  2
SOLID
 70
     1
 71
     1
 91
        1
 92
        3
 72
     0
 73
     1
 93
        4
 10
2069.098618047816
 20
-106.3643180814106
 10
2069.098618047816
 20
-107.1976520803291
 10
2071.358340047862
 20
-107.1976520803291
 10
2071.358340047862
 20
-106.3643180814106
 97
        0
 75
     0
 76
     1
 98
        0
  0
LWPOLYLINE
  5
385
330
1F
100
AcDbEntity
  8
Ech.1_2
 62
     7
370
     9
100
AcDbPolyline
 90
        5
 70
     0
 43
0.0
 10
2069.098618047816
 20
-106.3643180814106
 10
2069.098618047816
 20
-107.1976520803291
 10
2071.358340047862
 20
-107.1976520803291
 10
2071.358340047862
 20
-106.3643180814106
 10
2069.098618047816
 20
-106.3643180814106
  0
HATCH
  5
386
330
1F
100
AcDbEntity
  8
Ech.1_2
 62
   252
440
 33554687
370
     5
100
AcDbHatch
 10
0.0
 20
0.0
 30
0.0
210
0.0
220
0.0
230
1.0
  2
SOLID
 70
     1
 71
     1
 91
        1
 92
        3
 72
     0
 73
     1
 93
        4
 10
2069.098618047816
 20
-107.1976500835735
 10
2069.098618047816
 20
-108.0309840824921
 10
2071.358340047862
 20
-108.0309840824921
 10
2071.358340047862
 20
-107.1976500835735
 97
        0
 75
     0
 76
     1
 98
        0
  0
LWPOLYLINE
  5
387
330
1F
100
AcDbEntity
  8
Ech.1_2
 62
     7
370
     9
100
AcDbPolyline
 90
        5
 70
     0
 43
0.0
 10
2069.098618047816
 20
-107.1976500835735
 10
2069.098618047816
 20
-108.0309840824921
 10
2071.358340047862
 20
-108.0309840824921
 10
2071.358340047862
 20
-107.1976500835735
 10
2069.098618047816
 20
-107.1976500835735
  0
HATCH
  5
388
330
1F
100
AcDbEntity
  8
Ech.1_2
 62
   252
440
 33554687
370
     5
100
AcDbHatch
 10
0.0
 20
0.0
 30
0.0
210
0.0
220
0.0
230
1.0
  2
SOLID
 70
     1
 71
     1
 91
        1
 92
        3
 72
     0
 73
     1
 93
        4
 10
2069.098618047816
 20
-108.0309820857365
 10
2069.098618047816
 20
-108.864316084655
 10
2071.358340047862
 20
-108.864316084655
 10
2071.358340047862
 20
-108.0309820857365
 97
        0
 75
     0
 76
     1
 98
        0
  0
LWPOLYLINE
  5
389
330
1F
100
AcDbEntity
  8
Ech.1_2
 62
     7
370
     9
100
AcDbPolyline
 90
        5
 70
     0
 43
0.0
 10
2069.098618047816
 20
-108.0309820857365
 10
2069.098618047816
 20
-108.864316084655
 10
2071.358340047862
 20
-108.864316084655
 10
2071.358340047862
 20
-108.0309820857365
 10
2069.098618047816
 20
-108.0309820857365
  0
HATCH
  5
38A
330
1F
100
AcDbEntity
  8
Ech.1_2
 62
   252
440
 33554687
370
     5
100
AcDbHatch
 10
0.0
 20
0.0
 30
0.0
210
0.0
220
0.0
230
1.0
  2
SOLID
 70
     1
 71
     1
 91
        1
 92
        3
 72
     0
 73
     1
 93
        4
 10
2069.098618047816
 20
-108.864316084655
 10
2069.098618047816
 20
-109.6976500835735
 10
2071.358340047862
 20
-109.6976500835735
 10
2071.358340047862
 20
-108.864316084655
 97
        0
 75
     0
 76
     1
 98
        0
  0
LWPOLYLINE
  5
38B
330
1F
100
AcDbEntity
  8
Ech.1_2
 62
     7
370
     9
100
AcDbPolyline
 90
        5
 70
     0
 43
0.0
 10
2069.098618047816
 20
-108.864316084655
 10
2069.098618047816
 20
-109.6976500835735
 10
2071.358340047862
 20
-109.6976500835735
 10
2071.358340047862
 20
-108.864316084655
 10
2069.098618047816
 20
-108.864316084655
  0
HATCH
  5
38C
330
1F
100
AcDbEntity
  8
Ech.1_2
 62
   252
440
 33554687
370
     5
100
AcDbHatch
 10
0.0
 20
0.0
 30
0.0
210
0.0
220
0.0
230
1.0
  2
SOLID
 70
     1
 71
     1
 91
        1
 92
        3
 72
     0
 73
     1
 93
        4
 10
2069.098618047816
 20
-109.6976500835735
 10
2069.098618047816
 20
-110.5309840824921
 10
2071.358340047862
 20
-110.5309840824921
 10
2071.358340047862
 20
-109.6976500835735
 97
        0
 75
     0
 76
     1
 98
        0
  0
LWPOLYLINE
  5
38D
330
1F
100
AcDbEntity
  8
Ech.1_2
 62
     7
370
     9
100
AcDbPolyline
 90
        5
 70
     0
 43
0.0
 10
2069.098618047816
 20
-109.6976500835735
 10
2069.098618047816
 20
-110.5309840824921
 10
2071.358340047862
 20
-110.5309840824921
 10
2071.358340047862
 20
-109.6976500835735
 10
2069.098618047816
 20
-109.6976500835735
  0
HATCH
  5
38E
330
1F
100
AcDbEntity
  8
Ech.1_2
 62
   252
440
 33554687
370
     5
100
AcDbHatch
 10
0.0
 20
0.0
 30
0.0
210
0.0
220
0.0
230
1.0
  2
SOLID
 70
     1
 71
     1
 91
        1
 92
        3
 72
     0
 73
     1
 93
        4
 10
2069.098618047816
 20
-110.5309840824921
 10
2069.098618047816
 20
-111.3643180814106
 10
2071.358340047862
 20
-111.3643180814106
 10
2071.358340047862
 20
-110.5309840824921
 97
        0
 75
     0
 76
     1
 98
        0
  0
LWPOLYLINE
  5
38F
330
1F
100
AcDbEntity
  8
Ech.1_2
 62
     7
370
     9
100
AcDbPolyline
 90
        5
 70
     0
 43
0.0
 10
2069.098618047816
 20
-110.5309840824921
 10
2069.098618047816
 20
-111.3643180814106
 10
2071.358340047862
 20
-111.3643180814106
 10
2071.358340047862
 20
-110.5309840824921
 10
2069.098618047816
 20
-110.5309840824921
  0
HATCH
  5
390
330
1F
100
AcDbEntity
  8
Ech.1_2
 62
   252
440
 33554687
370
     5
100
AcDbHatch
 10
0.0
 20
0.0
 30
0.0
210
0.0
220
0.0
230
1.0
  2
SOLID
 70
     1
 71
     1
 91
        1
 92
        3
 72
     0
 73
     1
 93
        4
 10
2069.098618047816
 20
-111.364316084655
 10
2069.098618047816
 20
-112.1976500835735
 10
2071.358340047862
 20
-112.1976500835735
 10
2071.358340047862
 20
-111.364316084655
 97
        0
 75
     0
 76
     1
 98
        0
  0
LWPOLYLINE
  5
391
330
1F
100
AcDbEntity
  8
Ech.1_2
 62
     7
370
     9
100
AcDbPolyline
 90
        5
 70
     0
 43
0.0
 10
2069.098618047816
 20
-111.364316084655
 10
2069.098618047816
 20
-112.1976500835735
 10
2071.358340047862
 20
-112.1976500835735
 10
2071.358340047862
 20
-111.364316084655
 10
2069.098618047816
 20
-111.364316084655
  0
HATCH
  5
392
330
1F
100
AcDbEntity
  8
Ech.1_2
 62
   252
440
 33554687
370
     5
100
AcDbHatch
 10
0.0
 20
0.0
 30
0.0
210
0.0
220
0.0
230
1.0
  2
SOLID
 70
     1
 71
     1
 91
        1
 92
        3
 72
     0
 73
     1
 93
        4
 10
2069.098618047816
 20
-112.1976490851957
 10
2069.098618047816
 20
-113.0309830841143
 10
2071.358340047862
 20
-113.0309830841143
 10
2071.358340047862
 20
-112.1976490851957
 97
        0
 75
     0
 76
     1
 98
        0
  0
LWPOLYLINE
  5
393
330
1F
100
AcDbEntity
  8
Ech.1_2
 62
     7
370
     9
100
AcDbPolyline
 90
        5
 70
     0
 43
0.0
 10
2069.098618047816
 20
-112.1976490851957
 10
2069.098618047816
 20
-113.0309830841143
 10
2071.358340047862
 20
-113.0309830841143
 10
2071.358340047862
 20
-112.1976490851957
 10
2069.098618047816
 20
-112.1976490851957
  0
HATCH
  5
394
330
1F
100
AcDbEntity
  8
Ech.1_2
 62
   252
440
 33554687
370
     5
100
AcDbHatch
 10
0.0
 20
0.0
 30
0.0
210
0.0
220
0.0
230
1.0
  2
SOLID
 70
     1
 71
     1
 91
        1
 92
        3
 72
     0
 73
     1
 93
        4
 10
2069.098618047816
 20
-113.0309830841143
 10
2069.098618047816
 20
-113.8643170830328
 10
2071.358340047862
 20
-113.8643170830328
 10
2071.358340047862
 20
-113.0309830841143
 97
        0
 75
     0
 76
     1
 98
        0
  0
LWPOLYLINE
  5
395
330
1F
100
AcDbEntity
  8
Ech.1_2
 62
     7
370
     9
100
AcDbPolyline
 90
        5
 70
     0
 43
0.0
 10
2069.098618047816
 20
-113.0309830841143
 10
2069.098618047816
 20
-113.8643170830328
 10
2071.358340047862
 20
-113.8643170830328
 10
2071.358340047862
 20
-113.0309830841143
 10
2069.098618047816
 20
-113.0309830841143
  0
HATCH
  5
396
330
1F
100
AcDbEntity
  8
Ech.1_2
 62
   252
440
 33554687
370
     5
100
AcDbHatch
 10
0.0
 20
0.0
 30
0.0
210
0.0
220
0.0
230
1.0
  2
SOLID
 70
     1
 71
     1
 91
        1
 92
        3
 72
     0
 73
     1
 93
        4
 10
2069.098618047816
 20
-113.864316084655
 10
2069.098618047816
 20
-114.6976500835735
 10
2071.358340047862
 20
-114.6976500835735
 10
2071.358340047862
 20
-113.864316084655
 97
        0
 75
     0
 76
     1
 98
        0
  0
LWPOLYLINE
  5
397
330
1F
100
AcDbEntity
  8
Ech.1_2
 62
     7
370
     9
100
AcDbPolyline
 90
        5
 70
     0
 43
0.0
 10
2069.098618047816
 20
-113.864316084655
 10
2069.098618047816
 20
-114.6976500835735
 10
2071.358340047862
 20
-114.6976500835735
 10
2071.358340047862
 20
-113.864316084655
 10
2069.098618047816
 20
-113.864316084655
  0
HATCH
  5
398
330
1F
100
AcDbEntity
  8
Ech.1_2
 62
   252
440
 33554687
370
     5
100
AcDbHatch
 10
0.0
 20
0.0
 30
0.0
210
0.0
220
0.0
230
1.0
  2
SOLID
 70
     1
 71
     1
 91
        1
 92
        3
 72
     0
 73
     1
 93
        4
 10
2069.098618047816
 20
-114.6976500835735
 10
2069.098618047816
 20
-115.5309840824921
 10
2071.358340047862
 20
-115.5309840824921
 10
2071.358340047862
 20
-114.6976500835735
 97
        0
 75
     0
 76
     1
 98
        0
  0
LWPOLYLINE
  5
399
330
1F
100
AcDbEntity
  8
Ech.1_2
 62
     7
370
     9
100
AcDbPolyline
 90
        5
 70
     0
 43
0.0
 10
2069.098618047816
 20
-114.6976500835735
 10
2069.098618047816
 20
-115.5309840824921
 10
2071.358340047862
 20
-115.5309840824921
 10
2071.358340047862
 20
-114.6976500835735
 10
2069.098618047816
 20
-114.6976500835735
  0
HATCH
  5
39A
330
1F
100
AcDbEntity
  8
Ech.1_2
 62
   252
440
 33554687
370
     5
100
AcDbHatch
 10
0.0
 20
0.0
 30
0.0
210
0.0
220
0.0
230
1.0
  2
SOLID
 70
     1
 71
     1
 91
        1
 92
        3
 72
     0
 73
     1
 93
        4
 10
2069.098618047816
 20
-115.5309820857365
 10
2069.098618047816
 20
-116.364316084655
 10
2071.358340047862
 20
-116.364316084655
 10
2071.358340047862
 20
-115.5309820857365
 97
        0
 75
     0
 76
     1
 98
        0
  0
LWPOLYLINE
  5
39B
330
1F
100
AcDbEntity
  8
Ech.1_2
 62
     7
370
     9
100
AcDbPolyline
 90
        5
 70
     0
 43
0.0
 10
2069.098618047816
 20
-115.5309820857365
 10
2069.098618047816
 20
-116.364316084655
 10
2071.358340047862
 20
-116.364316084655
 10
2071.358340047862
 20
-115.5309820857365
 10
2069.098618047816
 20
-115.5309820857365
  0
HATCH
  5
39C
330
1F
100
AcDbEntity
  8
Ech.1_2
 62
   252
440
 33554687
370
     5
100
AcDbHatch
 10
0.0
 20
0.0
 30
0.0
210
0.0
220
0.0
230
1.0
  2
SOLID
 70
     1
 71
     1
 91
        1
 92
        3
 72
     0
 73
     1
 93
        4
 10
2069.098618047816
 20
-116.364316084655
 10
2069.098618047816
 20
-117.1976500835735
 10
2071.358340047862
 20
-117.1976500835735
 10
2071.358340047862
 20
-116.364316084655
 97
        0
 75
     0
 76
     1
 98
        0
  0
LWPOLYLINE
  5
39D
330
1F
100
AcDbEntity
  8
Ech.1_2
 62
     7
370
     9
100
AcDbPolyline
 90
        5
 70
     0
 43
0.0
 10
2069.098618047816
 20
-116.364316084655
 10
2069.098618047816
 20
-117.1976500835735
 10
2071.358340047862
 20
-117.1976500835735
 10
2071.358340047862
 20
-116.364316084655
 10
2069.098618047816
 20
-116.364316084655
  0
HATCH
  5
39E
330
1F
100
AcDbEntity
  8
Ech.1_2
 62
   252
440
 33554687
370
     5
100
AcDbHatch
 10
0.0
 20
0.0
 30
0.0
210
0.0
220
0.0
230
1.0
  2
SOLID
 70
     1
 71
     1
 91
        1
 92
        3
 72
     0
 73
     1
 93
        4
 10
2069.098618047816
 20
-117.1976500835735
 10
2069.098618047816
 20
-118.0309840824921
 10
2071.358340047862
 20
-118.0309840824921
 10
2071.358340047862
 20
-117.1976500835735
 97
        0
 75
     0
 76
     1
 98
        0
  0
LWPOLYLINE
  5
39F
330
1F
100
AcDbEntity
  8
Ech.1_2
 62
     7
370
     9
100
AcDbPolyline
 90
        5
 70
     0
 43
0.0
 10
2069.098618047816
 20
-117.1976500835735
 10
2069.098618047816
 20
-118.0309840824921
 10
2071.358340047862
 20
-118.0309840824921
 10
2071.358340047862
 20
-117.1976500835735
 10
2069.098618047816
 20
-117.1976500835735
  0
HATCH
  5
3A0
330
1F
100
AcDbEntity
  8
Ech.1_2
 62
   252
440
 33554687
370
     5
100
AcDbHatch
 10
0.0
 20
0.0
 30
0.0
210
0.0
220
0.0
230
1.0
  2
SOLID
 70
     1
 71
     1
 91
        1
 92
        3
 72
     0
 73
     1
 93
        4
 10
2069.098618047816
 20
-118.0309840824921
 10
2069.098618047816
 20
-118.8643180814106
 10
2071.358340047862
 20
-118.8643180814106
 10
2071.358340047862
 20
-118.0309840824921
 97
        0
 75
     0
 76
     1
 98
        0
  0
LWPOLYLINE
  5
3A1
330
1F
100
AcDbEntity
  8
Ech.1_2
 62
     7
370
     9
100
AcDbPolyline
 90
        5
 70
     0
 43
0.0
 10
2069.098618047816
 20
-118.0309840824921
 10
2069.098618047816
 20
-118.8643180814106
 10
2071.358340047862
 20
-118.8643180814106
 10
2071.358340047862
 20
-118.0309840824921
 10
2069.098618047816
 20
-118.0309840824921
  0
HATCH
  5
3A2
330
1F
100
AcDbEntity
  8
Ech.1_2
 62
   252
440
 33554687
370
     5
100
AcDbHatch
 10
0.0
 20
0.0
 30
0.0
210
0.0
220
0.0
230
1.0
  2
SOLID
 70
     1
 71
     1
 91
        1
 92
        3
 72
     1
 73
     1
 93
        4
 10
2071.358340047862
 20
-123.5634000831596
 42
0.0
 10
2071.358340047862
 20
-122.1976480868179
 42
0.0
 10
2069.098618047816
 20
-122.1976480868179
 42
0.0
 10
2069.098618047816
 20
-123.5634000831596
 42
-0.3513591548518968
 97
        0
 75
     0
 76
     1
 98
        0
  0
LWPOLYLINE
  5
3A3
330
1F
100
AcDbEntity
  8
Ech.1_2
 62
     7
370
     9
100
AcDbPolyline
 90
        5
 70
     0
 43
0.0
 10
2071.358340047862
 20
-123.5634000831596
 10
2071.358340047862
 20
-122.1976480868179
 10
2069.098618047816
 20
-122.1976480868179
 10
2069.098618047816
 20
-123.5634000831596
 42
-0.3513591548518972
 10
2071.358340047862
 20
-123.5634000831596
  0
HATCH
  5
3A4
330
1F
100
AcDbEntity
  8
Ech.1_2
 62
   252
440
 33554687
370
     5
100
AcDbHatch
 10
0.0
 20
0.0
 30
0.0
210
0.0
220
0.0
230
1.0
  2
SOLID
 70
     1
 71
     1
 91
        1
 92
        3
 72
     1
 73
     1
 93
        3
 10
2070.228479047868
 20
-126.2254270845406
 42
0.0
 10
2071.358340047862
 20
-123.5634000831596
 42
0.3513591548518968
 10
2069.098618047816
 20
-123.5634000831596
 42
0.0
 97
        0
 75
     0
 76
     1
 98
        0
  0
LWPOLYLINE
  5
3A5
330
1F
100
AcDbEntity
  8
Ech.1_2
 62
     7
370
     9
100
AcDbPolyline
 90
        4
 70
     0
 43
0.0
 10
2070.228479047868
 20
-126.2254270845406
 10
2071.358340047862
 20
-123.5634000831596
 42
0.3513591548518956
 10
2069.098618047816
 20
-123.5634000831596
 10
2070.228479047868
 20
-126.2254270845406
  0
HATCH
  5
3A6
330
1F
100
AcDbEntity
  8
Ech.1_2
 62
   252
440
 33554687
370
     5
100
AcDbHatch
 10
0.0
 20
0.0
 30
0.0
210
0.0
220
0.0
230
1.0
  2
SOLID
 70
     1
 71
     1
 91
        1
 92
        3
 72
     1
 73
     1
 93
        6
 10
2069.098618047823
 20
-83.03098208573647
 42
0.0
 10
2069.098618047816
 20
-81.28098308381959
 42
0.4142135727498338
 10
2068.543062047838
 20
-80.72542708454057
 42
0.0
 10
2071.913896047905
 20
-80.72542708454057
 42
0.4142135726664101
 10
2071.358340047862
 20
-81.28098308381959
 42
0.0
 10
2071.358340047862
 20
-83.03098208573647
 42
0.0
 97
        0
 75
     0
 76
     1
 98
        0
  0
LWPOLYLINE
  5
3A7
330
1F
100
AcDbEntity
  8
Ech.1_2
 62
     7
370
     9
100
AcDbPolyline
 90
        7
 70
     0
 43
0.0
 10
2069.098618047823
 20
-83.03098208573647
 10
2069.098618047816
 20
-81.28098308381959
 42
0.4142135727497837
 10
2068.543062047838
 20
-80.72542708454057
 10
2071.913896047905
 20
-80.72542708454057
 42
0.414213572666436
 10
2071.358340047862
 20
-81.28098308381959
 10
2071.358340047862
 20
-83.03098208573647
 10
2069.098618047823
 20
-83.03098208573647
  0
HATCH
  5
3A8
330
1F
100
AcDbEntity
  8
Ech.1_2
 62
   252
440
 33554687
370
     5
100
AcDbHatch
 10
0.0
 20
0.0
 30
0.0
210
0.0
220
0.0
230
1.0
  2
SOLID
 70
     1
 71
     1
 91
        1
 92
        1
 93
        2
 72
     1
 10
2067.709729021453
 20
-80.41987208363935
 11
2072.747229074224
 21
-80.41987208363935
 72
     2
 10
2070.228479047839
 20
-92.98307547446366
 40
12.81320339082451
 50
78.66327935030459
 51
101.3367206496954
 73
     1
 97
        0
 75
     0
 76
     1
 98
        0
  0
LWPOLYLINE
  5
3A9
330
1F
100
AcDbEntity
  8
Ech.1_2
 62
     7
370
     9
100
AcDbPolyline
 90
        3
 70
     0
 43
0.0
 10
2067.709729021453
 20
-80.41987208363935
 10
2072.747229074224
 20
-80.41987208363935
 42
0.0992555820868614
 10
2067.709729021453
 20
-80.41987208363935
  0
HATCH
  5
3AA
330
1F
100
AcDbEntity
  8
Ech.1_2
 62
   252
440
 33554687
370
     5
100
AcDbHatch
 10
0.0
 20
0.0
 30
0.0
210
0.0
220
0.0
230
1.0
  2
SOLID
 70
     1
 71
     1
 91
        1
 92
        3
 72
     0
 73
     1
 93
        6
 10
2067.70972904788
 20
-80.72542708454057
 10
2068.543062047838
 20
-80.72542708454057
 10
2071.913896047905
 20
-80.72542708454057
 10
2072.747229047856
 20
-80.72542708454239
 10
2072.747229074224
 20
-80.41987208363935
 10
2067.709729021453
 20
-80.41987208363935
 97
        0
 75
     0
 76
     1
 98
        0
  0
LWPOLYLINE
  5
3AB
330
1F
100
AcDbEntity
  8
Ech.1_2
 62
     7
370
     9
100
AcDbPolyline
 90
        7
 70
     0
 43
0.0
 10
2067.70972904788
 20
-80.72542708454057
 10
2068.543062047838
 20
-80.72542708454057
 10
2071.913896047905
 20
-80.72542708454057
 10
2072.747229047856
 20
-80.72542708454239
 10
2072.747229074224
 20
-80.41987208363935
 10
2067.709729021453
 20
-80.41987208363935
 10
2067.70972904788
 20
-80.72542708454057
  0
HATCH
  5
3AC
330
1F
100
AcDbEntity
  8
Ech.1_2
 62
   252
440
 33554687
370
     5
100
AcDbHatch
 10
0.0
 20
0.0
 30
0.0
210
0.0
220
0.0
230
1.0
  2
SOLID
 70
     1
 71
     1
 91
        1
 92
        3
 72
     0
 73
     1
 93
        4
 10
2069.098618047816
 20
-118.8643180814106
 10
2069.098618047816
 20
-119.6976520803291
 10
2071.358340047862
 20
-119.6976520803291
 10
2071.358340047862
 20
-118.8643180814106
 97
        0
 75
     0
 76
     1
 98
        0
  0
LWPOLYLINE
  5
3AD
330
1F
100
AcDbEntity
  8
Ech.1_2
 62
     7
370
     9
100
AcDbPolyline
 90
        5
 70
     0
 43
0.0
 10
2069.098618047816
 20
-118.8643180814106
 10
2069.098618047816
 20
-119.6976520803291
 10
2071.358340047862
 20
-119.6976520803291
 10
2071.358340047862
 20
-118.8643180814106
 10
2069.098618047816
 20
-118.8643180814106
  0
LINE
  5
3AE
330
1F
100
AcDbEntity
  8
Ech.1_2
 62
   190
370
     9
100
AcDbLine
 10
2071.358340047862
 20
-120.5309820857365
 30
0.0
 11
2069.098618047816
 21
-120.5309820857365
 31
0.0
  0
LINE
  5
3AF
330
1F
100
AcDbEntity
  8
Ech.1_2
 62
   190
370
     9
100
AcDbLine
 10
2071.358340047862
 20
-121.364316084655
 30
0.0
 11
2069.098618047816
 21
-121.364316084655
 31
0.0
  0
LINE
  5
3B0
330
1F
100
AcDbEntity
  8
Ech.1_2
 62
   190
370
     9
100
AcDbLine
 10
2071.358340047862
 20
-122.1976480868179
 30
0.0
 11
2069.098618047816
 21
-122.1976480868179
 31
0.0
  0
LINE
  5
3B1
330
1F
100
AcDbEntity
  8
Ech.1_2
 62
   190
370
     9
100
AcDbLine
 10
2071.358340047862
 20
-119.6976500835735
 30
0.0
 11
2069.098618047816
 21
-119.6976500835735
 31
0.0
  0
HATCH
  5
3B2
330
1F
100
AcDbEntity
  8
Ech.1_2
 62
   252
440
 33554687
370
     5
100
AcDbHatch
 10
0.0
 20
0.0
 30
0.0
210
0.0
220
0.0
230
1.0
  2
SOLID
 70
     1
 71
     1
 91
        1
 92
        3
 72
     0
 73
     1
 93
        4
 10
2069.098618047816
 20
-119.6976480868179
 10
2069.098618047816
 20
-120.5309820857365
 10
2071.358340047862
 20
-120.5309820857365
 10
2071.358340047862
 20
-119.6976480868179
 97
        0
 75
     0
 76
     1
 98
        0
  0
LWPOLYLINE
  5
3B3
330
1F
100
AcDbEntity
  8
Ech.1_2
 62
     7
370
     9
100
AcDbPolyline
 90
        5
 70
     0
 43
0.0
 10
2069.098618047816
 20
-119.6976480868179
 10
2069.098618047816
 20
-120.5309820857365
 10
2071.358340047862
 20
-120.5309820857365
 10
2071.358340047862
 20
-119.6976480868179
 10
2069.098618047816
 20
-119.6976480868179
  0
HATCH
  5
3B4
330
1F
100
AcDbEntity
  8
Ech.1_2
 62
   252
440
 33554687
370
     5
100
AcDbHatch
 10
0.0
 20
0.0
 30
0.0
210
0.0
220
0.0
230
1.0
  2
SOLID
 70
     1
 71
     1
 91
        1
 92
        3
 72
     0
 73
     1
 93
        4
 10
2069.098618047816
 20
-121.3643140878994
 10
2069.098618047816
 20
-122.1976480868179
 10
2071.358340047862
 20
-122.1976480868179
 10
2071.358340047862
 20
-121.3643140878994
 97
        0
 75
     0
 76
     1
 98
        0
  0
LWPOLYLINE
  5
3B5
330
1F
100
AcDbEntity
  8
Ech.1_2
 62
     7
370
     9
100
AcDbPolyline
 90
        5
 70
     0
 43
0.0
 10
2069.098618047816
 20
-121.3643140878994
 10
2069.098618047816
 20
-122.1976480868179
 10
2071.358340047862
 20
-122.1976480868179
 10
2071.358340047862
 20
-121.3643140878994
 10
2069.098618047816
 20
-121.3643140878994
  0
LWPOLYLINE
  5
3B6
330
1F
100
AcDbEntity
  8
Ech.1_2
 62
     7
370
    20
100
AcDbPolyline
 90
       16
 70
     0
 43
0.0
 10
2199.795607023469
 20
38.46749753695804
 10
2122.191996912168
 20
38.46749753695804
 42
0.4539133373067906
 10
2120.614537870782
 20
35.85415149678192
 10
2121.985459724501
 20
32.28861783984576
 42
0.2543174404511434
 10
2123.411917418891
 20
31.03462046048844
 10
2142.228479047868
 20
31.03462046048844
 10
2142.228479047868
 20
24.49117238932558
 10
2129.687792116902
 20
24.49117238932558
 10
2129.687792116902
 20
18.45319391283738
 10
2160.039853193224
 20
18.45319391283738
 10
2164.039853192933
 20
22.45319391254998
 10
2168.039853192933
 20
18.45319391283738
 10
2187.54414481873
 20
18.45319391283738
 10
2191.544144818439
 20
22.45319391254998
 10
2195.544144818439
 20
18.45319391283738
 10
2199.795607023469
 20
18.45319391283738
  0
LWPOLYLINE
  5
3B7
330
1F
100
AcDbEntity
  8
Ech.1_2
 62
     7
370
    20
100
AcDbPolyline
 90
        8
 70
     0
 43
0.0
 10
2215.007805261335
 20
30.34058356327841
 10
2213.998620469345
 20
29.56056535041535
 10
2212.926439054132
 20
30.47290076548779
 10
2204.800704161822
 20
30.47290076548779
 42
-0.3131334096938037
 10
2202.983394808183
 20
31.77443623110048
 10
2200.968541442922
 20
37.41528509110321
 42
0.2555986236787179
 10
2199.795607023469
 20
38.46749753695804
 10
2186.801092490688
 20
38.46749753695804
  0
LINE
  5
3B8
330
1F
100
AcDbEntity
  8
Ech.1_2
 62
     7
370
    20
100
AcDbLine
 10
2196.538787124915
 20
18.45319391284102
 30
0.0
 11
2215.007805261335
 21
18.45319391284102
 31
0.0
  0
HATCH
  5
3B9
330
1F
100
AcDbEntity
  8
Ech.1_2
 62
    17
420
  8405056
440
 33554687
370
    20
100
AcDbHatch
 10
0.0
 20
0.0
 30
0.0
210
0.0
220
0.0
230
1.0
  2
SOLID
 70
     1
 71
     1
 91
        1
 92
        3
 72
     1
 73
     1
 93
       22
 10
2195.544144818439
 20
18.45319391283738
 42
0.0
 10
2215.007805261335
 20
18.45319391284102
 42
0.0
 10
2215.007805261335
 20
30.34058356327841
 42
0.0
 10
2213.998620469345
 20
29.56056535041535
 42
0.0
 10
2212.926439054132
 20
30.47290076548779
 42
0.0
 10
2204.800704161822
 20
30.47290076548779
 42
-0.3131334096939249
 10
2202.983394808183
 20
31.77443623110048
 42
0.0
 10
2200.968541442922
 20
37.41528509110321
 42
0.2555986236784753
 10
2199.795607023469
 20
38.46749753695804
 42
0.0
 10
2122.191996912168
 20
38.46749753695804
 42
0.4539133373070179
 10
2120.614537870782
 20
35.85415149678192
 42
0.0
 10
2121.985459724501
 20
32.28861783984576
 42
0.2543174404513491
 10
2123.411917418891
 20
31.03462046048844
 42
0.0
 10
2142.228479047868
 20
31.03462046048844
 42
0.0
 10
2142.228479047868
 20
24.49117238932558
 42
0.0
 10
2129.687792116902
 20
24.49117238932558
 42
0.0
 10
2129.687792116902
 20
18.45319391283738
 42
0.0
 10
2160.039853193224
 20
18.45319391283738
 42
0.0
 10
2164.039853192933
 20
22.45319391254998
 42
0.0
 10
2168.039853192933
 20
18.45319391283738
 42
0.0
 10
2187.54414481873
 20
18.45319391283738
 42
0.0
 10
2191.544144818439
 20
22.45319391254998
 42
0.0
 97
        0
 75
     0
 76
     1
 98
        0
  0
LWPOLYLINE
  5
3BA
330
1F
100
AcDbEntity
  8
Ech.1_2
 62
     7
370
    50
100
AcDbPolyline
 90
       23
 70
     0
 43
0.0
 10
2195.544144818439
 20
18.45319391283738
 10
2215.007805261335
 20
18.45319391284102
 10
2215.007805261335
 20
30.34058356327841
 10
2213.998620469345
 20
29.56056535041535
 10
2212.926439054132
 20
30.47290076548779
 10
2204.800704161822
 20
30.47290076548779
 42
-0.3131334096938037
 10
2202.983394808183
 20
31.77443623110048
 10
2200.968541442922
 20
37.41528509110321
 42
0.2555986236787179
 10
2199.795607023469
 20
38.46749753695804
 10
2122.191996912168
 20
38.46749753695804
 42
0.4539133373067906
 10
2120.614537870782
 20
35.85415149678192
 10
2121.985459724501
 20
32.28861783984576
 42
0.2543174404511434
 10
2123.411917418891
 20
31.03462046048844
 10
2142.228479047868
 20
31.03462046048844
 10
2142.228479047868
 20
24.49117238932558
 10
2129.687792116902
 20
24.49117238932558
 10
2129.687792116902
 20
18.45319391283738
 10
2160.039853193224
 20
18.45319391283738
 10
2164.039853192933
 20
22.45319391254998
 10
2168.039853192933
 20
18.45319391283738
 10
2187.54414481873
 20
18.45319391283738
 10
2191.544144818439
 20
22.45319391254998
 10
2195.544144818439
 20
18.45319391283738
  0
LWPOLYLINE
  5
3BB
330
1F
100
AcDbEntity
  8
Ech.1_2
 62
     7
370
    20
100
AcDbPolyline
 90
        7
 70
     0
 43
0.0
 10
1989.490760238295
 20
21.90410095791412
 10
1990.039853192931
 20
22.45319391254998
 10
1994.039853192931
 20
18.45319391283738
 10
2013.544144818727
 20
18.45319391283738
 10
2017.544144818436
 20
22.45319391254998
 10
2021.544144818436
 20
18.45319391283738
 10
2025.795607023467
 20
18.45319391283738
  0
LINE
  5
3BC
330
1F
100
AcDbEntity
  8
Ech.1_2
 62
     7
370
    20
100
AcDbLine
 10
2025.795607023467
 20
38.4674975369544
 30
0.0
 11
1989.490760238295
 21
38.4674975369544
 31
0.0
  0
LWPOLYLINE
  5
3BD
330
1F
100
AcDbEntity
  8
Ech.1_2
 62
     7
370
    20
100
AcDbPolyline
 90
       15
 70
     0
 43
0.0
 10
2022.538787124911
 20
18.45319391283738
 10
2042.6877921169
 20
18.45319391283738
 10
2042.6877921169
 20
24.92335315310811
 10
2050.580625979843
 20
24.92335315310811
 10
2054.531714850333
 20
26.16703000159578
 10
2054.531714850333
 20
29.66207755017058
 10
2051.871874457198
 20
30.47290076548416
 10
2041.178996787357
 20
30.47290076548416
 10
2039.998620469343
 20
29.56056535041535
 10
2038.92643905413
 20
30.47290076548416
 10
2030.800704161818
 20
30.47290076548416
 42
-0.313133409694565
 10
2028.983394808181
 20
31.77443623110048
 10
2026.96854144292
 20
37.41528509110321
 42
0.2555986236752838
 10
2025.795607023467
 20
38.46749753695804
 10
2012.801092490685
 20
38.46749753695804
  0
HATCH
  5
3BE
330
1F
100
AcDbEntity
  8
Ech.1_2
 62
    17
420
  8405056
440
 33554687
370
    20
100
AcDbHatch
 10
0.0
 20
0.0
 30
0.0
210
0.0
220
0.0
230
1.0
  2
SOLID
 70
     1
 71
     1
 91
        1
 92
        3
 72
     1
 73
     1
 93
       20
 10
2050.580625979843
 20
24.92335315310811
 42
0.0
 10
2054.531714850333
 20
26.16703000159578
 42
0.0
 10
2054.531714850333
 20
29.66207755017058
 42
0.0
 10
2051.871874457198
 20
30.47290076548416
 42
0.0
 10
2041.178996787357
 20
30.47290076548416
 42
0.0
 10
2039.998620469343
 20
29.56056535041535
 42
0.0
 10
2038.92643905413
 20
30.47290076548416
 42
0.0
 10
2030.800704161818
 20
30.47290076548416
 42
-0.3131334096944879
 10
2028.983394808181
 20
31.77443623110048
 42
0.0
 10
2026.96854144292
 20
37.41528509110321
 42
0.2555986236752198
 10
2025.795607023467
 20
38.46749753695804
 42
0.0
 10
1989.490760238295
 20
38.46749753695622
 42
0.0
 10
1989.490760238295
 20
21.90410095791412
 42
0.0
 10
1990.039853192931
 20
22.45319391254998
 42
0.0
 10
1994.039853192931
 20
18.45319391283738
 42
0.0
 10
2013.544144818727
 20
18.45319391283738
 42
0.0
 10
2017.544144818436
 20
22.45319391254998
 42
0.0
 10
2021.544144818436
 20
18.45319391283738
 42
0.0
 10
2042.6877921169
 20
18.45319391283738
 42
0.0
 10
2042.6877921169
 20
24.92335315310811
 42
0.0
 97
        0
 75
     0
 76
     1
 98
        0
  0
LWPOLYLINE
  5
3BF
330
1F
100
AcDbEntity
  8
Ech.1_2
 62
     7
370
    50
100
AcDbPolyline
 90
       21
 70
     0
 43
0.0
 10
2050.580625979843
 20
24.92335315310811
 10
2054.531714850333
 20
26.16703000159578
 10
2054.531714850333
 20
29.66207755017058
 10
2051.871874457198
 20
30.47290076548416
 10
2041.178996787357
 20
30.47290076548416
 10
2039.998620469343
 20
29.56056535041535
 10
2038.92643905413
 20
30.47290076548416
 10
2030.800704161818
 20
30.47290076548416
 42
-0.313133409694565
 10
2028.983394808181
 20
31.77443623110048
 10
2026.96854144292
 20
37.41528509110321
 42
0.2555986236752838
 10
2025.795607023467
 20
38.46749753695804
 10
1989.490760238295
 20
38.46749753695622
 10
1989.490760238295
 20
21.90410095791412
 10
1990.039853192931
 20
22.45319391254998
 10
1994.039853192931
 20
18.45319391283738
 10
2013.544144818727
 20
18.45319391283738
 10
2017.544144818436
 20
22.45319391254998
 10
2021.544144818436
 20
18.45319391283738
 10
2042.6877921169
 20
18.45319391283738
 10
2042.6877921169
 20
24.92335315310811
 10
2050.580625979843
 20
24.92335315310811
  0
HATCH
  5
3C0
330
1F
100
AcDbEntity
  8
Ech.1_2
 62
    17
420
  8405056
440
 33554687
370
    20
100
AcDbHatch
 10
0.0
 20
0.0
 30
0.0
210
0.0
220
0.0
230
1.0
  2
SOLID
 70
     1
 71
     1
 91
        1
 92
        3
 72
     1
 73
     1
 93
        6
 10
2210.411917418893
 20
-88.68197901308304
 42
0.0
 10
2215.007805261335
 20
-88.68197901308304
 42
0.0
 10
2215.007805261335
 20
-81.24910193661344
 42
0.0
 10
2209.19199691217
 20
-81.24910193661344
 42
0.4539133373073938
 10
2207.614537870784
 20
-83.86244797678773
 42
0.0
 10
2208.985459724503
 20
-87.42798163372572
 42
0.2543174404524801
 97
        0
 75
     0
 76
     1
 98
        0
  0
LWPOLYLINE
  5
3C1
330
1F
100
AcDbEntity
  8
Ech.1_2
 62
     7
370
    50
100
AcDbPolyline
 90
        7
 70
     0
 43
0.0
 10
2210.411917418893
 20
-88.68197901308304
 10
2215.007805261335
 20
-88.68197901308304
 10
2215.007805261335
 20
-81.24910193661344
 10
2209.19199691217
 20
-81.24910193661344
 42
0.453913337307332
 10
2207.614537870784
 20
-83.86244797678773
 10
2208.985459724503
 20
-87.42798163372572
 42
0.2543174404525819
 10
2210.411917418893
 20
-88.68197901308304
  0
LWPOLYLINE
  5
3C2
330
1F
100
AcDbEntity
  8
Ech.1_2
 62
     7
370
    20
100
AcDbPolyline
 90
       16
 70
     0
 43
0.0
 10
2199.795607023469
 20
-81.24910193661162
 10
2122.191996912168
 20
-81.24910193661162
 42
0.4539133373067906
 10
2120.614537870782
 20
-83.86244797678773
 10
2121.985459724501
 20
-87.4279816337239
 42
0.2543174404511434
 10
2123.411917418891
 20
-88.68197901308122
 10
2142.228479047868
 20
-88.68197901308122
 10
2142.228479047868
 20
-95.22542708424407
 10
2129.687792116902
 20
-95.22542708424407
 10
2129.687792116902
 20
-101.2634055607323
 10
2160.039853193224
 20
-101.2634055607323
 10
2164.039853192933
 20
-97.26340556101968
 10
2168.039853192933
 20
-101.2634055607323
 10
2187.54414481873
 20
-101.2634055607323
 10
2191.544144818439
 20
-97.26340556101968
 10
2195.544144818439
 20
-101.2634055607323
 10
2199.795607023469
 20
-101.2634055607323
  0
LWPOLYLINE
  5
3C3
330
1F
100
AcDbEntity
  8
Ech.1_2
 62
     7
370
    20
100
AcDbPolyline
 90
        8
 70
     0
 43
0.0
 10
2215.007805261335
 20
-89.37601591029124
 10
2213.998620469345
 20
-90.15603412315431
 10
2212.926439054132
 20
-89.24369870808187
 10
2204.800704161822
 20
-89.24369870808187
 42
-0.3131334096938037
 10
2202.983394808183
 20
-87.94216324246918
 10
2200.968541442922
 20
-82.30131438246644
 42
0.2555986236787179
 10
2199.795607023469
 20
-81.24910193661162
 10
2186.801092490688
 20
-81.24910193661162
  0
LINE
  5
3C4
330
1F
100
AcDbEntity
  8
Ech.1_2
 62
     7
370
    20
100
AcDbLine
 10
2196.538787124915
 20
-101.2634055607286
 30
0.0
 11
2215.007805261335
 21
-101.2634055607286
 31
0.0
  0
HATCH
  5
3C5
330
1F
100
AcDbEntity
  8
Ech.1_2
 62
    17
420
  8405056
440
 33554687
370
    20
100
AcDbHatch
 10
0.0
 20
0.0
 30
0.0
210
0.0
220
0.0
230
1.0
  2
SOLID
 70
     1
 71
     1
 91
        1
 92
        3
 72
     1
 73
     1
 93
       22
 10
2195.544144818439
 20
-101.2634055607323
 42
0.0
 10
2215.007805261335
 20
-101.2634055607286
 42
0.0
 10
2215.007805261335
 20
-89.37601591029124
 42
0.0
 10
2213.998620469345
 20
-90.15603412315431
 42
0.0
 10
2212.926439054132
 20
-89.24369870808187
 42
0.0
 10
2204.800704161822
 20
-89.24369870808187
 42
-0.3131334096939197
 10
2202.983394808183
 20
-87.94216324246918
 42
0.0
 10
2200.968541442922
 20
-82.30131438246644
 42
0.2555986236784619
 10
2199.795607023469
 20
-81.24910193661162
 42
0.0
 10
2122.191996912168
 20
-81.24910193661162
 42
0.4539133373070179
 10
2120.614537870782
 20
-83.86244797678773
 42
0.0
 10
2121.985459724501
 20
-87.4279816337239
 42
0.2543174404513547
 10
2123.411917418891
 20
-88.68197901308122
 42
0.0
 10
2142.228479047868
 20
-88.68197901308122
 42
0.0
 10
2142.228479047868
 20
-95.22542708424407
 42
0.0
 10
2129.687792116902
 20
-95.22542708424407
 42
0.0
 10
2129.687792116902
 20
-101.2634055607323
 42
0.0
 10
2160.039853193224
 20
-101.2634055607323
 42
0.0
 10
2164.039853192933
 20
-97.26340556101968
 42
0.0
 10
2168.039853192933
 20
-101.2634055607323
 42
0.0
 10
2187.54414481873
 20
-101.2634055607323
 42
0.0
 10
2191.544144818439
 20
-97.26340556101968
 42
0.0
 97
        0
 75
     0
 76
     1
 98
        0
  0
LWPOLYLINE
  5
3C6
330
1F
100
AcDbEntity
  8
Ech.1_2
 62
     7
370
    50
100
AcDbPolyline
 90
       23
 70
     0
 43
0.0
 10
2195.544144818439
 20
-101.2634055607323
 10
2215.007805261335
 20
-101.2634055607286
 10
2215.007805261335
 20
-89.37601591029124
 10
2213.998620469345
 20
-90.15603412315431
 10
2212.926439054132
 20
-89.24369870808187
 10
2204.800704161822
 20
-89.24369870808187
 42
-0.3131334096938037
 10
2202.983394808183
 20
-87.94216324246918
 10
2200.968541442922
 20
-82.30131438246644
 42
0.2555986236787179
 10
2199.795607023469
 20
-81.24910193661162
 10
2122.191996912168
 20
-81.24910193661162
 42
0.4539133373067906
 10
2120.614537870782
 20
-83.86244797678773
 10
2121.985459724501
 20
-87.4279816337239
 42
0.2543174404511434
 10
2123.411917418891
 20
-88.68197901308122
 10
2142.228479047868
 20
-88.68197901308122
 10
2142.228479047868
 20
-95.22542708424407
 10
2129.687792116902
 20
-95.22542708424407
 10
2129.687792116902
 20
-101.2634055607323
 10
2160.039853193224
 20
-101.2634055607323
 10
2164.039853192933
 20
-97.26340556101968
 10
2168.039853192933
 20
-101.2634055607323
 10
2187.54414481873
 20
-101.2634055607323
 10
2191.544144818439
 20
-97.26340556101968
 10
2195.544144818439
 20
-101.2634055607323
  0
LWPOLYLINE
  5
3C7
330
1F
100
AcDbEntity
  8
Ech.1_2
 62
     7
370
    20
100
AcDbPolyline
 90
        7
 70
     0
 43
0.0
 10
1989.490760238295
 20
-97.81249851565553
 10
1990.039853192931
 20
-97.26340556101968
 10
1994.039853192931
 20
-101.2634055607323
 10
2013.544144818727
 20
-101.2634055607323
 10
2017.544144818436
 20
-97.26340556101968
 10
2021.544144818436
 20
-101.2634055607323
 10
2025.795607023467
 20
-101.2634055607323
  0
LINE
  5
3C8
330
1F
100
AcDbEntity
  8
Ech.1_2
 62
     7
370
    20
100
AcDbLine
 10
2025.795607023467
 20
-81.24910193661526
 30
0.0
 11
1989.490760238295
 21
-81.24910193661526
 31
0.0
  0
LWPOLYLINE
  5
3C9
330
1F
100
AcDbEntity
  8
Ech.1_2
 62
     7
370
    20
100
AcDbPolyline
 90
       15
 70
     0
 43
0.0
 10
2022.538787124911
 20
-101.2634055607323
 10
2042.6877921169
 20
-101.2634055607323
 10
2042.6877921169
 20
-94.79324632046155
 10
2050.580625979843
 20
-94.79324632046155
 10
2054.531714850333
 20
-93.54956947197388
 10
2054.531714850333
 20
-90.05452192339908
 10
2051.871874457198
 20
-89.2436987080855
 10
2041.178996787357
 20
-89.2436987080855
 10
2039.998620469343
 20
-90.15603412315431
 10
2038.92643905413
 20
-89.2436987080855
 10
2030.800704161818
 20
-89.2436987080855
 42
-0.313133409694565
 10
2028.983394808181
 20
-87.94216324246918
 10
2026.96854144292
 20
-82.30131438246644
 42
0.2555986236752838
 10
2025.795607023467
 20
-81.24910193661162
 10
2012.801092490685
 20
-81.24910193661162
  0
HATCH
  5
3CA
330
1F
100
AcDbEntity
  8
Ech.1_2
 62
    17
420
  8405056
440
 33554687
370
    20
100
AcDbHatch
 10
0.0
 20
0.0
 30
0.0
210
0.0
220
0.0
230
1.0
  2
SOLID
 70
     1
 71
     1
 91
        1
 92
        3
 72
     1
 73
     1
 93
       20
 10
2050.580625979843
 20
-94.79324632046155
 42
0.0
 10
2054.531714850333
 20
-93.54956947197388
 42
0.0
 10
2054.531714850333
 20
-90.05452192339908
 42
0.0
 10
2051.871874457198
 20
-89.2436987080855
 42
0.0
 10
2041.178996787357
 20
-89.2436987080855
 42
0.0
 10
2039.998620469343
 20
-90.15603412315431
 42
0.0
 10
2038.92643905413
 20
-89.2436987080855
 42
0.0
 10
2030.800704161818
 20
-89.2436987080855
 42
-0.3131334096944853
 10
2028.983394808181
 20
-87.94216324246918
 42
0.0
 10
2026.96854144292
 20
-82.30131438246644
 42
0.2555986236752198
 10
2025.795607023467
 20
-81.24910193661162
 42
0.0
 10
1989.490760238295
 20
-81.24910193661344
 42
0.0
 10
1989.490760238295
 20
-97.81249851565553
 42
0.0
 10
1990.039853192931
 20
-97.26340556101968
 42
0.0
 10
1994.039853192931
 20
-101.2634055607323
 42
0.0
 10
2013.544144818727
 20
-101.2634055607323
 42
0.0
 10
2017.544144818436
 20
-97.26340556101968
 42
0.0
 10
2021.544144818436
 20
-101.2634055607323
 42
0.0
 10
2042.6877921169
 20
-101.2634055607323
 42
0.0
 10
2042.6877921169
 20
-94.79324632046155
 42
0.0
 97
        0
 75
     0
 76
     1
 98
        0
  0
LWPOLYLINE
  5
3CB
330
1F
100
AcDbEntity
  8
Ech.1_2
 62
     7
370
    50
100
AcDbPolyline
 90
       21
 70
     0
 43
0.0
 10
2050.580625979843
 20
-94.79324632046155
 10
2054.531714850333
 20
-93.54956947197388
 10
2054.531714850333
 20
-90.05452192339908
 10
2051.871874457198
 20
-89.2436987080855
 10
2041.178996787357
 20
-89.2436987080855
 10
2039.998620469343
 20
-90.15603412315431
 10
2038.92643905413
 20
-89.2436987080855
 10
2030.800704161818
 20
-89.2436987080855
 42
-0.313133409694565
 10
2028.983394808181
 20
-87.94216324246918
 10
2026.96854144292
 20
-82.30131438246644
 42
0.2555986236752838
 10
2025.795607023467
 20
-81.24910193661162
 10
1989.490760238295
 20
-81.24910193661344
 10
1989.490760238295
 20
-97.81249851565553
 10
1990.039853192931
 20
-97.26340556101968
 10
1994.039853192931
 20
-101.2634055607323
 10
2013.544144818727
 20
-101.2634055607323
 10
2017.544144818436
 20
-97.26340556101968
 10
2021.544144818436
 20
-101.2634055607323
 10
2042.6877921169
 20
-101.2634055607323
 10
2042.6877921169
 20
-94.79324632046155
 10
2050.580625979843
 20
-94.79324632046155
  0
LWPOLYLINE
  5
3CC
330
1F
100
AcDbEntity
  8
Ech.1_2
 62
   190
370
    20
100
AcDbPolyline
 90
        5
 70
     0
 43
0.0
 10
1895.567125741485
 20
-275.8756280007565
 10
2289.567125741487
 20
-275.8756280007565
 10
2289.567125741487
 20
-330.8408568267787
 10
1895.567125741485
 20
-330.8408568267787
 10
1895.567125741485
 20
-275.8756280007565
  0
LWPOLYLINE
  5
3CD
330
1F
100
AcDbEntity
  8
Ech.1_2
 62
   190
370
    20
100
AcDbPolyline
 90
        5
 70
     0
 43
0.0
 10
2289.567125741487
 20
172.952357970913
 10
1895.567125741485
 20
172.952357970913
 10
1895.567125741485
 20
211.1591431731722
 10
2289.567125741487
 20
211.1591431731722
 10
2289.567125741487
 20
172.952357970913
  0
LWPOLYLINE
  5
3CE
330
1F
100
AcDbEntity
  8
Ech.1_2
 62
   190
370
    20
100
AcDbPolyline
 90
        5
 70
     0
 43
0.0
 10
2289.567125741487
 20
-284.6756280007558
 10
1895.567125741485
 20
-284.6756280007558
 10
1895.567125741485
 20
-275.8756280007565
 10
2289.567125741487
 20
-275.8756280007565
 10
2289.567125741487
 20
-284.6756280007558
  0
LWPOLYLINE
  5
3CF
330
1F
100
AcDbEntity
  8
Ech.1_2
 62
   190
370
    20
100
AcDbPolyline
 90
        5
 70
     0
 43
0.0
 10
2289.567125741487
 20
-307.4240860928894
 10
1895.567125741485
 20
-307.4240860928894
 10
1895.567125741485
 20
-297.9332747685967
 10
2289.567125741487
 20
-297.9332747685967
 10
2289.567125741487
 20
-307.4240860928894
  0
LINE
  5
3D0
330
1F
100
AcDbEntity
  8
Ech.1_2
 62
   190
370
    20
100
AcDbLine
 10
1970.848950526668
 20
-275.8756280007565
 30
0.0
 11
1970.848950526668
 21
-284.6756280007558
 31
0.0
  0
LINE
  5
3D1
330
1F
100
AcDbEntity
  8
Ech.1_2
 62
   190
370
    20
100
AcDbLine
 10
2233.64819157889
 20
-275.8756280007565
 30
0.0
 11
2233.64819157889
 21
-284.6756280007558
 31
0.0
  0
LINE
  5
3D2
330
1F
100
AcDbEntity
  8
Ech.1_2
 62
   190
370
    20
100
AcDbLine
 10
2033.311037724809
 20
-275.8756280007565
 30
0.0
 11
2033.311037724809
 21
-284.6756280007558
 31
0.0
  0
IMAGE
  5
3D5
330
1F
100
AcDbEntity
  8
Ech.1_2
160
                 8
310
0800000000000000
100
AcDbRasterImage
 90
        0
 10
1971.992825237838
 20
-328.8266378343596
 30
0.0
 11
0.1133603238866397
 21
0.0
 31
0.0
 12
0.0
 22
0.1111111111111111
 32
0.0
 13
247.0
 23
171.0
340
3D4
 70
     3
280
     0
281
    50
282
    50
283
     0
360
3D6
 71
     1
 91
        2
 14
-0.5
 24
-0.5
 14
246.5
 24
170.5
290
     0
  0
IMAGE
  5
3D8
330
1F
100
AcDbEntity
  8
Ech.1_2
160
                 8
310
0800000000000000
100
AcDbRasterImage
 90
        0
 10
2076.423893734633
 20
-329.8484827558732
 30
0.0
 11
0.16
 21
0.0
 31
0.0
 12
0.0
 22
0.1578947368421053
 32
0.0
 13
200.0
 23
133.0
340
3D7
 70
     3
280
     0
281
    50
282
    50
283
     0
360
3D9
 71
     1
 91
        2
 14
-0.5
 24
-0.5
 14
199.5
 24
132.5
290
     0
  0
IMAGE
  5
3DB
330
1F
100
AcDbEntity
  8
Ech.1_2
160
                 8
310
0800000000000000
100
AcDbRasterImage
 90
        0
 10
2173.773760286289
 20
-330.3304739218529
 30
0.0
 11
0.03770739064856712
 21
0.0
 31
0.0
 12
0.0
 22
0.03793103448275862
 32
0.0
 13
1326.0
 23
580.0
340
3DA
 70
     3
280
     0
281
    50
282
    50
283
     0
360
3DC
 71
     1
 91
        2
 14
-0.5
 24
-0.5
 14
1325.5
 24
579.5
290
     0
  0
LWPOLYLINE
  5
3DD
330
1F
100
AcDbEntity
  8
Ech.1_2
 62
   190
370
    20
100
AcDbPolyline
 90
        5
 70
     0
 43
0.0
 10
2289.567125741487
 20
-330.8408568267787
 10
2289.567125741487
 20
211.1591431732195
 10
1895.567125741485
 20
211.1591431732195
 10
1895.567125741485
 20
-330.8408568267787
 10
2289.567125741487
 20
-330.8408568267787
  0
LINE
  5
3DE
330
1F
100
AcDbEntity
  8
Ech.1_2
 62
   190
370
    20
100
AcDbLine
 10
2289.567125741487
 20
199.1591431731722
 30
0.0
 11
1895.567125741485
 21
199.1591431731722
 31
0.0
  0
DIMENSION
  5
3DF
102
{ACAD_REACTORS
330
3E0
102
}
330
1F
100
AcDbEntity
  8
Ech.1_2
 62
   190
370
    20
100
AcDbDimension
280
     0
  2
*D70
 10
2120.614537870782
 20
64.67647127953751
 30
0.0
 11
0.0
 21
0.0
 31
0.0
 70
    32
  1
 
 71
     5
 42
87.61653590609967
 73
     0
 74
     0
 75
     0
  3
Standard
100
AcDbAlignedDimension
 13
2032.998001964683
 23
42.74570687601772
 33
0.0
 14
2120.614537870782
 24
41.85415149678192
 34
0.0
 50
180.0
100
AcDbRotatedDimension
1001
ACAD
1000
DSTYLE
1002
{
1070
   147
1040
0.0
1070
   144
1040
1.0
1070
    42
1040
0.0
1070
    44
1040
2.0
1070
    41
1040
2.0
1070
   342
1005
1AB
1070
   175
1070
     1
1070
   279
1070
     2
1070
   172
1070
     1
1002
}
  0
DIMENSION
  5
3EE
102
{ACAD_REACTORS
330
3EF
102
}
330
1F
100
AcDbEntity
  8
Ech.1_2
 62
   190
370
    20
100
AcDbDimension
280
     0
  2
*D71
 10
2070.228479048643
 20
-142.1445702918209
 30
0.0
 11
2062.728479047853
 21
-137.6445702919682
 31
0.0
 70
   161
 71
     5
 42
14.9999999999709
 73
     0
 74
     0
 75
     0
  3
Standard
100
AcDbAlignedDimension
 13
2055.228479047868
 23
-101.2254270842459
 33
0.0
 14
2070.228479047839
 24
-101.2254270839512
 34
0.0
1001
ACAD
1000
DSTYLE
1002
{
1070
   178
1070
   190
1070
   271
1070
     0
1070
   147
1040
0.0
1070
   140
1040
5.0
1070
   340
1005
3ED
1070
   144
1040
1.0
1070
    42
1040
0.0
1070
    44
1040
2.0
1070
    41
1040
2.0
1070
   342
1005
1AB
1070
   175
1070
     1
1070
   279
1070
     2
1070
   172
1070
     1
1002
}
  0
DIMENSION
  5
3FC
102
{ACAD_REACTORS
330
3FD
102
}
330
1F
100
AcDbEntity
  8
Ech.1_2
 62
   190
370
    20
100
AcDbDimension
280
     0
  2
*D72
 10
2120.614537870782
 20
-55.04012819403398
 30
0.0
 11
0.0
 21
0.0
 31
0.0
 70
    32
  1
 
 71
     5
 42
87.61653590609967
 73
     0
 74
     0
 75
     0
  3
Standard
100
AcDbAlignedDimension
 13
2032.998001964683
 23
-76.97089259755376
 33
0.0
 14
2120.614537870782
 24
-77.86244797678955
 34
0.0
 50
180.0
100
AcDbRotatedDimension
1001
ACAD
1000
DSTYLE
1002
{
1070
   147
1040
0.0
1070
   144
1040
1.0
1070
    42
1040
0.0
1070
    44
1040
2.0
1070
    41
1040
2.0
1070
   342
1005
1AB
1070
   175
1070
     1
1070
   279
1070
     2
1070
   172
1070
     1
1002
}
  0
MTEXT
  5
409
330
1F
100
AcDbEntity
  8
Ech.1_2
 62
     4
420
    65535
100
AcDbMText
 10
2133.479614651849
 20
-277.3512011188086
 30
0.0
 40
5.0
 41
195.3371538540814
 46
0.0
 71
     2
 72
     1
  1
{\fArial|b0|i0;\W1.000000;\H5.000000;\c16711848;Vues en coupe horizontale}
 73
     1
 44
1.07999975538982
  0
MTEXT
  5
40A
330
1F
100
AcDbEntity
  8
Ech.1_2
 62
     4
420
    65535
100
AcDbMText
 10
2261.607658660188
 20
-277.2843305217448
 30
0.0
 40
5.0
 41
50.918934162597
 46
0.0
 71
     2
 72
     1
  1
{\fArial|b0|i0;\W1.000000;\H5.000000;\c16711848;Ech 1/2 }
 73
     1
 44
1.07999975538982
  0
MTEXT
  5
40B
330
1F
100
AcDbEntity
  8
Ech.1_2
 62
     4
420
    65535
100
AcDbMText
 10
2002.079994125738
 20
-277.1756280007558
 30
0.0
 40
5.0
 41
57.46208719814058
 46
0.0
 71
     2
 72
     1
  1
{\fArial|b0|i0;\W1.000000;\H5.000000;\c16711848;BLEVT50-06}
 73
     1
 44
1.07999975538982
  0
MTEXT
  5
40C
330
1F
100
AcDbEntity
  8
Ech.1_2
 62
   200
420
 11010303
100
AcDbMText
 10
2092.567125741486
 20
-285.8832749354897
 30
0.0
 40
2.5
 41
391.5000000000018
 46
0.0
 71
     2
 72
     1
  3
{\fArial|b0|i1;\W1.000000;\H2.500000;\c16711848; Il est rappelé à l'utilisateur qui consulte le site et utilise les informations qu'il contient, qu'il doit les utiliser sous sa seule responsabilité en vérifiant leur pertinence, leur cohérence et leur
  1
 non obsolescence.}
 73
     1
 44
1.07999975538982
  0
MTEXT
  5
40D
330
1F
100
AcDbEntity
  8
Ech.1_2
 62
   200
420
 11010303
100
AcDbMText
 10
2092.567125741486
 20
-299.5490860928894
 30
0.0
 40
3.25
 41
390.7500000000018
 46
0.0
 71
     2
 72
     1
  1
{\fArial|b0|i1;\W1.000000;\H3.250000;\c16711848;www.catalogue-bois-construction.fr}
 73
     1
 44
1.07999975538982
  0
MTEXT
  5
40E
330
1F
100
AcDbEntity
  8
Ech.1_2
 62
     4
420
    65535
100
AcDbMText
 10
2092.567125741486
 20
182.7951542040028
 30
0.0
 40
6.0
 41
388.0000000000018
 46
0.0
 71
     2
 72
     1
  1
{\fArial|b0|i0;\W1.000000;\H6.000000;\c16711848;Partie courante - Détails fixation lame largeur utile inférieure à 100 mm inclus}
 73
     1
 44
1.07999975538982
  0
MTEXT
  5
40F
330
1F
100
AcDbEntity
  8
Ech.1_2
 62
   200
420
 11010303
100
AcDbMText
 10
2092.567125741485
 20
208.1591431732122
 30
0.0
 40
6.0
 41
388.0
 46
0.0
 71
     2
 72
     1
  1
{\fArial|b1|i0;\W1.000000;\H6.000000;\c16711848;BARDAGES EN LAMES : lames à emboitement - pose verticale (épaisseur 26 mm mini)}
 73
     1
 44
1.07999975538982
1001
ACAD
1000
ACAD_MTEXT_TEXT_BORDERS_BEGIN
1070
    80
1070
    16
1070
    46
1040
1.5
1070
    81
1070
     1
1070
     5
1005
413
1000
ACAD_MTEXT_TEXT_BORDERS_END
  0
TEXT
  5
410
330
1F
100
AcDbEntity
  8
Ech.1_2
 62
   190
100
AcDbText
 10
2049.31777563922
 20
-186.445319179451
 30
0.0
 40
8.0
  1
Avec ou Sans Finition
  7
arial-
100
AcDbText
  0
TEXT
  5
411
330
1F
100
AcDbEntity
  8
Ech.1_2
 62
   190
100
AcDbText
 10
1916.295978022403
 20
-282.14798774064
 30
0.0
 40
5.0
  1
15/10/2020
  7
arial-
100
AcDbText
  0
TEXT
  5
412
330
1F
100
AcDbEntity
  8
Ech.1_2
 62
   190
100
AcDbText
 10
2039.089041177276
 20
188.9057560569418
 30
0.0
 40
6.6
  1
avec exigences feu façade
  7
arial-
100
AcDbText
  0
LWPOLYLINE
  5
413
330
1F
100
AcDbEntity
  8
Ech.1_2
 62
   200
420
 11010303
100
AcDbPolyline
 90
        4
 70
     1
 43
0.0
 10
1895.567125741485
 20
211.1591431732122
 10
2289.567125741485
 20
211.1591431732122
 10
2289.567125741485
 20
197.2631431732122
 10
1895.567125741485
 20
197.2631431732122
  0
VIEWPORT
  5
233
330
22D
100
AcDbEntity
 67
     1
  8
0
100
AcDbViewport
 10
98.80000000000045
 20
135.7999999999996
 30
0.0
 40
209.060800000001
 41
287.3527999999991
 68
     1
 69
     1
 12
128.5
 22
97.5
 13
0.0
 23
0.0
 14
10.0
 24
10.0
 15
10.0
 25
10.0
 16
0.0
 26
0.0
 36
1.0
 17
0.0
 27
0.0
 37
0.0
 42
50.0
 43
0.0
 44
0.0
 45
222.18
 50
0.0
 51
0.0
 72
   100
 90
   557152
  1

281
     0
 71
     1
 74
     0
110
0.0
120
0.0
130
0.0
111
1.0
121
0.0
131
0.0
112
0.0
122
1.0
132
0.0
 79
     0
146
0.0
170
     0
 61
     5
348
2F
292
     1
282
     1
141
0.0
142
0.0
 63
   256
361
234
  0
VIEWPORT
  5
235
330
22D
100
AcDbEntity
 67
     1
  8
0
 60
     1
100
AcDbViewport
 10
98.80000000000045
 20
135.7999999999996
 30
0.0
 40
197.6000000000009
 41
271.5999999999991
 68
     2
 69
     2
 12
2092.567125741486
 22
-59.8408568267796
 13
0.0
 23
0.0
 14
10.0
 24
10.0
 15
10.0
 25
10.0
 16
0.0
 26
0.0
 36
1.0
 17
0.0
 27
0.0
 37
0.0
 42
50.0
 43
0.0
 44
0.0
 45
543.1999999999982
 50
0.0
 51
0.0
 72
   100
 90
   557152
  1

281
     0
 71
     1
 74
     0
110
0.0
120
0.0
130
0.0
111
1.0
121
0.0
131
0.0
112
0.0
122
1.0
132
0.0
 79
     0
146
0.0
170
     0
 61
     5
348
2F
292
     1
282
     1
141
0.0
142
0.0
 63
   256
  0
ENDSEC
  0
SECTION
  2
OBJECTS
  0
DICTIONARY
  5
C
330
0
100
AcDbDictionary
281
     1
  3
ACAD_DETAILVIEWSTYLE
350
41B
  3
ACAD_GROUP
350
D
  3
ACAD_IMAGE_DICT
350
3D3
  3
ACAD_IMAGE_VARS
350
6F
  3
ACAD_LAYOUT
350
1A
  3
ACAD_MATERIAL
350
43
  3
ACAD_MLEADERSTYLE
350
6B
  3
ACAD_MLINESTYLE
350
17
  3
ACAD_PLOTSETTINGS
350
19
  3
ACAD_PLOTSTYLENAME
350
E
  3
ACAD_SCALELIST
350
47
  3
ACAD_SECTIONVIEWSTYLE
350
41C
  3
ACAD_TABLESTYLE
350
69
  3
ACAD_VISUALSTYLE
350
2A
  3
ACDB_RECOMPOSE_DATA
350
418
  3
AcDbVariableDictionary
350
414
  0
SUN
  5
6D
330
29
100
AcDbSun
 90
        1
290
     0
 63
     7
421
 16777215
 40
1.0
291
     1
 91
  2455826
 92
 54000000
292
     0
 70
     2
 71
   256
280
     1
  0
IMAGEDEF_REACTOR
  5
3D6
330
3D5
100
AcDbRasterImageDefReactor
 90
        2
330
3D5
  0
IMAGEDEF_REACTOR
  5
3D9
330
3D8
100
AcDbRasterImageDefReactor
 90
        2
330
3D8
  0
IMAGEDEF_REACTOR
  5
3DC
330
3DB
100
AcDbRasterImageDefReactor
 90
        2
330
3DB
  0
SUN
  5
234
330
233
100
AcDbSun
 90
        1
290
     0
 63
     7
421
 16777215
 40
1.0
291
     1
 91
  2455826
 92
 54000000
292
     0
 70
     2
 71
   256
280
     1
  0
DICTIONARY
  5
41B
102
{ACAD_REACTORS
330
C
102
}
330
C
100
AcDbDictionary
281
     1
  0
DICTIONARY
  5
D
102
{ACAD_REACTORS
330
C
102
}
330
C
100
AcDbDictionary
281
     1
  3
DIM17
350
3E0
  3
DIM18
350
3EF
  3
DIM19
350
3FD
  0
DICTIONARY
  5
3D3
102
{ACAD_REACTORS
330
C
102
}
330
C
100
AcDbDictionary
281
     1
  3
C:\Users\MAIFFR~1\AppData\Local\Temp\EXE_LOGO_FBF_soutien_Q_L.jpg1
350
3D7
  3
C:\Users\MAIFFR~1\AppData\Local\Temp\fcba.jpg0
350
3D4
  3
C:\Users\MAIFFR~1\AppData\Local\Temp\logo_codifab_baseline_soutien.jpg2
350
3DA
  0
RASTERVARIABLES
  5
6F
102
{ACAD_REACTORS
330
C
102
}
330
C
100
AcDbRasterVariables
 90
        0
 70
     0
 71
     1
 72
     1
  0
DICTIONARY
  5
1A
102
{ACAD_REACTORS
330
C
102
}
330
C
100
AcDbDictionary
281
     1
  3
CompleteLayout
350
1E
  3
Model
350
22
  3
PrintFrame_106
350
22E
  0
DICTIONARY
  5
43
102
{ACAD_REACTORS
330
C
102
}
330
C
100
AcDbDictionary
281
     1
  3
ByBlock
350
45
  3
ByLayer
350
44
  3
Global
350
46
  0
DICTIONARY
  5
6B
102
{ACAD_REACTORS
330
C
102
}
330
C
100
AcDbDictionary
281
     1
  3
Standard
350
6C
  0
DICTIONARY
  5
17
102
{ACAD_REACTORS
330
C
102
}
330
C
100
AcDbDictionary
281
     1
  3
Standard
350
18
  0
DICTIONARY
  5
19
102
{ACAD_REACTORS
330
C
102
}
330
C
100
AcDbDictionary
281
     1
  3
PlotSettings_
350
231
  0
ACDBDICTIONARYWDFLT
  5
E
102
{ACAD_REACTORS
330
C
102
}
330
C
100
AcDbDictionary
281
     1
  3
Normal
350
F
100
AcDbDictionaryWithDefault
340
F
  0
DICTIONARY
  5
47
102
{ACAD_REACTORS
330
C
102
}
330
C
100
AcDbDictionary
281
     1
  3
A0
350
48
  3
A1
350
49
  3
A2
350
4A
  3
A3
350
4B
  3
A4
350
4C
  3
A5
350
4D
  3
A6
350
4E
  3
A7
350
4F
  3
A8
350
50
  3
A9
350
51
  3
B0
350
52
  3
B1
350
53
  3
B2
350
54
  3
B3
350
55
  3
B4
350
56
  3
B5
350
57
  3
B6
350
58
  3
B7
350
59
  3
B8
350
5A
  3
B9
350
5B
  3
C0
350
5C
  3
C1
350
5D
  3
C2
350
5E
  3
C3
350
5F
  3
C4
350
60
  3
C5
350
61
  3
C6
350
62
  3
C7
350
63
  3
C8
350
64
  3
C9
350
65
  3
D0
350
66
  3
D1
350
67
  3
D2
350
68
  0
DICTIONARY
  5
41C
102
{ACAD_REACTORS
330
C
102
}
330
C
100
AcDbDictionary
281
     1
  0
DICTIONARY
  5
69
102
{ACAD_REACTORS
330
C
102
}
330
C
100
AcDbDictionary
281
     1
  3
Standard
350
6A
  0
DICTIONARY
  5
2A
102
{ACAD_REACTORS
330
C
102
}
330
C
100
AcDbDictionary
281
     1
  3
2dWireframe
350
2F
  3
Basic
350
32
  3
Brighten
350
36
  3
ColorChange
350
3A
  3
Conceptual
350
34
  3
Dim
350
35
  3
EdgeColorOff
350
3D
  3
Facepattern
350
39
  3
Flat
350
2B
  3
FlatWithEdges
350
2C
  3
Gouraud
350
2D
  3
GouraudWithEdges
350
2E
  3
Hidden
350
31
  3
JitterOff
350
3B
  3
Linepattern
350
38
  3
OverhangOff
350
3C
  3
Realistic
350
33
  3
Shaded
350
42
  3
Shaded with edges
350
41
  3
Shades of Gray
350
3E
  3
Sketchy
350
3F
  3
Thicken
350
37
  3
Wireframe
350
30
  3
X-Ray
350
40
  0
XRECORD
  5
418
102
{ACAD_REACTORS
330
C
102
}
330
C
100
AcDbXrecord
280
     1
 90
        1
330
6A
  0
DICTIONARY
  5
414
102
{ACAD_REACTORS
330
C
102
}
330
C
100
AcDbDictionary
281
     1
  3
CANNOSCALE
350
415
  3
CMLEADERSTYLE
350
41A
  3
CTABLESTYLE
350
419
  3
WIPEOUTFRAME
350
41D
  0
GROUP
  5
3E0
102
{ACAD_REACTORS
330
D
102
}
330
D
100
AcDbGroup
300

 70
     0
 71
     1
340
3DF
  0
GROUP
  5
3EF
102
{ACAD_REACTORS
330
D
102
}
330
D
100
AcDbGroup
300

 70
     0
 71
     1
340
3EE
  0
GROUP
  5
3FD
102
{ACAD_REACTORS
330
D
102
}
330
D
100
AcDbGroup
300

 70
     0
 71
     1
340
3FC
  0
IMAGEDEF
  5
3D7
102
{ACAD_REACTORS
330
3D3
330
3D9
102
}
330
3D3
100
AcDbRasterImageDef
 90
        0
  1
EXE_LOGO_FBF_soutien_Q_L.jpg
 10
200.0
 20
133.0
 11
0.3527336860670194
 21
0.3527336860670194
280
     1
281
     3
  0
IMAGEDEF
  5
3D4
102
{ACAD_REACTORS
330
3D3
330
3D6
102
}
330
3D3
100
AcDbRasterImageDef
 90
        0
  1
fcba.jpg
 10
247.0
 20
171.0
 11
0.3527336860670194
 21
0.3527336860670194
280
     1
281
     3
  0
IMAGEDEF
  5
3DA
102
{ACAD_REACTORS
330
3D3
330
3DC
102
}
330
3D3
100
AcDbRasterImageDef
 90
        0
  1
logo_codifab_baseline_soutien.jpg
 10
1326.0
 20
580.0
 11
0.08466683600033867
 21
0.08466683600033867
280
     1
281
     3
  0
LAYOUT
  5
1E
102
{ACAD_REACTORS
330
1A
102
}
330
1A
100
AcDbPlotSettings
  1

  2
none_device
  4

  6

 40
0.0
 41
0.0
 42
0.0
 43
0.0
 44
0.0
 45
0.0
 46
0.0
 47
0.0
 48
0.0
 49
0.0
140
0.0
141
0.0
142
1.0
143
1.0
 70
   688
 72
     0
 73
     0
 74
     5
  7

 75
    16
 76
     0
 77
     2
 78
   300
147
1.0
148
0.0
149
0.0
100
AcDbLayout
  1
CompleteLayout
 70
     1
 71
     1
 10
0.0
 20
0.0
 11
12.0
 21
9.0
 12
0.0
 22
0.0
 32
0.0
 14
1.000000000000000E+20
 24
1.000000000000000E+20
 34
1.000000000000000E+20
 15
-1.000000000000000E+20
 25
-1.000000000000000E+20
 35
-1.000000000000000E+20
146
0.0
 13
0.0
 23
0.0
 33
0.0
 16
1.0
 26
0.0
 36
0.0
 17
0.0
 27
1.0
 37
0.0
 76
     0
330
1B
  0
LAYOUT
  5
22
102
{ACAD_REACTORS
330
1A
102
}
330
1A
100
AcDbPlotSettings
  1

  2
none_device
  4
Letter_(8.50_x_11.00_Inches)
  6

 40
6.35
 41
6.35
 42
6.35000508
 43
6.35000508
 44
215.9
 45
279.4
 46
0.0
 47
0.0
 48
0.0
 49
0.0
140
0.0
141
0.0
142
1.0
143
1.0
 70
  1712
 72
     0
 73
     0
 74
     0
  7

 75
     0
 76
     0
 77
     2
 78
   300
147
1.0
148
0.0
149
0.0
100
AcDbLayout
  1
Model
 70
     1
 71
     0
 10
0.0
 20
0.0
 11
12.0
 21
9.0
 12
0.0
 22
0.0
 32
0.0
 14
1895.567125741485
 24
-330.8408568267787
 34
0.0
 15
2289.567125741487
 25
211.1591431732195
 35
0.0
146
0.0
 13
0.0
 23
0.0
 33
0.0
 16
1.0
 26
0.0
 36
0.0
 17
0.0
 27
1.0
 37
0.0
 76
     0
330
1F
331
29
  0
LAYOUT
  5
22E
102
{ACAD_REACTORS
330
1A
102
}
330
1A
100
AcDbPlotSettings
  1
PlotSettings_
  2
Custom Device
  4
Custom_210.000000x297.000000_12.700000_12.700000_6.200000_6.200000
  6

 40
6.2
 41
12.7
 42
6.2
 43
12.7
 44
210.0000000000009
 45
296.9999999999991
 46
0.0
 47
0.0
 48
0.0
 49
0.0
140
0.0
141
0.0
142
1.0
143
1.0
 70
   752
 72
     1
 73
     0
 74
     5
  7

 75
    16
 76
     0
 77
     2
 78
   300
147
1.0
148
0.0
149
0.0
100
AcDbLayout
  1
PrintFrame_106
 70
     0
 71
     2
 10
-20.0
 20
-7.5
 11
277.0
 21
202.5
 12
0.0
 22
0.0
 32
0.0
 14
0.0
 24
0.0
 34
0.0
 15
197.6000000000009
 25
271.5999999999991
 35
0.0
146
0.0
 13
0.0
 23
0.0
 33
0.0
 16
1.0
 26
0.0
 36
0.0
 17
0.0
 27
1.0
 37
0.0
 76
     0
330
22D
331
233
1001
PLOTTRANSPARENCY
1071
        1
1000
layout-user-created
1070
     1
1000
layout-line-weight-scale
1042
1.0
  0
MATERIAL
  5
45
102
{ACAD_REACTORS
330
43
102
}
330
43
100
AcDbMaterial
  1
ByBlock
 72
     1
 94
      127
  0
MATERIAL
  5
44
102
{ACAD_REACTORS
330
43
102
}
330
43
100
AcDbMaterial
  1
ByLayer
 72
     1
 94
      127
  0
MATERIAL
  5
46
102
{ACAD_REACTORS
330
43
102
}
330
43
100
AcDbMaterial
  1
Global
 72
     1
 94
      127
  0
MLEADERSTYLE
  5
6C
102
{ACAD_REACTORS
330
6B
102
}
330
6B
100
AcDbMLeaderStyle
179
     2
170
     2
171
     1
172
     0
 90
        2
 40
0.0
 41
0.0
173
     1
 91
-1056964608
340
14
 92
       -2
290
     1
 42
0.09
291
     1
 43
0.36
  3
Standard
341
0
 44
0.18
300

342
11
174
     1
178
     6
175
     1
176
     0
 93
-1056964608
 45
0.18
292
     0
297
     0
 46
0.18
343
0
 94
-1056964608
 47
1.0
 49
1.0
140
1.0
293
     1
141
0.0
294
     1
177
     0
142
1.0
295
     0
296
     0
143
0.125
271
     0
272
     9
273
     9
298
     0
  0
MLINESTYLE
  5
18
102
{ACAD_REACTORS
330
17
102
}
330
17
100
AcDbMlineStyle
  2
Standard
 70
     0
  3

 62
   256
 51
90.0
 52
90.0
 71
     2
 49
0.5
 62
   256
  6
BYLAYER
 49
-0.5
 62
   256
  6
BYLAYER
  0
PLOTSETTINGS
  5
231
102
{ACAD_REACTORS
330
19
102
}
330
19
100
AcDbPlotSettings
  1
PlotSettings_
  2
Custom Device
  4
Custom_210.000000x297.000000_12.700000_12.700000_6.200000_6.200000
  6

 40
6.2
 41
12.7
 42
6.2
 43
12.7
 44
210.0000000000009
 45
296.9999999999991
 46
0.0
 47
0.0
 48
0.0
 49
0.0
140
0.0
141
0.0
142
1.0
143
1.0
 70
   752
 72
     1
 73
     0
 74
     5
  7

 75
    16
 76
     0
 77
     2
 78
   300
147
1.0
148
0.0
149
0.0
1001
PLOTTRANSPARENCY
1071
        1
1000
layout-user-created
1070
     1
1000
layout-line-weight-scale
1042
1.0
  0
ACDBPLACEHOLDER
  5
F
102
{ACAD_REACTORS
330
E
102
}
330
E
  0
SCALE
  5
48
102
{ACAD_REACTORS
330
47
102
}
330
47
100
AcDbScale
 70
     0
300
1:1
140
1.0
141
1.0
290
     1
  0
SCALE
  5
49
102
{ACAD_REACTORS
330
47
102
}
330
47
100
AcDbScale
 70
     0
300
1:2
140
1.0
141
2.0
290
     0
  0
SCALE
  5
4A
102
{ACAD_REACTORS
330
47
102
}
330
47
100
AcDbScale
 70
     0
300
1:4
140
1.0
141
4.0
290
     0
  0
SCALE
  5
4B
102
{ACAD_REACTORS
330
47
102
}
330
47
100
AcDbScale
 70
     0
300
1:5
140
1.0
141
5.0
290
     0
  0
SCALE
  5
4C
102
{ACAD_REACTORS
330
47
102
}
330
47
100
AcDbScale
 70
     0
300
1:8
140
1.0
141
8.0
290
     0
  0
SCALE
  5
4D
102
{ACAD_REACTORS
330
47
102
}
330
47
100
AcDbScale
 70
     0
300
1:10
140
1.0
141
10.0
290
     0
  0
SCALE
  5
4E
102
{ACAD_REACTORS
330
47
102
}
330
47
100
AcDbScale
 70
     0
300
1:16
140
1.0
141
16.0
290
     0
  0
SCALE
  5
4F
102
{ACAD_REACTORS
330
47
102
}
330
47
100
AcDbScale
 70
     0
300
1:20
140
1.0
141
20.0
290
     0
  0
SCALE
  5
50
102
{ACAD_REACTORS
330
47
102
}
330
47
100
AcDbScale
 70
     0
300
1:30
140
1.0
141
30.0
290
     0
  0
SCALE
  5
51
102
{ACAD_REACTORS
330
47
102
}
330
47
100
AcDbScale
 70
     0
300
1:40
140
1.0
141
40.0
290
     0
  0
SCALE
  5
52
102
{ACAD_REACTORS
330
47
102
}
330
47
100
AcDbScale
 70
     0
300
1:50
140
1.0
141
50.0
290
     0
  0
SCALE
  5
53
102
{ACAD_REACTORS
330
47
102
}
330
47
100
AcDbScale
 70
     0
300
1:100
140
1.0
141
100.0
290
     0
  0
SCALE
  5
54
102
{ACAD_REACTORS
330
47
102
}
330
47
100
AcDbScale
 70
     0
300
2:1
140
2.0
141
1.0
290
     0
  0
SCALE
  5
55
102
{ACAD_REACTORS
330
47
102
}
330
47
100
AcDbScale
 70
     0
300
4:1
140
4.0
141
1.0
290
     0
  0
SCALE
  5
56
102
{ACAD_REACTORS
330
47
102
}
330
47
100
AcDbScale
 70
     0
300
8:1
140
8.0
141
1.0
290
     0
  0
SCALE
  5
57
102
{ACAD_REACTORS
330
47
102
}
330
47
100
AcDbScale
 70
     0
300
10:1
140
10.0
141
1.0
290
     0
  0
SCALE
  5
58
102
{ACAD_REACTORS
330
47
102
}
330
47
100
AcDbScale
 70
     0
300
100:1
140
100.0
141
1.0
290
     0
  0
SCALE
  5
59
102
{ACAD_REACTORS
330
47
102
}
330
47
100
AcDbScale
 70
     0
300
1/128" = 1'-0"
140
0.0078125
141
12.0
290
     0
  0
SCALE
  5
5A
102
{ACAD_REACTORS
330
47
102
}
330
47
100
AcDbScale
 70
     0
300
1/64" = 1'-0"
140
0.015625
141
12.0
290
     0
  0
SCALE
  5
5B
102
{ACAD_REACTORS
330
47
102
}
330
47
100
AcDbScale
 70
     0
300
1/32" = 1'-0"
140
0.03125
141
12.0
290
     0
  0
SCALE
  5
5C
102
{ACAD_REACTORS
330
47
102
}
330
47
100
AcDbScale
 70
     0
300
1/16" = 1'-0"
140
0.0625
141
12.0
290
     0
  0
SCALE
  5
5D
102
{ACAD_REACTORS
330
47
102
}
330
47
100
AcDbScale
 70
     0
300
3/32" = 1'-0"
140
0.09375
141
12.0
290
     0
  0
SCALE
  5
5E
102
{ACAD_REACTORS
330
47
102
}
330
47
100
AcDbScale
 70
     0
300
1/8" = 1'-0"
140
0.125
141
12.0
290
     0
  0
SCALE
  5
5F
102
{ACAD_REACTORS
330
47
102
}
330
47
100
AcDbScale
 70
     0
300
3/16" = 1'-0"
140
0.1875
141
12.0
290
     0
  0
SCALE
  5
60
102
{ACAD_REACTORS
330
47
102
}
330
47
100
AcDbScale
 70
     0
300
1/4" = 1'-0"
140
0.25
141
12.0
290
     0
  0
SCALE
  5
61
102
{ACAD_REACTORS
330
47
102
}
330
47
100
AcDbScale
 70
     0
300
3/8" = 1'-0"
140
0.375
141
12.0
290
     0
  0
SCALE
  5
62
102
{ACAD_REACTORS
330
47
102
}
330
47
100
AcDbScale
 70
     0
300
1/2" = 1'-0"
140
0.5
141
12.0
290
     0
  0
SCALE
  5
63
102
{ACAD_REACTORS
330
47
102
}
330
47
100
AcDbScale
 70
     0
300
3/4" = 1'-0"
140
0.75
141
12.0
290
     0
  0
SCALE
  5
64
102
{ACAD_REACTORS
330
47
102
}
330
47
100
AcDbScale
 70
     0
300
1" = 1'-0"
140
1.0
141
12.0
290
     0
  0
SCALE
  5
65
102
{ACAD_REACTORS
330
47
102
}
330
47
100
AcDbScale
 70
     0
300
1-1/2" = 1'-0"
140
1.5
141
12.0
290
     0
  0
SCALE
  5
66
102
{ACAD_REACTORS
330
47
102
}
330
47
100
AcDbScale
 70
     0
300
3" = 1'-0"
140
3.0
141
12.0
290
     0
  0
SCALE
  5
67
102
{ACAD_REACTORS
330
47
102
}
330
47
100
AcDbScale
 70
     0
300
6" = 1'-0"
140
6.0
141
12.0
290
     0
  0
SCALE
  5
68
102
{ACAD_REACTORS
330
47
102
}
330
47
100
AcDbScale
 70
     0
300
1'-0" = 1'-0"
140
12.0
141
12.0
290
     0
  0
TABLESTYLE
  5
6A
102
{ACAD_REACTORS
330
69
102
}
102
{ACAD_XDICTIONARY
360
416
102
}
330
69
100
AcDbTableStyle
  3
Standard
 70
     0
 71
     0
 40
0.06
 41
0.06
280
     0
281
     0
  7
Standard
140
0.18
170
     2
 62
     0
 63
   257
283
     0
 90
        4
 91
        0
  1

274
    -2
284
     1
 64
     0
275
    -2
285
     1
 65
     0
276
    -2
286
     1
 66
     0
277
    -2
287
     1
 67
     0
278
    -2
288
     1
 68
     0
279
    -2
289
     1
 69
     0
  7
Standard
140
0.25
170
     5
 62
     0
 63
   257
283
     0
 90
        4
 91
        0
  1

274
    -2
284
     1
 64
     0
275
    -2
285
     1
 65
     0
276
    -2
286
     1
 66
     0
277
    -2
287
     1
 67
     0
278
    -2
288
     1
 68
     0
279
    -2
289
     1
 69
     0
  7
Standard
140
0.18
170
     5
 62
     0
 63
   257
283
     0
 90
        4
 91
        0
  1

274
    -2
284
     1
 64
     0
275
    -2
285
     1
 65
     0
276
    -2
286
     1
 66
     0
277
    -2
287
     1
 67
     0
278
    -2
288
     1
 68
     0
279
    -2
289
     1
 69
     0
  0
VISUALSTYLE
  5
2F
102
{ACAD_REACTORS
330
2A
102
}
330
2A
100
AcDbVisualStyle
  2
2dWireframe
 70
     4
177
     3
291
     0
 70
    58
 90
        0
176
     1
 90
        2
176
     1
 90
        0
176
     1
 90
        0
176
     1
 40
0.6
176
     1
 40
30.0
176
     1
 62
     7
420
 16777215
176
     1
 90
        1
176
     1
 90
        4
176
     1
 62
     7
176
     1
 62
   257
176
     1
 90
        1
176
     1
 90
        1
176
     1
 40
1.0
176
     1
 90
        0
176
     1
 62
   257
176
     1
 40
1.0
176
     1
 90
        1
176
     1
 90
        6
176
     1
 90
        2
176
     1
 62
     7
176
     1
 90
        5
176
     1
 90
        0
176
     1
 90
        0
176
     1
290
     0
176
     1
 90
        1
176
     1
 40
0.0
176
     1
 90
        0
176
     1
290
     1
176
     1
290
     1
176
     1
290
     0
176
     1
290
     0
176
     1
290
     0
176
     1
290
     0
176
     1
290
     0
176
     1
290
     0
176
     1
290
     0
176
     1
 90
       50
176
     1
 40
0.0
176
     1
 40
1.0
176
     1
 90
        0
176
     1
 62
    18
420
        0
176
     1
 90
       50
176
     1
 90
        3
176
     1
 62
     5
420
      255
176
     1
290
     0
176
     1
 90
       50
176
     1
 90
       50
176
     1
 90
       50
176
     1
290
     0
176
     1
 90
       50
176
     1
 62
   256
176
     0
 40
1.0
176
     0
 90
        2
176
     1
  1
strokes_ogs.tif
176
     1
290
     0
176
     1
 40
1.0
176
     1
 40
1.0
176
     1
  0
VISUALSTYLE
  5
32
102
{ACAD_REACTORS
330
2A
102
}
330
2A
100
AcDbVisualStyle
  2
Basic
 70
     7
177
     3
291
     1
 70
    58
 90
        1
176
     1
 90
        0
176
     1
 90
        1
176
     1
 90
        0
176
     1
 40
0.6
176
     1
 40
30.0
176
     1
 62
     7
420
 16777215
176
     1
 90
        0
176
     1
 90
        4
176
     1
 62
     7
176
     1
 62
   257
176
     1
 90
        1
176
     1
 90
        1
176
     1
 40
1.0
176
     1
 90
        8
176
     1
 62
     7
176
     1
 40
1.0
176
     1
 90
        1
176
     1
 90
        6
176
     1
 90
        2
176
     1
 62
     7
176
     1
 90
        5
176
     1
 90
        0
176
     1
 90
        0
176
     1
290
     0
176
     1
 90
        1
176
     1
 40
0.0
176
     1
 90
        0
176
     1
290
     0
176
     1
290
     1
176
     1
290
     1
176
     1
290
     0
176
     1
290
     0
176
     1
290
     0
176
     1
290
     0
176
     1
290
     0
176
     1
290
     0
176
     1
 90
       50
176
     1
 40
0.0
176
     1
 40
1.0
176
     1
 90
        0
176
     1
 62
    18
420
        0
176
     1
 90
       50
176
     1
 90
        3
176
     1
 62
     5
420
      255
176
     1
290
     0
176
     1
 90
       50
176
     1
 90
       50
176
     1
 90
       50
176
     1
290
     0
176
     1
 90
       50
176
     1
 62
   256
176
     0
 40
1.0
176
     0
 90
        2
176
     1
  1
strokes_ogs.tif
176
     1
290
     0
176
     1
 40
1.0
176
     1
 40
1.0
176
     1
  0
VISUALSTYLE
  5
36
102
{ACAD_REACTORS
330
2A
102
}
330
2A
100
AcDbVisualStyle
  2
Brighten
 70
    12
177
     3
291
     1
 70
    58
 90
        2
176
     1
 90
        2
176
     1
 90
        0
176
     1
 90
        0
176
     1
 40
0.6
176
     1
 40
30.0
176
     1
 62
     7
420
 16777215
176
     1
 90
        1
176
     1
 90
        4
176
     1
 62
     7
176
     1
 62
   257
176
     1
 90
        1
176
     1
 90
        1
176
     1
 40
1.0
176
     1
 90
        8
176
     1
 62
     7
176
     1
 40
1.0
176
     1
 90
        1
176
     1
 90
        6
176
     1
 90
        2
176
     1
 62
     7
176
     1
 90
        5
176
     1
 90
        0
176
     1
 90
        0
176
     1
290
     0
176
     1
 90
        1
176
     1
 40
50.0
176
     1
 90
        0
176
     1
290
     0
176
     1
290
     1
176
     1
290
     1
176
     1
290
     0
176
     1
290
     0
176
     1
290
     0
176
     1
290
     0
176
     1
290
     0
176
     1
290
     0
176
     1
 90
       50
176
     1
 40
0.0
176
     1
 40
1.0
176
     1
 90
        0
176
     1
 62
    18
420
        0
176
     1
 90
       50
176
     1
 90
        3
176
     1
 62
     5
420
      255
176
     1
290
     0
176
     1
 90
       50
176
     1
 90
       50
176
     1
 90
       50
176
     1
290
     0
176
     1
 90
       50
176
     1
 62
   256
176
     0
 40
1.0
176
     0
 90
        2
176
     1
  1
strokes_ogs.tif
176
     1
290
     0
176
     1
 40
1.0
176
     1
 40
1.0
176
     1
  0
VISUALSTYLE
  5
3A
102
{ACAD_REACTORS
330
2A
102
}
330
2A
100
AcDbVisualStyle
  2
ColorChange
 70
    16
177
     3
291
     1
 70
    58
 90
        2
176
     1
 90
        2
176
     1
 90
        3
176
     1
 90
        0
176
     1
 40
0.6
176
     1
 40
30.0
176
     1
 62
     8
420
  8421504
176
     1
 90
        1
176
     1
 90
        4
176
     1
 62
     7
176
     1
 62
   257
176
     1
 90
        1
176
     1
 90
        1
176
     1
 40
1.0
176
     1
 90
        8
176
     1
 62
     8
420
  8421504
176
     1
 40
1.0
176
     1
 90
        1
176
     1
 90
        6
176
     1
 90
        2
176
     1
 62
     7
176
     1
 90
        5
176
     1
 90
        0
176
     1
 90
        0
176
     1
290
     0
176
     1
 90
        1
176
     1
 40
0.0
176
     1
 90
        0
176
     1
290
     0
176
     1
290
     1
176
     1
290
     1
176
     1
290
     0
176
     1
290
     0
176
     1
290
     0
176
     1
290
     0
176
     1
290
     0
176
     1
290
     0
176
     1
 90
       50
176
     1
 40
0.0
176
     1
 40
1.0
176
     1
 90
        0
176
     1
 62
    18
420
        0
176
     1
 90
       50
176
     1
 90
        3
176
     1
 62
     5
420
      255
176
     1
290
     0
176
     1
 90
       50
176
     1
 90
       50
176
     1
 90
       50
176
     1
290
     0
176
     1
 90
       50
176
     1
 62
   256
176
     0
 40
1.0
176
     0
 90
        2
176
     1
  1
strokes_ogs.tif
176
     1
290
     0
176
     1
 40
1.0
176
     1
 40
1.0
176
     1
  0
VISUALSTYLE
  5
34
102
{ACAD_REACTORS
330
2A
102
}
330
2A
100
AcDbVisualStyle
  2
Conceptual
 70
     9
177
     3
291
     0
 70
    58
 90
        3
176
     1
 90
        2
176
     1
 90
        0
176
     1
 90
        0
176
     1
 40
0.6
176
     1
 40
30.0
176
     1
 62
     7
420
 16777215
176
     1
 90
        2
176
     1
 90
        2
176
     1
 62
     7
176
     1
 62
   257
176
     1
 90
        1
176
     1
 90
        1
176
     1
 40
179.0
176
     1
 90
        8
176
     1
 62
     7
176
     1
 40
1.0
176
     1
 90
        1
176
     1
 90
        6
176
     1
 90
        2
176
     1
 62
     7
176
     1
 90
        3
176
     1
 90
        0
176
     1
 90
        0
176
     1
290
     0
176
     1
 90
        1
176
     1
 40
0.0
176
     1
 90
        0
176
     1
290
     0
176
     1
290
     1
176
     1
290
     1
176
     1
290
     0
176
     1
290
     0
176
     1
290
     0
176
     1
290
     0
176
     1
290
     0
176
     1
290
     0
176
     1
 90
       50
176
     1
 40
0.0
176
     1
 40
1.0
176
     1
 90
        0
176
     1
 62
    18
420
        0
176
     1
 90
       50
176
     1
 90
        3
176
     1
 62
     5
420
      255
176
     1
290
     0
176
     1
 90
       50
176
     1
 90
       50
176
     1
 90
       50
176
     1
290
     0
176
     1
 90
       50
176
     1
 62
   256
176
     0
 40
1.0
176
     0
 90
        2
176
     1
  1
strokes_ogs.tif
176
     1
290
     0
176
     1
 40
1.0
176
     1
 40
1.0
176
     1
  0
VISUALSTYLE
  5
35
102
{ACAD_REACTORS
330
2A
102
}
330
2A
100
AcDbVisualStyle
  2
Dim
 70
    11
177
     3
291
     1
 70
    58
 90
        2
176
     1
 90
        2
176
     1
 90
        0
176
     1
 90
        0
176
     1
 40
0.6
176
     1
 40
30.0
176
     1
 62
     7
420
 16777215
176
     1
 90
        1
176
     1
 90
        4
176
     1
 62
     7
176
     1
 62
   257
176
     1
 90
        1
176
     1
 90
        1
176
     1
 40
1.0
176
     1
 90
        8
176
     1
 62
     7
176
     1
 40
1.0
176
     1
 90
        1
176
     1
 90
        6
176
     1
 90
        2
176
     1
 62
     7
176
     1
 90
        5
176
     1
 90
        0
176
     1
 90
        0
176
     1
290
     0
176
     1
 90
        1
176
     1
 40
-50.0
176
     1
 90
        0
176
     1
290
     0
176
     1
290
     1
176
     1
290
     1
176
     1
290
     0
176
     1
290
     0
176
     1
290
     0
176
     1
290
     0
176
     1
290
     0
176
     1
290
     0
176
     1
 90
       50
176
     1
 40
0.0
176
     1
 40
1.0
176
     1
 90
        0
176
     1
 62
    18
420
        0
176
     1
 90
       50
176
     1
 90
        3
176
     1
 62
     5
420
      255
176
     1
290
     0
176
     1
 90
       50
176
     1
 90
       50
176
     1
 90
       50
176
     1
290
     0
176
     1
 90
       50
176
     1
 62
   256
176
     0
 40
1.0
176
     0
 90
        2
176
     1
  1
strokes_ogs.tif
176
     1
290
     0
176
     1
 40
1.0
176
     1
 40
1.0
176
     1
  0
VISUALSTYLE
  5
3D
102
{ACAD_REACTORS
330
2A
102
}
330
2A
100
AcDbVisualStyle
  2
EdgeColorOff
 70
    22
177
     3
291
     1
 70
    58
 90
        2
176
     0
 90
        2
176
     0
 90
        0
176
     0
 90
        0
176
     0
 40
0.6
176
     0
 40
30.0
176
     0
 62
     7
420
 16777215
176
     0
 90
        1
176
     0
 90
        4
176
     0
 62
     7
176
     0
 62
   257
176
     0
 90
        1
176
     0
 90
        1
176
     0
 40
1.0
176
     0
 90
        8
176
     2
 62
     7
176
     0
 40
1.0
176
     0
 90
        1
176
     0
 90
        6
176
     0
 90
        2
176
     0
 62
     7
176
     0
 90
        5
176
     0
 90
        0
176
     0
 90
        0
176
     0
290
     0
176
     0
 90
        1
176
     0
 40
0.0
176
     0
 90
        0
176
     0
290
     0
176
     0
290
     1
176
     0
290
     1
176
     0
290
     0
176
     0
290
     0
176
     0
290
     0
176
     0
290
     0
176
     0
290
     0
176
     0
290
     0
176
     0
 90
       50
176
     0
 40
0.0
176
     0
 40
1.0
176
     0
 90
        0
176
     0
 62
    18
420
        0
176
     0
 90
       50
176
     0
 90
        3
176
     0
 62
     5
420
      255
176
     0
290
     0
176
     0
 90
       50
176
     0
 90
       50
176
     0
 90
       50
176
     0
290
     0
176
     0
 90
       50
176
     0
 62
   256
176
     0
 40
1.0
176
     0
 90
        2
176
     0
  1
strokes_ogs.tif
176
     0
290
     0
176
     0
 40
1.0
176
     0
 40
1.0
176
     0
  0
VISUALSTYLE
  5
39
102
{ACAD_REACTORS
330
2A
102
}
330
2A
100
AcDbVisualStyle
  2
Facepattern
 70
    15
177
     3
291
     1
 70
    58
 90
        2
176
     1
 90
        2
176
     1
 90
        0
176
     1
 90
        0
176
     1
 40
0.6
176
     1
 40
30.0
176
     1
 62
     7
420
 16777215
176
     1
 90
        1
176
     1
 90
        4
176
     1
 62
     7
176
     1
 62
   257
176
     1
 90
        1
176
     1
 90
        1
176
     1
 40
1.0
176
     1
 90
        8
176
     1
 62
     7
176
     1
 40
1.0
176
     1
 90
        1
176
     1
 90
        6
176
     1
 90
        2
176
     1
 62
     7
176
     1
 90
        5
176
     1
 90
        0
176
     1
 90
        0
176
     1
290
     0
176
     1
 90
        1
176
     1
 40
0.0
176
     1
 90
        0
176
     1
290
     0
176
     1
290
     1
176
     1
290
     1
176
     1
290
     0
176
     1
290
     0
176
     1
290
     0
176
     1
290
     0
176
     1
290
     0
176
     1
290
     0
176
     1
 90
       50
176
     1
 40
0.0
176
     1
 40
1.0
176
     1
 90
        0
176
     1
 62
    18
420
        0
176
     1
 90
       50
176
     1
 90
        3
176
     1
 62
     5
420
      255
176
     1
290
     0
176
     1
 90
       50
176
     1
 90
       50
176
     1
 90
       50
176
     1
290
     0
176
     1
 90
       50
176
     1
 62
   256
176
     0
 40
1.0
176
     0
 90
        2
176
     1
  1
strokes_ogs.tif
176
     1
290
     0
176
     1
 40
1.0
176
     1
 40
1.0
176
     1
  0
VISUALSTYLE
  5
2B
102
{ACAD_REACTORS
330
2A
102
}
330
2A
100
AcDbVisualStyle
  2
Flat
 70
     0
177
     3
291
     1
 70
    58
 90
        2
176
     1
 90
        1
176
     1
 90
        1
176
     1
 90
        2
176
     1
 40
0.6
176
     1
 40
30.0
176
     1
 62
     7
420
 16777215
176
     1
 90
        0
176
     1
 90
        0
176
     1
 62
     7
176
     1
 62
   257
176
     1
 90
        1
176
     1
 90
        1
176
     1
 40
1.0
176
     1
 90
        8
176
     1
 62
     7
176
     1
 40
1.0
176
     1
 90
        1
176
     1
 90
        6
176
     1
 90
        2
176
     1
 62
     7
176
     1
 90
        5
176
     1
 90
        0
176
     1
 90
        0
176
     1
290
     0
176
     1
 90
       13
176
     1
 40
0.0
176
     1
 90
        0
176
     1
290
     0
176
     1
290
     1
176
     1
290
     1
176
     1
290
     0
176
     1
290
     0
176
     1
290
     0
176
     1
290
     0
176
     1
290
     0
176
     1
290
     0
176
     1
 90
       50
176
     1
 40
0.0
176
     1
 40
1.0
176
     1
 90
        0
176
     1
 62
    18
420
        0
176
     1
 90
       50
176
     1
 90
        3
176
     1
 62
     5
420
      255
176
     1
290
     0
176
     1
 90
       50
176
     1
 90
       50
176
     1
 90
       50
176
     1
290
     0
176
     1
 90
       50
176
     1
 62
   256
176
     0
 40
1.0
176
     0
 90
        2
176
     1
  1
strokes_ogs.tif
176
     1
290
     0
176
     1
 40
1.0
176
     1
 40
1.0
176
     1
  0
VISUALSTYLE
  5
2C
102
{ACAD_REACTORS
330
2A
102
}
330
2A
100
AcDbVisualStyle
  2
FlatWithEdges
 70
     1
177
     3
291
     1
 70
    58
 90
        2
176
     1
 90
        1
176
     1
 90
        1
176
     1
 90
        2
176
     1
 40
0.6
176
     1
 40
30.0
176
     1
 62
     7
420
 16777215
176
     1
 90
        1
176
     1
 90
        0
176
     1
 62
     7
176
     1
 62
   257
176
     1
 90
        1
176
     1
 90
        1
176
     1
 40
1.0
176
     1
 90
        0
176
     1
 62
   257
176
     1
 40
1.0
176
     1
 90
        1
176
     1
 90
        6
176
     1
 90
        2
176
     1
 62
     7
176
     1
 90
        5
176
     1
 90
        0
176
     1
 90
        0
176
     1
290
     0
176
     1
 90
       13
176
     1
 40
0.0
176
     1
 90
        0
176
     1
290
     0
176
     1
290
     1
176
     1
290
     1
176
     1
290
     0
176
     1
290
     0
176
     1
290
     0
176
     1
290
     0
176
     1
290
     0
176
     1
290
     0
176
     1
 90
       50
176
     1
 40
0.0
176
     1
 40
1.0
176
     1
 90
        0
176
     1
 62
    18
420
        0
176
     1
 90
       50
176
     1
 90
        3
176
     1
 62
     5
420
      255
176
     1
290
     0
176
     1
 90
       50
176
     1
 90
       50
176
     1
 90
       50
176
     1
290
     0
176
     1
 90
       50
176
     1
 62
   256
176
     0
 40
1.0
176
     0
 90
        2
176
     1
  1
strokes_ogs.tif
176
     1
290
     0
176
     1
 40
1.0
176
     1
 40
1.0
176
     1
  0
VISUALSTYLE
  5
2D
102
{ACAD_REACTORS
330
2A
102
}
330
2A
100
AcDbVisualStyle
  2
Gouraud
 70
     2
177
     3
291
     1
 70
    58
 90
        2
176
     1
 90
        2
176
     1
 90
        1
176
     1
 90
        2
176
     1
 40
0.6
176
     1
 40
30.0
176
     1
 62
     7
420
 16777215
176
     1
 90
        0
176
     1
 90
        0
176
     1
 62
     7
176
     1
 62
   257
176
     1
 90
        1
176
     1
 90
        1
176
     1
 40
1.0
176
     1
 90
        0
176
     1
 62
     7
176
     1
 40
1.0
176
     1
 90
        1
176
     1
 90
        6
176
     1
 90
        2
176
     1
 62
     7
176
     1
 90
        5
176
     1
 90
        0
176
     1
 90
        0
176
     1
290
     0
176
     1
 90
       13
176
     1
 40
0.0
176
     1
 90
        0
176
     1
290
     0
176
     1
290
     1
176
     1
290
     1
176
     1
290
     0
176
     1
290
     0
176
     1
290
     0
176
     1
290
     0
176
     1
290
     0
176
     1
290
     0
176
     1
 90
       50
176
     1
 40
0.0
176
     1
 40
1.0
176
     1
 90
        0
176
     1
 62
    18
420
        0
176
     1
 90
       50
176
     1
 90
        3
176
     1
 62
     5
420
      255
176
     1
290
     0
176
     1
 90
       50
176
     1
 90
       50
176
     1
 90
       50
176
     1
290
     0
176
     1
 90
       50
176
     1
 62
   256
176
     0
 40
1.0
176
     0
 90
        2
176
     1
  1
strokes_ogs.tif
176
     1
290
     0
176
     1
 40
1.0
176
     1
 40
1.0
176
     1
  0
VISUALSTYLE
  5
2E
102
{ACAD_REACTORS
330
2A
102
}
330
2A
100
AcDbVisualStyle
  2
GouraudWithEdges
 70
     3
177
     3
291
     1
 70
    58
 90
        2
176
     1
 90
        2
176
     1
 90
        1
176
     1
 90
        2
176
     1
 40
0.6
176
     1
 40
30.0
176
     1
 62
     7
420
 16777215
176
     1
 90
        1
176
     1
 90
        0
176
     1
 62
     7
176
     1
 62
   257
176
     1
 90
        1
176
     1
 90
        1
176
     1
 40
1.0
176
     1
 90
        0
176
     1
 62
   257
176
     1
 40
1.0
176
     1
 90
        1
176
     1
 90
        6
176
     1
 90
        2
176
     1
 62
     7
176
     1
 90
        5
176
     1
 90
        0
176
     1
 90
        0
176
     1
290
     0
176
     1
 90
       13
176
     1
 40
0.0
176
     1
 90
        0
176
     1
290
     0
176
     1
290
     1
176
     1
290
     1
176
     1
290
     0
176
     1
290
     0
176
     1
290
     0
176
     1
290
     0
176
     1
290
     0
176
     1
290
     0
176
     1
 90
       50
176
     1
 40
0.0
176
     1
 40
1.0
176
     1
 90
        0
176
     1
 62
    18
420
        0
176
     1
 90
       50
176
     1
 90
        3
176
     1
 62
     5
420
      255
176
     1
290
     0
176
     1
 90
       50
176
     1
 90
       50
176
     1
 90
       50
176
     1
290
     0
176
     1
 90
       50
176
     1
 62
   256
176
     0
 40
1.0
176
     0
 90
        2
176
     1
  1
strokes_ogs.tif
176
     1
290
     0
176
     1
 40
1.0
176
     1
 40
1.0
176
     1
  0
VISUALSTYLE
  5
31
102
{ACAD_REACTORS
330
2A
102
}
330
2A
100
AcDbVisualStyle
  2
Hidden
 70
     6
177
     3
291
     0
 70
    58
 90
        1
176
     1
 90
        2
176
     1
 90
        2
176
     1
 90
        0
176
     1
 40
0.6
176
     1
 40
30.0
176
     1
 62
     7
420
 16777215
176
     1
 90
        2
176
     1
 90
        2
176
     1
 62
     7
176
     1
 62
   257
176
     1
 90
        2
176
     1
 90
        1
176
     1
 40
40.0
176
     1
 90
        0
176
     1
 62
   257
176
     1
 40
1.0
176
     1
 90
        1
176
     1
 90
        6
176
     1
 90
        2
176
     1
 62
     7
176
     1
 90
        3
176
     1
 90
        0
176
     1
 90
        0
176
     1
290
     0
176
     1
 90
        1
176
     1
 40
0.0
176
     1
 90
        0
176
     1
290
     0
176
     1
290
     1
176
     1
290
     1
176
     1
290
     0
176
     1
290
     0
176
     1
290
     0
176
     1
290
     0
176
     1
290
     0
176
     1
290
     0
176
     1
 90
       50
176
     1
 40
0.0
176
     1
 40
1.0
176
     1
 90
        0
176
     1
 62
    18
420
        0
176
     1
 90
       50
176
     1
 90
        3
176
     1
 62
     5
420
      255
176
     1
290
     0
176
     1
 90
       50
176
     1
 90
       50
176
     1
 90
       50
176
     1
290
     0
176
     1
 90
       50
176
     1
 62
   256
176
     0
 40
1.0
176
     0
 90
        2
176
     1
  1
strokes_ogs.tif
176
     1
290
     0
176
     1
 40
1.0
176
     1
 40
1.0
176
     1
  0
VISUALSTYLE
  5
3B
102
{ACAD_REACTORS
330
2A
102
}
330
2A
100
AcDbVisualStyle
  2
JitterOff
 70
    20
177
     3
291
     1
 70
    58
 90
        2
176
     0
 90
        2
176
     0
 90
        0
176
     0
 90
        0
176
     0
 40
0.6
176
     0
 40
30.0
176
     0
 62
     7
420
 16777215
176
     0
 90
        1
176
     0
 90
        4
176
     0
 62
     7
176
     0
 62
   257
176
     0
 90
        1
176
     0
 90
        1
176
     0
 40
1.0
176
     0
 90
       10
176
     2
 62
     7
176
     0
 40
1.0
176
     0
 90
        1
176
     0
 90
        6
176
     0
 90
        2
176
     0
 62
     7
176
     0
 90
        5
176
     0
 90
        0
176
     0
 90
        0
176
     0
290
     0
176
     0
 90
        1
176
     0
 40
0.0
176
     0
 90
        0
176
     0
290
     0
176
     0
290
     1
176
     0
290
     1
176
     0
290
     0
176
     0
290
     0
176
     0
290
     0
176
     0
290
     0
176
     0
290
     0
176
     0
290
     0
176
     0
 90
       50
176
     0
 40
0.0
176
     0
 40
1.0
176
     0
 90
        0
176
     0
 62
    18
420
        0
176
     0
 90
       50
176
     0
 90
        3
176
     0
 62
     5
420
      255
176
     0
290
     0
176
     0
 90
       50
176
     0
 90
       50
176
     0
 90
       50
176
     0
290
     0
176
     0
 90
       50
176
     0
 62
   256
176
     0
 40
1.0
176
     0
 90
        2
176
     0
  1
strokes_ogs.tif
176
     0
290
     0
176
     0
 40
1.0
176
     0
 40
1.0
176
     0
  0
VISUALSTYLE
  5
38
102
{ACAD_REACTORS
330
2A
102
}
330
2A
100
AcDbVisualStyle
  2
Linepattern
 70
    14
177
     3
291
     1
 70
    58
 90
        2
176
     1
 90
        2
176
     1
 90
        0
176
     1
 90
        0
176
     1
 40
0.6
176
     1
 40
30.0
176
     1
 62
     7
420
 16777215
176
     1
 90
        1
176
     1
 90
        4
176
     1
 62
     7
176
     1
 62
   257
176
     1
 90
        7
176
     1
 90
        7
176
     1
 40
1.0
176
     1
 90
        8
176
     1
 62
     7
176
     1
 40
1.0
176
     1
 90
        1
176
     1
 90
        6
176
     1
 90
        2
176
     1
 62
     7
176
     1
 90
        5
176
     1
 90
        0
176
     1
 90
        0
176
     1
290
     0
176
     1
 90
        1
176
     1
 40
0.0
176
     1
 90
        0
176
     1
290
     0
176
     1
290
     1
176
     1
290
     1
176
     1
290
     0
176
     1
290
     0
176
     1
290
     0
176
     1
290
     0
176
     1
290
     0
176
     1
290
     0
176
     1
 90
       50
176
     1
 40
0.0
176
     1
 40
1.0
176
     1
 90
        0
176
     1
 62
    18
420
        0
176
     1
 90
       50
176
     1
 90
        3
176
     1
 62
     5
420
      255
176
     1
290
     0
176
     1
 90
       50
176
     1
 90
       50
176
     1
 90
       50
176
     1
290
     0
176
     1
 90
       50
176
     1
 62
   256
176
     0
 40
1.0
176
     0
 90
        2
176
     1
  1
strokes_ogs.tif
176
     1
290
     0
176
     1
 40
1.0
176
     1
 40
1.0
176
     1
  0
VISUALSTYLE
  5
3C
102
{ACAD_REACTORS
330
2A
102
}
330
2A
100
AcDbVisualStyle
  2
OverhangOff
 70
    21
177
     3
291
     1
 70
    58
 90
        2
176
     0
 90
        2
176
     0
 90
        0
176
     0
 90
        0
176
     0
 40
0.6
176
     0
 40
30.0
176
     0
 62
     7
420
 16777215
176
     0
 90
        1
176
     0
 90
        4
176
     0
 62
     7
176
     0
 62
   257
176
     0
 90
        1
176
     0
 90
        1
176
     0
 40
1.0
176
     0
 90
        9
176
     2
 62
     7
176
     0
 40
1.0
176
     0
 90
        1
176
     0
 90
        6
176
     0
 90
        2
176
     0
 62
     7
176
     0
 90
        5
176
     0
 90
        0
176
     0
 90
        0
176
     0
290
     0
176
     0
 90
        1
176
     0
 40
0.0
176
     0
 90
        0
176
     0
290
     0
176
     0
290
     1
176
     0
290
     1
176
     0
290
     0
176
     0
290
     0
176
     0
290
     0
176
     0
290
     0
176
     0
290
     0
176
     0
290
     0
176
     0
 90
       50
176
     0
 40
0.0
176
     0
 40
1.0
176
     0
 90
        0
176
     0
 62
    18
420
        0
176
     0
 90
       50
176
     0
 90
        3
176
     0
 62
     5
420
      255
176
     0
290
     0
176
     0
 90
       50
176
     0
 90
       50
176
     0
 90
       50
176
     0
290
     0
176
     0
 90
       50
176
     0
 62
   256
176
     0
 40
1.0
176
     0
 90
        2
176
     0
  1
strokes_ogs.tif
176
     0
290
     0
176
     0
 40
1.0
176
     0
 40
1.0
176
     0
  0
VISUALSTYLE
  5
33
102
{ACAD_REACTORS
330
2A
102
}
330
2A
100
AcDbVisualStyle
  2
Realistic
 70
     8
177
     3
291
     0
 70
    58
 90
        2
176
     1
 90
        3
176
     1
 90
        0
176
     1
 90
        2
176
     1
 40
0.6
176
     1
 40
30.0
176
     1
 62
     7
420
 16777215
176
     1
 90
        0
176
     1
 90
        0
176
     1
 62
     7
176
     1
 62
   257
176
     1
 90
        1
176
     1
 90
        1
176
     1
 40
1.0
176
     1
 90
        8
176
     1
 62
   257
176
     1
 40
1.0
176
     1
 90
        1
176
     1
 90
        6
176
     1
 90
        2
176
     1
 62
     7
176
     1
 90
        3
176
     1
 90
        0
176
     1
 90
        0
176
     1
290
     0
176
     1
 90
       13
176
     1
 40
0.0
176
     1
 90
        0
176
     1
290
     0
176
     1
290
     1
176
     1
290
     1
176
     1
290
     0
176
     1
290
     0
176
     1
290
     0
176
     1
290
     0
176
     1
290
     0
176
     1
290
     0
176
     1
 90
       50
176
     1
 40
0.0
176
     1
 40
1.0
176
     1
 90
        0
176
     1
 62
    18
420
        0
176
     1
 90
       50
176
     1
 90
        3
176
     1
 62
     5
420
      255
176
     1
290
     0
176
     1
 90
       50
176
     1
 90
       50
176
     1
 90
       50
176
     1
290
     0
176
     1
 90
       50
176
     1
 62
   256
176
     0
 40
1.0
176
     0
 90
        2
176
     1
  1
strokes_ogs.tif
176
     1
290
     0
176
     1
 40
1.0
176
     1
 40
1.0
176
     1
  0
VISUALSTYLE
  5
42
102
{ACAD_REACTORS
330
2A
102
}
330
2A
100
AcDbVisualStyle
  2
Shaded
 70
    27
177
     3
291
     0
 70
    58
 90
        2
176
     1
 90
        2
176
     1
 90
        1
176
     1
 90
        2
176
     1
 40
0.6
176
     1
 40
30.0
176
     1
 62
     7
420
 16777215
176
     1
 90
        0
176
     1
 90
        4
176
     1
 62
     7
176
     1
 62
   257
176
     1
 90
        1
176
     1
 90
        1
176
     1
 40
1.0
176
     1
 90
        8
176
     1
 62
   257
176
     1
 40
1.0
176
     1
 90
        1
176
     1
 90
        6
176
     1
 90
        2
176
     1
 62
     8
420
  7895160
176
     1
 90
        3
176
     1
 90
        0
176
     1
 90
        0
176
     1
290
     0
176
     1
 90
        5
176
     1
 40
0.0
176
     1
 90
        0
176
     1
290
     0
176
     1
290
     1
176
     1
290
     1
176
     1
290
     0
176
     1
290
     0
176
     1
290
     0
176
     1
290
     0
176
     1
290
     0
176
     1
290
     0
176
     1
 90
       50
176
     1
 40
0.0
176
     1
 40
1.0
176
     1
 90
        0
176
     1
 62
    18
420
        0
176
     1
 90
       50
176
     1
 90
        3
176
     1
 62
     5
420
      255
176
     1
290
     0
176
     1
 90
       50
176
     1
 90
       50
176
     1
 90
       50
176
     1
290
     0
176
     1
 90
       50
176
     1
 62
   256
176
     0
 40
1.0
176
     0
 90
        2
176
     1
  1
strokes_ogs.tif
176
     1
290
     0
176
     1
 40
1.0
176
     1
 40
1.0
176
     1
  0
VISUALSTYLE
  5
41
102
{ACAD_REACTORS
330
2A
102
}
330
2A
100
AcDbVisualStyle
  2
Shaded with edges
 70
    26
177
     3
291
     0
 70
    58
 90
        2
176
     1
 90
        2
176
     1
 90
        1
176
     1
 90
        2
176
     1
 40
0.6
176
     1
 40
30.0
176
     1
 62
     7
420
 16777215
176
     1
 90
        1
176
     1
 90
       10
176
     1
 62
     7
176
     1
 62
   257
176
     1
 90
        2
176
     1
 90
        1
176
     1
 40
1.0
176
     1
 90
        8
176
     1
 62
   257
176
     1
 40
1.0
176
     1
 90
        1
176
     1
 90
        6
176
     1
 90
        2
176
     1
 62
     7
176
     1
 90
        3
176
     1
 90
        0
176
     1
 90
        0
176
     1
290
     0
176
     1
 90
        5
176
     1
 40
0.0
176
     1
 90
        0
176
     1
290
     0
176
     1
290
     1
176
     1
290
     1
176
     1
290
     0
176
     1
290
     0
176
     1
290
     0
176
     1
290
     0
176
     1
290
     0
176
     1
290
     0
176
     1
 90
       50
176
     1
 40
0.0
176
     1
 40
1.0
176
     1
 90
        0
176
     1
 62
    18
420
        0
176
     1
 90
       50
176
     1
 90
        3
176
     1
 62
     5
420
      255
176
     1
290
     0
176
     1
 90
       50
176
     1
 90
       50
176
     1
 90
       50
176
     1
290
     0
176
     1
 90
       50
176
     1
 62
   256
176
     0
 40
1.0
176
     0
 90
        2
176
     1
  1
strokes_ogs.tif
176
     1
290
     0
176
     1
 40
1.0
176
     1
 40
1.0
176
     1
  0
VISUALSTYLE
  5
3E
102
{ACAD_REACTORS
330
2A
102
}
330
2A
100
AcDbVisualStyle
  2
Shades of Gray
 70
    23
177
     3
291
     0
 70
    58
 90
        2
176
     1
 90
        2
176
     1
 90
        3
176
     1
 90
        0
176
     1
 40
0.6
176
     1
 40
30.0
176
     1
 62
     7
420
 16777215
176
     1
 90
        2
176
     1
 90
        2
176
     1
 62
     7
176
     1
 62
     7
176
     1
 90
        1
176
     1
 90
        1
176
     1
 40
40.0
176
     1
 90
        8
176
     1
 62
     7
176
     1
 40
1.0
176
     1
 90
        1
176
     1
 90
        6
176
     1
 90
        2
176
     1
 62
     7
176
     1
 90
        3
176
     1
 90
        0
176
     1
 90
        0
176
     1
290
     0
176
     1
 90
        1
176
     1
 40
0.0
176
     1
 90
        0
176
     1
290
     0
176
     1
290
     1
176
     1
290
     1
176
     1
290
     0
176
     1
290
     0
176
     1
290
     0
176
     1
290
     0
176
     1
290
     0
176
     1
290
     0
176
     1
 90
       50
176
     1
 40
0.0
176
     1
 40
1.0
176
     1
 90
        0
176
     1
 62
    18
420
        0
176
     1
 90
       50
176
     1
 90
        3
176
     1
 62
     5
420
      255
176
     1
290
     0
176
     1
 90
       50
176
     1
 90
       50
176
     1
 90
       50
176
     1
290
     0
176
     1
 90
       50
176
     1
 62
   256
176
     0
 40
1.0
176
     0
 90
        2
176
     1
  1
strokes_ogs.tif
176
     1
290
     0
176
     1
 40
1.0
176
     1
 40
1.0
176
     1
  0
VISUALSTYLE
  5
3F
102
{ACAD_REACTORS
330
2A
102
}
330
2A
100
AcDbVisualStyle
  2
Sketchy
 70
    24
177
     3
291
     0
 70
    58
 90
        1
176
     1
 90
        2
176
     1
 90
        2
176
     1
 90
        0
176
     1
 40
0.6
176
     1
 40
30.0
176
     1
 62
     7
420
 16777215
176
     1
 90
        2
176
     1
 90
        2
176
     1
 62
     7
176
     1
 62
     7
176
     1
 90
        1
176
     1
 90
        1
176
     1
 40
40.0
176
     1
 90
       11
176
     1
 62
     7
176
     1
 40
1.0
176
     1
 90
        1
176
     1
 90
        6
176
     1
 90
        2
176
     1
 62
     7
176
     1
 90
        6
176
     1
 90
        0
176
     1
 90
        0
176
     1
290
     0
176
     1
 90
        1
176
     1
 40
0.0
176
     1
 90
        0
176
     1
290
     0
176
     1
290
     1
176
     1
290
     1
176
     1
290
     0
176
     1
290
     0
176
     1
290
     0
176
     1
290
     0
176
     1
290
     0
176
     1
290
     0
176
     1
 90
       50
176
     1
 40
0.0
176
     1
 40
1.0
176
     1
 90
        0
176
     1
 62
    18
420
        0
176
     1
 90
       50
176
     1
 90
        3
176
     1
 62
     5
420
      255
176
     1
290
     0
176
     1
 90
       50
176
     1
 90
       50
176
     1
 90
       50
176
     1
290
     0
176
     1
 90
       50
176
     1
 62
   256
176
     0
 40
1.0
176
     0
 90
        2
176
     1
  1
strokes_ogs.tif
176
     1
290
     0
176
     1
 40
1.0
176
     1
 40
1.0
176
     1
  0
VISUALSTYLE
  5
37
102
{ACAD_REACTORS
330
2A
102
}
330
2A
100
AcDbVisualStyle
  2
Thicken
 70
    13
177
     3
291
     1
 70
    58
 90
        2
176
     1
 90
        2
176
     1
 90
        0
176
     1
 90
        0
176
     1
 40
0.6
176
     1
 40
30.0
176
     1
 62
     7
420
 16777215
176
     1
 90
        1
176
     1
 90
        4
176
     1
 62
     7
176
     1
 62
   257
176
     1
 90
        1
176
     1
 90
        1
176
     1
 40
1.0
176
     1
 90
       12
176
     1
 62
     7
176
     1
 40
1.0
176
     1
 90
        1
176
     1
 90
        6
176
     1
 90
        2
176
     1
 62
     7
176
     1
 90
        5
176
     1
 90
        0
176
     1
 90
        0
176
     1
290
     0
176
     1
 90
        1
176
     1
 40
0.0
176
     1
 90
        0
176
     1
290
     0
176
     1
290
     1
176
     1
290
     1
176
     1
290
     0
176
     1
290
     0
176
     1
290
     0
176
     1
290
     0
176
     1
290
     0
176
     1
290
     0
176
     1
 90
       50
176
     1
 40
0.0
176
     1
 40
1.0
176
     1
 90
        0
176
     1
 62
    18
420
        0
176
     1
 90
       50
176
     1
 90
        3
176
     1
 62
     5
420
      255
176
     1
290
     0
176
     1
 90
       50
176
     1
 90
       50
176
     1
 90
       50
176
     1
290
     0
176
     1
 90
       50
176
     1
 62
   256
176
     0
 40
1.0
176
     0
 90
        2
176
     1
  1
strokes_ogs.tif
176
     1
290
     0
176
     1
 40
1.0
176
     1
 40
1.0
176
     1
  0
VISUALSTYLE
  5
30
102
{ACAD_REACTORS
330
2A
102
}
330
2A
100
AcDbVisualStyle
  2
Wireframe
 70
     5
177
     3
291
     0
 70
    58
 90
        0
176
     1
 90
        2
176
     1
 90
        0
176
     1
 90
        0
176
     1
 40
0.6
176
     1
 40
30.0
176
     1
 62
     7
420
 16777215
176
     1
 90
        1
176
     1
 90
        4
176
     1
 62
     7
176
     1
 62
   257
176
     1
 90
        1
176
     1
 90
        1
176
     1
 40
1.0
176
     1
 90
        0
176
     1
 62
   257
176
     1
 40
1.0
176
     1
 90
        1
176
     1
 90
        6
176
     1
 90
        2
176
     1
 62
     7
176
     1
 90
        3
176
     1
 90
        0
176
     1
 90
        0
176
     1
290
     0
176
     1
 90
        1
176
     1
 40
0.0
176
     1
 90
        0
176
     1
290
     0
176
     1
290
     1
176
     1
290
     1
176
     1
290
     0
176
     1
290
     0
176
     1
290
     0
176
     1
290
     0
176
     1
290
     0
176
     1
290
     0
176
     1
 90
       50
176
     1
 40
0.0
176
     1
 40
1.0
176
     1
 90
        0
176
     1
 62
    18
420
        0
176
     1
 90
       50
176
     1
 90
        3
176
     1
 62
     5
420
      255
176
     1
290
     0
176
     1
 90
       50
176
     1
 90
       50
176
     1
 90
       50
176
     1
290
     0
176
     1
 90
       50
176
     1
 62
   256
176
     0
 40
1.0
176
     0
 90
        2
176
     1
  1
strokes_ogs.tif
176
     1
290
     0
176
     1
 40
1.0
176
     1
 40
1.0
176
     1
  0
VISUALSTYLE
  5
40
102
{ACAD_REACTORS
330
2A
102
}
330
2A
100
AcDbVisualStyle
  2
X-Ray
 70
    25
177
     3
291
     0
 70
    58
 90
        2
176
     1
 90
        2
176
     1
 90
        1
176
     1
 90
        1
176
     1
 40
0.5
176
     1
 40
30.0
176
     1
 62
     7
420
 16777215
176
     1
 90
        1
176
     1
 90
        0
176
     1
 62
     7
176
     1
 62
   257
176
     1
 90
        1
176
     1
 90
        1
176
     1
 40
1.0
176
     1
 90
        8
176
     1
 62
     7
176
     1
 40
1.0
176
     1
 90
        1
176
     1
 90
        6
176
     1
 90
        2
176
     1
 62
     7
176
     1
 90
        3
176
     1
 90
        0
176
     1
 90
        0
176
     1
290
     0
176
     1
 90
       13
176
     1
 40
0.0
176
     1
 90
        0
176
     1
290
     0
176
     1
290
     1
176
     1
290
     1
176
     1
290
     0
176
     1
290
     0
176
     1
290
     0
176
     1
290
     0
176
     1
290
     0
176
     1
290
     0
176
     1
 90
       50
176
     1
 40
0.0
176
     1
 40
1.0
176
     1
 90
        0
176
     1
 62
    18
420
        0
176
     1
 90
       50
176
     1
 90
        3
176
     1
 62
     5
420
      255
176
     1
290
     0
176
     1
 90
       50
176
     1
 90
       50
176
     1
 90
       50
176
     1
290
     0
176
     1
 90
       50
176
     1
 62
   256
176
     0
 40
1.0
176
     0
 90
        2
176
     1
  1
strokes_ogs.tif
176
     1
290
     0
176
     1
 40
1.0
176
     1
 40
1.0
176
     1
  0
DICTIONARYVAR
  5
415
102
{ACAD_REACTORS
330
414
102
}
330
414
100
DictionaryVariables
280
     0
  1
1:1
  0
DICTIONARYVAR
  5
41A
102
{ACAD_REACTORS
330
414
102
}
330
414
100
DictionaryVariables
280
     0
  1
Standard
  0
DICTIONARYVAR
  5
419
102
{ACAD_REACTORS
330
414
102
}
330
414
100
DictionaryVariables
280
     0
  1
Standard
  0
DICTIONARYVAR
  5
41D
102
{ACAD_REACTORS
330
414
102
}
330
414
100
DictionaryVariables
280
     0
  1
0
  0
DICTIONARY
  5
416
330
6A
100
AcDbDictionary
280
     1
281
     1
  3
ACAD_ROUNDTRIP_2008_TABLESTYLE_CELLSTYLEMAP
360
417
  0
CELLSTYLEMAP
  5
417
102
{ACAD_REACTORS
330
416
102
}
330
416
100
AcDbCellStyleMap
 90
        3
300
CELLSTYLE
  1
TABLEFORMAT_BEGIN
 90
        5
170
     1
 91
        0
 92
    32768
 62
   257
 93
        1
300
CONTENTFORMAT
  1
CONTENTFORMAT_BEGIN
 90
        0
 91
        0
 92
        4
 93
        0
300

 40
0.0
140
1.0
 94
        5
 62
     0
340
11
144
0.25
309
CONTENTFORMAT_END
171
     1
301
MARGIN
  1
CELLMARGIN_BEGIN
 40
0.06
 40
0.06
 40
0.06
 40
0.06
 40
0.06
 40
0.06
309
CELLMARGIN_END
 94
        6
 95
        1
302
GRIDFORMAT
  1
GRIDFORMAT_BEGIN
 90
        0
 91
        1
 62
     0
 92
       -2
340
14
 93
        0
 40
0.045
309
GRIDFORMAT_END
 95
        2
302
GRIDFORMAT
  1
GRIDFORMAT_BEGIN
 90
        0
 91
        1
 62
     0
 92
       -2
340
14
 93
        0
 40
0.045
309
GRIDFORMAT_END
 95
        4
302
GRIDFORMAT
  1
GRIDFORMAT_BEGIN
 90
        0
 91
        1
 62
     0
 92
       -2
340
14
 93
        0
 40
0.045
309
GRIDFORMAT_END
 95
        8
302
GRIDFORMAT
  1
GRIDFORMAT_BEGIN
 90
        0
 91
        1
 62
     0
 92
       -2
340
14
 93
        0
 40
0.045
309
GRIDFORMAT_END
 95
       16
302
GRIDFORMAT
  1
GRIDFORMAT_BEGIN
 90
        0
 91
        1
 62
     0
 92
       -2
340
14
 93
        0
 40
0.045
309
GRIDFORMAT_END
 95
       32
302
GRIDFORMAT
  1
GRIDFORMAT_BEGIN
 90
        0
 91
        1
 62
     0
 92
       -2
340
14
 93
        0
 40
0.045
309
GRIDFORMAT_END
309
TABLEFORMAT_END
  1
CELLSTYLE_BEGIN
 90
        1
 91
        1
300
_TITLE
309
CELLSTYLE_END
300
CELLSTYLE
  1
TABLEFORMAT_BEGIN
 90
        5
170
     1
 91
        0
 92
        0
 62
   257
 93
        1
300
CONTENTFORMAT
  1
CONTENTFORMAT_BEGIN
 90
        0
 91
        0
 92
        4
 93
        0
300

 40
0.0
140
1.0
 94
        5
 62
     0
340
11
144
0.18
309
CONTENTFORMAT_END
171
     1
301
MARGIN
  1
CELLMARGIN_BEGIN
 40
0.06
 40
0.06
 40
0.06
 40
0.06
 40
0.06
 40
0.06
309
CELLMARGIN_END
 94
        6
 95
        1
302
GRIDFORMAT
  1
GRIDFORMAT_BEGIN
 90
        0
 91
        1
 62
     0
 92
       -2
340
14
 93
        0
 40
0.045
309
GRIDFORMAT_END
 95
        2
302
GRIDFORMAT
  1
GRIDFORMAT_BEGIN
 90
        0
 91
        1
 62
     0
 92
       -2
340
14
 93
        0
 40
0.045
309
GRIDFORMAT_END
 95
        4
302
GRIDFORMAT
  1
GRIDFORMAT_BEGIN
 90
        0
 91
        1
 62
     0
 92
       -2
340
14
 93
        0
 40
0.045
309
GRIDFORMAT_END
 95
        8
302
GRIDFORMAT
  1
GRIDFORMAT_BEGIN
 90
        0
 91
        1
 62
     0
 92
       -2
340
14
 93
        0
 40
0.045
309
GRIDFORMAT_END
 95
       16
302
GRIDFORMAT
  1
GRIDFORMAT_BEGIN
 90
        0
 91
        1
 62
     0
 92
       -2
340
14
 93
        0
 40
0.045
309
GRIDFORMAT_END
 95
       32
302
GRIDFORMAT
  1
GRIDFORMAT_BEGIN
 90
        0
 91
        1
 62
     0
 92
       -2
340
14
 93
        0
 40
0.045
309
GRIDFORMAT_END
309
TABLEFORMAT_END
  1
CELLSTYLE_BEGIN
 90
        2
 91
        1
300
_HEADER
309
CELLSTYLE_END
300
CELLSTYLE
  1
TABLEFORMAT_BEGIN
 90
        5
170
     1
 91
        0
 92
        0
 62
   257
 93
        1
300
CONTENTFORMAT
  1
CONTENTFORMAT_BEGIN
 90
        0
 91
        0
 92
        4
 93
        0
300

 40
0.0
140
1.0
 94
        2
 62
     0
340
11
144
0.18
309
CONTENTFORMAT_END
171
     1
301
MARGIN
  1
CELLMARGIN_BEGIN
 40
0.06
 40
0.06
 40
0.06
 40
0.06
 40
0.06
 40
0.06
309
CELLMARGIN_END
 94
        6
 95
        1
302
GRIDFORMAT
  1
GRIDFORMAT_BEGIN
 90
        0
 91
        1
 62
     0
 92
       -2
340
14
 93
        0
 40
0.045
309
GRIDFORMAT_END
 95
        2
302
GRIDFORMAT
  1
GRIDFORMAT_BEGIN
 90
        0
 91
        1
 62
     0
 92
       -2
340
14
 93
        0
 40
0.045
309
GRIDFORMAT_END
 95
        4
302
GRIDFORMAT
  1
GRIDFORMAT_BEGIN
 90
        0
 91
        1
 62
     0
 92
       -2
340
14
 93
        0
 40
0.045
309
GRIDFORMAT_END
 95
        8
302
GRIDFORMAT
  1
GRIDFORMAT_BEGIN
 90
        0
 91
        1
 62
     0
 92
       -2
340
14
 93
        0
 40
0.045
309
GRIDFORMAT_END
 95
       16
302
GRIDFORMAT
  1
GRIDFORMAT_BEGIN
 90
        0
 91
        1
 62
     0
 92
       -2
340
14
 93
        0
 40
0.045
309
GRIDFORMAT_END
 95
       32
302
GRIDFORMAT
  1
GRIDFORMAT_BEGIN
 90
        0
 91
        1
 62
     0
 92
       -2
340
14
 93
        0
 40
0.045
309
GRIDFORMAT_END
309
TABLEFORMAT_END
  1
CELLSTYLE_BEGIN
 90
        3
 91
        2
300
_DATA
309
CELLSTYLE_END
  0
ENDSEC
  0
EOF
