  0
SECTION
  2
HEADER
  9
$ACADVER
  1
AC1027
  9
$ACADMAINTVER
 70
   105
  9
$DWGCODEPAGE
  3
ANSI_1252
  9
$REQUIREDVERSIONS
160
                 0
  9
$INSBASE
 10
0.0
 20
0.0
 30
0.0
  9
$EXTMIN
 10
5818.30034309757
 20
-4835.810001159949
 30
0.0
  9
$EXTMAX
 10
6212.30034309757
 20
-4293.810001159949
 30
0.0
  9
$LIMMIN
 10
0.0
 20
0.0
  9
$LIMMAX
 10
12.0
 20
9.0
  9
$ORTHOMODE
 70
     0
  9
$REGENMODE
 70
     1
  9
$FILLMODE
 70
     1
  9
$QTEXTMODE
 70
     0
  9
$MIRRTEXT
 70
     1
  9
$LTSCALE
 40
2.0
  9
$ATTMODE
 70
     1
  9
$TEXTSIZE
 40
0.2
  9
$TRACEWID
 40
0.05
  9
$TEXTSTYLE
  7
Standard
  9
$CLAYER
  8
0
  9
$CELTYPE
  6
ByLayer
  9
$CECOLOR
 62
   256
  9
$CELTSCALE
 40
1.0
  9
$DISPSILH
 70
     0
  9
$DIMSCALE
 40
1.0
  9
$DIMASZ
 40
0.18
  9
$DIMEXO
 40
0.0625
  9
$DIMDLI
 40
0.38
  9
$DIMRND
 40
0.0
  9
$DIMDLE
 40
0.0
  9
$DIMEXE
 40
0.18
  9
$DIMTP
 40
0.0
  9
$DIMTM
 40
0.0
  9
$DIMTXT
 40
0.18
  9
$DIMCEN
 40
0.09
  9
$DIMTSZ
 40
0.0
  9
$DIMTOL
 70
     0
  9
$DIMLIM
 70
     0
  9
$DIMTIH
 70
     1
  9
$DIMTOH
 70
     1
  9
$DIMSE1
 70
     0
  9
$DIMSE2
 70
     0
  9
$DIMTAD
 70
     0
  9
$DIMZIN
 70
     0
  9
$DIMBLK
  1

  9
$DIMASO
 70
     1
  9
$DIMSHO
 70
     1
  9
$DIMPOST
  1

  9
$DIMAPOST
  1

  9
$DIMALT
 70
     0
  9
$DIMALTD
 70
     2
  9
$DIMALTF
 40
25.4
  9
$DIMLFAC
 40
1.0
  9
$DIMTOFL
 70
     1
  9
$DIMTVP
 40
0.0
  9
$DIMTIX
 70
     0
  9
$DIMSOXD
 70
     1
  9
$DIMSAH
 70
     0
  9
$DIMBLK1
  1

  9
$DIMBLK2
  1

  9
$DIMSTYLE
  2
Standard
  9
$DIMCLRD
 70
     0
  9
$DIMCLRE
 70
     0
  9
$DIMCLRT
 70
     0
  9
$DIMTFAC
 40
1.0
  9
$DIMGAP
 40
0.09
  9
$DIMJUST
 70
     0
  9
$DIMSD1
 70
     0
  9
$DIMSD2
 70
     0
  9
$DIMTOLJ
 70
     1
  9
$DIMTZIN
 70
     0
  9
$DIMALTZ
 70
     0
  9
$DIMALTTZ
 70
     0
  9
$DIMUPT
 70
     0
  9
$DIMDEC
 70
     4
  9
$DIMTDEC
 70
     4
  9
$DIMALTU
 70
     2
  9
$DIMALTTD
 70
     2
  9
$DIMTXSTY
  7
Standard
  9
$DIMAUNIT
 70
     0
  9
$DIMADEC
 70
     0
  9
$DIMALTRND
 40
0.0
  9
$DIMAZIN
 70
     0
  9
$DIMDSEP
 70
    46
  9
$DIMATFIT
 70
     3
  9
$DIMFRAC
 70
     0
  9
$DIMLDRBLK
  1

  9
$DIMLUNIT
 70
     2
  9
$DIMLWD
 70
    -2
  9
$DIMLWE
 70
    -2
  9
$DIMTMOVE
 70
     2
  9
$DIMFXL
 40
1.0
  9
$DIMFXLON
 70
     0
  9
$DIMJOGANG
 40
0.7853981633974483
  9
$DIMTFILL
 70
     0
  9
$DIMTFILLCLR
 70
     0
  9
$DIMARCSYM
 70
     0
  9
$DIMLTYPE
  6

  9
$DIMLTEX1
  6

  9
$DIMLTEX2
  6

  9
$DIMTXTDIRECTION
 70
     0
  9
$LUNITS
 70
     2
  9
$LUPREC
 70
     4
  9
$SKETCHINC
 40
0.1
  9
$FILLETRAD
 40
0.5
  9
$AUNITS
 70
     0
  9
$AUPREC
 70
     0
  9
$MENU
  1
.
  9
$ELEVATION
 40
0.0
  9
$PELEVATION
 40
0.0
  9
$THICKNESS
 40
0.0
  9
$LIMCHECK
 70
     0
  9
$CHAMFERA
 40
0.0
  9
$CHAMFERB
 40
0.0
  9
$CHAMFERC
 40
0.0
  9
$CHAMFERD
 40
0.0
  9
$SKPOLY
 70
     0
  9
$TDCREATE
 40
2459173.666082697
  9
$TDUCREATE
 40
2459173.62441603
  9
$TDUPDATE
 40
2459173.666087998
  9
$TDUUPDATE
 40
2459173.624421331
  9
$TDINDWG
 40
0.0000000116
  9
$TDUSRTIMER
 40
0.0000000116
  9
$USRTIMER
 70
     1
  9
$ANGBASE
 50
0.0
  9
$ANGDIR
 70
     0
  9
$PDMODE
 70
     0
  9
$PDSIZE
 40
0.0
  9
$PLINEWID
 40
0.0
  9
$SPLFRAME
 70
     0
  9
$SPLINETYPE
 70
     6
  9
$SPLINESEGS
 70
     8
  9
$HANDSEED
  5
418
  9
$SURFTAB1
 70
     6
  9
$SURFTAB2
 70
     6
  9
$SURFTYPE
 70
     6
  9
$SURFU
 70
     6
  9
$SURFV
 70
     6
  9
$UCSBASE
  2

  9
$UCSNAME
  2

  9
$UCSORG
 10
0.0
 20
0.0
 30
0.0
  9
$UCSXDIR
 10
1.0
 20
0.0
 30
0.0
  9
$UCSYDIR
 10
0.0
 20
1.0
 30
0.0
  9
$UCSORTHOREF
  2

  9
$UCSORTHOVIEW
 70
     0
  9
$UCSORGTOP
 10
0.0
 20
0.0
 30
0.0
  9
$UCSORGBOTTOM
 10
0.0
 20
0.0
 30
0.0
  9
$UCSORGLEFT
 10
0.0
 20
0.0
 30
0.0
  9
$UCSORGRIGHT
 10
0.0
 20
0.0
 30
0.0
  9
$UCSORGFRONT
 10
0.0
 20
0.0
 30
0.0
  9
$UCSORGBACK
 10
0.0
 20
0.0
 30
0.0
  9
$PUCSBASE
  2

  9
$PUCSNAME
  2

  9
$PUCSORG
 10
0.0
 20
0.0
 30
0.0
  9
$PUCSXDIR
 10
1.0
 20
0.0
 30
0.0
  9
$PUCSYDIR
 10
0.0
 20
1.0
 30
0.0
  9
$PUCSORTHOREF
  2

  9
$PUCSORTHOVIEW
 70
     0
  9
$PUCSORGTOP
 10
0.0
 20
0.0
 30
0.0
  9
$PUCSORGBOTTOM
 10
0.0
 20
0.0
 30
0.0
  9
$PUCSORGLEFT
 10
0.0
 20
0.0
 30
0.0
  9
$PUCSORGRIGHT
 10
0.0
 20
0.0
 30
0.0
  9
$PUCSORGFRONT
 10
0.0
 20
0.0
 30
0.0
  9
$PUCSORGBACK
 10
0.0
 20
0.0
 30
0.0
  9
$USERI1
 70
     0
  9
$USERI2
 70
     0
  9
$USERI3
 70
     0
  9
$USERI4
 70
     0
  9
$USERI5
 70
     0
  9
$USERR1
 40
0.0
  9
$USERR2
 40
0.0
  9
$USERR3
 40
0.0
  9
$USERR4
 40
0.0
  9
$USERR5
 40
0.0
  9
$WORLDVIEW
 70
     1
  9
$SHADEDGE
 70
     3
  9
$SHADEDIF
 70
    70
  9
$TILEMODE
 70
     1
  9
$MAXACTVP
 70
    64
  9
$PINSBASE
 10
0.0
 20
0.0
 30
0.0
  9
$PLIMCHECK
 70
     0
  9
$PEXTMIN
 10
0.0
 20
0.0
 30
0.0
  9
$PEXTMAX
 10
197.6
 20
271.5999999999982
 30
0.0
  9
$PLIMMIN
 10
-20.0
 20
-7.5
  9
$PLIMMAX
 10
277.0
 20
202.5
  9
$UNITMODE
 70
     0
  9
$VISRETAIN
 70
     1
  9
$PLINEGEN
 70
     0
  9
$PSLTSCALE
 70
     0
  9
$TREEDEPTH
 70
  3020
  9
$CMLSTYLE
  2
Standard
  9
$CMLJUST
 70
     0
  9
$CMLSCALE
 40
1.0
  9
$PROXYGRAPHICS
 70
     1
  9
$MEASUREMENT
 70
     1
  9
$CELWEIGHT
370
    -1
  9
$ENDCAPS
280
     0
  9
$JOINSTYLE
280
     0
  9
$LWDISPLAY
290
     0
  9
$INSUNITS
 70
     4
  9
$HYPERLINKBASE
  1

  9
$STYLESHEET
  1

  9
$XEDIT
290
     1
  9
$CEPSNTYPE
380
     0
  9
$PSTYLEMODE
290
     0
  9
$FINGERPRINTGUID
  2
{3A750694-0CC7-4800-AAEC-51ECC1A45FAA}
  9
$VERSIONGUID
  2
{FAEB1C32-E019-11D5-929B-00C0DF256EC4}
  9
$EXTNAMES
290
     1
  9
$PSVPSCALE
 40
0.0
  9
$OLESTARTUP
290
     0
  9
$SORTENTS
280
   127
  9
$INDEXCTL
280
     0
  9
$HIDETEXT
280
     1
  9
$XCLIPFRAME
280
     2
  9
$HALOGAP
280
     0
  9
$OBSCOLOR
 70
   257
  9
$OBSLTYPE
280
     0
  9
$INTERSECTIONDISPLAY
280
     0
  9
$INTERSECTIONCOLOR
 70
   257
  9
$DIMASSOC
280
     2
  9
$PROJECTNAME
  1

  9
$CAMERADISPLAY
290
     0
  9
$LENSLENGTH
 40
50.0
  9
$CAMERAHEIGHT
 40
0.0
  9
$STEPSPERSEC
 40
2.0
  9
$STEPSIZE
 40
6.0
  9
$3DDWFPREC
 40
2.0
  9
$PSOLWIDTH
 40
0.25
  9
$PSOLHEIGHT
 40
4.0
  9
$LOFTANG1
 40
1.570796326794897
  9
$LOFTANG2
 40
1.570796326794897
  9
$LOFTMAG1
 40
0.0
  9
$LOFTMAG2
 40
0.0
  9
$LOFTPARAM
 70
     7
  9
$LOFTNORMALS
280
     1
  9
$LATITUDE
 40
37.795
  9
$LONGITUDE
 40
-122.394
  9
$NORTHDIRECTION
 40
0.0
  9
$TIMEZONE
 70
 -8000
  9
$LIGHTGLYPHDISPLAY
280
     1
  9
$TILEMODELIGHTSYNCH
280
     1
  9
$CMATERIAL
347
44
  9
$SOLIDHIST
280
     0
  9
$SHOWHIST
280
     1
  9
$DWFFRAME
280
     2
  9
$DGNFRAME
280
     2
  9
$REALWORLDSCALE
290
     1
  9
$INTERFERECOLOR
 62
   256
  9
$CSHADOW
280
     0
  9
$SHADOWPLANELOCATION
 40
0.0
  0
ENDSEC
  0
SECTION
  2
CLASSES
  0
CLASS
  1
ACDBDICTIONARYWDFLT
  2
AcDbDictionaryWithDefault
  3
ObjectDBX Classes
 90
        0
 91
        3
280
     0
281
     0
  0
CLASS
  1
VISUALSTYLE
  2
AcDbVisualStyle
  3
ObjectDBX Classes
 90
     4095
 91
        3
280
     0
281
     0
  0
CLASS
  1
MATERIAL
  2
AcDbMaterial
  3
ObjectDBX Classes
 90
     1153
 91
        3
280
     0
281
     0
  0
CLASS
  1
SCALE
  2
AcDbScale
  3
ObjectDBX Classes
 90
     1153
 91
        3
280
     0
281
     0
  0
CLASS
  1
TABLESTYLE
  2
AcDbTableStyle
  3
ObjectDBX Classes
 90
     4095
 91
        3
280
     0
281
     0
  0
CLASS
  1
MLEADERSTYLE
  2
AcDbMLeaderStyle
  3
ACDB_MLEADERSTYLE_CLASS
 90
     4095
 91
        3
280
     0
281
     0
  0
CLASS
  1
SUN
  2
AcDbSun
  3
SCENEOE
 90
     1153
 91
        3
280
     0
281
     0
  0
CLASS
  1
RASTERVARIABLES
  2
AcDbRasterVariables
  3
ISM
 90
        0
 91
        3
280
     0
281
     0
  0
CLASS
  1
PLOTSETTINGS
  2
AcDbPlotSettings
  3
ObjectDBX Classes
 90
        0
 91
        3
280
     0
281
     0
  0
CLASS
  1
IMAGEDEF
  2
AcDbRasterImageDef
  3
ISM
 90
        0
 91
        3
280
     0
281
     0
  0
CLASS
  1
IMAGE
  2
AcDbRasterImage
  3
ISM
 90
      127
 91
        4
280
     0
281
     1
  0
CLASS
  1
IMAGEDEF_REACTOR
  2
AcDbRasterImageDefReactor
  3
ISM
 90
        1
 91
        3
280
     0
281
     0
  0
CLASS
  1
DICTIONARYVAR
  2
AcDbDictionaryVar
  3
ObjectDBX Classes
 90
        0
 91
        3
280
     0
281
     0
  0
CLASS
  1
CELLSTYLEMAP
  2
AcDbCellStyleMap
  3
ObjectDBX Classes
 90
     1152
 91
        3
280
     0
281
     0
  0
ENDSEC
  0
SECTION
  2
TABLES
  0
TABLE
  2
VPORT
  5
8
330
0
100
AcDbSymbolTable
 70
     1
  0
VPORT
  5
29
330
8
100
AcDbSymbolTableRecord
100
AcDbViewportTableRecord
  2
*Active
 70
     0
 10
0.0
 20
0.0
 11
1.0
 21
1.0
 12
10.42990654205607
 22
4.5
 13
0.0
 23
0.0
 14
0.5
 24
0.5
 15
0.5
 25
0.5
 16
0.0
 26
0.0
 36
1.0
 17
0.0
 27
0.0
 37
0.0
 40
9.0
 41
1.972972972850329
 42
50.0
 43
0.0
 44
0.0
 50
0.0
 51
0.0
 71
     0
 72
   100
 73
     1
 74
     3
 75
     0
 76
     0
 77
     0
 78
     0
281
     0
 65
     1
110
0.0
120
0.0
130
0.0
111
1.0
121
0.0
131
0.0
112
0.0
122
1.0
132
0.0
 79
     0
146
0.0
348
2F
 60
     3
 61
     5
292
     1
282
     1
141
0.0
142
0.0
 63
   250
361
6D
  0
ENDTAB
  0
TABLE
  2
LTYPE
  5
5
330
0
100
AcDbSymbolTable
 70
     3
  0
LTYPE
  5
14
330
5
100
AcDbSymbolTableRecord
100
AcDbLinetypeTableRecord
  2
ByBlock
 70
     0
  3

 72
    65
 73
     0
 40
0.0
  0
LTYPE
  5
15
330
5
100
AcDbSymbolTableRecord
100
AcDbLinetypeTableRecord
  2
ByLayer
 70
     0
  3

 72
    65
 73
     0
 40
0.0
  0
LTYPE
  5
16
330
5
100
AcDbSymbolTableRecord
100
AcDbLinetypeTableRecord
  2
Continuous
 70
     0
  3
Solid line
 72
    65
 73
     0
 40
0.0
  0
LTYPE
  5
191
330
5
100
AcDbSymbolTableRecord
100
AcDbLinetypeTableRecord
  2
CADWORK_3
 70
     0
  3

 72
    65
 73
     2
 40
4.0
 49
2.0
 74
     0
 49
-2.0
 74
     0
  0
LTYPE
  5
259
330
5
100
AcDbSymbolTableRecord
100
AcDbLinetypeTableRecord
  2
CADWORK_22
 70
     0
  3

 72
    65
 73
     0
 40
0.0
  0
ENDTAB
  0
TABLE
  2
LAYER
  5
2
330
0
100
AcDbSymbolTable
 70
    33
  0
LAYER
  5
10
330
2
100
AcDbSymbolTableRecord
100
AcDbLayerTableRecord
  2
0
 70
     0
 62
     7
  6
Continuous
370
    -3
390
F
347
46
348
0
  0
LAYER
  5
70
330
2
100
AcDbSymbolTableRecord
100
AcDbLayerTableRecord
  2
Standard
 70
     0
 62
     7
  6
Continuous
370
    -3
390
F
347
46
348
0
  0
LAYER
  5
71
330
2
100
AcDbSymbolTableRecord
100
AcDbLayerTableRecord
  2
Ech.1_1
 70
     0
 62
     7
  6
Continuous
370
    -3
390
F
347
46
348
0
  0
LAYER
  5
72
330
2
100
AcDbSymbolTableRecord
100
AcDbLayerTableRecord
  2
Ech.1_2
 70
     0
 62
     7
  6
Continuous
370
    -3
390
F
347
46
348
0
  0
LAYER
  5
73
330
2
100
AcDbSymbolTableRecord
100
AcDbLayerTableRecord
  2
Ech.1_5
 70
     0
 62
     7
  6
Continuous
370
    -3
390
F
347
46
348
0
  0
LAYER
  5
74
330
2
100
AcDbSymbolTableRecord
100
AcDbLayerTableRecord
  2
Ech.1_10
 70
     0
 62
     7
  6
Continuous
370
    -3
390
F
347
46
348
0
  0
LAYER
  5
75
330
2
100
AcDbSymbolTableRecord
100
AcDbLayerTableRecord
  2
Ech.1_20
 70
     0
 62
     7
  6
Continuous
370
    -3
390
F
347
46
348
0
  0
LAYER
  5
76
330
2
100
AcDbSymbolTableRecord
100
AcDbLayerTableRecord
  2
Ech.1_25
 70
     0
 62
     7
  6
Continuous
370
    -3
390
F
347
46
348
0
  0
LAYER
  5
77
330
2
100
AcDbSymbolTableRecord
100
AcDbLayerTableRecord
  2
Ech.1_33
 70
     0
 62
     7
  6
Continuous
370
    -3
390
F
347
46
348
0
  0
LAYER
  5
78
330
2
100
AcDbSymbolTableRecord
100
AcDbLayerTableRecord
  2
Ech.1_50
 70
     0
 62
     7
  6
Continuous
370
    -3
390
F
347
46
348
0
  0
LAYER
  5
79
330
2
100
AcDbSymbolTableRecord
100
AcDbLayerTableRecord
  2
Ech.1_75
 70
     0
 62
     7
  6
Continuous
370
    -3
390
F
347
46
348
0
  0
LAYER
  5
7A
330
2
100
AcDbSymbolTableRecord
100
AcDbLayerTableRecord
  2
Ech.1_100
 70
     0
 62
     7
  6
Continuous
370
    -3
390
F
347
46
348
0
  0
LAYER
  5
7B
330
2
100
AcDbSymbolTableRecord
100
AcDbLayerTableRecord
  2
Ech.1_200
 70
     0
 62
     7
  6
Continuous
370
    -3
390
F
347
46
348
0
  0
LAYER
  5
7C
330
2
100
AcDbSymbolTableRecord
100
AcDbLayerTableRecord
  2
Ech.1_500
 70
     0
 62
     7
  6
Continuous
370
    -3
390
F
347
46
348
0
  0
LAYER
  5
7D
330
2
100
AcDbSymbolTableRecord
100
AcDbLayerTableRecord
  2
Ech.1_1000
 70
     0
 62
     7
  6
Continuous
370
    -3
390
F
347
46
348
0
  0
LAYER
  5
7E
330
2
100
AcDbSymbolTableRecord
100
AcDbLayerTableRecord
  2
Cadres traceur
 70
     0
 62
     7
  6
Continuous
370
    -3
390
F
347
46
348
0
  0
LAYER
  5
7F
330
2
100
AcDbSymbolTableRecord
100
AcDbLayerTableRecord
  2
Cadres laser
 70
     0
 62
     7
  6
Continuous
370
    -3
390
F
347
46
348
0
  0
LAYER
  5
80
330
2
100
AcDbSymbolTableRecord
100
AcDbLayerTableRecord
  2
Légende d_aide
 70
     0
 62
     7
  6
Continuous
370
    -3
390
F
347
46
348
0
  0
LAYER
  5
81
330
2
100
AcDbSymbolTableRecord
100
AcDbLayerTableRecord
  2
hachures ok
 70
     0
 62
     7
  6
Continuous
370
    -3
390
F
347
46
348
0
  0
LAYER
  5
82
330
2
100
AcDbSymbolTableRecord
100
AcDbLayerTableRecord
  2
ossature bois
 70
     0
 62
     7
  6
Continuous
370
    -3
390
F
347
46
348
0
  0
LAYER
  5
83
330
2
100
AcDbSymbolTableRecord
100
AcDbLayerTableRecord
  2
VR
 70
     0
 62
     7
  6
Continuous
370
    -3
390
F
347
46
348
0
  0
LAYER
  5
84
330
2
100
AcDbSymbolTableRecord
100
AcDbLayerTableRecord
  2
Calque1
 70
     0
 62
     7
  6
Continuous
370
    -3
390
F
347
46
348
0
  0
LAYER
  5
85
330
2
100
AcDbSymbolTableRecord
100
AcDbLayerTableRecord
  2
0_
 70
     0
 62
     7
  6
Continuous
370
    -3
390
F
347
46
348
0
  0
LAYER
  5
86
330
2
100
AcDbSymbolTableRecord
100
AcDbLayerTableRecord
  2
menuiserie
 70
     0
 62
     7
  6
Continuous
370
    -3
390
F
347
46
348
0
  0
LAYER
  5
87
330
2
100
AcDbSymbolTableRecord
100
AcDbLayerTableRecord
  2
cotation
 70
     0
 62
   250
  6
Continuous
370
    -3
390
F
347
46
348
0
  0
LAYER
  5
88
330
2
100
AcDbSymbolTableRecord
100
AcDbLayerTableRecord
  2
Defpoints
 70
     0
 62
    10
  6
Continuous
290
     0
370
    -3
390
F
347
46
348
0
  0
LAYER
  5
89
330
2
100
AcDbSymbolTableRecord
100
AcDbLayerTableRecord
  2
HACHURE
 70
     0
 62
   254
  6
Continuous
370
    -3
390
F
347
46
348
0
  0
LAYER
  5
8A
330
2
100
AcDbSymbolTableRecord
100
AcDbLayerTableRecord
  2
mat1
 70
     0
 62
     7
  6
Continuous
370
    -3
390
F
347
46
348
0
  0
LAYER
  5
8B
330
2
100
AcDbSymbolTableRecord
100
AcDbLayerTableRecord
  2
mat2
 70
     0
 62
     7
  6
Continuous
370
    -3
390
F
347
46
348
0
  0
LAYER
  5
8C
330
2
100
AcDbSymbolTableRecord
100
AcDbLayerTableRecord
  2
hach
 70
     0
 62
     8
  6
Continuous
370
    -3
390
F
347
46
348
0
  0
LAYER
  5
8D
330
2
100
AcDbSymbolTableRecord
100
AcDbLayerTableRecord
  2
menuiseries
 70
     0
 62
     7
  6
Continuous
370
    -3
390
F
347
46
348
0
  0
LAYER
  5
8E
330
2
100
AcDbSymbolTableRecord
100
AcDbLayerTableRecord
  2
BétonMétal
 70
     0
 62
     7
  6
Continuous
370
    -3
390
F
347
46
348
0
  0
LAYER
  5
8F
330
2
100
AcDbSymbolTableRecord
100
AcDbLayerTableRecord
  2
bois
 70
     0
 62
     7
  6
Continuous
370
    -3
390
F
347
46
348
0
  0
ENDTAB
  0
TABLE
  2
STYLE
  5
3
330
0
100
AcDbSymbolTable
 70
     9
  0
STYLE
  5
11
330
3
100
AcDbSymbolTableRecord
100
AcDbTextStyleTableRecord
  2
Standard
 70
     0
 40
0.0
 41
1.0
 50
0.0
 71
     0
 42
0.2
  3
txt
  4

  0
STYLE
  5
90
330
3
100
AcDbSymbolTableRecord
100
AcDbTextStyleTableRecord
  2
CwStyleShx
 70
     0
 40
1.0
 41
1.0
 50
0.0
 71
     0
 42
0.2
  3

  4

  0
STYLE
  5
91
330
3
100
AcDbSymbolTableRecord
100
AcDbTextStyleTableRecord
  2
CwStyleShx16
 70
     0
 40
1.0
 41
1.0
 50
0.0
 71
     0
 42
0.2
  3

  4

  0
STYLE
  5
92
330
3
100
AcDbSymbolTableRecord
100
AcDbTextStyleTableRecord
  2
MONOTXT
 70
     0
 40
0.0
 41
1.0
 50
0.0
 71
     0
 42
0.2
  3
MONOTXT
  4

  0
STYLE
  5
93
330
3
100
AcDbSymbolTableRecord
100
AcDbTextStyleTableRecord
  2
SYMAP
 70
     0
 40
1.0
 41
1.0
 50
0.0
 71
     0
 42
0.2
  3
SYMAP
  4

  0
STYLE
  5
94
330
3
100
AcDbSymbolTableRecord
100
AcDbTextStyleTableRecord
  2
CwStyleTtf
 70
     0
 40
1.0
 41
1.0
 50
0.0
 71
     0
 42
0.2
  3
arial.ttf
  4

  0
STYLE
  5
3BA
330
3
100
AcDbSymbolTableRecord
100
AcDbTextStyleTableRecord
  2
arial-z
 70
     0
 40
0.0
 41
1.0
 50
0.0
 71
     0
 42
0.2
  3
arial.ttf
  4

1001
ACAD
1000
Arial
1071
        0
  0
STYLE
  5
3F1
330
3
100
AcDbSymbolTableRecord
100
AcDbTextStyleTableRecord
  2
arial-
 70
     0
 40
1.0
 41
1.0
 50
0.0
 71
     0
 42
0.2
  3

  4

1001
ACAD
1000
Arial
1071
        0
  0
STYLE
  5
3F3
330
3
100
AcDbSymbolTableRecord
100
AcDbTextStyleTableRecord
  2
tahoma-b
 70
     0
 40
1.0
 41
1.0
 50
0.0
 71
     0
 42
0.2
  3
tahomabd.ttf
  4

1001
ACAD
1000
Tahoma
1071
 33554432
  0
ENDTAB
  0
TABLE
  2
VIEW
  5
6
330
0
100
AcDbSymbolTable
 70
     0
  0
ENDTAB
  0
TABLE
  2
UCS
  5
7
330
0
100
AcDbSymbolTable
 70
     0
  0
ENDTAB
  0
TABLE
  2
APPID
  5
9
330
0
100
AcDbSymbolTable
 70
     3
  0
APPID
  5
12
330
9
100
AcDbSymbolTableRecord
100
AcDbRegAppTableRecord
  2
ACAD
 70
     0
  0
APPID
  5
6E
330
9
100
AcDbSymbolTableRecord
100
AcDbRegAppTableRecord
  2
Cadwork
 70
     0
  0
APPID
  5
241
330
9
100
AcDbSymbolTableRecord
100
AcDbRegAppTableRecord
  2
PLOTTRANSPARENCY
 70
     0
  0
ENDTAB
  0
TABLE
  2
DIMSTYLE
  5
A
330
0
100
AcDbSymbolTable
 70
     1
100
AcDbDimStyleTable
  0
DIMSTYLE
105
27
102
{ACAD_REACTORS
330
3BB
330
3C9
330
3D7
102
}
330
A
100
AcDbSymbolTableRecord
100
AcDbDimStyleTableRecord
  2
Standard
 70
     0
178
     0
340
11
  0
ENDTAB
  0
TABLE
  2
BLOCK_RECORD
  5
1
330
0
100
AcDbSymbolTable
 70
    72
  0
BLOCK_RECORD
  5
1F
330
1
100
AcDbSymbolTableRecord
100
AcDbBlockTableRecord
  2
*Model_Space
340
22
 70
     0
280
     1
281
     0
  0
BLOCK_RECORD
  5
23C
330
1
100
AcDbSymbolTableRecord
100
AcDbBlockTableRecord
  2
*Paper_Space
340
23D
 70
     0
280
     1
281
     0
  0
BLOCK_RECORD
  5
95
330
1
100
AcDbSymbolTableRecord
100
AcDbBlockTableRecord
  2
CDWK_PTTYP1
340
0
 70
     0
280
     1
281
     1
  0
BLOCK_RECORD
  5
9C
330
1
100
AcDbSymbolTableRecord
100
AcDbBlockTableRecord
  2
CDWK_PTTYP2
340
0
 70
     0
280
     1
281
     1
  0
BLOCK_RECORD
  5
A1
330
1
100
AcDbSymbolTableRecord
100
AcDbBlockTableRecord
  2
CDWK_PTTYP4
340
0
 70
     0
280
     1
281
     1
  0
BLOCK_RECORD
  5
A5
330
1
100
AcDbSymbolTableRecord
100
AcDbBlockTableRecord
  2
CDWK_PTTYP5
340
0
 70
     0
280
     1
281
     1
  0
BLOCK_RECORD
  5
AE
330
1
100
AcDbSymbolTableRecord
100
AcDbBlockTableRecord
  2
CDWK_PTTYP6
340
0
 70
     0
280
     1
281
     1
  0
BLOCK_RECORD
  5
B6
330
1
100
AcDbSymbolTableRecord
100
AcDbBlockTableRecord
  2
CDWK_PTTYP7
340
0
 70
     0
280
     1
281
     1
  0
BLOCK_RECORD
  5
BF
330
1
100
AcDbSymbolTableRecord
100
AcDbBlockTableRecord
  2
CDWK_PTTYP8
340
0
 70
     0
280
     1
281
     1
  0
BLOCK_RECORD
  5
C3
330
1
100
AcDbSymbolTableRecord
100
AcDbBlockTableRecord
  2
CDWK_PTTYP9
340
0
 70
     0
280
     1
281
     1
  0
BLOCK_RECORD
  5
C8
330
1
100
AcDbSymbolTableRecord
100
AcDbBlockTableRecord
  2
CDWK_PTTYP10
340
0
 70
     0
280
     1
281
     1
  0
BLOCK_RECORD
  5
CC
330
1
100
AcDbSymbolTableRecord
100
AcDbBlockTableRecord
  2
CDWK_PTTYP11
340
0
 70
     0
280
     1
281
     1
  0
BLOCK_RECORD
  5
D1
330
1
100
AcDbSymbolTableRecord
100
AcDbBlockTableRecord
  2
CDWK_PTTYP12
340
0
 70
     0
280
     1
281
     1
  0
BLOCK_RECORD
  5
D6
330
1
100
AcDbSymbolTableRecord
100
AcDbBlockTableRecord
  2
CDWK_PTTYP13
340
0
 70
     0
280
     1
281
     1
  0
BLOCK_RECORD
  5
DC
330
1
100
AcDbSymbolTableRecord
100
AcDbBlockTableRecord
  2
CDWK_PTTYP16
340
0
 70
     0
280
     1
281
     1
  0
BLOCK_RECORD
  5
E3
330
1
100
AcDbSymbolTableRecord
100
AcDbBlockTableRecord
  2
CDWK_PTTYP17
340
0
 70
     0
280
     1
281
     1
  0
BLOCK_RECORD
  5
E8
330
1
100
AcDbSymbolTableRecord
100
AcDbBlockTableRecord
  2
CDWK_PTTYP18
340
0
 70
     0
280
     1
281
     1
  0
BLOCK_RECORD
  5
ED
330
1
100
AcDbSymbolTableRecord
100
AcDbBlockTableRecord
  2
CDWK_PTTYP19
340
0
 70
     0
280
     1
281
     1
  0
BLOCK_RECORD
  5
F3
330
1
100
AcDbSymbolTableRecord
100
AcDbBlockTableRecord
  2
CDWK_PTTYP20
340
0
 70
     0
280
     1
281
     1
  0
BLOCK_RECORD
  5
F8
330
1
100
AcDbSymbolTableRecord
100
AcDbBlockTableRecord
  2
CDWK_PTTYP21
340
0
 70
     0
280
     1
281
     1
  0
BLOCK_RECORD
  5
FD
330
1
100
AcDbSymbolTableRecord
100
AcDbBlockTableRecord
  2
CDWK_PTTYP25
340
0
 70
     0
280
     1
281
     1
  0
BLOCK_RECORD
  5
104
330
1
100
AcDbSymbolTableRecord
100
AcDbBlockTableRecord
  2
CDWK_PTTYP26
340
0
 70
     0
280
     1
281
     1
  0
BLOCK_RECORD
  5
10B
330
1
100
AcDbSymbolTableRecord
100
AcDbBlockTableRecord
  2
CDWK_PTTYP27
340
0
 70
     0
280
     1
281
     1
  0
BLOCK_RECORD
  5
113
330
1
100
AcDbSymbolTableRecord
100
AcDbBlockTableRecord
  2
CDWK_PTTYP28
340
0
 70
     0
280
     1
281
     1
  0
BLOCK_RECORD
  5
11A
330
1
100
AcDbSymbolTableRecord
100
AcDbBlockTableRecord
  2
CDWK_PTTYP29
340
0
 70
     0
280
     1
281
     1
  0
BLOCK_RECORD
  5
120
330
1
100
AcDbSymbolTableRecord
100
AcDbBlockTableRecord
  2
CDWK_PTTYP30
340
0
 70
     0
280
     1
281
     1
  0
BLOCK_RECORD
  5
127
330
1
100
AcDbSymbolTableRecord
100
AcDbBlockTableRecord
  2
CDWK_PTTYP31
340
0
 70
     0
280
     1
281
     1
  0
BLOCK_RECORD
  5
12F
330
1
100
AcDbSymbolTableRecord
100
AcDbBlockTableRecord
  2
CDWK_PTTYP32
340
0
 70
     0
280
     1
281
     1
  0
BLOCK_RECORD
  5
138
330
1
100
AcDbSymbolTableRecord
100
AcDbBlockTableRecord
  2
CDWK_PTTYP33
340
0
 70
     0
280
     1
281
     1
  0
BLOCK_RECORD
  5
13E
330
1
100
AcDbSymbolTableRecord
100
AcDbBlockTableRecord
  2
CDWK_PTTYP34
340
0
 70
     0
280
     1
281
     1
  0
BLOCK_RECORD
  5
144
330
1
100
AcDbSymbolTableRecord
100
AcDbBlockTableRecord
  2
CDWK_PTTYP35
340
0
 70
     0
280
     1
281
     1
  0
BLOCK_RECORD
  5
14A
330
1
100
AcDbSymbolTableRecord
100
AcDbBlockTableRecord
  2
CDWK_PTTYP36
340
0
 70
     0
280
     1
281
     1
  0
BLOCK_RECORD
  5
152
330
1
100
AcDbSymbolTableRecord
100
AcDbBlockTableRecord
  2
CDWK_PTTYP37
340
0
 70
     0
280
     1
281
     1
  0
BLOCK_RECORD
  5
157
330
1
100
AcDbSymbolTableRecord
100
AcDbBlockTableRecord
  2
CDWK_PTTYP38
340
0
 70
     0
280
     1
281
     1
  0
BLOCK_RECORD
  5
15D
330
1
100
AcDbSymbolTableRecord
100
AcDbBlockTableRecord
  2
CDWK_PTTYP41
340
0
 70
     0
280
     1
281
     1
  0
BLOCK_RECORD
  5
167
330
1
100
AcDbSymbolTableRecord
100
AcDbBlockTableRecord
  2
CDWK_PTTYP42
340
0
 70
     0
280
     1
281
     1
  0
BLOCK_RECORD
  5
170
330
1
100
AcDbSymbolTableRecord
100
AcDbBlockTableRecord
  2
CDWK_PTTYP43
340
0
 70
     0
280
     1
281
     1
  0
BLOCK_RECORD
  5
176
330
1
100
AcDbSymbolTableRecord
100
AcDbBlockTableRecord
  2
CDWK_PTTYP44
340
0
 70
     0
280
     1
281
     1
  0
BLOCK_RECORD
  5
17F
330
1
100
AcDbSymbolTableRecord
100
AcDbBlockTableRecord
  2
CDWK_PTTYP45
340
0
 70
     0
280
     1
281
     1
  0
BLOCK_RECORD
  5
184
330
1
100
AcDbSymbolTableRecord
100
AcDbBlockTableRecord
  2
CDWK_PTTYP46
340
0
 70
     0
280
     1
281
     1
  0
BLOCK_RECORD
  5
189
330
1
100
AcDbSymbolTableRecord
100
AcDbBlockTableRecord
  2
CDWK_PTTYP47
340
0
 70
     0
280
     1
281
     1
  0
BLOCK_RECORD
  5
192
330
1
100
AcDbSymbolTableRecord
100
AcDbBlockTableRecord
  2
CDWK_PTTYP48
340
0
 70
     0
280
     1
281
     1
  0
BLOCK_RECORD
  5
197
330
1
100
AcDbSymbolTableRecord
100
AcDbBlockTableRecord
  2
CDWK_PTTYP49
340
0
 70
     0
280
     1
281
     1
  0
BLOCK_RECORD
  5
19E
330
1
100
AcDbSymbolTableRecord
100
AcDbBlockTableRecord
  2
CDWK_PTTYP50
340
0
 70
     0
280
     1
281
     1
  0
BLOCK_RECORD
  5
1A8
330
1
100
AcDbSymbolTableRecord
100
AcDbBlockTableRecord
  2
CDWK_PTTYP51
340
0
 70
     0
280
     1
281
     1
  0
BLOCK_RECORD
  5
1AD
330
1
100
AcDbSymbolTableRecord
100
AcDbBlockTableRecord
  2
CDWK_PTTYP52
340
0
 70
     0
280
     1
281
     1
  0
BLOCK_RECORD
  5
1B3
330
1
100
AcDbSymbolTableRecord
100
AcDbBlockTableRecord
  2
cw-dimension-symbol1
340
0
 70
     0
280
     1
281
     0
  0
BLOCK_RECORD
  5
1BA
330
1
100
AcDbSymbolTableRecord
100
AcDbBlockTableRecord
  2
cw-dimension-symbol2
340
0
102
{BLKREFS
331
3C4
331
3C3
331
3D2
331
3D1
331
3E0
331
3DF
102
}
 70
     0
280
     1
281
     0
  0
BLOCK_RECORD
  5
1BF
330
1
100
AcDbSymbolTableRecord
100
AcDbBlockTableRecord
  2
cw-dimension-symbol3
340
0
 70
     0
280
     1
281
     0
  0
BLOCK_RECORD
  5
1C4
330
1
100
AcDbSymbolTableRecord
100
AcDbBlockTableRecord
  2
cw-dimension-symbol5
340
0
 70
     0
280
     1
281
     0
  0
BLOCK_RECORD
  5
1CB
330
1
100
AcDbSymbolTableRecord
100
AcDbBlockTableRecord
  2
cw-dimension-symbol6
340
0
 70
     0
280
     1
281
     0
  0
BLOCK_RECORD
  5
1D1
330
1
100
AcDbSymbolTableRecord
100
AcDbBlockTableRecord
  2
cw-dimension-symbol11
340
0
 70
     0
280
     1
281
     0
  0
BLOCK_RECORD
  5
1D7
330
1
100
AcDbSymbolTableRecord
100
AcDbBlockTableRecord
  2
cw-dimension-symbol13
340
0
 70
     0
280
     1
281
     0
  0
BLOCK_RECORD
  5
1DD
330
1
100
AcDbSymbolTableRecord
100
AcDbBlockTableRecord
  2
cw-dimension-symbol15
340
0
 70
     0
280
     1
281
     0
  0
BLOCK_RECORD
  5
1E4
330
1
100
AcDbSymbolTableRecord
100
AcDbBlockTableRecord
  2
cw-dimension-symbol16
340
0
 70
     0
280
     1
281
     0
  0
BLOCK_RECORD
  5
1EB
330
1
100
AcDbSymbolTableRecord
100
AcDbBlockTableRecord
  2
cw-dimension-symbol17
340
0
 70
     0
280
     1
281
     0
  0
BLOCK_RECORD
  5
1F2
330
1
100
AcDbSymbolTableRecord
100
AcDbBlockTableRecord
  2
cw-dimension-symbol18
340
0
 70
     0
280
     1
281
     0
  0
BLOCK_RECORD
  5
1F9
330
1
100
AcDbSymbolTableRecord
100
AcDbBlockTableRecord
  2
cw-dimension-symbol19
340
0
 70
     0
280
     1
281
     0
  0
BLOCK_RECORD
  5
1FC
330
1
100
AcDbSymbolTableRecord
100
AcDbBlockTableRecord
  2
cw-dimension-symbol20
340
0
 70
     0
280
     1
281
     0
  0
BLOCK_RECORD
  5
203
330
1
100
AcDbSymbolTableRecord
100
AcDbBlockTableRecord
  2
cw-dimension-symbol21
340
0
 70
     0
280
     1
281
     0
  0
BLOCK_RECORD
  5
20A
330
1
100
AcDbSymbolTableRecord
100
AcDbBlockTableRecord
  2
cw-line-extremity0
340
0
 70
     0
280
     1
281
     0
  0
BLOCK_RECORD
  5
20E
330
1
100
AcDbSymbolTableRecord
100
AcDbBlockTableRecord
  2
cw-line-extremity2
340
0
 70
     0
280
     1
281
     0
  0
BLOCK_RECORD
  5
213
330
1
100
AcDbSymbolTableRecord
100
AcDbBlockTableRecord
  2
cw-line-extremity3
340
0
 70
     0
280
     1
281
     0
  0
BLOCK_RECORD
  5
218
330
1
100
AcDbSymbolTableRecord
100
AcDbBlockTableRecord
  2
cw-line-extremity301
340
0
 70
     0
280
     1
281
     0
  0
BLOCK_RECORD
  5
21A
330
1
100
AcDbSymbolTableRecord
100
AcDbBlockTableRecord
  2
cw-line-extremity4
340
0
102
{BLKREFS
331
25E
331
260
331
262
331
3B0
102
}
 70
     0
280
     1
281
     0
  0
BLOCK_RECORD
  5
21C
330
1
100
AcDbSymbolTableRecord
100
AcDbBlockTableRecord
  2
cw-line-extremity5
340
0
 70
     0
280
     1
281
     0
  0
BLOCK_RECORD
  5
21E
330
1
100
AcDbSymbolTableRecord
100
AcDbBlockTableRecord
  2
cw-line-extremity6
340
0
 70
     0
280
     1
281
     0
  0
BLOCK_RECORD
  5
220
330
1
100
AcDbSymbolTableRecord
100
AcDbBlockTableRecord
  2
cw-line-extremity9
340
0
 70
     0
280
     1
281
     0
  0
BLOCK_RECORD
  5
222
330
1
100
AcDbSymbolTableRecord
100
AcDbBlockTableRecord
  2
cw-line-extremity10
340
0
 70
     0
280
     1
281
     0
  0
BLOCK_RECORD
  5
224
330
1
100
AcDbSymbolTableRecord
100
AcDbBlockTableRecord
  2
cw-line-extremity1
340
0
 70
     0
280
     1
281
     0
  0
BLOCK_RECORD
  5
1B
330
1
100
AcDbSymbolTableRecord
100
AcDbBlockTableRecord
  2
*Paper_Space69
340
1E
 70
     0
280
     1
281
     0
  0
BLOCK_RECORD
  5
3BD
330
1
100
AcDbSymbolTableRecord
100
AcDbBlockTableRecord
  2
*D70
340
0
 70
     0
280
     1
281
     0
  0
BLOCK_RECORD
  5
3CB
330
1
100
AcDbSymbolTableRecord
100
AcDbBlockTableRecord
  2
*D71
340
0
 70
     0
280
     1
281
     0
  0
BLOCK_RECORD
  5
3D9
330
1
100
AcDbSymbolTableRecord
100
AcDbBlockTableRecord
  2
*D72
340
0
 70
     0
280
     1
281
     0
  0
ENDTAB
  0
ENDSEC
  0
SECTION
  2
BLOCKS
  0
BLOCK
  5
20
330
1F
100
AcDbEntity
  8
0
100
AcDbBlockBegin
  2
*Model_Space
 70
     0
 10
0.0
 20
0.0
 30
0.0
  3
*Model_Space
  1

  0
ENDBLK
  5
21
330
1F
100
AcDbEntity
  8
0
100
AcDbBlockEnd
  0
BLOCK
  5
23E
330
23C
100
AcDbEntity
 67
     1
  8
0
100
AcDbBlockBegin
  2
*Paper_Space
 70
     0
 10
0.0
 20
0.0
 30
0.0
  3
*Paper_Space
  1

  0
ENDBLK
  5
23F
330
23C
100
AcDbEntity
 67
     1
  8
0
100
AcDbBlockEnd
  0
BLOCK
  5
9A
330
95
100
AcDbEntity
  8
0
100
AcDbBlockBegin
  2
CDWK_PTTYP1
 70
     0
 10
0.0
 20
0.0
 30
0.0
  3
CDWK_PTTYP1
  1

  0
LINE
  5
96
330
95
100
AcDbEntity
  8
0
 62
     0
370
    -2
100
AcDbLine
 10
-0.5
 20
0.5
 30
0.0
 11
0.5
 21
0.5
 31
0.0
  0
LINE
  5
97
330
95
100
AcDbEntity
  8
0
 62
     0
370
    -2
100
AcDbLine
 10
0.5
 20
0.5
 30
0.0
 11
0.5
 21
-0.5
 31
0.0
  0
LINE
  5
98
330
95
100
AcDbEntity
  8
0
 62
     0
370
    -2
100
AcDbLine
 10
0.5
 20
-0.5
 30
0.0
 11
-0.5
 21
-0.5
 31
0.0
  0
LINE
  5
99
330
95
100
AcDbEntity
  8
0
 62
     0
370
    -2
100
AcDbLine
 10
-0.5
 20
-0.5
 30
0.0
 11
-0.5
 21
0.5
 31
0.0
  0
ENDBLK
  5
9B
330
95
100
AcDbEntity
  8
0
100
AcDbBlockEnd
  0
BLOCK
  5
9F
330
9C
100
AcDbEntity
  8
0
100
AcDbBlockBegin
  2
CDWK_PTTYP2
 70
     0
 10
0.0
 20
0.0
 30
0.0
  3
CDWK_PTTYP2
  1

  0
LINE
  5
9D
330
9C
100
AcDbEntity
  8
0
 62
     0
370
    -2
100
AcDbLine
 10
0.0
 20
0.5
 30
0.0
 11
0.0
 21
-0.5
 31
0.0
  0
LINE
  5
9E
330
9C
100
AcDbEntity
  8
0
 62
     0
370
    -2
100
AcDbLine
 10
0.5
 20
0.0
 30
0.0
 11
-0.5
 21
0.0
 31
0.0
  0
ENDBLK
  5
A0
330
9C
100
AcDbEntity
  8
0
100
AcDbBlockEnd
  0
BLOCK
  5
A3
330
A1
100
AcDbEntity
  8
0
100
AcDbBlockBegin
  2
CDWK_PTTYP4
 70
     0
 10
0.0
 20
0.0
 30
0.0
  3
CDWK_PTTYP4
  1

  0
HATCH
  5
A2
330
A1
100
AcDbEntity
  8
0
 62
     0
370
    -2
100
AcDbHatch
 10
0.0
 20
0.0
 30
0.0
210
0.0
220
0.0
230
1.0
  2
SOLID
 70
     1
 71
     1
 91
        1
 92
        1
 93
        1
 72
     2
 10
0.0
 20
0.0
 40
0.5
 50
0.0
 51
360.0
 73
     1
 97
        0
 75
     0
 76
     1
 98
        0
  0
ENDBLK
  5
A4
330
A1
100
AcDbEntity
  8
0
100
AcDbBlockEnd
  0
BLOCK
  5
AC
330
A5
100
AcDbEntity
  8
0
100
AcDbBlockBegin
  2
CDWK_PTTYP5
 70
     0
 10
0.0
 20
0.0
 30
0.0
  3
CDWK_PTTYP5
  1

  0
LINE
  5
A6
330
A5
100
AcDbEntity
  8
0
 62
     0
370
    -2
100
AcDbLine
 10
-0.5
 20
0.5
 30
0.0
 11
0.5
 21
0.5
 31
0.0
  0
LINE
  5
A7
330
A5
100
AcDbEntity
  8
0
 62
     0
370
    -2
100
AcDbLine
 10
0.5
 20
0.5
 30
0.0
 11
0.5
 21
-0.5
 31
0.0
  0
LINE
  5
A8
330
A5
100
AcDbEntity
  8
0
 62
     0
370
    -2
100
AcDbLine
 10
0.5
 20
-0.5
 30
0.0
 11
-0.5
 21
-0.5
 31
0.0
  0
LINE
  5
A9
330
A5
100
AcDbEntity
  8
0
 62
     0
370
    -2
100
AcDbLine
 10
-0.5
 20
-0.5
 30
0.0
 11
-0.5
 21
0.5
 31
0.0
  0
HATCH
  5
AA
330
A5
100
AcDbEntity
  8
0
 62
     0
370
    -2
100
AcDbHatch
 10
0.0
 20
0.0
 30
0.0
210
0.0
220
0.0
230
1.0
  2
SOLID
 70
     1
 71
     1
 91
        1
 92
        3
 72
     0
 73
     1
 93
        4
 10
-0.5
 20
0.0
 10
0.0
 20
0.0
 10
0.0
 20
-0.5
 10
-0.5
 20
-0.5
 97
        0
 75
     0
 76
     1
 98
        0
  0
HATCH
  5
AB
330
A5
100
AcDbEntity
  8
0
 62
     0
370
    -2
100
AcDbHatch
 10
0.0
 20
0.0
 30
0.0
210
0.0
220
0.0
230
1.0
  2
SOLID
 70
     1
 71
     1
 91
        1
 92
        3
 72
     0
 73
     1
 93
        4
 10
0.0
 20
0.0
 10
0.5
 20
0.0
 10
0.5
 20
0.5
 10
0.0
 20
0.5
 97
        0
 75
     0
 76
     1
 98
        0
  0
ENDBLK
  5
AD
330
A5
100
AcDbEntity
  8
0
100
AcDbBlockEnd
  0
BLOCK
  5
B4
330
AE
100
AcDbEntity
  8
0
100
AcDbBlockBegin
  2
CDWK_PTTYP6
 70
     0
 10
0.0
 20
0.0
 30
0.0
  3
CDWK_PTTYP6
  1

  0
LINE
  5
AF
330
AE
100
AcDbEntity
  8
0
 62
     0
370
    -2
100
AcDbLine
 10
-0.5
 20
0.5
 30
0.0
 11
0.5
 21
0.5
 31
0.0
  0
LINE
  5
B0
330
AE
100
AcDbEntity
  8
0
 62
     0
370
    -2
100
AcDbLine
 10
0.5
 20
0.5
 30
0.0
 11
0.5
 21
-0.5
 31
0.0
  0
LINE
  5
B1
330
AE
100
AcDbEntity
  8
0
 62
     0
370
    -2
100
AcDbLine
 10
0.5
 20
-0.5
 30
0.0
 11
-0.5
 21
-0.5
 31
0.0
  0
LINE
  5
B2
330
AE
100
AcDbEntity
  8
0
 62
     0
370
    -2
100
AcDbLine
 10
-0.5
 20
-0.5
 30
0.0
 11
-0.5
 21
0.5
 31
0.0
  0
HATCH
  5
B3
330
AE
100
AcDbEntity
  8
0
 62
     0
370
    -2
100
AcDbHatch
 10
0.0
 20
0.0
 30
0.0
210
0.0
220
0.0
230
1.0
  2
SOLID
 70
     1
 71
     1
 91
        1
 92
        3
 72
     0
 73
     1
 93
        3
 10
-0.5
 20
-0.5
 10
-0.5
 20
0.5
 10
0.5
 20
0.5
 97
        0
 75
     0
 76
     1
 98
        0
  0
ENDBLK
  5
B5
330
AE
100
AcDbEntity
  8
0
100
AcDbBlockEnd
  0
BLOCK
  5
BD
330
B6
100
AcDbEntity
  8
0
100
AcDbBlockBegin
  2
CDWK_PTTYP7
 70
     0
 10
0.0
 20
0.0
 30
0.0
  3
CDWK_PTTYP7
  1

  0
LINE
  5
B7
330
B6
100
AcDbEntity
  8
0
 62
     0
370
    -2
100
AcDbLine
 10
-0.5
 20
0.5
 30
0.0
 11
0.5
 21
0.5
 31
0.0
  0
LINE
  5
B8
330
B6
100
AcDbEntity
  8
0
 62
     0
370
    -2
100
AcDbLine
 10
0.5
 20
0.5
 30
0.0
 11
0.5
 21
-0.5
 31
0.0
  0
LINE
  5
B9
330
B6
100
AcDbEntity
  8
0
 62
     0
370
    -2
100
AcDbLine
 10
0.5
 20
-0.5
 30
0.0
 11
-0.5
 21
-0.5
 31
0.0
  0
LINE
  5
BA
330
B6
100
AcDbEntity
  8
0
 62
     0
370
    -2
100
AcDbLine
 10
-0.5
 20
-0.5
 30
0.0
 11
-0.5
 21
0.5
 31
0.0
  0
LINE
  5
BB
330
B6
100
AcDbEntity
  8
0
 62
     0
370
    -2
100
AcDbLine
 10
0.0
 20
0.5
 30
0.0
 11
0.0
 21
-0.5
 31
0.0
  0
LINE
  5
BC
330
B6
100
AcDbEntity
  8
0
 62
     0
370
    -2
100
AcDbLine
 10
0.5
 20
0.0
 30
0.0
 11
-0.5
 21
0.0
 31
0.0
  0
ENDBLK
  5
BE
330
B6
100
AcDbEntity
  8
0
100
AcDbBlockEnd
  0
BLOCK
  5
C1
330
BF
100
AcDbEntity
  8
0
100
AcDbBlockBegin
  2
CDWK_PTTYP8
 70
     0
 10
0.0
 20
0.0
 30
0.0
  3
CDWK_PTTYP8
  1

  0
HATCH
  5
C0
330
BF
100
AcDbEntity
  8
0
 62
     0
370
    -2
100
AcDbHatch
 10
0.0
 20
0.0
 30
0.0
210
0.0
220
0.0
230
1.0
  2
SOLID
 70
     1
 71
     1
 91
        1
 92
        3
 72
     0
 73
     1
 93
        4
 10
0.5
 20
0.5
 10
0.5
 20
-0.5
 10
-0.5
 20
-0.5
 10
-0.5
 20
0.5
 97
        0
 75
     0
 76
     1
 98
        0
  0
ENDBLK
  5
C2
330
BF
100
AcDbEntity
  8
0
100
AcDbBlockEnd
  0
BLOCK
  5
C6
330
C3
100
AcDbEntity
  8
0
100
AcDbBlockBegin
  2
CDWK_PTTYP9
 70
     0
 10
0.0
 20
0.0
 30
0.0
  3
CDWK_PTTYP9
  1

  0
CIRCLE
  5
C4
330
C3
100
AcDbEntity
  8
0
 62
     0
370
    -2
100
AcDbCircle
 10
0.0
 20
0.0
 30
0.0
 40
0.1666666666666667
  0
CIRCLE
  5
C5
330
C3
100
AcDbEntity
  8
0
 62
     0
370
    -2
100
AcDbCircle
 10
0.0
 20
0.0
 30
0.0
 40
0.5
  0
ENDBLK
  5
C7
330
C3
100
AcDbEntity
  8
0
100
AcDbBlockEnd
  0
BLOCK
  5
CA
330
C8
100
AcDbEntity
  8
0
100
AcDbBlockBegin
  2
CDWK_PTTYP10
 70
     0
 10
0.0
 20
0.0
 30
0.0
  3
CDWK_PTTYP10
  1

  0
CIRCLE
  5
C9
330
C8
100
AcDbEntity
  8
0
 62
     0
370
    -2
100
AcDbCircle
 10
0.0
 20
0.0
 30
0.0
 40
0.5
  0
ENDBLK
  5
CB
330
C8
100
AcDbEntity
  8
0
100
AcDbBlockEnd
  0
BLOCK
  5
CF
330
CC
100
AcDbEntity
  8
0
100
AcDbBlockBegin
  2
CDWK_PTTYP11
 70
     0
 10
0.0
 20
0.0
 30
0.0
  3
CDWK_PTTYP11
  1

  0
CIRCLE
  5
CD
330
CC
100
AcDbEntity
  8
0
 62
     0
370
    -2
100
AcDbCircle
 10
0.0
 20
0.0
 30
0.0
 40
0.25
  0
CIRCLE
  5
CE
330
CC
100
AcDbEntity
  8
0
 62
     0
370
    -2
100
AcDbCircle
 10
0.0
 20
0.0
 30
0.0
 40
0.5
  0
ENDBLK
  5
D0
330
CC
100
AcDbEntity
  8
0
100
AcDbBlockEnd
  0
BLOCK
  5
D4
330
D1
100
AcDbEntity
  8
0
100
AcDbBlockBegin
  2
CDWK_PTTYP12
 70
     0
 10
0.0
 20
0.0
 30
0.0
  3
CDWK_PTTYP12
  1

  0
CIRCLE
  5
D2
330
D1
100
AcDbEntity
  8
0
 62
     0
370
    -2
100
AcDbCircle
 10
0.25
 20
0.0
 30
0.0
 40
0.25
  0
CIRCLE
  5
D3
330
D1
100
AcDbEntity
  8
0
 62
     0
370
    -2
100
AcDbCircle
 10
0.0
 20
0.0
 30
0.0
 40
0.5
  0
ENDBLK
  5
D5
330
D1
100
AcDbEntity
  8
0
100
AcDbBlockEnd
  0
BLOCK
  5
DA
330
D6
100
AcDbEntity
  8
0
100
AcDbBlockBegin
  2
CDWK_PTTYP13
 70
     0
 10
0.0
 20
0.0
 30
0.0
  3
CDWK_PTTYP13
  1

  0
CIRCLE
  5
D7
330
D6
100
AcDbEntity
  8
0
 62
     0
370
    -2
100
AcDbCircle
 10
-0.25
 20
0.0
 30
0.0
 40
0.25
  0
CIRCLE
  5
D8
330
D6
100
AcDbEntity
  8
0
 62
     0
370
    -2
100
AcDbCircle
 10
0.25
 20
0.0
 30
0.0
 40
0.25
  0
CIRCLE
  5
D9
330
D6
100
AcDbEntity
  8
0
 62
     0
370
    -2
100
AcDbCircle
 10
0.0
 20
0.0
 30
0.0
 40
0.5
  0
ENDBLK
  5
DB
330
D6
100
AcDbEntity
  8
0
100
AcDbBlockEnd
  0
BLOCK
  5
E1
330
DC
100
AcDbEntity
  8
0
100
AcDbBlockBegin
  2
CDWK_PTTYP16
 70
     0
 10
0.0
 20
0.0
 30
0.0
  3
CDWK_PTTYP16
  1

  0
LINE
  5
DD
330
DC
100
AcDbEntity
  8
0
 62
     0
370
    -2
100
AcDbLine
 10
-0.5
 20
-0.289
 30
0.0
 11
0.5
 21
-0.289
 31
0.0
  0
LINE
  5
DE
330
DC
100
AcDbEntity
  8
0
 62
     0
370
    -2
100
AcDbLine
 10
0.5
 20
-0.289
 30
0.0
 11
0.0
 21
0.577
 31
0.0
  0
LINE
  5
DF
330
DC
100
AcDbEntity
  8
0
 62
     0
370
    -2
100
AcDbLine
 10
0.0
 20
0.577
 30
0.0
 11
-0.5
 21
-0.289
 31
0.0
  0
CIRCLE
  5
E0
330
DC
100
AcDbEntity
  8
0
 62
     0
370
    -2
100
AcDbCircle
 10
0.0
 20
0.0
 30
0.0
 40
0.289
  0
ENDBLK
  5
E2
330
DC
100
AcDbEntity
  8
0
100
AcDbBlockEnd
  0
BLOCK
  5
E6
330
E3
100
AcDbEntity
  8
0
100
AcDbBlockBegin
  2
CDWK_PTTYP17
 70
     0
 10
0.0
 20
0.0
 30
0.0
  3
CDWK_PTTYP17
  1

  0
CIRCLE
  5
E4
330
E3
100
AcDbEntity
  8
0
 62
     0
370
    -2
100
AcDbCircle
 10
0.0
 20
0.0
 30
0.0
 40
0.5
  0
HATCH
  5
E5
330
E3
100
AcDbEntity
  8
0
 62
     0
370
    -2
100
AcDbHatch
 10
0.0
 20
0.0
 30
0.0
210
0.0
220
0.0
230
1.0
  2
SOLID
 70
     1
 71
     1
 91
        1
 92
        1
 93
        1
 72
     2
 10
0.0
 20
0.0
 40
0.25
 50
0.0
 51
360.0
 73
     1
 97
        0
 75
     0
 76
     1
 98
        0
  0
ENDBLK
  5
E7
330
E3
100
AcDbEntity
  8
0
100
AcDbBlockEnd
  0
BLOCK
  5
EB
330
E8
100
AcDbEntity
  8
0
100
AcDbBlockBegin
  2
CDWK_PTTYP18
 70
     0
 10
0.0
 20
0.0
 30
0.0
  3
CDWK_PTTYP18
  1

  0
CIRCLE
  5
E9
330
E8
100
AcDbEntity
  8
0
 62
     0
370
    -2
100
AcDbCircle
 10
0.0
 20
0.0
 30
0.0
 40
0.5
  0
CIRCLE
  5
EA
330
E8
100
AcDbEntity
  8
0
 62
     0
370
    -2
100
AcDbCircle
 10
0.0
 20
0.0
 30
0.0
 40
0.208
  0
ENDBLK
  5
EC
330
E8
100
AcDbEntity
  8
0
100
AcDbBlockEnd
  0
BLOCK
  5
F1
330
ED
100
AcDbEntity
  8
0
100
AcDbBlockBegin
  2
CDWK_PTTYP19
 70
     0
 10
0.0
 20
0.0
 30
0.0
  3
CDWK_PTTYP19
  1

  0
CIRCLE
  5
EE
330
ED
100
AcDbEntity
  8
0
 62
     0
370
    -2
100
AcDbCircle
 10
0.0
 20
0.0
 30
0.0
 40
0.25
  0
CIRCLE
  5
EF
330
ED
100
AcDbEntity
  8
0
 62
     0
370
    -2
100
AcDbCircle
 10
0.0
 20
0.0
 30
0.0
 40
0.35
  0
LINE
  5
F0
330
ED
100
AcDbEntity
  8
0
 62
     0
370
    -2
100
AcDbLine
 10
-0.25
 20
0.0
 30
0.0
 11
0.25
 21
0.0
 31
0.0
  0
ENDBLK
  5
F2
330
ED
100
AcDbEntity
  8
0
100
AcDbBlockEnd
  0
BLOCK
  5
F6
330
F3
100
AcDbEntity
  8
0
100
AcDbBlockBegin
  2
CDWK_PTTYP20
 70
     0
 10
0.0
 20
0.0
 30
0.0
  3
CDWK_PTTYP20
  1

  0
CIRCLE
  5
F4
330
F3
100
AcDbEntity
  8
0
 62
     0
370
    -2
100
AcDbCircle
 10
0.0
 20
0.0
 30
0.0
 40
0.3333333333333333
  0
CIRCLE
  5
F5
330
F3
100
AcDbEntity
  8
0
 62
     0
370
    -2
100
AcDbCircle
 10
0.0
 20
0.0
 30
0.0
 40
0.5
  0
ENDBLK
  5
F7
330
F3
100
AcDbEntity
  8
0
100
AcDbBlockEnd
  0
BLOCK
  5
FB
330
F8
100
AcDbEntity
  8
0
100
AcDbBlockBegin
  2
CDWK_PTTYP21
 70
     0
 10
0.0
 20
0.0
 30
0.0
  3
CDWK_PTTYP21
  1

  0
CIRCLE
  5
F9
330
F8
100
AcDbEntity
  8
0
 62
     0
370
    -2
100
AcDbCircle
 10
0.0
 20
0.0
 30
0.0
 40
0.5
  0
LINE
  5
FA
330
F8
100
AcDbEntity
  8
0
 62
     0
370
    -2
100
AcDbLine
 10
-0.5
 20
0.0
 30
0.0
 11
0.5
 21
0.0
 31
0.0
  0
ENDBLK
  5
FC
330
F8
100
AcDbEntity
  8
0
100
AcDbBlockEnd
  0
BLOCK
  5
102
330
FD
100
AcDbEntity
  8
0
100
AcDbBlockBegin
  2
CDWK_PTTYP25
 70
     0
 10
0.0
 20
0.0
 30
0.0
  3
CDWK_PTTYP25
  1

  0
LINE
  5
FE
330
FD
100
AcDbEntity
  8
0
 62
     0
370
    -2
100
AcDbLine
 10
0.0
 20
0.5
 30
0.0
 11
-0.4330127018922193
 21
-0.25
 31
0.0
  0
LINE
  5
FF
330
FD
100
AcDbEntity
  8
0
 62
     0
370
    -2
100
AcDbLine
 10
-0.4330127018922193
 20
-0.25
 30
0.0
 11
0.4330127018922193
 21
-0.25
 31
0.0
  0
LINE
  5
100
330
FD
100
AcDbEntity
  8
0
 62
     0
370
    -2
100
AcDbLine
 10
0.4330127018922193
 20
-0.25
 30
0.0
 11
0.0
 21
0.5
 31
0.0
  0
CIRCLE
  5
101
330
FD
100
AcDbEntity
  8
0
 62
     0
370
    -2
100
AcDbCircle
 10
0.0
 20
0.0
 30
0.0
 40
0.5
  0
ENDBLK
  5
103
330
FD
100
AcDbEntity
  8
0
100
AcDbBlockEnd
  0
BLOCK
  5
109
330
104
100
AcDbEntity
  8
0
100
AcDbBlockBegin
  2
CDWK_PTTYP26
 70
     0
 10
0.0
 20
0.0
 30
0.0
  3
CDWK_PTTYP26
  1

  0
LINE
  5
105
330
104
100
AcDbEntity
  8
0
 62
     0
370
    -2
100
AcDbLine
 10
-0.5
 20
-0.289
 30
0.0
 11
0.5
 21
-0.289
 31
0.0
  0
LINE
  5
106
330
104
100
AcDbEntity
  8
0
 62
     0
370
    -2
100
AcDbLine
 10
0.5
 20
-0.289
 30
0.0
 11
0.0
 21
0.577
 31
0.0
  0
LINE
  5
107
330
104
100
AcDbEntity
  8
0
 62
     0
370
    -2
100
AcDbLine
 10
0.0
 20
0.577
 30
0.0
 11
-0.5
 21
-0.289
 31
0.0
  0
CIRCLE
  5
108
330
104
100
AcDbEntity
  8
0
 62
     0
370
    -2
100
AcDbCircle
 10
0.0
 20
0.0
 30
0.0
 40
0.125
  0
ENDBLK
  5
10A
330
104
100
AcDbEntity
  8
0
100
AcDbBlockEnd
  0
BLOCK
  5
111
330
10B
100
AcDbEntity
  8
0
100
AcDbBlockBegin
  2
CDWK_PTTYP27
 70
     0
 10
0.0
 20
0.0
 30
0.0
  3
CDWK_PTTYP27
  1

  0
LINE
  5
10C
330
10B
100
AcDbEntity
  8
0
 62
     0
370
    -2
100
AcDbLine
 10
0.0
 20
0.5
 30
0.0
 11
-0.4330127018922193
 21
-0.25
 31
0.0
  0
LINE
  5
10D
330
10B
100
AcDbEntity
  8
0
 62
     0
370
    -2
100
AcDbLine
 10
-0.4330127018922193
 20
-0.25
 30
0.0
 11
0.4330127018922193
 21
-0.25
 31
0.0
  0
LINE
  5
10E
330
10B
100
AcDbEntity
  8
0
 62
     0
370
    -2
100
AcDbLine
 10
0.4330127018922193
 20
-0.25
 30
0.0
 11
0.0
 21
0.5
 31
0.0
  0
CIRCLE
  5
10F
330
10B
100
AcDbEntity
  8
0
 62
     0
370
    -2
100
AcDbCircle
 10
0.0
 20
0.0
 30
0.0
 40
0.125
  0
CIRCLE
  5
110
330
10B
100
AcDbEntity
  8
0
 62
     0
370
    -2
100
AcDbCircle
 10
0.0
 20
0.0
 30
0.0
 40
0.5
  0
ENDBLK
  5
112
330
10B
100
AcDbEntity
  8
0
100
AcDbBlockEnd
  0
BLOCK
  5
118
330
113
100
AcDbEntity
  8
0
100
AcDbBlockBegin
  2
CDWK_PTTYP28
 70
     0
 10
0.0
 20
0.0
 30
0.0
  3
CDWK_PTTYP28
  1

  0
LINE
  5
114
330
113
100
AcDbEntity
  8
0
 62
     0
370
    -2
100
AcDbLine
 10
-0.5
 20
0.5
 30
0.0
 11
0.5
 21
0.5
 31
0.0
  0
LINE
  5
115
330
113
100
AcDbEntity
  8
0
 62
     0
370
    -2
100
AcDbLine
 10
0.5
 20
0.5
 30
0.0
 11
-0.5
 21
-0.5
 31
0.0
  0
LINE
  5
116
330
113
100
AcDbEntity
  8
0
 62
     0
370
    -2
100
AcDbLine
 10
0.5
 20
-0.5
 30
0.0
 11
-0.5
 21
-0.5
 31
0.0
  0
LINE
  5
117
330
113
100
AcDbEntity
  8
0
 62
     0
370
    -2
100
AcDbLine
 10
-0.5
 20
0.5
 30
0.0
 11
0.5
 21
-0.5
 31
0.0
  0
ENDBLK
  5
119
330
113
100
AcDbEntity
  8
0
100
AcDbBlockEnd
  0
BLOCK
  5
11E
330
11A
100
AcDbEntity
  8
0
100
AcDbBlockBegin
  2
CDWK_PTTYP29
 70
     0
 10
0.0
 20
0.0
 30
0.0
  3
CDWK_PTTYP29
  1

  0
CIRCLE
  5
11B
330
11A
100
AcDbEntity
  8
0
 62
     0
370
    -2
100
AcDbCircle
 10
0.0
 20
0.0
 30
0.0
 40
0.2
  0
CIRCLE
  5
11C
330
11A
100
AcDbEntity
  8
0
 62
     0
370
    -2
100
AcDbCircle
 10
0.0
 20
0.0
 30
0.0
 40
0.35
  0
CIRCLE
  5
11D
330
11A
100
AcDbEntity
  8
0
 62
     0
370
    -2
100
AcDbCircle
 10
0.0
 20
0.0
 30
0.0
 40
0.5
  0
ENDBLK
  5
11F
330
11A
100
AcDbEntity
  8
0
100
AcDbBlockEnd
  0
BLOCK
  5
125
330
120
100
AcDbEntity
  8
0
100
AcDbBlockBegin
  2
CDWK_PTTYP30
 70
     0
 10
0.0
 20
0.0
 30
0.0
  3
CDWK_PTTYP30
  1

  0
LINE
  5
121
330
120
100
AcDbEntity
  8
0
 62
     0
370
    -2
100
AcDbLine
 10
-0.5
 20
0.5
 30
0.0
 11
-0.1
 21
0.1
 31
0.0
  0
LINE
  5
122
330
120
100
AcDbEntity
  8
0
 62
     0
370
    -2
100
AcDbLine
 10
0.5
 20
0.5
 30
0.0
 11
0.1
 21
0.1
 31
0.0
  0
LINE
  5
123
330
120
100
AcDbEntity
  8
0
 62
     0
370
    -2
100
AcDbLine
 10
0.5
 20
-0.5
 30
0.0
 11
0.1
 21
-0.1
 31
0.0
  0
LINE
  5
124
330
120
100
AcDbEntity
  8
0
 62
     0
370
    -2
100
AcDbLine
 10
-0.5
 20
-0.5
 30
0.0
 11
-0.1
 21
-0.1
 31
0.0
  0
ENDBLK
  5
126
330
120
100
AcDbEntity
  8
0
100
AcDbBlockEnd
  0
BLOCK
  5
12D
330
127
100
AcDbEntity
  8
0
100
AcDbBlockBegin
  2
CDWK_PTTYP31
 70
     0
 10
0.0
 20
0.0
 30
0.0
  3
CDWK_PTTYP31
  1

  0
LINE
  5
128
330
127
100
AcDbEntity
  8
0
 62
     0
370
    -2
100
AcDbLine
 10
-0.5
 20
0.0
 30
0.0
 11
-0.1
 21
0.0
 31
0.0
  0
LINE
  5
129
330
127
100
AcDbEntity
  8
0
 62
     0
370
    -2
100
AcDbLine
 10
0.1
 20
0.0
 30
0.0
 11
0.5
 21
0.0
 31
0.0
  0
LINE
  5
12A
330
127
100
AcDbEntity
  8
0
 62
     0
370
    -2
100
AcDbLine
 10
0.0
 20
0.5
 30
0.0
 11
0.0
 21
0.1
 31
0.0
  0
LINE
  5
12B
330
127
100
AcDbEntity
  8
0
 62
     0
370
    -2
100
AcDbLine
 10
0.0
 20
-0.1
 30
0.0
 11
0.0
 21
-0.5
 31
0.0
  0
CIRCLE
  5
12C
330
127
100
AcDbEntity
  8
0
 62
     0
370
    -2
100
AcDbCircle
 10
0.0
 20
0.0
 30
0.0
 40
0.1
  0
ENDBLK
  5
12E
330
127
100
AcDbEntity
  8
0
100
AcDbBlockEnd
  0
BLOCK
  5
136
330
12F
100
AcDbEntity
  8
0
100
AcDbBlockBegin
  2
CDWK_PTTYP32
 70
     0
 10
0.0
 20
0.0
 30
0.0
  3
CDWK_PTTYP32
  1

  0
CIRCLE
  5
130
330
12F
100
AcDbEntity
  8
0
 62
     0
370
    -2
100
AcDbCircle
 10
0.0
 20
0.0
 30
0.0
 40
0.2
  0
CIRCLE
  5
131
330
12F
100
AcDbEntity
  8
0
 62
     0
370
    -2
100
AcDbCircle
 10
0.0
 20
0.0
 30
0.0
 40
0.5
  0
LINE
  5
132
330
12F
100
AcDbEntity
  8
0
 62
     0
370
    -2
100
AcDbLine
 10
0.1414213562373095
 20
0.1414213562373095
 30
0.0
 11
0.3535533905932738
 21
0.3535533905932738
 31
0.0
  0
LINE
  5
133
330
12F
100
AcDbEntity
  8
0
 62
     0
370
    -2
100
AcDbLine
 10
-0.1414213562373095
 20
0.1414213562373095
 30
0.0
 11
-0.3535533905932738
 21
0.3535533905932738
 31
0.0
  0
LINE
  5
134
330
12F
100
AcDbEntity
  8
0
 62
     0
370
    -2
100
AcDbLine
 10
0.1414213562373095
 20
-0.1414213562373095
 30
0.0
 11
0.3535533905932738
 21
-0.3535533905932738
 31
0.0
  0
LINE
  5
135
330
12F
100
AcDbEntity
  8
0
 62
     0
370
    -2
100
AcDbLine
 10
-0.1414213562373095
 20
-0.1414213562373095
 30
0.0
 11
-0.3535533905932738
 21
-0.3535533905932738
 31
0.0
  0
ENDBLK
  5
137
330
12F
100
AcDbEntity
  8
0
100
AcDbBlockEnd
  0
BLOCK
  5
13C
330
138
100
AcDbEntity
  8
0
100
AcDbBlockBegin
  2
CDWK_PTTYP33
 70
     0
 10
0.0
 20
0.0
 30
0.0
  3
CDWK_PTTYP33
  1

  0
LINE
  5
139
330
138
100
AcDbEntity
  8
0
 62
     0
370
    -2
100
AcDbLine
 10
0.0
 20
-0.5
 30
0.0
 11
0.0
 21
0.5
 31
0.0
  0
LINE
  5
13A
330
138
100
AcDbEntity
  8
0
 62
     0
370
    -2
100
AcDbLine
 10
0.5
 20
0.0
 30
0.0
 11
-0.5
 21
0.0
 31
0.0
  0
CIRCLE
  5
13B
330
138
100
AcDbEntity
  8
0
 62
     0
370
    -2
100
AcDbCircle
 10
0.0
 20
0.0
 30
0.0
 40
0.5
  0
ENDBLK
  5
13D
330
138
100
AcDbEntity
  8
0
100
AcDbBlockEnd
  0
BLOCK
  5
142
330
13E
100
AcDbEntity
  8
0
100
AcDbBlockBegin
  2
CDWK_PTTYP34
 70
     0
 10
0.0
 20
0.0
 30
0.0
  3
CDWK_PTTYP34
  1

  0
CIRCLE
  5
13F
330
13E
100
AcDbEntity
  8
0
 62
     0
370
    -2
100
AcDbCircle
 10
0.0
 20
0.0
 30
0.0
 40
0.5
  0
LINE
  5
140
330
13E
100
AcDbEntity
  8
0
 62
     0
370
    -2
100
AcDbLine
 10
-0.4
 20
-0.3
 30
0.0
 11
0.3
 21
0.4
 31
0.0
  0
LINE
  5
141
330
13E
100
AcDbEntity
  8
0
 62
     0
370
    -2
100
AcDbLine
 10
-0.3
 20
-0.4
 30
0.0
 11
0.4
 21
0.3
 31
0.0
  0
ENDBLK
  5
143
330
13E
100
AcDbEntity
  8
0
100
AcDbBlockEnd
  0
BLOCK
  5
148
330
144
100
AcDbEntity
  8
0
100
AcDbBlockBegin
  2
CDWK_PTTYP35
 70
     0
 10
0.0
 20
0.0
 30
0.0
  3
CDWK_PTTYP35
  1

  0
LINE
  5
145
330
144
100
AcDbEntity
  8
0
 62
     0
370
    -2
100
AcDbLine
 10
0.0
 20
0.2
 30
0.0
 11
0.0
 21
0.5
 31
0.0
  0
LINE
  5
146
330
144
100
AcDbEntity
  8
0
 62
     0
370
    -2
100
AcDbLine
 10
0.0
 20
-0.2
 30
0.0
 11
0.0
 21
-0.5
 31
0.0
  0
CIRCLE
  5
147
330
144
100
AcDbEntity
  8
0
 62
     0
370
    -2
100
AcDbCircle
 10
0.0
 20
0.0
 30
0.0
 40
0.2
  0
ENDBLK
  5
149
330
144
100
AcDbEntity
  8
0
100
AcDbBlockEnd
  0
BLOCK
  5
150
330
14A
100
AcDbEntity
  8
0
100
AcDbBlockBegin
  2
CDWK_PTTYP36
 70
     0
 10
0.0
 20
0.0
 30
0.0
  3
CDWK_PTTYP36
  1

  0
LINE
  5
14B
330
14A
100
AcDbEntity
  8
0
 62
     0
370
    -2
100
AcDbLine
 10
-0.5
 20
0.2
 30
0.0
 11
0.5
 21
0.2
 31
0.0
  0
LINE
  5
14C
330
14A
100
AcDbEntity
  8
0
 62
     0
370
    -2
100
AcDbLine
 10
0.5
 20
0.2
 30
0.0
 11
0.5
 21
-0.2
 31
0.0
  0
LINE
  5
14D
330
14A
100
AcDbEntity
  8
0
 62
     0
370
    -2
100
AcDbLine
 10
0.5
 20
-0.2
 30
0.0
 11
-0.5
 21
-0.2
 31
0.0
  0
LINE
  5
14E
330
14A
100
AcDbEntity
  8
0
 62
     0
370
    -2
100
AcDbLine
 10
-0.5
 20
-0.2
 30
0.0
 11
-0.5
 21
0.2
 31
0.0
  0
HATCH
  5
14F
330
14A
100
AcDbEntity
  8
0
 62
     0
370
    -2
100
AcDbHatch
 10
0.0
 20
0.0
 30
0.0
210
0.0
220
0.0
230
1.0
  2
SOLID
 70
     1
 71
     1
 91
        1
 92
        3
 72
     0
 73
     1
 93
        3
 10
-0.5
 20
-0.2
 10
0.5
 20
-0.2
 10
0.5
 20
0.2
 97
        0
 75
     0
 76
     1
 98
        0
  0
ENDBLK
  5
151
330
14A
100
AcDbEntity
  8
0
100
AcDbBlockEnd
  0
BLOCK
  5
155
330
152
100
AcDbEntity
  8
0
100
AcDbBlockBegin
  2
CDWK_PTTYP37
 70
     0
 10
0.0
 20
0.0
 30
0.0
  3
CDWK_PTTYP37
  1

  0
HATCH
  5
153
330
152
100
AcDbEntity
  8
0
 62
     0
370
    -2
100
AcDbHatch
 10
0.0
 20
0.0
 30
0.0
210
0.0
220
0.0
230
1.0
  2
SOLID
 70
     1
 71
     1
 91
        1
 92
        3
 72
     0
 73
     1
 93
      202
 10
-0.3535533905932738
 20
-0.3535533905932738
 10
-0.3485533905932738
 20
-0.3535533905932737
 10
-0.3435533905932738
 20
-0.3584836591895546
 10
-0.3385533905932738
 20
-0.3632782236961988
 10
-0.3335533905932738
 20
-0.367942389128785
 10
-0.3285533905932738
 20
-0.372481054046687
 10
-0.3235533905932738
 20
-0.3768987523588579
 10
-0.3185533905932738
 20
-0.3811996897107819
 10
-0.3135533905932738
 20
-0.3853877752881235
 10
-0.3085533905932737
 20
-0.3894666497242888
 10
-0.3035533905932737
 20
-0.3934397096803965
 10
-0.2985533905932737
 20
-0.3973101295704999
 10
-0.2935533905932737
 20
-0.4010808808273714
 10
-0.2885533905932737
 20
-0.4047547490409382
 10
-0.2835533905932737
 20
-0.4083343492496384
 10
-0.2785533905932737
 20
-0.4118221396222626
 10
-0.2735533905932737
 20
-0.4152204337324827
 10
-0.2685533905932737
 20
-0.4185314115988474
 10
-0.2635533905932737
 20
-0.4217571296384408
 10
-0.2585533905932737
 20
-0.4248995296617653
 10
-0.2535533905932737
 20
-0.4279604470190231
 10
-0.2485533905932737
 20
-0.4309416179932669
 10
-0.2435533905932737
 20
-0.4338446865234004
 10
-0.2385533905932737
 20
-0.4366712103293738
 10
-0.2335533905932737
 20
-0.439422666502825
 10
-0.2285533905932737
 20
-0.4421004566186126
 10
-0.2235533905932737
 20
-0.4447059114159811
 10
-0.2185533905932737
 20
-0.4472402950923041
 10
-0.2135533905932737
 20
-0.4497048092473372
 10
-0.2085533905932737
 20
-0.4521005965115692
 10
-0.2035533905932737
 20
-0.4544287438884664
 10
-0.1985533905932736
 20
-0.456690285837111
 10
-0.1935533905932736
 20
-0.45888620711884
 10
-0.1885533905932736
 20
-0.4610174454289638
 10
-0.1835533905932736
 20
-0.4630848938324164
 10
-0.1785533905932736
 20
-0.4650894030202291
 10
-0.1735533905932736
 20
-0.4670317834019928
 10
-0.1685533905932736
 20
-0.46891280704794
 10
-0.1635533905932736
 20
-0.4707332094929264
 10
-0.1585533905932736
 20
-0.4724936914133818
 10
-0.1535533905932736
 20
-0.4741949201872336
 10
-0.1485533905932736
 20
-0.4758375313458466
 10
-0.1435533905932736
 20
-0.4774221299261716
 10
-0.1385533905932736
 20
-0.4789492917305286
 10
-0.1335533905932736
 20
-0.4804195645007682
 10
-0.1285533905932736
 20
-0.4818334690129366
 10
-0.1235533905932736
 20
-0.4831915000980183
 10
-0.1185533905932736
 20
-0.4844941275938295
 10
-0.1135533905932736
 20
-0.4857417972326848
 10
-0.1085533905932736
 20
-0.4869349314690531
 10
-0.1035533905932736
 20
-0.4880739302510473
 10
-0.0985533905932736
 20
-0.489159171739258
 10
-0.0935533905932736
 20
-0.4901910129761353
 10
-0.0885533905932736
 20
-0.4911697905088447
 10
-0.0835533905932735
 20
-0.4920958209682695
 10
-0.0785533905932735
 20
-0.4929694016065986
 10
-0.0735533905932735
 20
-0.4937908107957261
 10
-0.0685533905932735
 20
-0.494560308488493
 10
-0.0635533905932735
 20
-0.4952781366446192
 10
-0.0585533905932735
 20
-0.4959445196230107
 10
-0.0535533905932735
 20
-0.4965596645419678
 10
-0.0485533905932735
 20
-0.4971237616086806
 10
-0.0435533905932735
 20
-0.4976369844192622
 10
-0.0385533905932735
 20
-0.4980994902304456
 10
-0.0335533905932735
 20
-0.4985114202039533
 10
-0.0285533905932735
 20
-0.4988728996244386
 10
-0.0235533905932735
 20
-0.4991840380917923
 10
-0.0185533905932735
 20
-0.49944492968851
 10
-0.0135533905932735
 20
-0.4996556531227215
 10
-0.0085533905932735
 20
-0.4998162718473921
 10
-0.0035533905932735
 20
-0.4999268341561182
 10
0.0014466094067265
 20
-0.499987373255857
 10
0.0064466094067265
 20
-0.4999979073168451
 10
0.0114466094067265
 20
-0.4999584394998819
 10
0.0164466094067265
 20
-0.4998689579610739
 10
0.0214466094067265
 20
-0.4997294358340547
 10
0.0264466094067265
 20
-0.4995398311896213
 10
0.0314466094067265
 20
-0.4993000869726422
 10
0.0364466094067265
 20
-0.4990101309160174
 10
0.0414466094067265
 20
-0.4986698754313855
 10
0.0464466094067265
 20
-0.498279217476192
 10
0.0514466094067265
 20
-0.4978380383966446
 10
0.0564466094067265
 20
-0.497346203745994
 10
0.0614466094067265
 20
-0.4968035630774849
 10
0.0664466094067264
 20
-0.4962099497112257
 10
0.0714466094067265
 20
-0.4955651804741228
 10
0.0764466094067265
 20
-0.4948690554119167
 10
0.0814466094067265
 20
-0.4941213574722463
 10
0.0864466094067265
 20
-0.4933218521575424
 10
0.0914466094067265
 20
-0.4924702871464235
 10
0.0964466094067265
 20
-0.4915663918821278
 10
0.1014466094067265
 20
-0.4906098771263643
 10
0.1064466094067265
 20
-0.4896004344768079
 10
0.1114466094067265
 20
-0.4885377358462822
 10
0.1164466094067265
 20
-0.4874214329014929
 10
0.1214466094067265
 20
-0.4862511564589613
 10
0.1264466094067265
 20
-0.4850265158355881
 10
0.1314466094067265
 20
-0.4837470981510305
 10
0.1364466094067265
 20
-0.482412467578809
 10
0.1414466094067265
 20
-0.4810221645427664
 10
0.1464466094067265
 20
-0.4795757048551781
 10
0.1514466094067265
 20
-0.4780725787924608
 10
0.1564466094067265
 20
-0.4765122501040308
 10
0.1614466094067265
 20
-0.4748941549494363
 10
0.1664466094067265
 20
-0.4732177007584056
 10
0.1714466094067265
 20
-0.4714822650079264
 10
0.1764466094067265
 20
-0.4696871939098801
 10
0.1814466094067266
 20
-0.4678318010021017
 10
0.1864466094067266
 20
-0.4659153656350076
 10
0.1914466094067266
 20
-0.4639371313451162
 10
0.1964466094067266
 20
-0.4618963041058764
 10
0.2014466094067266
 20
-0.4597920504451997
 10
0.2064466094067266
 20
-0.4576234954179405
 10
0.2114466094067266
 20
-0.4553897204202862
 10
0.2164466094067266
 20
-0.4530897608315588
 10
0.2214466094067266
 20
-0.45072260346729
 10
0.2264466094067266
 20
-0.4482871838255748
 10
0.2314466094067266
 20
-0.4457823831065977
 10
0.2364466094067266
 20
-0.4432070249828292
 10
0.2414466094067266
 20
-0.4405598720946596
 10
0.2464466094067266
 20
-0.4378396222431172
 10
0.2514466094067266
 20
-0.4350449042477435
 10
0.2564466094067266
 20
-0.4321742734336012
 10
0.2614466094067266
 20
-0.4292262067066663
 10
0.2664466094067266
 20
-0.4261990971714118
 10
0.2714466094067266
 20
-0.4230912482380831
 10
0.2764466094067266
 20
-0.4199008671598476
 10
0.2814466094067266
 20
-0.4166260579314797
 10
0.2864466094067266
 20
-0.4132648134712868
 10
0.2914466094067266
 20
-0.4098150069963156
 10
0.2964466094067266
 20
-0.4062743824871597
 10
0.3014466094067266
 20
-0.4026405441224911
 10
0.3064466094067266
 20
-0.3989109445442534
 10
0.3114466094067266
 20
-0.3950828717916294
 10
0.3164466094067266
 20
-0.391153434714632
 10
0.3214466094067266
 20
-0.3871195466454601
 10
0.3264466094067267
 20
-0.3829779070663467
 10
0.3314466094067267
 20
-0.3787249809648844
 10
0.3364466094067267
 20
-0.3743569755097196
 10
0.3414466094067267
 20
-0.3698698136084067
 10
0.3464466094067267
 20
-0.3652591038217257
 10
0.3514466094067267
 20
-0.3605201060004601
 10
0.3564466094067267
 20
-0.3556476918757041
 10
0.3614466094067267
 20
-0.3506362996645505
 10
0.3664466094067267
 20
-0.34547988153926
 10
0.3714466094067267
 20
-0.3401718425359658
 10
0.3764466094067267
 20
-0.334704969129899
 10
0.3814466094067267
 20
-0.3290713452523318
 10
0.3864466094067267
 20
-0.3232622529342269
 10
0.3914466094067267
 20
-0.3172680539828188
 10
0.3964466094067267
 20
-0.3110780480586465
 10
0.4014466094067267
 20
-0.304680301118911
 10
0.4064466094067267
 20
-0.2980614362775617
 10
0.4114466094067267
 20
-0.291206376478565
 10
0.4164466094067267
 20
-0.2840980246459106
 10
0.4214466094067267
 20
-0.276716861635935
 10
0.4264466094067267
 20
-0.2690404345439063
 10
0.4314466094067267
 20
-0.2610426963649944
 10
0.4364466094067267
 20
-0.2526931404518915
 10
0.4414466094067268
 20
-0.2439556458403291
 10
0.4464466094067268
 20
-0.2347869056044327
 10
0.4514466094067268
 20
-0.2251342376211081
 10
0.4564466094067268
 20
-0.2149324518428296
 10
0.4614466094067268
 20
-0.2040992228331676
 10
0.4664466094067268
 20
-0.1925279893081412
 10
0.4714466094067268
 20
-0.1800765408735088
 10
0.4764466094067268
 20
-0.1665475742210051
 10
0.4814466094067268
 20
-0.1516529867323223
 10
0.4864466094067268
 20
-0.1349413290684758
 10
0.4914466094067268
 20
-0.1156274024472547
 10
0.4964466094067268
 20
-0.0920881648347501
 10
0.5
 20
0.0
 10
0.495
 20
0.0
 10
0.49
 20
0.0705336798983295
 10
0.485
 20
0.0994987437106621
 10
0.48
 20
0.1215524578114322
 10
0.475
 20
0.14
 10
0.47
 20
0.15612494995996
 10
0.465
 20
0.1705872210923199
 10
0.46
 20
0.1837797594948911
 10
0.455
 20
0.1959591794226544
 10
0.45
 20
0.2073041244162789
 10
0.445
 20
0.2179449471770338
 10
0.4399999999999999
 20
0.2279802623035601
 10
0.4349999999999999
 20
0.2374868417407584
 10
0.4299999999999999
 20
0.2465258607124211
 10
0.4249999999999999
 20
0.2551470164434615
 10
0.4199999999999999
 20
0.2633913438213186
 10
0.4149999999999999
 20
0.2712931993250108
 10
0.4099999999999999
 20
0.2788816953476869
 10
0.4049999999999999
 20
0.2861817604250838
 10
0.3999999999999999
 20
0.2932149382279151
 10
0.3949999999999999
 20
0.3000000000000002
 10
0.3899999999999999
 20
0.3065534211193868
 10
0.3849999999999999
 20
0.3128897569432404
 10
0.3799999999999999
 20
0.3190219428189855
 10
0.3749999999999999
 20
0.3249615361854385
 10
0.3699999999999999
 20
0.330718913883074
 10
0.3649999999999999
 20
0.3363034344160049
 10
0.3599999999999999
 20
0.3417235724968357
 10
0.3549999999999999
 20
0.3469870314579496
 10
0.3535533905932738
 20
0.3535533905932738
 97
        0
 75
     0
 76
     1
 98
        0
  0
CIRCLE
  5
154
330
152
100
AcDbEntity
  8
0
 62
     0
370
    -2
100
AcDbCircle
 10
0.0
 20
0.0
 30
0.0
 40
0.5
  0
ENDBLK
  5
156
330
152
100
AcDbEntity
  8
0
100
AcDbBlockEnd
  0
BLOCK
  5
15B
330
157
100
AcDbEntity
  8
0
100
AcDbBlockBegin
  2
CDWK_PTTYP38
 70
     0
 10
0.0
 20
0.0
 30
0.0
  3
CDWK_PTTYP38
  1

  0
HATCH
  5
158
330
157
100
AcDbEntity
  8
0
 62
     0
370
    -2
100
AcDbHatch
 10
0.0
 20
0.0
 30
0.0
210
0.0
220
0.0
230
1.0
  2
SOLID
 70
     1
 71
     1
 91
        1
 92
        3
 72
     0
 73
     1
 93
      102
 10
0.0
 20
0.0
 10
0.0
 20
0.5
 10
0.005
 20
0.5
 10
0.01
 20
0.4999749993749688
 10
0.015
 20
0.4998999899979995
 10
0.02
 20
0.4997749493522059
 10
0.025
 20
0.4995998398718718
 10
0.03
 20
0.4993746088859545
 10
0.035
 20
0.4990991885387112
 10
0.04
 20
0.4987734956871706
 10
0.045
 20
0.4983974317750845
 10
0.05
 20
0.4979708826829135
 10
0.055
 20
0.49749371855331
 10
0.06
 20
0.4969657935914704
 10
0.065
 20
0.4963869458396343
 10
0.07
 20
0.4957569969249047
 10
0.075
 20
0.4950757517794626
 10
0.08
 20
0.4943429983321297
 10
0.085
 20
0.4935585071701227
 10
0.09
 20
0.4927220311697053
 10
0.095
 20
0.4918333050943175
 10
0.1
 20
0.4908920451586071
 10
0.105
 20
0.4898979485566356
 10
0.11
 20
0.4888506929523574
 10
0.115
 20
0.4877499359302879
 10
0.12
 20
0.4865953144040744
 10
0.125
 20
0.4853864439804639
 10
0.13
 20
0.4841229182759271
 10
0.135
 20
0.4828043081829325
 10
0.14
 20
0.4814301610825811
 10
0.145
 20
0.48
 10
0.15
 20
0.478513322698543
 10
0.1550000000000001
 20
0.4769696007084728
 10
0.1600000000000001
 20
0.4753682782853731
 10
0.1650000000000001
 20
0.4737087712930804
 10
0.1700000000000001
 20
0.4719904660054056
 10
0.1750000000000001
 20
0.4702127178203498
 10
0.1800000000000001
 20
0.4683748498798799
 10
0.1850000000000001
 20
0.466476151587624
 10
0.1900000000000001
 20
0.4645158770160606
 10
0.1950000000000001
 20
0.4624932431938871
 10
0.2000000000000001
 20
0.460407428263272
 10
0.2050000000000001
 20
0.4582575694955839
 10
0.2100000000000001
 20
0.4560427611529427
 10
0.2150000000000001
 20
0.4537620521815371
 10
0.2200000000000001
 20
0.4514144437210665
 10
0.2250000000000001
 20
0.4489988864128729
 10
0.2300000000000001
 20
0.4465142774872937
 10
0.2350000000000001
 20
0.4439594576084622
 10
0.2400000000000001
 20
0.4413332074521472
 10
0.2450000000000001
 20
0.4386342439892261
 10
0.2500000000000001
 20
0.4358612164439502
 10
0.2550000000000001
 20
0.4330127018922192
 10
0.2600000000000001
 20
0.4300872004605577
 10
0.2650000000000001
 20
0.4270831300812524
 10
0.2700000000000001
 20
0.423998820753077
 10
0.2750000000000001
 20
0.4208325082500162
 10
0.2800000000000001
 20
0.4175823272122516
 10
0.2850000000000001
 20
0.4142463035441595
 10
0.2900000000000001
 20
0.4108223460329293
 10
0.2950000000000002
 20
0.4073082370883259
 10
0.3000000000000002
 20
0.403701622488689
 10
0.3050000000000002
 20
0.3999999999999999
 10
0.3100000000000002
 20
0.3962007067131506
 10
0.3150000000000002
 20
0.3923009049186605
 10
0.3200000000000002
 20
0.3882975663070783
 10
0.3250000000000002
 20
0.3841874542459708
 10
0.3300000000000002
 20
0.3799671038392664
 10
0.3350000000000002
 20
0.3756327994198588
 10
0.3400000000000002
 20
0.3711805490593491
 10
0.3450000000000002
 20
0.366606055596467
 10
0.3500000000000002
 20
0.3619046835839512
 10
0.3550000000000002
 20
0.3570714214271423
 10
0.3600000000000002
 20
0.3521008378291649
 10
0.3650000000000002
 20
0.3469870314579492
 10
0.3700000000000002
 20
0.3417235724968353
 10
0.3750000000000002
 20
0.3363034344160045
 10
0.3800000000000002
 20
0.3307189138830736
 10
0.3850000000000002
 20
0.3249615361854382
 10
0.3900000000000002
 20
0.3190219428189851
 10
0.3950000000000002
 20
0.31288975694324
 10
0.4000000000000002
 20
0.3065534211193863
 10
0.4050000000000002
 20
0.2999999999999997
 10
0.4100000000000003
 20
0.2932149382279147
 10
0.4150000000000003
 20
0.2861817604250834
 10
0.4200000000000003
 20
0.2788816953476864
 10
0.4250000000000003
 20
0.2712931993250103
 10
0.4300000000000003
 20
0.263391343821318
 10
0.4350000000000003
 20
0.255147016443461
 10
0.4400000000000003
 20
0.2465258607124206
 10
0.4450000000000003
 20
0.2374868417407578
 10
0.4500000000000003
 20
0.2279802623035594
 10
0.4550000000000003
 20
0.2179449471770331
 10
0.4600000000000003
 20
0.2073041244162782
 10
0.4650000000000003
 20
0.1959591794226536
 10
0.4700000000000003
 20
0.1837797594948903
 10
0.4750000000000003
 20
0.170587221092319
 10
0.4800000000000003
 20
0.156124949959959
 10
0.4850000000000003
 20
0.1399999999999989
 10
0.4900000000000003
 20
0.1215524578114309
 10
0.4950000000000003
 20
0.0994987437106604
 10
0.5
 20
0.0
 97
        0
 75
     0
 76
     1
 98
        0
  0
HATCH
  5
159
330
157
100
AcDbEntity
  8
0
 62
     0
370
    -2
100
AcDbHatch
 10
0.0
 20
0.0
 30
0.0
210
0.0
220
0.0
230
1.0
  2
SOLID
 70
     1
 71
     1
 91
        1
 92
        3
 72
     0
 73
     1
 93
      102
 10
0.0
 20
0.0
 10
-0.5
 20
0.0
 10
-0.495
 20
0.0
 10
-0.49
 20
-0.0705336798983295
 10
-0.485
 20
-0.0994987437106621
 10
-0.48
 20
-0.1215524578114322
 10
-0.475
 20
-0.14
 10
-0.47
 20
-0.15612494995996
 10
-0.465
 20
-0.1705872210923199
 10
-0.46
 20
-0.1837797594948911
 10
-0.455
 20
-0.1959591794226544
 10
-0.45
 20
-0.2073041244162789
 10
-0.445
 20
-0.2179449471770338
 10
-0.4399999999999999
 20
-0.2279802623035601
 10
-0.4349999999999999
 20
-0.2374868417407584
 10
-0.4299999999999999
 20
-0.2465258607124211
 10
-0.4249999999999999
 20
-0.2551470164434615
 10
-0.4199999999999999
 20
-0.2633913438213186
 10
-0.4149999999999999
 20
-0.2712931993250108
 10
-0.4099999999999999
 20
-0.2788816953476869
 10
-0.4049999999999999
 20
-0.2861817604250838
 10
-0.3999999999999999
 20
-0.2932149382279151
 10
-0.3949999999999999
 20
-0.3000000000000002
 10
-0.3899999999999999
 20
-0.3065534211193868
 10
-0.3849999999999999
 20
-0.3128897569432404
 10
-0.3799999999999999
 20
-0.3190219428189855
 10
-0.3749999999999999
 20
-0.3249615361854385
 10
-0.3699999999999999
 20
-0.330718913883074
 10
-0.3649999999999999
 20
-0.3363034344160049
 10
-0.3599999999999999
 20
-0.3417235724968357
 10
-0.3549999999999999
 20
-0.3469870314579496
 10
-0.3499999999999999
 20
-0.3521008378291652
 10
-0.3449999999999999
 20
-0.3570714214271427
 10
-0.3399999999999999
 20
-0.3619046835839516
 10
-0.3349999999999999
 20
-0.3666060555964674
 10
-0.3299999999999998
 20
-0.3711805490593494
 10
-0.3249999999999998
 20
-0.3756327994198591
 10
-0.3199999999999998
 20
-0.3799671038392667
 10
-0.3149999999999998
 20
-0.3841874542459711
 10
-0.3099999999999998
 20
-0.3882975663070786
 10
-0.3049999999999998
 20
-0.3923009049186608
 10
-0.2999999999999998
 20
-0.3962007067131507
 10
-0.2949999999999998
 20
-0.4000000000000001
 10
-0.2899999999999998
 20
-0.4037016224886891
 10
-0.2849999999999998
 20
-0.4073082370883261
 10
-0.2799999999999998
 20
-0.4108223460329296
 10
-0.2749999999999998
 20
-0.4142463035441597
 10
-0.2699999999999998
 20
-0.4175823272122518
 10
-0.2649999999999998
 20
-0.4208325082500164
 10
-0.2599999999999998
 20
-0.4239988207530773
 10
-0.2549999999999998
 20
-0.4270831300812526
 10
-0.2499999999999998
 20
-0.4300872004605579
 10
-0.2449999999999998
 20
-0.4330127018922195
 10
-0.2399999999999998
 20
-0.4358612164439503
 10
-0.2349999999999998
 20
-0.4386342439892263
 10
-0.2299999999999998
 20
-0.4413332074521473
 10
-0.2249999999999998
 20
-0.4439594576084624
 10
-0.2199999999999998
 20
-0.4465142774872939
 10
-0.2149999999999997
 20
-0.4489988864128731
 10
-0.2099999999999997
 20
-0.4514144437210667
 10
-0.2049999999999997
 20
-0.4537620521815372
 10
-0.1999999999999997
 20
-0.4560427611529429
 10
-0.1949999999999997
 20
-0.4582575694955841
 10
-0.1899999999999997
 20
-0.4604074282632722
 10
-0.1849999999999997
 20
-0.4624932431938872
 10
-0.1799999999999997
 20
-0.4645158770160608
 10
-0.1749999999999997
 20
-0.4664761515876241
 10
-0.1699999999999997
 20
-0.46837484987988
 10
-0.1649999999999997
 20
-0.47021271782035
 10
-0.1599999999999997
 20
-0.4719904660054058
 10
-0.1549999999999997
 20
-0.4737087712930805
 10
-0.1499999999999997
 20
-0.4753682782853733
 10
-0.1449999999999997
 20
-0.4769696007084729
 10
-0.1399999999999997
 20
-0.4785133226985431
 10
-0.1349999999999997
 20
-0.4800000000000001
 10
-0.1299999999999997
 20
-0.4814301610825812
 10
-0.1249999999999997
 20
-0.4828043081829325
 10
-0.1199999999999997
 20
-0.4841229182759272
 10
-0.1149999999999997
 20
-0.485386443980464
 10
-0.1099999999999997
 20
-0.4865953144040744
 10
-0.1049999999999996
 20
-0.487749935930288
 10
-0.0999999999999996
 20
-0.4888506929523574
 10
-0.0949999999999996
 20
-0.4898979485566357
 10
-0.0899999999999996
 20
-0.4908920451586072
 10
-0.0849999999999996
 20
-0.4918333050943176
 10
-0.0799999999999996
 20
-0.4927220311697053
 10
-0.0749999999999996
 20
-0.4935585071701227
 10
-0.0699999999999996
 20
-0.4943429983321298
 10
-0.0649999999999996
 20
-0.4950757517794626
 10
-0.0599999999999996
 20
-0.4957569969249048
 10
-0.0549999999999996
 20
-0.4963869458396343
 10
-0.0499999999999996
 20
-0.4969657935914705
 10
-0.0449999999999996
 20
-0.49749371855331
 10
-0.0399999999999996
 20
-0.4979708826829135
 10
-0.0349999999999996
 20
-0.4983974317750846
 10
-0.0299999999999996
 20
-0.4987734956871706
 10
-0.0249999999999996
 20
-0.4990991885387112
 10
-0.0199999999999996
 20
-0.4993746088859545
 10
-0.0149999999999996
 20
-0.4995998398718719
 10
-0.0099999999999996
 20
-0.499774949352206
 10
-0.0049999999999996
 20
-0.4998999899979995
 10
0.0
 20
-0.5
 97
        0
 75
     0
 76
     1
 98
        0
  0
CIRCLE
  5
15A
330
157
100
AcDbEntity
  8
0
 62
     0
370
    -2
100
AcDbCircle
 10
0.0
 20
0.0
 30
0.0
 40
0.5
  0
ENDBLK
  5
15C
330
157
100
AcDbEntity
  8
0
100
AcDbBlockEnd
  0
BLOCK
  5
165
330
15D
100
AcDbEntity
  8
0
100
AcDbBlockBegin
  2
CDWK_PTTYP41
 70
     0
 10
0.0
 20
0.0
 30
0.0
  3
CDWK_PTTYP41
  1

  0
LINE
  5
15E
330
15D
100
AcDbEntity
  8
0
 62
     0
370
    -2
100
AcDbLine
 10
-0.5
 20
0.5
 30
0.0
 11
0.5
 21
0.5
 31
0.0
  0
LINE
  5
15F
330
15D
100
AcDbEntity
  8
0
 62
     0
370
    -2
100
AcDbLine
 10
0.5
 20
0.5
 30
0.0
 11
0.5
 21
-0.5
 31
0.0
  0
LINE
  5
160
330
15D
100
AcDbEntity
  8
0
 62
     0
370
    -2
100
AcDbLine
 10
0.5
 20
-0.5
 30
0.0
 11
-0.5
 21
-0.5
 31
0.0
  0
LINE
  5
161
330
15D
100
AcDbEntity
  8
0
 62
     0
370
    -2
100
AcDbLine
 10
-0.5
 20
-0.5
 30
0.0
 11
-0.5
 21
0.5
 31
0.0
  0
LINE
  5
162
330
15D
100
AcDbEntity
  8
0
 62
     0
370
    -2
100
AcDbLine
 10
-0.375
 20
0.25
 30
0.0
 11
0.375
 21
0.25
 31
0.0
  0
LINE
  5
163
330
15D
100
AcDbEntity
  8
0
 62
     0
370
    -2
100
AcDbLine
 10
-0.375
 20
0.0
 30
0.0
 11
0.375
 21
0.0
 31
0.0
  0
LINE
  5
164
330
15D
100
AcDbEntity
  8
0
 62
     0
370
    -2
100
AcDbLine
 10
-0.375
 20
-0.25
 30
0.0
 11
0.375
 21
-0.25
 31
0.0
  0
ENDBLK
  5
166
330
15D
100
AcDbEntity
  8
0
100
AcDbBlockEnd
  0
BLOCK
  5
16E
330
167
100
AcDbEntity
  8
0
100
AcDbBlockBegin
  2
CDWK_PTTYP42
 70
     0
 10
0.0
 20
0.0
 30
0.0
  3
CDWK_PTTYP42
  1

  0
LINE
  5
168
330
167
100
AcDbEntity
  8
0
 62
     0
370
    -2
100
AcDbLine
 10
-0.5
 20
0.5
 30
0.0
 11
0.5
 21
0.5
 31
0.0
  0
LINE
  5
169
330
167
100
AcDbEntity
  8
0
 62
     0
370
    -2
100
AcDbLine
 10
0.5
 20
0.5
 30
0.0
 11
0.5
 21
-0.5
 31
0.0
  0
LINE
  5
16A
330
167
100
AcDbEntity
  8
0
 62
     0
370
    -2
100
AcDbLine
 10
0.5
 20
-0.5
 30
0.0
 11
-0.5
 21
-0.5
 31
0.0
  0
LINE
  5
16B
330
167
100
AcDbEntity
  8
0
 62
     0
370
    -2
100
AcDbLine
 10
-0.5
 20
-0.5
 30
0.0
 11
-0.5
 21
0.5
 31
0.0
  0
LINE
  5
16C
330
167
100
AcDbEntity
  8
0
 62
     0
370
    -2
100
AcDbLine
 10
-0.375
 20
0.125
 30
0.0
 11
0.375
 21
0.125
 31
0.0
  0
LINE
  5
16D
330
167
100
AcDbEntity
  8
0
 62
     0
370
    -2
100
AcDbLine
 10
-0.375
 20
-0.125
 30
0.0
 11
0.375
 21
-0.125
 31
0.0
  0
ENDBLK
  5
16F
330
167
100
AcDbEntity
  8
0
100
AcDbBlockEnd
  0
BLOCK
  5
174
330
170
100
AcDbEntity
  8
0
100
AcDbBlockBegin
  2
CDWK_PTTYP43
 70
     0
 10
0.0
 20
0.0
 30
0.0
  3
CDWK_PTTYP43
  1

  0
CIRCLE
  5
171
330
170
100
AcDbEntity
  8
0
 62
     0
370
    -2
100
AcDbCircle
 10
0.0
 20
0.0
 30
0.0
 40
0.5
  0
LINE
  5
172
330
170
100
AcDbEntity
  8
0
 62
     0
370
    -2
100
AcDbLine
 10
-0.375
 20
0.166
 30
0.0
 11
0.375
 21
0.166
 31
0.0
  0
LINE
  5
173
330
170
100
AcDbEntity
  8
0
 62
     0
370
    -2
100
AcDbLine
 10
-0.375
 20
-0.166
 30
0.0
 11
0.375
 21
-0.166
 31
0.0
  0
ENDBLK
  5
175
330
170
100
AcDbEntity
  8
0
100
AcDbBlockEnd
  0
BLOCK
  5
17D
330
176
100
AcDbEntity
  8
0
100
AcDbBlockBegin
  2
CDWK_PTTYP44
 70
     0
 10
0.0
 20
0.0
 30
0.0
  3
CDWK_PTTYP44
  1

  0
CIRCLE
  5
177
330
176
100
AcDbEntity
  8
0
 62
     0
370
    -2
100
AcDbCircle
 10
0.0
 20
0.0
 30
0.0
 40
0.5
  0
LINE
  5
178
330
176
100
AcDbEntity
  8
0
 62
     0
370
    -2
100
AcDbLine
 10
-0.375
 20
0.333
 30
0.0
 11
0.375
 21
0.333
 31
0.0
  0
LINE
  5
179
330
176
100
AcDbEntity
  8
0
 62
     0
370
    -2
100
AcDbLine
 10
-0.375
 20
0.166
 30
0.0
 11
0.375
 21
0.166
 31
0.0
  0
LINE
  5
17A
330
176
100
AcDbEntity
  8
0
 62
     0
370
    -2
100
AcDbLine
 10
-0.375
 20
0.0
 30
0.0
 11
0.375
 21
0.0
 31
0.0
  0
LINE
  5
17B
330
176
100
AcDbEntity
  8
0
 62
     0
370
    -2
100
AcDbLine
 10
-0.375
 20
-0.166
 30
0.0
 11
0.375
 21
-0.166
 31
0.0
  0
LINE
  5
17C
330
176
100
AcDbEntity
  8
0
 62
     0
370
    -2
100
AcDbLine
 10
-0.375
 20
-0.333
 30
0.0
 11
0.375
 21
-0.333
 31
0.0
  0
ENDBLK
  5
17E
330
176
100
AcDbEntity
  8
0
100
AcDbBlockEnd
  0
BLOCK
  5
182
330
17F
100
AcDbEntity
  8
0
100
AcDbBlockBegin
  2
CDWK_PTTYP45
 70
     0
 10
0.0
 20
0.0
 30
0.0
  3
CDWK_PTTYP45
  1

  0
ELLIPSE
  5
180
330
17F
100
AcDbEntity
  8
0
 62
     0
370
    -2
100
AcDbEllipse
 10
0.0
 20
0.0
 30
0.0
 11
0.5
 21
0.0
 31
0.0
210
0.0
220
0.0
230
1.0
 40
0.82
 41
0.0
 42
6.283185307179586
  0
CIRCLE
  5
181
330
17F
100
AcDbEntity
  8
0
 62
     0
370
    -2
100
AcDbCircle
 10
-0.235
 20
0.0
 30
0.0
 40
0.26
  0
ENDBLK
  5
183
330
17F
100
AcDbEntity
  8
0
100
AcDbBlockEnd
  0
BLOCK
  5
187
330
184
100
AcDbEntity
  8
0
100
AcDbBlockBegin
  2
CDWK_PTTYP46
 70
     0
 10
0.0
 20
0.0
 30
0.0
  3
CDWK_PTTYP46
  1

  0
ELLIPSE
  5
185
330
184
100
AcDbEntity
  8
0
 62
     0
370
    -2
100
AcDbEllipse
 10
0.0
 20
0.0
 30
0.0
 11
0.5
 21
0.0
 31
0.0
210
0.0
220
0.0
230
1.0
 40
0.82
 41
0.0
 42
6.283185307179586
  0
CIRCLE
  5
186
330
184
100
AcDbEntity
  8
0
 62
     0
370
    -2
100
AcDbCircle
 10
0.0
 20
0.15
 30
0.0
 40
0.26
  0
ENDBLK
  5
188
330
184
100
AcDbEntity
  8
0
100
AcDbBlockEnd
  0
BLOCK
  5
18F
330
189
100
AcDbEntity
  8
0
100
AcDbBlockBegin
  2
CDWK_PTTYP47
 70
     0
 10
0.0
 20
0.0
 30
0.0
  3
CDWK_PTTYP47
  1

  0
LINE
  5
18A
330
189
100
AcDbEntity
  8
0
 62
     0
370
    -2
100
AcDbLine
 10
-0.5
 20
0.166
 30
0.0
 11
0.5
 21
0.166
 31
0.0
  0
LINE
  5
18B
330
189
100
AcDbEntity
  8
0
 62
     0
370
    -2
100
AcDbLine
 10
0.5
 20
0.166
 30
0.0
 11
0.5
 21
-0.166
 31
0.0
  0
LINE
  5
18C
330
189
100
AcDbEntity
  8
0
 62
     0
370
    -2
100
AcDbLine
 10
0.5
 20
-0.166
 30
0.0
 11
-0.5
 21
-0.166
 31
0.0
  0
LINE
  5
18D
330
189
100
AcDbEntity
  8
0
 62
     0
370
    -2
100
AcDbLine
 10
-0.5
 20
-0.166
 30
0.0
 11
-0.5
 21
0.166
 31
0.0
  0
CIRCLE
  5
18E
330
189
100
AcDbEntity
  8
0
 62
     0
370
    -2
100
AcDbCircle
 10
0.0
 20
-0.313
 30
0.0
 40
0.4
  0
ENDBLK
  5
190
330
189
100
AcDbEntity
  8
0
100
AcDbBlockEnd
  0
BLOCK
  5
195
330
192
100
AcDbEntity
  8
0
100
AcDbBlockBegin
  2
CDWK_PTTYP48
 70
     0
 10
0.0
 20
0.0
 30
0.0
  3
CDWK_PTTYP48
  1

  0
CIRCLE
  5
193
330
192
100
AcDbEntity
  8
0
  6
CADWORK_3
 62
     0
 48
0.1
370
    -2
100
AcDbCircle
 10
0.0
 20
0.0
 30
0.0
 40
0.5
  0
CIRCLE
  5
194
330
192
100
AcDbEntity
  8
0
 62
     0
370
    -2
100
AcDbCircle
 10
0.0
 20
0.0
 30
0.0
 40
0.25
  0
ENDBLK
  5
196
330
192
100
AcDbEntity
  8
0
100
AcDbBlockEnd
  0
BLOCK
  5
19C
330
197
100
AcDbEntity
  8
0
100
AcDbBlockBegin
  2
CDWK_PTTYP49
 70
     0
 10
0.0
 20
0.0
 30
0.0
  3
CDWK_PTTYP49
  1

  0
LINE
  5
198
330
197
100
AcDbEntity
  8
0
 62
     0
370
    -2
100
AcDbLine
 10
-0.5
 20
0.166
 30
0.0
 11
0.5
 21
0.166
 31
0.0
  0
LINE
  5
199
330
197
100
AcDbEntity
  8
0
 62
     0
370
    -2
100
AcDbLine
 10
0.5
 20
0.166
 30
0.0
 11
0.5
 21
-0.166
 31
0.0
  0
LINE
  5
19A
330
197
100
AcDbEntity
  8
0
 62
     0
370
    -2
100
AcDbLine
 10
0.5
 20
-0.166
 30
0.0
 11
-0.5
 21
-0.166
 31
0.0
  0
LINE
  5
19B
330
197
100
AcDbEntity
  8
0
 62
     0
370
    -2
100
AcDbLine
 10
-0.5
 20
-0.166
 30
0.0
 11
-0.5
 21
0.166
 31
0.0
  0
ENDBLK
  5
19D
330
197
100
AcDbEntity
  8
0
100
AcDbBlockEnd
  0
BLOCK
  5
1A6
330
19E
100
AcDbEntity
  8
0
100
AcDbBlockBegin
  2
CDWK_PTTYP50
 70
     0
 10
0.0
 20
0.0
 30
0.0
  3
CDWK_PTTYP50
  1

  0
LINE
  5
19F
330
19E
100
AcDbEntity
  8
0
 62
     0
370
    -2
100
AcDbLine
 10
-0.5
 20
0.166
 30
0.0
 11
0.5
 21
0.166
 31
0.0
  0
LINE
  5
1A0
330
19E
100
AcDbEntity
  8
0
 62
     0
370
    -2
100
AcDbLine
 10
0.5
 20
0.166
 30
0.0
 11
0.5
 21
-0.166
 31
0.0
  0
LINE
  5
1A1
330
19E
100
AcDbEntity
  8
0
 62
     0
370
    -2
100
AcDbLine
 10
0.5
 20
-0.166
 30
0.0
 11
-0.5
 21
-0.166
 31
0.0
  0
LINE
  5
1A2
330
19E
100
AcDbEntity
  8
0
 62
     0
370
    -2
100
AcDbLine
 10
-0.5
 20
-0.166
 30
0.0
 11
-0.5
 21
0.166
 31
0.0
  0
LINE
  5
1A3
330
19E
100
AcDbEntity
  8
0
 62
     0
370
    -2
100
AcDbLine
 10
-0.25
 20
-0.166
 30
0.0
 11
-0.25
 21
0.166
 31
0.0
  0
LINE
  5
1A4
330
19E
100
AcDbEntity
  8
0
 62
     0
370
    -2
100
AcDbLine
 10
0.0
 20
-0.166
 30
0.0
 11
0.0
 21
0.166
 31
0.0
  0
LINE
  5
1A5
330
19E
100
AcDbEntity
  8
0
 62
     0
370
    -2
100
AcDbLine
 10
0.25
 20
-0.166
 30
0.0
 11
0.25
 21
0.166
 31
0.0
  0
ENDBLK
  5
1A7
330
19E
100
AcDbEntity
  8
0
100
AcDbBlockEnd
  0
BLOCK
  5
1AB
330
1A8
100
AcDbEntity
  8
0
100
AcDbBlockBegin
  2
CDWK_PTTYP51
 70
     0
 10
0.0
 20
0.0
 30
0.0
  3
CDWK_PTTYP51
  1

  0
SPLINE
  5
1A9
330
1A8
100
AcDbEntity
  8
0
 62
     0
370
    -2
100
AcDbSpline
210
0.0
220
0.0
230
1.0
 70
  1064
 71
     3
 72
    12
 73
     8
 74
     6
 42
0.000000001
 43
0.0000000001
 44
0.0000000001
 40
0.0
 40
0.0
 40
0.0
 40
0.0
 40
0.1690118339052032
 40
0.5175774661755118
 40
0.8011704844252565
 40
0.9154070810132151
 40
0.975822310881188
 40
0.975822310881188
 40
0.975822310881188
 40
0.975822310881188
 10
-0.5
 20
-0.077
 30
0.0
 10
-0.443824324006723
 20
-0.0900581618560981
 30
0.0
 10
-0.2717933876546281
 20
-0.1300471387828842
 30
0.0
 10
-0.0276699186086479
 20
-0.0006977790990417
 30
0.0
 10
0.2303349729129116
 20
0.0817803270207037
 30
0.0
 10
0.3686157174766292
 20
0.0066250198607167
 30
0.0
 10
0.4216533294581816
 20
-0.0168719667726145
 30
0.0
 10
0.44
 20
-0.025
 30
0.0
 11
-0.5
 21
-0.077
 31
0.0
 11
-0.333
 21
-0.103
 31
0.0
 11
0.0
 21
0.0
 31
0.0
 11
0.28
 21
0.045
 31
0.0
 11
0.385
 21
0.0
 31
0.0
 11
0.44
 21
-0.025
 31
0.0
  0
HATCH
  5
1AA
330
1A8
100
AcDbEntity
  8
0
 62
     0
370
    -2
100
AcDbHatch
 10
0.0
 20
0.0
 30
0.0
210
0.0
220
0.0
230
1.0
  2
SOLID
 70
     1
 71
     1
 91
        1
 92
        3
 72
     0
 73
     1
 93
        3
 10
0.365
 20
-0.05
 10
0.5
 20
-0.042
 10
0.395
 20
0.045
 97
        0
 75
     0
 76
     1
 98
        0
  0
ENDBLK
  5
1AC
330
1A8
100
AcDbEntity
  8
0
100
AcDbBlockEnd
  0
BLOCK
  5
1B1
330
1AD
100
AcDbEntity
  8
0
100
AcDbBlockBegin
  2
CDWK_PTTYP52
 70
     0
 10
0.0
 20
0.0
 30
0.0
  3
CDWK_PTTYP52
  1

  0
LINE
  5
1AE
330
1AD
100
AcDbEntity
  8
0
 62
     0
370
    -2
100
AcDbLine
 10
-0.5
 20
-0.289
 30
0.0
 11
0.5
 21
-0.289
 31
0.0
  0
LINE
  5
1AF
330
1AD
100
AcDbEntity
  8
0
 62
     0
370
    -2
100
AcDbLine
 10
0.5
 20
-0.289
 30
0.0
 11
0.0
 21
0.577
 31
0.0
  0
LINE
  5
1B0
330
1AD
100
AcDbEntity
  8
0
 62
     0
370
    -2
100
AcDbLine
 10
0.0
 20
0.577
 30
0.0
 11
-0.5
 21
-0.289
 31
0.0
  0
ENDBLK
  5
1B2
330
1AD
100
AcDbEntity
  8
0
100
AcDbBlockEnd
  0
BLOCK
  5
1B8
330
1B3
100
AcDbEntity
  8
0
100
AcDbBlockBegin
  2
cw-dimension-symbol1
 70
     0
 10
0.0
 20
0.0
 30
0.0
  3
cw-dimension-symbol1
  1

  0
LINE
  5
1B4
330
1B3
100
AcDbEntity
  8
0
 62
     0
370
    -2
100
AcDbLine
 10
0.0
 20
0.0
 30
0.0
 11
-1.0
 21
0.25
 31
0.0
  0
LINE
  5
1B5
330
1B3
100
AcDbEntity
  8
0
 62
     0
370
    -2
100
AcDbLine
 10
0.0
 20
0.0
 30
0.0
 11
-1.0
 21
-0.25
 31
0.0
  0
LINE
  5
1B6
330
1B3
100
AcDbEntity
  8
0
 62
     0
370
    -2
100
AcDbLine
 10
-1.0
 20
0.25
 30
0.0
 11
-1.0
 21
-0.25
 31
0.0
  0
LINE
  5
1B7
330
1B3
100
AcDbEntity
  8
0
 62
     0
370
    -2
100
AcDbLine
 10
0.0
 20
0.0
 30
0.0
 11
-1.0
 21
0.0
 31
0.0
  0
ENDBLK
  5
1B9
330
1B3
100
AcDbEntity
  8
0
100
AcDbBlockEnd
  0
BLOCK
  5
1BD
330
1BA
100
AcDbEntity
  8
0
100
AcDbBlockBegin
  2
cw-dimension-symbol2
 70
     0
 10
0.0
 20
0.0
 30
0.0
  3
cw-dimension-symbol2
  1

  0
LINE
  5
1BB
330
1BA
100
AcDbEntity
  8
0
 62
     0
370
    -2
100
AcDbLine
 10
-1.0
 20
0.0
 30
0.0
 11
1.0
 21
0.0
 31
0.0
  0
LINE
  5
1BC
330
1BA
100
AcDbEntity
  8
0
 62
     0
370
    -2
100
AcDbLine
 10
-0.5
 20
-0.5
 30
0.0
 11
0.5
 21
0.5
 31
0.0
  0
ENDBLK
  5
1BE
330
1BA
100
AcDbEntity
  8
0
100
AcDbBlockEnd
  0
BLOCK
  5
1C2
330
1BF
100
AcDbEntity
  8
0
100
AcDbBlockBegin
  2
cw-dimension-symbol3
 70
     0
 10
0.0
 20
0.0
 30
0.0
  3
cw-dimension-symbol3
  1

  0
LINE
  5
1C0
330
1BF
100
AcDbEntity
  8
0
 62
     0
370
    -2
100
AcDbLine
 10
-1.0
 20
0.0
 30
0.0
 11
1.0
 21
0.0
 31
0.0
  0
CIRCLE
  5
1C1
330
1BF
100
AcDbEntity
  8
0
 62
     0
370
    -2
100
AcDbCircle
 10
0.0
 20
0.0
 30
0.0
 40
0.25
  0
ENDBLK
  5
1C3
330
1BF
100
AcDbEntity
  8
0
100
AcDbBlockEnd
  0
BLOCK
  5
1C9
330
1C4
100
AcDbEntity
  8
0
100
AcDbBlockBegin
  2
cw-dimension-symbol5
 70
     0
 10
0.0
 20
0.0
 30
0.0
  3
cw-dimension-symbol5
  1

  0
HATCH
  5
1C5
330
1C4
100
AcDbEntity
  8
0
 62
     0
370
    -2
100
AcDbHatch
 10
0.0
 20
0.0
 30
0.0
210
0.0
220
0.0
230
1.0
  2
SOLID
 70
     1
 71
     1
 91
        1
 92
        3
 72
     0
 73
     1
 93
        3
 10
0.0
 20
0.0
 10
-1.0
 20
0.25
 10
-1.0
 20
-0.25
 97
        0
 75
     0
 76
     1
 98
        0
  0
LINE
  5
1C6
330
1C4
100
AcDbEntity
  8
0
 62
     0
370
    -2
100
AcDbLine
 10
0.0
 20
0.0
 30
0.0
 11
-1.0
 21
0.25
 31
0.0
  0
LINE
  5
1C7
330
1C4
100
AcDbEntity
  8
0
 62
     0
370
    -2
100
AcDbLine
 10
-1.0
 20
0.25
 30
0.0
 11
-1.0
 21
-0.25
 31
0.0
  0
LINE
  5
1C8
330
1C4
100
AcDbEntity
  8
0
 62
     0
370
    -2
100
AcDbLine
 10
-1.0
 20
-0.25
 30
0.0
 11
0.0
 21
0.0
 31
0.0
  0
ENDBLK
  5
1CA
330
1C4
100
AcDbEntity
  8
0
100
AcDbBlockEnd
  0
BLOCK
  5
1CF
330
1CB
100
AcDbEntity
  8
0
100
AcDbBlockBegin
  2
cw-dimension-symbol6
 70
     0
 10
0.0
 20
0.0
 30
0.0
  3
cw-dimension-symbol6
  1

  0
LINE
  5
1CC
330
1CB
100
AcDbEntity
  8
0
 62
     0
370
    -2
100
AcDbLine
 10
0.0
 20
0.0
 30
0.0
 11
-1.0
 21
0.25
 31
0.0
  0
LINE
  5
1CD
330
1CB
100
AcDbEntity
  8
0
 62
     0
370
    -2
100
AcDbLine
 10
0.0
 20
0.0
 30
0.0
 11
-1.0
 21
-0.25
 31
0.0
  0
LINE
  5
1CE
330
1CB
100
AcDbEntity
  8
0
 62
     0
370
    -2
100
AcDbLine
 10
0.0
 20
0.0
 30
0.0
 11
-1.0
 21
0.0
 31
0.0
  0
ENDBLK
  5
1D0
330
1CB
100
AcDbEntity
  8
0
100
AcDbBlockEnd
  0
BLOCK
  5
1D5
330
1D1
100
AcDbEntity
  8
0
100
AcDbBlockBegin
  2
cw-dimension-symbol11
 70
     0
 10
0.0
 20
0.0
 30
0.0
  3
cw-dimension-symbol11
  1

  0
LINE
  5
1D2
330
1D1
100
AcDbEntity
  8
0
 62
     0
370
    -2
100
AcDbLine
 10
-1.0
 20
1.0
 30
0.0
 11
1.0
 21
1.0
 31
0.0
  0
LINE
  5
1D3
330
1D1
100
AcDbEntity
  8
0
 62
     0
370
    -2
100
AcDbLine
 10
0.0
 20
0.0
 30
0.0
 11
-1.0
 21
1.0
 31
0.0
  0
LINE
  5
1D4
330
1D1
100
AcDbEntity
  8
0
 62
     0
370
    -2
100
AcDbLine
 10
0.0
 20
0.0
 30
0.0
 11
1.0
 21
1.0
 31
0.0
  0
ENDBLK
  5
1D6
330
1D1
100
AcDbEntity
  8
0
100
AcDbBlockEnd
  0
BLOCK
  5
1DB
330
1D7
100
AcDbEntity
  8
0
100
AcDbBlockBegin
  2
cw-dimension-symbol13
 70
     0
 10
0.0
 20
0.0
 30
0.0
  3
cw-dimension-symbol13
  1

  0
LINE
  5
1D8
330
1D7
100
AcDbEntity
  8
0
 62
     0
370
    -2
100
AcDbLine
 10
-1.0
 20
-1.0
 30
0.0
 11
1.0
 21
-1.0
 31
0.0
  0
LINE
  5
1D9
330
1D7
100
AcDbEntity
  8
0
 62
     0
370
    -2
100
AcDbLine
 10
0.0
 20
0.0
 30
0.0
 11
-1.0
 21
-1.0
 31
0.0
  0
LINE
  5
1DA
330
1D7
100
AcDbEntity
  8
0
 62
     0
370
    -2
100
AcDbLine
 10
0.0
 20
0.0
 30
0.0
 11
1.0
 21
-1.0
 31
0.0
  0
ENDBLK
  5
1DC
330
1D7
100
AcDbEntity
  8
0
100
AcDbBlockEnd
  0
BLOCK
  5
1E2
330
1DD
100
AcDbEntity
  8
0
100
AcDbBlockBegin
  2
cw-dimension-symbol15
 70
     0
 10
0.0
 20
0.0
 30
0.0
  3
cw-dimension-symbol15
  1

  0
HATCH
  5
1DE
330
1DD
100
AcDbEntity
  8
0
 62
     0
370
    -2
100
AcDbHatch
 10
0.0
 20
0.0
 30
0.0
210
0.0
220
0.0
230
1.0
  2
SOLID
 70
     1
 71
     1
 91
        1
 92
        3
 72
     0
 73
     1
 93
        3
 10
0.0
 20
0.0
 10
-1.0
 20
1.0
 10
1.0
 20
1.0
 97
        0
 75
     0
 76
     1
 98
        0
  0
LINE
  5
1DF
330
1DD
100
AcDbEntity
  8
0
 62
     0
370
    -2
100
AcDbLine
 10
0.0
 20
0.0
 30
0.0
 11
-1.0
 21
1.0
 31
0.0
  0
LINE
  5
1E0
330
1DD
100
AcDbEntity
  8
0
 62
     0
370
    -2
100
AcDbLine
 10
-1.0
 20
1.0
 30
0.0
 11
1.0
 21
1.0
 31
0.0
  0
LINE
  5
1E1
330
1DD
100
AcDbEntity
  8
0
 62
     0
370
    -2
100
AcDbLine
 10
1.0
 20
1.0
 30
0.0
 11
0.0
 21
0.0
 31
0.0
  0
ENDBLK
  5
1E3
330
1DD
100
AcDbEntity
  8
0
100
AcDbBlockEnd
  0
BLOCK
  5
1E9
330
1E4
100
AcDbEntity
  8
0
100
AcDbBlockBegin
  2
cw-dimension-symbol16
 70
     0
 10
0.0
 20
0.0
 30
0.0
  3
cw-dimension-symbol16
  1

  0
HATCH
  5
1E5
330
1E4
100
AcDbEntity
  8
0
 62
     0
370
    -2
100
AcDbHatch
 10
0.0
 20
0.0
 30
0.0
210
0.0
220
0.0
230
1.0
  2
SOLID
 70
     1
 71
     1
 91
        1
 92
        3
 72
     0
 73
     1
 93
        3
 10
0.0
 20
0.0
 10
-1.0
 20
-1.0
 10
1.0
 20
-1.0
 97
        0
 75
     0
 76
     1
 98
        0
  0
LINE
  5
1E6
330
1E4
100
AcDbEntity
  8
0
 62
     0
370
    -2
100
AcDbLine
 10
0.0
 20
0.0
 30
0.0
 11
-1.0
 21
-1.0
 31
0.0
  0
LINE
  5
1E7
330
1E4
100
AcDbEntity
  8
0
 62
     0
370
    -2
100
AcDbLine
 10
-1.0
 20
-1.0
 30
0.0
 11
1.0
 21
-1.0
 31
0.0
  0
LINE
  5
1E8
330
1E4
100
AcDbEntity
  8
0
 62
     0
370
    -2
100
AcDbLine
 10
1.0
 20
-1.0
 30
0.0
 11
0.0
 21
0.0
 31
0.0
  0
ENDBLK
  5
1EA
330
1E4
100
AcDbEntity
  8
0
100
AcDbBlockEnd
  0
BLOCK
  5
1F0
330
1EB
100
AcDbEntity
  8
0
100
AcDbBlockBegin
  2
cw-dimension-symbol17
 70
     0
 10
0.0
 20
0.0
 30
0.0
  3
cw-dimension-symbol17
  1

  0
LINE
  5
1EC
330
1EB
100
AcDbEntity
  8
0
 62
     0
370
    -2
100
AcDbLine
 10
0.0
 20
0.0
 30
0.0
 11
1.0
 21
1.0
 31
0.0
  0
LINE
  5
1ED
330
1EB
100
AcDbEntity
  8
0
 62
     0
370
    -2
100
AcDbLine
 10
1.0
 20
1.0
 30
0.0
 11
-1.0
 21
1.0
 31
0.0
  0
LINE
  5
1EE
330
1EB
100
AcDbEntity
  8
0
 62
     0
370
    -2
100
AcDbLine
 10
-1.0
 20
1.0
 30
0.0
 11
0.0
 21
0.0
 31
0.0
  0
HATCH
  5
1EF
330
1EB
100
AcDbEntity
  8
0
 62
     0
370
    -2
100
AcDbHatch
 10
0.0
 20
0.0
 30
0.0
210
0.0
220
0.0
230
1.0
  2
SOLID
 70
     1
 71
     1
 91
        1
 92
        3
 72
     0
 73
     1
 93
        3
 10
0.0
 20
0.0
 10
-1.0
 20
1.0
 10
0.0
 20
1.0
 97
        0
 75
     0
 76
     1
 98
        0
  0
ENDBLK
  5
1F1
330
1EB
100
AcDbEntity
  8
0
100
AcDbBlockEnd
  0
BLOCK
  5
1F7
330
1F2
100
AcDbEntity
  8
0
100
AcDbBlockBegin
  2
cw-dimension-symbol18
 70
     0
 10
0.0
 20
0.0
 30
0.0
  3
cw-dimension-symbol18
  1

  0
LINE
  5
1F3
330
1F2
100
AcDbEntity
  8
0
 62
     0
370
    -2
100
AcDbLine
 10
0.0
 20
0.0
 30
0.0
 11
1.0
 21
-1.0
 31
0.0
  0
LINE
  5
1F4
330
1F2
100
AcDbEntity
  8
0
 62
     0
370
    -2
100
AcDbLine
 10
1.0
 20
-1.0
 30
0.0
 11
-1.0
 21
-1.0
 31
0.0
  0
LINE
  5
1F5
330
1F2
100
AcDbEntity
  8
0
 62
     0
370
    -2
100
AcDbLine
 10
-1.0
 20
-1.0
 30
0.0
 11
0.0
 21
0.0
 31
0.0
  0
HATCH
  5
1F6
330
1F2
100
AcDbEntity
  8
0
 62
     0
370
    -2
100
AcDbHatch
 10
0.0
 20
0.0
 30
0.0
210
0.0
220
0.0
230
1.0
  2
SOLID
 70
     1
 71
     1
 91
        1
 92
        3
 72
     0
 73
     1
 93
        3
 10
0.0
 20
0.0
 10
-1.0
 20
-1.0
 10
0.0
 20
-1.0
 97
        0
 75
     0
 76
     1
 98
        0
  0
ENDBLK
  5
1F8
330
1F2
100
AcDbEntity
  8
0
100
AcDbBlockEnd
  0
BLOCK
  5
1FA
330
1F9
100
AcDbEntity
  8
0
100
AcDbBlockBegin
  2
cw-dimension-symbol19
 70
     0
 10
0.0
 20
0.0
 30
0.0
  3
cw-dimension-symbol19
  1

  0
ENDBLK
  5
1FB
330
1F9
100
AcDbEntity
  8
0
100
AcDbBlockEnd
  0
BLOCK
  5
201
330
1FC
100
AcDbEntity
  8
0
100
AcDbBlockBegin
  2
cw-dimension-symbol20
 70
     0
 10
0.0
 20
0.0
 30
0.0
  3
cw-dimension-symbol20
  1

  0
LINE
  5
1FD
330
1FC
100
AcDbEntity
  8
0
 62
     0
370
    -2
100
AcDbLine
 10
0.0
 20
0.0
 30
0.0
 11
0.0
 21
2.0
 31
0.0
  0
LINE
  5
1FE
330
1FC
100
AcDbEntity
  8
0
 62
     0
370
    -2
100
AcDbLine
 10
0.0
 20
0.0
 30
0.0
 11
-1.0
 21
0.33
 31
0.0
  0
LINE
  5
1FF
330
1FC
100
AcDbEntity
  8
0
 62
     0
370
    -2
100
AcDbLine
 10
0.0
 20
0.0
 30
0.0
 11
1.0
 21
0.33
 31
0.0
  0
LINE
  5
200
330
1FC
100
AcDbEntity
  8
0
 62
     0
370
    -2
100
AcDbLine
 10
0.0
 20
2.0
 30
0.0
 11
4.15
 21
2.0
 31
0.0
  0
ENDBLK
  5
202
330
1FC
100
AcDbEntity
  8
0
100
AcDbBlockEnd
  0
BLOCK
  5
208
330
203
100
AcDbEntity
  8
0
100
AcDbBlockBegin
  2
cw-dimension-symbol21
 70
     0
 10
0.0
 20
0.0
 30
0.0
  3
cw-dimension-symbol21
  1

  0
LINE
  5
204
330
203
100
AcDbEntity
  8
0
 62
     0
370
    -2
100
AcDbLine
 10
0.0
 20
0.0
 30
0.0
 11
0.0
 21
-2.0
 31
0.0
  0
LINE
  5
205
330
203
100
AcDbEntity
  8
0
 62
     0
370
    -2
100
AcDbLine
 10
0.0
 20
0.0
 30
0.0
 11
-1.0
 21
-0.33
 31
0.0
  0
LINE
  5
206
330
203
100
AcDbEntity
  8
0
 62
     0
370
    -2
100
AcDbLine
 10
0.0
 20
0.0
 30
0.0
 11
1.0
 21
-0.33
 31
0.0
  0
LINE
  5
207
330
203
100
AcDbEntity
  8
0
 62
     0
370
    -2
100
AcDbLine
 10
0.0
 20
-2.0
 30
0.0
 11
4.15
 21
-2.0
 31
0.0
  0
ENDBLK
  5
209
330
203
100
AcDbEntity
  8
0
100
AcDbBlockEnd
  0
BLOCK
  5
23A
330
20A
100
AcDbEntity
  8
0
100
AcDbBlockBegin
  2
cw-line-extremity0
 70
     0
 10
0.0
 20
0.0
 30
0.0
  3
cw-line-extremity0
  1

  0
LINE
  5
20B
330
20A
100
AcDbEntity
  8
0
 62
     0
370
    -2
100
AcDbLine
 10
0.0
 20
0.0
 30
0.0
 11
4.0
 21
1.0
 31
0.0
  0
LINE
  5
20C
330
20A
100
AcDbEntity
  8
0
 62
     0
370
    -2
100
AcDbLine
 10
0.0
 20
0.0
 30
0.0
 11
4.0
 21
-1.0
 31
0.0
  0
LINE
  5
20D
330
20A
100
AcDbEntity
  8
0
 62
     0
370
    -2
100
AcDbLine
 10
4.0
 20
1.0
 30
0.0
 11
4.0
 21
-1.0
 31
0.0
  0
ENDBLK
  5
23B
330
20A
100
AcDbEntity
  8
0
100
AcDbBlockEnd
  0
BLOCK
  5
238
330
20E
100
AcDbEntity
  8
0
100
AcDbBlockBegin
  2
cw-line-extremity2
 70
     0
 10
0.0
 20
0.0
 30
0.0
  3
cw-line-extremity2
  1

  0
HATCH
  5
20F
330
20E
100
AcDbEntity
  8
0
 62
     0
370
     0
100
AcDbHatch
 10
0.0
 20
0.0
 30
0.0
210
0.0
220
0.0
230
1.0
  2
SOLID
 70
     1
 71
     1
 91
        1
 92
        3
 72
     0
 73
     1
 93
        3
 10
0.0
 20
0.0
 10
4.0
 20
1.0
 10
4.0
 20
-1.0
 97
        0
 75
     0
 76
     1
 98
        0
  0
LINE
  5
210
330
20E
100
AcDbEntity
  8
0
 62
     0
370
    -2
100
AcDbLine
 10
0.0
 20
0.0
 30
0.0
 11
4.0
 21
1.0
 31
0.0
  0
LINE
  5
211
330
20E
100
AcDbEntity
  8
0
 62
     0
370
    -2
100
AcDbLine
 10
4.0
 20
1.0
 30
0.0
 11
4.0
 21
-1.0
 31
0.0
  0
LINE
  5
212
330
20E
100
AcDbEntity
  8
0
 62
     0
370
    -2
100
AcDbLine
 10
4.0
 20
-1.0
 30
0.0
 11
0.0
 21
0.0
 31
0.0
  0
ENDBLK
  5
239
330
20E
100
AcDbEntity
  8
0
100
AcDbBlockEnd
  0
BLOCK
  5
236
330
213
100
AcDbEntity
  8
0
100
AcDbBlockBegin
  2
cw-line-extremity3
 70
     0
 10
0.0
 20
0.0
 30
0.0
  3
cw-line-extremity3
  1

  0
HATCH
  5
214
330
213
100
AcDbEntity
  8
0
 62
     0
370
     0
100
AcDbHatch
 10
0.0
 20
0.0
 30
0.0
210
0.0
220
0.0
230
1.0
  2
SOLID
 70
     1
 71
     1
 91
        1
 92
        3
 72
     0
 73
     1
 93
        3
 10
0.0
 20
0.0
 10
4.0
 20
1.0
 10
4.0
 20
-1.0
 97
        0
 75
     0
 76
     1
 98
        0
  0
LINE
  5
215
330
213
100
AcDbEntity
  8
0
 62
     0
370
    -2
100
AcDbLine
 10
0.0
 20
0.0
 30
0.0
 11
4.0
 21
1.0
 31
0.0
  0
LINE
  5
216
330
213
100
AcDbEntity
  8
0
 62
     0
370
    -2
100
AcDbLine
 10
4.0
 20
1.0
 30
0.0
 11
4.0
 21
-1.0
 31
0.0
  0
LINE
  5
217
330
213
100
AcDbEntity
  8
0
 62
     0
370
    -2
100
AcDbLine
 10
4.0
 20
-1.0
 30
0.0
 11
0.0
 21
0.0
 31
0.0
  0
ENDBLK
  5
237
330
213
100
AcDbEntity
  8
0
100
AcDbBlockEnd
  0
BLOCK
  5
234
330
218
100
AcDbEntity
  8
0
100
AcDbBlockBegin
  2
cw-line-extremity301
 70
     0
 10
0.0
 20
0.0
 30
0.0
  3
cw-line-extremity301
  1

  0
LINE
  5
219
330
218
100
AcDbEntity
  8
0
 62
     0
370
    -2
100
AcDbLine
 10
0.0
 20
2.66666
 30
0.0
 11
0.0
 21
-2.66666
 31
0.0
  0
ENDBLK
  5
235
330
218
100
AcDbEntity
  8
0
100
AcDbBlockEnd
  0
BLOCK
  5
232
330
21A
100
AcDbEntity
  8
0
100
AcDbBlockBegin
  2
cw-line-extremity4
 70
     0
 10
0.0
 20
0.0
 30
0.0
  3
cw-line-extremity4
  1

  0
HATCH
  5
21B
330
21A
100
AcDbEntity
  8
0
 62
     0
370
     5
100
AcDbHatch
 10
0.0
 20
0.0
 30
0.0
210
0.0
220
0.0
230
1.0
  2
SOLID
 70
     1
 71
     1
 91
        1
 92
        1
 93
        1
 72
     2
 10
0.0
 20
0.0
 40
1.0
 50
0.0
 51
360.0
 73
     1
 97
        0
 75
     0
 76
     1
 98
        0
  0
ENDBLK
  5
233
330
21A
100
AcDbEntity
  8
0
100
AcDbBlockEnd
  0
BLOCK
  5
230
330
21C
100
AcDbEntity
  8
0
100
AcDbBlockBegin
  2
cw-line-extremity5
 70
     0
 10
0.0
 20
0.0
 30
0.0
  3
cw-line-extremity5
  1

  0
LINE
  5
21D
330
21C
100
AcDbEntity
  8
0
 62
     0
370
    -2
100
AcDbLine
 10
0.0
 20
0.0
 30
0.0
 11
-1.0
 21
0.0
 31
0.0
  0
ENDBLK
  5
231
330
21C
100
AcDbEntity
  8
0
100
AcDbBlockEnd
  0
BLOCK
  5
22E
330
21E
100
AcDbEntity
  8
0
100
AcDbBlockBegin
  2
cw-line-extremity6
 70
     0
 10
0.0
 20
0.0
 30
0.0
  3
cw-line-extremity6
  1

  0
LINE
  5
21F
330
21E
100
AcDbEntity
  8
0
 62
     0
370
    18
100
AcDbLine
 10
0.0
 20
1.0
 30
0.0
 11
0.0
 21
-1.0
 31
0.0
  0
ENDBLK
  5
22F
330
21E
100
AcDbEntity
  8
0
100
AcDbBlockEnd
  0
BLOCK
  5
22C
330
220
100
AcDbEntity
  8
0
100
AcDbBlockBegin
  2
cw-line-extremity9
 70
     0
 10
0.0
 20
0.0
 30
0.0
  3
cw-line-extremity9
  1

  0
LINE
  5
221
330
220
100
AcDbEntity
  8
0
 62
     0
370
    18
100
AcDbLine
 10
-1.0
 20
-1.0
 30
0.0
 11
1.0
 21
1.0
 31
0.0
  0
ENDBLK
  5
22D
330
220
100
AcDbEntity
  8
0
100
AcDbBlockEnd
  0
BLOCK
  5
22A
330
222
100
AcDbEntity
  8
0
100
AcDbBlockBegin
  2
cw-line-extremity10
 70
     0
 10
0.0
 20
0.0
 30
0.0
  3
cw-line-extremity10
  1

  0
CIRCLE
  5
223
330
222
100
AcDbEntity
  8
0
 62
     0
370
    -2
100
AcDbCircle
 10
0.0
 20
0.0
 30
0.0
 40
1.0
  0
ENDBLK
  5
22B
330
222
100
AcDbEntity
  8
0
100
AcDbBlockEnd
  0
BLOCK
  5
228
330
224
100
AcDbEntity
  8
0
100
AcDbBlockBegin
  2
cw-line-extremity1
 70
     0
 10
0.0
 20
0.0
 30
0.0
  3
cw-line-extremity1
  1

  0
LINE
  5
225
330
224
100
AcDbEntity
  8
0
 62
     0
370
    -2
100
AcDbLine
 10
0.0
 20
0.0
 30
0.0
 11
0.0
 21
1.0
 31
0.0
  0
LINE
  5
226
330
224
100
AcDbEntity
  8
0
 62
     0
370
    -2
100
AcDbLine
 10
0.0
 20
1.0
 30
0.0
 11
0.5
 21
1.5
 31
0.0
  0
LINE
  5
227
330
224
100
AcDbEntity
  8
0
 62
     0
370
    -2
100
AcDbLine
 10
0.5
 20
1.5
 30
0.0
 11
1.5
 21
1.5
 31
0.0
  0
ENDBLK
  5
229
330
224
100
AcDbEntity
  8
0
100
AcDbBlockEnd
  0
BLOCK
  5
1C
330
1B
100
AcDbEntity
  8
0
100
AcDbBlockBegin
  2
*Paper_Space69
 70
     0
 10
0.0
 20
0.0
 30
0.0
  3
*Paper_Space69
  1

  0
ENDBLK
  5
1D
330
1B
100
AcDbEntity
  8
0
100
AcDbBlockEnd
  0
BLOCK
  5
3BE
330
3BD
100
AcDbEntity
  8
0
100
AcDbBlockBegin
  2
*D70
 70
     1
 10
0.0
 20
0.0
 30
0.0
  3
*D70
  1

  0
LINE
  5
3C0
330
3BD
100
AcDbEntity
  8
Ech.1_2
 62
     0
370
    -2
100
AcDbLine
 10
5990.898098293381
 20
-4552.863660633129
 30
0.0
 11
5990.898098293381
 21
-4542.835626936449
 31
0.0
  0
LINE
  5
3C1
330
3BD
100
AcDbEntity
  8
Ech.1_2
 62
     0
370
    -2
100
AcDbLine
 10
6020.740094378283
 20
-4552.863660633129
 30
0.0
 11
6020.740094378283
 21
-4542.835626936449
 31
0.0
  0
LINE
  5
3C2
330
3BD
100
AcDbEntity
  8
Ech.1_2
 62
     0
370
    -2
100
AcDbLine
 10
5992.898098293381
 20
-4544.835626936449
 30
0.0
 11
6018.740094378283
 21
-4544.835626936449
 31
0.0
  0
INSERT
  5
3C3
330
3BD
100
AcDbEntity
  8
Ech.1_2
 62
     0
370
    -2
100
AcDbBlockReference
  2
cw-dimension-symbol2
 10
5990.898098293381
 20
-4544.835626936449
 30
0.0
 41
2.0
 42
2.0
 43
2.0
 50
180.0
  0
INSERT
  5
3C4
330
3BD
100
AcDbEntity
  8
Ech.1_2
 62
     0
370
    -2
100
AcDbBlockReference
  2
cw-dimension-symbol2
 10
6020.740094378283
 20
-4544.835626936449
 30
0.0
 41
2.0
 42
2.0
 43
2.0
  0
MTEXT
  5
3C5
330
3BD
100
AcDbEntity
  8
Ech.1_2
 62
   190
370
    15
100
AcDbMText
 10
6005.819096335832
 20
-4540.335626936449
 30
0.0
 40
5.0
 41
0.0
 46
0.0
 71
     5
 72
     1
  1
\A1;30 mm mini
  7
arial-z
 73
     1
 44
1.0
  0
POINT
  5
3C6
330
3BD
100
AcDbEntity
  8
Defpoints
 62
     0
100
AcDbPoint
 10
5990.898098293381
 20
-4552.863660633129
 30
0.0
  0
POINT
  5
3C7
330
3BD
100
AcDbEntity
  8
Defpoints
 62
     0
100
AcDbPoint
 10
6020.740094378283
 20
-4552.863660633129
 30
0.0
  0
POINT
  5
3C8
330
3BD
100
AcDbEntity
  8
Defpoints
 62
     0
100
AcDbPoint
 10
6020.740094378283
 20
-4544.835626936449
 30
0.0
  0
ENDBLK
  5
3BF
330
3BD
100
AcDbEntity
  8
0
100
AcDbBlockEnd
  0
BLOCK
  5
3CC
330
3CB
100
AcDbEntity
  8
0
100
AcDbBlockBegin
  2
*D71
 70
     1
 10
0.0
 20
0.0
 30
0.0
  3
*D71
  1

  0
LINE
  5
3CE
330
3CB
100
AcDbEntity
  8
Ech.1_2
 62
     0
370
    -2
100
AcDbLine
 10
5982.756097976344
 20
-4557.86509425751
 30
0.0
 11
5980.756097976344
 21
-4557.86509425751
 31
0.0
  0
LINE
  5
3CF
330
3CB
100
AcDbEntity
  8
Ech.1_2
 62
     0
370
    -2
100
AcDbLine
 10
5982.756097976344
 20
-4552.86509425751
 30
0.0
 11
5980.756097976344
 21
-4552.86509425751
 31
0.0
  0
LINE
  5
3D0
330
3CB
100
AcDbEntity
  8
Ech.1_2
 62
     0
370
    -2
100
AcDbLine
 10
5982.756097976344
 20
-4555.86509425751
 30
0.0
 11
5982.756097976344
 21
-4554.86509425751
 31
0.0
  0
INSERT
  5
3D1
330
3CB
100
AcDbEntity
  8
Ech.1_2
 62
     0
370
    -2
100
AcDbBlockReference
  2
cw-dimension-symbol2
 10
5982.756097976344
 20
-4557.86509425751
 30
0.0
 41
2.0
 42
2.0
 43
2.0
 50
270.0
  0
INSERT
  5
3D2
330
3CB
100
AcDbEntity
  8
Ech.1_2
 62
     0
370
    -2
100
AcDbBlockReference
  2
cw-dimension-symbol2
 10
5982.756097976344
 20
-4552.86509425751
 30
0.0
 41
2.0
 42
2.0
 43
2.0
 50
90.0
  0
MTEXT
  5
3D3
330
3CB
100
AcDbEntity
  8
Ech.1_2
 62
   190
370
    15
100
AcDbMText
 10
5978.256097976344
 20
-4555.365094257509
 30
0.0
 40
5.0
 41
0.0
 46
0.0
 71
     5
 72
     1
  1
\A1;5 mm mini
  7
arial-z
 11
6.123233995736766E-17
 21
1.0
 31
0.0
 73
     1
 44
1.0
  0
POINT
  5
3D4
330
3CB
100
AcDbEntity
  8
Defpoints
 62
     0
100
AcDbPoint
 10
5982.756097976344
 20
-4557.86509425751
 30
0.0
  0
POINT
  5
3D5
330
3CB
100
AcDbEntity
  8
Defpoints
 62
     0
100
AcDbPoint
 10
5982.756097976344
 20
-4552.86509425751
 30
0.0
  0
POINT
  5
3D6
330
3CB
100
AcDbEntity
  8
Defpoints
 62
     0
100
AcDbPoint
 10
5982.756097976344
 20
-4552.86509425751
 30
0.0
  0
ENDBLK
  5
3CD
330
3CB
100
AcDbEntity
  8
0
100
AcDbBlockEnd
  0
BLOCK
  5
3DA
330
3D9
100
AcDbEntity
  8
0
100
AcDbBlockBegin
  2
*D72
 70
     1
 10
0.0
 20
0.0
 30
0.0
  3
*D72
  1

  0
LINE
  5
3DC
330
3D9
100
AcDbEntity
  8
Ech.1_2
 62
     0
370
    -2
100
AcDbLine
 10
5990.898098293381
 20
-4552.86509425751
 30
0.0
 11
6034.603635356867
 21
-4552.86509425751
 31
0.0
  0
LINE
  5
3DD
330
3D9
100
AcDbEntity
  8
Ech.1_2
 62
     0
370
    -2
100
AcDbLine
 10
5970.898098292737
 20
-4502.886476284002
 30
0.0
 11
6034.603635356867
 21
-4502.886476284002
 31
0.0
  0
LINE
  5
3DE
330
3D9
100
AcDbEntity
  8
Ech.1_2
 62
     0
370
    -2
100
AcDbLine
 10
6032.603635356867
 20
-4550.86509425751
 30
0.0
 11
6032.603635356867
 21
-4504.886476284002
 31
0.0
  0
INSERT
  5
3DF
330
3D9
100
AcDbEntity
  8
Ech.1_2
 62
     0
370
    -2
100
AcDbBlockReference
  2
cw-dimension-symbol2
 10
6032.603635356867
 20
-4552.86509425751
 30
0.0
 41
2.0
 42
2.0
 43
2.0
 50
270.0
  0
INSERT
  5
3E0
330
3D9
100
AcDbEntity
  8
Ech.1_2
 62
     0
370
    -2
100
AcDbBlockReference
  2
cw-dimension-symbol2
 10
6032.603635356867
 20
-4502.886476284002
 30
0.0
 41
2.0
 42
2.0
 43
2.0
 50
90.0
  0
MTEXT
  5
3E1
330
3D9
100
AcDbEntity
  8
Ech.1_2
 62
   190
370
    15
100
AcDbMText
 10
6028.103635356867
 20
-4527.875785270757
 30
0.0
 40
5.0
 41
0.0
 46
0.0
 71
     5
 72
     1
  1
\A1;30 mm mini
  7
arial-z
 11
6.123233995736766E-17
 21
1.0
 31
0.0
 73
     1
 44
1.0
  0
POINT
  5
3E2
330
3D9
100
AcDbEntity
  8
Defpoints
 62
     0
100
AcDbPoint
 10
5990.898098293381
 20
-4552.86509425751
 30
0.0
  0
POINT
  5
3E3
330
3D9
100
AcDbEntity
  8
Defpoints
 62
     0
100
AcDbPoint
 10
5970.898098292737
 20
-4502.886476284002
 30
0.0
  0
POINT
  5
3E4
330
3D9
100
AcDbEntity
  8
Defpoints
 62
     0
100
AcDbPoint
 10
6032.603635356867
 20
-4502.886476284002
 30
0.0
  0
ENDBLK
  5
3DB
330
3D9
100
AcDbEntity
  8
0
100
AcDbBlockEnd
  0
ENDSEC
  0
SECTION
  2
ENTITIES
  0
HATCH
  5
245
330
1F
100
AcDbEntity
  8
Ech.1_2
 62
    17
420
  8405056
440
 33554687
370
    20
100
AcDbHatch
 10
0.0
 20
0.0
 30
0.0
210
0.0
220
0.0
230
1.0
  2
SOLID
 70
     1
 71
     1
 91
        1
 92
        3
 72
     0
 73
     1
 93
        4
 10
6095.896082796044
 20
-4577.865094257815
 10
6095.896082796044
 20
-4557.865094257466
 10
5973.898098293239
 20
-4557.86509425751
 10
5973.898098293239
 20
-4577.865094257859
 97
        0
 75
     0
 76
     1
 98
        0
  0
LWPOLYLINE
  5
246
330
1F
100
AcDbEntity
  8
Ech.1_2
 62
     7
370
    20
100
AcDbPolyline
 90
        5
 70
     0
 43
0.0
 10
6095.896082796044
 20
-4577.865094257815
 10
6095.896082796044
 20
-4557.865094257466
 10
5973.898098293239
 20
-4557.86509425751
 10
5973.898098293239
 20
-4577.865094257859
 10
6095.896082796044
 20
-4577.865094257815
  0
HATCH
  5
247
330
1F
100
AcDbEntity
  8
Ech.1_2
 62
    17
420
  8405056
440
 33554687
370
    20
100
AcDbHatch
 10
0.0
 20
0.0
 30
0.0
210
0.0
220
0.0
230
1.0
  2
SOLID
 70
     1
 71
     1
 91
        1
 92
        3
 72
     0
 73
     1
 93
        4
 10
5970.898098293381
 20
-4454.894391485555
 10
5970.898098293381
 20
-4552.86509425751
 10
5990.898098293381
 20
-4552.86509425751
 10
5990.898098293381
 20
-4454.894391485555
 97
        0
 75
     0
 76
     1
 98
        0
  0
LWPOLYLINE
  5
248
330
1F
100
AcDbEntity
  8
Ech.1_2
 62
     7
370
    20
100
AcDbPolyline
 90
        5
 70
     0
 43
0.0
 10
5970.898098293381
 20
-4454.894391485555
 10
5970.898098293381
 20
-4552.86509425751
 10
5990.898098293381
 20
-4552.86509425751
 10
5990.898098293381
 20
-4454.894391485555
 10
5970.898098293381
 20
-4454.894391485555
  0
LWPOLYLINE
  5
249
330
1F
100
AcDbEntity
  8
Ech.1_2
 62
     7
370
    20
100
AcDbPolyline
 90
        5
 70
     0
 43
0.0
 10
5973.898098293239
 20
-4577.865094257859
 10
6095.896082796044
 20
-4577.865094257822
 10
6095.89608279604
 20
-4557.865094257466
 10
5973.898098293235
 20
-4557.865094257506
 10
5973.898098293239
 20
-4577.865094257859
  0
LWPOLYLINE
  5
24A
330
1F
100
AcDbEntity
  8
Ech.1_2
 62
     7
370
    20
100
AcDbPolyline
 90
        5
 70
     0
 43
0.0
 10
5990.898098293381
 20
-4552.86509425751
 10
5990.898098293344
 20
-4454.894391485555
 10
5970.898098293032
 20
-4454.894391485563
 10
5970.898098293072
 20
-4552.865094257513
 10
5990.898098293381
 20
-4552.86509425751
  0
LWPOLYLINE
  5
24B
330
1F
100
AcDbEntity
  8
Ech.1_2
 62
   190
370
    15
100
AcDbPolyline
 90
        6
 70
     0
 43
0.0
 10
5854.89309703075
 20
-4612.438818003176
 10
5854.893097030728
 20
-4574.440061889089
 10
5847.702157667774
 20
-4567.845860626725
 10
5862.084437672494
 20
-4573.489836633848
 10
5854.893097030725
 20
-4566.895295001252
 10
5854.893097030721
 20
-4462.438818003189
  0
LWPOLYLINE
  5
24C
330
1F
100
AcDbEntity
  8
Ech.1_2
 62
   190
370
    15
100
AcDbPolyline
 90
        6
 70
     0
 43
0.0
 10
6093.894790552606
 20
-4693.986410282356
 10
5981.938911318908
 20
-4693.986410282378
 10
5975.344710056544
 20
-4701.177349645332
 10
5980.988686063667
 20
-4686.795069640611
 10
5974.394144431071
 20
-4693.986410282381
 10
5943.894790552569
 20
-4693.986410282385
  0
HATCH
  5
24D
330
1F
100
AcDbEntity
  8
Ech.1_2
 62
    21
420
 16756102
440
 33554687
370
     5
100
AcDbHatch
 10
0.0
 20
0.0
 30
0.0
210
0.0
220
0.0
230
1.0
  2
SOLID
 70
     1
 71
     1
 91
        1
 92
        3
 72
     0
 73
     1
 93
       24
 10
5862.084437672494
 20
-4573.489836633848
 10
5854.893498309541
 20
-4566.89563537148
 10
5854.893498309541
 20
-4454.894391485563
 10
5914.350050258845
 20
-4454.894391485563
 10
5920.944251521205
 20
-4447.703452122609
 10
5915.300275514082
 20
-4462.085732127329
 10
5921.894817146678
 20
-4454.894391485563
 10
5943.89349830961
 20
-4454.894391485497
 10
5943.89349830961
 20
-4504.89438712244
 10
5943.905210020441
 20
-4504.894387122185
 10
5943.894790552569
 20
-4604.894388734878
 10
6095.896082796051
 20
-4604.894384098972
 10
6095.896082796051
 20
-4626.940382429386
 10
6103.087423437817
 20
-4633.534924061989
 10
6088.705143433097
 20
-4627.89094805487
 10
6095.896082796047
 20
-4634.48514931723
 10
6095.896082796051
 20
-4693.986410282356
 10
5981.938911318912
 20
-4693.986410282356
 10
5975.344710056544
 20
-4701.177349645332
 10
5980.988686063667
 20
-4686.795069640615
 10
5974.394144431075
 20
-4693.986410282381
 10
5854.893498309548
 20
-4693.986413033064
 10
5854.893498309548
 20
-4574.440402259321
 10
5847.702157667774
 20
-4567.845860626725
 97
        0
 75
     0
 76
     1
 98
        0
  0
LWPOLYLINE
  5
24E
330
1F
100
AcDbEntity
  8
Ech.1_2
 62
   190
370
    15
100
AcDbPolyline
 90
       25
 70
     0
 43
0.0
 10
5862.084437672494
 20
-4573.489836633848
 10
5854.893498309541
 20
-4566.89563537148
 10
5854.893498309541
 20
-4454.894391485563
 10
5914.350050258845
 20
-4454.894391485563
 10
5920.944251521205
 20
-4447.703452122609
 10
5915.300275514082
 20
-4462.085732127329
 10
5921.894817146678
 20
-4454.894391485563
 10
5943.89349830961
 20
-4454.894391485497
 10
5943.89349830961
 20
-4504.89438712244
 10
5943.905210020441
 20
-4504.894387122185
 10
5943.894790552569
 20
-4604.894388734878
 10
6095.896082796051
 20
-4604.894384098972
 10
6095.896082796051
 20
-4626.940382429386
 10
6103.087423437817
 20
-4633.534924061989
 10
6088.705143433097
 20
-4627.89094805487
 10
6095.896082796047
 20
-4634.48514931723
 10
6095.896082796051
 20
-4693.986410282356
 10
5981.938911318912
 20
-4693.986410282356
 10
5975.344710056544
 20
-4701.177349645332
 10
5980.988686063667
 20
-4686.795069640615
 10
5974.394144431075
 20
-4693.986410282381
 10
5854.893498309548
 20
-4693.986413033064
 10
5854.893498309548
 20
-4574.440402259321
 10
5847.702157667774
 20
-4567.845860626725
 10
5862.084437672494
 20
-4573.489836633848
  0
HATCH
  5
24F
330
1F
100
AcDbEntity
  8
Ech.1_2
 62
    35
420
  9529928
440
 33554687
370
    20
100
AcDbHatch
 10
0.0
 20
0.0
 30
0.0
210
0.0
220
0.0
230
1.0
  2
SOLID
 70
     1
 71
     1
 91
        1
 92
        3
 72
     0
 73
     1
 93
        4
 10
5943.89546061876
 20
-4502.886476284177
 10
5943.895460619262
 20
-4577.89175107661
 10
5970.898098293239
 20
-4577.891751076435
 10
5970.898098292737
 20
-4502.886476284002
 97
        0
 75
     0
 76
     1
 98
        0
  0
LWPOLYLINE
  5
250
330
1F
100
AcDbEntity
  8
Ech.1_2
 62
   190
370
    15
100
AcDbPolyline
 90
        5
 70
     0
 43
0.0
 10
5943.89546061876
 20
-4502.886476284177
 10
5943.895460619262
 20
-4577.89175107661
 10
5970.898098293239
 20
-4577.891751076435
 10
5970.898098292737
 20
-4502.886476284002
 10
5943.89546061876
 20
-4502.886476284177
  0
LWPOLYLINE
  5
251
330
1F
100
AcDbEntity
  8
Ech.1_2
 62
     5
370
    40
100
AcDbPolyline
 90
        5
 70
     0
 43
0.0
 10
5943.89546061876
 20
-4502.886476284177
 10
5970.898098292737
 20
-4502.886476284002
 10
5970.898098293239
 20
-4577.891751076435
 10
5943.895460619262
 20
-4577.89175107661
 10
5943.89546061876
 20
-4502.886476284177
  0
LWPOLYLINE
  5
252
330
1F
100
AcDbEntity
  8
Ech.1_2
 62
   190
370
    15
100
AcDbPolyline
 90
        4
 70
     0
 43
0.0
 10
5970.898098293239
 20
-4577.891751076435
 10
5943.89546061876
 20
-4502.886476284177
 10
5970.898098292759
 20
-4502.886476284002
 10
5943.895460619262
 20
-4577.89175107661
  0
HATCH
  5
253
330
1F
100
AcDbEntity
  8
Ech.1_2
 62
    35
420
  9529928
440
 33554687
370
    20
100
AcDbHatch
 10
0.0
 20
0.0
 30
0.0
210
0.0
220
0.0
230
1.0
  2
SOLID
 70
     1
 71
     1
 91
        1
 92
        3
 72
     0
 73
     1
 93
        4
 10
5943.894790552569
 20
-4604.894388734878
 10
6020.739213976265
 20
-4604.897029848062
 10
6020.740094378283
 20
-4577.894392189561
 10
5943.895670954587
 20
-4577.891751076435
 97
        0
 75
     0
 76
     1
 98
        0
  0
LWPOLYLINE
  5
254
330
1F
100
AcDbEntity
  8
Ech.1_2
 62
   190
370
    15
100
AcDbPolyline
 90
        5
 70
     0
 43
0.0
 10
5943.894790552569
 20
-4604.894388734878
 10
6020.739213976265
 20
-4604.897029848062
 10
6020.740094378283
 20
-4577.894392189561
 10
5943.895670954587
 20
-4577.891751076435
 10
5943.894790552569
 20
-4604.894388734878
  0
LWPOLYLINE
  5
255
330
1F
100
AcDbEntity
  8
Ech.1_2
 62
     5
370
    40
100
AcDbPolyline
 90
        5
 70
     0
 43
0.0
 10
5943.894790552569
 20
-4604.894388734878
 10
5943.895670954587
 20
-4577.891751076435
 10
6020.740094378283
 20
-4577.894392189561
 10
6020.739213976265
 20
-4604.897029848062
 10
5943.894790552569
 20
-4604.894388734878
  0
LWPOLYLINE
  5
256
330
1F
100
AcDbEntity
  8
Ech.1_2
 62
   190
370
    15
100
AcDbPolyline
 90
        4
 70
     0
 43
0.0
 10
6020.740094378283
 20
-4577.894392189561
 10
5943.894790552569
 20
-4604.894388734878
 10
5943.895670954587
 20
-4577.891751076377
 10
6020.739213976265
 20
-4604.897029848062
  0
LWPOLYLINE
  5
257
330
1F
100
AcDbEntity
  8
Ech.1_2
 62
   190
370
    15
100
AcDbPolyline
 90
        6
 70
     0
 43
0.0
 10
6108.894790552606
 20
-4693.98641028237
 10
5981.938911318908
 20
-4693.986410282378
 10
5975.344710056544
 20
-4701.177349645332
 10
5980.988686063667
 20
-4686.795069640611
 10
5974.394144431071
 20
-4693.986410282381
 10
5839.893498309548
 20
-4693.986410282385
  0
LWPOLYLINE
  5
258
330
1F
100
AcDbEntity
  8
Ech.1_2
 62
   190
370
    15
100
AcDbPolyline
 90
        6
 70
     0
 43
0.0
 10
5854.893097030717
 20
-4439.939415767556
 10
5854.893097030725
 20
-4566.895295001252
 10
5862.084036393679
 20
-4573.489496263619
 10
5847.701756388959
 20
-4567.845520256496
 10
5854.893097030728
 20
-4574.440061889089
 10
5854.893097030732
 20
-4708.940708010614
  0
LWPOLYLINE
  5
25A
330
1F
100
AcDbEntity
  8
Ech.1_2
  6
CADWORK_22
 62
   106
 48
0.6
370
    35
100
AcDbPolyline
 90
        3
 70
   128
 43
0.0
 10
6020.740094378283
 20
-4577.894392189561
 10
5970.898098293239
 20
-4577.894392189561
 10
5970.898098292737
 20
-4502.886476284002
  0
LWPOLYLINE
  5
25B
330
1F
100
AcDbEntity
  8
Ech.1_2
  6
CADWORK_22
 62
   106
 48
0.6
370
    35
100
AcDbPolyline
 90
        2
 70
   128
 43
0.0
 10
5970.898098292737
 20
-4502.886476284002
 10
5967.159698549489
 20
-4498.966944183463
  0
LWPOLYLINE
  5
25C
330
1F
100
AcDbEntity
  8
Ech.1_2
  6
CADWORK_22
 62
   106
 48
0.6
370
    35
100
AcDbPolyline
 90
        2
 70
   128
 43
0.0
 10
6024.478494121531
 20
-4581.8139242901
 10
6020.740094378283
 20
-4577.894392189561
  0
LWPOLYLINE
  5
25D
330
1F
100
AcDbEntity
  8
Ech.1_2
 62
   190
370
    15
100
AcDbPolyline
 90
        3
 70
     0
 43
0.0
 10
5957.396779455748
 20
-4521.240854407368
 10
5957.396779455748
 20
-4441.247827359248
 10
6095.219515669929
 20
-4441.247827359248
  0
INSERT
  5
25E
330
1F
100
AcDbEntity
  8
Ech.1_2
 62
   190
370
    15
100
AcDbBlockReference
  2
cw-line-extremity4
 10
5957.396779455748
 20
-4521.240854407368
 30
0.0
 50
90.0
  0
LWPOLYLINE
  5
25F
330
1F
100
AcDbEntity
  8
Ech.1_2
 62
   190
370
    15
100
AcDbPolyline
 90
        3
 70
     0
 43
0.0
 10
6053.64837187905
 20
-4567.865094257641
 10
6053.64837187905
 20
-4508.22994459608
 10
6095.219515669929
 20
-4508.22994459608
  0
INSERT
  5
260
330
1F
100
AcDbEntity
  8
Ech.1_2
 62
   190
370
    15
100
AcDbBlockReference
  2
cw-line-extremity4
 10
6053.64837187905
 20
-4567.865094257641
 30
0.0
 50
90.0
  0
LWPOLYLINE
  5
261
330
1F
100
AcDbEntity
  8
Ech.1_2
 62
   190
370
    15
100
AcDbPolyline
 90
        3
 70
     0
 43
0.0
 10
6012.610175847714
 20
-4577.894392189561
 10
6012.610175847714
 20
-4476.425483832218
 10
6095.219515669929
 20
-4476.425483832218
  0
INSERT
  5
262
330
1F
100
AcDbEntity
  8
Ech.1_2
 62
   190
370
    15
100
AcDbBlockReference
  2
cw-line-extremity4
 10
6012.610175847714
 20
-4577.894392189561
 30
0.0
 50
90.0
  0
LWPOLYLINE
  5
263
330
1F
100
AcDbEntity
  8
Ech.1_2
 62
     7
370
    20
100
AcDbPolyline
 90
        3
 70
     0
 43
0.0
 10
6093.894790552597
 20
-4604.894388734878
 10
5943.894790552569
 20
-4604.894388734878
 10
5943.894790552569
 20
-4454.894391485563
  0
LINE
  5
264
330
1F
100
AcDbEntity
  8
Ech.1_2
 62
   190
370
    15
100
AcDbLine
 10
5950.059947711077
 20
-4535.994955257498
 30
0.0
 11
5990.842542294095
 21
-4535.994955257498
 31
0.0
  0
LINE
  5
265
330
1F
100
AcDbEntity
  8
Ech.1_2
 62
   190
370
    15
100
AcDbLine
 10
5950.059947711077
 20
-4533.735233257452
 30
0.0
 11
5990.842542294095
 21
-4533.735233257452
 31
0.0
  0
ARC
  5
266
330
1F
100
AcDbEntity
  8
Ech.1_2
 62
   190
370
    15
100
AcDbCircle
 10
5979.140449903441
 20
-4534.865094257475
 30
0.0
 40
12.81320339083424
100
AcDbArc
 50
348.6632793503132
 51
11.33672064968678
  0
LINE
  5
267
330
1F
100
AcDbEntity
  8
Ech.1_2
 62
   190
370
    15
100
AcDbLine
 10
5991.398098293372
 20
-4537.383844257492
 30
0.0
 11
5991.398098293374
 21
-4536.550511257534
 31
0.0
  0
LINE
  5
268
330
1F
100
AcDbEntity
  8
Ech.1_2
 62
   190
370
    15
100
AcDbLine
 10
5991.398098293372
 20
-4537.383844257492
 30
0.0
 11
5991.703653294275
 21
-4537.383844257492
 31
0.0
  0
ARC
  5
269
330
1F
100
AcDbEntity
  8
Ech.1_2
 62
   190
370
    15
100
AcDbCircle
 10
5990.842542303475
 20
-4536.550511247397
 30
0.0
 40
0.5555559898988738
100
AcDbArc
 50
359.9999989545241
 51
90.00000096743567
  0
LINE
  5
26A
330
1F
100
AcDbEntity
  8
Ech.1_2
 62
   190
370
    15
100
AcDbLine
 10
5991.398098293374
 20
-4536.550511257534
 30
0.0
 11
5991.398098293374
 21
-4533.179677257474
 31
0.0
  0
LINE
  5
26B
330
1F
100
AcDbEntity
  8
Ech.1_2
 62
   190
370
    15
100
AcDbLine
 10
5991.703653294275
 20
-4537.383844257492
 30
0.0
 11
5991.703653294275
 21
-4532.346344257516
 31
0.0
  0
LINE
  5
26C
330
1F
100
AcDbEntity
  8
Ech.1_2
 62
   190
370
    15
100
AcDbLine
 10
5991.398098293374
 20
-4532.346344257516
 30
0.0
 11
5991.703653294275
 21
-4532.346344257516
 31
0.0
  0
ARC
  5
26D
330
1F
100
AcDbEntity
  8
Ech.1_2
 62
   190
370
    15
100
AcDbCircle
 10
5990.842542303574
 20
-4533.179677267653
 30
0.0
 40
0.555555989799507
100
AcDbArc
 50
269.9999990223403
 51
0.0000010496967854
  0
LINE
  5
26E
330
1F
100
AcDbEntity
  8
Ech.1_2
 62
   190
370
    15
100
AcDbLine
 10
5991.398098293374
 20
-4532.346344257516
 30
0.0
 11
5991.398098293374
 21
-4533.179677257474
 31
0.0
  0
LINE
  5
26F
330
1F
100
AcDbEntity
  8
Ech.1_2
 62
   190
370
    15
100
AcDbLine
 10
5978.759031709875
 20
-4535.994955257498
 30
0.0
 11
5978.759031709875
 21
-4533.735233257452
 31
0.0
  0
LINE
  5
270
330
1F
100
AcDbEntity
  8
Ech.1_2
 62
   190
370
    15
100
AcDbLine
 10
5977.925698709334
 20
-4535.994955257498
 30
0.0
 11
5977.925698709334
 21
-4533.735233257452
 31
0.0
  0
LINE
  5
271
330
1F
100
AcDbEntity
  8
Ech.1_2
 62
   190
370
    15
100
AcDbLine
 10
5981.259031709875
 20
-4535.994955257498
 30
0.0
 11
5981.259031709875
 21
-4533.735233257452
 31
0.0
  0
LINE
  5
272
330
1F
100
AcDbEntity
  8
Ech.1_2
 62
   190
370
    15
100
AcDbLine
 10
5980.425698709334
 20
-4535.994955257498
 30
0.0
 11
5980.425698709334
 21
-4533.735233257452
 31
0.0
  0
LINE
  5
273
330
1F
100
AcDbEntity
  8
Ech.1_2
 62
   190
370
    15
100
AcDbLine
 10
5979.592365708793
 20
-4535.994955257498
 30
0.0
 11
5979.592365708793
 21
-4533.735233257452
 31
0.0
  0
LINE
  5
274
330
1F
100
AcDbEntity
  8
Ech.1_2
 62
   190
370
    15
100
AcDbLine
 10
5983.759031709875
 20
-4535.994955257498
 30
0.0
 11
5983.759031709875
 21
-4533.735233257452
 31
0.0
  0
LINE
  5
275
330
1F
100
AcDbEntity
  8
Ech.1_2
 62
   190
370
    15
100
AcDbLine
 10
5982.925698709334
 20
-4535.994955257498
 30
0.0
 11
5982.925698709334
 21
-4533.735233257452
 31
0.0
  0
LINE
  5
276
330
1F
100
AcDbEntity
  8
Ech.1_2
 62
   190
370
    15
100
AcDbLine
 10
5982.092365708793
 20
-4535.994955257498
 30
0.0
 11
5982.092365708793
 21
-4533.735233257452
 31
0.0
  0
LINE
  5
277
330
1F
100
AcDbEntity
  8
Ech.1_2
 62
   190
370
    15
100
AcDbLine
 10
5984.592365708793
 20
-4535.994955257498
 30
0.0
 11
5984.592365708793
 21
-4533.735233257452
 31
0.0
  0
LINE
  5
278
330
1F
100
AcDbEntity
  8
Ech.1_2
 62
   190
370
    15
100
AcDbLine
 10
5985.425698709334
 20
-4535.994955257498
 30
0.0
 11
5985.425698709334
 21
-4533.735233257452
 31
0.0
  0
LINE
  5
279
330
1F
100
AcDbEntity
  8
Ech.1_2
 62
   190
370
    15
100
AcDbLine
 10
5986.259031709875
 20
-4535.994955257498
 30
0.0
 11
5986.259031709875
 21
-4533.735233257452
 31
0.0
  0
LINE
  5
27A
330
1F
100
AcDbEntity
  8
Ech.1_2
 62
   190
370
    15
100
AcDbLine
 10
5987.092365708793
 20
-4535.994955257498
 30
0.0
 11
5987.092365708793
 21
-4533.735233257452
 31
0.0
  0
LINE
  5
27B
330
1F
100
AcDbEntity
  8
Ech.1_2
 62
   190
370
    15
100
AcDbLine
 10
5952.092365708795
 20
-4535.994955257498
 30
0.0
 11
5952.092365708795
 21
-4533.735233257452
 31
0.0
  0
LINE
  5
27C
330
1F
100
AcDbEntity
  8
Ech.1_2
 62
   190
370
    15
100
AcDbLine
 10
5952.925698709336
 20
-4535.994955257498
 30
0.0
 11
5952.925698709336
 21
-4533.735233257452
 31
0.0
  0
LINE
  5
27D
330
1F
100
AcDbEntity
  8
Ech.1_2
 62
   190
370
    15
100
AcDbLine
 10
5951.259031709877
 20
-4535.994955257498
 30
0.0
 11
5951.259031709877
 21
-4533.735233257452
 31
0.0
  0
LINE
  5
27E
330
1F
100
AcDbEntity
  8
Ech.1_2
 62
   190
370
    15
100
AcDbLine
 10
5955.425698709336
 20
-4535.994955257498
 30
0.0
 11
5955.425698709336
 21
-4533.735233257452
 31
0.0
  0
LINE
  5
27F
330
1F
100
AcDbEntity
  8
Ech.1_2
 62
   190
370
    15
100
AcDbLine
 10
5954.592365708795
 20
-4535.994955257498
 30
0.0
 11
5954.592365708795
 21
-4533.735233257452
 31
0.0
  0
LINE
  5
280
330
1F
100
AcDbEntity
  8
Ech.1_2
 62
   190
370
    15
100
AcDbLine
 10
5953.759031709877
 20
-4535.994955257498
 30
0.0
 11
5953.759031709877
 21
-4533.735233257452
 31
0.0
  0
LINE
  5
281
330
1F
100
AcDbEntity
  8
Ech.1_2
 62
   190
370
    15
100
AcDbLine
 10
5957.925698709336
 20
-4535.994955257498
 30
0.0
 11
5957.925698709336
 21
-4533.735233257452
 31
0.0
  0
LINE
  5
282
330
1F
100
AcDbEntity
  8
Ech.1_2
 62
   190
370
    15
100
AcDbLine
 10
5957.092365708795
 20
-4535.994955257498
 30
0.0
 11
5957.092365708795
 21
-4533.735233257452
 31
0.0
  0
LINE
  5
283
330
1F
100
AcDbEntity
  8
Ech.1_2
 62
   190
370
    15
100
AcDbLine
 10
5956.259031709877
 20
-4535.994955257498
 30
0.0
 11
5956.259031709877
 21
-4533.735233257452
 31
0.0
  0
LINE
  5
284
330
1F
100
AcDbEntity
  8
Ech.1_2
 62
   190
370
    15
100
AcDbLine
 10
5960.425698709334
 20
-4535.994955257498
 30
0.0
 11
5960.425698709334
 21
-4533.735233257452
 31
0.0
  0
LINE
  5
285
330
1F
100
AcDbEntity
  8
Ech.1_2
 62
   190
370
    15
100
AcDbLine
 10
5959.592365708795
 20
-4535.994955257498
 30
0.0
 11
5959.592365708795
 21
-4533.735233257452
 31
0.0
  0
LINE
  5
286
330
1F
100
AcDbEntity
  8
Ech.1_2
 62
   190
370
    15
100
AcDbLine
 10
5958.759031709877
 20
-4535.994955257498
 30
0.0
 11
5958.759031709877
 21
-4533.735233257452
 31
0.0
  0
LINE
  5
287
330
1F
100
AcDbEntity
  8
Ech.1_2
 62
   190
370
    15
100
AcDbLine
 10
5961.259031709875
 20
-4535.994955257498
 30
0.0
 11
5961.259031709875
 21
-4533.735233257452
 31
0.0
  0
LINE
  5
288
330
1F
100
AcDbEntity
  8
Ech.1_2
 62
   190
370
    15
100
AcDbLine
 10
5974.592365708793
 20
-4535.994955257498
 30
0.0
 11
5974.592365708793
 21
-4533.735233257452
 31
0.0
  0
LINE
  5
289
330
1F
100
AcDbEntity
  8
Ech.1_2
 62
   190
370
    15
100
AcDbLine
 10
5973.759031709875
 20
-4535.994955257498
 30
0.0
 11
5973.759031709875
 21
-4533.735233257452
 31
0.0
  0
LINE
  5
28A
330
1F
100
AcDbEntity
  8
Ech.1_2
 62
   190
370
    15
100
AcDbLine
 10
5972.925698709334
 20
-4535.994955257498
 30
0.0
 11
5972.925698709334
 21
-4533.735233257452
 31
0.0
  0
LINE
  5
28B
330
1F
100
AcDbEntity
  8
Ech.1_2
 62
   190
370
    15
100
AcDbLine
 10
5972.092365708793
 20
-4535.994955257498
 30
0.0
 11
5972.092365708793
 21
-4533.735233257452
 31
0.0
  0
LINE
  5
28C
330
1F
100
AcDbEntity
  8
Ech.1_2
 62
   190
370
    15
100
AcDbLine
 10
5969.592365708793
 20
-4535.994955257498
 30
0.0
 11
5969.592365708793
 21
-4533.735233257452
 31
0.0
  0
LINE
  5
28D
330
1F
100
AcDbEntity
  8
Ech.1_2
 62
   190
370
    15
100
AcDbLine
 10
5970.425698709334
 20
-4535.994955257498
 30
0.0
 11
5970.425698709334
 21
-4533.735233257452
 31
0.0
  0
LINE
  5
28E
330
1F
100
AcDbEntity
  8
Ech.1_2
 62
   190
370
    15
100
AcDbLine
 10
5971.259031709875
 20
-4535.994955257498
 30
0.0
 11
5971.259031709875
 21
-4533.735233257452
 31
0.0
  0
LINE
  5
28F
330
1F
100
AcDbEntity
  8
Ech.1_2
 62
   190
370
    15
100
AcDbLine
 10
5967.092365708793
 20
-4535.994955257498
 30
0.0
 11
5967.092365708793
 21
-4533.735233257452
 31
0.0
  0
LINE
  5
290
330
1F
100
AcDbEntity
  8
Ech.1_2
 62
   190
370
    15
100
AcDbLine
 10
5967.925698709334
 20
-4535.994955257498
 30
0.0
 11
5967.925698709334
 21
-4533.735233257452
 31
0.0
  0
LINE
  5
291
330
1F
100
AcDbEntity
  8
Ech.1_2
 62
   190
370
    15
100
AcDbLine
 10
5968.759031709875
 20
-4535.994955257498
 30
0.0
 11
5968.759031709875
 21
-4533.735233257452
 31
0.0
  0
LINE
  5
292
330
1F
100
AcDbEntity
  8
Ech.1_2
 62
   190
370
    15
100
AcDbLine
 10
5964.592365708793
 20
-4535.994955257498
 30
0.0
 11
5964.592365708793
 21
-4533.735233257452
 31
0.0
  0
LINE
  5
293
330
1F
100
AcDbEntity
  8
Ech.1_2
 62
   190
370
    15
100
AcDbLine
 10
5965.425698709334
 20
-4535.994955257498
 30
0.0
 11
5965.425698709334
 21
-4533.735233257452
 31
0.0
  0
LINE
  5
294
330
1F
100
AcDbEntity
  8
Ech.1_2
 62
   190
370
    15
100
AcDbLine
 10
5966.259031709875
 20
-4535.994955257498
 30
0.0
 11
5966.259031709875
 21
-4533.735233257452
 31
0.0
  0
LINE
  5
295
330
1F
100
AcDbEntity
  8
Ech.1_2
 62
   190
370
    15
100
AcDbLine
 10
5962.092365708793
 20
-4535.994955257498
 30
0.0
 11
5962.092365708793
 21
-4533.735233257452
 31
0.0
  0
LINE
  5
296
330
1F
100
AcDbEntity
  8
Ech.1_2
 62
   190
370
    15
100
AcDbLine
 10
5962.925698709334
 20
-4535.994955257498
 30
0.0
 11
5962.925698709334
 21
-4533.735233257452
 31
0.0
  0
LINE
  5
297
330
1F
100
AcDbEntity
  8
Ech.1_2
 62
   190
370
    15
100
AcDbLine
 10
5963.759031709875
 20
-4535.994955257498
 30
0.0
 11
5963.759031709875
 21
-4533.735233257452
 31
0.0
  0
LINE
  5
298
330
1F
100
AcDbEntity
  8
Ech.1_2
 62
   190
370
    15
100
AcDbLine
 10
5976.259031709875
 20
-4535.994955257498
 30
0.0
 11
5976.259031709875
 21
-4533.735233257452
 31
0.0
  0
LINE
  5
299
330
1F
100
AcDbEntity
  8
Ech.1_2
 62
   190
370
    15
100
AcDbLine
 10
5975.425698709334
 20
-4535.994955257498
 30
0.0
 11
5975.425698709334
 21
-4533.735233257452
 31
0.0
  0
LINE
  5
29A
330
1F
100
AcDbEntity
  8
Ech.1_2
 62
   190
370
    15
100
AcDbLine
 10
5974.592365708793
 20
-4535.994955257498
 30
0.0
 11
5974.592365708793
 21
-4533.735233257452
 31
0.0
  0
LINE
  5
29B
330
1F
100
AcDbEntity
  8
Ech.1_2
 62
   190
370
    15
100
AcDbLine
 10
5977.092365708793
 20
-4535.994955257498
 30
0.0
 11
5977.092365708793
 21
-4533.735233257452
 31
0.0
  0
LINE
  5
29C
330
1F
100
AcDbEntity
  8
Ech.1_2
 62
   190
370
    15
100
AcDbLine
 10
5947.397920709696
 20
-4534.865094257504
 30
0.0
 11
5950.059947711077
 21
-4535.994955257498
 31
0.0
  0
ARC
  5
29D
330
1F
100
AcDbEntity
  8
Ech.1_2
 62
   190
370
    15
100
AcDbCircle
 10
5948.650596720469
 20
-4534.865094257504
 30
0.0
 40
1.806337996675907
100
AcDbArc
 50
321.281239914314
 51
38.71876008568606
  0
LINE
  5
29E
330
1F
100
AcDbEntity
  8
Ech.1_2
 62
   190
370
    15
100
AcDbLine
 10
5947.397920709696
 20
-4534.865094257504
 30
0.0
 11
5950.059947711077
 21
-4533.735233257452
 31
0.0
  0
HATCH
  5
29F
330
1F
100
AcDbEntity
  8
Ech.1_2
 62
   252
440
 33554687
370
     5
100
AcDbHatch
 10
0.0
 20
0.0
 30
0.0
210
0.0
220
0.0
230
1.0
  2
SOLID
 70
     1
 71
     1
 91
        1
 92
        3
 72
     0
 73
     1
 93
        4
 10
5987.092365708793
 20
-4533.735233257452
 10
5986.259031709875
 20
-4533.735233257452
 10
5986.259031709875
 20
-4535.994955257498
 10
5987.092365708793
 20
-4535.994955257498
 97
        0
 75
     0
 76
     1
 98
        0
  0
LWPOLYLINE
  5
2A0
330
1F
100
AcDbEntity
  8
Ech.1_2
 62
     7
370
    20
100
AcDbPolyline
 90
        5
 70
     0
 43
0.0
 10
5987.092365708793
 20
-4533.735233257452
 10
5986.259031709875
 20
-4533.735233257452
 10
5986.259031709875
 20
-4535.994955257498
 10
5987.092365708793
 20
-4535.994955257498
 10
5987.092365708793
 20
-4533.735233257452
  0
HATCH
  5
2A1
330
1F
100
AcDbEntity
  8
Ech.1_2
 62
   252
440
 33554687
370
     5
100
AcDbHatch
 10
0.0
 20
0.0
 30
0.0
210
0.0
220
0.0
230
1.0
  2
SOLID
 70
     1
 71
     1
 91
        1
 92
        3
 72
     0
 73
     1
 93
        4
 10
5986.259031709875
 20
-4533.735233257452
 10
5985.425697710956
 20
-4533.735233257452
 10
5985.425697710956
 20
-4535.994955257498
 10
5986.259031709875
 20
-4535.994955257498
 97
        0
 75
     0
 76
     1
 98
        0
  0
LWPOLYLINE
  5
2A2
330
1F
100
AcDbEntity
  8
Ech.1_2
 62
     7
370
    20
100
AcDbPolyline
 90
        5
 70
     0
 43
0.0
 10
5986.259031709875
 20
-4533.735233257452
 10
5985.425697710956
 20
-4533.735233257452
 10
5985.425697710956
 20
-4535.994955257498
 10
5986.259031709875
 20
-4535.994955257498
 10
5986.259031709875
 20
-4533.735233257452
  0
HATCH
  5
2A3
330
1F
100
AcDbEntity
  8
Ech.1_2
 62
   252
440
 33554687
370
     5
100
AcDbHatch
 10
0.0
 20
0.0
 30
0.0
210
0.0
220
0.0
230
1.0
  2
SOLID
 70
     1
 71
     1
 91
        1
 92
        3
 72
     0
 73
     1
 93
        4
 10
5985.425697710956
 20
-4533.735233257452
 10
5984.592363712038
 20
-4533.735233257452
 10
5984.592363712038
 20
-4535.994955257498
 10
5985.425697710956
 20
-4535.994955257498
 97
        0
 75
     0
 76
     1
 98
        0
  0
LWPOLYLINE
  5
2A4
330
1F
100
AcDbEntity
  8
Ech.1_2
 62
     7
370
    20
100
AcDbPolyline
 90
        5
 70
     0
 43
0.0
 10
5985.425697710956
 20
-4533.735233257452
 10
5984.592363712038
 20
-4533.735233257452
 10
5984.592363712038
 20
-4535.994955257498
 10
5985.425697710956
 20
-4535.994955257498
 10
5985.425697710956
 20
-4533.735233257452
  0
HATCH
  5
2A5
330
1F
100
AcDbEntity
  8
Ech.1_2
 62
   252
440
 33554687
370
     5
100
AcDbHatch
 10
0.0
 20
0.0
 30
0.0
210
0.0
220
0.0
230
1.0
  2
SOLID
 70
     1
 71
     1
 91
        1
 92
        3
 72
     0
 73
     1
 93
        4
 10
5984.592363712038
 20
-4533.735233257452
 10
5983.759029713119
 20
-4533.735233257452
 10
5983.759029713119
 20
-4535.994955257498
 10
5984.592363712038
 20
-4535.994955257498
 97
        0
 75
     0
 76
     1
 98
        0
  0
LWPOLYLINE
  5
2A6
330
1F
100
AcDbEntity
  8
Ech.1_2
 62
     7
370
    20
100
AcDbPolyline
 90
        5
 70
     0
 43
0.0
 10
5984.592363712038
 20
-4533.735233257452
 10
5983.759029713119
 20
-4533.735233257452
 10
5983.759029713119
 20
-4535.994955257498
 10
5984.592363712038
 20
-4535.994955257498
 10
5984.592363712038
 20
-4533.735233257452
  0
HATCH
  5
2A7
330
1F
100
AcDbEntity
  8
Ech.1_2
 62
   252
440
 33554687
370
     5
100
AcDbHatch
 10
0.0
 20
0.0
 30
0.0
210
0.0
220
0.0
230
1.0
  2
SOLID
 70
     1
 71
     1
 91
        1
 92
        3
 72
     0
 73
     1
 93
        4
 10
5983.759031709875
 20
-4533.735233257452
 10
5982.925697710956
 20
-4533.735233257452
 10
5982.925697710956
 20
-4535.994955257498
 10
5983.759031709875
 20
-4535.994955257498
 97
        0
 75
     0
 76
     1
 98
        0
  0
LWPOLYLINE
  5
2A8
330
1F
100
AcDbEntity
  8
Ech.1_2
 62
     7
370
    20
100
AcDbPolyline
 90
        5
 70
     0
 43
0.0
 10
5983.759031709875
 20
-4533.735233257452
 10
5982.925697710956
 20
-4533.735233257452
 10
5982.925697710956
 20
-4535.994955257498
 10
5983.759031709875
 20
-4535.994955257498
 10
5983.759031709875
 20
-4533.735233257452
  0
HATCH
  5
2A9
330
1F
100
AcDbEntity
  8
Ech.1_2
 62
   252
440
 33554687
370
     5
100
AcDbHatch
 10
0.0
 20
0.0
 30
0.0
210
0.0
220
0.0
230
1.0
  2
SOLID
 70
     1
 71
     1
 91
        1
 92
        3
 72
     0
 73
     1
 93
        4
 10
5982.925698709334
 20
-4533.735233257452
 10
5982.092364710415
 20
-4533.735233257452
 10
5982.092364710415
 20
-4535.994955257498
 10
5982.925698709334
 20
-4535.994955257498
 97
        0
 75
     0
 76
     1
 98
        0
  0
LWPOLYLINE
  5
2AA
330
1F
100
AcDbEntity
  8
Ech.1_2
 62
     7
370
    20
100
AcDbPolyline
 90
        5
 70
     0
 43
0.0
 10
5982.925698709334
 20
-4533.735233257452
 10
5982.092364710415
 20
-4533.735233257452
 10
5982.092364710415
 20
-4535.994955257498
 10
5982.925698709334
 20
-4535.994955257498
 10
5982.925698709334
 20
-4533.735233257452
  0
HATCH
  5
2AB
330
1F
100
AcDbEntity
  8
Ech.1_2
 62
   252
440
 33554687
370
     5
100
AcDbHatch
 10
0.0
 20
0.0
 30
0.0
210
0.0
220
0.0
230
1.0
  2
SOLID
 70
     1
 71
     1
 91
        1
 92
        3
 72
     0
 73
     1
 93
        4
 10
5982.092364710415
 20
-4533.735233257452
 10
5981.259030711497
 20
-4533.735233257452
 10
5981.259030711497
 20
-4535.994955257498
 10
5982.092364710415
 20
-4535.994955257498
 97
        0
 75
     0
 76
     1
 98
        0
  0
LWPOLYLINE
  5
2AC
330
1F
100
AcDbEntity
  8
Ech.1_2
 62
     7
370
    20
100
AcDbPolyline
 90
        5
 70
     0
 43
0.0
 10
5982.092364710415
 20
-4533.735233257452
 10
5981.259030711497
 20
-4533.735233257452
 10
5981.259030711497
 20
-4535.994955257498
 10
5982.092364710415
 20
-4535.994955257498
 10
5982.092364710415
 20
-4533.735233257452
  0
HATCH
  5
2AD
330
1F
100
AcDbEntity
  8
Ech.1_2
 62
   252
440
 33554687
370
     5
100
AcDbHatch
 10
0.0
 20
0.0
 30
0.0
210
0.0
220
0.0
230
1.0
  2
SOLID
 70
     1
 71
     1
 91
        1
 92
        3
 72
     0
 73
     1
 93
        4
 10
5981.259031709875
 20
-4533.735233257452
 10
5980.425697710956
 20
-4533.735233257452
 10
5980.425697710956
 20
-4535.994955257498
 10
5981.259031709875
 20
-4535.994955257498
 97
        0
 75
     0
 76
     1
 98
        0
  0
LWPOLYLINE
  5
2AE
330
1F
100
AcDbEntity
  8
Ech.1_2
 62
     7
370
    20
100
AcDbPolyline
 90
        5
 70
     0
 43
0.0
 10
5981.259031709875
 20
-4533.735233257452
 10
5980.425697710956
 20
-4533.735233257452
 10
5980.425697710956
 20
-4535.994955257498
 10
5981.259031709875
 20
-4535.994955257498
 10
5981.259031709875
 20
-4533.735233257452
  0
HATCH
  5
2AF
330
1F
100
AcDbEntity
  8
Ech.1_2
 62
   252
440
 33554687
370
     5
100
AcDbHatch
 10
0.0
 20
0.0
 30
0.0
210
0.0
220
0.0
230
1.0
  2
SOLID
 70
     1
 71
     1
 91
        1
 92
        3
 72
     0
 73
     1
 93
        4
 10
5980.425697710956
 20
-4533.735233257452
 10
5979.592363712038
 20
-4533.735233257452
 10
5979.592363712038
 20
-4535.994955257498
 10
5980.425697710956
 20
-4535.994955257498
 97
        0
 75
     0
 76
     1
 98
        0
  0
LWPOLYLINE
  5
2B0
330
1F
100
AcDbEntity
  8
Ech.1_2
 62
     7
370
    20
100
AcDbPolyline
 90
        5
 70
     0
 43
0.0
 10
5980.425697710956
 20
-4533.735233257452
 10
5979.592363712038
 20
-4533.735233257452
 10
5979.592363712038
 20
-4535.994955257498
 10
5980.425697710956
 20
-4535.994955257498
 10
5980.425697710956
 20
-4533.735233257452
  0
HATCH
  5
2B1
330
1F
100
AcDbEntity
  8
Ech.1_2
 62
   252
440
 33554687
370
     5
100
AcDbHatch
 10
0.0
 20
0.0
 30
0.0
210
0.0
220
0.0
230
1.0
  2
SOLID
 70
     1
 71
     1
 91
        1
 92
        3
 72
     0
 73
     1
 93
        4
 10
5979.592365708793
 20
-4533.735233257452
 10
5978.759031709875
 20
-4533.735233257452
 10
5978.759031709875
 20
-4535.994955257498
 10
5979.592365708793
 20
-4535.994955257498
 97
        0
 75
     0
 76
     1
 98
        0
  0
LWPOLYLINE
  5
2B2
330
1F
100
AcDbEntity
  8
Ech.1_2
 62
     7
370
    20
100
AcDbPolyline
 90
        5
 70
     0
 43
0.0
 10
5979.592365708793
 20
-4533.735233257452
 10
5978.759031709875
 20
-4533.735233257452
 10
5978.759031709875
 20
-4535.994955257498
 10
5979.592365708793
 20
-4535.994955257498
 10
5979.592365708793
 20
-4533.735233257452
  0
HATCH
  5
2B3
330
1F
100
AcDbEntity
  8
Ech.1_2
 62
   252
440
 33554687
370
     5
100
AcDbHatch
 10
0.0
 20
0.0
 30
0.0
210
0.0
220
0.0
230
1.0
  2
SOLID
 70
     1
 71
     1
 91
        1
 92
        3
 72
     0
 73
     1
 93
        4
 10
5978.759031709875
 20
-4533.735233257452
 10
5977.925697710956
 20
-4533.735233257452
 10
5977.925697710956
 20
-4535.994955257498
 10
5978.759031709875
 20
-4535.994955257498
 97
        0
 75
     0
 76
     1
 98
        0
  0
LWPOLYLINE
  5
2B4
330
1F
100
AcDbEntity
  8
Ech.1_2
 62
     7
370
    20
100
AcDbPolyline
 90
        5
 70
     0
 43
0.0
 10
5978.759031709875
 20
-4533.735233257452
 10
5977.925697710956
 20
-4533.735233257452
 10
5977.925697710956
 20
-4535.994955257498
 10
5978.759031709875
 20
-4535.994955257498
 10
5978.759031709875
 20
-4533.735233257452
  0
HATCH
  5
2B5
330
1F
100
AcDbEntity
  8
Ech.1_2
 62
   252
440
 33554687
370
     5
100
AcDbHatch
 10
0.0
 20
0.0
 30
0.0
210
0.0
220
0.0
230
1.0
  2
SOLID
 70
     1
 71
     1
 91
        1
 92
        3
 72
     0
 73
     1
 93
        4
 10
5977.925697710956
 20
-4533.735233257452
 10
5977.092363712038
 20
-4533.735233257452
 10
5977.092363712036
 20
-4535.994955257498
 10
5977.925697710956
 20
-4535.994955257498
 97
        0
 75
     0
 76
     1
 98
        0
  0
LWPOLYLINE
  5
2B6
330
1F
100
AcDbEntity
  8
Ech.1_2
 62
     7
370
    20
100
AcDbPolyline
 90
        5
 70
     0
 43
0.0
 10
5977.925697710956
 20
-4533.735233257452
 10
5977.092363712038
 20
-4533.735233257452
 10
5977.092363712036
 20
-4535.994955257498
 10
5977.925697710956
 20
-4535.994955257498
 10
5977.925697710956
 20
-4533.735233257452
  0
HATCH
  5
2B7
330
1F
100
AcDbEntity
  8
Ech.1_2
 62
   252
440
 33554687
370
     5
100
AcDbHatch
 10
0.0
 20
0.0
 30
0.0
210
0.0
220
0.0
230
1.0
  2
SOLID
 70
     1
 71
     1
 91
        1
 92
        3
 72
     0
 73
     1
 93
        4
 10
5977.092363712038
 20
-4533.735233257452
 10
5976.259029713119
 20
-4533.735233257452
 10
5976.259029713119
 20
-4535.994955257498
 10
5977.092363712036
 20
-4535.994955257498
 97
        0
 75
     0
 76
     1
 98
        0
  0
LWPOLYLINE
  5
2B8
330
1F
100
AcDbEntity
  8
Ech.1_2
 62
     7
370
    20
100
AcDbPolyline
 90
        5
 70
     0
 43
0.0
 10
5977.092363712038
 20
-4533.735233257452
 10
5976.259029713119
 20
-4533.735233257452
 10
5976.259029713119
 20
-4535.994955257498
 10
5977.092363712036
 20
-4535.994955257498
 10
5977.092363712038
 20
-4533.735233257452
  0
HATCH
  5
2B9
330
1F
100
AcDbEntity
  8
Ech.1_2
 62
   252
440
 33554687
370
     5
100
AcDbHatch
 10
0.0
 20
0.0
 30
0.0
210
0.0
220
0.0
230
1.0
  2
SOLID
 70
     1
 71
     1
 91
        1
 92
        3
 72
     0
 73
     1
 93
        4
 10
5976.259029713119
 20
-4533.735233257452
 10
5975.425695714201
 20
-4533.735233257452
 10
5975.425695714201
 20
-4535.994955257498
 10
5976.259029713119
 20
-4535.994955257498
 97
        0
 75
     0
 76
     1
 98
        0
  0
LWPOLYLINE
  5
2BA
330
1F
100
AcDbEntity
  8
Ech.1_2
 62
     7
370
    20
100
AcDbPolyline
 90
        5
 70
     0
 43
0.0
 10
5976.259029713119
 20
-4533.735233257452
 10
5975.425695714201
 20
-4533.735233257452
 10
5975.425695714201
 20
-4535.994955257498
 10
5976.259029713119
 20
-4535.994955257498
 10
5976.259029713119
 20
-4533.735233257452
  0
HATCH
  5
2BB
330
1F
100
AcDbEntity
  8
Ech.1_2
 62
   252
440
 33554687
370
     5
100
AcDbHatch
 10
0.0
 20
0.0
 30
0.0
210
0.0
220
0.0
230
1.0
  2
SOLID
 70
     1
 71
     1
 91
        1
 92
        3
 72
     0
 73
     1
 93
        4
 10
5975.425697710956
 20
-4533.735233257452
 10
5974.592363712038
 20
-4533.735233257452
 10
5974.592363712038
 20
-4535.994955257498
 10
5975.425697710956
 20
-4535.994955257498
 97
        0
 75
     0
 76
     1
 98
        0
  0
LWPOLYLINE
  5
2BC
330
1F
100
AcDbEntity
  8
Ech.1_2
 62
     7
370
    20
100
AcDbPolyline
 90
        5
 70
     0
 43
0.0
 10
5975.425697710956
 20
-4533.735233257452
 10
5974.592363712038
 20
-4533.735233257452
 10
5974.592363712038
 20
-4535.994955257498
 10
5975.425697710956
 20
-4535.994955257498
 10
5975.425697710956
 20
-4533.735233257452
  0
HATCH
  5
2BD
330
1F
100
AcDbEntity
  8
Ech.1_2
 62
   252
440
 33554687
370
     5
100
AcDbHatch
 10
0.0
 20
0.0
 30
0.0
210
0.0
220
0.0
230
1.0
  2
SOLID
 70
     1
 71
     1
 91
        1
 92
        3
 72
     0
 73
     1
 93
        4
 10
5974.592364710415
 20
-4533.735233257452
 10
5973.759030711497
 20
-4533.735233257452
 10
5973.759030711497
 20
-4535.994955257498
 10
5974.592364710415
 20
-4535.994955257498
 97
        0
 75
     0
 76
     1
 98
        0
  0
LWPOLYLINE
  5
2BE
330
1F
100
AcDbEntity
  8
Ech.1_2
 62
     7
370
    20
100
AcDbPolyline
 90
        5
 70
     0
 43
0.0
 10
5974.592364710415
 20
-4533.735233257452
 10
5973.759030711497
 20
-4533.735233257452
 10
5973.759030711497
 20
-4535.994955257498
 10
5974.592364710415
 20
-4535.994955257498
 10
5974.592364710415
 20
-4533.735233257452
  0
HATCH
  5
2BF
330
1F
100
AcDbEntity
  8
Ech.1_2
 62
   252
440
 33554687
370
     5
100
AcDbHatch
 10
0.0
 20
0.0
 30
0.0
210
0.0
220
0.0
230
1.0
  2
SOLID
 70
     1
 71
     1
 91
        1
 92
        3
 72
     0
 73
     1
 93
        4
 10
5973.759030711497
 20
-4533.735233257452
 10
5972.925696712578
 20
-4533.735233257452
 10
5972.925696712578
 20
-4535.994955257498
 10
5973.759030711497
 20
-4535.994955257498
 97
        0
 75
     0
 76
     1
 98
        0
  0
LWPOLYLINE
  5
2C0
330
1F
100
AcDbEntity
  8
Ech.1_2
 62
     7
370
    20
100
AcDbPolyline
 90
        5
 70
     0
 43
0.0
 10
5973.759030711497
 20
-4533.735233257452
 10
5972.925696712578
 20
-4533.735233257452
 10
5972.925696712578
 20
-4535.994955257498
 10
5973.759030711497
 20
-4535.994955257498
 10
5973.759030711497
 20
-4533.735233257452
  0
HATCH
  5
2C1
330
1F
100
AcDbEntity
  8
Ech.1_2
 62
   252
440
 33554687
370
     5
100
AcDbHatch
 10
0.0
 20
0.0
 30
0.0
210
0.0
220
0.0
230
1.0
  2
SOLID
 70
     1
 71
     1
 91
        1
 92
        3
 72
     0
 73
     1
 93
        4
 10
5972.925697710956
 20
-4533.735233257452
 10
5972.092363712038
 20
-4533.735233257452
 10
5972.092363712038
 20
-4535.994955257498
 10
5972.925697710956
 20
-4535.994955257498
 97
        0
 75
     0
 76
     1
 98
        0
  0
LWPOLYLINE
  5
2C2
330
1F
100
AcDbEntity
  8
Ech.1_2
 62
     7
370
    20
100
AcDbPolyline
 90
        5
 70
     0
 43
0.0
 10
5972.925697710956
 20
-4533.735233257452
 10
5972.092363712038
 20
-4533.735233257452
 10
5972.092363712038
 20
-4535.994955257498
 10
5972.925697710956
 20
-4535.994955257498
 10
5972.925697710956
 20
-4533.735233257452
  0
HATCH
  5
2C3
330
1F
100
AcDbEntity
  8
Ech.1_2
 62
   252
440
 33554687
370
     5
100
AcDbHatch
 10
0.0
 20
0.0
 30
0.0
210
0.0
220
0.0
230
1.0
  2
SOLID
 70
     1
 71
     1
 91
        1
 92
        3
 72
     0
 73
     1
 93
        4
 10
5972.092363712038
 20
-4533.735233257452
 10
5971.259029713119
 20
-4533.735233257452
 10
5971.259029713119
 20
-4535.994955257498
 10
5972.092363712038
 20
-4535.994955257498
 97
        0
 75
     0
 76
     1
 98
        0
  0
LWPOLYLINE
  5
2C4
330
1F
100
AcDbEntity
  8
Ech.1_2
 62
     7
370
    20
100
AcDbPolyline
 90
        5
 70
     0
 43
0.0
 10
5972.092363712038
 20
-4533.735233257452
 10
5971.259029713119
 20
-4533.735233257452
 10
5971.259029713119
 20
-4535.994955257498
 10
5972.092363712038
 20
-4535.994955257498
 10
5972.092363712038
 20
-4533.735233257452
  0
HATCH
  5
2C5
330
1F
100
AcDbEntity
  8
Ech.1_2
 62
   252
440
 33554687
370
     5
100
AcDbHatch
 10
0.0
 20
0.0
 30
0.0
210
0.0
220
0.0
230
1.0
  2
SOLID
 70
     1
 71
     1
 91
        1
 92
        3
 72
     0
 73
     1
 93
        4
 10
5971.259031709875
 20
-4533.735233257452
 10
5970.425697710956
 20
-4533.735233257452
 10
5970.425697710956
 20
-4535.994955257498
 10
5971.259031709875
 20
-4535.994955257498
 97
        0
 75
     0
 76
     1
 98
        0
  0
LWPOLYLINE
  5
2C6
330
1F
100
AcDbEntity
  8
Ech.1_2
 62
     7
370
    20
100
AcDbPolyline
 90
        5
 70
     0
 43
0.0
 10
5971.259031709875
 20
-4533.735233257452
 10
5970.425697710956
 20
-4533.735233257452
 10
5970.425697710956
 20
-4535.994955257498
 10
5971.259031709875
 20
-4535.994955257498
 10
5971.259031709875
 20
-4533.735233257452
  0
HATCH
  5
2C7
330
1F
100
AcDbEntity
  8
Ech.1_2
 62
   252
440
 33554687
370
     5
100
AcDbHatch
 10
0.0
 20
0.0
 30
0.0
210
0.0
220
0.0
230
1.0
  2
SOLID
 70
     1
 71
     1
 91
        1
 92
        3
 72
     0
 73
     1
 93
        4
 10
5970.425697710956
 20
-4533.735233257452
 10
5969.592363712038
 20
-4533.735233257452
 10
5969.592363712038
 20
-4535.994955257498
 10
5970.425697710956
 20
-4535.994955257498
 97
        0
 75
     0
 76
     1
 98
        0
  0
LWPOLYLINE
  5
2C8
330
1F
100
AcDbEntity
  8
Ech.1_2
 62
     7
370
    20
100
AcDbPolyline
 90
        5
 70
     0
 43
0.0
 10
5970.425697710956
 20
-4533.735233257452
 10
5969.592363712038
 20
-4533.735233257452
 10
5969.592363712038
 20
-4535.994955257498
 10
5970.425697710956
 20
-4535.994955257498
 10
5970.425697710956
 20
-4533.735233257452
  0
HATCH
  5
2C9
330
1F
100
AcDbEntity
  8
Ech.1_2
 62
   252
440
 33554687
370
     5
100
AcDbHatch
 10
0.0
 20
0.0
 30
0.0
210
0.0
220
0.0
230
1.0
  2
SOLID
 70
     1
 71
     1
 91
        1
 92
        3
 72
     0
 73
     1
 93
        4
 10
5969.592363712038
 20
-4533.735233257452
 10
5968.759029713119
 20
-4533.735233257452
 10
5968.759029713119
 20
-4535.994955257498
 10
5969.592363712038
 20
-4535.994955257498
 97
        0
 75
     0
 76
     1
 98
        0
  0
LWPOLYLINE
  5
2CA
330
1F
100
AcDbEntity
  8
Ech.1_2
 62
     7
370
    20
100
AcDbPolyline
 90
        5
 70
     0
 43
0.0
 10
5969.592363712038
 20
-4533.735233257452
 10
5968.759029713119
 20
-4533.735233257452
 10
5968.759029713119
 20
-4535.994955257498
 10
5969.592363712038
 20
-4535.994955257498
 10
5969.592363712038
 20
-4533.735233257452
  0
HATCH
  5
2CB
330
1F
100
AcDbEntity
  8
Ech.1_2
 62
   252
440
 33554687
370
     5
100
AcDbHatch
 10
0.0
 20
0.0
 30
0.0
210
0.0
220
0.0
230
1.0
  2
SOLID
 70
     1
 71
     1
 91
        1
 92
        3
 72
     0
 73
     1
 93
        4
 10
5968.759029713119
 20
-4533.735233257452
 10
5967.925695714199
 20
-4533.735233257452
 10
5967.925695714201
 20
-4535.994955257498
 10
5968.759029713119
 20
-4535.994955257498
 97
        0
 75
     0
 76
     1
 98
        0
  0
LWPOLYLINE
  5
2CC
330
1F
100
AcDbEntity
  8
Ech.1_2
 62
     7
370
    20
100
AcDbPolyline
 90
        5
 70
     0
 43
0.0
 10
5968.759029713119
 20
-4533.735233257452
 10
5967.925695714199
 20
-4533.735233257452
 10
5967.925695714201
 20
-4535.994955257498
 10
5968.759029713119
 20
-4535.994955257498
 10
5968.759029713119
 20
-4533.735233257452
  0
HATCH
  5
2CD
330
1F
100
AcDbEntity
  8
Ech.1_2
 62
   252
440
 33554687
370
     5
100
AcDbHatch
 10
0.0
 20
0.0
 30
0.0
210
0.0
220
0.0
230
1.0
  2
SOLID
 70
     1
 71
     1
 91
        1
 92
        3
 72
     0
 73
     1
 93
        4
 10
5967.092363712038
 20
-4533.735233257452
 10
5966.259029713119
 20
-4533.735233257452
 10
5966.259029713119
 20
-4535.994955257498
 10
5967.092363712038
 20
-4535.994955257498
 97
        0
 75
     0
 76
     1
 98
        0
  0
LWPOLYLINE
  5
2CE
330
1F
100
AcDbEntity
  8
Ech.1_2
 62
     7
370
    20
100
AcDbPolyline
 90
        5
 70
     0
 43
0.0
 10
5967.092363712038
 20
-4533.735233257452
 10
5966.259029713119
 20
-4533.735233257452
 10
5966.259029713119
 20
-4535.994955257498
 10
5967.092363712038
 20
-4535.994955257498
 10
5967.092363712038
 20
-4533.735233257452
  0
HATCH
  5
2CF
330
1F
100
AcDbEntity
  8
Ech.1_2
 62
   252
440
 33554687
370
     5
100
AcDbHatch
 10
0.0
 20
0.0
 30
0.0
210
0.0
220
0.0
230
1.0
  2
SOLID
 70
     1
 71
     1
 91
        1
 92
        3
 72
     0
 73
     1
 93
        4
 10
5966.259030711497
 20
-4533.735233257452
 10
5965.425696712578
 20
-4533.735233257452
 10
5965.425696712578
 20
-4535.994955257498
 10
5966.259030711497
 20
-4535.994955257498
 97
        0
 75
     0
 76
     1
 98
        0
  0
LWPOLYLINE
  5
2D0
330
1F
100
AcDbEntity
  8
Ech.1_2
 62
     7
370
    20
100
AcDbPolyline
 90
        5
 70
     0
 43
0.0
 10
5966.259030711497
 20
-4533.735233257452
 10
5965.425696712578
 20
-4533.735233257452
 10
5965.425696712578
 20
-4535.994955257498
 10
5966.259030711497
 20
-4535.994955257498
 10
5966.259030711497
 20
-4533.735233257452
  0
HATCH
  5
2D1
330
1F
100
AcDbEntity
  8
Ech.1_2
 62
   252
440
 33554687
370
     5
100
AcDbHatch
 10
0.0
 20
0.0
 30
0.0
210
0.0
220
0.0
230
1.0
  2
SOLID
 70
     1
 71
     1
 91
        1
 92
        3
 72
     0
 73
     1
 93
        4
 10
5965.425696712578
 20
-4533.735233257452
 10
5964.59236271366
 20
-4533.735233257452
 10
5964.59236271366
 20
-4535.994955257498
 10
5965.425696712578
 20
-4535.994955257498
 97
        0
 75
     0
 76
     1
 98
        0
  0
LWPOLYLINE
  5
2D2
330
1F
100
AcDbEntity
  8
Ech.1_2
 62
     7
370
    20
100
AcDbPolyline
 90
        5
 70
     0
 43
0.0
 10
5965.425696712578
 20
-4533.735233257452
 10
5964.59236271366
 20
-4533.735233257452
 10
5964.59236271366
 20
-4535.994955257498
 10
5965.425696712578
 20
-4535.994955257498
 10
5965.425696712578
 20
-4533.735233257452
  0
HATCH
  5
2D3
330
1F
100
AcDbEntity
  8
Ech.1_2
 62
   252
440
 33554687
370
     5
100
AcDbHatch
 10
0.0
 20
0.0
 30
0.0
210
0.0
220
0.0
230
1.0
  2
SOLID
 70
     1
 71
     1
 91
        1
 92
        3
 72
     0
 73
     1
 93
        4
 10
5964.592363712038
 20
-4533.735233257452
 10
5963.759029713119
 20
-4533.735233257452
 10
5963.759029713119
 20
-4535.994955257498
 10
5964.592363712038
 20
-4535.994955257498
 97
        0
 75
     0
 76
     1
 98
        0
  0
LWPOLYLINE
  5
2D4
330
1F
100
AcDbEntity
  8
Ech.1_2
 62
     7
370
    20
100
AcDbPolyline
 90
        5
 70
     0
 43
0.0
 10
5964.592363712038
 20
-4533.735233257452
 10
5963.759029713119
 20
-4533.735233257452
 10
5963.759029713119
 20
-4535.994955257498
 10
5964.592363712038
 20
-4535.994955257498
 10
5964.592363712038
 20
-4533.735233257452
  0
HATCH
  5
2D5
330
1F
100
AcDbEntity
  8
Ech.1_2
 62
   252
440
 33554687
370
     5
100
AcDbHatch
 10
0.0
 20
0.0
 30
0.0
210
0.0
220
0.0
230
1.0
  2
SOLID
 70
     1
 71
     1
 91
        1
 92
        3
 72
     0
 73
     1
 93
        4
 10
5963.759029713119
 20
-4533.735233257452
 10
5962.925695714201
 20
-4533.735233257452
 10
5962.925695714201
 20
-4535.994955257498
 10
5963.759029713119
 20
-4535.994955257498
 97
        0
 75
     0
 76
     1
 98
        0
  0
LWPOLYLINE
  5
2D6
330
1F
100
AcDbEntity
  8
Ech.1_2
 62
     7
370
    20
100
AcDbPolyline
 90
        5
 70
     0
 43
0.0
 10
5963.759029713119
 20
-4533.735233257452
 10
5962.925695714201
 20
-4533.735233257452
 10
5962.925695714201
 20
-4535.994955257498
 10
5963.759029713119
 20
-4535.994955257498
 10
5963.759029713119
 20
-4533.735233257452
  0
HATCH
  5
2D7
330
1F
100
AcDbEntity
  8
Ech.1_2
 62
   252
440
 33554687
370
     5
100
AcDbHatch
 10
0.0
 20
0.0
 30
0.0
210
0.0
220
0.0
230
1.0
  2
SOLID
 70
     1
 71
     1
 91
        1
 92
        3
 72
     0
 73
     1
 93
        4
 10
5962.925697710956
 20
-4533.735233257452
 10
5962.092363712038
 20
-4533.735233257452
 10
5962.092363712038
 20
-4535.994955257498
 10
5962.925697710956
 20
-4535.994955257498
 97
        0
 75
     0
 76
     1
 98
        0
  0
LWPOLYLINE
  5
2D8
330
1F
100
AcDbEntity
  8
Ech.1_2
 62
     7
370
    20
100
AcDbPolyline
 90
        5
 70
     0
 43
0.0
 10
5962.925697710956
 20
-4533.735233257452
 10
5962.092363712038
 20
-4533.735233257452
 10
5962.092363712038
 20
-4535.994955257498
 10
5962.925697710956
 20
-4535.994955257498
 10
5962.925697710956
 20
-4533.735233257452
  0
HATCH
  5
2D9
330
1F
100
AcDbEntity
  8
Ech.1_2
 62
   252
440
 33554687
370
     5
100
AcDbHatch
 10
0.0
 20
0.0
 30
0.0
210
0.0
220
0.0
230
1.0
  2
SOLID
 70
     1
 71
     1
 91
        1
 92
        3
 72
     0
 73
     1
 93
        4
 10
5962.092365708793
 20
-4533.735233257452
 10
5961.259031709875
 20
-4533.735233257452
 10
5961.259031709875
 20
-4535.994955257498
 10
5962.092365708793
 20
-4535.994955257498
 97
        0
 75
     0
 76
     1
 98
        0
  0
LWPOLYLINE
  5
2DA
330
1F
100
AcDbEntity
  8
Ech.1_2
 62
     7
370
    20
100
AcDbPolyline
 90
        5
 70
     0
 43
0.0
 10
5962.092365708793
 20
-4533.735233257452
 10
5961.259031709875
 20
-4533.735233257452
 10
5961.259031709875
 20
-4535.994955257498
 10
5962.092365708793
 20
-4535.994955257498
 10
5962.092365708793
 20
-4533.735233257452
  0
HATCH
  5
2DB
330
1F
100
AcDbEntity
  8
Ech.1_2
 62
   252
440
 33554687
370
     5
100
AcDbHatch
 10
0.0
 20
0.0
 30
0.0
210
0.0
220
0.0
230
1.0
  2
SOLID
 70
     1
 71
     1
 91
        1
 92
        3
 72
     0
 73
     1
 93
        4
 10
5961.259031709875
 20
-4533.735233257452
 10
5960.425697710956
 20
-4533.735233257452
 10
5960.425697710956
 20
-4535.994955257498
 10
5961.259031709875
 20
-4535.994955257498
 97
        0
 75
     0
 76
     1
 98
        0
  0
LWPOLYLINE
  5
2DC
330
1F
100
AcDbEntity
  8
Ech.1_2
 62
     7
370
    20
100
AcDbPolyline
 90
        5
 70
     0
 43
0.0
 10
5961.259031709875
 20
-4533.735233257452
 10
5960.425697710956
 20
-4533.735233257452
 10
5960.425697710956
 20
-4535.994955257498
 10
5961.259031709875
 20
-4535.994955257498
 10
5961.259031709875
 20
-4533.735233257452
  0
HATCH
  5
2DD
330
1F
100
AcDbEntity
  8
Ech.1_2
 62
   252
440
 33554687
370
     5
100
AcDbHatch
 10
0.0
 20
0.0
 30
0.0
210
0.0
220
0.0
230
1.0
  2
SOLID
 70
     1
 71
     1
 91
        1
 92
        3
 72
     0
 73
     1
 93
        4
 10
5960.425697710956
 20
-4533.735233257452
 10
5959.59236371204
 20
-4533.735233257452
 10
5959.59236371204
 20
-4535.994955257498
 10
5960.425697710956
 20
-4535.994955257498
 97
        0
 75
     0
 76
     1
 98
        0
  0
LWPOLYLINE
  5
2DE
330
1F
100
AcDbEntity
  8
Ech.1_2
 62
     7
370
    20
100
AcDbPolyline
 90
        5
 70
     0
 43
0.0
 10
5960.425697710956
 20
-4533.735233257452
 10
5959.59236371204
 20
-4533.735233257452
 10
5959.59236371204
 20
-4535.994955257498
 10
5960.425697710956
 20
-4535.994955257498
 10
5960.425697710956
 20
-4533.735233257452
  0
HATCH
  5
2DF
330
1F
100
AcDbEntity
  8
Ech.1_2
 62
   252
440
 33554687
370
     5
100
AcDbHatch
 10
0.0
 20
0.0
 30
0.0
210
0.0
220
0.0
230
1.0
  2
SOLID
 70
     1
 71
     1
 91
        1
 92
        3
 72
     0
 73
     1
 93
        4
 10
5959.59236371204
 20
-4533.735233257452
 10
5958.759029713121
 20
-4533.735233257452
 10
5958.759029713121
 20
-4535.994955257498
 10
5959.59236371204
 20
-4535.994955257498
 97
        0
 75
     0
 76
     1
 98
        0
  0
LWPOLYLINE
  5
2E0
330
1F
100
AcDbEntity
  8
Ech.1_2
 62
     7
370
    20
100
AcDbPolyline
 90
        5
 70
     0
 43
0.0
 10
5959.59236371204
 20
-4533.735233257452
 10
5958.759029713121
 20
-4533.735233257452
 10
5958.759029713121
 20
-4535.994955257498
 10
5959.59236371204
 20
-4535.994955257498
 10
5959.59236371204
 20
-4533.735233257452
  0
HATCH
  5
2E1
330
1F
100
AcDbEntity
  8
Ech.1_2
 62
   252
440
 33554687
370
     5
100
AcDbHatch
 10
0.0
 20
0.0
 30
0.0
210
0.0
220
0.0
230
1.0
  2
SOLID
 70
     1
 71
     1
 91
        1
 92
        3
 72
     0
 73
     1
 93
        4
 10
5958.759031709877
 20
-4533.735233257452
 10
5957.925697710958
 20
-4533.735233257452
 10
5957.925697710958
 20
-4535.994955257498
 10
5958.759031709877
 20
-4535.994955257498
 97
        0
 75
     0
 76
     1
 98
        0
  0
LWPOLYLINE
  5
2E2
330
1F
100
AcDbEntity
  8
Ech.1_2
 62
     7
370
    20
100
AcDbPolyline
 90
        5
 70
     0
 43
0.0
 10
5958.759031709877
 20
-4533.735233257452
 10
5957.925697710958
 20
-4533.735233257452
 10
5957.925697710958
 20
-4535.994955257498
 10
5958.759031709877
 20
-4535.994955257498
 10
5958.759031709877
 20
-4533.735233257452
  0
HATCH
  5
2E3
330
1F
100
AcDbEntity
  8
Ech.1_2
 62
   252
440
 33554687
370
     5
100
AcDbHatch
 10
0.0
 20
0.0
 30
0.0
210
0.0
220
0.0
230
1.0
  2
SOLID
 70
     1
 71
     1
 91
        1
 92
        3
 72
     0
 73
     1
 93
        4
 10
5957.925698709336
 20
-4533.735233257452
 10
5957.092364710417
 20
-4533.735233257452
 10
5957.092364710417
 20
-4535.994955257498
 10
5957.925698709336
 20
-4535.994955257498
 97
        0
 75
     0
 76
     1
 98
        0
  0
LWPOLYLINE
  5
2E4
330
1F
100
AcDbEntity
  8
Ech.1_2
 62
     7
370
    20
100
AcDbPolyline
 90
        5
 70
     0
 43
0.0
 10
5957.925698709336
 20
-4533.735233257452
 10
5957.092364710417
 20
-4533.735233257452
 10
5957.092364710417
 20
-4535.994955257498
 10
5957.925698709336
 20
-4535.994955257498
 10
5957.925698709336
 20
-4533.735233257452
  0
HATCH
  5
2E5
330
1F
100
AcDbEntity
  8
Ech.1_2
 62
   252
440
 33554687
370
     5
100
AcDbHatch
 10
0.0
 20
0.0
 30
0.0
210
0.0
220
0.0
230
1.0
  2
SOLID
 70
     1
 71
     1
 91
        1
 92
        3
 72
     0
 73
     1
 93
        4
 10
5957.092364710417
 20
-4533.735233257452
 10
5956.259030711499
 20
-4533.735233257452
 10
5956.259030711499
 20
-4535.994955257498
 10
5957.092364710417
 20
-4535.994955257498
 97
        0
 75
     0
 76
     1
 98
        0
  0
LWPOLYLINE
  5
2E6
330
1F
100
AcDbEntity
  8
Ech.1_2
 62
     7
370
    20
100
AcDbPolyline
 90
        5
 70
     0
 43
0.0
 10
5957.092364710417
 20
-4533.735233257452
 10
5956.259030711499
 20
-4533.735233257452
 10
5956.259030711499
 20
-4535.994955257498
 10
5957.092364710417
 20
-4535.994955257498
 10
5957.092364710417
 20
-4533.735233257452
  0
HATCH
  5
2E7
330
1F
100
AcDbEntity
  8
Ech.1_2
 62
   252
440
 33554687
370
     5
100
AcDbHatch
 10
0.0
 20
0.0
 30
0.0
210
0.0
220
0.0
230
1.0
  2
SOLID
 70
     1
 71
     1
 91
        1
 92
        3
 72
     0
 73
     1
 93
        4
 10
5956.259031709877
 20
-4533.735233257452
 10
5955.425697710958
 20
-4533.735233257452
 10
5955.425697710958
 20
-4535.994955257498
 10
5956.259031709877
 20
-4535.994955257498
 97
        0
 75
     0
 76
     1
 98
        0
  0
LWPOLYLINE
  5
2E8
330
1F
100
AcDbEntity
  8
Ech.1_2
 62
     7
370
    20
100
AcDbPolyline
 90
        5
 70
     0
 43
0.0
 10
5956.259031709877
 20
-4533.735233257452
 10
5955.425697710958
 20
-4533.735233257452
 10
5955.425697710958
 20
-4535.994955257498
 10
5956.259031709877
 20
-4535.994955257498
 10
5956.259031709877
 20
-4533.735233257452
  0
HATCH
  5
2E9
330
1F
100
AcDbEntity
  8
Ech.1_2
 62
   252
440
 33554687
370
     5
100
AcDbHatch
 10
0.0
 20
0.0
 30
0.0
210
0.0
220
0.0
230
1.0
  2
SOLID
 70
     1
 71
     1
 91
        1
 92
        3
 72
     0
 73
     1
 93
        4
 10
5955.425697710958
 20
-4533.735233257452
 10
5954.59236371204
 20
-4533.735233257452
 10
5954.59236371204
 20
-4535.994955257498
 10
5955.425697710958
 20
-4535.994955257498
 97
        0
 75
     0
 76
     1
 98
        0
  0
LWPOLYLINE
  5
2EA
330
1F
100
AcDbEntity
  8
Ech.1_2
 62
     7
370
    20
100
AcDbPolyline
 90
        5
 70
     0
 43
0.0
 10
5955.425697710958
 20
-4533.735233257452
 10
5954.59236371204
 20
-4533.735233257452
 10
5954.59236371204
 20
-4535.994955257498
 10
5955.425697710958
 20
-4535.994955257498
 10
5955.425697710958
 20
-4533.735233257452
  0
HATCH
  5
2EB
330
1F
100
AcDbEntity
  8
Ech.1_2
 62
   252
440
 33554687
370
     5
100
AcDbHatch
 10
0.0
 20
0.0
 30
0.0
210
0.0
220
0.0
230
1.0
  2
SOLID
 70
     1
 71
     1
 91
        1
 92
        3
 72
     0
 73
     1
 93
        4
 10
5954.592365708795
 20
-4533.735233257452
 10
5953.759031709877
 20
-4533.735233257452
 10
5953.759031709877
 20
-4535.994955257498
 10
5954.592365708795
 20
-4535.994955257498
 97
        0
 75
     0
 76
     1
 98
        0
  0
LWPOLYLINE
  5
2EC
330
1F
100
AcDbEntity
  8
Ech.1_2
 62
     7
370
    20
100
AcDbPolyline
 90
        5
 70
     0
 43
0.0
 10
5954.592365708795
 20
-4533.735233257452
 10
5953.759031709877
 20
-4533.735233257452
 10
5953.759031709877
 20
-4535.994955257498
 10
5954.592365708795
 20
-4535.994955257498
 10
5954.592365708795
 20
-4533.735233257452
  0
HATCH
  5
2ED
330
1F
100
AcDbEntity
  8
Ech.1_2
 62
   252
440
 33554687
370
     5
100
AcDbHatch
 10
0.0
 20
0.0
 30
0.0
210
0.0
220
0.0
230
1.0
  2
SOLID
 70
     1
 71
     1
 91
        1
 92
        3
 72
     0
 73
     1
 93
        4
 10
5953.759031709877
 20
-4533.735233257452
 10
5952.925697710958
 20
-4533.735233257452
 10
5952.925697710958
 20
-4535.994955257498
 10
5953.759031709877
 20
-4535.994955257498
 97
        0
 75
     0
 76
     1
 98
        0
  0
LWPOLYLINE
  5
2EE
330
1F
100
AcDbEntity
  8
Ech.1_2
 62
     7
370
    20
100
AcDbPolyline
 90
        5
 70
     0
 43
0.0
 10
5953.759031709877
 20
-4533.735233257452
 10
5952.925697710958
 20
-4533.735233257452
 10
5952.925697710958
 20
-4535.994955257498
 10
5953.759031709877
 20
-4535.994955257498
 10
5953.759031709877
 20
-4533.735233257452
  0
HATCH
  5
2EF
330
1F
100
AcDbEntity
  8
Ech.1_2
 62
   252
440
 33554687
370
     5
100
AcDbHatch
 10
0.0
 20
0.0
 30
0.0
210
0.0
220
0.0
230
1.0
  2
SOLID
 70
     1
 71
     1
 91
        1
 92
        3
 72
     0
 73
     1
 93
        4
 10
5952.925697710958
 20
-4533.735233257452
 10
5952.09236371204
 20
-4533.735233257452
 10
5952.09236371204
 20
-4535.994955257498
 10
5952.925697710958
 20
-4535.994955257498
 97
        0
 75
     0
 76
     1
 98
        0
  0
LWPOLYLINE
  5
2F0
330
1F
100
AcDbEntity
  8
Ech.1_2
 62
     7
370
    20
100
AcDbPolyline
 90
        5
 70
     0
 43
0.0
 10
5952.925697710958
 20
-4533.735233257452
 10
5952.09236371204
 20
-4533.735233257452
 10
5952.09236371204
 20
-4535.994955257498
 10
5952.925697710958
 20
-4535.994955257498
 10
5952.925697710958
 20
-4533.735233257452
  0
HATCH
  5
2F1
330
1F
100
AcDbEntity
  8
Ech.1_2
 62
   252
440
 33554687
370
     5
100
AcDbHatch
 10
0.0
 20
0.0
 30
0.0
210
0.0
220
0.0
230
1.0
  2
SOLID
 70
     1
 71
     1
 91
        1
 92
        3
 72
     0
 73
     1
 93
        4
 10
5952.09236371204
 20
-4533.735233257452
 10
5951.259029713121
 20
-4533.735233257452
 10
5951.259029713121
 20
-4535.994955257498
 10
5952.09236371204
 20
-4535.994955257498
 97
        0
 75
     0
 76
     1
 98
        0
  0
LWPOLYLINE
  5
2F2
330
1F
100
AcDbEntity
  8
Ech.1_2
 62
     7
370
    20
100
AcDbPolyline
 90
        5
 70
     0
 43
0.0
 10
5952.09236371204
 20
-4533.735233257452
 10
5951.259029713121
 20
-4533.735233257452
 10
5951.259029713121
 20
-4535.994955257498
 10
5952.09236371204
 20
-4535.994955257498
 10
5952.09236371204
 20
-4533.735233257452
  0
HATCH
  5
2F3
330
1F
100
AcDbEntity
  8
Ech.1_2
 62
   252
440
 33554687
370
     5
100
AcDbHatch
 10
0.0
 20
0.0
 30
0.0
210
0.0
220
0.0
230
1.0
  2
SOLID
 70
     1
 71
     1
 91
        1
 92
        3
 72
     1
 73
     1
 93
        4
 10
5950.059947711077
 20
-4533.735233257452
 42
-0.3513591548518968
 10
5950.059947711077
 20
-4535.994955257498
 42
0.0
 10
5951.259029713121
 20
-4535.994955257498
 42
0.0
 10
5951.259029713121
 20
-4533.735233257452
 42
0.0
 97
        0
 75
     0
 76
     1
 98
        0
  0
LWPOLYLINE
  5
2F4
330
1F
100
AcDbEntity
  8
Ech.1_2
 62
     7
370
    20
100
AcDbPolyline
 90
        5
 70
     0
 43
0.0
 10
5950.059947711077
 20
-4533.735233257452
 42
-0.3513591548518972
 10
5950.059947711077
 20
-4535.994955257498
 10
5951.259029713121
 20
-4535.994955257498
 10
5951.259029713121
 20
-4533.735233257452
 10
5950.059947711077
 20
-4533.735233257452
  0
HATCH
  5
2F5
330
1F
100
AcDbEntity
  8
Ech.1_2
 62
   252
440
 33554687
370
     5
100
AcDbHatch
 10
0.0
 20
0.0
 30
0.0
210
0.0
220
0.0
230
1.0
  2
SOLID
 70
     1
 71
     1
 91
        1
 92
        3
 72
     1
 73
     1
 93
        3
 10
5947.397920709696
 20
-4534.865094257504
 42
0.0
 10
5950.059947711077
 20
-4535.994955257498
 42
0.3513591548518968
 10
5950.059947711077
 20
-4533.735233257452
 42
0.0
 97
        0
 75
     0
 76
     1
 98
        0
  0
LWPOLYLINE
  5
2F6
330
1F
100
AcDbEntity
  8
Ech.1_2
 62
     7
370
    20
100
AcDbPolyline
 90
        4
 70
     0
 43
0.0
 10
5947.397920709696
 20
-4534.865094257504
 10
5950.059947711077
 20
-4535.994955257498
 42
0.3513591548518956
 10
5950.059947711077
 20
-4533.735233257452
 10
5947.397920709696
 20
-4534.865094257504
  0
HATCH
  5
2F7
330
1F
100
AcDbEntity
  8
Ech.1_2
 62
   252
440
 33554687
370
     5
100
AcDbHatch
 10
0.0
 20
0.0
 30
0.0
210
0.0
220
0.0
230
1.0
  2
SOLID
 70
     1
 71
     1
 91
        1
 92
        3
 72
     1
 73
     1
 93
        6
 10
5987.092365708793
 20
-4533.735233257452
 42
0.0
 10
5990.842542294095
 20
-4533.735233257452
 42
0.414213572738323
 10
5991.398098293374
 20
-4533.179677257474
 42
0.0
 10
5991.398098293374
 20
-4536.550511257534
 42
0.4142135726642369
 10
5990.842542294095
 20
-4535.994955257498
 42
0.0
 10
5987.092365708793
 20
-4535.994955257498
 42
0.0
 97
        0
 75
     0
 76
     1
 98
        0
  0
LWPOLYLINE
  5
2F8
330
1F
100
AcDbEntity
  8
Ech.1_2
 62
     7
370
    20
100
AcDbPolyline
 90
        7
 70
     0
 43
0.0
 10
5987.092365708793
 20
-4533.735233257452
 10
5990.842542294095
 20
-4533.735233257452
 42
0.4142135727366854
 10
5991.398098293374
 20
-4533.179677257474
 10
5991.398098293374
 20
-4536.550511257534
 42
0.4142135726626001
 10
5990.842542294095
 20
-4535.994955257498
 10
5987.092365708793
 20
-4535.994955257498
 10
5987.092365708793
 20
-4533.735233257452
  0
HATCH
  5
2F9
330
1F
100
AcDbEntity
  8
Ech.1_2
 62
   252
440
 33554687
370
     5
100
AcDbHatch
 10
0.0
 20
0.0
 30
0.0
210
0.0
220
0.0
230
1.0
  2
SOLID
 70
     1
 71
     1
 91
        1
 92
        1
 93
        2
 72
     1
 10
5991.703653294275
 20
-4532.346344231089
 11
5991.703653294275
 21
-4537.383844283861
 72
     2
 10
5979.140449903451
 20
-4534.865094257475
 40
12.81320339082451
 50
348.6632793503045
 51
371.3367206496953
 73
     1
 97
        0
 75
     0
 76
     1
 98
        0
  0
LWPOLYLINE
  5
2FA
330
1F
100
AcDbEntity
  8
Ech.1_2
 62
     7
370
    20
100
AcDbPolyline
 90
        3
 70
     0
 43
0.0
 10
5991.703653294275
 20
-4532.346344231089
 10
5991.703653294275
 20
-4537.383844283861
 42
0.0992555820868614
 10
5991.703653294275
 20
-4532.346344231089
  0
HATCH
  5
2FB
330
1F
100
AcDbEntity
  8
Ech.1_2
 62
   252
440
 33554687
370
     5
100
AcDbHatch
 10
0.0
 20
0.0
 30
0.0
210
0.0
220
0.0
230
1.0
  2
SOLID
 70
     1
 71
     1
 91
        1
 92
        3
 72
     0
 73
     1
 93
        6
 10
5991.398098293374
 20
-4532.346344257516
 10
5991.398098293374
 20
-4533.179677257474
 10
5991.398098293374
 20
-4536.550511257534
 10
5991.398098293372
 20
-4537.383844257492
 10
5991.703653294275
 20
-4537.383844283861
 10
5991.703653294275
 20
-4532.346344231089
 97
        0
 75
     0
 76
     1
 98
        0
  0
LWPOLYLINE
  5
2FC
330
1F
100
AcDbEntity
  8
Ech.1_2
 62
     7
370
    20
100
AcDbPolyline
 90
        7
 70
     0
 43
0.0
 10
5991.398098293374
 20
-4532.346344257516
 10
5991.398098293374
 20
-4533.179677257474
 10
5991.398098293374
 20
-4536.550511257534
 10
5991.398098293372
 20
-4537.383844257492
 10
5991.703653294275
 20
-4537.383844283861
 10
5991.703653294275
 20
-4532.346344231089
 10
5991.398098293374
 20
-4532.346344257516
  0
HATCH
  5
2FD
330
1F
100
AcDbEntity
  8
Ech.1_2
 62
   252
440
 33554687
370
     5
100
AcDbHatch
 10
0.0
 20
0.0
 30
0.0
210
0.0
220
0.0
230
1.0
  2
SOLID
 70
     1
 71
     1
 91
        1
 92
        3
 72
     0
 73
     1
 93
        4
 10
5967.925695714199
 20
-4533.735233257452
 10
5967.092361715282
 20
-4533.735233257452
 10
5967.092361715282
 20
-4535.994955257498
 10
5967.925695714201
 20
-4535.994955257498
 97
        0
 75
     0
 76
     1
 98
        0
  0
LWPOLYLINE
  5
2FE
330
1F
100
AcDbEntity
  8
Ech.1_2
 62
     7
370
    20
100
AcDbPolyline
 90
        5
 70
     0
 43
0.0
 10
5967.925695714199
 20
-4533.735233257452
 10
5967.092361715282
 20
-4533.735233257452
 10
5967.092361715282
 20
-4535.994955257498
 10
5967.925695714201
 20
-4535.994955257498
 10
5967.925695714199
 20
-4533.735233257452
  0
LINE
  5
2FF
330
1F
100
AcDbEntity
  8
Ech.1_2
 62
   190
370
    15
100
AcDbLine
 10
5995.027959293233
 20
-4598.7032448398
 30
0.0
 11
5995.027959293233
 21
-4557.920650256781
 31
0.0
  0
LINE
  5
300
330
1F
100
AcDbEntity
  8
Ech.1_2
 62
   190
370
    15
100
AcDbLine
 10
5992.768237293187
 20
-4598.7032448398
 30
0.0
 11
5992.768237293187
 21
-4557.920650256781
 31
0.0
  0
ARC
  5
301
330
1F
100
AcDbEntity
  8
Ech.1_2
 62
   190
370
    15
100
AcDbCircle
 10
5993.89809829321
 20
-4569.622742647435
 30
0.0
 40
12.81320339083424
100
AcDbArc
 50
78.66327935031322
 51
101.3367206496868
  0
LINE
  5
302
330
1F
100
AcDbEntity
  8
Ech.1_2
 62
   190
370
    15
100
AcDbLine
 10
5996.416848293227
 20
-4557.365094257506
 30
0.0
 11
5995.583515293269
 21
-4557.365094257502
 31
0.0
  0
LINE
  5
303
330
1F
100
AcDbEntity
  8
Ech.1_2
 62
   190
370
    15
100
AcDbLine
 10
5996.416848293227
 20
-4557.365094257506
 30
0.0
 11
5996.416848293227
 21
-4557.059539256601
 31
0.0
  0
ARC
  5
304
330
1F
100
AcDbEntity
  8
Ech.1_2
 62
   190
370
    15
100
AcDbCircle
 10
5995.583515283131
 20
-4557.920650247401
 30
0.0
 40
0.5555559898988738
100
AcDbArc
 50
89.99999895452414
 51
180.0000009674357
  0
LINE
  5
305
330
1F
100
AcDbEntity
  8
Ech.1_2
 62
   190
370
    15
100
AcDbLine
 10
5995.583515293269
 20
-4557.365094257502
 30
0.0
 11
5992.212681293209
 21
-4557.365094257502
 31
0.0
  0
LINE
  5
306
330
1F
100
AcDbEntity
  8
Ech.1_2
 62
   190
370
    15
100
AcDbLine
 10
5996.416848293227
 20
-4557.059539256601
 30
0.0
 11
5991.379348293251
 21
-4557.059539256601
 31
0.0
  0
LINE
  5
307
330
1F
100
AcDbEntity
  8
Ech.1_2
 62
   190
370
    15
100
AcDbLine
 10
5991.379348293251
 20
-4557.365094257502
 30
0.0
 11
5991.379348293251
 21
-4557.059539256601
 31
0.0
  0
ARC
  5
308
330
1F
100
AcDbEntity
  8
Ech.1_2
 62
   190
370
    15
100
AcDbCircle
 10
5992.212681303387
 20
-4557.920650247302
 30
0.0
 40
0.5555559897995072
100
AcDbArc
 50
359.9999990223403
 51
90.00000104969679
  0
LINE
  5
309
330
1F
100
AcDbEntity
  8
Ech.1_2
 62
   190
370
    15
100
AcDbLine
 10
5991.379348293251
 20
-4557.365094257502
 30
0.0
 11
5992.212681293209
 21
-4557.365094257502
 31
0.0
  0
LINE
  5
30A
330
1F
100
AcDbEntity
  8
Ech.1_2
 62
   190
370
    15
100
AcDbLine
 10
5995.027959293233
 20
-4570.004160841001
 30
0.0
 11
5992.768237293187
 21
-4570.004160841001
 31
0.0
  0
LINE
  5
30B
330
1F
100
AcDbEntity
  8
Ech.1_2
 62
   190
370
    15
100
AcDbLine
 10
5995.027959293233
 20
-4570.837493841542
 30
0.0
 11
5992.768237293187
 21
-4570.837493841542
 31
0.0
  0
LINE
  5
30C
330
1F
100
AcDbEntity
  8
Ech.1_2
 62
   190
370
    15
100
AcDbLine
 10
5995.027959293233
 20
-4567.504160841001
 30
0.0
 11
5992.768237293187
 21
-4567.504160841001
 31
0.0
  0
LINE
  5
30D
330
1F
100
AcDbEntity
  8
Ech.1_2
 62
   190
370
    15
100
AcDbLine
 10
5995.027959293233
 20
-4568.337493841542
 30
0.0
 11
5992.768237293187
 21
-4568.337493841542
 31
0.0
  0
LINE
  5
30E
330
1F
100
AcDbEntity
  8
Ech.1_2
 62
   190
370
    15
100
AcDbLine
 10
5995.027959293233
 20
-4569.170826842083
 30
0.0
 11
5992.768237293187
 21
-4569.170826842083
 31
0.0
  0
LINE
  5
30F
330
1F
100
AcDbEntity
  8
Ech.1_2
 62
   190
370
    15
100
AcDbLine
 10
5995.027959293233
 20
-4565.004160841001
 30
0.0
 11
5992.768237293187
 21
-4565.004160841001
 31
0.0
  0
LINE
  5
310
330
1F
100
AcDbEntity
  8
Ech.1_2
 62
   190
370
    15
100
AcDbLine
 10
5995.027959293233
 20
-4565.837493841542
 30
0.0
 11
5992.768237293187
 21
-4565.837493841542
 31
0.0
  0
LINE
  5
311
330
1F
100
AcDbEntity
  8
Ech.1_2
 62
   190
370
    15
100
AcDbLine
 10
5995.027959293233
 20
-4566.670826842083
 30
0.0
 11
5992.768237293187
 21
-4566.670826842083
 31
0.0
  0
LINE
  5
312
330
1F
100
AcDbEntity
  8
Ech.1_2
 62
   190
370
    15
100
AcDbLine
 10
5995.027959293233
 20
-4564.170826842083
 30
0.0
 11
5992.768237293187
 21
-4564.170826842083
 31
0.0
  0
LINE
  5
313
330
1F
100
AcDbEntity
  8
Ech.1_2
 62
   190
370
    15
100
AcDbLine
 10
5995.027959293233
 20
-4563.337493841542
 30
0.0
 11
5992.768237293187
 21
-4563.337493841542
 31
0.0
  0
LINE
  5
314
330
1F
100
AcDbEntity
  8
Ech.1_2
 62
   190
370
    15
100
AcDbLine
 10
5995.027959293233
 20
-4562.504160841001
 30
0.0
 11
5992.768237293187
 21
-4562.504160841001
 31
0.0
  0
LINE
  5
315
330
1F
100
AcDbEntity
  8
Ech.1_2
 62
   190
370
    15
100
AcDbLine
 10
5995.027959293233
 20
-4561.670826842083
 30
0.0
 11
5992.768237293187
 21
-4561.670826842083
 31
0.0
  0
LINE
  5
316
330
1F
100
AcDbEntity
  8
Ech.1_2
 62
   190
370
    15
100
AcDbLine
 10
5995.027959293233
 20
-4596.670826842083
 30
0.0
 11
5992.768237293187
 21
-4596.670826842083
 31
0.0
  0
LINE
  5
317
330
1F
100
AcDbEntity
  8
Ech.1_2
 62
   190
370
    15
100
AcDbLine
 10
5995.027959293233
 20
-4595.837493841542
 30
0.0
 11
5992.768237293187
 21
-4595.837493841542
 31
0.0
  0
LINE
  5
318
330
1F
100
AcDbEntity
  8
Ech.1_2
 62
   190
370
    15
100
AcDbLine
 10
5995.027959293233
 20
-4597.504160841001
 30
0.0
 11
5992.768237293187
 21
-4597.504160841001
 31
0.0
  0
LINE
  5
319
330
1F
100
AcDbEntity
  8
Ech.1_2
 62
   190
370
    15
100
AcDbLine
 10
5995.027959293233
 20
-4593.337493841542
 30
0.0
 11
5992.768237293187
 21
-4593.337493841542
 31
0.0
  0
LINE
  5
31A
330
1F
100
AcDbEntity
  8
Ech.1_2
 62
   190
370
    15
100
AcDbLine
 10
5995.027959293233
 20
-4594.170826842083
 30
0.0
 11
5992.768237293187
 21
-4594.170826842083
 31
0.0
  0
LINE
  5
31B
330
1F
100
AcDbEntity
  8
Ech.1_2
 62
   190
370
    15
100
AcDbLine
 10
5995.027959293233
 20
-4595.004160841001
 30
0.0
 11
5992.768237293187
 21
-4595.004160841001
 31
0.0
  0
LINE
  5
31C
330
1F
100
AcDbEntity
  8
Ech.1_2
 62
   190
370
    15
100
AcDbLine
 10
5995.027959293233
 20
-4590.837493841542
 30
0.0
 11
5992.768237293187
 21
-4590.837493841542
 31
0.0
  0
LINE
  5
31D
330
1F
100
AcDbEntity
  8
Ech.1_2
 62
   190
370
    15
100
AcDbLine
 10
5995.027959293233
 20
-4591.670826842083
 30
0.0
 11
5992.768237293187
 21
-4591.670826842083
 31
0.0
  0
LINE
  5
31E
330
1F
100
AcDbEntity
  8
Ech.1_2
 62
   190
370
    15
100
AcDbLine
 10
5995.027959293233
 20
-4592.504160841001
 30
0.0
 11
5992.768237293187
 21
-4592.504160841001
 31
0.0
  0
LINE
  5
31F
330
1F
100
AcDbEntity
  8
Ech.1_2
 62
   190
370
    15
100
AcDbLine
 10
5995.027959293233
 20
-4588.337493841542
 30
0.0
 11
5992.768237293187
 21
-4588.337493841542
 31
0.0
  0
LINE
  5
320
330
1F
100
AcDbEntity
  8
Ech.1_2
 62
   190
370
    15
100
AcDbLine
 10
5995.027959293233
 20
-4589.170826842083
 30
0.0
 11
5992.768237293187
 21
-4589.170826842083
 31
0.0
  0
LINE
  5
321
330
1F
100
AcDbEntity
  8
Ech.1_2
 62
   190
370
    15
100
AcDbLine
 10
5995.027959293233
 20
-4590.004160841001
 30
0.0
 11
5992.768237293187
 21
-4590.004160841001
 31
0.0
  0
LINE
  5
322
330
1F
100
AcDbEntity
  8
Ech.1_2
 62
   190
370
    15
100
AcDbLine
 10
5995.027959293233
 20
-4587.504160841001
 30
0.0
 11
5992.768237293187
 21
-4587.504160841001
 31
0.0
  0
LINE
  5
323
330
1F
100
AcDbEntity
  8
Ech.1_2
 62
   190
370
    15
100
AcDbLine
 10
5995.027959293233
 20
-4574.170826842083
 30
0.0
 11
5992.768237293187
 21
-4574.170826842083
 31
0.0
  0
LINE
  5
324
330
1F
100
AcDbEntity
  8
Ech.1_2
 62
   190
370
    15
100
AcDbLine
 10
5995.027959293233
 20
-4575.004160841001
 30
0.0
 11
5992.768237293187
 21
-4575.004160841001
 31
0.0
  0
LINE
  5
325
330
1F
100
AcDbEntity
  8
Ech.1_2
 62
   190
370
    15
100
AcDbLine
 10
5995.027959293233
 20
-4575.837493841542
 30
0.0
 11
5992.768237293187
 21
-4575.837493841542
 31
0.0
  0
LINE
  5
326
330
1F
100
AcDbEntity
  8
Ech.1_2
 62
   190
370
    15
100
AcDbLine
 10
5995.027959293233
 20
-4576.670826842083
 30
0.0
 11
5992.768237293187
 21
-4576.670826842083
 31
0.0
  0
LINE
  5
327
330
1F
100
AcDbEntity
  8
Ech.1_2
 62
   190
370
    15
100
AcDbLine
 10
5995.027959293233
 20
-4579.170826842083
 30
0.0
 11
5992.768237293187
 21
-4579.170826842083
 31
0.0
  0
LINE
  5
328
330
1F
100
AcDbEntity
  8
Ech.1_2
 62
   190
370
    15
100
AcDbLine
 10
5995.027959293233
 20
-4578.337493841542
 30
0.0
 11
5992.768237293187
 21
-4578.337493841542
 31
0.0
  0
LINE
  5
329
330
1F
100
AcDbEntity
  8
Ech.1_2
 62
   190
370
    15
100
AcDbLine
 10
5995.027959293233
 20
-4577.504160841001
 30
0.0
 11
5992.768237293187
 21
-4577.504160841001
 31
0.0
  0
LINE
  5
32A
330
1F
100
AcDbEntity
  8
Ech.1_2
 62
   190
370
    15
100
AcDbLine
 10
5995.027959293233
 20
-4581.670826842083
 30
0.0
 11
5992.768237293187
 21
-4581.670826842083
 31
0.0
  0
LINE
  5
32B
330
1F
100
AcDbEntity
  8
Ech.1_2
 62
   190
370
    15
100
AcDbLine
 10
5995.027959293233
 20
-4580.837493841542
 30
0.0
 11
5992.768237293187
 21
-4580.837493841542
 31
0.0
  0
LINE
  5
32C
330
1F
100
AcDbEntity
  8
Ech.1_2
 62
   190
370
    15
100
AcDbLine
 10
5995.027959293233
 20
-4580.004160841001
 30
0.0
 11
5992.768237293187
 21
-4580.004160841001
 31
0.0
  0
LINE
  5
32D
330
1F
100
AcDbEntity
  8
Ech.1_2
 62
   190
370
    15
100
AcDbLine
 10
5995.027959293233
 20
-4584.170826842083
 30
0.0
 11
5992.768237293187
 21
-4584.170826842083
 31
0.0
  0
LINE
  5
32E
330
1F
100
AcDbEntity
  8
Ech.1_2
 62
   190
370
    15
100
AcDbLine
 10
5995.027959293233
 20
-4583.337493841542
 30
0.0
 11
5992.768237293187
 21
-4583.337493841542
 31
0.0
  0
LINE
  5
32F
330
1F
100
AcDbEntity
  8
Ech.1_2
 62
   190
370
    15
100
AcDbLine
 10
5995.027959293233
 20
-4582.504160841001
 30
0.0
 11
5992.768237293187
 21
-4582.504160841001
 31
0.0
  0
LINE
  5
330
330
1F
100
AcDbEntity
  8
Ech.1_2
 62
   190
370
    15
100
AcDbLine
 10
5995.027959293233
 20
-4586.670826842083
 30
0.0
 11
5992.768237293187
 21
-4586.670826842083
 31
0.0
  0
LINE
  5
331
330
1F
100
AcDbEntity
  8
Ech.1_2
 62
   190
370
    15
100
AcDbLine
 10
5995.027959293233
 20
-4585.837493841542
 30
0.0
 11
5992.768237293187
 21
-4585.837493841542
 31
0.0
  0
LINE
  5
332
330
1F
100
AcDbEntity
  8
Ech.1_2
 62
   190
370
    15
100
AcDbLine
 10
5995.027959293233
 20
-4585.004160841001
 30
0.0
 11
5992.768237293187
 21
-4585.004160841001
 31
0.0
  0
LINE
  5
333
330
1F
100
AcDbEntity
  8
Ech.1_2
 62
   190
370
    15
100
AcDbLine
 10
5995.027959293233
 20
-4572.504160841001
 30
0.0
 11
5992.768237293187
 21
-4572.504160841001
 31
0.0
  0
LINE
  5
334
330
1F
100
AcDbEntity
  8
Ech.1_2
 62
   190
370
    15
100
AcDbLine
 10
5995.027959293233
 20
-4573.337493841542
 30
0.0
 11
5992.768237293187
 21
-4573.337493841542
 31
0.0
  0
LINE
  5
335
330
1F
100
AcDbEntity
  8
Ech.1_2
 62
   190
370
    15
100
AcDbLine
 10
5995.027959293233
 20
-4574.170826842083
 30
0.0
 11
5992.768237293187
 21
-4574.170826842083
 31
0.0
  0
LINE
  5
336
330
1F
100
AcDbEntity
  8
Ech.1_2
 62
   190
370
    15
100
AcDbLine
 10
5995.027959293233
 20
-4571.670826842083
 30
0.0
 11
5992.768237293187
 21
-4571.670826842083
 31
0.0
  0
LINE
  5
337
330
1F
100
AcDbEntity
  8
Ech.1_2
 62
   190
370
    15
100
AcDbLine
 10
5993.898098293239
 20
-4601.365271841181
 30
0.0
 11
5995.027959293233
 21
-4598.7032448398
 31
0.0
  0
ARC
  5
338
330
1F
100
AcDbEntity
  8
Ech.1_2
 62
   190
370
    15
100
AcDbCircle
 10
5993.898098293239
 20
-4600.112595830408
 30
0.0
 40
1.806337996675907
100
AcDbArc
 50
51.28123991431394
 51
128.7187600856861
  0
LINE
  5
339
330
1F
100
AcDbEntity
  8
Ech.1_2
 62
   190
370
    15
100
AcDbLine
 10
5993.898098293239
 20
-4601.365271841181
 30
0.0
 11
5992.768237293187
 21
-4598.7032448398
 31
0.0
  0
HATCH
  5
33A
330
1F
100
AcDbEntity
  8
Ech.1_2
 62
   252
440
 33554687
370
     5
100
AcDbHatch
 10
0.0
 20
0.0
 30
0.0
210
0.0
220
0.0
230
1.0
  2
SOLID
 70
     1
 71
     1
 91
        1
 92
        3
 72
     0
 73
     1
 93
        4
 10
5992.768237293187
 20
-4561.670826842083
 10
5992.768237293187
 20
-4562.504160841001
 10
5995.027959293233
 20
-4562.504160841001
 10
5995.027959293233
 20
-4561.670826842083
 97
        0
 75
     0
 76
     1
 98
        0
  0
LWPOLYLINE
  5
33B
330
1F
100
AcDbEntity
  8
Ech.1_2
 62
     7
370
    20
100
AcDbPolyline
 90
        5
 70
     0
 43
0.0
 10
5992.768237293187
 20
-4561.670826842083
 10
5992.768237293187
 20
-4562.504160841001
 10
5995.027959293233
 20
-4562.504160841001
 10
5995.027959293233
 20
-4561.670826842083
 10
5992.768237293187
 20
-4561.670826842083
  0
HATCH
  5
33C
330
1F
100
AcDbEntity
  8
Ech.1_2
 62
   252
440
 33554687
370
     5
100
AcDbHatch
 10
0.0
 20
0.0
 30
0.0
210
0.0
220
0.0
230
1.0
  2
SOLID
 70
     1
 71
     1
 91
        1
 92
        3
 72
     0
 73
     1
 93
        4
 10
5992.768237293187
 20
-4562.504160841001
 10
5992.768237293187
 20
-4563.33749483992
 10
5995.027959293233
 20
-4563.33749483992
 10
5995.027959293233
 20
-4562.504160841001
 97
        0
 75
     0
 76
     1
 98
        0
  0
LWPOLYLINE
  5
33D
330
1F
100
AcDbEntity
  8
Ech.1_2
 62
     7
370
    20
100
AcDbPolyline
 90
        5
 70
     0
 43
0.0
 10
5992.768237293187
 20
-4562.504160841001
 10
5992.768237293187
 20
-4563.33749483992
 10
5995.027959293233
 20
-4563.33749483992
 10
5995.027959293233
 20
-4562.504160841001
 10
5992.768237293187
 20
-4562.504160841001
  0
HATCH
  5
33E
330
1F
100
AcDbEntity
  8
Ech.1_2
 62
   252
440
 33554687
370
     5
100
AcDbHatch
 10
0.0
 20
0.0
 30
0.0
210
0.0
220
0.0
230
1.0
  2
SOLID
 70
     1
 71
     1
 91
        1
 92
        3
 72
     0
 73
     1
 93
        4
 10
5992.768237293187
 20
-4563.33749483992
 10
5992.768237293187
 20
-4564.170828838838
 10
5995.027959293233
 20
-4564.170828838838
 10
5995.027959293233
 20
-4563.33749483992
 97
        0
 75
     0
 76
     1
 98
        0
  0
LWPOLYLINE
  5
33F
330
1F
100
AcDbEntity
  8
Ech.1_2
 62
     7
370
    20
100
AcDbPolyline
 90
        5
 70
     0
 43
0.0
 10
5992.768237293187
 20
-4563.33749483992
 10
5992.768237293187
 20
-4564.170828838838
 10
5995.027959293233
 20
-4564.170828838838
 10
5995.027959293233
 20
-4563.33749483992
 10
5992.768237293187
 20
-4563.33749483992
  0
HATCH
  5
340
330
1F
100
AcDbEntity
  8
Ech.1_2
 62
   252
440
 33554687
370
     5
100
AcDbHatch
 10
0.0
 20
0.0
 30
0.0
210
0.0
220
0.0
230
1.0
  2
SOLID
 70
     1
 71
     1
 91
        1
 92
        3
 72
     0
 73
     1
 93
        4
 10
5992.768237293187
 20
-4564.170828838838
 10
5992.768237293187
 20
-4565.004162837757
 10
5995.027959293233
 20
-4565.004162837757
 10
5995.027959293233
 20
-4564.170828838838
 97
        0
 75
     0
 76
     1
 98
        0
  0
LWPOLYLINE
  5
341
330
1F
100
AcDbEntity
  8
Ech.1_2
 62
     7
370
    20
100
AcDbPolyline
 90
        5
 70
     0
 43
0.0
 10
5992.768237293187
 20
-4564.170828838838
 10
5992.768237293187
 20
-4565.004162837757
 10
5995.027959293233
 20
-4565.004162837757
 10
5995.027959293233
 20
-4564.170828838838
 10
5992.768237293187
 20
-4564.170828838838
  0
HATCH
  5
342
330
1F
100
AcDbEntity
  8
Ech.1_2
 62
   252
440
 33554687
370
     5
100
AcDbHatch
 10
0.0
 20
0.0
 30
0.0
210
0.0
220
0.0
230
1.0
  2
SOLID
 70
     1
 71
     1
 91
        1
 92
        3
 72
     0
 73
     1
 93
        4
 10
5992.768237293187
 20
-4565.004160841001
 10
5992.768237293187
 20
-4565.83749483992
 10
5995.027959293233
 20
-4565.83749483992
 10
5995.027959293233
 20
-4565.004160841001
 97
        0
 75
     0
 76
     1
 98
        0
  0
LWPOLYLINE
  5
343
330
1F
100
AcDbEntity
  8
Ech.1_2
 62
     7
370
    20
100
AcDbPolyline
 90
        5
 70
     0
 43
0.0
 10
5992.768237293187
 20
-4565.004160841001
 10
5992.768237293187
 20
-4565.83749483992
 10
5995.027959293233
 20
-4565.83749483992
 10
5995.027959293233
 20
-4565.004160841001
 10
5992.768237293187
 20
-4565.004160841001
  0
HATCH
  5
344
330
1F
100
AcDbEntity
  8
Ech.1_2
 62
   252
440
 33554687
370
     5
100
AcDbHatch
 10
0.0
 20
0.0
 30
0.0
210
0.0
220
0.0
230
1.0
  2
SOLID
 70
     1
 71
     1
 91
        1
 92
        3
 72
     0
 73
     1
 93
        4
 10
5992.768237293187
 20
-4565.837493841542
 10
5992.768237293187
 20
-4566.67082784046
 10
5995.027959293233
 20
-4566.67082784046
 10
5995.027959293233
 20
-4565.837493841542
 97
        0
 75
     0
 76
     1
 98
        0
  0
LWPOLYLINE
  5
345
330
1F
100
AcDbEntity
  8
Ech.1_2
 62
     7
370
    20
100
AcDbPolyline
 90
        5
 70
     0
 43
0.0
 10
5992.768237293187
 20
-4565.837493841542
 10
5992.768237293187
 20
-4566.67082784046
 10
5995.027959293233
 20
-4566.67082784046
 10
5995.027959293233
 20
-4565.837493841542
 10
5992.768237293187
 20
-4565.837493841542
  0
HATCH
  5
346
330
1F
100
AcDbEntity
  8
Ech.1_2
 62
   252
440
 33554687
370
     5
100
AcDbHatch
 10
0.0
 20
0.0
 30
0.0
210
0.0
220
0.0
230
1.0
  2
SOLID
 70
     1
 71
     1
 91
        1
 92
        3
 72
     0
 73
     1
 93
        4
 10
5992.768237293187
 20
-4566.67082784046
 10
5992.768237293187
 20
-4567.504161839379
 10
5995.027959293233
 20
-4567.504161839379
 10
5995.027959293233
 20
-4566.67082784046
 97
        0
 75
     0
 76
     1
 98
        0
  0
LWPOLYLINE
  5
347
330
1F
100
AcDbEntity
  8
Ech.1_2
 62
     7
370
    20
100
AcDbPolyline
 90
        5
 70
     0
 43
0.0
 10
5992.768237293187
 20
-4566.67082784046
 10
5992.768237293187
 20
-4567.504161839379
 10
5995.027959293233
 20
-4567.504161839379
 10
5995.027959293233
 20
-4566.67082784046
 10
5992.768237293187
 20
-4566.67082784046
  0
HATCH
  5
348
330
1F
100
AcDbEntity
  8
Ech.1_2
 62
   252
440
 33554687
370
     5
100
AcDbHatch
 10
0.0
 20
0.0
 30
0.0
210
0.0
220
0.0
230
1.0
  2
SOLID
 70
     1
 71
     1
 91
        1
 92
        3
 72
     0
 73
     1
 93
        4
 10
5992.768237293187
 20
-4567.504160841001
 10
5992.768237293187
 20
-4568.33749483992
 10
5995.027959293233
 20
-4568.33749483992
 10
5995.027959293233
 20
-4567.504160841001
 97
        0
 75
     0
 76
     1
 98
        0
  0
LWPOLYLINE
  5
349
330
1F
100
AcDbEntity
  8
Ech.1_2
 62
     7
370
    20
100
AcDbPolyline
 90
        5
 70
     0
 43
0.0
 10
5992.768237293187
 20
-4567.504160841001
 10
5992.768237293187
 20
-4568.33749483992
 10
5995.027959293233
 20
-4568.33749483992
 10
5995.027959293233
 20
-4567.504160841001
 10
5992.768237293187
 20
-4567.504160841001
  0
HATCH
  5
34A
330
1F
100
AcDbEntity
  8
Ech.1_2
 62
   252
440
 33554687
370
     5
100
AcDbHatch
 10
0.0
 20
0.0
 30
0.0
210
0.0
220
0.0
230
1.0
  2
SOLID
 70
     1
 71
     1
 91
        1
 92
        3
 72
     0
 73
     1
 93
        4
 10
5992.768237293187
 20
-4568.33749483992
 10
5992.768237293187
 20
-4569.170828838838
 10
5995.027959293233
 20
-4569.170828838838
 10
5995.027959293233
 20
-4568.33749483992
 97
        0
 75
     0
 76
     1
 98
        0
  0
LWPOLYLINE
  5
34B
330
1F
100
AcDbEntity
  8
Ech.1_2
 62
     7
370
    20
100
AcDbPolyline
 90
        5
 70
     0
 43
0.0
 10
5992.768237293187
 20
-4568.33749483992
 10
5992.768237293187
 20
-4569.170828838838
 10
5995.027959293233
 20
-4569.170828838838
 10
5995.027959293233
 20
-4568.33749483992
 10
5992.768237293187
 20
-4568.33749483992
  0
HATCH
  5
34C
330
1F
100
AcDbEntity
  8
Ech.1_2
 62
   252
440
 33554687
370
     5
100
AcDbHatch
 10
0.0
 20
0.0
 30
0.0
210
0.0
220
0.0
230
1.0
  2
SOLID
 70
     1
 71
     1
 91
        1
 92
        3
 72
     0
 73
     1
 93
        4
 10
5992.768237293187
 20
-4569.170826842083
 10
5992.768237293187
 20
-4570.004160841001
 10
5995.027959293233
 20
-4570.004160841001
 10
5995.027959293233
 20
-4569.170826842083
 97
        0
 75
     0
 76
     1
 98
        0
  0
LWPOLYLINE
  5
34D
330
1F
100
AcDbEntity
  8
Ech.1_2
 62
     7
370
    20
100
AcDbPolyline
 90
        5
 70
     0
 43
0.0
 10
5992.768237293187
 20
-4569.170826842083
 10
5992.768237293187
 20
-4570.004160841001
 10
5995.027959293233
 20
-4570.004160841001
 10
5995.027959293233
 20
-4569.170826842083
 10
5992.768237293187
 20
-4569.170826842083
  0
HATCH
  5
34E
330
1F
100
AcDbEntity
  8
Ech.1_2
 62
   252
440
 33554687
370
     5
100
AcDbHatch
 10
0.0
 20
0.0
 30
0.0
210
0.0
220
0.0
230
1.0
  2
SOLID
 70
     1
 71
     1
 91
        1
 92
        3
 72
     0
 73
     1
 93
        4
 10
5992.768237293187
 20
-4570.004160841001
 10
5992.768237293187
 20
-4570.83749483992
 10
5995.027959293233
 20
-4570.83749483992
 10
5995.027959293233
 20
-4570.004160841001
 97
        0
 75
     0
 76
     1
 98
        0
  0
LWPOLYLINE
  5
34F
330
1F
100
AcDbEntity
  8
Ech.1_2
 62
     7
370
    20
100
AcDbPolyline
 90
        5
 70
     0
 43
0.0
 10
5992.768237293187
 20
-4570.004160841001
 10
5992.768237293187
 20
-4570.83749483992
 10
5995.027959293233
 20
-4570.83749483992
 10
5995.027959293233
 20
-4570.004160841001
 10
5992.768237293187
 20
-4570.004160841001
  0
HATCH
  5
350
330
1F
100
AcDbEntity
  8
Ech.1_2
 62
   252
440
 33554687
370
     5
100
AcDbHatch
 10
0.0
 20
0.0
 30
0.0
210
0.0
220
0.0
230
1.0
  2
SOLID
 70
     1
 71
     1
 91
        1
 92
        3
 72
     0
 73
     1
 93
        4
 10
5992.768237293187
 20
-4570.83749483992
 10
5992.768237293187
 20
-4571.670828838838
 10
5995.027959293233
 20
-4571.670828838842
 10
5995.027959293233
 20
-4570.83749483992
 97
        0
 75
     0
 76
     1
 98
        0
  0
LWPOLYLINE
  5
351
330
1F
100
AcDbEntity
  8
Ech.1_2
 62
     7
370
    20
100
AcDbPolyline
 90
        5
 70
     0
 43
0.0
 10
5992.768237293187
 20
-4570.83749483992
 10
5992.768237293187
 20
-4571.670828838838
 10
5995.027959293233
 20
-4571.670828838842
 10
5995.027959293233
 20
-4570.83749483992
 10
5992.768237293187
 20
-4570.83749483992
  0
HATCH
  5
352
330
1F
100
AcDbEntity
  8
Ech.1_2
 62
   252
440
 33554687
370
     5
100
AcDbHatch
 10
0.0
 20
0.0
 30
0.0
210
0.0
220
0.0
230
1.0
  2
SOLID
 70
     1
 71
     1
 91
        1
 92
        3
 72
     0
 73
     1
 93
        4
 10
5992.768237293187
 20
-4571.670828838838
 10
5992.768237293187
 20
-4572.504162837757
 10
5995.027959293233
 20
-4572.504162837757
 10
5995.027959293233
 20
-4571.670828838842
 97
        0
 75
     0
 76
     1
 98
        0
  0
LWPOLYLINE
  5
353
330
1F
100
AcDbEntity
  8
Ech.1_2
 62
     7
370
    20
100
AcDbPolyline
 90
        5
 70
     0
 43
0.0
 10
5992.768237293187
 20
-4571.670828838838
 10
5992.768237293187
 20
-4572.504162837757
 10
5995.027959293233
 20
-4572.504162837757
 10
5995.027959293233
 20
-4571.670828838842
 10
5992.768237293187
 20
-4571.670828838838
  0
HATCH
  5
354
330
1F
100
AcDbEntity
  8
Ech.1_2
 62
   252
440
 33554687
370
     5
100
AcDbHatch
 10
0.0
 20
0.0
 30
0.0
210
0.0
220
0.0
230
1.0
  2
SOLID
 70
     1
 71
     1
 91
        1
 92
        3
 72
     0
 73
     1
 93
        4
 10
5992.768237293187
 20
-4572.504162837757
 10
5992.768237293187
 20
-4573.337496836675
 10
5995.027959293233
 20
-4573.337496836675
 10
5995.027959293233
 20
-4572.504162837757
 97
        0
 75
     0
 76
     1
 98
        0
  0
LWPOLYLINE
  5
355
330
1F
100
AcDbEntity
  8
Ech.1_2
 62
     7
370
    20
100
AcDbPolyline
 90
        5
 70
     0
 43
0.0
 10
5992.768237293187
 20
-4572.504162837757
 10
5992.768237293187
 20
-4573.337496836675
 10
5995.027959293233
 20
-4573.337496836675
 10
5995.027959293233
 20
-4572.504162837757
 10
5992.768237293187
 20
-4572.504162837757
  0
HATCH
  5
356
330
1F
100
AcDbEntity
  8
Ech.1_2
 62
   252
440
 33554687
370
     5
100
AcDbHatch
 10
0.0
 20
0.0
 30
0.0
210
0.0
220
0.0
230
1.0
  2
SOLID
 70
     1
 71
     1
 91
        1
 92
        3
 72
     0
 73
     1
 93
        4
 10
5992.768237293187
 20
-4573.33749483992
 10
5992.768237293187
 20
-4574.170828838838
 10
5995.027959293233
 20
-4574.170828838838
 10
5995.027959293233
 20
-4573.33749483992
 97
        0
 75
     0
 76
     1
 98
        0
  0
LWPOLYLINE
  5
357
330
1F
100
AcDbEntity
  8
Ech.1_2
 62
     7
370
    20
100
AcDbPolyline
 90
        5
 70
     0
 43
0.0
 10
5992.768237293187
 20
-4573.33749483992
 10
5992.768237293187
 20
-4574.170828838838
 10
5995.027959293233
 20
-4574.170828838838
 10
5995.027959293233
 20
-4573.33749483992
 10
5992.768237293187
 20
-4573.33749483992
  0
HATCH
  5
358
330
1F
100
AcDbEntity
  8
Ech.1_2
 62
   252
440
 33554687
370
     5
100
AcDbHatch
 10
0.0
 20
0.0
 30
0.0
210
0.0
220
0.0
230
1.0
  2
SOLID
 70
     1
 71
     1
 91
        1
 92
        3
 72
     0
 73
     1
 93
        4
 10
5992.768237293187
 20
-4574.17082784046
 10
5992.768237293187
 20
-4575.004161839379
 10
5995.027959293233
 20
-4575.004161839379
 10
5995.027959293233
 20
-4574.17082784046
 97
        0
 75
     0
 76
     1
 98
        0
  0
LWPOLYLINE
  5
359
330
1F
100
AcDbEntity
  8
Ech.1_2
 62
     7
370
    20
100
AcDbPolyline
 90
        5
 70
     0
 43
0.0
 10
5992.768237293187
 20
-4574.17082784046
 10
5992.768237293187
 20
-4575.004161839379
 10
5995.027959293233
 20
-4575.004161839379
 10
5995.027959293233
 20
-4574.17082784046
 10
5992.768237293187
 20
-4574.17082784046
  0
HATCH
  5
35A
330
1F
100
AcDbEntity
  8
Ech.1_2
 62
   252
440
 33554687
370
     5
100
AcDbHatch
 10
0.0
 20
0.0
 30
0.0
210
0.0
220
0.0
230
1.0
  2
SOLID
 70
     1
 71
     1
 91
        1
 92
        3
 72
     0
 73
     1
 93
        4
 10
5992.768237293187
 20
-4575.004161839379
 10
5992.768237293187
 20
-4575.837495838297
 10
5995.027959293233
 20
-4575.837495838297
 10
5995.027959293233
 20
-4575.004161839379
 97
        0
 75
     0
 76
     1
 98
        0
  0
LWPOLYLINE
  5
35B
330
1F
100
AcDbEntity
  8
Ech.1_2
 62
     7
370
    20
100
AcDbPolyline
 90
        5
 70
     0
 43
0.0
 10
5992.768237293187
 20
-4575.004161839379
 10
5992.768237293187
 20
-4575.837495838297
 10
5995.027959293233
 20
-4575.837495838297
 10
5995.027959293233
 20
-4575.004161839379
 10
5992.768237293187
 20
-4575.004161839379
  0
HATCH
  5
35C
330
1F
100
AcDbEntity
  8
Ech.1_2
 62
   252
440
 33554687
370
     5
100
AcDbHatch
 10
0.0
 20
0.0
 30
0.0
210
0.0
220
0.0
230
1.0
  2
SOLID
 70
     1
 71
     1
 91
        1
 92
        3
 72
     0
 73
     1
 93
        4
 10
5992.768237293187
 20
-4575.83749483992
 10
5992.768237293187
 20
-4576.670828838838
 10
5995.027959293233
 20
-4576.670828838838
 10
5995.027959293233
 20
-4575.83749483992
 97
        0
 75
     0
 76
     1
 98
        0
  0
LWPOLYLINE
  5
35D
330
1F
100
AcDbEntity
  8
Ech.1_2
 62
     7
370
    20
100
AcDbPolyline
 90
        5
 70
     0
 43
0.0
 10
5992.768237293187
 20
-4575.83749483992
 10
5992.768237293187
 20
-4576.670828838838
 10
5995.027959293233
 20
-4576.670828838838
 10
5995.027959293233
 20
-4575.83749483992
 10
5992.768237293187
 20
-4575.83749483992
  0
HATCH
  5
35E
330
1F
100
AcDbEntity
  8
Ech.1_2
 62
   252
440
 33554687
370
     5
100
AcDbHatch
 10
0.0
 20
0.0
 30
0.0
210
0.0
220
0.0
230
1.0
  2
SOLID
 70
     1
 71
     1
 91
        1
 92
        3
 72
     0
 73
     1
 93
        4
 10
5992.768237293187
 20
-4576.670828838838
 10
5992.768237293187
 20
-4577.504162837757
 10
5995.027959293233
 20
-4577.504162837757
 10
5995.027959293233
 20
-4576.670828838838
 97
        0
 75
     0
 76
     1
 98
        0
  0
LWPOLYLINE
  5
35F
330
1F
100
AcDbEntity
  8
Ech.1_2
 62
     7
370
    20
100
AcDbPolyline
 90
        5
 70
     0
 43
0.0
 10
5992.768237293187
 20
-4576.670828838838
 10
5992.768237293187
 20
-4577.504162837757
 10
5995.027959293233
 20
-4577.504162837757
 10
5995.027959293233
 20
-4576.670828838838
 10
5992.768237293187
 20
-4576.670828838838
  0
HATCH
  5
360
330
1F
100
AcDbEntity
  8
Ech.1_2
 62
   252
440
 33554687
370
     5
100
AcDbHatch
 10
0.0
 20
0.0
 30
0.0
210
0.0
220
0.0
230
1.0
  2
SOLID
 70
     1
 71
     1
 91
        1
 92
        3
 72
     0
 73
     1
 93
        4
 10
5992.768237293187
 20
-4577.504160841001
 10
5992.768237293187
 20
-4578.33749483992
 10
5995.027959293233
 20
-4578.33749483992
 10
5995.027959293233
 20
-4577.504160841001
 97
        0
 75
     0
 76
     1
 98
        0
  0
LWPOLYLINE
  5
361
330
1F
100
AcDbEntity
  8
Ech.1_2
 62
     7
370
    20
100
AcDbPolyline
 90
        5
 70
     0
 43
0.0
 10
5992.768237293187
 20
-4577.504160841001
 10
5992.768237293187
 20
-4578.33749483992
 10
5995.027959293233
 20
-4578.33749483992
 10
5995.027959293233
 20
-4577.504160841001
 10
5992.768237293187
 20
-4577.504160841001
  0
HATCH
  5
362
330
1F
100
AcDbEntity
  8
Ech.1_2
 62
   252
440
 33554687
370
     5
100
AcDbHatch
 10
0.0
 20
0.0
 30
0.0
210
0.0
220
0.0
230
1.0
  2
SOLID
 70
     1
 71
     1
 91
        1
 92
        3
 72
     0
 73
     1
 93
        4
 10
5992.768237293187
 20
-4578.33749483992
 10
5992.768237293187
 20
-4579.170828838838
 10
5995.027959293233
 20
-4579.170828838838
 10
5995.027959293233
 20
-4578.33749483992
 97
        0
 75
     0
 76
     1
 98
        0
  0
LWPOLYLINE
  5
363
330
1F
100
AcDbEntity
  8
Ech.1_2
 62
     7
370
    20
100
AcDbPolyline
 90
        5
 70
     0
 43
0.0
 10
5992.768237293187
 20
-4578.33749483992
 10
5992.768237293187
 20
-4579.170828838838
 10
5995.027959293233
 20
-4579.170828838838
 10
5995.027959293233
 20
-4578.33749483992
 10
5992.768237293187
 20
-4578.33749483992
  0
HATCH
  5
364
330
1F
100
AcDbEntity
  8
Ech.1_2
 62
   252
440
 33554687
370
     5
100
AcDbHatch
 10
0.0
 20
0.0
 30
0.0
210
0.0
220
0.0
230
1.0
  2
SOLID
 70
     1
 71
     1
 91
        1
 92
        3
 72
     0
 73
     1
 93
        4
 10
5992.768237293187
 20
-4579.170828838838
 10
5992.768237293187
 20
-4580.004162837757
 10
5995.027959293233
 20
-4580.004162837757
 10
5995.027959293233
 20
-4579.170828838838
 97
        0
 75
     0
 76
     1
 98
        0
  0
LWPOLYLINE
  5
365
330
1F
100
AcDbEntity
  8
Ech.1_2
 62
     7
370
    20
100
AcDbPolyline
 90
        5
 70
     0
 43
0.0
 10
5992.768237293187
 20
-4579.170828838838
 10
5992.768237293187
 20
-4580.004162837757
 10
5995.027959293233
 20
-4580.004162837757
 10
5995.027959293233
 20
-4579.170828838838
 10
5992.768237293187
 20
-4579.170828838838
  0
HATCH
  5
366
330
1F
100
AcDbEntity
  8
Ech.1_2
 62
   252
440
 33554687
370
     5
100
AcDbHatch
 10
0.0
 20
0.0
 30
0.0
210
0.0
220
0.0
230
1.0
  2
SOLID
 70
     1
 71
     1
 91
        1
 92
        3
 72
     0
 73
     1
 93
        4
 10
5992.768237293187
 20
-4580.004162837757
 10
5992.768237293187
 20
-4580.837496836679
 10
5995.027959293233
 20
-4580.837496836675
 10
5995.027959293233
 20
-4580.004162837757
 97
        0
 75
     0
 76
     1
 98
        0
  0
LWPOLYLINE
  5
367
330
1F
100
AcDbEntity
  8
Ech.1_2
 62
     7
370
    20
100
AcDbPolyline
 90
        5
 70
     0
 43
0.0
 10
5992.768237293187
 20
-4580.004162837757
 10
5992.768237293187
 20
-4580.837496836679
 10
5995.027959293233
 20
-4580.837496836675
 10
5995.027959293233
 20
-4580.004162837757
 10
5992.768237293187
 20
-4580.004162837757
  0
HATCH
  5
368
330
1F
100
AcDbEntity
  8
Ech.1_2
 62
   252
440
 33554687
370
     5
100
AcDbHatch
 10
0.0
 20
0.0
 30
0.0
210
0.0
220
0.0
230
1.0
  2
SOLID
 70
     1
 71
     1
 91
        1
 92
        3
 72
     0
 73
     1
 93
        4
 10
5992.768237293187
 20
-4581.670828838838
 10
5992.768237293187
 20
-4582.504162837757
 10
5995.027959293233
 20
-4582.504162837757
 10
5995.027959293233
 20
-4581.670828838838
 97
        0
 75
     0
 76
     1
 98
        0
  0
LWPOLYLINE
  5
369
330
1F
100
AcDbEntity
  8
Ech.1_2
 62
     7
370
    20
100
AcDbPolyline
 90
        5
 70
     0
 43
0.0
 10
5992.768237293187
 20
-4581.670828838838
 10
5992.768237293187
 20
-4582.504162837757
 10
5995.027959293233
 20
-4582.504162837757
 10
5995.027959293233
 20
-4581.670828838838
 10
5992.768237293187
 20
-4581.670828838838
  0
HATCH
  5
36A
330
1F
100
AcDbEntity
  8
Ech.1_2
 62
   252
440
 33554687
370
     5
100
AcDbHatch
 10
0.0
 20
0.0
 30
0.0
210
0.0
220
0.0
230
1.0
  2
SOLID
 70
     1
 71
     1
 91
        1
 92
        3
 72
     0
 73
     1
 93
        4
 10
5992.768237293187
 20
-4582.504161839379
 10
5992.768237293187
 20
-4583.337495838297
 10
5995.027959293233
 20
-4583.337495838297
 10
5995.027959293233
 20
-4582.504161839379
 97
        0
 75
     0
 76
     1
 98
        0
  0
LWPOLYLINE
  5
36B
330
1F
100
AcDbEntity
  8
Ech.1_2
 62
     7
370
    20
100
AcDbPolyline
 90
        5
 70
     0
 43
0.0
 10
5992.768237293187
 20
-4582.504161839379
 10
5992.768237293187
 20
-4583.337495838297
 10
5995.027959293233
 20
-4583.337495838297
 10
5995.027959293233
 20
-4582.504161839379
 10
5992.768237293187
 20
-4582.504161839379
  0
HATCH
  5
36C
330
1F
100
AcDbEntity
  8
Ech.1_2
 62
   252
440
 33554687
370
     5
100
AcDbHatch
 10
0.0
 20
0.0
 30
0.0
210
0.0
220
0.0
230
1.0
  2
SOLID
 70
     1
 71
     1
 91
        1
 92
        3
 72
     0
 73
     1
 93
        4
 10
5992.768237293187
 20
-4583.337495838297
 10
5992.768237293187
 20
-4584.170829837216
 10
5995.027959293233
 20
-4584.170829837216
 10
5995.027959293233
 20
-4583.337495838297
 97
        0
 75
     0
 76
     1
 98
        0
  0
LWPOLYLINE
  5
36D
330
1F
100
AcDbEntity
  8
Ech.1_2
 62
     7
370
    20
100
AcDbPolyline
 90
        5
 70
     0
 43
0.0
 10
5992.768237293187
 20
-4583.337495838297
 10
5992.768237293187
 20
-4584.170829837216
 10
5995.027959293233
 20
-4584.170829837216
 10
5995.027959293233
 20
-4583.337495838297
 10
5992.768237293187
 20
-4583.337495838297
  0
HATCH
  5
36E
330
1F
100
AcDbEntity
  8
Ech.1_2
 62
   252
440
 33554687
370
     5
100
AcDbHatch
 10
0.0
 20
0.0
 30
0.0
210
0.0
220
0.0
230
1.0
  2
SOLID
 70
     1
 71
     1
 91
        1
 92
        3
 72
     0
 73
     1
 93
        4
 10
5992.768237293187
 20
-4584.170828838838
 10
5992.768237293187
 20
-4585.004162837757
 10
5995.027959293233
 20
-4585.004162837757
 10
5995.027959293233
 20
-4584.170828838838
 97
        0
 75
     0
 76
     1
 98
        0
  0
LWPOLYLINE
  5
36F
330
1F
100
AcDbEntity
  8
Ech.1_2
 62
     7
370
    20
100
AcDbPolyline
 90
        5
 70
     0
 43
0.0
 10
5992.768237293187
 20
-4584.170828838838
 10
5992.768237293187
 20
-4585.004162837757
 10
5995.027959293233
 20
-4585.004162837757
 10
5995.027959293233
 20
-4584.170828838838
 10
5992.768237293187
 20
-4584.170828838838
  0
HATCH
  5
370
330
1F
100
AcDbEntity
  8
Ech.1_2
 62
   252
440
 33554687
370
     5
100
AcDbHatch
 10
0.0
 20
0.0
 30
0.0
210
0.0
220
0.0
230
1.0
  2
SOLID
 70
     1
 71
     1
 91
        1
 92
        3
 72
     0
 73
     1
 93
        4
 10
5992.768237293187
 20
-4585.004162837757
 10
5992.768237293187
 20
-4585.837496836675
 10
5995.027959293233
 20
-4585.837496836675
 10
5995.027959293233
 20
-4585.004162837757
 97
        0
 75
     0
 76
     1
 98
        0
  0
LWPOLYLINE
  5
371
330
1F
100
AcDbEntity
  8
Ech.1_2
 62
     7
370
    20
100
AcDbPolyline
 90
        5
 70
     0
 43
0.0
 10
5992.768237293187
 20
-4585.004162837757
 10
5992.768237293187
 20
-4585.837496836675
 10
5995.027959293233
 20
-4585.837496836675
 10
5995.027959293233
 20
-4585.004162837757
 10
5992.768237293187
 20
-4585.004162837757
  0
HATCH
  5
372
330
1F
100
AcDbEntity
  8
Ech.1_2
 62
   252
440
 33554687
370
     5
100
AcDbHatch
 10
0.0
 20
0.0
 30
0.0
210
0.0
220
0.0
230
1.0
  2
SOLID
 70
     1
 71
     1
 91
        1
 92
        3
 72
     0
 73
     1
 93
        4
 10
5992.768237293187
 20
-4585.83749483992
 10
5992.768237293187
 20
-4586.670828838838
 10
5995.027959293233
 20
-4586.670828838838
 10
5995.027959293233
 20
-4585.83749483992
 97
        0
 75
     0
 76
     1
 98
        0
  0
LWPOLYLINE
  5
373
330
1F
100
AcDbEntity
  8
Ech.1_2
 62
     7
370
    20
100
AcDbPolyline
 90
        5
 70
     0
 43
0.0
 10
5992.768237293187
 20
-4585.83749483992
 10
5992.768237293187
 20
-4586.670828838838
 10
5995.027959293233
 20
-4586.670828838838
 10
5995.027959293233
 20
-4585.83749483992
 10
5992.768237293187
 20
-4585.83749483992
  0
HATCH
  5
374
330
1F
100
AcDbEntity
  8
Ech.1_2
 62
   252
440
 33554687
370
     5
100
AcDbHatch
 10
0.0
 20
0.0
 30
0.0
210
0.0
220
0.0
230
1.0
  2
SOLID
 70
     1
 71
     1
 91
        1
 92
        3
 72
     0
 73
     1
 93
        4
 10
5992.768237293187
 20
-4586.670826842083
 10
5992.768237293187
 20
-4587.504160841001
 10
5995.027959293233
 20
-4587.504160841001
 10
5995.027959293233
 20
-4586.670826842083
 97
        0
 75
     0
 76
     1
 98
        0
  0
LWPOLYLINE
  5
375
330
1F
100
AcDbEntity
  8
Ech.1_2
 62
     7
370
    20
100
AcDbPolyline
 90
        5
 70
     0
 43
0.0
 10
5992.768237293187
 20
-4586.670826842083
 10
5992.768237293187
 20
-4587.504160841001
 10
5995.027959293233
 20
-4587.504160841001
 10
5995.027959293233
 20
-4586.670826842083
 10
5992.768237293187
 20
-4586.670826842083
  0
HATCH
  5
376
330
1F
100
AcDbEntity
  8
Ech.1_2
 62
   252
440
 33554687
370
     5
100
AcDbHatch
 10
0.0
 20
0.0
 30
0.0
210
0.0
220
0.0
230
1.0
  2
SOLID
 70
     1
 71
     1
 91
        1
 92
        3
 72
     0
 73
     1
 93
        4
 10
5992.768237293187
 20
-4587.504160841001
 10
5992.768237293187
 20
-4588.33749483992
 10
5995.027959293233
 20
-4588.33749483992
 10
5995.027959293233
 20
-4587.504160841001
 97
        0
 75
     0
 76
     1
 98
        0
  0
LWPOLYLINE
  5
377
330
1F
100
AcDbEntity
  8
Ech.1_2
 62
     7
370
    20
100
AcDbPolyline
 90
        5
 70
     0
 43
0.0
 10
5992.768237293187
 20
-4587.504160841001
 10
5992.768237293187
 20
-4588.33749483992
 10
5995.027959293233
 20
-4588.33749483992
 10
5995.027959293233
 20
-4587.504160841001
 10
5992.768237293187
 20
-4587.504160841001
  0
HATCH
  5
378
330
1F
100
AcDbEntity
  8
Ech.1_2
 62
   252
440
 33554687
370
     5
100
AcDbHatch
 10
0.0
 20
0.0
 30
0.0
210
0.0
220
0.0
230
1.0
  2
SOLID
 70
     1
 71
     1
 91
        1
 92
        3
 72
     0
 73
     1
 93
        4
 10
5992.768237293187
 20
-4588.33749483992
 10
5992.768237293187
 20
-4589.170828838838
 10
5995.027959293233
 20
-4589.170828838838
 10
5995.027959293233
 20
-4588.33749483992
 97
        0
 75
     0
 76
     1
 98
        0
  0
LWPOLYLINE
  5
379
330
1F
100
AcDbEntity
  8
Ech.1_2
 62
     7
370
    20
100
AcDbPolyline
 90
        5
 70
     0
 43
0.0
 10
5992.768237293187
 20
-4588.33749483992
 10
5992.768237293187
 20
-4589.170828838838
 10
5995.027959293233
 20
-4589.170828838838
 10
5995.027959293233
 20
-4588.33749483992
 10
5992.768237293187
 20
-4588.33749483992
  0
HATCH
  5
37A
330
1F
100
AcDbEntity
  8
Ech.1_2
 62
   252
440
 33554687
370
     5
100
AcDbHatch
 10
0.0
 20
0.0
 30
0.0
210
0.0
220
0.0
230
1.0
  2
SOLID
 70
     1
 71
     1
 91
        1
 92
        3
 72
     0
 73
     1
 93
        4
 10
5992.768237293187
 20
-4589.170828838838
 10
5992.768237293187
 20
-4590.004162837757
 10
5995.027959293233
 20
-4590.004162837757
 10
5995.027959293233
 20
-4589.170828838838
 97
        0
 75
     0
 76
     1
 98
        0
  0
LWPOLYLINE
  5
37B
330
1F
100
AcDbEntity
  8
Ech.1_2
 62
     7
370
    20
100
AcDbPolyline
 90
        5
 70
     0
 43
0.0
 10
5992.768237293187
 20
-4589.170828838838
 10
5992.768237293187
 20
-4590.004162837757
 10
5995.027959293233
 20
-4590.004162837757
 10
5995.027959293233
 20
-4589.170828838838
 10
5992.768237293187
 20
-4589.170828838838
  0
HATCH
  5
37C
330
1F
100
AcDbEntity
  8
Ech.1_2
 62
   252
440
 33554687
370
     5
100
AcDbHatch
 10
0.0
 20
0.0
 30
0.0
210
0.0
220
0.0
230
1.0
  2
SOLID
 70
     1
 71
     1
 91
        1
 92
        3
 72
     0
 73
     1
 93
        4
 10
5992.768237293187
 20
-4590.004160841001
 10
5992.768237293187
 20
-4590.83749483992
 10
5995.027959293233
 20
-4590.83749483992
 10
5995.027959293233
 20
-4590.004160841001
 97
        0
 75
     0
 76
     1
 98
        0
  0
LWPOLYLINE
  5
37D
330
1F
100
AcDbEntity
  8
Ech.1_2
 62
     7
370
    20
100
AcDbPolyline
 90
        5
 70
     0
 43
0.0
 10
5992.768237293187
 20
-4590.004160841001
 10
5992.768237293187
 20
-4590.83749483992
 10
5995.027959293233
 20
-4590.83749483992
 10
5995.027959293233
 20
-4590.004160841001
 10
5992.768237293187
 20
-4590.004160841001
  0
HATCH
  5
37E
330
1F
100
AcDbEntity
  8
Ech.1_2
 62
   252
440
 33554687
370
     5
100
AcDbHatch
 10
0.0
 20
0.0
 30
0.0
210
0.0
220
0.0
230
1.0
  2
SOLID
 70
     1
 71
     1
 91
        1
 92
        3
 72
     0
 73
     1
 93
        4
 10
5992.768237293187
 20
-4590.837493841542
 10
5992.768237293187
 20
-4591.67082784046
 10
5995.027959293233
 20
-4591.67082784046
 10
5995.027959293233
 20
-4590.837493841542
 97
        0
 75
     0
 76
     1
 98
        0
  0
LWPOLYLINE
  5
37F
330
1F
100
AcDbEntity
  8
Ech.1_2
 62
     7
370
    20
100
AcDbPolyline
 90
        5
 70
     0
 43
0.0
 10
5992.768237293187
 20
-4590.837493841542
 10
5992.768237293187
 20
-4591.67082784046
 10
5995.027959293233
 20
-4591.67082784046
 10
5995.027959293233
 20
-4590.837493841542
 10
5992.768237293187
 20
-4590.837493841542
  0
HATCH
  5
380
330
1F
100
AcDbEntity
  8
Ech.1_2
 62
   252
440
 33554687
370
     5
100
AcDbHatch
 10
0.0
 20
0.0
 30
0.0
210
0.0
220
0.0
230
1.0
  2
SOLID
 70
     1
 71
     1
 91
        1
 92
        3
 72
     0
 73
     1
 93
        4
 10
5992.768237293187
 20
-4591.67082784046
 10
5992.768237293187
 20
-4592.504161839379
 10
5995.027959293233
 20
-4592.504161839379
 10
5995.027959293233
 20
-4591.67082784046
 97
        0
 75
     0
 76
     1
 98
        0
  0
LWPOLYLINE
  5
381
330
1F
100
AcDbEntity
  8
Ech.1_2
 62
     7
370
    20
100
AcDbPolyline
 90
        5
 70
     0
 43
0.0
 10
5992.768237293187
 20
-4591.67082784046
 10
5992.768237293187
 20
-4592.504161839379
 10
5995.027959293233
 20
-4592.504161839379
 10
5995.027959293233
 20
-4591.67082784046
 10
5992.768237293187
 20
-4591.67082784046
  0
HATCH
  5
382
330
1F
100
AcDbEntity
  8
Ech.1_2
 62
   252
440
 33554687
370
     5
100
AcDbHatch
 10
0.0
 20
0.0
 30
0.0
210
0.0
220
0.0
230
1.0
  2
SOLID
 70
     1
 71
     1
 91
        1
 92
        3
 72
     0
 73
     1
 93
        4
 10
5992.768237293187
 20
-4592.504160841001
 10
5992.768237293187
 20
-4593.33749483992
 10
5995.027959293233
 20
-4593.33749483992
 10
5995.027959293233
 20
-4592.504160841001
 97
        0
 75
     0
 76
     1
 98
        0
  0
LWPOLYLINE
  5
383
330
1F
100
AcDbEntity
  8
Ech.1_2
 62
     7
370
    20
100
AcDbPolyline
 90
        5
 70
     0
 43
0.0
 10
5992.768237293187
 20
-4592.504160841001
 10
5992.768237293187
 20
-4593.33749483992
 10
5995.027959293233
 20
-4593.33749483992
 10
5995.027959293233
 20
-4592.504160841001
 10
5992.768237293187
 20
-4592.504160841001
  0
HATCH
  5
384
330
1F
100
AcDbEntity
  8
Ech.1_2
 62
   252
440
 33554687
370
     5
100
AcDbHatch
 10
0.0
 20
0.0
 30
0.0
210
0.0
220
0.0
230
1.0
  2
SOLID
 70
     1
 71
     1
 91
        1
 92
        3
 72
     0
 73
     1
 93
        4
 10
5992.768237293187
 20
-4593.33749483992
 10
5992.768237293187
 20
-4594.170828838838
 10
5995.027959293233
 20
-4594.170828838838
 10
5995.027959293233
 20
-4593.33749483992
 97
        0
 75
     0
 76
     1
 98
        0
  0
LWPOLYLINE
  5
385
330
1F
100
AcDbEntity
  8
Ech.1_2
 62
     7
370
    20
100
AcDbPolyline
 90
        5
 70
     0
 43
0.0
 10
5992.768237293187
 20
-4593.33749483992
 10
5992.768237293187
 20
-4594.170828838838
 10
5995.027959293233
 20
-4594.170828838838
 10
5995.027959293233
 20
-4593.33749483992
 10
5992.768237293187
 20
-4593.33749483992
  0
HATCH
  5
386
330
1F
100
AcDbEntity
  8
Ech.1_2
 62
   252
440
 33554687
370
     5
100
AcDbHatch
 10
0.0
 20
0.0
 30
0.0
210
0.0
220
0.0
230
1.0
  2
SOLID
 70
     1
 71
     1
 91
        1
 92
        3
 72
     0
 73
     1
 93
        4
 10
5992.768237293187
 20
-4594.170826842083
 10
5992.768237293187
 20
-4595.004160841001
 10
5995.027959293233
 20
-4595.004160841001
 10
5995.027959293233
 20
-4594.170826842083
 97
        0
 75
     0
 76
     1
 98
        0
  0
LWPOLYLINE
  5
387
330
1F
100
AcDbEntity
  8
Ech.1_2
 62
     7
370
    20
100
AcDbPolyline
 90
        5
 70
     0
 43
0.0
 10
5992.768237293187
 20
-4594.170826842083
 10
5992.768237293187
 20
-4595.004160841001
 10
5995.027959293233
 20
-4595.004160841001
 10
5995.027959293233
 20
-4594.170826842083
 10
5992.768237293187
 20
-4594.170826842083
  0
HATCH
  5
388
330
1F
100
AcDbEntity
  8
Ech.1_2
 62
   252
440
 33554687
370
     5
100
AcDbHatch
 10
0.0
 20
0.0
 30
0.0
210
0.0
220
0.0
230
1.0
  2
SOLID
 70
     1
 71
     1
 91
        1
 92
        3
 72
     0
 73
     1
 93
        4
 10
5992.768237293187
 20
-4595.004160841001
 10
5992.768237293187
 20
-4595.83749483992
 10
5995.027959293233
 20
-4595.83749483992
 10
5995.027959293233
 20
-4595.004160841001
 97
        0
 75
     0
 76
     1
 98
        0
  0
LWPOLYLINE
  5
389
330
1F
100
AcDbEntity
  8
Ech.1_2
 62
     7
370
    20
100
AcDbPolyline
 90
        5
 70
     0
 43
0.0
 10
5992.768237293187
 20
-4595.004160841001
 10
5992.768237293187
 20
-4595.83749483992
 10
5995.027959293233
 20
-4595.83749483992
 10
5995.027959293233
 20
-4595.004160841001
 10
5992.768237293187
 20
-4595.004160841001
  0
HATCH
  5
38A
330
1F
100
AcDbEntity
  8
Ech.1_2
 62
   252
440
 33554687
370
     5
100
AcDbHatch
 10
0.0
 20
0.0
 30
0.0
210
0.0
220
0.0
230
1.0
  2
SOLID
 70
     1
 71
     1
 91
        1
 92
        3
 72
     0
 73
     1
 93
        4
 10
5992.768237293187
 20
-4595.83749483992
 10
5992.768237293187
 20
-4596.670828838838
 10
5995.027959293233
 20
-4596.670828838838
 10
5995.027959293233
 20
-4595.83749483992
 97
        0
 75
     0
 76
     1
 98
        0
  0
LWPOLYLINE
  5
38B
330
1F
100
AcDbEntity
  8
Ech.1_2
 62
     7
370
    20
100
AcDbPolyline
 90
        5
 70
     0
 43
0.0
 10
5992.768237293187
 20
-4595.83749483992
 10
5992.768237293187
 20
-4596.670828838838
 10
5995.027959293233
 20
-4596.670828838838
 10
5995.027959293233
 20
-4595.83749483992
 10
5992.768237293187
 20
-4595.83749483992
  0
HATCH
  5
38C
330
1F
100
AcDbEntity
  8
Ech.1_2
 62
   252
440
 33554687
370
     5
100
AcDbHatch
 10
0.0
 20
0.0
 30
0.0
210
0.0
220
0.0
230
1.0
  2
SOLID
 70
     1
 71
     1
 91
        1
 92
        3
 72
     0
 73
     1
 93
        4
 10
5992.768237293187
 20
-4596.670828838838
 10
5992.768237293187
 20
-4597.504162837757
 10
5995.027959293233
 20
-4597.504162837757
 10
5995.027959293233
 20
-4596.670828838838
 97
        0
 75
     0
 76
     1
 98
        0
  0
LWPOLYLINE
  5
38D
330
1F
100
AcDbEntity
  8
Ech.1_2
 62
     7
370
    20
100
AcDbPolyline
 90
        5
 70
     0
 43
0.0
 10
5992.768237293187
 20
-4596.670828838838
 10
5992.768237293187
 20
-4597.504162837757
 10
5995.027959293233
 20
-4597.504162837757
 10
5995.027959293233
 20
-4596.670828838838
 10
5992.768237293187
 20
-4596.670828838838
  0
HATCH
  5
38E
330
1F
100
AcDbEntity
  8
Ech.1_2
 62
   252
440
 33554687
370
     5
100
AcDbHatch
 10
0.0
 20
0.0
 30
0.0
210
0.0
220
0.0
230
1.0
  2
SOLID
 70
     1
 71
     1
 91
        1
 92
        3
 72
     1
 73
     1
 93
        4
 10
5992.768237293187
 20
-4598.7032448398
 42
-0.3513591548518968
 10
5995.027959293233
 20
-4598.7032448398
 42
0.0
 10
5995.027959293233
 20
-4597.504162837757
 42
0.0
 10
5992.768237293187
 20
-4597.504162837757
 42
0.0
 97
        0
 75
     0
 76
     1
 98
        0
  0
LWPOLYLINE
  5
38F
330
1F
100
AcDbEntity
  8
Ech.1_2
 62
     7
370
    20
100
AcDbPolyline
 90
        5
 70
     0
 43
0.0
 10
5992.768237293187
 20
-4598.7032448398
 42
-0.3513591548518972
 10
5995.027959293233
 20
-4598.7032448398
 10
5995.027959293233
 20
-4597.504162837757
 10
5992.768237293187
 20
-4597.504162837757
 10
5992.768237293187
 20
-4598.7032448398
  0
HATCH
  5
390
330
1F
100
AcDbEntity
  8
Ech.1_2
 62
   252
440
 33554687
370
     5
100
AcDbHatch
 10
0.0
 20
0.0
 30
0.0
210
0.0
220
0.0
230
1.0
  2
SOLID
 70
     1
 71
     1
 91
        1
 92
        3
 72
     1
 73
     1
 93
        3
 10
5993.898098293239
 20
-4601.365271841181
 42
0.0
 10
5995.027959293233
 20
-4598.7032448398
 42
0.3513591548518968
 10
5992.768237293187
 20
-4598.7032448398
 42
0.0
 97
        0
 75
     0
 76
     1
 98
        0
  0
LWPOLYLINE
  5
391
330
1F
100
AcDbEntity
  8
Ech.1_2
 62
     7
370
    20
100
AcDbPolyline
 90
        4
 70
     0
 43
0.0
 10
5993.898098293239
 20
-4601.365271841181
 10
5995.027959293233
 20
-4598.7032448398
 42
0.3513591548518956
 10
5992.768237293187
 20
-4598.7032448398
 10
5993.898098293239
 20
-4601.365271841181
  0
HATCH
  5
392
330
1F
100
AcDbEntity
  8
Ech.1_2
 62
   252
440
 33554687
370
     5
100
AcDbHatch
 10
0.0
 20
0.0
 30
0.0
210
0.0
220
0.0
230
1.0
  2
SOLID
 70
     1
 71
     1
 91
        1
 92
        3
 72
     1
 73
     1
 93
        6
 10
5992.768237293187
 20
-4561.670826842083
 42
0.0
 10
5992.768237293187
 20
-4557.920650256781
 42
0.414213572738323
 10
5992.212681293209
 20
-4557.365094257502
 42
0.0
 10
5995.583515293269
 20
-4557.365094257502
 42
0.4142135726642369
 10
5995.027959293233
 20
-4557.920650256781
 42
0.0
 10
5995.027959293233
 20
-4561.670826842083
 42
0.0
 97
        0
 75
     0
 76
     1
 98
        0
  0
LWPOLYLINE
  5
393
330
1F
100
AcDbEntity
  8
Ech.1_2
 62
     7
370
    20
100
AcDbPolyline
 90
        7
 70
     0
 43
0.0
 10
5992.768237293187
 20
-4561.670826842083
 10
5992.768237293187
 20
-4557.920650256781
 42
0.4142135727366852
 10
5992.212681293209
 20
-4557.365094257502
 10
5995.583515293269
 20
-4557.365094257502
 42
0.4142135726626001
 10
5995.027959293233
 20
-4557.920650256781
 10
5995.027959293233
 20
-4561.670826842083
 10
5992.768237293187
 20
-4561.670826842083
  0
HATCH
  5
394
330
1F
100
AcDbEntity
  8
Ech.1_2
 62
   252
440
 33554687
370
     5
100
AcDbHatch
 10
0.0
 20
0.0
 30
0.0
210
0.0
220
0.0
230
1.0
  2
SOLID
 70
     1
 71
     1
 91
        1
 92
        1
 93
        2
 72
     1
 10
5991.379348266824
 20
-4557.059539256601
 11
5996.416848319595
 21
-4557.059539256601
 72
     2
 10
5993.89809829321
 20
-4569.622742647425
 40
12.81320339082451
 50
78.66327935030459
 51
101.3367206496954
 73
     1
 97
        0
 75
     0
 76
     1
 98
        0
  0
LWPOLYLINE
  5
395
330
1F
100
AcDbEntity
  8
Ech.1_2
 62
     7
370
    20
100
AcDbPolyline
 90
        3
 70
     0
 43
0.0
 10
5991.379348266824
 20
-4557.059539256601
 10
5996.416848319595
 20
-4557.059539256601
 42
0.0992555820868614
 10
5991.379348266824
 20
-4557.059539256601
  0
HATCH
  5
396
330
1F
100
AcDbEntity
  8
Ech.1_2
 62
   252
440
 33554687
370
     5
100
AcDbHatch
 10
0.0
 20
0.0
 30
0.0
210
0.0
220
0.0
230
1.0
  2
SOLID
 70
     1
 71
     1
 91
        1
 92
        3
 72
     0
 73
     1
 93
        6
 10
5991.379348293251
 20
-4557.365094257502
 10
5992.212681293209
 20
-4557.365094257502
 10
5995.583515293269
 20
-4557.365094257502
 10
5996.416848293227
 20
-4557.365094257506
 10
5996.416848319595
 20
-4557.059539256601
 10
5991.379348266824
 20
-4557.059539256601
 97
        0
 75
     0
 76
     1
 98
        0
  0
LWPOLYLINE
  5
397
330
1F
100
AcDbEntity
  8
Ech.1_2
 62
     7
370
    20
100
AcDbPolyline
 90
        7
 70
     0
 43
0.0
 10
5991.379348293251
 20
-4557.365094257502
 10
5992.212681293209
 20
-4557.365094257502
 10
5995.583515293269
 20
-4557.365094257502
 10
5996.416848293227
 20
-4557.365094257506
 10
5996.416848319595
 20
-4557.059539256601
 10
5991.379348266824
 20
-4557.059539256601
 10
5991.379348293251
 20
-4557.365094257502
  0
HATCH
  5
398
330
1F
100
AcDbEntity
  8
Ech.1_2
 62
   252
440
 33554687
370
     5
100
AcDbHatch
 10
0.0
 20
0.0
 30
0.0
210
0.0
220
0.0
230
1.0
  2
SOLID
 70
     1
 71
     1
 91
        1
 92
        3
 72
     0
 73
     1
 93
        4
 10
5992.768237293187
 20
-4580.837496836679
 10
5992.768237293187
 20
-4581.670830835594
 10
5995.027959293233
 20
-4581.670830835594
 10
5995.027959293233
 20
-4580.837496836675
 97
        0
 75
     0
 76
     1
 98
        0
  0
LWPOLYLINE
  5
399
330
1F
100
AcDbEntity
  8
Ech.1_2
 62
     7
370
    20
100
AcDbPolyline
 90
        5
 70
     0
 43
0.0
 10
5992.768237293187
 20
-4580.837496836679
 10
5992.768237293187
 20
-4581.670830835594
 10
5995.027959293233
 20
-4581.670830835594
 10
5995.027959293233
 20
-4580.837496836675
 10
5992.768237293187
 20
-4580.837496836679
  0
LWPOLYLINE
  5
39A
330
1F
100
AcDbEntity
  8
Ech.1_2
 62
   190
370
    15
100
AcDbPolyline
 90
        5
 70
     0
 43
0.0
 10
5818.30034309757
 20
-4780.844772333927
 10
6212.30034309757
 20
-4780.844772333927
 10
6212.30034309757
 20
-4835.810001159949
 10
5818.30034309757
 20
-4835.810001159949
 10
5818.30034309757
 20
-4780.844772333927
  0
LWPOLYLINE
  5
39B
330
1F
100
AcDbEntity
  8
Ech.1_2
 62
   190
370
    15
100
AcDbPolyline
 90
        5
 70
     0
 43
0.0
 10
6212.30034309757
 20
-4332.016786362256
 10
5818.30034309757
 20
-4332.016786362256
 10
5818.30034309757
 20
-4293.810001159996
 10
6212.30034309757
 20
-4293.810001159996
 10
6212.30034309757
 20
-4332.016786362256
  0
LWPOLYLINE
  5
39C
330
1F
100
AcDbEntity
  8
Ech.1_2
 62
   190
370
    15
100
AcDbPolyline
 90
        5
 70
     0
 43
0.0
 10
6212.30034309757
 20
-4789.644772333926
 10
5818.30034309757
 20
-4789.644772333926
 10
5818.30034309757
 20
-4780.844772333927
 10
6212.30034309757
 20
-4780.844772333927
 10
6212.30034309757
 20
-4789.644772333926
  0
LWPOLYLINE
  5
39D
330
1F
100
AcDbEntity
  8
Ech.1_2
 62
   190
370
    15
100
AcDbPolyline
 90
        5
 70
     0
 43
0.0
 10
6212.30034309757
 20
-4812.393230426063
 10
5818.30034309757
 20
-4812.393230426063
 10
5818.30034309757
 20
-4802.902419101767
 10
6212.30034309757
 20
-4802.902419101767
 10
6212.30034309757
 20
-4812.393230426063
  0
LINE
  5
39E
330
1F
100
AcDbEntity
  8
Ech.1_2
 62
   190
370
    15
100
AcDbLine
 10
5893.582167882752
 20
-4780.844772333927
 30
0.0
 11
5893.582167882752
 21
-4789.644772333926
 31
0.0
  0
LINE
  5
39F
330
1F
100
AcDbEntity
  8
Ech.1_2
 62
   190
370
    15
100
AcDbLine
 10
6156.381408934971
 20
-4780.844772333927
 30
0.0
 11
6156.381408934971
 21
-4789.644772333926
 31
0.0
  0
LINE
  5
3A0
330
1F
100
AcDbEntity
  8
Ech.1_2
 62
   190
370
    15
100
AcDbLine
 10
5956.044255080893
 20
-4780.844772333927
 30
0.0
 11
5956.044255080893
 21
-4789.644772333926
 31
0.0
  0
IMAGE
  5
3A3
330
1F
100
AcDbEntity
  8
Ech.1_2
160
                 8
310
0800000000000000
100
AcDbRasterImage
 90
        0
 10
5894.726042593922
 20
-4833.79578216753
 30
0.0
 11
0.1133603238866397
 21
0.0
 31
0.0
 12
0.0
 22
0.1111111111111111
 32
0.0
 13
247.0
 23
171.0
340
3A2
 70
     3
280
     0
281
    50
282
    50
283
     0
360
3A4
 71
     1
 91
        2
 14
-0.5
 24
-0.5
 14
246.5
 24
170.5
290
     0
  0
IMAGE
  5
3A6
330
1F
100
AcDbEntity
  8
Ech.1_2
160
                 8
310
0800000000000000
100
AcDbRasterImage
 90
        0
 10
5999.157111090713
 20
-4834.817627089044
 30
0.0
 11
0.16
 21
0.0
 31
0.0
 12
0.0
 22
0.1578947368421053
 32
0.0
 13
200.0
 23
133.0
340
3A5
 70
     3
280
     0
281
    50
282
    50
283
     0
360
3A7
 71
     1
 91
        2
 14
-0.5
 24
-0.5
 14
199.5
 24
132.5
290
     0
  0
IMAGE
  5
3A9
330
1F
100
AcDbEntity
  8
Ech.1_2
160
                 8
310
0800000000000000
100
AcDbRasterImage
 90
        0
 10
6096.506977642372
 20
-4835.299618255023
 30
0.0
 11
0.03770739064856712
 21
0.0
 31
0.0
 12
0.0
 22
0.03793103448275862
 32
0.0
 13
1326.0
 23
580.0
340
3A8
 70
     3
280
     0
281
    50
282
    50
283
     0
360
3AA
 71
     1
 91
        2
 14
-0.5
 24
-0.5
 14
1325.5
 24
579.5
290
     0
  0
LINE
  5
3AB
330
1F
100
AcDbEntity
  8
Ech.1_2
 62
   190
370
    15
100
AcDbLine
 10
6212.30034309757
 20
-4305.810001159953
 30
0.0
 11
5818.30034309757
 21
-4305.810001159953
 31
0.0
  0
LWPOLYLINE
  5
3AC
330
1F
100
AcDbEntity
  8
Ech.1_2
 62
   190
370
    15
100
AcDbPolyline
 90
        5
 70
     0
 43
0.0
 10
6212.30034309757
 20
-4835.810001159949
 10
6212.30034309757
 20
-4293.810001159949
 10
5818.30034309757
 20
-4293.810001159949
 10
5818.30034309757
 20
-4835.810001159949
 10
6212.30034309757
 20
-4835.810001159949
  0
LWPOLYLINE
  5
3AD
330
1F
100
AcDbEntity
  8
Ech.1_2
 62
   190
370
    15
100
AcDbPolyline
 90
        6
 70
     0
 43
0.0
 10
6095.896082796058
 20
-4708.986410282356
 10
6095.896082796051
 20
-4634.48514931723
 10
6088.705143433097
 20
-4627.890948054863
 10
6103.087423437817
 20
-4633.534924061985
 10
6095.896082796047
 20
-4626.940382429393
 10
6095.896082796044
 20
-4544.894354576423
  0
LWPOLYLINE
  5
3AE
330
1F
100
AcDbEntity
  8
Ech.1_2
 62
   190
370
    15
100
AcDbPolyline
 90
        6
 70
     0
 43
0.0
 10
5839.893498309519
 20
-4454.894391485577
 10
5914.350050258845
 20
-4454.894391485563
 10
5920.944251521209
 20
-4447.703452122609
 10
5915.300275514086
 20
-4462.085732127329
 10
5921.894817146678
 20
-4454.894391485563
 10
6003.940844091327
 20
-4454.894391485555
  0
LWPOLYLINE
  5
3AF
330
1F
100
AcDbEntity
  8
Ech.1_2
 62
   190
370
    15
100
AcDbPolyline
 90
        3
 70
     0
 43
0.0
 10
6063.436980782573
 20
-4638.738545020287
 10
6063.436980782573
 20
-4534.520043726923
 10
6095.219515669929
 20
-4534.520043726923
  0
INSERT
  5
3B0
330
1F
100
AcDbEntity
  8
Ech.1_2
 62
   190
370
    15
100
AcDbBlockReference
  2
cw-line-extremity4
 10
6063.436980782573
 20
-4638.738545020287
 30
0.0
 50
90.0
  0
CIRCLE
  5
3B1
330
1F
100
AcDbEntity
  8
Ech.1_2
 62
   154
420
    21156
370
    50
100
AcDbCircle
 10
5893.394144431295
 20
-4407.133161502839
 30
0.0
 40
29.99694606438788
  0
LWPOLYLINE
  5
3B2
330
1F
100
AcDbEntity
  8
Ech.1_2
 62
   154
420
    21156
370
    20
100
AcDbPolyline
 90
      194
 70
     0
 43
0.0
 10
5893.062433337423
 20
-4398.403636548395
 10
5893.433133758967
 20
-4399.473715137034
 10
5893.796283794963
 20
-4400.545212924793
 10
5893.972667922896
 20
-4401.081937518068
 10
5894.144333059861
 20
-4401.619549110793
 10
5894.310335407666
 20
-4402.158225102859
 10
5894.469731168114
 20
-4402.698142894154
 10
5894.621576543016
 20
-4403.23947988457
 10
5894.764927734174
 20
-4403.782413473996
 10
5894.898840943399
 20
-4404.327121062322
 10
5895.022372372493
 20
-4404.873780049439
 10
5895.134578223264
 20
-4405.422567835237
 10
5895.23451469752
 20
-4405.973661819604
 10
5895.321237997066
 20
-4406.527239402433
 10
5895.39380432371
 20
-4407.083477983613
 10
5895.451269879256
 20
-4407.642554963033
 10
5895.474044930934
 20
-4407.923213289549
 10
5895.492690865513
 20
-4408.204647740584
 10
5895.50708970822
 20
-4408.486880491122
 10
5895.517123484285
 20
-4408.769933716154
 10
5895.522674218931
 20
-4409.053829590664
 10
5895.52362393738
 20
-4409.338590289636
 10
5895.51988209018
 20
-4409.62423208935
 10
5895.511704003253
 20
-4409.910696874274
 10
5895.484011827427
 20
-4410.485658305072
 10
5895.444515851591
 20
-4411.062595444208
 10
5895.397189118884
 20
-4411.640628164158
 10
5895.294935555411
 20
-4412.796459836419
 10
5895.247954810929
 20
-4413.372498533689
 10
5895.209035482133
 20
-4413.94611230169
 10
5895.182150612164
 20
-4414.516421012902
 10
5895.174462675222
 20
-4414.800060932364
 10
5895.171273244165
 20
-4415.082544539806
 10
5895.173078949382
 20
-4415.36376181929
 10
5895.180376421269
 20
-4415.643602754877
 10
5895.193662290219
 20
-4415.921957330628
 10
5895.213433186621
 20
-4416.1987155306
 10
5895.240185740871
 20
-4416.473767338853
 10
5895.274416583361
 20
-4416.747002739449
 10
5895.31662234448
 20
-4417.018311716446
 10
5895.367299654626
 20
-4417.287584253905
 10
5895.426945144187
 20
-4417.554710335886
 10
5895.496055443557
 20
-4417.819579946449
 10
5895.575127183129
 20
-4418.082083069654
 10
5895.664656993293
 20
-4418.342109689559
 10
5895.765141504444
 20
-4418.599549790225
 10
5895.877074569703
 20
-4418.8542930789
 10
5896.000669323188
 20
-4419.106201283298
 10
5896.135621183593
 20
-4419.355084529938
 10
5896.281569751593
 20
-4419.600747381909
 10
5896.438154627856
 20
-4419.842994402296
 10
5896.605015413051
 20
-4420.081630154184
 10
5896.781791707845
 20
-4420.316459200659
 10
5896.968123112907
 20
-4420.547286104805
 10
5897.163649228908
 20
-4420.77391542971
 10
5897.368009656516
 20
-4420.996151738458
 10
5897.580843996397
 20
-4421.213799594133
 10
5897.801791849223
 20
-4421.426663559825
 10
5898.030492815665
 20
-4421.634548198616
 10
5898.266586496386
 20
-4421.837258073592
 10
5898.509712492058
 20
-4422.03459774784
 10
5898.75951040335
 20
-4422.226371784444
 10
5899.015619830932
 20
-4422.412384746491
 10
5899.27768037547
 20
-4422.592441197064
 10
5899.545331637635
 20
-4422.76634569925
 10
5899.818213218095
 20
-4422.933902816138
 10
5900.095964717518
 20
-4423.094917110807
 10
5900.378225736576
 20
-4423.249193146347
 10
5900.664635875934
 20
-4423.396535485844
 10
5900.954834736263
 20
-4423.53674869238
 10
5901.248461918231
 20
-4423.669637329042
 10
5901.54515702251
 20
-4423.795005958918
 10
5901.844559649761
 20
-4423.91265914509
 10
5902.146309400661
 20
-4424.022401450647
 10
5902.450045875878
 20
-4424.124037438673
 10
5902.755408676075
 20
-4424.21737167225
 10
5903.062037401926
 20
-4424.302208714469
 10
5903.369571654099
 20
-4424.378353128413
 10
5903.677651033261
 20
-4424.445609477169
 10
5903.985915140084
 20
-4424.503782323821
 10
5904.294003575234
 20
-4424.552676231454
 10
5904.601555939381
 20
-4424.592095763156
 10
5904.908211833193
 20
-4424.62184548201
 10
5905.21361085734
 20
-4424.641729951103
 10
5905.517392612492
 20
-4424.65155373352
 10
5905.819196699314
 20
-4424.651121392348
 10
5906.118662718479
 20
-4424.64023749067
 10
5906.415430270654
 20
-4424.618706591573
 10
5906.709138956506
 20
-4424.586333258143
 10
5906.999428376706
 20
-4424.542922053463
 10
5907.285938131925
 20
-4424.488277540623
 10
5907.568307822828
 20
-4424.422204282705
 10
5907.846177050084
 20
-4424.344506842796
 10
5908.119185414365
 20
-4424.254989783981
 10
5908.38697251634
 20
-4424.153457669347
 10
5908.649177956671
 20
-4424.039715061976
 10
5908.905452402282
 20
-4423.913588419938
 10
5909.155609341154
 20
-4423.775226348884
 10
5909.399586203127
 20
-4423.625022678048
 10
5909.637323526526
 20
-4423.463377386925
 10
5909.868761849681
 20
-4423.29069045502
 10
5910.093841710915
 20
-4423.107361861828
 10
5910.312503648557
 20
-4422.913791586851
 10
5910.524688200934
 20
-4422.710379609589
 10
5910.730335906374
 20
-4422.497525909537
 10
5910.929387303205
 20
-4422.275630466201
 10
5911.121782929752
 20
-4422.045093259076
 10
5911.307463324343
 20
-4421.806314267663
 10
5911.486369025306
 20
-4421.55969347146
 10
5911.658440570967
 20
-4421.30563084997
 10
5911.823618499652
 20
-4421.044526382688
 10
5911.981843349692
 20
-4420.776780049117
 10
5912.133055659412
 20
-4420.502791828755
 10
5912.277195967138
 20
-4420.222961701103
 10
5912.414204811199
 20
-4419.937689645659
 10
5912.54402272992
 20
-4419.647375641922
 10
5912.666590261632
 20
-4419.352419669393
 10
5912.781847944659
 20
-4419.053221707571
 10
5912.889736317329
 20
-4418.750181735954
 10
5912.99019591797
 20
-4418.443699734044
 10
5913.083167284908
 20
-4418.13417568134
 10
5913.168590956471
 20
-4417.822009557341
 10
5913.246407470984
 20
-4417.507601341545
 10
5913.316557366778
 20
-4417.191351013454
 10
5913.378981182179
 20
-4416.873658552567
 10
5913.43361945551
 20
-4416.55492393838
 10
5913.480412725104
 20
-4416.235547150399
 10
5913.519301529286
 20
-4415.915928168118
 10
5913.550226406383
 20
-4415.59646697104
 10
5913.573127894721
 20
-4415.277563538662
 10
5913.587946532629
 20
-4414.959617850485
 10
5913.594622858433
 20
-4414.643029886009
 10
5913.593097410462
 20
-4414.328199624731
 10
5913.58331072704
 20
-4414.015527046152
 10
5913.565203346498
 20
-4413.705412129772
 10
5913.53871580716
 20
-4413.39825485509
 10
5913.503788647356
 20
-4413.094455201606
 10
5913.460362405409
 20
-4412.794413148818
 10
5913.408377619649
 20
-4412.498528676228
 10
5913.347774828404
 20
-4412.207201763334
 10
5913.27849457
 20
-4411.920832389635
 10
5913.200477382766
 20
-4411.639820534631
 10
5913.113663805025
 20
-4411.364566177822
 10
5913.017994375108
 20
-4411.095469298707
 10
5912.913409631341
 20
-4410.832929876787
 10
5912.79985011205
 20
-4410.577347891558
 10
5912.677256355564
 20
-4410.329123322523
 10
5912.545578882368
 20
-4410.088637323703
 10
5912.4049440304
 20
-4409.855939472794
 10
5912.255628432844
 20
-4409.630795903805
 10
5912.097913561212
 20
-4409.412963626091
 10
5911.932080887015
 20
-4409.202199649012
 10
5911.758411881758
 20
-4408.998260981918
 10
5911.577188016956
 20
-4408.800904634169
 10
5911.388690764114
 20
-4408.609887615118
 10
5911.193201594745
 20
-4408.424966934123
 10
5910.991001980356
 20
-4408.245899600537
 10
5910.782373392459
 20
-4408.072442623718
 10
5910.567597302561
 20
-4407.904353013021
 10
5910.346955182174
 20
-4407.741387777802
 10
5910.120728502809
 20
-4407.583303927415
 10
5909.889198735972
 20
-4407.429858471219
 10
5909.652647353174
 20
-4407.280808418566
 10
5909.411355825925
 20
-4407.135910778816
 10
5909.165605625735
 20
-4406.994922561321
 10
5908.915678224113
 20
-4406.857600775437
 10
5908.66185509257
 20
-4406.723702430522
 10
5908.404417702612
 20
-4406.592984535931
 10
5908.143647525752
 20
-4406.465204101018
 10
5907.613234697362
 20
-4406.217483647653
 10
5907.072868379479
 20
-4405.978597145276
 10
5906.524800344174
 20
-4405.746600668729
 10
5905.971282363529
 20
-4405.519550292859
 10
5904.856903654521
 20
-4405.072512142534
 10
5904.300546470316
 20
-4404.848636517771
 10
5903.747746429075
 20
-4404.621931293068
 10
5903.200755302881
 20
-4404.390452543272
 10
5902.661618400463
 20
-4404.152433680437
 10
5902.13072488467
 20
-4403.907530627197
 10
5901.607667409283
 20
-4403.656083450363
 10
5901.092033551123
 20
-4403.398436577491
 10
5900.583410887011
 20
-4403.134934436142
 10
5900.081386993767
 20
-4402.865921453871
 10
5899.585549448213
 20
-4402.591742058235
 10
5899.095485827167
 20
-4402.312740676794
 10
5898.610783707454
 20
-4402.029261737105
 10
5898.131030665892
 20
-4401.741649666725
 10
5897.655814279301
 20
-4401.450248893209
 10
5897.184722124503
 20
-4401.155403844118
 10
5896.71734177832
 20
-4400.85745894701
 10
5895.792066819076
 20
-4400.25364731897
 10
5894.876690016135
 20
-4399.641569429547
 10
5893.967911984062
 20
-4399.023980699201
 10
5893.062433337423
 20
-4398.403636548395
  0
LWPOLYLINE
  5
3B3
330
1F
100
AcDbEntity
  8
Ech.1_2
 62
   154
420
    21156
370
    20
100
AcDbPolyline
 90
       95
 70
     0
 43
0.0
 10
5910.6179965067
 20
-4410.088381710648
 10
5910.59922044428
 20
-4410.62317615384
 10
5910.580245683868
 20
-4411.167366467278
 10
5910.570621698793
 20
-4411.445921284792
 10
5910.560873527475
 20
-4411.730348521211
 10
5910.55097633266
 20
-4412.021822660314
 10
5910.540905277104
 20
-4412.321518185882
 10
5910.530635523556
 20
-4412.630609581698
 10
5910.520142234766
 20
-4412.95027133154
 10
5910.50940057349
 20
-4413.281677919192
 10
5910.498385702473
 20
-4413.626003828432
 10
5910.48707278447
 20
-4413.984423543043
 10
5910.475436982229
 20
-4414.358111546803
 10
5910.46949023788
 20
-4414.551048183297
 10
5910.463453458504
 20
-4414.748242323498
 10
5910.451203339
 20
-4415.155246912889
 10
5910.439382515498
 20
-4415.575243110155
 10
5910.428908038051
 20
-4416.002797047472
 10
5910.420697248099
 20
-4416.432472812659
 10
5910.415667487084
 20
-4416.858834493543
 10
5910.414736096441
 20
-4417.276446177945
 10
5910.416093959208
 20
-4417.48027204891
 10
5910.418820417609
 20
-4417.679871953687
 10
5910.423030139323
 20
-4417.874566403256
 10
5910.428837792028
 20
-4418.063675908593
 10
5910.436358043407
 20
-4418.246520980678
 10
5910.445705561136
 20
-4418.422422130486
 10
5910.456995012899
 20
-4418.590699868996
 10
5910.470341066373
 20
-4418.750674707187
 10
5910.48585838924
 20
-4418.901667156038
 10
5910.503661649176
 20
-4419.042997726523
 10
5910.523865513866
 20
-4419.173986929623
 10
5910.546584650988
 20
-4419.293955276315
 10
5910.571933728219
 20
-4419.402223277574
 10
5910.600027413242
 20
-4419.498111444384
 10
5910.630980373734
 20
-4419.580940287717
 10
5910.664907277379
 20
-4419.650030318553
 10
5910.701922791854
 20
-4419.704702047871
 10
5910.742141584838
 20
-4419.744275986648
 10
5910.763488044422
 20
-4419.758188944264
 10
5910.785678324012
 20
-4419.768072645861
 10
5910.808726757072
 20
-4419.773842155312
 10
5910.832647677059
 20
-4419.775412536492
 10
5910.857454725534
 20
-4419.772701078406
 10
5910.883137363613
 20
-4419.765702834202
 10
5910.909655128443
 20
-4419.754509092272
 10
5910.936965700188
 20
-4419.739217113056
 10
5910.993795985071
 20
-4419.696727484503
 10
5911.053289659572
 20
-4419.639012032044
 10
5911.115108164999
 20
-4419.566848839175
 10
5911.178912942661
 20
-4419.481015989394
 10
5911.244365433865
 20
-4419.382291566199
 10
5911.311127079919
 20
-4419.271453653088
 10
5911.37885932213
 20
-4419.149280333556
 10
5911.447223601809
 20
-4419.016549691102
 10
5911.515881360259
 20
-4418.874039809224
 10
5911.584494038794
 20
-4418.722528771418
 10
5911.652723078719
 20
-4418.562794661183
 10
5911.72022992134
 20
-4418.395615562015
 10
5911.786676007969
 20
-4418.221769557414
 10
5911.851722779915
 20
-4418.042034730875
 10
5911.915031678478
 20
-4417.857189165895
 10
5911.976264144972
 20
-4417.668010945974
 10
5912.091145546987
 20
-4417.279768875294
 10
5912.193658516415
 20
-4416.883533186814
 10
5912.239430442181
 20
-4416.684362944645
 10
5912.281094583725
 20
-4416.485528548516
 10
5912.318312382356
 20
-4416.287808081928
 10
5912.350745279383
 20
-4416.091979628377
 10
5912.378055342099
 20
-4415.89882013804
 10
5912.400038951447
 20
-4415.708863393508
 10
5912.416792951204
 20
-4415.522099205639
 10
5912.428454962675
 20
-4415.338443559784
 10
5912.435162607168
 20
-4415.157812441291
 10
5912.437053505983
 20
-4414.980121835513
 10
5912.434265280428
 20
-4414.805287727802
 10
5912.426935551809
 20
-4414.633226103509
 10
5912.41520194143
 20
-4414.463852947982
 10
5912.399202070595
 20
-4414.297084246574
 10
5912.379073560611
 20
-4414.132835984637
 10
5912.35495403278
 20
-4413.971024147521
 10
5912.32698110841
 20
-4413.811564720577
 10
5912.295292408803
 20
-4413.654373689155
 10
5912.260025555267
 20
-4413.499367038608
 10
5912.221318169107
 20
-4413.346460754286
 10
5912.134132284129
 20
-4413.046613225721
 10
5912.034835724311
 20
-4412.754158986268
 10
5911.924529460091
 20
-4412.468425918733
 10
5911.804314461911
 20
-4412.188741905927
 10
5911.67529170021
 20
-4411.914434830657
 10
5911.538562145431
 20
-4411.644832575732
 10
5911.395226768009
 20
-4411.379263023958
 10
5911.246386538388
 20
-4411.117054058144
 10
5910.936595404304
 20
-4410.600029415627
 10
5910.6179965067
 20
-4410.088381710648
  0
LWPOLYLINE
  5
3B4
330
1F
100
AcDbEntity
  8
Ech.1_2
 62
   154
420
    21156
370
    20
100
AcDbPolyline
 90
      171
 70
     0
 43
0.0
 10
5880.679070731263
 20
-4404.430013050242
 10
5881.012443599601
 20
-4405.588899152996
 10
5881.172269278784
 20
-4406.169612774162
 10
5881.323862051985
 20
-4406.751851079074
 10
5881.464477617207
 20
-4407.336122295648
 10
5881.591371672457
 20
-4407.922934651802
 10
5881.648815539473
 20
-4408.217452578445
 10
5881.701799915744
 20
-4408.512796375448
 10
5881.749981763527
 20
-4408.809029571307
 10
5881.793018045069
 20
-4409.106215694505
 10
5881.830565722625
 20
-4409.404418273536
 10
5881.862281758441
 20
-4409.703700836886
 10
5881.887823114769
 20
-4410.004126913047
 10
5881.906846753863
 20
-4410.305760030507
 10
5881.91900963797
 20
-4410.608663717758
 10
5881.923968729342
 20
-4410.912901503286
 10
5881.92138099023
 20
-4411.218536915582
 10
5881.910903382884
 20
-4411.525633483135
 10
5881.892496125704
 20
-4411.834188847312
 10
5881.867805771262
 20
-4412.143834267098
 10
5881.808493575222
 20
-4412.76441373425
 10
5881.750805185693
 20
-4413.383408201722
 10
5881.728144589392
 20
-4413.69107237191
 10
5881.712579549941
 20
-4413.996853865776
 10
5881.706339935752
 20
-4414.30025720785
 10
5881.711655615232
 20
-4414.600786922669
 10
5881.73075645679
 20
-4414.897947534761
 10
5881.746173147224
 20
-4415.045109591202
 10
5881.765872328832
 20
-4415.191243568662
 10
5881.790132735163
 20
-4415.336287532705
 10
5881.819233099766
 20
-4415.4801795489
 10
5881.853452156198
 20
-4415.622857682815
 10
5881.893068638004
 20
-4415.764260000013
 10
5881.938361278739
 20
-4415.904324566062
 10
5881.989608811952
 20
-4416.04298944653
 10
5882.047089971193
 20
-4416.180192706979
 10
5882.111064037129
 20
-4416.315870037309
 10
5882.181518768732
 20
-4416.449923967963
 10
5882.258242475852
 20
-4416.582232671772
 10
5882.34101886134
 20
-4416.712673758941
 10
5882.429631628041
 20
-4416.841124839666
 10
5882.523864478804
 20
-4416.967463524154
 10
5882.623501116478
 20
-4417.091567422603
 10
5882.728325243914
 20
-4417.213314145218
 10
5882.838120563953
 20
-4417.332581302197
 10
5882.952670779448
 20
-4417.449246503744
 10
5883.071759593246
 20
-4417.563187360061
 10
5883.195170708195
 20
-4417.674281481348
 10
5883.322687827142
 20
-4417.782406477809
 10
5883.454094652937
 20
-4417.887439959642
 10
5883.589174888427
 20
-4417.989259537052
 10
5883.727712236462
 20
-4418.08774282024
 10
5883.869490399888
 20
-4418.182767419407
 10
5884.014293081554
 20
-4418.274210944756
 10
5884.161903984305
 20
-4418.361951006486
 10
5884.312106810993
 20
-4418.445865214802
 10
5884.464685264466
 20
-4418.525831179904
 10
5884.619423047571
 20
-4418.601726511994
 10
5884.776103863156
 20
-4418.673428821273
 10
5884.934511414069
 20
-4418.740815717944
 10
5885.094429403156
 20
-4418.803764812205
 10
5885.255641533269
 20
-4418.862153714264
 10
5885.417931507256
 20
-4418.91586003432
 10
5885.581083027962
 20
-4418.964761382572
 10
5885.744879798237
 20
-4419.008735369224
 10
5885.909105520928
 20
-4419.047659604478
 10
5886.073543898884
 20
-4419.081411698534
 10
5886.237978634953
 20
-4419.109869261596
 10
5886.402193431984
 20
-4419.132909903864
 10
5886.565971992824
 20
-4419.15041123554
 10
5886.729098020321
 20
-4419.162250866826
 10
5886.891355217322
 20
-4419.168306407924
 10
5887.052527286678
 20
-4419.168455469036
 10
5887.212397931235
 20
-4419.162575660362
 10
5887.370750853841
 20
-4419.150544592105
 10
5887.527369757344
 20
-4419.132239874465
 10
5887.682038344594
 20
-4419.107539117646
 10
5887.834540318436
 20
-4419.07631993185
 10
5887.984659381725
 20
-4419.038459927277
 10
5888.132179237297
 20
-4418.993836714128
 10
5888.276883588012
 20
-4418.942327902607
 10
5888.418556136711
 20
-4418.883811102913
 10
5888.556981009759
 20
-4418.818164830333
 10
5888.691996756907
 20
-4418.74538390755
 10
5888.823549380411
 20
-4418.665692792322
 10
5888.951597476518
 20
-4418.579342856841
 10
5889.07609964147
 20
-4418.486585473301
 10
5889.19701447152
 20
-4418.387672013893
 10
5889.314300562911
 20
-4418.282853850809
 10
5889.42791651189
 20
-4418.172382356242
 10
5889.537820914705
 20
-4418.056508902384
 10
5889.643972367602
 20
-4417.935484861427
 10
5889.746329466831
 20
-4417.809561605563
 10
5889.844850808634
 20
-4417.678990506986
 10
5889.939494989261
 20
-4417.544022937887
 10
5890.03022060496
 20
-4417.404910270458
 10
5890.116986251975
 20
-4417.261903876892
 10
5890.199750526554
 20
-4417.115255129381
 10
5890.278472024944
 20
-4416.965215400118
 10
5890.353109343393
 20
-4416.812036061293
 10
5890.423621078146
 20
-4416.655968485101
 10
5890.48996582545
 20
-4416.497264043734
 10
5890.552102181554
 20
-4416.336174109381
 10
5890.609988742703
 20
-4416.172950054239
 10
5890.663584105145
 20
-4416.007843250498
 10
5890.712846865127
 20
-4415.841105070349
 10
5890.757735618893
 20
-4415.672986885987
 10
5890.798208962696
 20
-4415.503740069603
 10
5890.834225492777
 20
-4415.333615993388
 10
5890.865743805383
 20
-4415.162866029536
 10
5890.892722496767
 20
-4414.99174155024
 10
5890.915120163169
 20
-4414.820493927688
 10
5890.932895400842
 20
-4414.649374534079
 10
5890.946006806026
 20
-4414.4786347416
 10
5890.954412974974
 20
-4414.308525922445
 10
5890.95807250393
 20
-4414.139299448807
 10
5890.95694398914
 20
-4413.971206692877
 10
5890.950986026856
 20
-4413.804499026848
 10
5890.940157213319
 20
-4413.639427822913
 10
5890.924416144779
 20
-4413.476244453263
 10
5890.90372141748
 20
-4413.315200290091
 10
5890.878031627674
 20
-4413.156546705588
 10
5890.847305371602
 20
-4413.000535071948
 10
5890.811501245516
 20
-4412.847416761362
 10
5890.77057784566
 20
-4412.697443146024
 10
5890.724493768282
 20
-4412.550865598125
 10
5890.673207609629
 20
-4412.407935489858
 10
5890.616677965945
 20
-4412.268904193413
 10
5890.554863433483
 20
-4412.134023080985
 10
5890.487722608485
 20
-4412.003543524766
 10
5890.41522180049
 20
-4411.87770278185
 10
5890.337451330456
 20
-4411.756511172096
 10
5890.254601581277
 20
-4411.63979590497
 10
5890.16686578999
 20
-4411.527378966927
 10
5890.074437193641
 20
-4411.41908234443
 10
5889.977509029269
 20
-4411.314728023929
 10
5889.876274533915
 20
-4411.214137991883
 10
5889.770926944625
 20
-4411.117134234752
 10
5889.661659498436
 20
-4411.023538738987
 10
5889.548665432392
 20
-4410.933173491048
 10
5889.432137983535
 20
-4410.845860477393
 10
5889.312270388905
 20
-4410.761421684476
 10
5889.189255885544
 20
-4410.679679098755
 10
5888.9345591008
 20
-4410.523570494729
 10
5888.669593525635
 20
-4410.376110556968
 10
5888.395905056383
 20
-4410.235875177128
 10
5888.115039589375
 20
-4410.101440246861
 10
5887.828543020946
 20
-4409.971381657822
 10
5887.244840165161
 20
-4409.718697070047
 10
5886.657163659697
 20
-4409.466428547036
 10
5886.365700029168
 20
-4409.336890038952
 10
5886.07788067522
 20
-4409.203183222023
 10
5885.795251494185
 20
-4409.063883987901
 10
5885.519287163991
 20
-4408.91763520189
 10
5885.250443089529
 20
-4408.76403825166
 10
5884.988413094592
 20
-4408.603410714241
 10
5884.732872699205
 20
-4408.436087379503
 10
5884.483497423392
 20
-4408.262403037307
 10
5884.239962787173
 20
-4408.082692477524
 10
5884.00194431057
 20
-4407.897290490016
 10
5883.769117513609
 20
-4407.706531864652
 10
5883.541157916309
 20
-4407.510751391295
 10
5883.317741038694
 20
-4407.310283859813
 10
5883.098542400787
 20
-4407.105464060074
 10
5882.883237522611
 20
-4406.896626781941
 10
5882.671501924184
 20
-4406.684106815281
 10
5882.463011125535
 20
-4406.468238949961
 10
5882.257440646682
 20
-4406.249357975846
 10
5881.853762728455
 20
-4405.803895860693
 10
5881.457872329693
 20
-4405.350398788758
 10
5880.679070731263
 20
-4404.430013050242
  0
LWPOLYLINE
  5
3B5
330
1F
100
AcDbEntity
  8
Ech.1_2
 62
   154
420
    21156
370
    20
100
AcDbPolyline
 90
       70
 70
     0
 43
0.0
 10
5889.45685175228
 20
-4411.88339417498
 10
5889.413684358222
 20
-4412.154701603705
 10
5889.370529647745
 20
-4412.430541262123
 10
5889.327400304428
 20
-4412.715445379928
 10
5889.28430901185
 20
-4413.013946186811
 10
5889.262781598206
 20
-4413.169711670435
 10
5889.241268453589
 20
-4413.330575912465
 10
5889.219771163449
 20
-4413.497105441611
 10
5889.198291313229
 20
-4413.669866786583
 10
5889.176830488381
 20
-4413.849426476097
 10
5889.15539027435
 20
-4414.03635103886
 10
5889.133972256582
 20
-4414.231207003587
 10
5889.11262760374
 20
-4414.434321002743
 10
5889.091827332048
 20
-4414.643988339166
 10
5889.072253769375
 20
-4414.857481935983
 10
5889.039522507721
 20
-4415.285008516897
 10
5889.027732677053
 20
-4415.493571804041
 10
5889.019905292033
 20
-4415.695021957679
 10
5889.016724286817
 20
-4415.88662412933
 10
5889.018873595564
 20
-4416.065643470524
 10
5889.022160847097
 20
-4416.149579939548
 10
5889.02703715243
 20
-4416.229345132781
 10
5889.033588003331
 20
-4416.304597194159
 10
5889.04189889157
 20
-4416.374994267626
 10
5889.052055308917
 20
-4416.440194497121
 10
5889.064142747143
 20
-4416.499856026585
 10
5889.078246698014
 20
-4416.553636999957
 10
5889.094452653303
 20
-4416.60119556118
 10
5889.112846104781
 20
-4416.642189854195
 10
5889.133512544211
 20
-4416.676278022938
 10
5889.156537463368
 20
-4416.703118211354
 10
5889.18200635402
 20
-4416.722368563382
 10
5889.210004707936
 20
-4416.733687222962
 10
5889.24061057271
 20
-4416.736749539015
 10
5889.27375252744
 20
-4416.73157631189
 10
5889.30922085081
 20
-4416.718507981718
 10
5889.346800615171
 20
-4416.69789702153
 10
5889.386276892864
 20
-4416.670095904351
 10
5889.427434756238
 20
-4416.635457103207
 10
5889.470059277633
 20
-4416.594333091123
 10
5889.513935529398
 20
-4416.547076341125
 10
5889.558848583877
 20
-4416.494039326239
 10
5889.604583513417
 20
-4416.43557451949
 10
5889.650925390361
 20
-4416.372034393906
 10
5889.697659287054
 20
-4416.303771422513
 10
5889.744570275843
 20
-4416.231138078334
 10
5889.838063819087
 20
-4416.074170163728
 10
5889.929686598854
 20
-4415.903950434295
 10
5890.017719193905
 20
-4415.723298674243
 10
5890.100442183004
 20
-4415.53503466778
 10
5890.17613614491
 20
-4415.341978199112
 10
5890.243081658386
 20
-4415.146949052447
 10
5890.299559302194
 20
-4414.95276701199
 10
5890.343855315043
 20
-4414.762244563064
 10
5890.375004702076
 20
-4414.577228605392
 10
5890.393532394232
 20
-4414.397644677371
 10
5890.400139596785
 20
-4414.223190999581
 10
5890.395527515001
 20
-4414.053565792592
 10
5890.380397354153
 20
-4413.88846727698
 10
5890.355450319512
 20
-4413.727593673321
 10
5890.321387616347
 20
-4413.57064320219
 10
5890.278910449933
 20
-4413.41731408416
 10
5890.22872002554
 20
-4413.267304539809
 10
5890.171517548435
 20
-4413.120312789708
 10
5890.108004223893
 20
-4412.976037054435
 10
5890.038881257183
 20
-4412.834175554563
 10
5889.964849853575
 20
-4412.694426510665
 10
5889.804866556757
 20
-4412.420058673102
 10
5889.633663975602
 20
-4412.150519306339
 10
5889.45685175228
 20
-4411.88339417498
  0
LWPOLYLINE
  5
3B6
330
1F
100
AcDbEntity
  8
Ech.1_2
 62
   154
420
    21156
370
    20
100
AcDbPolyline
 90
      170
 70
     0
 43
0.0
 10
5899.430450509031
 20
-4389.359326889546
 10
5899.71207886612
 20
-4389.887067623241
 10
5899.988886699688
 20
-4390.415825433791
 10
5900.25605348621
 20
-4390.946617398044
 10
5900.38451507323
 20
-4391.213094024328
 10
5900.508758702167
 20
-4391.480460592858
 10
5900.62818180758
 20
-4391.748844238241
 10
5900.742181824032
 20
-4392.018372095084
 10
5900.85015618608
 20
-4392.289171297994
 10
5900.951502328287
 20
-4392.561368981575
 10
5901.045617685209
 20
-4392.835092280436
 10
5901.131899691408
 20
-4393.110468329183
 10
5901.209745781443
 20
-4393.387624262423
 10
5901.278553389872
 20
-4393.666687214762
 10
5901.337719951257
 20
-4393.947784320807
 10
5901.386642900157
 20
-4394.231042715165
 10
5901.424719671132
 20
-4394.516589532443
 10
5901.451347698741
 20
-4394.804551907245
 10
5901.46592441952
 20
-4395.095056973736
 10
5901.468369199726
 20
-4395.388114440412
 10
5901.460592315191
 20
-4395.683286093632
 10
5901.444978679109
 20
-4395.9800269341
 10
5901.399780805056
 20
-4396.576036179585
 10
5901.351854883099
 20
-4397.171782182489
 10
5901.332831187131
 20
-4397.468193969731
 10
5901.320280218761
 20
-4397.762904948437
 10
5901.316586891177
 20
-4398.055370119308
 10
5901.324136117569
 20
-4398.34504448305
 10
5901.345312811132
 20
-4398.631383040365
 10
5901.361756743474
 20
-4398.773131079332
 10
5901.382501885054
 20
-4398.913840791954
 10
5901.407846350023
 20
-4399.053444053322
 10
5901.438088252527
 20
-4399.191872738522
 10
5901.473525706717
 20
-4399.329058722643
 10
5901.514456826741
 20
-4399.464933880771
 10
5901.561179726747
 20
-4399.599430087996
 10
5901.613992520886
 20
-4399.732479219404
 10
5901.673155829163
 20
-4399.86401026825
 10
5901.738620338506
 20
-4399.993928406048
 10
5901.810183849621
 20
-4400.122127053338
 10
5901.887643086468
 20
-4400.248499547898
 10
5901.970794772998
 20
-4400.372939227509
 10
5902.05943563317
 20
-4400.495339429951
 10
5902.153362390938
 20
-4400.615593493
 10
5902.252371770262
 20
-4400.73359475444
 10
5902.356260495095
 20
-4400.849236552049
 10
5902.464825289391
 20
-4400.962412223604
 10
5902.57786287711
 20
-4401.073015106888
 10
5902.695169982207
 20
-4401.180938539679
 10
5902.816543328638
 20
-4401.286075859757
 10
5902.941779640355
 20
-4401.388320404903
 10
5903.070675641319
 20
-4401.487565512892
 10
5903.203028055485
 20
-4401.583704521508
 10
5903.338633606806
 20
-4401.676630768528
 10
5903.477289019241
 20
-4401.766237591731
 10
5903.618791016744
 20
-4401.852418328899
 10
5903.762936323273
 20
-4401.935066317811
 10
5903.909521662784
 20
-4402.014074896246
 10
5904.05834375923
 20
-4402.089337401982
 10
5904.209199336571
 20
-4402.160747172801
 10
5904.361885118758
 20
-4402.22819754648
 10
5904.516197829752
 20
-4402.291581860801
 10
5904.671934193506
 20
-4402.350793453543
 10
5904.828890933977
 20
-4402.405725662484
 10
5904.98686477512
 20
-4402.456271825405
 10
5905.145652440891
 20
-4402.502325280085
 10
5905.30505065525
 20
-4402.543779364303
 10
5905.464856142147
 20
-4402.580527415838
 10
5905.624865625541
 20
-4402.612462772473
 10
5905.784875829389
 20
-4402.639478771985
 10
5905.944683477644
 20
-4402.661468752152
 10
5906.104085294261
 20
-4402.678326050755
 10
5906.262878003201
 20
-4402.689944005575
 10
5906.42085832842
 20
-4402.696215954389
 10
5906.577822993868
 20
-4402.697035234979
 10
5906.733568723505
 20
-4402.692295185123
 10
5906.887892241286
 20
-4402.681889142599
 10
5907.040590271168
 20
-4402.665710445191
 10
5907.191459537105
 20
-4402.643652430673
 10
5907.340296763056
 20
-4402.615608436829
 10
5907.486898672973
 20
-4402.581471801435
 10
5907.631061990816
 20
-4402.541135862275
 10
5907.772583440539
 20
-4402.494493957124
 10
5907.911259746097
 20
-4402.441439423763
 10
5908.046887631448
 20
-4402.381865599974
 10
5908.179276034367
 20
-4402.315688945396
 10
5908.308339513153
 20
-4402.243025868859
 10
5908.434046720473
 20
-4402.164095184691
 10
5908.55636674749
 20
-4402.07911653736
 10
5908.675268685375
 20
-4401.98830957133
 10
5908.790721625297
 20
-4401.891893931066
 10
5908.902694658424
 20
-4401.790089261034
 10
5909.011156875927
 20
-4401.683115205701
 10
5909.116077368971
 20
-4401.571191409529
 10
5909.217425228727
 20
-4401.454537516987
 10
5909.315169546363
 20
-4401.33337317254
 10
5909.40927941305
 20
-4401.207918020653
 10
5909.499723919955
 20
-4401.07839170579
 10
5909.586472158247
 20
-4400.945013872419
 10
5909.669493219097
 20
-4400.808004165005
 10
5909.74875619367
 20
-4400.667582228012
 10
5909.824230173139
 20
-4400.523967705908
 10
5909.895884248667
 20
-4400.377380243157
 10
5909.963687511429
 20
-4400.228039484226
 10
5910.02760905259
 20
-4400.076165073577
 10
5910.087617963321
 20
-4399.921976655679
 10
5910.143683334791
 20
-4399.765693874997
 10
5910.195774258167
 20
-4399.607536375996
 10
5910.243859824618
 20
-4399.447723803141
 10
5910.287909125315
 20
-4399.2864758009
 10
5910.327891251423
 20
-4399.124012013734
 10
5910.363775294117
 20
-4398.960552086114
 10
5910.395530344558
 20
-4398.796315662501
 10
5910.423125493922
 20
-4398.631522387364
 10
5910.446529833373
 20
-4398.466391905165
 10
5910.465712454083
 20
-4398.301143860374
 10
5910.480642447218
 20
-4398.135997897454
 10
5910.491288903948
 20
-4397.97117366087
 10
5910.497620915443
 20
-4397.806890795087
 10
5910.499607572871
 20
-4397.643368944575
 10
5910.497217967399
 20
-4397.480827753792
 10
5910.4904211902
 20
-4397.319486867212
 10
5910.479186332439
 20
-4397.159565929294
 10
5910.463482485287
 20
-4397.001284584508
 10
5910.443278739911
 20
-4396.844862477315
 10
5910.418544187483
 20
-4396.690519252186
 10
5910.389247919167
 20
-4396.538474553583
 10
5910.355359026137
 20
-4396.388948025971
 10
5910.31684659956
 20
-4396.242159313819
 10
5910.273679730603
 20
-4396.098328061589
 10
5910.225827510436
 20
-4395.957673913748
 10
5910.173259030226
 20
-4395.820416514762
 10
5910.115943381146
 20
-4395.686775509096
 10
5910.053849654365
 20
-4395.556970541216
 10
5909.98694893736
 20
-4395.431217428149
 10
5909.915287848416
 20
-4395.309587175297
 10
5909.839009938667
 20
-4395.191964943291
 10
5909.758265119656
 20
-4395.078223698245
 10
5909.67320330293
 20
-4394.968236406273
 10
5909.583974400035
 20
-4394.86187603349
 10
5909.490728322514
 20
-4394.75901554601
 10
5909.393614981911
 20
-4394.659527909948
 10
5909.292784289777
 20
-4394.563286091419
 10
5909.18838615765
 20
-4394.470163056537
 10
5909.080570497081
 20
-4394.380031771417
 10
5908.969487219611
 20
-4394.292765202172
 10
5908.855286236787
 20
-4394.208236314917
 10
5908.618130801256
 20
-4394.046883450837
 10
5908.370303482851
 20
-4393.894956908093
 10
5908.113003573932
 20
-4393.751440415602
 10
5907.84743036686
 20
-4393.615317702277
 10
5907.574783153998
 20
-4393.485572497038
 10
5907.296261227706
 20
-4393.361188528797
 10
5907.013063880347
 20
-4393.241149526475
 10
5906.726390404277
 20
-4393.124439218983
 10
5905.568921060159
 20
-4392.670559515658
 10
5905.282856325974
 20
-4392.555248616067
 10
5905.000365032288
 20
-4392.437290871986
 10
5904.721611731359
 20
-4392.316534181286
 10
5904.446427086436
 20
-4392.193105291091
 10
5904.174641161521
 20
-4392.067131448996
 10
5903.906084020612
 20
-4391.938739902594
 10
5903.377976346816
 20
-4391.675212687259
 10
5902.860744577042
 20
-4391.403541625844
 10
5902.353029223288
 20
-4391.12474469911
 10
5901.853470797551
 20
-4390.839839887814
 10
5901.36070981183
 20
-4390.549845172721
 10
5900.873386778121
 20
-4390.255778534588
 10
5900.390142208419
 20
-4389.958657954174
 10
5899.430450509031
 20
-4389.359326889546
  0
LWPOLYLINE
  5
3B7
330
1F
100
AcDbEntity
  8
Ech.1_2
 62
   154
420
    21156
370
    20
100
AcDbPolyline
 90
      167
 70
     0
 43
0.0
 10
5879.866345502756
 20
-4392.767911695471
 10
5880.186709568834
 20
-4393.26064881123
 10
5880.500788811391
 20
-4393.754862658417
 10
5880.653507616499
 20
-4394.002984834867
 10
5880.802298406908
 20
-4394.25202996846
 10
5880.946375579676
 20
-4394.502182650626
 10
5881.084953531865
 20
-4394.753627472793
 10
5881.217246660533
 20
-4395.006549026386
 10
5881.342469362739
 20
-4395.261131902837
 10
5881.459836035549
 20
-4395.517560693577
 10
5881.568561076017
 20
-4395.77601999003
 10
5881.667858881203
 20
-4396.036694383626
 10
5881.75694384817
 20
-4396.299768465795
 10
5881.835030373976
 20
-4396.565426827964
 10
5881.901332855682
 20
-4396.833854061562
 10
5881.955065690348
 20
-4397.105234758018
 10
5881.995443275034
 20
-4397.379753508761
 10
5882.021685785524
 20
-4397.657593530127
 10
5882.033956411239
 20
-4397.938713641445
 10
5882.034398258994
 20
-4398.22260152616
 10
5882.02540410074
 20
-4398.508685458077
 10
5882.009366708418
 20
-4398.796393710993
 10
5881.98867885398
 20
-4399.085154558713
 10
5881.942922846534
 20
-4399.663547133759
 10
5881.92264023742
 20
-4399.952035408687
 10
5881.907278253974
 20
-4400.239289373621
 10
5881.899229668143
 20
-4400.52473730236
 10
5881.900887251873
 20
-4400.807807468706
 10
5881.91464377711
 20
-4401.087928146459
 10
5881.926806884026
 20
-4401.226703762675
 10
5881.942892015802
 20
-4401.36452760942
 10
5881.963198268924
 20
-4401.501328220915
 10
5881.988024739892
 20
-4401.637034131389
 10
5882.017670525198
 20
-4401.771573875064
 10
5882.052434721332
 20
-4401.904875986167
 10
5882.092616424791
 20
-4402.036868998923
 10
5882.138514732065
 20
-4402.167481447555
 10
5882.190427901629
 20
-4402.296641825524
 10
5882.248510309851
 20
-4402.424271626959
 10
5882.31261050057
 20
-4402.55027746837
 10
5882.382537892368
 20
-4402.674564062972
 10
5882.458101903818
 20
-4402.797036123981
 10
5882.539111953495
 20
-4402.917598364607
 10
5882.625377459977
 20
-4403.036155498066
 10
5882.716707841836
 20
-4403.152612237573
 10
5882.812912517651
 20
-4403.266873296338
 10
5882.913800905996
 20
-4403.378843387577
 10
5883.019182425447
 20
-4403.488427224504
 10
5883.128866494579
 20
-4403.595529520332
 10
5883.242662531968
 20
-4403.700054988275
 10
5883.360379956189
 20
-4403.801908341547
 10
5883.481828185819
 20
-4403.900994293362
 10
5883.606816639433
 20
-4403.997217556932
 10
5883.735154735607
 20
-4404.090482845474
 10
5883.866651892915
 20
-4404.180694872199
 10
5884.001117529934
 20
-4404.267758350321
 10
5884.13836106524
 20
-4404.351577993057
 10
5884.278191917408
 20
-4404.432058513615
 10
5884.420419505014
 20
-4404.509104625215
 10
5884.564853246631
 20
-4404.582621041064
 10
5884.711302560837
 20
-4404.652512474381
 10
5884.859576866211
 20
-4404.718683638379
 10
5885.00948558132
 20
-4404.78103924627
 10
5885.160838124749
 20
-4404.83948401127
 10
5885.313443915067
 20
-4404.893922646591
 10
5885.467112370852
 20
-4404.944259865446
 10
5885.62165291068
 20
-4404.99040038105
 10
5885.776874953127
 20
-4405.03224890662
 10
5885.932587916765
 20
-4405.069710155362
 10
5886.088601220174
 20
-4405.102688840496
 10
5886.244724281928
 20
-4405.131089675236
 10
5886.400766520601
 20
-4405.154817372791
 10
5886.556537354772
 20
-4405.173776646378
 10
5886.711846203014
 20
-4405.187872209211
 10
5886.866502483904
 20
-4405.197008774504
 10
5887.020315616017
 20
-4405.201091055469
 10
5887.173095017927
 20
-4405.20002376532
 10
5887.324650108212
 20
-4405.193711617271
 10
5887.474790305449
 20
-4405.182059324537
 10
5887.623325028208
 20
-4405.16497160033
 10
5887.770063695069
 20
-4405.142353157867
 10
5887.914815724606
 20
-4405.114108710356
 10
5888.057390535397
 20
-4405.080142971015
 10
5888.197597546015
 20
-4405.040360653059
 10
5888.335246175037
 20
-4404.994666469698
 10
5888.470145841038
 20
-4404.942965134148
 10
5888.602105962594
 20
-4404.885161359622
 10
5888.730948757662
 20
-4404.821182545255
 10
5888.856599005756
 20
-4404.751137872678
 10
5888.979030768171
 20
-4404.675223871694
 10
5889.098218419202
 20
-4404.59363762687
 10
5889.214136333132
 20
-4404.506576222764
 10
5889.326758884253
 20
-4404.414236743939
 10
5889.436060446852
 20
-4404.316816274954
 10
5889.542015395218
 20
-4404.214511900372
 10
5889.64459810364
 20
-4404.107520704752
 10
5889.743782946407
 20
-4403.996039772657
 10
5889.839544297807
 20
-4403.880266188648
 10
5889.931856532126
 20
-4403.760397037282
 10
5890.020694023657
 20
-4403.636629403126
 10
5890.106031146686
 20
-4403.509160370736
 10
5890.187842275503
 20
-4403.378187024677
 10
5890.266101784396
 20
-4403.243906449507
 10
5890.340784047652
 20
-4403.106515729789
 10
5890.411863439561
 20
-4402.966211950083
 10
5890.479314334413
 20
-4402.823192194949
 10
5890.543111106495
 20
-4402.677653548952
 10
5890.603228130096
 20
-4402.529793096648
 10
5890.659639779505
 20
-4402.379807922601
 10
5890.712320429009
 20
-4402.227895111371
 10
5890.761244452897
 20
-4402.074251747521
 10
5890.80638622546
 20
-4401.91907491561
 10
5890.847720120984
 20
-4401.762561700199
 10
5890.918861778073
 20
-4401.446314457122
 10
5890.974464418473
 20
-4401.12708669478
 10
5891.014323036491
 20
-4400.80645508966
 10
5891.02828427283
 20
-4400.646105557461
 10
5891.03823262644
 20
-4400.485996318251
 10
5891.044142471608
 20
-4400.326324456591
 10
5891.045988182625
 20
-4400.167287057041
 10
5891.043744133777
 20
-4400.009081204162
 10
5891.037384699356
 20
-4399.851903982518
 10
5891.026884253648
 20
-4399.695952476666
 10
5891.012217170942
 20
-4399.54142377117
 10
5890.993357825528
 20
-4399.388514950589
 10
5890.970280591693
 20
-4399.237423099486
 10
5890.942959843726
 20
-4399.08834530242
 10
5890.911369955915
 20
-4398.941478643953
 10
5890.87548530255
 20
-4398.797020208646
 10
5890.835280257919
 20
-4398.65516708106
 10
5890.79072919631
 20
-4398.516116345756
 10
5890.741806492014
 20
-4398.380065087296
 10
5890.688486519318
 20
-4398.247210390241
 10
5890.630743652508
 20
-4398.117749339148
 10
5890.568552265875
 20
-4397.991879018583
 10
5890.501909400497
 20
-4397.869753257208
 10
5890.4309145384
 20
-4397.751330391664
 10
5890.355696087778
 20
-4397.636513557706
 10
5890.276382458542
 20
-4397.525205887793
 10
5890.193102060605
 20
-4397.417310514381
 10
5890.105983303884
 20
-4397.312730569932
 10
5890.015154598292
 20
-4397.2113691869
 10
5889.920744353742
 20
-4397.113129497747
 10
5889.822880980149
 20
-4397.01791463493
 10
5889.721692887424
 20
-4396.925627730908
 10
5889.617308485485
 20
-4396.836171918139
 10
5889.399464393613
 20
-4396.665366096197
 10
5889.170375983846
 20
-4396.504722228769
 10
5888.931070535493
 20
-4396.353465375523
 10
5888.682575327865
 20
-4396.210820596129
 10
5888.425917640276
 20
-4396.076012950253
 10
5888.162124752035
 20
-4395.948267497566
 10
5887.892223942455
 20
-4395.826809297732
 10
5887.617242490845
 20
-4395.710863410422
 10
5887.338207676517
 20
-4395.599654895302
 10
5886.772087076954
 20
-4395.388350220305
 10
5886.202080378259
 20
-4395.186695750088
 10
5885.636371724113
 20
-4394.988515453996
 10
5885.08007746467
 20
-4394.789747320599
 10
5884.532853611267
 20
-4394.590092062757
 10
5883.993793123302
 20
-4394.389638392914
 10
5883.461988960165
 20
-4394.188475023514
 10
5882.936534081255
 20
-4393.986690667001
 10
5882.41652144597
 20
-4393.784374035822
 10
5881.901044013704
 20
-4393.58161384242
 10
5880.880066595813
 20
-4393.175117618724
 10
5879.866345502756
 20
-4392.767911695471
  0
LWPOLYLINE
  5
3B8
330
1F
100
AcDbEntity
  8
Ech.1_2
 62
   154
420
    21156
370
    20
100
AcDbPolyline
 90
       70
 70
     0
 43
0.0
 10
5889.564704565311
 20
-4397.919854432337
 10
5889.521537171253
 20
-4398.191161861062
 10
5889.478382460776
 20
-4398.467001519481
 10
5889.435253117457
 20
-4398.751905637284
 10
5889.392161824878
 20
-4399.050406444166
 10
5889.370634411233
 20
-4399.206171927791
 10
5889.349121266618
 20
-4399.36703616982
 10
5889.327623976476
 20
-4399.533565698966
 10
5889.306144126258
 20
-4399.706327043938
 10
5889.284683301408
 20
-4399.885886733452
 10
5889.263243087377
 20
-4400.072811296214
 10
5889.241825069609
 20
-4400.26766726094
 10
5889.220480416769
 20
-4400.470781260097
 10
5889.199680145075
 20
-4400.680448596519
 10
5889.180106582404
 20
-4400.893942193336
 10
5889.147375320748
 20
-4401.321468774249
 10
5889.135585490081
 20
-4401.530032061395
 10
5889.12775810506
 20
-4401.731482215033
 10
5889.124577099847
 20
-4401.923084386684
 10
5889.126726408593
 20
-4402.102103727878
 10
5889.130013660125
 20
-4402.186040196902
 10
5889.134889965458
 20
-4402.265805390134
 10
5889.141440816359
 20
-4402.341057451513
 10
5889.1497517046
 20
-4402.41145452498
 10
5889.159908121947
 20
-4402.476654754475
 10
5889.171995560172
 20
-4402.536316283939
 10
5889.186099511044
 20
-4402.590097257312
 10
5889.202305466333
 20
-4402.637655818535
 10
5889.220698917808
 20
-4402.678650111548
 10
5889.24136535724
 20
-4402.712738280292
 10
5889.264390276398
 20
-4402.739578468709
 10
5889.289859167049
 20
-4402.758828820736
 10
5889.317857520967
 20
-4402.770147480317
 10
5889.348463385737
 20
-4402.773209796369
 10
5889.381605340468
 20
-4402.768036569243
 10
5889.41707366384
 20
-4402.754968239073
 10
5889.454653428201
 20
-4402.734357278885
 10
5889.494129705895
 20
-4402.706556161706
 10
5889.535287569267
 20
-4402.671917360562
 10
5889.577912090664
 20
-4402.630793348477
 10
5889.621788342429
 20
-4402.583536598479
 10
5889.666701396907
 20
-4402.530499583593
 10
5889.712436326447
 20
-4402.472034776845
 10
5889.758778203392
 20
-4402.408494651263
 10
5889.805512100083
 20
-4402.340231679867
 10
5889.852423088873
 20
-4402.267598335688
 10
5889.945916632117
 20
-4402.110630421083
 10
5890.037539411884
 20
-4401.94041069165
 10
5890.125572006936
 20
-4401.759758931598
 10
5890.208294996035
 20
-4401.571494925136
 10
5890.28398895794
 20
-4401.378438456467
 10
5890.350934471416
 20
-4401.183409309801
 10
5890.407412115224
 20
-4400.989227269345
 10
5890.451708128071
 20
-4400.798704820419
 10
5890.482857515107
 20
-4400.613688862748
 10
5890.501385207263
 20
-4400.434104934727
 10
5890.507992409815
 20
-4400.259651256936
 10
5890.50338032803
 20
-4400.090026049947
 10
5890.488250167184
 20
-4399.924927534337
 10
5890.463303132543
 20
-4399.764053930678
 10
5890.429240429379
 20
-4399.607103459546
 10
5890.386763262964
 20
-4399.453774341517
 10
5890.33657283857
 20
-4399.303764797165
 10
5890.279370361464
 20
-4399.156773047064
 10
5890.215857036923
 20
-4399.012497311791
 10
5890.146734070215
 20
-4398.870635811919
 10
5890.072702666606
 20
-4398.730886768023
 10
5889.912719369787
 20
-4398.456518930458
 10
5889.741516788634
 20
-4398.186979563698
 10
5889.564704565311
 20
-4397.919854432337
  0
LWPOLYLINE
  5
3B9
330
1F
100
AcDbEntity
  8
Ech.1_2
 62
   154
420
    21156
370
    20
100
AcDbPolyline
 90
       70
 70
     0
 43
0.0
 10
5907.997114978196
 20
-4394.955194006092
 10
5907.953947584138
 20
-4395.226501434818
 10
5907.910792873659
 20
-4395.502341093235
 10
5907.867663530343
 20
-4395.78724521104
 10
5907.824572237763
 20
-4396.085746017922
 10
5907.80304482412
 20
-4396.241511501547
 10
5907.781531679505
 20
-4396.402375743577
 10
5907.760034389365
 20
-4396.568905272723
 10
5907.738554539145
 20
-4396.741666617697
 10
5907.717093714296
 20
-4396.921226307209
 10
5907.695653500264
 20
-4397.108150869974
 10
5907.674235482496
 20
-4397.303006834699
 10
5907.652890829654
 20
-4397.506120833857
 10
5907.632090557961
 20
-4397.71578817028
 10
5907.612516995288
 20
-4397.929281767096
 10
5907.579785733635
 20
-4398.35680834801
 10
5907.567995902967
 20
-4398.565371635157
 10
5907.560168517947
 20
-4398.766821788793
 10
5907.556987512731
 20
-4398.958423960446
 10
5907.559136821479
 20
-4399.137443301639
 10
5907.562424073012
 20
-4399.221379770664
 10
5907.567300378345
 20
-4399.301144963896
 10
5907.573851229246
 20
-4399.376397025275
 10
5907.582162117485
 20
-4399.446794098742
 10
5907.592318534831
 20
-4399.511994328236
 10
5907.604405973058
 20
-4399.571655857701
 10
5907.618509923929
 20
-4399.625436831074
 10
5907.634715879219
 20
-4399.672995392297
 10
5907.653109330695
 20
-4399.71398968531
 10
5907.673775770125
 20
-4399.748077854054
 10
5907.696800689282
 20
-4399.77491804247
 10
5907.722269579934
 20
-4399.794168394497
 10
5907.750267933852
 20
-4399.805487054078
 10
5907.780873798623
 20
-4399.80854937013
 10
5907.814015753353
 20
-4399.803376143003
 10
5907.849484076725
 20
-4399.790307812833
 10
5907.887063841085
 20
-4399.769696852646
 10
5907.926540118779
 20
-4399.741895735467
 10
5907.967697982153
 20
-4399.707256934323
 10
5908.010322503549
 20
-4399.666132922238
 10
5908.054198755314
 20
-4399.61887617224
 10
5908.099111809795
 20
-4399.565839157354
 10
5908.144846739333
 20
-4399.507374350606
 10
5908.191188616277
 20
-4399.443834225022
 10
5908.237922512972
 20
-4399.375571253628
 10
5908.284833501758
 20
-4399.302937909448
 10
5908.378327045004
 20
-4399.145969994844
 10
5908.46994982477
 20
-4398.97575026541
 10
5908.557982419822
 20
-4398.795098505358
 10
5908.640705408921
 20
-4398.606834498894
 10
5908.716399370826
 20
-4398.413778030226
 10
5908.783344884303
 20
-4398.218748883561
 10
5908.839822528111
 20
-4398.024566843103
 10
5908.884118540958
 20
-4397.834044394178
 10
5908.915267927992
 20
-4397.649028436505
 10
5908.93379562015
 20
-4397.469444508486
 10
5908.940402822701
 20
-4397.294990830695
 10
5908.935790740918
 20
-4397.125365623706
 10
5908.920660580069
 20
-4396.960267108095
 10
5908.895713545428
 20
-4396.799393504436
 10
5908.861650842266
 20
-4396.642443033304
 10
5908.819173675851
 20
-4396.489113915274
 10
5908.768983251457
 20
-4396.339104370923
 10
5908.711780774352
 20
-4396.192112620822
 10
5908.648267449809
 20
-4396.047836885547
 10
5908.579144483099
 20
-4395.905975385675
 10
5908.505113079491
 20
-4395.766226341778
 10
5908.345129782671
 20
-4395.491858504213
 10
5908.173927201518
 20
-4395.222319137452
 10
5907.997114978196
 20
-4394.955194006092
  0
DIMENSION
  5
3BB
102
{ACAD_REACTORS
330
3BC
102
}
330
1F
100
AcDbEntity
  8
Ech.1_2
 62
   190
370
    15
100
AcDbDimension
280
     0
  2
*D70
 10
6020.740094378283
 20
-4544.835626936449
 30
0.0
 11
6005.819096335832
 21
-4540.335626936449
 31
0.0
 70
   161
  1
30 mm mini
 71
     5
 42
29.84199608490235
 73
     0
 74
     0
 75
     0
  3
Standard
100
AcDbAlignedDimension
 13
5990.898098293381
 23
-4552.863660633129
 33
0.0
 14
6020.740094378283
 24
-4552.863660633129
 34
0.0
1001
ACAD
1000
DSTYLE
1002
{
1070
   178
1070
   190
1070
   271
1070
     0
1070
   147
1040
0.0
1070
   140
1040
5.0
1070
   340
1005
3BA
1070
   144
1040
1.0
1070
    42
1040
0.0
1070
    44
1040
2.0
1070
    41
1040
2.0
1070
   342
1005
1BA
1070
   175
1070
     1
1070
   279
1070
     2
1070
   172
1070
     1
1002
}
  0
DIMENSION
  5
3C9
102
{ACAD_REACTORS
330
3CA
102
}
330
1F
100
AcDbEntity
  8
Ech.1_2
 62
   190
370
    15
100
AcDbDimension
280
     0
  2
*D71
 10
5982.756097976344
 20
-4552.86509425751
 30
0.0
 11
5978.256097976344
 21
-4555.365094257509
 31
0.0
 70
   161
  1
5 mm mini
 71
     5
 42
5.0
 73
     0
 74
     0
 75
     0
 53
90.0
  3
Standard
100
AcDbAlignedDimension
 13
5982.756097976344
 23
-4557.86509425751
 33
0.0
 14
5982.756097976344
 24
-4552.86509425751
 34
0.0
1001
ACAD
1000
DSTYLE
1002
{
1070
   178
1070
   190
1070
   271
1070
     0
1070
   147
1040
0.0
1070
   140
1040
5.0
1070
   340
1005
3BA
1070
   144
1040
1.0
1070
    42
1040
0.0
1070
    44
1040
2.0
1070
    41
1040
2.0
1070
   342
1005
1BA
1070
   175
1070
     1
1070
   279
1070
     2
1070
   172
1070
     1
1002
}
  0
DIMENSION
  5
3D7
102
{ACAD_REACTORS
330
3D8
102
}
330
1F
100
AcDbEntity
  8
Ech.1_2
 62
   190
370
    15
100
AcDbDimension
280
     0
  2
*D72
 10
6032.603635356867
 20
-4502.886476284002
 30
0.0
 11
6028.103635356867
 21
-4527.875785270757
 31
0.0
 70
   160
  1
30 mm mini
 71
     5
 42
49.97861797350743
 73
     0
 74
     0
 75
     0
 53
90.0
  3
Standard
100
AcDbAlignedDimension
 13
5990.898098293381
 23
-4552.86509425751
 33
0.0
 14
5970.898098292737
 24
-4502.886476284002
 34
0.0
 50
-90.0
100
AcDbRotatedDimension
1001
ACAD
1000
DSTYLE
1002
{
1070
   178
1070
   190
1070
   271
1070
     0
1070
   147
1040
0.0
1070
   140
1040
5.0
1070
   340
1005
3BA
1070
   144
1040
1.0
1070
    42
1040
0.0
1070
    44
1040
2.0
1070
    41
1040
2.0
1070
   342
1005
1BA
1070
   175
1070
     1
1070
   279
1070
     2
1070
   172
1070
     1
1002
}
  0
MTEXT
  5
3E5
330
1F
100
AcDbEntity
  8
Ech.1_2
 62
     4
420
    65535
100
AcDbMText
 10
6097.969515669929
 20
-4433.547827490378
 30
0.0
 40
5.5
 41
89.1131648385126
 46
0.0
 71
     1
 72
     1
  1
{\fArial|b0|i0;\W1.000000;\H5.500000;\c16711848;Tasseau bois support de bardage}
 73
     1
 44
1.07999975538982
  0
MTEXT
  5
3E6
330
1F
100
AcDbEntity
  8
Ech.1_2
 62
     4
420
    65535
100
AcDbMText
 10
6097.969515669929
 20
-4531.890674245231
 30
0.0
 40
5.5
 41
50.6312446068805
 46
0.0
 71
     1
 72
     1
  1
{\fArial|b0|i0;\W1.000000;\H5.500000;\c16711848;Paroi support}
 73
     1
 44
1.07999975538982
  0
MTEXT
  5
3E7
330
1F
100
AcDbEntity
  8
Ech.1_2
 62
     4
420
    65535
100
AcDbMText
 10
6097.969515669929
 20
-4473.758843099584
 30
0.0
 40
5.5
 41
112.2182228453439
 46
0.0
 71
     1
 72
     1
  1
{\fArial|b0|i0;\W1.000000;\H5.500000;\c16711848;Bande EPDM}
 73
     1
 44
1.07999975538982
  0
MTEXT
  5
3E8
330
1F
100
AcDbEntity
  8
Ech.1_2
 62
     4
420
    65535
100
AcDbMText
 10
6056.212832007932
 20
-4782.320345451979
 30
0.0
 40
5.0
 41
195.3371538540778
 46
0.0
 71
     2
 72
     1
  1
{\fArial|b0|i0;\W1.000000;\H5.000000;\c16711848;Vue en coupe horizontale}
 73
     1
 44
1.07999975538982
  0
MTEXT
  5
3E9
330
1F
100
AcDbEntity
  8
Ech.1_2
 62
     4
420
    65535
100
AcDbMText
 10
6184.34087601627
 20
-4782.253474854919
 30
0.0
 40
5.0
 41
50.91893416259882
 46
0.0
 71
     2
 72
     1
  1
{\fArial|b0|i0;\W1.000000;\H5.000000;\c16711848;Ech 1/2 }
 73
     1
 44
1.07999975538982
  0
MTEXT
  5
3EA
330
1F
100
AcDbEntity
  8
Ech.1_2
 62
     4
420
    65535
100
AcDbMText
 10
5924.813211481823
 20
-4782.144772333926
 30
0.0
 40
5.0
 41
57.46208719814058
 46
0.0
 71
     2
 72
     1
  1
{\fArial|b0|i0;\W1.000000;\H5.000000;\c16711848;BLEHZ70-05}
 73
     1
 44
1.07999975538982
  0
MTEXT
  5
3EB
330
1F
100
AcDbEntity
  8
Ech.1_2
 62
   200
420
 11010303
100
AcDbMText
 10
6015.30034309757
 20
-4790.85241926866
 30
0.0
 40
2.5
 41
391.5
 46
0.0
 71
     2
 72
     1
  3
{\fArial|b0|i1;\W1.000000;\H2.500000;\c16711848; Il est rappelé à l'utilisateur qui consulte le site et utilise les informations qu'il contient, qu'il doit les utiliser sous sa seule responsabilité en vérifiant leur pertinence, leur cohérence et leur
  1
 non obsolescence.}
 73
     1
 44
1.07999975538982
  0
MTEXT
  5
3EC
330
1F
100
AcDbEntity
  8
Ech.1_2
 62
   200
420
 11010303
100
AcDbMText
 10
6015.30034309757
 20
-4804.518230426063
 30
0.0
 40
3.25
 41
390.75
 46
0.0
 71
     2
 72
     1
  1
{\fArial|b0|i1;\W1.000000;\H3.250000;\c16711848;www.catalogue-bois-construction.fr}
 73
     1
 44
1.07999975538982
  0
MTEXT
  5
3ED
330
1F
100
AcDbEntity
  8
Ech.1_2
 62
     4
420
    65535
100
AcDbMText
 10
6015.30034309757
 20
-4322.423990129169
 30
0.0
 40
6.5
 41
387.5
 46
0.0
 71
     2
 72
     1
  1
{\fArial|b0|i0;\W1.000000;\H6.500000;\c16711848;Détail d'angle rentrant sans profil - Compatible niveau étanchéité Ee2}
 73
     1
 44
1.07999975538982
  0
MTEXT
  5
3EE
330
1F
100
AcDbEntity
  8
Ech.1_2
 62
     4
420
    65535
100
AcDbMText
 10
6097.969515669929
 20
-4495.57994485834
 30
0.0
 40
5.5
 41
111.4941239787131
 46
0.0
 71
     1
 72
     1
  1
{\fArial|b0|i0;\W1.000000;\H5.500000;\c16711848;Bardage bois en lames à emboitement en pose horizontale - épaisseur 20-22 mm}
 73
     1
 44
1.07999975538982
  0
MTEXT
  5
3EF
330
1F
100
AcDbEntity
  8
Ech.1_2
 62
   200
420
 11010303
100
AcDbMText
 10
6015.30034309757
 20
-4296.810001159953
 30
0.0
 40
6.0
 41
388.0
 46
0.0
 71
     2
 72
     1
  1
{\fArial|b1|i0;\W1.000000;\H6.000000;\c16711848;BARDAGES EN LAMES : lames à emboitement - pose horizontale (épaisseur 20-22 mm)}
 73
     1
 44
1.07999975538982
1001
ACAD
1000
ACAD_MTEXT_TEXT_BORDERS_BEGIN
1070
    80
1070
    16
1070
    46
1040
1.5
1070
    81
1070
     1
1070
     5
1005
40D
1000
ACAD_MTEXT_TEXT_BORDERS_END
  0
MTEXT
  5
3F0
330
1F
100
AcDbEntity
  8
Ech.1_2
 62
     4
420
    65535
100
AcDbMText
 10
6015.30034309757
 20
-4309.352786423246
 30
0.0
 40
6.0
 41
388.0
 46
0.0
 71
     2
 72
     1
  1
{\fArial|b0|i0;\W1.000000;\H6.000000;\c16711848;avec exigences globales feu façade}
 73
     1
 44
1.07999975538982
  0
TEXT
  5
3F2
330
1F
100
AcDbEntity
  8
Ech.1_2
 62
   190
100
AcDbText
 10
5839.029195378487
 20
-4787.11713207381
 30
0.0
 40
5.0
  1
18/09/2020
  7
arial-
100
AcDbText
  0
TEXT
  5
3F4
330
1F
100
AcDbEntity
  8
Ech.1_2
 62
   154
420
    21156
100
AcDbText
 10
5884.836369488388
 20
-4387.881634595422
 30
0.0
 40
6.0
  1
m
 50
8.975659904391568
 41
0.8000000000000002
  7
tahoma-b
100
AcDbText
  0
TEXT
  5
3F5
330
1F
100
AcDbEntity
  8
Ech.1_2
 62
   154
420
    21156
100
AcDbText
 10
5877.984891070857
 20
-4390.12883133749
 30
0.0
 40
6.000000000000001
  1
C
 50
20.66888961043411
 41
0.8000000000000002
  7
tahoma-b
100
AcDbText
  0
TEXT
  5
3F6
330
1F
100
AcDbEntity
  8
Ech.1_2
 62
   154
420
    21156
100
AcDbText
 10
5881.537280135963
 20
-4388.788699201152
 30
0.0
 40
6.0
  1
o
 50
15.37326472325621
 41
0.8000000000000002
  7
tahoma-b
100
AcDbText
  0
TEXT
  5
3F7
330
1F
100
AcDbEntity
  8
Ech.1_2
 62
   154
420
    21156
100
AcDbText
 10
5890.068311974053
 20
-4387.055254522005
 30
0.0
 40
6.000000000000001
  1
p
 50
2.54744455369688
 41
0.8
  7
tahoma-b
100
AcDbText
  0
TEXT
  5
3F8
330
1F
100
AcDbEntity
  8
Ech.1_2
 62
   154
420
    21156
100
AcDbText
 10
5893.528101866481
 20
-4386.901326340925
 30
0.0
 40
6.0
  1
a
 50
357.5885357786785
 41
0.8000000000000002
  7
tahoma-b
100
AcDbText
  0
TEXT
  5
3F9
330
1F
100
AcDbEntity
  8
Ech.1_2
 62
   154
420
    21156
100
AcDbText
 10
5896.821594958037
 20
-4387.040024753143
 30
0.0
 40
6.0
  1
t
 50
353.6091644148383
 41
0.8000000000000003
  7
tahoma-b
100
AcDbText
  0
TEXT
  5
3FA
330
1F
100
AcDbEntity
  8
Ech.1_2
 62
   154
420
    21156
100
AcDbText
 10
5898.936800603842
 20
-4387.276940504929
 30
0.0
 40
6.000000000000001
  1
i
 50
350.9766571715969
 41
0.8
  7
tahoma-b
100
AcDbText
  0
TEXT
  5
3FB
330
1F
100
AcDbEntity
  8
Ech.1_2
 62
   154
420
    21156
100
AcDbText
 10
5900.379507094602
 20
-4387.506045320482
 30
0.0
 40
6.0
  1
b
 50
347.3646125172306
 41
0.8000000000000002
  7
tahoma-b
100
AcDbText
  0
TEXT
  5
3FC
330
1F
100
AcDbEntity
  8
Ech.1_2
 62
   154
420
    21156
100
AcDbText
 10
5903.758846857751
 20
-4388.26360901408
 30
0.0
 40
5.999999999999999
  1
l
 50
343.7525678627773
 41
0.8
  7
tahoma-b
100
AcDbText
  0
TEXT
  5
3FD
330
1F
100
AcDbEntity
  8
Ech.1_2
 62
   154
420
    21156
100
AcDbText
 10
5905.161291017661
 20
-4388.672316015876
 30
0.0
 40
6.0
  1
e
 50
340.2629653356062
 41
0.8000000000000002
  7
tahoma-b
100
AcDbText
  0
TEXT
  5
3FE
330
1F
100
AcDbEntity
  8
Ech.1_2
 62
   154
420
    21156
100
AcDbText
 10
5871.919361487569
 20
-4440.130107567224
 30
0.0
 40
6.0
  1
s
 50
329.3124952401563
 41
0.8000000000000002
  7
tahoma-b
100
AcDbText
  0
TEXT
  5
3FF
330
1F
100
AcDbEntity
  8
Ech.1_2
 62
   154
420
    21156
100
AcDbText
 10
5874.71830616714
 20
-4441.7911738115
 30
0.0
 40
6.0
  1
u
 50
334.6276163794761
 41
0.8000000000000002
  7
tahoma-b
100
AcDbText
  0
TEXT
  5
400
330
1F
100
AcDbEntity
  8
Ech.1_2
 62
   154
420
    21156
100
AcDbText
 10
5878.374860613974
 20
-4443.525274187745
 30
0.0
 40
6.0
  1
r
 50
339.5478999136953
 41
0.7999999999999999
  7
tahoma-b
100
AcDbText
  0
TEXT
  5
401
330
1F
100
AcDbEntity
  8
Ech.1_2
 62
   154
420
    21156
100
AcDbText
 10
5882.443782237742
 20
-4444.949220523922
 30
0.0
 40
6.0
  1
p
 50
346.7359685598469
 41
0.8000000000000002
  7
tahoma-b
100
AcDbText
  0
TEXT
  5
402
330
1F
100
AcDbEntity
  8
Ech.1_2
 62
   154
420
    21156
100
AcDbText
 10
5886.301588820204
 20
-4445.85861058945
 30
0.0
 40
6.0
  1
a
 50
352.3548109071298
 41
0.8000000000000002
  7
tahoma-b
100
AcDbText
  0
TEXT
  5
403
330
1F
100
AcDbEntity
  8
Ech.1_2
 62
   154
420
    21156
100
AcDbText
 10
5890.023306301813
 20
-4446.358181609408
 30
0.0
 40
6.000000000000001
  1
r
 50
357.0624896304607
 41
0.8
  7
tahoma-b
100
AcDbText
  0
TEXT
  5
404
330
1F
100
AcDbEntity
  8
Ech.1_2
 62
   154
420
    21156
100
AcDbText
 10
5892.732248777707
 20
-4446.497188814581
 30
0.0
 40
6.0
  1
o
 50
1.861284750914286
 41
0.7999999999999999
  7
tahoma-b
100
AcDbText
  0
TEXT
  5
405
330
1F
100
AcDbEntity
  8
Ech.1_2
 62
   154
420
    21156
100
AcDbText
 10
5896.610368559104
 20
-4446.371161635565
 30
0.0
 40
6.000000000000001
  1
i
 50
6.083009645691799
 41
0.8
  7
tahoma-b
100
AcDbText
  0
TEXT
  5
406
330
1F
100
AcDbEntity
  8
Ech.1_2
 62
   154
420
    21156
100
AcDbText
 10
5900.101084241251
 20
-4445.927255260027
 30
0.0
 40
6.0
  1
b
 50
12.69400806611606
 41
0.8000000000000002
  7
tahoma-b
100
AcDbText
  0
TEXT
  5
407
330
1F
100
AcDbEntity
  8
Ech.1_2
 62
   154
420
    21156
100
AcDbText
 10
5903.967747082399
 20
-4445.056290053006
 30
0.0
 40
6.0
  1
o
 50
18.40396681049697
 41
0.8000000000000003
  7
tahoma-b
100
AcDbText
  0
TEXT
  5
408
330
1F
100
AcDbEntity
  8
Ech.1_2
 62
   154
420
    21156
100
AcDbText
 10
5907.64945965814
 20
-4443.831264176399
 30
0.0
 40
6.0
  1
i
 50
22.62569170511795
 41
0.8000000000000003
  7
tahoma-b
100
AcDbText
  0
TEXT
  5
409
330
1F
100
AcDbEntity
  8
Ech.1_2
 62
   154
420
    21156
100
AcDbText
 10
5909.421516691724
 20
-4443.092695572144
 30
0.0
 40
6.0
  1
s
 50
26.3918347879508
 41
0.8000000000000002
  7
tahoma-b
100
AcDbText
  0
TEXT
  5
40A
330
1F
100
AcDbEntity
  8
Ech.1_2
 62
   154
420
    21156
100
AcDbText
 10
5883.689796820821
 20
-4431.271144353937
 30
0.0
 40
9.999999999999998
  1
E
 50
345.2222144970871
 41
0.8000000000000002
  7
tahoma-b
100
AcDbText
  0
TEXT
  5
40B
330
1F
100
AcDbEntity
  8
Ech.1_2
 62
   154
420
    21156
100
AcDbText
 10
5889.929257815786
 20
-4432.917093309421
 30
0.0
 40
10.0
  1
e
 50
359.2406769519292
 41
0.8
  7
tahoma-b
100
AcDbText
  0
TEXT
  5
40C
330
1F
100
AcDbEntity
  8
Ech.1_2
 62
   154
420
    21156
100
AcDbText
 10
5896.174481263692
 20
-4432.99986414858
 30
0.0
 40
10.0
  1
2
 50
13.48894999978227
 41
0.8
  7
tahoma-b
100
AcDbText
  0
LWPOLYLINE
  5
40D
330
1F
100
AcDbEntity
  8
Ech.1_2
 62
   200
420
 11010303
100
AcDbPolyline
 90
        4
 70
     1
 43
0.0
 10
5818.30034309757
 20
-4293.810001159953
 10
6212.30034309757
 20
-4293.810001159953
 10
6212.30034309757
 20
-4307.706001159952
 10
5818.30034309757
 20
-4307.706001159952
  0
VIEWPORT
  5
242
330
23C
100
AcDbEntity
 67
     1
  8
0
100
AcDbViewport
 10
98.8
 20
135.7999999999991
 30
0.0
 40
209.0608
 41
287.3527999999981
 68
     1
 69
     1
 12
128.5
 22
97.5
 13
0.0
 23
0.0
 14
10.0
 24
10.0
 15
10.0
 25
10.0
 16
0.0
 26
0.0
 36
1.0
 17
0.0
 27
0.0
 37
0.0
 42
50.0
 43
0.0
 44
0.0
 45
222.18
 50
0.0
 51
0.0
 72
   100
 90
   557152
  1

281
     0
 71
     1
 74
     0
110
0.0
120
0.0
130
0.0
111
1.0
121
0.0
131
0.0
112
0.0
122
1.0
132
0.0
 79
     0
146
0.0
170
     0
 61
     5
348
2F
292
     1
282
     1
141
0.0
142
0.0
 63
   256
361
243
  0
VIEWPORT
  5
244
330
23C
100
AcDbEntity
 67
     1
  8
0
 60
     1
100
AcDbViewport
 10
98.8
 20
135.7999999999991
 30
0.0
 40
197.6
 41
271.5999999999982
 68
     2
 69
     2
 12
6015.30034309757
 22
-4564.810001159951
 13
0.0
 23
0.0
 14
10.0
 24
10.0
 15
10.0
 25
10.0
 16
0.0
 26
0.0
 36
1.0
 17
0.0
 27
0.0
 37
0.0
 42
50.0
 43
0.0
 44
0.0
 45
543.1999999999964
 50
0.0
 51
0.0
 72
   100
 90
   557152
  1

281
     0
 71
     1
 74
     0
110
0.0
120
0.0
130
0.0
111
1.0
121
0.0
131
0.0
112
0.0
122
1.0
132
0.0
 79
     0
146
0.0
170
     0
 61
     5
348
2F
292
     1
282
     1
141
0.0
142
0.0
 63
   256
  0
ENDSEC
  0
SECTION
  2
OBJECTS
  0
DICTIONARY
  5
C
330
0
100
AcDbDictionary
281
     1
  3
ACAD_DETAILVIEWSTYLE
350
415
  3
ACAD_GROUP
350
D
  3
ACAD_IMAGE_DICT
350
3A1
  3
ACAD_IMAGE_VARS
350
6F
  3
ACAD_LAYOUT
350
1A
  3
ACAD_MATERIAL
350
43
  3
ACAD_MLEADERSTYLE
350
6B
  3
ACAD_MLINESTYLE
350
17
  3
ACAD_PLOTSETTINGS
350
19
  3
ACAD_PLOTSTYLENAME
350
E
  3
ACAD_SCALELIST
350
47
  3
ACAD_SECTIONVIEWSTYLE
350
416
  3
ACAD_TABLESTYLE
350
69
  3
ACAD_VISUALSTYLE
350
2A
  3
ACDB_RECOMPOSE_DATA
350
412
  3
AcDbVariableDictionary
350
40E
  0
SUN
  5
6D
330
29
100
AcDbSun
 90
        1
290
     0
 63
     7
421
 16777215
 40
1.0
291
     1
 91
  2455826
 92
 54000000
292
     0
 70
     2
 71
   256
280
     1
  0
IMAGEDEF_REACTOR
  5
3A4
330
3A3
100
AcDbRasterImageDefReactor
 90
        2
330
3A3
  0
IMAGEDEF_REACTOR
  5
3A7
330
3A6
100
AcDbRasterImageDefReactor
 90
        2
330
3A6
  0
IMAGEDEF_REACTOR
  5
3AA
330
3A9
100
AcDbRasterImageDefReactor
 90
        2
330
3A9
  0
SUN
  5
243
330
242
100
AcDbSun
 90
        1
290
     0
 63
     7
421
 16777215
 40
1.0
291
     1
 91
  2455826
 92
 54000000
292
     0
 70
     2
 71
   256
280
     1
  0
DICTIONARY
  5
415
102
{ACAD_REACTORS
330
C
102
}
330
C
100
AcDbDictionary
281
     1
  0
DICTIONARY
  5
D
102
{ACAD_REACTORS
330
C
102
}
330
C
100
AcDbDictionary
281
     1
  3
DIM33
350
3BC
  3
DIM34
350
3CA
  3
DIM77
350
3D8
  0
DICTIONARY
  5
3A1
102
{ACAD_REACTORS
330
C
102
}
330
C
100
AcDbDictionary
281
     1
  3
C:\Users\MAIFFR~1\AppData\Local\Temp\EXE_LOGO_FBF_soutien_Q_L.jpg1
350
3A5
  3
C:\Users\MAIFFR~1\AppData\Local\Temp\fcba.jpg0
350
3A2
  3
C:\Users\MAIFFR~1\AppData\Local\Temp\logo_codifab_baseline_soutien.jpg2
350
3A8
  0
RASTERVARIABLES
  5
6F
102
{ACAD_REACTORS
330
C
102
}
330
C
100
AcDbRasterVariables
 90
        0
 70
     0
 71
     1
 72
     1
  0
DICTIONARY
  5
1A
102
{ACAD_REACTORS
330
C
102
}
330
C
100
AcDbDictionary
281
     1
  3
CompleteLayout
350
1E
  3
Model
350
22
  3
PrintFrame_75
350
23D
  0
DICTIONARY
  5
43
102
{ACAD_REACTORS
330
C
102
}
330
C
100
AcDbDictionary
281
     1
  3
ByBlock
350
45
  3
ByLayer
350
44
  3
Global
350
46
  0
DICTIONARY
  5
6B
102
{ACAD_REACTORS
330
C
102
}
330
C
100
AcDbDictionary
281
     1
  3
Standard
350
6C
  0
DICTIONARY
  5
17
102
{ACAD_REACTORS
330
C
102
}
330
C
100
AcDbDictionary
281
     1
  3
Standard
350
18
  0
DICTIONARY
  5
19
102
{ACAD_REACTORS
330
C
102
}
330
C
100
AcDbDictionary
281
     1
  3
PlotSettings_
350
240
  0
ACDBDICTIONARYWDFLT
  5
E
102
{ACAD_REACTORS
330
C
102
}
330
C
100
AcDbDictionary
281
     1
  3
Normal
350
F
100
AcDbDictionaryWithDefault
340
F
  0
DICTIONARY
  5
47
102
{ACAD_REACTORS
330
C
102
}
330
C
100
AcDbDictionary
281
     1
  3
A0
350
48
  3
A1
350
49
  3
A2
350
4A
  3
A3
350
4B
  3
A4
350
4C
  3
A5
350
4D
  3
A6
350
4E
  3
A7
350
4F
  3
A8
350
50
  3
A9
350
51
  3
B0
350
52
  3
B1
350
53
  3
B2
350
54
  3
B3
350
55
  3
B4
350
56
  3
B5
350
57
  3
B6
350
58
  3
B7
350
59
  3
B8
350
5A
  3
B9
350
5B
  3
C0
350
5C
  3
C1
350
5D
  3
C2
350
5E
  3
C3
350
5F
  3
C4
350
60
  3
C5
350
61
  3
C6
350
62
  3
C7
350
63
  3
C8
350
64
  3
C9
350
65
  3
D0
350
66
  3
D1
350
67
  3
D2
350
68
  0
DICTIONARY
  5
416
102
{ACAD_REACTORS
330
C
102
}
330
C
100
AcDbDictionary
281
     1
  0
DICTIONARY
  5
69
102
{ACAD_REACTORS
330
C
102
}
330
C
100
AcDbDictionary
281
     1
  3
Standard
350
6A
  0
DICTIONARY
  5
2A
102
{ACAD_REACTORS
330
C
102
}
330
C
100
AcDbDictionary
281
     1
  3
2dWireframe
350
2F
  3
Basic
350
32
  3
Brighten
350
36
  3
ColorChange
350
3A
  3
Conceptual
350
34
  3
Dim
350
35
  3
EdgeColorOff
350
3D
  3
Facepattern
350
39
  3
Flat
350
2B
  3
FlatWithEdges
350
2C
  3
Gouraud
350
2D
  3
GouraudWithEdges
350
2E
  3
Hidden
350
31
  3
JitterOff
350
3B
  3
Linepattern
350
38
  3
OverhangOff
350
3C
  3
Realistic
350
33
  3
Shaded
350
42
  3
Shaded with edges
350
41
  3
Shades of Gray
350
3E
  3
Sketchy
350
3F
  3
Thicken
350
37
  3
Wireframe
350
30
  3
X-Ray
350
40
  0
XRECORD
  5
412
102
{ACAD_REACTORS
330
C
102
}
330
C
100
AcDbXrecord
280
     1
 90
        1
330
6A
  0
DICTIONARY
  5
40E
102
{ACAD_REACTORS
330
C
102
}
330
C
100
AcDbDictionary
281
     1
  3
CANNOSCALE
350
40F
  3
CMLEADERSTYLE
350
414
  3
CTABLESTYLE
350
413
  3
WIPEOUTFRAME
350
417
  0
GROUP
  5
3BC
102
{ACAD_REACTORS
330
D
102
}
330
D
100
AcDbGroup
300

 70
     0
 71
     1
340
3BB
  0
GROUP
  5
3CA
102
{ACAD_REACTORS
330
D
102
}
330
D
100
AcDbGroup
300

 70
     0
 71
     1
340
3C9
  0
GROUP
  5
3D8
102
{ACAD_REACTORS
330
D
102
}
330
D
100
AcDbGroup
300

 70
     0
 71
     1
340
3D7
  0
IMAGEDEF
  5
3A5
102
{ACAD_REACTORS
330
3A1
330
3A7
102
}
330
3A1
100
AcDbRasterImageDef
 90
        0
  1
EXE_LOGO_FBF_soutien_Q_L.jpg
 10
200.0
 20
133.0
 11
0.3527336860670194
 21
0.3527336860670194
280
     1
281
     3
  0
IMAGEDEF
  5
3A2
102
{ACAD_REACTORS
330
3A1
330
3A4
102
}
330
3A1
100
AcDbRasterImageDef
 90
        0
  1
fcba.jpg
 10
247.0
 20
171.0
 11
0.3527336860670194
 21
0.3527336860670194
280
     1
281
     3
  0
IMAGEDEF
  5
3A8
102
{ACAD_REACTORS
330
3A1
330
3AA
102
}
330
3A1
100
AcDbRasterImageDef
 90
        0
  1
logo_codifab_baseline_soutien.jpg
 10
1326.0
 20
580.0
 11
0.08466683600033867
 21
0.08466683600033867
280
     1
281
     3
  0
LAYOUT
  5
1E
102
{ACAD_REACTORS
330
1A
102
}
330
1A
100
AcDbPlotSettings
  1

  2
none_device
  4

  6

 40
0.0
 41
0.0
 42
0.0
 43
0.0
 44
0.0
 45
0.0
 46
0.0
 47
0.0
 48
0.0
 49
0.0
140
0.0
141
0.0
142
1.0
143
1.0
 70
   688
 72
     0
 73
     0
 74
     5
  7

 75
    16
 76
     0
 77
     2
 78
   300
147
1.0
148
0.0
149
0.0
100
AcDbLayout
  1
CompleteLayout
 70
     1
 71
     1
 10
0.0
 20
0.0
 11
12.0
 21
9.0
 12
0.0
 22
0.0
 32
0.0
 14
1.000000000000000E+20
 24
1.000000000000000E+20
 34
1.000000000000000E+20
 15
-1.000000000000000E+20
 25
-1.000000000000000E+20
 35
-1.000000000000000E+20
146
0.0
 13
0.0
 23
0.0
 33
0.0
 16
1.0
 26
0.0
 36
0.0
 17
0.0
 27
1.0
 37
0.0
 76
     0
330
1B
  0
LAYOUT
  5
22
102
{ACAD_REACTORS
330
1A
102
}
330
1A
100
AcDbPlotSettings
  1

  2
none_device
  4
Letter_(8.50_x_11.00_Inches)
  6

 40
6.35
 41
6.35
 42
6.35000508
 43
6.35000508
 44
215.9
 45
279.4
 46
0.0
 47
0.0
 48
0.0
 49
0.0
140
0.0
141
0.0
142
1.0
143
1.0
 70
  1712
 72
     0
 73
     0
 74
     0
  7

 75
     0
 76
     0
 77
     2
 78
   300
147
1.0
148
0.0
149
0.0
100
AcDbLayout
  1
Model
 70
     1
 71
     0
 10
0.0
 20
0.0
 11
12.0
 21
9.0
 12
0.0
 22
0.0
 32
0.0
 14
5818.30034309757
 24
-4835.810001159949
 34
0.0
 15
6212.30034309757
 25
-4293.810001159949
 35
0.0
146
0.0
 13
0.0
 23
0.0
 33
0.0
 16
1.0
 26
0.0
 36
0.0
 17
0.0
 27
1.0
 37
0.0
 76
     0
330
1F
331
29
  0
LAYOUT
  5
23D
102
{ACAD_REACTORS
330
1A
102
}
330
1A
100
AcDbPlotSettings
  1
PlotSettings_
  2
Custom Device
  4
Custom_210.000000x297.000000_12.700000_12.700000_6.200000_6.200000
  6

 40
6.2
 41
12.7
 42
6.2
 43
12.7
 44
210.0
 45
296.9999999999982
 46
0.0
 47
0.0
 48
0.0
 49
0.0
140
0.0
141
0.0
142
1.0
143
1.0
 70
   752
 72
     1
 73
     0
 74
     5
  7

 75
    16
 76
     0
 77
     2
 78
   300
147
1.0
148
0.0
149
0.0
100
AcDbLayout
  1
PrintFrame_75
 70
     0
 71
     2
 10
-20.0
 20
-7.5
 11
277.0
 21
202.5
 12
0.0
 22
0.0
 32
0.0
 14
0.0
 24
0.0
 34
0.0
 15
197.6
 25
271.5999999999982
 35
0.0
146
0.0
 13
0.0
 23
0.0
 33
0.0
 16
1.0
 26
0.0
 36
0.0
 17
0.0
 27
1.0
 37
0.0
 76
     0
330
23C
331
242
1001
PLOTTRANSPARENCY
1071
        1
1000
layout-user-created
1070
     1
1000
layout-line-weight-scale
1042
1.0
  0
MATERIAL
  5
45
102
{ACAD_REACTORS
330
43
102
}
330
43
100
AcDbMaterial
  1
ByBlock
 72
     1
 94
      127
  0
MATERIAL
  5
44
102
{ACAD_REACTORS
330
43
102
}
330
43
100
AcDbMaterial
  1
ByLayer
 72
     1
 94
      127
  0
MATERIAL
  5
46
102
{ACAD_REACTORS
330
43
102
}
330
43
100
AcDbMaterial
  1
Global
 72
     1
 94
      127
  0
MLEADERSTYLE
  5
6C
102
{ACAD_REACTORS
330
6B
102
}
330
6B
100
AcDbMLeaderStyle
179
     2
170
     2
171
     1
172
     0
 90
        2
 40
0.0
 41
0.0
173
     1
 91
-1056964608
340
14
 92
       -2
290
     1
 42
0.09
291
     1
 43
0.36
  3
Standard
341
0
 44
0.18
300

342
11
174
     1
178
     6
175
     1
176
     0
 93
-1056964608
 45
0.18
292
     0
297
     0
 46
0.18
343
0
 94
-1056964608
 47
1.0
 49
1.0
140
1.0
293
     1
141
0.0
294
     1
177
     0
142
1.0
295
     0
296
     0
143
0.125
271
     0
272
     9
273
     9
298
     0
  0
MLINESTYLE
  5
18
102
{ACAD_REACTORS
330
17
102
}
330
17
100
AcDbMlineStyle
  2
Standard
 70
     0
  3

 62
   256
 51
90.0
 52
90.0
 71
     2
 49
0.5
 62
   256
  6
BYLAYER
 49
-0.5
 62
   256
  6
BYLAYER
  0
PLOTSETTINGS
  5
240
102
{ACAD_REACTORS
330
19
102
}
330
19
100
AcDbPlotSettings
  1
PlotSettings_
  2
Custom Device
  4
Custom_210.000000x297.000000_12.700000_12.700000_6.200000_6.200000
  6

 40
6.2
 41
12.7
 42
6.2
 43
12.7
 44
210.0
 45
296.9999999999982
 46
0.0
 47
0.0
 48
0.0
 49
0.0
140
0.0
141
0.0
142
1.0
143
1.0
 70
   752
 72
     1
 73
     0
 74
     5
  7

 75
    16
 76
     0
 77
     2
 78
   300
147
1.0
148
0.0
149
0.0
1001
PLOTTRANSPARENCY
1071
        1
1000
layout-user-created
1070
     1
1000
layout-line-weight-scale
1042
1.0
  0
ACDBPLACEHOLDER
  5
F
102
{ACAD_REACTORS
330
E
102
}
330
E
  0
SCALE
  5
48
102
{ACAD_REACTORS
330
47
102
}
330
47
100
AcDbScale
 70
     0
300
1:1
140
1.0
141
1.0
290
     1
  0
SCALE
  5
49
102
{ACAD_REACTORS
330
47
102
}
330
47
100
AcDbScale
 70
     0
300
1:2
140
1.0
141
2.0
290
     0
  0
SCALE
  5
4A
102
{ACAD_REACTORS
330
47
102
}
330
47
100
AcDbScale
 70
     0
300
1:4
140
1.0
141
4.0
290
     0
  0
SCALE
  5
4B
102
{ACAD_REACTORS
330
47
102
}
330
47
100
AcDbScale
 70
     0
300
1:5
140
1.0
141
5.0
290
     0
  0
SCALE
  5
4C
102
{ACAD_REACTORS
330
47
102
}
330
47
100
AcDbScale
 70
     0
300
1:8
140
1.0
141
8.0
290
     0
  0
SCALE
  5
4D
102
{ACAD_REACTORS
330
47
102
}
330
47
100
AcDbScale
 70
     0
300
1:10
140
1.0
141
10.0
290
     0
  0
SCALE
  5
4E
102
{ACAD_REACTORS
330
47
102
}
330
47
100
AcDbScale
 70
     0
300
1:16
140
1.0
141
16.0
290
     0
  0
SCALE
  5
4F
102
{ACAD_REACTORS
330
47
102
}
330
47
100
AcDbScale
 70
     0
300
1:20
140
1.0
141
20.0
290
     0
  0
SCALE
  5
50
102
{ACAD_REACTORS
330
47
102
}
330
47
100
AcDbScale
 70
     0
300
1:30
140
1.0
141
30.0
290
     0
  0
SCALE
  5
51
102
{ACAD_REACTORS
330
47
102
}
330
47
100
AcDbScale
 70
     0
300
1:40
140
1.0
141
40.0
290
     0
  0
SCALE
  5
52
102
{ACAD_REACTORS
330
47
102
}
330
47
100
AcDbScale
 70
     0
300
1:50
140
1.0
141
50.0
290
     0
  0
SCALE
  5
53
102
{ACAD_REACTORS
330
47
102
}
330
47
100
AcDbScale
 70
     0
300
1:100
140
1.0
141
100.0
290
     0
  0
SCALE
  5
54
102
{ACAD_REACTORS
330
47
102
}
330
47
100
AcDbScale
 70
     0
300
2:1
140
2.0
141
1.0
290
     0
  0
SCALE
  5
55
102
{ACAD_REACTORS
330
47
102
}
330
47
100
AcDbScale
 70
     0
300
4:1
140
4.0
141
1.0
290
     0
  0
SCALE
  5
56
102
{ACAD_REACTORS
330
47
102
}
330
47
100
AcDbScale
 70
     0
300
8:1
140
8.0
141
1.0
290
     0
  0
SCALE
  5
57
102
{ACAD_REACTORS
330
47
102
}
330
47
100
AcDbScale
 70
     0
300
10:1
140
10.0
141
1.0
290
     0
  0
SCALE
  5
58
102
{ACAD_REACTORS
330
47
102
}
330
47
100
AcDbScale
 70
     0
300
100:1
140
100.0
141
1.0
290
     0
  0
SCALE
  5
59
102
{ACAD_REACTORS
330
47
102
}
330
47
100
AcDbScale
 70
     0
300
1/128" = 1'-0"
140
0.0078125
141
12.0
290
     0
  0
SCALE
  5
5A
102
{ACAD_REACTORS
330
47
102
}
330
47
100
AcDbScale
 70
     0
300
1/64" = 1'-0"
140
0.015625
141
12.0
290
     0
  0
SCALE
  5
5B
102
{ACAD_REACTORS
330
47
102
}
330
47
100
AcDbScale
 70
     0
300
1/32" = 1'-0"
140
0.03125
141
12.0
290
     0
  0
SCALE
  5
5C
102
{ACAD_REACTORS
330
47
102
}
330
47
100
AcDbScale
 70
     0
300
1/16" = 1'-0"
140
0.0625
141
12.0
290
     0
  0
SCALE
  5
5D
102
{ACAD_REACTORS
330
47
102
}
330
47
100
AcDbScale
 70
     0
300
3/32" = 1'-0"
140
0.09375
141
12.0
290
     0
  0
SCALE
  5
5E
102
{ACAD_REACTORS
330
47
102
}
330
47
100
AcDbScale
 70
     0
300
1/8" = 1'-0"
140
0.125
141
12.0
290
     0
  0
SCALE
  5
5F
102
{ACAD_REACTORS
330
47
102
}
330
47
100
AcDbScale
 70
     0
300
3/16" = 1'-0"
140
0.1875
141
12.0
290
     0
  0
SCALE
  5
60
102
{ACAD_REACTORS
330
47
102
}
330
47
100
AcDbScale
 70
     0
300
1/4" = 1'-0"
140
0.25
141
12.0
290
     0
  0
SCALE
  5
61
102
{ACAD_REACTORS
330
47
102
}
330
47
100
AcDbScale
 70
     0
300
3/8" = 1'-0"
140
0.375
141
12.0
290
     0
  0
SCALE
  5
62
102
{ACAD_REACTORS
330
47
102
}
330
47
100
AcDbScale
 70
     0
300
1/2" = 1'-0"
140
0.5
141
12.0
290
     0
  0
SCALE
  5
63
102
{ACAD_REACTORS
330
47
102
}
330
47
100
AcDbScale
 70
     0
300
3/4" = 1'-0"
140
0.75
141
12.0
290
     0
  0
SCALE
  5
64
102
{ACAD_REACTORS
330
47
102
}
330
47
100
AcDbScale
 70
     0
300
1" = 1'-0"
140
1.0
141
12.0
290
     0
  0
SCALE
  5
65
102
{ACAD_REACTORS
330
47
102
}
330
47
100
AcDbScale
 70
     0
300
1-1/2" = 1'-0"
140
1.5
141
12.0
290
     0
  0
SCALE
  5
66
102
{ACAD_REACTORS
330
47
102
}
330
47
100
AcDbScale
 70
     0
300
3" = 1'-0"
140
3.0
141
12.0
290
     0
  0
SCALE
  5
67
102
{ACAD_REACTORS
330
47
102
}
330
47
100
AcDbScale
 70
     0
300
6" = 1'-0"
140
6.0
141
12.0
290
     0
  0
SCALE
  5
68
102
{ACAD_REACTORS
330
47
102
}
330
47
100
AcDbScale
 70
     0
300
1'-0" = 1'-0"
140
12.0
141
12.0
290
     0
  0
TABLESTYLE
  5
6A
102
{ACAD_REACTORS
330
69
102
}
102
{ACAD_XDICTIONARY
360
410
102
}
330
69
100
AcDbTableStyle
  3
Standard
 70
     0
 71
     0
 40
0.06
 41
0.06
280
     0
281
     0
  7
Standard
140
0.18
170
     2
 62
     0
 63
   257
283
     0
 90
        4
 91
        0
  1

274
    -2
284
     1
 64
     0
275
    -2
285
     1
 65
     0
276
    -2
286
     1
 66
     0
277
    -2
287
     1
 67
     0
278
    -2
288
     1
 68
     0
279
    -2
289
     1
 69
     0
  7
Standard
140
0.25
170
     5
 62
     0
 63
   257
283
     0
 90
        4
 91
        0
  1

274
    -2
284
     1
 64
     0
275
    -2
285
     1
 65
     0
276
    -2
286
     1
 66
     0
277
    -2
287
     1
 67
     0
278
    -2
288
     1
 68
     0
279
    -2
289
     1
 69
     0
  7
Standard
140
0.18
170
     5
 62
     0
 63
   257
283
     0
 90
        4
 91
        0
  1

274
    -2
284
     1
 64
     0
275
    -2
285
     1
 65
     0
276
    -2
286
     1
 66
     0
277
    -2
287
     1
 67
     0
278
    -2
288
     1
 68
     0
279
    -2
289
     1
 69
     0
  0
VISUALSTYLE
  5
2F
102
{ACAD_REACTORS
330
2A
102
}
330
2A
100
AcDbVisualStyle
  2
2dWireframe
 70
     4
177
     3
291
     0
 70
    58
 90
        0
176
     1
 90
        2
176
     1
 90
        0
176
     1
 90
        0
176
     1
 40
0.6
176
     1
 40
30.0
176
     1
 62
     7
420
 16777215
176
     1
 90
        1
176
     1
 90
        4
176
     1
 62
     7
176
     1
 62
   257
176
     1
 90
        1
176
     1
 90
        1
176
     1
 40
1.0
176
     1
 90
        0
176
     1
 62
   257
176
     1
 40
1.0
176
     1
 90
        1
176
     1
 90
        6
176
     1
 90
        2
176
     1
 62
     7
176
     1
 90
        5
176
     1
 90
        0
176
     1
 90
        0
176
     1
290
     0
176
     1
 90
        1
176
     1
 40
0.0
176
     1
 90
        0
176
     1
290
     1
176
     1
290
     1
176
     1
290
     0
176
     1
290
     0
176
     1
290
     0
176
     1
290
     0
176
     1
290
     0
176
     1
290
     0
176
     1
290
     0
176
     1
 90
       50
176
     1
 40
0.0
176
     1
 40
1.0
176
     1
 90
        0
176
     1
 62
    18
420
        0
176
     1
 90
       50
176
     1
 90
        3
176
     1
 62
     5
420
      255
176
     1
290
     0
176
     1
 90
       50
176
     1
 90
       50
176
     1
 90
       50
176
     1
290
     0
176
     1
 90
       50
176
     1
 62
   256
176
     0
 40
1.0
176
     0
 90
        2
176
     1
  1
strokes_ogs.tif
176
     1
290
     0
176
     1
 40
1.0
176
     1
 40
1.0
176
     1
  0
VISUALSTYLE
  5
32
102
{ACAD_REACTORS
330
2A
102
}
330
2A
100
AcDbVisualStyle
  2
Basic
 70
     7
177
     3
291
     1
 70
    58
 90
        1
176
     1
 90
        0
176
     1
 90
        1
176
     1
 90
        0
176
     1
 40
0.6
176
     1
 40
30.0
176
     1
 62
     7
420
 16777215
176
     1
 90
        0
176
     1
 90
        4
176
     1
 62
     7
176
     1
 62
   257
176
     1
 90
        1
176
     1
 90
        1
176
     1
 40
1.0
176
     1
 90
        8
176
     1
 62
     7
176
     1
 40
1.0
176
     1
 90
        1
176
     1
 90
        6
176
     1
 90
        2
176
     1
 62
     7
176
     1
 90
        5
176
     1
 90
        0
176
     1
 90
        0
176
     1
290
     0
176
     1
 90
        1
176
     1
 40
0.0
176
     1
 90
        0
176
     1
290
     0
176
     1
290
     1
176
     1
290
     1
176
     1
290
     0
176
     1
290
     0
176
     1
290
     0
176
     1
290
     0
176
     1
290
     0
176
     1
290
     0
176
     1
 90
       50
176
     1
 40
0.0
176
     1
 40
1.0
176
     1
 90
        0
176
     1
 62
    18
420
        0
176
     1
 90
       50
176
     1
 90
        3
176
     1
 62
     5
420
      255
176
     1
290
     0
176
     1
 90
       50
176
     1
 90
       50
176
     1
 90
       50
176
     1
290
     0
176
     1
 90
       50
176
     1
 62
   256
176
     0
 40
1.0
176
     0
 90
        2
176
     1
  1
strokes_ogs.tif
176
     1
290
     0
176
     1
 40
1.0
176
     1
 40
1.0
176
     1
  0
VISUALSTYLE
  5
36
102
{ACAD_REACTORS
330
2A
102
}
330
2A
100
AcDbVisualStyle
  2
Brighten
 70
    12
177
     3
291
     1
 70
    58
 90
        2
176
     1
 90
        2
176
     1
 90
        0
176
     1
 90
        0
176
     1
 40
0.6
176
     1
 40
30.0
176
     1
 62
     7
420
 16777215
176
     1
 90
        1
176
     1
 90
        4
176
     1
 62
     7
176
     1
 62
   257
176
     1
 90
        1
176
     1
 90
        1
176
     1
 40
1.0
176
     1
 90
        8
176
     1
 62
     7
176
     1
 40
1.0
176
     1
 90
        1
176
     1
 90
        6
176
     1
 90
        2
176
     1
 62
     7
176
     1
 90
        5
176
     1
 90
        0
176
     1
 90
        0
176
     1
290
     0
176
     1
 90
        1
176
     1
 40
50.0
176
     1
 90
        0
176
     1
290
     0
176
     1
290
     1
176
     1
290
     1
176
     1
290
     0
176
     1
290
     0
176
     1
290
     0
176
     1
290
     0
176
     1
290
     0
176
     1
290
     0
176
     1
 90
       50
176
     1
 40
0.0
176
     1
 40
1.0
176
     1
 90
        0
176
     1
 62
    18
420
        0
176
     1
 90
       50
176
     1
 90
        3
176
     1
 62
     5
420
      255
176
     1
290
     0
176
     1
 90
       50
176
     1
 90
       50
176
     1
 90
       50
176
     1
290
     0
176
     1
 90
       50
176
     1
 62
   256
176
     0
 40
1.0
176
     0
 90
        2
176
     1
  1
strokes_ogs.tif
176
     1
290
     0
176
     1
 40
1.0
176
     1
 40
1.0
176
     1
  0
VISUALSTYLE
  5
3A
102
{ACAD_REACTORS
330
2A
102
}
330
2A
100
AcDbVisualStyle
  2
ColorChange
 70
    16
177
     3
291
     1
 70
    58
 90
        2
176
     1
 90
        2
176
     1
 90
        3
176
     1
 90
        0
176
     1
 40
0.6
176
     1
 40
30.0
176
     1
 62
     8
420
  8421504
176
     1
 90
        1
176
     1
 90
        4
176
     1
 62
     7
176
     1
 62
   257
176
     1
 90
        1
176
     1
 90
        1
176
     1
 40
1.0
176
     1
 90
        8
176
     1
 62
     8
420
  8421504
176
     1
 40
1.0
176
     1
 90
        1
176
     1
 90
        6
176
     1
 90
        2
176
     1
 62
     7
176
     1
 90
        5
176
     1
 90
        0
176
     1
 90
        0
176
     1
290
     0
176
     1
 90
        1
176
     1
 40
0.0
176
     1
 90
        0
176
     1
290
     0
176
     1
290
     1
176
     1
290
     1
176
     1
290
     0
176
     1
290
     0
176
     1
290
     0
176
     1
290
     0
176
     1
290
     0
176
     1
290
     0
176
     1
 90
       50
176
     1
 40
0.0
176
     1
 40
1.0
176
     1
 90
        0
176
     1
 62
    18
420
        0
176
     1
 90
       50
176
     1
 90
        3
176
     1
 62
     5
420
      255
176
     1
290
     0
176
     1
 90
       50
176
     1
 90
       50
176
     1
 90
       50
176
     1
290
     0
176
     1
 90
       50
176
     1
 62
   256
176
     0
 40
1.0
176
     0
 90
        2
176
     1
  1
strokes_ogs.tif
176
     1
290
     0
176
     1
 40
1.0
176
     1
 40
1.0
176
     1
  0
VISUALSTYLE
  5
34
102
{ACAD_REACTORS
330
2A
102
}
330
2A
100
AcDbVisualStyle
  2
Conceptual
 70
     9
177
     3
291
     0
 70
    58
 90
        3
176
     1
 90
        2
176
     1
 90
        0
176
     1
 90
        0
176
     1
 40
0.6
176
     1
 40
30.0
176
     1
 62
     7
420
 16777215
176
     1
 90
        2
176
     1
 90
        2
176
     1
 62
     7
176
     1
 62
   257
176
     1
 90
        1
176
     1
 90
        1
176
     1
 40
179.0
176
     1
 90
        8
176
     1
 62
     7
176
     1
 40
1.0
176
     1
 90
        1
176
     1
 90
        6
176
     1
 90
        2
176
     1
 62
     7
176
     1
 90
        3
176
     1
 90
        0
176
     1
 90
        0
176
     1
290
     0
176
     1
 90
        1
176
     1
 40
0.0
176
     1
 90
        0
176
     1
290
     0
176
     1
290
     1
176
     1
290
     1
176
     1
290
     0
176
     1
290
     0
176
     1
290
     0
176
     1
290
     0
176
     1
290
     0
176
     1
290
     0
176
     1
 90
       50
176
     1
 40
0.0
176
     1
 40
1.0
176
     1
 90
        0
176
     1
 62
    18
420
        0
176
     1
 90
       50
176
     1
 90
        3
176
     1
 62
     5
420
      255
176
     1
290
     0
176
     1
 90
       50
176
     1
 90
       50
176
     1
 90
       50
176
     1
290
     0
176
     1
 90
       50
176
     1
 62
   256
176
     0
 40
1.0
176
     0
 90
        2
176
     1
  1
strokes_ogs.tif
176
     1
290
     0
176
     1
 40
1.0
176
     1
 40
1.0
176
     1
  0
VISUALSTYLE
  5
35
102
{ACAD_REACTORS
330
2A
102
}
330
2A
100
AcDbVisualStyle
  2
Dim
 70
    11
177
     3
291
     1
 70
    58
 90
        2
176
     1
 90
        2
176
     1
 90
        0
176
     1
 90
        0
176
     1
 40
0.6
176
     1
 40
30.0
176
     1
 62
     7
420
 16777215
176
     1
 90
        1
176
     1
 90
        4
176
     1
 62
     7
176
     1
 62
   257
176
     1
 90
        1
176
     1
 90
        1
176
     1
 40
1.0
176
     1
 90
        8
176
     1
 62
     7
176
     1
 40
1.0
176
     1
 90
        1
176
     1
 90
        6
176
     1
 90
        2
176
     1
 62
     7
176
     1
 90
        5
176
     1
 90
        0
176
     1
 90
        0
176
     1
290
     0
176
     1
 90
        1
176
     1
 40
-50.0
176
     1
 90
        0
176
     1
290
     0
176
     1
290
     1
176
     1
290
     1
176
     1
290
     0
176
     1
290
     0
176
     1
290
     0
176
     1
290
     0
176
     1
290
     0
176
     1
290
     0
176
     1
 90
       50
176
     1
 40
0.0
176
     1
 40
1.0
176
     1
 90
        0
176
     1
 62
    18
420
        0
176
     1
 90
       50
176
     1
 90
        3
176
     1
 62
     5
420
      255
176
     1
290
     0
176
     1
 90
       50
176
     1
 90
       50
176
     1
 90
       50
176
     1
290
     0
176
     1
 90
       50
176
     1
 62
   256
176
     0
 40
1.0
176
     0
 90
        2
176
     1
  1
strokes_ogs.tif
176
     1
290
     0
176
     1
 40
1.0
176
     1
 40
1.0
176
     1
  0
VISUALSTYLE
  5
3D
102
{ACAD_REACTORS
330
2A
102
}
330
2A
100
AcDbVisualStyle
  2
EdgeColorOff
 70
    22
177
     3
291
     1
 70
    58
 90
        2
176
     0
 90
        2
176
     0
 90
        0
176
     0
 90
        0
176
     0
 40
0.6
176
     0
 40
30.0
176
     0
 62
     7
420
 16777215
176
     0
 90
        1
176
     0
 90
        4
176
     0
 62
     7
176
     0
 62
   257
176
     0
 90
        1
176
     0
 90
        1
176
     0
 40
1.0
176
     0
 90
        8
176
     2
 62
     7
176
     0
 40
1.0
176
     0
 90
        1
176
     0
 90
        6
176
     0
 90
        2
176
     0
 62
     7
176
     0
 90
        5
176
     0
 90
        0
176
     0
 90
        0
176
     0
290
     0
176
     0
 90
        1
176
     0
 40
0.0
176
     0
 90
        0
176
     0
290
     0
176
     0
290
     1
176
     0
290
     1
176
     0
290
     0
176
     0
290
     0
176
     0
290
     0
176
     0
290
     0
176
     0
290
     0
176
     0
290
     0
176
     0
 90
       50
176
     0
 40
0.0
176
     0
 40
1.0
176
     0
 90
        0
176
     0
 62
    18
420
        0
176
     0
 90
       50
176
     0
 90
        3
176
     0
 62
     5
420
      255
176
     0
290
     0
176
     0
 90
       50
176
     0
 90
       50
176
     0
 90
       50
176
     0
290
     0
176
     0
 90
       50
176
     0
 62
   256
176
     0
 40
1.0
176
     0
 90
        2
176
     0
  1
strokes_ogs.tif
176
     0
290
     0
176
     0
 40
1.0
176
     0
 40
1.0
176
     0
  0
VISUALSTYLE
  5
39
102
{ACAD_REACTORS
330
2A
102
}
330
2A
100
AcDbVisualStyle
  2
Facepattern
 70
    15
177
     3
291
     1
 70
    58
 90
        2
176
     1
 90
        2
176
     1
 90
        0
176
     1
 90
        0
176
     1
 40
0.6
176
     1
 40
30.0
176
     1
 62
     7
420
 16777215
176
     1
 90
        1
176
     1
 90
        4
176
     1
 62
     7
176
     1
 62
   257
176
     1
 90
        1
176
     1
 90
        1
176
     1
 40
1.0
176
     1
 90
        8
176
     1
 62
     7
176
     1
 40
1.0
176
     1
 90
        1
176
     1
 90
        6
176
     1
 90
        2
176
     1
 62
     7
176
     1
 90
        5
176
     1
 90
        0
176
     1
 90
        0
176
     1
290
     0
176
     1
 90
        1
176
     1
 40
0.0
176
     1
 90
        0
176
     1
290
     0
176
     1
290
     1
176
     1
290
     1
176
     1
290
     0
176
     1
290
     0
176
     1
290
     0
176
     1
290
     0
176
     1
290
     0
176
     1
290
     0
176
     1
 90
       50
176
     1
 40
0.0
176
     1
 40
1.0
176
     1
 90
        0
176
     1
 62
    18
420
        0
176
     1
 90
       50
176
     1
 90
        3
176
     1
 62
     5
420
      255
176
     1
290
     0
176
     1
 90
       50
176
     1
 90
       50
176
     1
 90
       50
176
     1
290
     0
176
     1
 90
       50
176
     1
 62
   256
176
     0
 40
1.0
176
     0
 90
        2
176
     1
  1
strokes_ogs.tif
176
     1
290
     0
176
     1
 40
1.0
176
     1
 40
1.0
176
     1
  0
VISUALSTYLE
  5
2B
102
{ACAD_REACTORS
330
2A
102
}
330
2A
100
AcDbVisualStyle
  2
Flat
 70
     0
177
     3
291
     1
 70
    58
 90
        2
176
     1
 90
        1
176
     1
 90
        1
176
     1
 90
        2
176
     1
 40
0.6
176
     1
 40
30.0
176
     1
 62
     7
420
 16777215
176
     1
 90
        0
176
     1
 90
        0
176
     1
 62
     7
176
     1
 62
   257
176
     1
 90
        1
176
     1
 90
        1
176
     1
 40
1.0
176
     1
 90
        8
176
     1
 62
     7
176
     1
 40
1.0
176
     1
 90
        1
176
     1
 90
        6
176
     1
 90
        2
176
     1
 62
     7
176
     1
 90
        5
176
     1
 90
        0
176
     1
 90
        0
176
     1
290
     0
176
     1
 90
       13
176
     1
 40
0.0
176
     1
 90
        0
176
     1
290
     0
176
     1
290
     1
176
     1
290
     1
176
     1
290
     0
176
     1
290
     0
176
     1
290
     0
176
     1
290
     0
176
     1
290
     0
176
     1
290
     0
176
     1
 90
       50
176
     1
 40
0.0
176
     1
 40
1.0
176
     1
 90
        0
176
     1
 62
    18
420
        0
176
     1
 90
       50
176
     1
 90
        3
176
     1
 62
     5
420
      255
176
     1
290
     0
176
     1
 90
       50
176
     1
 90
       50
176
     1
 90
       50
176
     1
290
     0
176
     1
 90
       50
176
     1
 62
   256
176
     0
 40
1.0
176
     0
 90
        2
176
     1
  1
strokes_ogs.tif
176
     1
290
     0
176
     1
 40
1.0
176
     1
 40
1.0
176
     1
  0
VISUALSTYLE
  5
2C
102
{ACAD_REACTORS
330
2A
102
}
330
2A
100
AcDbVisualStyle
  2
FlatWithEdges
 70
     1
177
     3
291
     1
 70
    58
 90
        2
176
     1
 90
        1
176
     1
 90
        1
176
     1
 90
        2
176
     1
 40
0.6
176
     1
 40
30.0
176
     1
 62
     7
420
 16777215
176
     1
 90
        1
176
     1
 90
        0
176
     1
 62
     7
176
     1
 62
   257
176
     1
 90
        1
176
     1
 90
        1
176
     1
 40
1.0
176
     1
 90
        0
176
     1
 62
   257
176
     1
 40
1.0
176
     1
 90
        1
176
     1
 90
        6
176
     1
 90
        2
176
     1
 62
     7
176
     1
 90
        5
176
     1
 90
        0
176
     1
 90
        0
176
     1
290
     0
176
     1
 90
       13
176
     1
 40
0.0
176
     1
 90
        0
176
     1
290
     0
176
     1
290
     1
176
     1
290
     1
176
     1
290
     0
176
     1
290
     0
176
     1
290
     0
176
     1
290
     0
176
     1
290
     0
176
     1
290
     0
176
     1
 90
       50
176
     1
 40
0.0
176
     1
 40
1.0
176
     1
 90
        0
176
     1
 62
    18
420
        0
176
     1
 90
       50
176
     1
 90
        3
176
     1
 62
     5
420
      255
176
     1
290
     0
176
     1
 90
       50
176
     1
 90
       50
176
     1
 90
       50
176
     1
290
     0
176
     1
 90
       50
176
     1
 62
   256
176
     0
 40
1.0
176
     0
 90
        2
176
     1
  1
strokes_ogs.tif
176
     1
290
     0
176
     1
 40
1.0
176
     1
 40
1.0
176
     1
  0
VISUALSTYLE
  5
2D
102
{ACAD_REACTORS
330
2A
102
}
330
2A
100
AcDbVisualStyle
  2
Gouraud
 70
     2
177
     3
291
     1
 70
    58
 90
        2
176
     1
 90
        2
176
     1
 90
        1
176
     1
 90
        2
176
     1
 40
0.6
176
     1
 40
30.0
176
     1
 62
     7
420
 16777215
176
     1
 90
        0
176
     1
 90
        0
176
     1
 62
     7
176
     1
 62
   257
176
     1
 90
        1
176
     1
 90
        1
176
     1
 40
1.0
176
     1
 90
        0
176
     1
 62
     7
176
     1
 40
1.0
176
     1
 90
        1
176
     1
 90
        6
176
     1
 90
        2
176
     1
 62
     7
176
     1
 90
        5
176
     1
 90
        0
176
     1
 90
        0
176
     1
290
     0
176
     1
 90
       13
176
     1
 40
0.0
176
     1
 90
        0
176
     1
290
     0
176
     1
290
     1
176
     1
290
     1
176
     1
290
     0
176
     1
290
     0
176
     1
290
     0
176
     1
290
     0
176
     1
290
     0
176
     1
290
     0
176
     1
 90
       50
176
     1
 40
0.0
176
     1
 40
1.0
176
     1
 90
        0
176
     1
 62
    18
420
        0
176
     1
 90
       50
176
     1
 90
        3
176
     1
 62
     5
420
      255
176
     1
290
     0
176
     1
 90
       50
176
     1
 90
       50
176
     1
 90
       50
176
     1
290
     0
176
     1
 90
       50
176
     1
 62
   256
176
     0
 40
1.0
176
     0
 90
        2
176
     1
  1
strokes_ogs.tif
176
     1
290
     0
176
     1
 40
1.0
176
     1
 40
1.0
176
     1
  0
VISUALSTYLE
  5
2E
102
{ACAD_REACTORS
330
2A
102
}
330
2A
100
AcDbVisualStyle
  2
GouraudWithEdges
 70
     3
177
     3
291
     1
 70
    58
 90
        2
176
     1
 90
        2
176
     1
 90
        1
176
     1
 90
        2
176
     1
 40
0.6
176
     1
 40
30.0
176
     1
 62
     7
420
 16777215
176
     1
 90
        1
176
     1
 90
        0
176
     1
 62
     7
176
     1
 62
   257
176
     1
 90
        1
176
     1
 90
        1
176
     1
 40
1.0
176
     1
 90
        0
176
     1
 62
   257
176
     1
 40
1.0
176
     1
 90
        1
176
     1
 90
        6
176
     1
 90
        2
176
     1
 62
     7
176
     1
 90
        5
176
     1
 90
        0
176
     1
 90
        0
176
     1
290
     0
176
     1
 90
       13
176
     1
 40
0.0
176
     1
 90
        0
176
     1
290
     0
176
     1
290
     1
176
     1
290
     1
176
     1
290
     0
176
     1
290
     0
176
     1
290
     0
176
     1
290
     0
176
     1
290
     0
176
     1
290
     0
176
     1
 90
       50
176
     1
 40
0.0
176
     1
 40
1.0
176
     1
 90
        0
176
     1
 62
    18
420
        0
176
     1
 90
       50
176
     1
 90
        3
176
     1
 62
     5
420
      255
176
     1
290
     0
176
     1
 90
       50
176
     1
 90
       50
176
     1
 90
       50
176
     1
290
     0
176
     1
 90
       50
176
     1
 62
   256
176
     0
 40
1.0
176
     0
 90
        2
176
     1
  1
strokes_ogs.tif
176
     1
290
     0
176
     1
 40
1.0
176
     1
 40
1.0
176
     1
  0
VISUALSTYLE
  5
31
102
{ACAD_REACTORS
330
2A
102
}
330
2A
100
AcDbVisualStyle
  2
Hidden
 70
     6
177
     3
291
     0
 70
    58
 90
        1
176
     1
 90
        2
176
     1
 90
        2
176
     1
 90
        0
176
     1
 40
0.6
176
     1
 40
30.0
176
     1
 62
     7
420
 16777215
176
     1
 90
        2
176
     1
 90
        2
176
     1
 62
     7
176
     1
 62
   257
176
     1
 90
        2
176
     1
 90
        1
176
     1
 40
40.0
176
     1
 90
        0
176
     1
 62
   257
176
     1
 40
1.0
176
     1
 90
        1
176
     1
 90
        6
176
     1
 90
        2
176
     1
 62
     7
176
     1
 90
        3
176
     1
 90
        0
176
     1
 90
        0
176
     1
290
     0
176
     1
 90
        1
176
     1
 40
0.0
176
     1
 90
        0
176
     1
290
     0
176
     1
290
     1
176
     1
290
     1
176
     1
290
     0
176
     1
290
     0
176
     1
290
     0
176
     1
290
     0
176
     1
290
     0
176
     1
290
     0
176
     1
 90
       50
176
     1
 40
0.0
176
     1
 40
1.0
176
     1
 90
        0
176
     1
 62
    18
420
        0
176
     1
 90
       50
176
     1
 90
        3
176
     1
 62
     5
420
      255
176
     1
290
     0
176
     1
 90
       50
176
     1
 90
       50
176
     1
 90
       50
176
     1
290
     0
176
     1
 90
       50
176
     1
 62
   256
176
     0
 40
1.0
176
     0
 90
        2
176
     1
  1
strokes_ogs.tif
176
     1
290
     0
176
     1
 40
1.0
176
     1
 40
1.0
176
     1
  0
VISUALSTYLE
  5
3B
102
{ACAD_REACTORS
330
2A
102
}
330
2A
100
AcDbVisualStyle
  2
JitterOff
 70
    20
177
     3
291
     1
 70
    58
 90
        2
176
     0
 90
        2
176
     0
 90
        0
176
     0
 90
        0
176
     0
 40
0.6
176
     0
 40
30.0
176
     0
 62
     7
420
 16777215
176
     0
 90
        1
176
     0
 90
        4
176
     0
 62
     7
176
     0
 62
   257
176
     0
 90
        1
176
     0
 90
        1
176
     0
 40
1.0
176
     0
 90
       10
176
     2
 62
     7
176
     0
 40
1.0
176
     0
 90
        1
176
     0
 90
        6
176
     0
 90
        2
176
     0
 62
     7
176
     0
 90
        5
176
     0
 90
        0
176
     0
 90
        0
176
     0
290
     0
176
     0
 90
        1
176
     0
 40
0.0
176
     0
 90
        0
176
     0
290
     0
176
     0
290
     1
176
     0
290
     1
176
     0
290
     0
176
     0
290
     0
176
     0
290
     0
176
     0
290
     0
176
     0
290
     0
176
     0
290
     0
176
     0
 90
       50
176
     0
 40
0.0
176
     0
 40
1.0
176
     0
 90
        0
176
     0
 62
    18
420
        0
176
     0
 90
       50
176
     0
 90
        3
176
     0
 62
     5
420
      255
176
     0
290
     0
176
     0
 90
       50
176
     0
 90
       50
176
     0
 90
       50
176
     0
290
     0
176
     0
 90
       50
176
     0
 62
   256
176
     0
 40
1.0
176
     0
 90
        2
176
     0
  1
strokes_ogs.tif
176
     0
290
     0
176
     0
 40
1.0
176
     0
 40
1.0
176
     0
  0
VISUALSTYLE
  5
38
102
{ACAD_REACTORS
330
2A
102
}
330
2A
100
AcDbVisualStyle
  2
Linepattern
 70
    14
177
     3
291
     1
 70
    58
 90
        2
176
     1
 90
        2
176
     1
 90
        0
176
     1
 90
        0
176
     1
 40
0.6
176
     1
 40
30.0
176
     1
 62
     7
420
 16777215
176
     1
 90
        1
176
     1
 90
        4
176
     1
 62
     7
176
     1
 62
   257
176
     1
 90
        7
176
     1
 90
        7
176
     1
 40
1.0
176
     1
 90
        8
176
     1
 62
     7
176
     1
 40
1.0
176
     1
 90
        1
176
     1
 90
        6
176
     1
 90
        2
176
     1
 62
     7
176
     1
 90
        5
176
     1
 90
        0
176
     1
 90
        0
176
     1
290
     0
176
     1
 90
        1
176
     1
 40
0.0
176
     1
 90
        0
176
     1
290
     0
176
     1
290
     1
176
     1
290
     1
176
     1
290
     0
176
     1
290
     0
176
     1
290
     0
176
     1
290
     0
176
     1
290
     0
176
     1
290
     0
176
     1
 90
       50
176
     1
 40
0.0
176
     1
 40
1.0
176
     1
 90
        0
176
     1
 62
    18
420
        0
176
     1
 90
       50
176
     1
 90
        3
176
     1
 62
     5
420
      255
176
     1
290
     0
176
     1
 90
       50
176
     1
 90
       50
176
     1
 90
       50
176
     1
290
     0
176
     1
 90
       50
176
     1
 62
   256
176
     0
 40
1.0
176
     0
 90
        2
176
     1
  1
strokes_ogs.tif
176
     1
290
     0
176
     1
 40
1.0
176
     1
 40
1.0
176
     1
  0
VISUALSTYLE
  5
3C
102
{ACAD_REACTORS
330
2A
102
}
330
2A
100
AcDbVisualStyle
  2
OverhangOff
 70
    21
177
     3
291
     1
 70
    58
 90
        2
176
     0
 90
        2
176
     0
 90
        0
176
     0
 90
        0
176
     0
 40
0.6
176
     0
 40
30.0
176
     0
 62
     7
420
 16777215
176
     0
 90
        1
176
     0
 90
        4
176
     0
 62
     7
176
     0
 62
   257
176
     0
 90
        1
176
     0
 90
        1
176
     0
 40
1.0
176
     0
 90
        9
176
     2
 62
     7
176
     0
 40
1.0
176
     0
 90
        1
176
     0
 90
        6
176
     0
 90
        2
176
     0
 62
     7
176
     0
 90
        5
176
     0
 90
        0
176
     0
 90
        0
176
     0
290
     0
176
     0
 90
        1
176
     0
 40
0.0
176
     0
 90
        0
176
     0
290
     0
176
     0
290
     1
176
     0
290
     1
176
     0
290
     0
176
     0
290
     0
176
     0
290
     0
176
     0
290
     0
176
     0
290
     0
176
     0
290
     0
176
     0
 90
       50
176
     0
 40
0.0
176
     0
 40
1.0
176
     0
 90
        0
176
     0
 62
    18
420
        0
176
     0
 90
       50
176
     0
 90
        3
176
     0
 62
     5
420
      255
176
     0
290
     0
176
     0
 90
       50
176
     0
 90
       50
176
     0
 90
       50
176
     0
290
     0
176
     0
 90
       50
176
     0
 62
   256
176
     0
 40
1.0
176
     0
 90
        2
176
     0
  1
strokes_ogs.tif
176
     0
290
     0
176
     0
 40
1.0
176
     0
 40
1.0
176
     0
  0
VISUALSTYLE
  5
33
102
{ACAD_REACTORS
330
2A
102
}
330
2A
100
AcDbVisualStyle
  2
Realistic
 70
     8
177
     3
291
     0
 70
    58
 90
        2
176
     1
 90
        3
176
     1
 90
        0
176
     1
 90
        2
176
     1
 40
0.6
176
     1
 40
30.0
176
     1
 62
     7
420
 16777215
176
     1
 90
        0
176
     1
 90
        0
176
     1
 62
     7
176
     1
 62
   257
176
     1
 90
        1
176
     1
 90
        1
176
     1
 40
1.0
176
     1
 90
        8
176
     1
 62
   257
176
     1
 40
1.0
176
     1
 90
        1
176
     1
 90
        6
176
     1
 90
        2
176
     1
 62
     7
176
     1
 90
        3
176
     1
 90
        0
176
     1
 90
        0
176
     1
290
     0
176
     1
 90
       13
176
     1
 40
0.0
176
     1
 90
        0
176
     1
290
     0
176
     1
290
     1
176
     1
290
     1
176
     1
290
     0
176
     1
290
     0
176
     1
290
     0
176
     1
290
     0
176
     1
290
     0
176
     1
290
     0
176
     1
 90
       50
176
     1
 40
0.0
176
     1
 40
1.0
176
     1
 90
        0
176
     1
 62
    18
420
        0
176
     1
 90
       50
176
     1
 90
        3
176
     1
 62
     5
420
      255
176
     1
290
     0
176
     1
 90
       50
176
     1
 90
       50
176
     1
 90
       50
176
     1
290
     0
176
     1
 90
       50
176
     1
 62
   256
176
     0
 40
1.0
176
     0
 90
        2
176
     1
  1
strokes_ogs.tif
176
     1
290
     0
176
     1
 40
1.0
176
     1
 40
1.0
176
     1
  0
VISUALSTYLE
  5
42
102
{ACAD_REACTORS
330
2A
102
}
330
2A
100
AcDbVisualStyle
  2
Shaded
 70
    27
177
     3
291
     0
 70
    58
 90
        2
176
     1
 90
        2
176
     1
 90
        1
176
     1
 90
        2
176
     1
 40
0.6
176
     1
 40
30.0
176
     1
 62
     7
420
 16777215
176
     1
 90
        0
176
     1
 90
        4
176
     1
 62
     7
176
     1
 62
   257
176
     1
 90
        1
176
     1
 90
        1
176
     1
 40
1.0
176
     1
 90
        8
176
     1
 62
   257
176
     1
 40
1.0
176
     1
 90
        1
176
     1
 90
        6
176
     1
 90
        2
176
     1
 62
     8
420
  7895160
176
     1
 90
        3
176
     1
 90
        0
176
     1
 90
        0
176
     1
290
     0
176
     1
 90
        5
176
     1
 40
0.0
176
     1
 90
        0
176
     1
290
     0
176
     1
290
     1
176
     1
290
     1
176
     1
290
     0
176
     1
290
     0
176
     1
290
     0
176
     1
290
     0
176
     1
290
     0
176
     1
290
     0
176
     1
 90
       50
176
     1
 40
0.0
176
     1
 40
1.0
176
     1
 90
        0
176
     1
 62
    18
420
        0
176
     1
 90
       50
176
     1
 90
        3
176
     1
 62
     5
420
      255
176
     1
290
     0
176
     1
 90
       50
176
     1
 90
       50
176
     1
 90
       50
176
     1
290
     0
176
     1
 90
       50
176
     1
 62
   256
176
     0
 40
1.0
176
     0
 90
        2
176
     1
  1
strokes_ogs.tif
176
     1
290
     0
176
     1
 40
1.0
176
     1
 40
1.0
176
     1
  0
VISUALSTYLE
  5
41
102
{ACAD_REACTORS
330
2A
102
}
330
2A
100
AcDbVisualStyle
  2
Shaded with edges
 70
    26
177
     3
291
     0
 70
    58
 90
        2
176
     1
 90
        2
176
     1
 90
        1
176
     1
 90
        2
176
     1
 40
0.6
176
     1
 40
30.0
176
     1
 62
     7
420
 16777215
176
     1
 90
        1
176
     1
 90
       10
176
     1
 62
     7
176
     1
 62
   257
176
     1
 90
        2
176
     1
 90
        1
176
     1
 40
1.0
176
     1
 90
        8
176
     1
 62
   257
176
     1
 40
1.0
176
     1
 90
        1
176
     1
 90
        6
176
     1
 90
        2
176
     1
 62
     7
176
     1
 90
        3
176
     1
 90
        0
176
     1
 90
        0
176
     1
290
     0
176
     1
 90
        5
176
     1
 40
0.0
176
     1
 90
        0
176
     1
290
     0
176
     1
290
     1
176
     1
290
     1
176
     1
290
     0
176
     1
290
     0
176
     1
290
     0
176
     1
290
     0
176
     1
290
     0
176
     1
290
     0
176
     1
 90
       50
176
     1
 40
0.0
176
     1
 40
1.0
176
     1
 90
        0
176
     1
 62
    18
420
        0
176
     1
 90
       50
176
     1
 90
        3
176
     1
 62
     5
420
      255
176
     1
290
     0
176
     1
 90
       50
176
     1
 90
       50
176
     1
 90
       50
176
     1
290
     0
176
     1
 90
       50
176
     1
 62
   256
176
     0
 40
1.0
176
     0
 90
        2
176
     1
  1
strokes_ogs.tif
176
     1
290
     0
176
     1
 40
1.0
176
     1
 40
1.0
176
     1
  0
VISUALSTYLE
  5
3E
102
{ACAD_REACTORS
330
2A
102
}
330
2A
100
AcDbVisualStyle
  2
Shades of Gray
 70
    23
177
     3
291
     0
 70
    58
 90
        2
176
     1
 90
        2
176
     1
 90
        3
176
     1
 90
        0
176
     1
 40
0.6
176
     1
 40
30.0
176
     1
 62
     7
420
 16777215
176
     1
 90
        2
176
     1
 90
        2
176
     1
 62
     7
176
     1
 62
     7
176
     1
 90
        1
176
     1
 90
        1
176
     1
 40
40.0
176
     1
 90
        8
176
     1
 62
     7
176
     1
 40
1.0
176
     1
 90
        1
176
     1
 90
        6
176
     1
 90
        2
176
     1
 62
     7
176
     1
 90
        3
176
     1
 90
        0
176
     1
 90
        0
176
     1
290
     0
176
     1
 90
        1
176
     1
 40
0.0
176
     1
 90
        0
176
     1
290
     0
176
     1
290
     1
176
     1
290
     1
176
     1
290
     0
176
     1
290
     0
176
     1
290
     0
176
     1
290
     0
176
     1
290
     0
176
     1
290
     0
176
     1
 90
       50
176
     1
 40
0.0
176
     1
 40
1.0
176
     1
 90
        0
176
     1
 62
    18
420
        0
176
     1
 90
       50
176
     1
 90
        3
176
     1
 62
     5
420
      255
176
     1
290
     0
176
     1
 90
       50
176
     1
 90
       50
176
     1
 90
       50
176
     1
290
     0
176
     1
 90
       50
176
     1
 62
   256
176
     0
 40
1.0
176
     0
 90
        2
176
     1
  1
strokes_ogs.tif
176
     1
290
     0
176
     1
 40
1.0
176
     1
 40
1.0
176
     1
  0
VISUALSTYLE
  5
3F
102
{ACAD_REACTORS
330
2A
102
}
330
2A
100
AcDbVisualStyle
  2
Sketchy
 70
    24
177
     3
291
     0
 70
    58
 90
        1
176
     1
 90
        2
176
     1
 90
        2
176
     1
 90
        0
176
     1
 40
0.6
176
     1
 40
30.0
176
     1
 62
     7
420
 16777215
176
     1
 90
        2
176
     1
 90
        2
176
     1
 62
     7
176
     1
 62
     7
176
     1
 90
        1
176
     1
 90
        1
176
     1
 40
40.0
176
     1
 90
       11
176
     1
 62
     7
176
     1
 40
1.0
176
     1
 90
        1
176
     1
 90
        6
176
     1
 90
        2
176
     1
 62
     7
176
     1
 90
        6
176
     1
 90
        0
176
     1
 90
        0
176
     1
290
     0
176
     1
 90
        1
176
     1
 40
0.0
176
     1
 90
        0
176
     1
290
     0
176
     1
290
     1
176
     1
290
     1
176
     1
290
     0
176
     1
290
     0
176
     1
290
     0
176
     1
290
     0
176
     1
290
     0
176
     1
290
     0
176
     1
 90
       50
176
     1
 40
0.0
176
     1
 40
1.0
176
     1
 90
        0
176
     1
 62
    18
420
        0
176
     1
 90
       50
176
     1
 90
        3
176
     1
 62
     5
420
      255
176
     1
290
     0
176
     1
 90
       50
176
     1
 90
       50
176
     1
 90
       50
176
     1
290
     0
176
     1
 90
       50
176
     1
 62
   256
176
     0
 40
1.0
176
     0
 90
        2
176
     1
  1
strokes_ogs.tif
176
     1
290
     0
176
     1
 40
1.0
176
     1
 40
1.0
176
     1
  0
VISUALSTYLE
  5
37
102
{ACAD_REACTORS
330
2A
102
}
330
2A
100
AcDbVisualStyle
  2
Thicken
 70
    13
177
     3
291
     1
 70
    58
 90
        2
176
     1
 90
        2
176
     1
 90
        0
176
     1
 90
        0
176
     1
 40
0.6
176
     1
 40
30.0
176
     1
 62
     7
420
 16777215
176
     1
 90
        1
176
     1
 90
        4
176
     1
 62
     7
176
     1
 62
   257
176
     1
 90
        1
176
     1
 90
        1
176
     1
 40
1.0
176
     1
 90
       12
176
     1
 62
     7
176
     1
 40
1.0
176
     1
 90
        1
176
     1
 90
        6
176
     1
 90
        2
176
     1
 62
     7
176
     1
 90
        5
176
     1
 90
        0
176
     1
 90
        0
176
     1
290
     0
176
     1
 90
        1
176
     1
 40
0.0
176
     1
 90
        0
176
     1
290
     0
176
     1
290
     1
176
     1
290
     1
176
     1
290
     0
176
     1
290
     0
176
     1
290
     0
176
     1
290
     0
176
     1
290
     0
176
     1
290
     0
176
     1
 90
       50
176
     1
 40
0.0
176
     1
 40
1.0
176
     1
 90
        0
176
     1
 62
    18
420
        0
176
     1
 90
       50
176
     1
 90
        3
176
     1
 62
     5
420
      255
176
     1
290
     0
176
     1
 90
       50
176
     1
 90
       50
176
     1
 90
       50
176
     1
290
     0
176
     1
 90
       50
176
     1
 62
   256
176
     0
 40
1.0
176
     0
 90
        2
176
     1
  1
strokes_ogs.tif
176
     1
290
     0
176
     1
 40
1.0
176
     1
 40
1.0
176
     1
  0
VISUALSTYLE
  5
30
102
{ACAD_REACTORS
330
2A
102
}
330
2A
100
AcDbVisualStyle
  2
Wireframe
 70
     5
177
     3
291
     0
 70
    58
 90
        0
176
     1
 90
        2
176
     1
 90
        0
176
     1
 90
        0
176
     1
 40
0.6
176
     1
 40
30.0
176
     1
 62
     7
420
 16777215
176
     1
 90
        1
176
     1
 90
        4
176
     1
 62
     7
176
     1
 62
   257
176
     1
 90
        1
176
     1
 90
        1
176
     1
 40
1.0
176
     1
 90
        0
176
     1
 62
   257
176
     1
 40
1.0
176
     1
 90
        1
176
     1
 90
        6
176
     1
 90
        2
176
     1
 62
     7
176
     1
 90
        3
176
     1
 90
        0
176
     1
 90
        0
176
     1
290
     0
176
     1
 90
        1
176
     1
 40
0.0
176
     1
 90
        0
176
     1
290
     0
176
     1
290
     1
176
     1
290
     1
176
     1
290
     0
176
     1
290
     0
176
     1
290
     0
176
     1
290
     0
176
     1
290
     0
176
     1
290
     0
176
     1
 90
       50
176
     1
 40
0.0
176
     1
 40
1.0
176
     1
 90
        0
176
     1
 62
    18
420
        0
176
     1
 90
       50
176
     1
 90
        3
176
     1
 62
     5
420
      255
176
     1
290
     0
176
     1
 90
       50
176
     1
 90
       50
176
     1
 90
       50
176
     1
290
     0
176
     1
 90
       50
176
     1
 62
   256
176
     0
 40
1.0
176
     0
 90
        2
176
     1
  1
strokes_ogs.tif
176
     1
290
     0
176
     1
 40
1.0
176
     1
 40
1.0
176
     1
  0
VISUALSTYLE
  5
40
102
{ACAD_REACTORS
330
2A
102
}
330
2A
100
AcDbVisualStyle
  2
X-Ray
 70
    25
177
     3
291
     0
 70
    58
 90
        2
176
     1
 90
        2
176
     1
 90
        1
176
     1
 90
        1
176
     1
 40
0.5
176
     1
 40
30.0
176
     1
 62
     7
420
 16777215
176
     1
 90
        1
176
     1
 90
        0
176
     1
 62
     7
176
     1
 62
   257
176
     1
 90
        1
176
     1
 90
        1
176
     1
 40
1.0
176
     1
 90
        8
176
     1
 62
     7
176
     1
 40
1.0
176
     1
 90
        1
176
     1
 90
        6
176
     1
 90
        2
176
     1
 62
     7
176
     1
 90
        3
176
     1
 90
        0
176
     1
 90
        0
176
     1
290
     0
176
     1
 90
       13
176
     1
 40
0.0
176
     1
 90
        0
176
     1
290
     0
176
     1
290
     1
176
     1
290
     1
176
     1
290
     0
176
     1
290
     0
176
     1
290
     0
176
     1
290
     0
176
     1
290
     0
176
     1
290
     0
176
     1
 90
       50
176
     1
 40
0.0
176
     1
 40
1.0
176
     1
 90
        0
176
     1
 62
    18
420
        0
176
     1
 90
       50
176
     1
 90
        3
176
     1
 62
     5
420
      255
176
     1
290
     0
176
     1
 90
       50
176
     1
 90
       50
176
     1
 90
       50
176
     1
290
     0
176
     1
 90
       50
176
     1
 62
   256
176
     0
 40
1.0
176
     0
 90
        2
176
     1
  1
strokes_ogs.tif
176
     1
290
     0
176
     1
 40
1.0
176
     1
 40
1.0
176
     1
  0
DICTIONARYVAR
  5
40F
102
{ACAD_REACTORS
330
40E
102
}
330
40E
100
DictionaryVariables
280
     0
  1
1:1
  0
DICTIONARYVAR
  5
414
102
{ACAD_REACTORS
330
40E
102
}
330
40E
100
DictionaryVariables
280
     0
  1
Standard
  0
DICTIONARYVAR
  5
413
102
{ACAD_REACTORS
330
40E
102
}
330
40E
100
DictionaryVariables
280
     0
  1
Standard
  0
DICTIONARYVAR
  5
417
102
{ACAD_REACTORS
330
40E
102
}
330
40E
100
DictionaryVariables
280
     0
  1
0
  0
DICTIONARY
  5
410
330
6A
100
AcDbDictionary
280
     1
281
     1
  3
ACAD_ROUNDTRIP_2008_TABLESTYLE_CELLSTYLEMAP
360
411
  0
CELLSTYLEMAP
  5
411
102
{ACAD_REACTORS
330
410
102
}
330
410
100
AcDbCellStyleMap
 90
        3
300
CELLSTYLE
  1
TABLEFORMAT_BEGIN
 90
        5
170
     1
 91
        0
 92
    32768
 62
   257
 93
        1
300
CONTENTFORMAT
  1
CONTENTFORMAT_BEGIN
 90
        0
 91
        0
 92
        4
 93
        0
300

 40
0.0
140
1.0
 94
        5
 62
     0
340
11
144
0.25
309
CONTENTFORMAT_END
171
     1
301
MARGIN
  1
CELLMARGIN_BEGIN
 40
0.06
 40
0.06
 40
0.06
 40
0.06
 40
0.06
 40
0.06
309
CELLMARGIN_END
 94
        6
 95
        1
302
GRIDFORMAT
  1
GRIDFORMAT_BEGIN
 90
        0
 91
        1
 62
     0
 92
       -2
340
14
 93
        0
 40
0.045
309
GRIDFORMAT_END
 95
        2
302
GRIDFORMAT
  1
GRIDFORMAT_BEGIN
 90
        0
 91
        1
 62
     0
 92
       -2
340
14
 93
        0
 40
0.045
309
GRIDFORMAT_END
 95
        4
302
GRIDFORMAT
  1
GRIDFORMAT_BEGIN
 90
        0
 91
        1
 62
     0
 92
       -2
340
14
 93
        0
 40
0.045
309
GRIDFORMAT_END
 95
        8
302
GRIDFORMAT
  1
GRIDFORMAT_BEGIN
 90
        0
 91
        1
 62
     0
 92
       -2
340
14
 93
        0
 40
0.045
309
GRIDFORMAT_END
 95
       16
302
GRIDFORMAT
  1
GRIDFORMAT_BEGIN
 90
        0
 91
        1
 62
     0
 92
       -2
340
14
 93
        0
 40
0.045
309
GRIDFORMAT_END
 95
       32
302
GRIDFORMAT
  1
GRIDFORMAT_BEGIN
 90
        0
 91
        1
 62
     0
 92
       -2
340
14
 93
        0
 40
0.045
309
GRIDFORMAT_END
309
TABLEFORMAT_END
  1
CELLSTYLE_BEGIN
 90
        1
 91
        1
300
_TITLE
309
CELLSTYLE_END
300
CELLSTYLE
  1
TABLEFORMAT_BEGIN
 90
        5
170
     1
 91
        0
 92
        0
 62
   257
 93
        1
300
CONTENTFORMAT
  1
CONTENTFORMAT_BEGIN
 90
        0
 91
        0
 92
        4
 93
        0
300

 40
0.0
140
1.0
 94
        5
 62
     0
340
11
144
0.18
309
CONTENTFORMAT_END
171
     1
301
MARGIN
  1
CELLMARGIN_BEGIN
 40
0.06
 40
0.06
 40
0.06
 40
0.06
 40
0.06
 40
0.06
309
CELLMARGIN_END
 94
        6
 95
        1
302
GRIDFORMAT
  1
GRIDFORMAT_BEGIN
 90
        0
 91
        1
 62
     0
 92
       -2
340
14
 93
        0
 40
0.045
309
GRIDFORMAT_END
 95
        2
302
GRIDFORMAT
  1
GRIDFORMAT_BEGIN
 90
        0
 91
        1
 62
     0
 92
       -2
340
14
 93
        0
 40
0.045
309
GRIDFORMAT_END
 95
        4
302
GRIDFORMAT
  1
GRIDFORMAT_BEGIN
 90
        0
 91
        1
 62
     0
 92
       -2
340
14
 93
        0
 40
0.045
309
GRIDFORMAT_END
 95
        8
302
GRIDFORMAT
  1
GRIDFORMAT_BEGIN
 90
        0
 91
        1
 62
     0
 92
       -2
340
14
 93
        0
 40
0.045
309
GRIDFORMAT_END
 95
       16
302
GRIDFORMAT
  1
GRIDFORMAT_BEGIN
 90
        0
 91
        1
 62
     0
 92
       -2
340
14
 93
        0
 40
0.045
309
GRIDFORMAT_END
 95
       32
302
GRIDFORMAT
  1
GRIDFORMAT_BEGIN
 90
        0
 91
        1
 62
     0
 92
       -2
340
14
 93
        0
 40
0.045
309
GRIDFORMAT_END
309
TABLEFORMAT_END
  1
CELLSTYLE_BEGIN
 90
        2
 91
        1
300
_HEADER
309
CELLSTYLE_END
300
CELLSTYLE
  1
TABLEFORMAT_BEGIN
 90
        5
170
     1
 91
        0
 92
        0
 62
   257
 93
        1
300
CONTENTFORMAT
  1
CONTENTFORMAT_BEGIN
 90
        0
 91
        0
 92
        4
 93
        0
300

 40
0.0
140
1.0
 94
        2
 62
     0
340
11
144
0.18
309
CONTENTFORMAT_END
171
     1
301
MARGIN
  1
CELLMARGIN_BEGIN
 40
0.06
 40
0.06
 40
0.06
 40
0.06
 40
0.06
 40
0.06
309
CELLMARGIN_END
 94
        6
 95
        1
302
GRIDFORMAT
  1
GRIDFORMAT_BEGIN
 90
        0
 91
        1
 62
     0
 92
       -2
340
14
 93
        0
 40
0.045
309
GRIDFORMAT_END
 95
        2
302
GRIDFORMAT
  1
GRIDFORMAT_BEGIN
 90
        0
 91
        1
 62
     0
 92
       -2
340
14
 93
        0
 40
0.045
309
GRIDFORMAT_END
 95
        4
302
GRIDFORMAT
  1
GRIDFORMAT_BEGIN
 90
        0
 91
        1
 62
     0
 92
       -2
340
14
 93
        0
 40
0.045
309
GRIDFORMAT_END
 95
        8
302
GRIDFORMAT
  1
GRIDFORMAT_BEGIN
 90
        0
 91
        1
 62
     0
 92
       -2
340
14
 93
        0
 40
0.045
309
GRIDFORMAT_END
 95
       16
302
GRIDFORMAT
  1
GRIDFORMAT_BEGIN
 90
        0
 91
        1
 62
     0
 92
       -2
340
14
 93
        0
 40
0.045
309
GRIDFORMAT_END
 95
       32
302
GRIDFORMAT
  1
GRIDFORMAT_BEGIN
 90
        0
 91
        1
 62
     0
 92
       -2
340
14
 93
        0
 40
0.045
309
GRIDFORMAT_END
309
TABLEFORMAT_END
  1
CELLSTYLE_BEGIN
 90
        3
 91
        2
300
_DATA
309
CELLSTYLE_END
  0
ENDSEC
  0
EOF
