  0
SECTION
  2
HEADER
  9
$ACADVER
  1
AC1027
  9
$ACADMAINTVER
 70
   105
  9
$DWGCODEPAGE
  3
ANSI_1252
  9
$REQUIREDVERSIONS
160
                 0
  9
$INSBASE
 10
0.0
 20
0.0
 30
0.0
  9
$EXTMIN
 10
4396.300343097579
 20
-4143.810001159949
 30
0.0
  9
$EXTMAX
 10
4790.300343097579
 20
-3601.81000115994
 30
0.0
  9
$LIMMIN
 10
0.0
 20
0.0
  9
$LIMMAX
 10
12.0
 20
9.0
  9
$ORTHOMODE
 70
     0
  9
$REGENMODE
 70
     1
  9
$FILLMODE
 70
     1
  9
$QTEXTMODE
 70
     0
  9
$MIRRTEXT
 70
     1
  9
$LTSCALE
 40
2.0
  9
$ATTMODE
 70
     1
  9
$TEXTSIZE
 40
0.2
  9
$TRACEWID
 40
0.05
  9
$TEXTSTYLE
  7
Standard
  9
$CLAYER
  8
0
  9
$CELTYPE
  6
ByLayer
  9
$CECOLOR
 62
   256
  9
$CELTSCALE
 40
1.0
  9
$DISPSILH
 70
     0
  9
$DIMSCALE
 40
1.0
  9
$DIMASZ
 40
0.18
  9
$DIMEXO
 40
0.0625
  9
$DIMDLI
 40
0.38
  9
$DIMRND
 40
0.0
  9
$DIMDLE
 40
0.0
  9
$DIMEXE
 40
0.18
  9
$DIMTP
 40
0.0
  9
$DIMTM
 40
0.0
  9
$DIMTXT
 40
0.18
  9
$DIMCEN
 40
0.09
  9
$DIMTSZ
 40
0.0
  9
$DIMTOL
 70
     0
  9
$DIMLIM
 70
     0
  9
$DIMTIH
 70
     1
  9
$DIMTOH
 70
     1
  9
$DIMSE1
 70
     0
  9
$DIMSE2
 70
     0
  9
$DIMTAD
 70
     0
  9
$DIMZIN
 70
     0
  9
$DIMBLK
  1

  9
$DIMASO
 70
     1
  9
$DIMSHO
 70
     1
  9
$DIMPOST
  1

  9
$DIMAPOST
  1

  9
$DIMALT
 70
     0
  9
$DIMALTD
 70
     2
  9
$DIMALTF
 40
25.4
  9
$DIMLFAC
 40
1.0
  9
$DIMTOFL
 70
     1
  9
$DIMTVP
 40
0.0
  9
$DIMTIX
 70
     0
  9
$DIMSOXD
 70
     1
  9
$DIMSAH
 70
     0
  9
$DIMBLK1
  1

  9
$DIMBLK2
  1

  9
$DIMSTYLE
  2
Standard
  9
$DIMCLRD
 70
     0
  9
$DIMCLRE
 70
     0
  9
$DIMCLRT
 70
     0
  9
$DIMTFAC
 40
1.0
  9
$DIMGAP
 40
0.09
  9
$DIMJUST
 70
     0
  9
$DIMSD1
 70
     0
  9
$DIMSD2
 70
     0
  9
$DIMTOLJ
 70
     1
  9
$DIMTZIN
 70
     0
  9
$DIMALTZ
 70
     0
  9
$DIMALTTZ
 70
     0
  9
$DIMUPT
 70
     0
  9
$DIMDEC
 70
     4
  9
$DIMTDEC
 70
     4
  9
$DIMALTU
 70
     2
  9
$DIMALTTD
 70
     2
  9
$DIMTXSTY
  7
Standard
  9
$DIMAUNIT
 70
     0
  9
$DIMADEC
 70
     0
  9
$DIMALTRND
 40
0.0
  9
$DIMAZIN
 70
     0
  9
$DIMDSEP
 70
    46
  9
$DIMATFIT
 70
     3
  9
$DIMFRAC
 70
     0
  9
$DIMLDRBLK
  1

  9
$DIMLUNIT
 70
     2
  9
$DIMLWD
 70
    -2
  9
$DIMLWE
 70
    -2
  9
$DIMTMOVE
 70
     2
  9
$DIMFXL
 40
1.0
  9
$DIMFXLON
 70
     0
  9
$DIMJOGANG
 40
0.7853981633974483
  9
$DIMTFILL
 70
     0
  9
$DIMTFILLCLR
 70
     0
  9
$DIMARCSYM
 70
     0
  9
$DIMLTYPE
  6

  9
$DIMLTEX1
  6

  9
$DIMLTEX2
  6

  9
$DIMTXTDIRECTION
 70
     0
  9
$LUNITS
 70
     2
  9
$LUPREC
 70
     4
  9
$SKETCHINC
 40
0.1
  9
$FILLETRAD
 40
0.5
  9
$AUNITS
 70
     0
  9
$AUPREC
 70
     0
  9
$MENU
  1
.
  9
$ELEVATION
 40
0.0
  9
$PELEVATION
 40
0.0
  9
$THICKNESS
 40
0.0
  9
$LIMCHECK
 70
     0
  9
$CHAMFERA
 40
0.0
  9
$CHAMFERB
 40
0.0
  9
$CHAMFERC
 40
0.0
  9
$CHAMFERD
 40
0.0
  9
$SKPOLY
 70
     0
  9
$TDCREATE
 40
2459173.663397327
  9
$TDUCREATE
 40
2459173.62173066
  9
$TDUPDATE
 40
2459173.663400289
  9
$TDUUPDATE
 40
2459173.621733623
  9
$TDINDWG
 40
0.0000000116
  9
$TDUSRTIMER
 40
0.0000000116
  9
$USRTIMER
 70
     1
  9
$ANGBASE
 50
0.0
  9
$ANGDIR
 70
     0
  9
$PDMODE
 70
     0
  9
$PDSIZE
 40
0.0
  9
$PLINEWID
 40
0.0
  9
$SPLFRAME
 70
     0
  9
$SPLINETYPE
 70
     6
  9
$SPLINESEGS
 70
     8
  9
$HANDSEED
  5
40A
  9
$SURFTAB1
 70
     6
  9
$SURFTAB2
 70
     6
  9
$SURFTYPE
 70
     6
  9
$SURFU
 70
     6
  9
$SURFV
 70
     6
  9
$UCSBASE
  2

  9
$UCSNAME
  2

  9
$UCSORG
 10
0.0
 20
0.0
 30
0.0
  9
$UCSXDIR
 10
1.0
 20
0.0
 30
0.0
  9
$UCSYDIR
 10
0.0
 20
1.0
 30
0.0
  9
$UCSORTHOREF
  2

  9
$UCSORTHOVIEW
 70
     0
  9
$UCSORGTOP
 10
0.0
 20
0.0
 30
0.0
  9
$UCSORGBOTTOM
 10
0.0
 20
0.0
 30
0.0
  9
$UCSORGLEFT
 10
0.0
 20
0.0
 30
0.0
  9
$UCSORGRIGHT
 10
0.0
 20
0.0
 30
0.0
  9
$UCSORGFRONT
 10
0.0
 20
0.0
 30
0.0
  9
$UCSORGBACK
 10
0.0
 20
0.0
 30
0.0
  9
$PUCSBASE
  2

  9
$PUCSNAME
  2

  9
$PUCSORG
 10
0.0
 20
0.0
 30
0.0
  9
$PUCSXDIR
 10
1.0
 20
0.0
 30
0.0
  9
$PUCSYDIR
 10
0.0
 20
1.0
 30
0.0
  9
$PUCSORTHOREF
  2

  9
$PUCSORTHOVIEW
 70
     0
  9
$PUCSORGTOP
 10
0.0
 20
0.0
 30
0.0
  9
$PUCSORGBOTTOM
 10
0.0
 20
0.0
 30
0.0
  9
$PUCSORGLEFT
 10
0.0
 20
0.0
 30
0.0
  9
$PUCSORGRIGHT
 10
0.0
 20
0.0
 30
0.0
  9
$PUCSORGFRONT
 10
0.0
 20
0.0
 30
0.0
  9
$PUCSORGBACK
 10
0.0
 20
0.0
 30
0.0
  9
$USERI1
 70
     0
  9
$USERI2
 70
     0
  9
$USERI3
 70
     0
  9
$USERI4
 70
     0
  9
$USERI5
 70
     0
  9
$USERR1
 40
0.0
  9
$USERR2
 40
0.0
  9
$USERR3
 40
0.0
  9
$USERR4
 40
0.0
  9
$USERR5
 40
0.0
  9
$WORLDVIEW
 70
     1
  9
$SHADEDGE
 70
     3
  9
$SHADEDIF
 70
    70
  9
$TILEMODE
 70
     1
  9
$MAXACTVP
 70
    64
  9
$PINSBASE
 10
0.0
 20
0.0
 30
0.0
  9
$PLIMCHECK
 70
     0
  9
$PEXTMIN
 10
0.0
 20
0.0
 30
0.0
  9
$PEXTMAX
 10
197.6
 20
271.5999999999973
 30
0.0
  9
$PLIMMIN
 10
-20.0
 20
-7.5
  9
$PLIMMAX
 10
277.0
 20
202.5
  9
$UNITMODE
 70
     0
  9
$VISRETAIN
 70
     1
  9
$PLINEGEN
 70
     0
  9
$PSLTSCALE
 70
     0
  9
$TREEDEPTH
 70
  3020
  9
$CMLSTYLE
  2
Standard
  9
$CMLJUST
 70
     0
  9
$CMLSCALE
 40
1.0
  9
$PROXYGRAPHICS
 70
     1
  9
$MEASUREMENT
 70
     1
  9
$CELWEIGHT
370
    -1
  9
$ENDCAPS
280
     0
  9
$JOINSTYLE
280
     0
  9
$LWDISPLAY
290
     0
  9
$INSUNITS
 70
     4
  9
$HYPERLINKBASE
  1

  9
$STYLESHEET
  1

  9
$XEDIT
290
     1
  9
$CEPSNTYPE
380
     0
  9
$PSTYLEMODE
290
     0
  9
$FINGERPRINTGUID
  2
{ECD5ACE1-7724-46DC-898D-01EFC8B3340E}
  9
$VERSIONGUID
  2
{FAEB1C32-E019-11D5-929B-00C0DF256EC4}
  9
$EXTNAMES
290
     1
  9
$PSVPSCALE
 40
0.0
  9
$OLESTARTUP
290
     0
  9
$SORTENTS
280
   127
  9
$INDEXCTL
280
     0
  9
$HIDETEXT
280
     1
  9
$XCLIPFRAME
280
     2
  9
$HALOGAP
280
     0
  9
$OBSCOLOR
 70
   257
  9
$OBSLTYPE
280
     0
  9
$INTERSECTIONDISPLAY
280
     0
  9
$INTERSECTIONCOLOR
 70
   257
  9
$DIMASSOC
280
     2
  9
$PROJECTNAME
  1

  9
$CAMERADISPLAY
290
     0
  9
$LENSLENGTH
 40
50.0
  9
$CAMERAHEIGHT
 40
0.0
  9
$STEPSPERSEC
 40
2.0
  9
$STEPSIZE
 40
6.0
  9
$3DDWFPREC
 40
2.0
  9
$PSOLWIDTH
 40
0.25
  9
$PSOLHEIGHT
 40
4.0
  9
$LOFTANG1
 40
1.570796326794897
  9
$LOFTANG2
 40
1.570796326794897
  9
$LOFTMAG1
 40
0.0
  9
$LOFTMAG2
 40
0.0
  9
$LOFTPARAM
 70
     7
  9
$LOFTNORMALS
280
     1
  9
$LATITUDE
 40
37.795
  9
$LONGITUDE
 40
-122.394
  9
$NORTHDIRECTION
 40
0.0
  9
$TIMEZONE
 70
 -8000
  9
$LIGHTGLYPHDISPLAY
280
     1
  9
$TILEMODELIGHTSYNCH
280
     1
  9
$CMATERIAL
347
44
  9
$SOLIDHIST
280
     0
  9
$SHOWHIST
280
     1
  9
$DWFFRAME
280
     2
  9
$DGNFRAME
280
     2
  9
$REALWORLDSCALE
290
     1
  9
$INTERFERECOLOR
 62
   256
  9
$CSHADOW
280
     0
  9
$SHADOWPLANELOCATION
 40
0.0
  0
ENDSEC
  0
SECTION
  2
CLASSES
  0
CLASS
  1
ACDBDICTIONARYWDFLT
  2
AcDbDictionaryWithDefault
  3
ObjectDBX Classes
 90
        0
 91
        3
280
     0
281
     0
  0
CLASS
  1
VISUALSTYLE
  2
AcDbVisualStyle
  3
ObjectDBX Classes
 90
     4095
 91
        3
280
     0
281
     0
  0
CLASS
  1
MATERIAL
  2
AcDbMaterial
  3
ObjectDBX Classes
 90
     1153
 91
        3
280
     0
281
     0
  0
CLASS
  1
SCALE
  2
AcDbScale
  3
ObjectDBX Classes
 90
     1153
 91
        3
280
     0
281
     0
  0
CLASS
  1
TABLESTYLE
  2
AcDbTableStyle
  3
ObjectDBX Classes
 90
     4095
 91
        3
280
     0
281
     0
  0
CLASS
  1
MLEADERSTYLE
  2
AcDbMLeaderStyle
  3
ACDB_MLEADERSTYLE_CLASS
 90
     4095
 91
        3
280
     0
281
     0
  0
CLASS
  1
SUN
  2
AcDbSun
  3
SCENEOE
 90
     1153
 91
        3
280
     0
281
     0
  0
CLASS
  1
RASTERVARIABLES
  2
AcDbRasterVariables
  3
ISM
 90
        0
 91
        3
280
     0
281
     0
  0
CLASS
  1
PLOTSETTINGS
  2
AcDbPlotSettings
  3
ObjectDBX Classes
 90
        0
 91
        3
280
     0
281
     0
  0
CLASS
  1
IMAGEDEF
  2
AcDbRasterImageDef
  3
ISM
 90
        0
 91
        3
280
     0
281
     0
  0
CLASS
  1
IMAGE
  2
AcDbRasterImage
  3
ISM
 90
      127
 91
        4
280
     0
281
     1
  0
CLASS
  1
IMAGEDEF_REACTOR
  2
AcDbRasterImageDefReactor
  3
ISM
 90
        1
 91
        3
280
     0
281
     0
  0
CLASS
  1
DICTIONARYVAR
  2
AcDbDictionaryVar
  3
ObjectDBX Classes
 90
        0
 91
        3
280
     0
281
     0
  0
CLASS
  1
CELLSTYLEMAP
  2
AcDbCellStyleMap
  3
ObjectDBX Classes
 90
     1152
 91
        3
280
     0
281
     0
  0
ENDSEC
  0
SECTION
  2
TABLES
  0
TABLE
  2
VPORT
  5
8
330
0
100
AcDbSymbolTable
 70
     1
  0
VPORT
  5
29
330
8
100
AcDbSymbolTableRecord
100
AcDbViewportTableRecord
  2
*Active
 70
     0
 10
0.0
 20
0.0
 11
1.0
 21
1.0
 12
10.42990654205607
 22
4.5
 13
0.0
 23
0.0
 14
0.5
 24
0.5
 15
0.5
 25
0.5
 16
0.0
 26
0.0
 36
1.0
 17
0.0
 27
0.0
 37
0.0
 40
9.0
 41
1.972972972850329
 42
50.0
 43
0.0
 44
0.0
 50
0.0
 51
0.0
 71
     0
 72
   100
 73
     1
 74
     3
 75
     0
 76
     0
 77
     0
 78
     0
281
     0
 65
     1
110
0.0
120
0.0
130
0.0
111
1.0
121
0.0
131
0.0
112
0.0
122
1.0
132
0.0
 79
     0
146
0.0
348
2F
 60
     3
 61
     5
292
     1
282
     1
141
0.0
142
0.0
 63
   250
361
6D
  0
ENDTAB
  0
TABLE
  2
LTYPE
  5
5
330
0
100
AcDbSymbolTable
 70
     2
  0
LTYPE
  5
14
330
5
100
AcDbSymbolTableRecord
100
AcDbLinetypeTableRecord
  2
ByBlock
 70
     0
  3

 72
    65
 73
     0
 40
0.0
  0
LTYPE
  5
15
330
5
100
AcDbSymbolTableRecord
100
AcDbLinetypeTableRecord
  2
ByLayer
 70
     0
  3

 72
    65
 73
     0
 40
0.0
  0
LTYPE
  5
16
330
5
100
AcDbSymbolTableRecord
100
AcDbLinetypeTableRecord
  2
Continuous
 70
     0
  3
Solid line
 72
    65
 73
     0
 40
0.0
  0
LTYPE
  5
191
330
5
100
AcDbSymbolTableRecord
100
AcDbLinetypeTableRecord
  2
CADWORK_3
 70
     0
  3

 72
    65
 73
     2
 40
4.0
 49
2.0
 74
     0
 49
-2.0
 74
     0
  0
ENDTAB
  0
TABLE
  2
LAYER
  5
2
330
0
100
AcDbSymbolTable
 70
    33
  0
LAYER
  5
10
330
2
100
AcDbSymbolTableRecord
100
AcDbLayerTableRecord
  2
0
 70
     0
 62
     7
  6
Continuous
370
    -3
390
F
347
46
348
0
  0
LAYER
  5
70
330
2
100
AcDbSymbolTableRecord
100
AcDbLayerTableRecord
  2
Standard
 70
     0
 62
     7
  6
Continuous
370
    -3
390
F
347
46
348
0
  0
LAYER
  5
71
330
2
100
AcDbSymbolTableRecord
100
AcDbLayerTableRecord
  2
Ech.1_1
 70
     0
 62
     7
  6
Continuous
370
    -3
390
F
347
46
348
0
  0
LAYER
  5
72
330
2
100
AcDbSymbolTableRecord
100
AcDbLayerTableRecord
  2
Ech.1_2
 70
     0
 62
     7
  6
Continuous
370
    -3
390
F
347
46
348
0
  0
LAYER
  5
73
330
2
100
AcDbSymbolTableRecord
100
AcDbLayerTableRecord
  2
Ech.1_5
 70
     0
 62
     7
  6
Continuous
370
    -3
390
F
347
46
348
0
  0
LAYER
  5
74
330
2
100
AcDbSymbolTableRecord
100
AcDbLayerTableRecord
  2
Ech.1_10
 70
     0
 62
     7
  6
Continuous
370
    -3
390
F
347
46
348
0
  0
LAYER
  5
75
330
2
100
AcDbSymbolTableRecord
100
AcDbLayerTableRecord
  2
Ech.1_20
 70
     0
 62
     7
  6
Continuous
370
    -3
390
F
347
46
348
0
  0
LAYER
  5
76
330
2
100
AcDbSymbolTableRecord
100
AcDbLayerTableRecord
  2
Ech.1_25
 70
     0
 62
     7
  6
Continuous
370
    -3
390
F
347
46
348
0
  0
LAYER
  5
77
330
2
100
AcDbSymbolTableRecord
100
AcDbLayerTableRecord
  2
Ech.1_33
 70
     0
 62
     7
  6
Continuous
370
    -3
390
F
347
46
348
0
  0
LAYER
  5
78
330
2
100
AcDbSymbolTableRecord
100
AcDbLayerTableRecord
  2
Ech.1_50
 70
     0
 62
     7
  6
Continuous
370
    -3
390
F
347
46
348
0
  0
LAYER
  5
79
330
2
100
AcDbSymbolTableRecord
100
AcDbLayerTableRecord
  2
Ech.1_75
 70
     0
 62
     7
  6
Continuous
370
    -3
390
F
347
46
348
0
  0
LAYER
  5
7A
330
2
100
AcDbSymbolTableRecord
100
AcDbLayerTableRecord
  2
Ech.1_100
 70
     0
 62
     7
  6
Continuous
370
    -3
390
F
347
46
348
0
  0
LAYER
  5
7B
330
2
100
AcDbSymbolTableRecord
100
AcDbLayerTableRecord
  2
Ech.1_200
 70
     0
 62
     7
  6
Continuous
370
    -3
390
F
347
46
348
0
  0
LAYER
  5
7C
330
2
100
AcDbSymbolTableRecord
100
AcDbLayerTableRecord
  2
Ech.1_500
 70
     0
 62
     7
  6
Continuous
370
    -3
390
F
347
46
348
0
  0
LAYER
  5
7D
330
2
100
AcDbSymbolTableRecord
100
AcDbLayerTableRecord
  2
Ech.1_1000
 70
     0
 62
     7
  6
Continuous
370
    -3
390
F
347
46
348
0
  0
LAYER
  5
7E
330
2
100
AcDbSymbolTableRecord
100
AcDbLayerTableRecord
  2
Cadres traceur
 70
     0
 62
     7
  6
Continuous
370
    -3
390
F
347
46
348
0
  0
LAYER
  5
7F
330
2
100
AcDbSymbolTableRecord
100
AcDbLayerTableRecord
  2
Cadres laser
 70
     0
 62
     7
  6
Continuous
370
    -3
390
F
347
46
348
0
  0
LAYER
  5
80
330
2
100
AcDbSymbolTableRecord
100
AcDbLayerTableRecord
  2
Légende d_aide
 70
     0
 62
     7
  6
Continuous
370
    -3
390
F
347
46
348
0
  0
LAYER
  5
81
330
2
100
AcDbSymbolTableRecord
100
AcDbLayerTableRecord
  2
hachures ok
 70
     0
 62
     7
  6
Continuous
370
    -3
390
F
347
46
348
0
  0
LAYER
  5
82
330
2
100
AcDbSymbolTableRecord
100
AcDbLayerTableRecord
  2
ossature bois
 70
     0
 62
     7
  6
Continuous
370
    -3
390
F
347
46
348
0
  0
LAYER
  5
83
330
2
100
AcDbSymbolTableRecord
100
AcDbLayerTableRecord
  2
VR
 70
     0
 62
     7
  6
Continuous
370
    -3
390
F
347
46
348
0
  0
LAYER
  5
84
330
2
100
AcDbSymbolTableRecord
100
AcDbLayerTableRecord
  2
Calque1
 70
     0
 62
     7
  6
Continuous
370
    -3
390
F
347
46
348
0
  0
LAYER
  5
85
330
2
100
AcDbSymbolTableRecord
100
AcDbLayerTableRecord
  2
0_
 70
     0
 62
     7
  6
Continuous
370
    -3
390
F
347
46
348
0
  0
LAYER
  5
86
330
2
100
AcDbSymbolTableRecord
100
AcDbLayerTableRecord
  2
menuiserie
 70
     0
 62
     7
  6
Continuous
370
    -3
390
F
347
46
348
0
  0
LAYER
  5
87
330
2
100
AcDbSymbolTableRecord
100
AcDbLayerTableRecord
  2
cotation
 70
     0
 62
   250
  6
Continuous
370
    -3
390
F
347
46
348
0
  0
LAYER
  5
88
330
2
100
AcDbSymbolTableRecord
100
AcDbLayerTableRecord
  2
Defpoints
 70
     0
 62
    10
  6
Continuous
290
     0
370
    -3
390
F
347
46
348
0
  0
LAYER
  5
89
330
2
100
AcDbSymbolTableRecord
100
AcDbLayerTableRecord
  2
HACHURE
 70
     0
 62
   254
  6
Continuous
370
    -3
390
F
347
46
348
0
  0
LAYER
  5
8A
330
2
100
AcDbSymbolTableRecord
100
AcDbLayerTableRecord
  2
mat1
 70
     0
 62
     7
  6
Continuous
370
    -3
390
F
347
46
348
0
  0
LAYER
  5
8B
330
2
100
AcDbSymbolTableRecord
100
AcDbLayerTableRecord
  2
mat2
 70
     0
 62
     7
  6
Continuous
370
    -3
390
F
347
46
348
0
  0
LAYER
  5
8C
330
2
100
AcDbSymbolTableRecord
100
AcDbLayerTableRecord
  2
hach
 70
     0
 62
     8
  6
Continuous
370
    -3
390
F
347
46
348
0
  0
LAYER
  5
8D
330
2
100
AcDbSymbolTableRecord
100
AcDbLayerTableRecord
  2
menuiseries
 70
     0
 62
     7
  6
Continuous
370
    -3
390
F
347
46
348
0
  0
LAYER
  5
8E
330
2
100
AcDbSymbolTableRecord
100
AcDbLayerTableRecord
  2
BétonMétal
 70
     0
 62
     7
  6
Continuous
370
    -3
390
F
347
46
348
0
  0
LAYER
  5
8F
330
2
100
AcDbSymbolTableRecord
100
AcDbLayerTableRecord
  2
bois
 70
     0
 62
     7
  6
Continuous
370
    -3
390
F
347
46
348
0
  0
ENDTAB
  0
TABLE
  2
STYLE
  5
3
330
0
100
AcDbSymbolTable
 70
     8
  0
STYLE
  5
11
330
3
100
AcDbSymbolTableRecord
100
AcDbTextStyleTableRecord
  2
Standard
 70
     0
 40
0.0
 41
1.0
 50
0.0
 71
     0
 42
0.2
  3
txt
  4

  0
STYLE
  5
90
330
3
100
AcDbSymbolTableRecord
100
AcDbTextStyleTableRecord
  2
CwStyleShx
 70
     0
 40
1.0
 41
1.0
 50
0.0
 71
     0
 42
0.2
  3

  4

  0
STYLE
  5
91
330
3
100
AcDbSymbolTableRecord
100
AcDbTextStyleTableRecord
  2
CwStyleShx16
 70
     0
 40
1.0
 41
1.0
 50
0.0
 71
     0
 42
0.2
  3

  4

  0
STYLE
  5
92
330
3
100
AcDbSymbolTableRecord
100
AcDbTextStyleTableRecord
  2
MONOTXT
 70
     0
 40
0.0
 41
1.0
 50
0.0
 71
     0
 42
0.2
  3
MONOTXT
  4

  0
STYLE
  5
93
330
3
100
AcDbSymbolTableRecord
100
AcDbTextStyleTableRecord
  2
SYMAP
 70
     0
 40
1.0
 41
1.0
 50
0.0
 71
     0
 42
0.2
  3
SYMAP
  4

  0
STYLE
  5
94
330
3
100
AcDbSymbolTableRecord
100
AcDbTextStyleTableRecord
  2
CwStyleTtf
 70
     0
 40
1.0
 41
1.0
 50
0.0
 71
     0
 42
0.2
  3
arial.ttf
  4

  0
STYLE
  5
3E1
330
3
100
AcDbSymbolTableRecord
100
AcDbTextStyleTableRecord
  2
arial-z
 70
     0
 40
0.0
 41
1.0
 50
0.0
 71
     0
 42
0.2
  3
arial.ttf
  4

1001
ACAD
1000
Arial
1071
        0
  0
STYLE
  5
3FD
330
3
100
AcDbSymbolTableRecord
100
AcDbTextStyleTableRecord
  2
arial-
 70
     0
 40
1.0
 41
1.0
 50
0.0
 71
     0
 42
0.2
  3

  4

1001
ACAD
1000
Arial
1071
        0
  0
ENDTAB
  0
TABLE
  2
VIEW
  5
6
330
0
100
AcDbSymbolTable
 70
     0
  0
ENDTAB
  0
TABLE
  2
UCS
  5
7
330
0
100
AcDbSymbolTable
 70
     0
  0
ENDTAB
  0
TABLE
  2
APPID
  5
9
330
0
100
AcDbSymbolTable
 70
     3
  0
APPID
  5
12
330
9
100
AcDbSymbolTableRecord
100
AcDbRegAppTableRecord
  2
ACAD
 70
     0
  0
APPID
  5
6E
330
9
100
AcDbSymbolTableRecord
100
AcDbRegAppTableRecord
  2
Cadwork
 70
     0
  0
APPID
  5
241
330
9
100
AcDbSymbolTableRecord
100
AcDbRegAppTableRecord
  2
PLOTTRANSPARENCY
 70
     0
  0
ENDTAB
  0
TABLE
  2
DIMSTYLE
  5
A
330
0
100
AcDbSymbolTable
 70
     1
100
AcDbDimStyleTable
  0
DIMSTYLE
105
27
102
{ACAD_REACTORS
330
3E2
102
}
330
A
100
AcDbSymbolTableRecord
100
AcDbDimStyleTableRecord
  2
Standard
 70
     0
178
     0
340
11
  0
ENDTAB
  0
TABLE
  2
BLOCK_RECORD
  5
1
330
0
100
AcDbSymbolTable
 70
    70
  0
BLOCK_RECORD
  5
1F
330
1
100
AcDbSymbolTableRecord
100
AcDbBlockTableRecord
  2
*Model_Space
340
22
 70
     0
280
     1
281
     0
  0
BLOCK_RECORD
  5
23C
330
1
100
AcDbSymbolTableRecord
100
AcDbBlockTableRecord
  2
*Paper_Space
340
23D
 70
     0
280
     1
281
     0
  0
BLOCK_RECORD
  5
95
330
1
100
AcDbSymbolTableRecord
100
AcDbBlockTableRecord
  2
CDWK_PTTYP1
340
0
 70
     0
280
     1
281
     1
  0
BLOCK_RECORD
  5
9C
330
1
100
AcDbSymbolTableRecord
100
AcDbBlockTableRecord
  2
CDWK_PTTYP2
340
0
 70
     0
280
     1
281
     1
  0
BLOCK_RECORD
  5
A1
330
1
100
AcDbSymbolTableRecord
100
AcDbBlockTableRecord
  2
CDWK_PTTYP4
340
0
 70
     0
280
     1
281
     1
  0
BLOCK_RECORD
  5
A5
330
1
100
AcDbSymbolTableRecord
100
AcDbBlockTableRecord
  2
CDWK_PTTYP5
340
0
 70
     0
280
     1
281
     1
  0
BLOCK_RECORD
  5
AE
330
1
100
AcDbSymbolTableRecord
100
AcDbBlockTableRecord
  2
CDWK_PTTYP6
340
0
 70
     0
280
     1
281
     1
  0
BLOCK_RECORD
  5
B6
330
1
100
AcDbSymbolTableRecord
100
AcDbBlockTableRecord
  2
CDWK_PTTYP7
340
0
 70
     0
280
     1
281
     1
  0
BLOCK_RECORD
  5
BF
330
1
100
AcDbSymbolTableRecord
100
AcDbBlockTableRecord
  2
CDWK_PTTYP8
340
0
 70
     0
280
     1
281
     1
  0
BLOCK_RECORD
  5
C3
330
1
100
AcDbSymbolTableRecord
100
AcDbBlockTableRecord
  2
CDWK_PTTYP9
340
0
 70
     0
280
     1
281
     1
  0
BLOCK_RECORD
  5
C8
330
1
100
AcDbSymbolTableRecord
100
AcDbBlockTableRecord
  2
CDWK_PTTYP10
340
0
 70
     0
280
     1
281
     1
  0
BLOCK_RECORD
  5
CC
330
1
100
AcDbSymbolTableRecord
100
AcDbBlockTableRecord
  2
CDWK_PTTYP11
340
0
 70
     0
280
     1
281
     1
  0
BLOCK_RECORD
  5
D1
330
1
100
AcDbSymbolTableRecord
100
AcDbBlockTableRecord
  2
CDWK_PTTYP12
340
0
 70
     0
280
     1
281
     1
  0
BLOCK_RECORD
  5
D6
330
1
100
AcDbSymbolTableRecord
100
AcDbBlockTableRecord
  2
CDWK_PTTYP13
340
0
 70
     0
280
     1
281
     1
  0
BLOCK_RECORD
  5
DC
330
1
100
AcDbSymbolTableRecord
100
AcDbBlockTableRecord
  2
CDWK_PTTYP16
340
0
 70
     0
280
     1
281
     1
  0
BLOCK_RECORD
  5
E3
330
1
100
AcDbSymbolTableRecord
100
AcDbBlockTableRecord
  2
CDWK_PTTYP17
340
0
 70
     0
280
     1
281
     1
  0
BLOCK_RECORD
  5
E8
330
1
100
AcDbSymbolTableRecord
100
AcDbBlockTableRecord
  2
CDWK_PTTYP18
340
0
 70
     0
280
     1
281
     1
  0
BLOCK_RECORD
  5
ED
330
1
100
AcDbSymbolTableRecord
100
AcDbBlockTableRecord
  2
CDWK_PTTYP19
340
0
 70
     0
280
     1
281
     1
  0
BLOCK_RECORD
  5
F3
330
1
100
AcDbSymbolTableRecord
100
AcDbBlockTableRecord
  2
CDWK_PTTYP20
340
0
 70
     0
280
     1
281
     1
  0
BLOCK_RECORD
  5
F8
330
1
100
AcDbSymbolTableRecord
100
AcDbBlockTableRecord
  2
CDWK_PTTYP21
340
0
 70
     0
280
     1
281
     1
  0
BLOCK_RECORD
  5
FD
330
1
100
AcDbSymbolTableRecord
100
AcDbBlockTableRecord
  2
CDWK_PTTYP25
340
0
 70
     0
280
     1
281
     1
  0
BLOCK_RECORD
  5
104
330
1
100
AcDbSymbolTableRecord
100
AcDbBlockTableRecord
  2
CDWK_PTTYP26
340
0
 70
     0
280
     1
281
     1
  0
BLOCK_RECORD
  5
10B
330
1
100
AcDbSymbolTableRecord
100
AcDbBlockTableRecord
  2
CDWK_PTTYP27
340
0
 70
     0
280
     1
281
     1
  0
BLOCK_RECORD
  5
113
330
1
100
AcDbSymbolTableRecord
100
AcDbBlockTableRecord
  2
CDWK_PTTYP28
340
0
 70
     0
280
     1
281
     1
  0
BLOCK_RECORD
  5
11A
330
1
100
AcDbSymbolTableRecord
100
AcDbBlockTableRecord
  2
CDWK_PTTYP29
340
0
 70
     0
280
     1
281
     1
  0
BLOCK_RECORD
  5
120
330
1
100
AcDbSymbolTableRecord
100
AcDbBlockTableRecord
  2
CDWK_PTTYP30
340
0
 70
     0
280
     1
281
     1
  0
BLOCK_RECORD
  5
127
330
1
100
AcDbSymbolTableRecord
100
AcDbBlockTableRecord
  2
CDWK_PTTYP31
340
0
 70
     0
280
     1
281
     1
  0
BLOCK_RECORD
  5
12F
330
1
100
AcDbSymbolTableRecord
100
AcDbBlockTableRecord
  2
CDWK_PTTYP32
340
0
 70
     0
280
     1
281
     1
  0
BLOCK_RECORD
  5
138
330
1
100
AcDbSymbolTableRecord
100
AcDbBlockTableRecord
  2
CDWK_PTTYP33
340
0
 70
     0
280
     1
281
     1
  0
BLOCK_RECORD
  5
13E
330
1
100
AcDbSymbolTableRecord
100
AcDbBlockTableRecord
  2
CDWK_PTTYP34
340
0
 70
     0
280
     1
281
     1
  0
BLOCK_RECORD
  5
144
330
1
100
AcDbSymbolTableRecord
100
AcDbBlockTableRecord
  2
CDWK_PTTYP35
340
0
 70
     0
280
     1
281
     1
  0
BLOCK_RECORD
  5
14A
330
1
100
AcDbSymbolTableRecord
100
AcDbBlockTableRecord
  2
CDWK_PTTYP36
340
0
 70
     0
280
     1
281
     1
  0
BLOCK_RECORD
  5
152
330
1
100
AcDbSymbolTableRecord
100
AcDbBlockTableRecord
  2
CDWK_PTTYP37
340
0
 70
     0
280
     1
281
     1
  0
BLOCK_RECORD
  5
157
330
1
100
AcDbSymbolTableRecord
100
AcDbBlockTableRecord
  2
CDWK_PTTYP38
340
0
 70
     0
280
     1
281
     1
  0
BLOCK_RECORD
  5
15D
330
1
100
AcDbSymbolTableRecord
100
AcDbBlockTableRecord
  2
CDWK_PTTYP41
340
0
 70
     0
280
     1
281
     1
  0
BLOCK_RECORD
  5
167
330
1
100
AcDbSymbolTableRecord
100
AcDbBlockTableRecord
  2
CDWK_PTTYP42
340
0
 70
     0
280
     1
281
     1
  0
BLOCK_RECORD
  5
170
330
1
100
AcDbSymbolTableRecord
100
AcDbBlockTableRecord
  2
CDWK_PTTYP43
340
0
 70
     0
280
     1
281
     1
  0
BLOCK_RECORD
  5
176
330
1
100
AcDbSymbolTableRecord
100
AcDbBlockTableRecord
  2
CDWK_PTTYP44
340
0
 70
     0
280
     1
281
     1
  0
BLOCK_RECORD
  5
17F
330
1
100
AcDbSymbolTableRecord
100
AcDbBlockTableRecord
  2
CDWK_PTTYP45
340
0
 70
     0
280
     1
281
     1
  0
BLOCK_RECORD
  5
184
330
1
100
AcDbSymbolTableRecord
100
AcDbBlockTableRecord
  2
CDWK_PTTYP46
340
0
 70
     0
280
     1
281
     1
  0
BLOCK_RECORD
  5
189
330
1
100
AcDbSymbolTableRecord
100
AcDbBlockTableRecord
  2
CDWK_PTTYP47
340
0
 70
     0
280
     1
281
     1
  0
BLOCK_RECORD
  5
192
330
1
100
AcDbSymbolTableRecord
100
AcDbBlockTableRecord
  2
CDWK_PTTYP48
340
0
 70
     0
280
     1
281
     1
  0
BLOCK_RECORD
  5
197
330
1
100
AcDbSymbolTableRecord
100
AcDbBlockTableRecord
  2
CDWK_PTTYP49
340
0
 70
     0
280
     1
281
     1
  0
BLOCK_RECORD
  5
19E
330
1
100
AcDbSymbolTableRecord
100
AcDbBlockTableRecord
  2
CDWK_PTTYP50
340
0
 70
     0
280
     1
281
     1
  0
BLOCK_RECORD
  5
1A8
330
1
100
AcDbSymbolTableRecord
100
AcDbBlockTableRecord
  2
CDWK_PTTYP51
340
0
 70
     0
280
     1
281
     1
  0
BLOCK_RECORD
  5
1AD
330
1
100
AcDbSymbolTableRecord
100
AcDbBlockTableRecord
  2
CDWK_PTTYP52
340
0
 70
     0
280
     1
281
     1
  0
BLOCK_RECORD
  5
1B3
330
1
100
AcDbSymbolTableRecord
100
AcDbBlockTableRecord
  2
cw-dimension-symbol1
340
0
 70
     0
280
     1
281
     0
  0
BLOCK_RECORD
  5
1BA
330
1
100
AcDbSymbolTableRecord
100
AcDbBlockTableRecord
  2
cw-dimension-symbol2
340
0
102
{BLKREFS
331
3EB
331
3EA
102
}
 70
     0
280
     1
281
     0
  0
BLOCK_RECORD
  5
1BF
330
1
100
AcDbSymbolTableRecord
100
AcDbBlockTableRecord
  2
cw-dimension-symbol3
340
0
 70
     0
280
     1
281
     0
  0
BLOCK_RECORD
  5
1C4
330
1
100
AcDbSymbolTableRecord
100
AcDbBlockTableRecord
  2
cw-dimension-symbol5
340
0
 70
     0
280
     1
281
     0
  0
BLOCK_RECORD
  5
1CB
330
1
100
AcDbSymbolTableRecord
100
AcDbBlockTableRecord
  2
cw-dimension-symbol6
340
0
 70
     0
280
     1
281
     0
  0
BLOCK_RECORD
  5
1D1
330
1
100
AcDbSymbolTableRecord
100
AcDbBlockTableRecord
  2
cw-dimension-symbol11
340
0
 70
     0
280
     1
281
     0
  0
BLOCK_RECORD
  5
1D7
330
1
100
AcDbSymbolTableRecord
100
AcDbBlockTableRecord
  2
cw-dimension-symbol13
340
0
 70
     0
280
     1
281
     0
  0
BLOCK_RECORD
  5
1DD
330
1
100
AcDbSymbolTableRecord
100
AcDbBlockTableRecord
  2
cw-dimension-symbol15
340
0
 70
     0
280
     1
281
     0
  0
BLOCK_RECORD
  5
1E4
330
1
100
AcDbSymbolTableRecord
100
AcDbBlockTableRecord
  2
cw-dimension-symbol16
340
0
 70
     0
280
     1
281
     0
  0
BLOCK_RECORD
  5
1EB
330
1
100
AcDbSymbolTableRecord
100
AcDbBlockTableRecord
  2
cw-dimension-symbol17
340
0
 70
     0
280
     1
281
     0
  0
BLOCK_RECORD
  5
1F2
330
1
100
AcDbSymbolTableRecord
100
AcDbBlockTableRecord
  2
cw-dimension-symbol18
340
0
 70
     0
280
     1
281
     0
  0
BLOCK_RECORD
  5
1F9
330
1
100
AcDbSymbolTableRecord
100
AcDbBlockTableRecord
  2
cw-dimension-symbol19
340
0
 70
     0
280
     1
281
     0
  0
BLOCK_RECORD
  5
1FC
330
1
100
AcDbSymbolTableRecord
100
AcDbBlockTableRecord
  2
cw-dimension-symbol20
340
0
 70
     0
280
     1
281
     0
  0
BLOCK_RECORD
  5
203
330
1
100
AcDbSymbolTableRecord
100
AcDbBlockTableRecord
  2
cw-dimension-symbol21
340
0
 70
     0
280
     1
281
     0
  0
BLOCK_RECORD
  5
20A
330
1
100
AcDbSymbolTableRecord
100
AcDbBlockTableRecord
  2
cw-line-extremity0
340
0
 70
     0
280
     1
281
     0
  0
BLOCK_RECORD
  5
20E
330
1
100
AcDbSymbolTableRecord
100
AcDbBlockTableRecord
  2
cw-line-extremity2
340
0
 70
     0
280
     1
281
     0
  0
BLOCK_RECORD
  5
213
330
1
100
AcDbSymbolTableRecord
100
AcDbBlockTableRecord
  2
cw-line-extremity3
340
0
 70
     0
280
     1
281
     0
  0
BLOCK_RECORD
  5
218
330
1
100
AcDbSymbolTableRecord
100
AcDbBlockTableRecord
  2
cw-line-extremity301
340
0
 70
     0
280
     1
281
     0
  0
BLOCK_RECORD
  5
21A
330
1
100
AcDbSymbolTableRecord
100
AcDbBlockTableRecord
  2
cw-line-extremity4
340
0
102
{BLKREFS
331
31C
331
31E
331
320
331
3DE
331
3E0
102
}
 70
     0
280
     1
281
     0
  0
BLOCK_RECORD
  5
21C
330
1
100
AcDbSymbolTableRecord
100
AcDbBlockTableRecord
  2
cw-line-extremity5
340
0
 70
     0
280
     1
281
     0
  0
BLOCK_RECORD
  5
21E
330
1
100
AcDbSymbolTableRecord
100
AcDbBlockTableRecord
  2
cw-line-extremity6
340
0
 70
     0
280
     1
281
     0
  0
BLOCK_RECORD
  5
220
330
1
100
AcDbSymbolTableRecord
100
AcDbBlockTableRecord
  2
cw-line-extremity9
340
0
 70
     0
280
     1
281
     0
  0
BLOCK_RECORD
  5
222
330
1
100
AcDbSymbolTableRecord
100
AcDbBlockTableRecord
  2
cw-line-extremity10
340
0
 70
     0
280
     1
281
     0
  0
BLOCK_RECORD
  5
224
330
1
100
AcDbSymbolTableRecord
100
AcDbBlockTableRecord
  2
cw-line-extremity1
340
0
 70
     0
280
     1
281
     0
  0
BLOCK_RECORD
  5
1B
330
1
100
AcDbSymbolTableRecord
100
AcDbBlockTableRecord
  2
*Paper_Space69
340
1E
 70
     0
280
     1
281
     0
  0
BLOCK_RECORD
  5
3E4
330
1
100
AcDbSymbolTableRecord
100
AcDbBlockTableRecord
  2
*D70
340
0
 70
     0
280
     1
281
     0
  0
ENDTAB
  0
ENDSEC
  0
SECTION
  2
BLOCKS
  0
BLOCK
  5
20
330
1F
100
AcDbEntity
  8
0
100
AcDbBlockBegin
  2
*Model_Space
 70
     0
 10
0.0
 20
0.0
 30
0.0
  3
*Model_Space
  1

  0
ENDBLK
  5
21
330
1F
100
AcDbEntity
  8
0
100
AcDbBlockEnd
  0
BLOCK
  5
23E
330
23C
100
AcDbEntity
 67
     1
  8
0
100
AcDbBlockBegin
  2
*Paper_Space
 70
     0
 10
0.0
 20
0.0
 30
0.0
  3
*Paper_Space
  1

  0
ENDBLK
  5
23F
330
23C
100
AcDbEntity
 67
     1
  8
0
100
AcDbBlockEnd
  0
BLOCK
  5
9A
330
95
100
AcDbEntity
  8
0
100
AcDbBlockBegin
  2
CDWK_PTTYP1
 70
     0
 10
0.0
 20
0.0
 30
0.0
  3
CDWK_PTTYP1
  1

  0
LINE
  5
96
330
95
100
AcDbEntity
  8
0
 62
     0
370
    -2
100
AcDbLine
 10
-0.5
 20
0.5
 30
0.0
 11
0.5
 21
0.5
 31
0.0
  0
LINE
  5
97
330
95
100
AcDbEntity
  8
0
 62
     0
370
    -2
100
AcDbLine
 10
0.5
 20
0.5
 30
0.0
 11
0.5
 21
-0.5
 31
0.0
  0
LINE
  5
98
330
95
100
AcDbEntity
  8
0
 62
     0
370
    -2
100
AcDbLine
 10
0.5
 20
-0.5
 30
0.0
 11
-0.5
 21
-0.5
 31
0.0
  0
LINE
  5
99
330
95
100
AcDbEntity
  8
0
 62
     0
370
    -2
100
AcDbLine
 10
-0.5
 20
-0.5
 30
0.0
 11
-0.5
 21
0.5
 31
0.0
  0
ENDBLK
  5
9B
330
95
100
AcDbEntity
  8
0
100
AcDbBlockEnd
  0
BLOCK
  5
9F
330
9C
100
AcDbEntity
  8
0
100
AcDbBlockBegin
  2
CDWK_PTTYP2
 70
     0
 10
0.0
 20
0.0
 30
0.0
  3
CDWK_PTTYP2
  1

  0
LINE
  5
9D
330
9C
100
AcDbEntity
  8
0
 62
     0
370
    -2
100
AcDbLine
 10
0.0
 20
0.5
 30
0.0
 11
0.0
 21
-0.5
 31
0.0
  0
LINE
  5
9E
330
9C
100
AcDbEntity
  8
0
 62
     0
370
    -2
100
AcDbLine
 10
0.5
 20
0.0
 30
0.0
 11
-0.5
 21
0.0
 31
0.0
  0
ENDBLK
  5
A0
330
9C
100
AcDbEntity
  8
0
100
AcDbBlockEnd
  0
BLOCK
  5
A3
330
A1
100
AcDbEntity
  8
0
100
AcDbBlockBegin
  2
CDWK_PTTYP4
 70
     0
 10
0.0
 20
0.0
 30
0.0
  3
CDWK_PTTYP4
  1

  0
HATCH
  5
A2
330
A1
100
AcDbEntity
  8
0
 62
     0
370
    -2
100
AcDbHatch
 10
0.0
 20
0.0
 30
0.0
210
0.0
220
0.0
230
1.0
  2
SOLID
 70
     1
 71
     1
 91
        1
 92
        1
 93
        1
 72
     2
 10
0.0
 20
0.0
 40
0.5
 50
0.0
 51
360.0
 73
     1
 97
        0
 75
     0
 76
     1
 98
        0
  0
ENDBLK
  5
A4
330
A1
100
AcDbEntity
  8
0
100
AcDbBlockEnd
  0
BLOCK
  5
AC
330
A5
100
AcDbEntity
  8
0
100
AcDbBlockBegin
  2
CDWK_PTTYP5
 70
     0
 10
0.0
 20
0.0
 30
0.0
  3
CDWK_PTTYP5
  1

  0
LINE
  5
A6
330
A5
100
AcDbEntity
  8
0
 62
     0
370
    -2
100
AcDbLine
 10
-0.5
 20
0.5
 30
0.0
 11
0.5
 21
0.5
 31
0.0
  0
LINE
  5
A7
330
A5
100
AcDbEntity
  8
0
 62
     0
370
    -2
100
AcDbLine
 10
0.5
 20
0.5
 30
0.0
 11
0.5
 21
-0.5
 31
0.0
  0
LINE
  5
A8
330
A5
100
AcDbEntity
  8
0
 62
     0
370
    -2
100
AcDbLine
 10
0.5
 20
-0.5
 30
0.0
 11
-0.5
 21
-0.5
 31
0.0
  0
LINE
  5
A9
330
A5
100
AcDbEntity
  8
0
 62
     0
370
    -2
100
AcDbLine
 10
-0.5
 20
-0.5
 30
0.0
 11
-0.5
 21
0.5
 31
0.0
  0
HATCH
  5
AA
330
A5
100
AcDbEntity
  8
0
 62
     0
370
    -2
100
AcDbHatch
 10
0.0
 20
0.0
 30
0.0
210
0.0
220
0.0
230
1.0
  2
SOLID
 70
     1
 71
     1
 91
        1
 92
        3
 72
     0
 73
     1
 93
        4
 10
-0.5
 20
0.0
 10
0.0
 20
0.0
 10
0.0
 20
-0.5
 10
-0.5
 20
-0.5
 97
        0
 75
     0
 76
     1
 98
        0
  0
HATCH
  5
AB
330
A5
100
AcDbEntity
  8
0
 62
     0
370
    -2
100
AcDbHatch
 10
0.0
 20
0.0
 30
0.0
210
0.0
220
0.0
230
1.0
  2
SOLID
 70
     1
 71
     1
 91
        1
 92
        3
 72
     0
 73
     1
 93
        4
 10
0.0
 20
0.0
 10
0.5
 20
0.0
 10
0.5
 20
0.5
 10
0.0
 20
0.5
 97
        0
 75
     0
 76
     1
 98
        0
  0
ENDBLK
  5
AD
330
A5
100
AcDbEntity
  8
0
100
AcDbBlockEnd
  0
BLOCK
  5
B4
330
AE
100
AcDbEntity
  8
0
100
AcDbBlockBegin
  2
CDWK_PTTYP6
 70
     0
 10
0.0
 20
0.0
 30
0.0
  3
CDWK_PTTYP6
  1

  0
LINE
  5
AF
330
AE
100
AcDbEntity
  8
0
 62
     0
370
    -2
100
AcDbLine
 10
-0.5
 20
0.5
 30
0.0
 11
0.5
 21
0.5
 31
0.0
  0
LINE
  5
B0
330
AE
100
AcDbEntity
  8
0
 62
     0
370
    -2
100
AcDbLine
 10
0.5
 20
0.5
 30
0.0
 11
0.5
 21
-0.5
 31
0.0
  0
LINE
  5
B1
330
AE
100
AcDbEntity
  8
0
 62
     0
370
    -2
100
AcDbLine
 10
0.5
 20
-0.5
 30
0.0
 11
-0.5
 21
-0.5
 31
0.0
  0
LINE
  5
B2
330
AE
100
AcDbEntity
  8
0
 62
     0
370
    -2
100
AcDbLine
 10
-0.5
 20
-0.5
 30
0.0
 11
-0.5
 21
0.5
 31
0.0
  0
HATCH
  5
B3
330
AE
100
AcDbEntity
  8
0
 62
     0
370
    -2
100
AcDbHatch
 10
0.0
 20
0.0
 30
0.0
210
0.0
220
0.0
230
1.0
  2
SOLID
 70
     1
 71
     1
 91
        1
 92
        3
 72
     0
 73
     1
 93
        3
 10
-0.5
 20
-0.5
 10
-0.5
 20
0.5
 10
0.5
 20
0.5
 97
        0
 75
     0
 76
     1
 98
        0
  0
ENDBLK
  5
B5
330
AE
100
AcDbEntity
  8
0
100
AcDbBlockEnd
  0
BLOCK
  5
BD
330
B6
100
AcDbEntity
  8
0
100
AcDbBlockBegin
  2
CDWK_PTTYP7
 70
     0
 10
0.0
 20
0.0
 30
0.0
  3
CDWK_PTTYP7
  1

  0
LINE
  5
B7
330
B6
100
AcDbEntity
  8
0
 62
     0
370
    -2
100
AcDbLine
 10
-0.5
 20
0.5
 30
0.0
 11
0.5
 21
0.5
 31
0.0
  0
LINE
  5
B8
330
B6
100
AcDbEntity
  8
0
 62
     0
370
    -2
100
AcDbLine
 10
0.5
 20
0.5
 30
0.0
 11
0.5
 21
-0.5
 31
0.0
  0
LINE
  5
B9
330
B6
100
AcDbEntity
  8
0
 62
     0
370
    -2
100
AcDbLine
 10
0.5
 20
-0.5
 30
0.0
 11
-0.5
 21
-0.5
 31
0.0
  0
LINE
  5
BA
330
B6
100
AcDbEntity
  8
0
 62
     0
370
    -2
100
AcDbLine
 10
-0.5
 20
-0.5
 30
0.0
 11
-0.5
 21
0.5
 31
0.0
  0
LINE
  5
BB
330
B6
100
AcDbEntity
  8
0
 62
     0
370
    -2
100
AcDbLine
 10
0.0
 20
0.5
 30
0.0
 11
0.0
 21
-0.5
 31
0.0
  0
LINE
  5
BC
330
B6
100
AcDbEntity
  8
0
 62
     0
370
    -2
100
AcDbLine
 10
0.5
 20
0.0
 30
0.0
 11
-0.5
 21
0.0
 31
0.0
  0
ENDBLK
  5
BE
330
B6
100
AcDbEntity
  8
0
100
AcDbBlockEnd
  0
BLOCK
  5
C1
330
BF
100
AcDbEntity
  8
0
100
AcDbBlockBegin
  2
CDWK_PTTYP8
 70
     0
 10
0.0
 20
0.0
 30
0.0
  3
CDWK_PTTYP8
  1

  0
HATCH
  5
C0
330
BF
100
AcDbEntity
  8
0
 62
     0
370
    -2
100
AcDbHatch
 10
0.0
 20
0.0
 30
0.0
210
0.0
220
0.0
230
1.0
  2
SOLID
 70
     1
 71
     1
 91
        1
 92
        3
 72
     0
 73
     1
 93
        4
 10
0.5
 20
0.5
 10
0.5
 20
-0.5
 10
-0.5
 20
-0.5
 10
-0.5
 20
0.5
 97
        0
 75
     0
 76
     1
 98
        0
  0
ENDBLK
  5
C2
330
BF
100
AcDbEntity
  8
0
100
AcDbBlockEnd
  0
BLOCK
  5
C6
330
C3
100
AcDbEntity
  8
0
100
AcDbBlockBegin
  2
CDWK_PTTYP9
 70
     0
 10
0.0
 20
0.0
 30
0.0
  3
CDWK_PTTYP9
  1

  0
CIRCLE
  5
C4
330
C3
100
AcDbEntity
  8
0
 62
     0
370
    -2
100
AcDbCircle
 10
0.0
 20
0.0
 30
0.0
 40
0.1666666666666667
  0
CIRCLE
  5
C5
330
C3
100
AcDbEntity
  8
0
 62
     0
370
    -2
100
AcDbCircle
 10
0.0
 20
0.0
 30
0.0
 40
0.5
  0
ENDBLK
  5
C7
330
C3
100
AcDbEntity
  8
0
100
AcDbBlockEnd
  0
BLOCK
  5
CA
330
C8
100
AcDbEntity
  8
0
100
AcDbBlockBegin
  2
CDWK_PTTYP10
 70
     0
 10
0.0
 20
0.0
 30
0.0
  3
CDWK_PTTYP10
  1

  0
CIRCLE
  5
C9
330
C8
100
AcDbEntity
  8
0
 62
     0
370
    -2
100
AcDbCircle
 10
0.0
 20
0.0
 30
0.0
 40
0.5
  0
ENDBLK
  5
CB
330
C8
100
AcDbEntity
  8
0
100
AcDbBlockEnd
  0
BLOCK
  5
CF
330
CC
100
AcDbEntity
  8
0
100
AcDbBlockBegin
  2
CDWK_PTTYP11
 70
     0
 10
0.0
 20
0.0
 30
0.0
  3
CDWK_PTTYP11
  1

  0
CIRCLE
  5
CD
330
CC
100
AcDbEntity
  8
0
 62
     0
370
    -2
100
AcDbCircle
 10
0.0
 20
0.0
 30
0.0
 40
0.25
  0
CIRCLE
  5
CE
330
CC
100
AcDbEntity
  8
0
 62
     0
370
    -2
100
AcDbCircle
 10
0.0
 20
0.0
 30
0.0
 40
0.5
  0
ENDBLK
  5
D0
330
CC
100
AcDbEntity
  8
0
100
AcDbBlockEnd
  0
BLOCK
  5
D4
330
D1
100
AcDbEntity
  8
0
100
AcDbBlockBegin
  2
CDWK_PTTYP12
 70
     0
 10
0.0
 20
0.0
 30
0.0
  3
CDWK_PTTYP12
  1

  0
CIRCLE
  5
D2
330
D1
100
AcDbEntity
  8
0
 62
     0
370
    -2
100
AcDbCircle
 10
0.25
 20
0.0
 30
0.0
 40
0.25
  0
CIRCLE
  5
D3
330
D1
100
AcDbEntity
  8
0
 62
     0
370
    -2
100
AcDbCircle
 10
0.0
 20
0.0
 30
0.0
 40
0.5
  0
ENDBLK
  5
D5
330
D1
100
AcDbEntity
  8
0
100
AcDbBlockEnd
  0
BLOCK
  5
DA
330
D6
100
AcDbEntity
  8
0
100
AcDbBlockBegin
  2
CDWK_PTTYP13
 70
     0
 10
0.0
 20
0.0
 30
0.0
  3
CDWK_PTTYP13
  1

  0
CIRCLE
  5
D7
330
D6
100
AcDbEntity
  8
0
 62
     0
370
    -2
100
AcDbCircle
 10
-0.25
 20
0.0
 30
0.0
 40
0.25
  0
CIRCLE
  5
D8
330
D6
100
AcDbEntity
  8
0
 62
     0
370
    -2
100
AcDbCircle
 10
0.25
 20
0.0
 30
0.0
 40
0.25
  0
CIRCLE
  5
D9
330
D6
100
AcDbEntity
  8
0
 62
     0
370
    -2
100
AcDbCircle
 10
0.0
 20
0.0
 30
0.0
 40
0.5
  0
ENDBLK
  5
DB
330
D6
100
AcDbEntity
  8
0
100
AcDbBlockEnd
  0
BLOCK
  5
E1
330
DC
100
AcDbEntity
  8
0
100
AcDbBlockBegin
  2
CDWK_PTTYP16
 70
     0
 10
0.0
 20
0.0
 30
0.0
  3
CDWK_PTTYP16
  1

  0
LINE
  5
DD
330
DC
100
AcDbEntity
  8
0
 62
     0
370
    -2
100
AcDbLine
 10
-0.5
 20
-0.289
 30
0.0
 11
0.5
 21
-0.289
 31
0.0
  0
LINE
  5
DE
330
DC
100
AcDbEntity
  8
0
 62
     0
370
    -2
100
AcDbLine
 10
0.5
 20
-0.289
 30
0.0
 11
0.0
 21
0.577
 31
0.0
  0
LINE
  5
DF
330
DC
100
AcDbEntity
  8
0
 62
     0
370
    -2
100
AcDbLine
 10
0.0
 20
0.577
 30
0.0
 11
-0.5
 21
-0.289
 31
0.0
  0
CIRCLE
  5
E0
330
DC
100
AcDbEntity
  8
0
 62
     0
370
    -2
100
AcDbCircle
 10
0.0
 20
0.0
 30
0.0
 40
0.289
  0
ENDBLK
  5
E2
330
DC
100
AcDbEntity
  8
0
100
AcDbBlockEnd
  0
BLOCK
  5
E6
330
E3
100
AcDbEntity
  8
0
100
AcDbBlockBegin
  2
CDWK_PTTYP17
 70
     0
 10
0.0
 20
0.0
 30
0.0
  3
CDWK_PTTYP17
  1

  0
CIRCLE
  5
E4
330
E3
100
AcDbEntity
  8
0
 62
     0
370
    -2
100
AcDbCircle
 10
0.0
 20
0.0
 30
0.0
 40
0.5
  0
HATCH
  5
E5
330
E3
100
AcDbEntity
  8
0
 62
     0
370
    -2
100
AcDbHatch
 10
0.0
 20
0.0
 30
0.0
210
0.0
220
0.0
230
1.0
  2
SOLID
 70
     1
 71
     1
 91
        1
 92
        1
 93
        1
 72
     2
 10
0.0
 20
0.0
 40
0.25
 50
0.0
 51
360.0
 73
     1
 97
        0
 75
     0
 76
     1
 98
        0
  0
ENDBLK
  5
E7
330
E3
100
AcDbEntity
  8
0
100
AcDbBlockEnd
  0
BLOCK
  5
EB
330
E8
100
AcDbEntity
  8
0
100
AcDbBlockBegin
  2
CDWK_PTTYP18
 70
     0
 10
0.0
 20
0.0
 30
0.0
  3
CDWK_PTTYP18
  1

  0
CIRCLE
  5
E9
330
E8
100
AcDbEntity
  8
0
 62
     0
370
    -2
100
AcDbCircle
 10
0.0
 20
0.0
 30
0.0
 40
0.5
  0
CIRCLE
  5
EA
330
E8
100
AcDbEntity
  8
0
 62
     0
370
    -2
100
AcDbCircle
 10
0.0
 20
0.0
 30
0.0
 40
0.208
  0
ENDBLK
  5
EC
330
E8
100
AcDbEntity
  8
0
100
AcDbBlockEnd
  0
BLOCK
  5
F1
330
ED
100
AcDbEntity
  8
0
100
AcDbBlockBegin
  2
CDWK_PTTYP19
 70
     0
 10
0.0
 20
0.0
 30
0.0
  3
CDWK_PTTYP19
  1

  0
CIRCLE
  5
EE
330
ED
100
AcDbEntity
  8
0
 62
     0
370
    -2
100
AcDbCircle
 10
0.0
 20
0.0
 30
0.0
 40
0.25
  0
CIRCLE
  5
EF
330
ED
100
AcDbEntity
  8
0
 62
     0
370
    -2
100
AcDbCircle
 10
0.0
 20
0.0
 30
0.0
 40
0.35
  0
LINE
  5
F0
330
ED
100
AcDbEntity
  8
0
 62
     0
370
    -2
100
AcDbLine
 10
-0.25
 20
0.0
 30
0.0
 11
0.25
 21
0.0
 31
0.0
  0
ENDBLK
  5
F2
330
ED
100
AcDbEntity
  8
0
100
AcDbBlockEnd
  0
BLOCK
  5
F6
330
F3
100
AcDbEntity
  8
0
100
AcDbBlockBegin
  2
CDWK_PTTYP20
 70
     0
 10
0.0
 20
0.0
 30
0.0
  3
CDWK_PTTYP20
  1

  0
CIRCLE
  5
F4
330
F3
100
AcDbEntity
  8
0
 62
     0
370
    -2
100
AcDbCircle
 10
0.0
 20
0.0
 30
0.0
 40
0.3333333333333333
  0
CIRCLE
  5
F5
330
F3
100
AcDbEntity
  8
0
 62
     0
370
    -2
100
AcDbCircle
 10
0.0
 20
0.0
 30
0.0
 40
0.5
  0
ENDBLK
  5
F7
330
F3
100
AcDbEntity
  8
0
100
AcDbBlockEnd
  0
BLOCK
  5
FB
330
F8
100
AcDbEntity
  8
0
100
AcDbBlockBegin
  2
CDWK_PTTYP21
 70
     0
 10
0.0
 20
0.0
 30
0.0
  3
CDWK_PTTYP21
  1

  0
CIRCLE
  5
F9
330
F8
100
AcDbEntity
  8
0
 62
     0
370
    -2
100
AcDbCircle
 10
0.0
 20
0.0
 30
0.0
 40
0.5
  0
LINE
  5
FA
330
F8
100
AcDbEntity
  8
0
 62
     0
370
    -2
100
AcDbLine
 10
-0.5
 20
0.0
 30
0.0
 11
0.5
 21
0.0
 31
0.0
  0
ENDBLK
  5
FC
330
F8
100
AcDbEntity
  8
0
100
AcDbBlockEnd
  0
BLOCK
  5
102
330
FD
100
AcDbEntity
  8
0
100
AcDbBlockBegin
  2
CDWK_PTTYP25
 70
     0
 10
0.0
 20
0.0
 30
0.0
  3
CDWK_PTTYP25
  1

  0
LINE
  5
FE
330
FD
100
AcDbEntity
  8
0
 62
     0
370
    -2
100
AcDbLine
 10
0.0
 20
0.5
 30
0.0
 11
-0.4330127018922193
 21
-0.25
 31
0.0
  0
LINE
  5
FF
330
FD
100
AcDbEntity
  8
0
 62
     0
370
    -2
100
AcDbLine
 10
-0.4330127018922193
 20
-0.25
 30
0.0
 11
0.4330127018922193
 21
-0.25
 31
0.0
  0
LINE
  5
100
330
FD
100
AcDbEntity
  8
0
 62
     0
370
    -2
100
AcDbLine
 10
0.4330127018922193
 20
-0.25
 30
0.0
 11
0.0
 21
0.5
 31
0.0
  0
CIRCLE
  5
101
330
FD
100
AcDbEntity
  8
0
 62
     0
370
    -2
100
AcDbCircle
 10
0.0
 20
0.0
 30
0.0
 40
0.5
  0
ENDBLK
  5
103
330
FD
100
AcDbEntity
  8
0
100
AcDbBlockEnd
  0
BLOCK
  5
109
330
104
100
AcDbEntity
  8
0
100
AcDbBlockBegin
  2
CDWK_PTTYP26
 70
     0
 10
0.0
 20
0.0
 30
0.0
  3
CDWK_PTTYP26
  1

  0
LINE
  5
105
330
104
100
AcDbEntity
  8
0
 62
     0
370
    -2
100
AcDbLine
 10
-0.5
 20
-0.289
 30
0.0
 11
0.5
 21
-0.289
 31
0.0
  0
LINE
  5
106
330
104
100
AcDbEntity
  8
0
 62
     0
370
    -2
100
AcDbLine
 10
0.5
 20
-0.289
 30
0.0
 11
0.0
 21
0.577
 31
0.0
  0
LINE
  5
107
330
104
100
AcDbEntity
  8
0
 62
     0
370
    -2
100
AcDbLine
 10
0.0
 20
0.577
 30
0.0
 11
-0.5
 21
-0.289
 31
0.0
  0
CIRCLE
  5
108
330
104
100
AcDbEntity
  8
0
 62
     0
370
    -2
100
AcDbCircle
 10
0.0
 20
0.0
 30
0.0
 40
0.125
  0
ENDBLK
  5
10A
330
104
100
AcDbEntity
  8
0
100
AcDbBlockEnd
  0
BLOCK
  5
111
330
10B
100
AcDbEntity
  8
0
100
AcDbBlockBegin
  2
CDWK_PTTYP27
 70
     0
 10
0.0
 20
0.0
 30
0.0
  3
CDWK_PTTYP27
  1

  0
LINE
  5
10C
330
10B
100
AcDbEntity
  8
0
 62
     0
370
    -2
100
AcDbLine
 10
0.0
 20
0.5
 30
0.0
 11
-0.4330127018922193
 21
-0.25
 31
0.0
  0
LINE
  5
10D
330
10B
100
AcDbEntity
  8
0
 62
     0
370
    -2
100
AcDbLine
 10
-0.4330127018922193
 20
-0.25
 30
0.0
 11
0.4330127018922193
 21
-0.25
 31
0.0
  0
LINE
  5
10E
330
10B
100
AcDbEntity
  8
0
 62
     0
370
    -2
100
AcDbLine
 10
0.4330127018922193
 20
-0.25
 30
0.0
 11
0.0
 21
0.5
 31
0.0
  0
CIRCLE
  5
10F
330
10B
100
AcDbEntity
  8
0
 62
     0
370
    -2
100
AcDbCircle
 10
0.0
 20
0.0
 30
0.0
 40
0.125
  0
CIRCLE
  5
110
330
10B
100
AcDbEntity
  8
0
 62
     0
370
    -2
100
AcDbCircle
 10
0.0
 20
0.0
 30
0.0
 40
0.5
  0
ENDBLK
  5
112
330
10B
100
AcDbEntity
  8
0
100
AcDbBlockEnd
  0
BLOCK
  5
118
330
113
100
AcDbEntity
  8
0
100
AcDbBlockBegin
  2
CDWK_PTTYP28
 70
     0
 10
0.0
 20
0.0
 30
0.0
  3
CDWK_PTTYP28
  1

  0
LINE
  5
114
330
113
100
AcDbEntity
  8
0
 62
     0
370
    -2
100
AcDbLine
 10
-0.5
 20
0.5
 30
0.0
 11
0.5
 21
0.5
 31
0.0
  0
LINE
  5
115
330
113
100
AcDbEntity
  8
0
 62
     0
370
    -2
100
AcDbLine
 10
0.5
 20
0.5
 30
0.0
 11
-0.5
 21
-0.5
 31
0.0
  0
LINE
  5
116
330
113
100
AcDbEntity
  8
0
 62
     0
370
    -2
100
AcDbLine
 10
0.5
 20
-0.5
 30
0.0
 11
-0.5
 21
-0.5
 31
0.0
  0
LINE
  5
117
330
113
100
AcDbEntity
  8
0
 62
     0
370
    -2
100
AcDbLine
 10
-0.5
 20
0.5
 30
0.0
 11
0.5
 21
-0.5
 31
0.0
  0
ENDBLK
  5
119
330
113
100
AcDbEntity
  8
0
100
AcDbBlockEnd
  0
BLOCK
  5
11E
330
11A
100
AcDbEntity
  8
0
100
AcDbBlockBegin
  2
CDWK_PTTYP29
 70
     0
 10
0.0
 20
0.0
 30
0.0
  3
CDWK_PTTYP29
  1

  0
CIRCLE
  5
11B
330
11A
100
AcDbEntity
  8
0
 62
     0
370
    -2
100
AcDbCircle
 10
0.0
 20
0.0
 30
0.0
 40
0.2
  0
CIRCLE
  5
11C
330
11A
100
AcDbEntity
  8
0
 62
     0
370
    -2
100
AcDbCircle
 10
0.0
 20
0.0
 30
0.0
 40
0.35
  0
CIRCLE
  5
11D
330
11A
100
AcDbEntity
  8
0
 62
     0
370
    -2
100
AcDbCircle
 10
0.0
 20
0.0
 30
0.0
 40
0.5
  0
ENDBLK
  5
11F
330
11A
100
AcDbEntity
  8
0
100
AcDbBlockEnd
  0
BLOCK
  5
125
330
120
100
AcDbEntity
  8
0
100
AcDbBlockBegin
  2
CDWK_PTTYP30
 70
     0
 10
0.0
 20
0.0
 30
0.0
  3
CDWK_PTTYP30
  1

  0
LINE
  5
121
330
120
100
AcDbEntity
  8
0
 62
     0
370
    -2
100
AcDbLine
 10
-0.5
 20
0.5
 30
0.0
 11
-0.1
 21
0.1
 31
0.0
  0
LINE
  5
122
330
120
100
AcDbEntity
  8
0
 62
     0
370
    -2
100
AcDbLine
 10
0.5
 20
0.5
 30
0.0
 11
0.1
 21
0.1
 31
0.0
  0
LINE
  5
123
330
120
100
AcDbEntity
  8
0
 62
     0
370
    -2
100
AcDbLine
 10
0.5
 20
-0.5
 30
0.0
 11
0.1
 21
-0.1
 31
0.0
  0
LINE
  5
124
330
120
100
AcDbEntity
  8
0
 62
     0
370
    -2
100
AcDbLine
 10
-0.5
 20
-0.5
 30
0.0
 11
-0.1
 21
-0.1
 31
0.0
  0
ENDBLK
  5
126
330
120
100
AcDbEntity
  8
0
100
AcDbBlockEnd
  0
BLOCK
  5
12D
330
127
100
AcDbEntity
  8
0
100
AcDbBlockBegin
  2
CDWK_PTTYP31
 70
     0
 10
0.0
 20
0.0
 30
0.0
  3
CDWK_PTTYP31
  1

  0
LINE
  5
128
330
127
100
AcDbEntity
  8
0
 62
     0
370
    -2
100
AcDbLine
 10
-0.5
 20
0.0
 30
0.0
 11
-0.1
 21
0.0
 31
0.0
  0
LINE
  5
129
330
127
100
AcDbEntity
  8
0
 62
     0
370
    -2
100
AcDbLine
 10
0.1
 20
0.0
 30
0.0
 11
0.5
 21
0.0
 31
0.0
  0
LINE
  5
12A
330
127
100
AcDbEntity
  8
0
 62
     0
370
    -2
100
AcDbLine
 10
0.0
 20
0.5
 30
0.0
 11
0.0
 21
0.1
 31
0.0
  0
LINE
  5
12B
330
127
100
AcDbEntity
  8
0
 62
     0
370
    -2
100
AcDbLine
 10
0.0
 20
-0.1
 30
0.0
 11
0.0
 21
-0.5
 31
0.0
  0
CIRCLE
  5
12C
330
127
100
AcDbEntity
  8
0
 62
     0
370
    -2
100
AcDbCircle
 10
0.0
 20
0.0
 30
0.0
 40
0.1
  0
ENDBLK
  5
12E
330
127
100
AcDbEntity
  8
0
100
AcDbBlockEnd
  0
BLOCK
  5
136
330
12F
100
AcDbEntity
  8
0
100
AcDbBlockBegin
  2
CDWK_PTTYP32
 70
     0
 10
0.0
 20
0.0
 30
0.0
  3
CDWK_PTTYP32
  1

  0
CIRCLE
  5
130
330
12F
100
AcDbEntity
  8
0
 62
     0
370
    -2
100
AcDbCircle
 10
0.0
 20
0.0
 30
0.0
 40
0.2
  0
CIRCLE
  5
131
330
12F
100
AcDbEntity
  8
0
 62
     0
370
    -2
100
AcDbCircle
 10
0.0
 20
0.0
 30
0.0
 40
0.5
  0
LINE
  5
132
330
12F
100
AcDbEntity
  8
0
 62
     0
370
    -2
100
AcDbLine
 10
0.1414213562373095
 20
0.1414213562373095
 30
0.0
 11
0.3535533905932738
 21
0.3535533905932738
 31
0.0
  0
LINE
  5
133
330
12F
100
AcDbEntity
  8
0
 62
     0
370
    -2
100
AcDbLine
 10
-0.1414213562373095
 20
0.1414213562373095
 30
0.0
 11
-0.3535533905932738
 21
0.3535533905932738
 31
0.0
  0
LINE
  5
134
330
12F
100
AcDbEntity
  8
0
 62
     0
370
    -2
100
AcDbLine
 10
0.1414213562373095
 20
-0.1414213562373095
 30
0.0
 11
0.3535533905932738
 21
-0.3535533905932738
 31
0.0
  0
LINE
  5
135
330
12F
100
AcDbEntity
  8
0
 62
     0
370
    -2
100
AcDbLine
 10
-0.1414213562373095
 20
-0.1414213562373095
 30
0.0
 11
-0.3535533905932738
 21
-0.3535533905932738
 31
0.0
  0
ENDBLK
  5
137
330
12F
100
AcDbEntity
  8
0
100
AcDbBlockEnd
  0
BLOCK
  5
13C
330
138
100
AcDbEntity
  8
0
100
AcDbBlockBegin
  2
CDWK_PTTYP33
 70
     0
 10
0.0
 20
0.0
 30
0.0
  3
CDWK_PTTYP33
  1

  0
LINE
  5
139
330
138
100
AcDbEntity
  8
0
 62
     0
370
    -2
100
AcDbLine
 10
0.0
 20
-0.5
 30
0.0
 11
0.0
 21
0.5
 31
0.0
  0
LINE
  5
13A
330
138
100
AcDbEntity
  8
0
 62
     0
370
    -2
100
AcDbLine
 10
0.5
 20
0.0
 30
0.0
 11
-0.5
 21
0.0
 31
0.0
  0
CIRCLE
  5
13B
330
138
100
AcDbEntity
  8
0
 62
     0
370
    -2
100
AcDbCircle
 10
0.0
 20
0.0
 30
0.0
 40
0.5
  0
ENDBLK
  5
13D
330
138
100
AcDbEntity
  8
0
100
AcDbBlockEnd
  0
BLOCK
  5
142
330
13E
100
AcDbEntity
  8
0
100
AcDbBlockBegin
  2
CDWK_PTTYP34
 70
     0
 10
0.0
 20
0.0
 30
0.0
  3
CDWK_PTTYP34
  1

  0
CIRCLE
  5
13F
330
13E
100
AcDbEntity
  8
0
 62
     0
370
    -2
100
AcDbCircle
 10
0.0
 20
0.0
 30
0.0
 40
0.5
  0
LINE
  5
140
330
13E
100
AcDbEntity
  8
0
 62
     0
370
    -2
100
AcDbLine
 10
-0.4
 20
-0.3
 30
0.0
 11
0.3
 21
0.4
 31
0.0
  0
LINE
  5
141
330
13E
100
AcDbEntity
  8
0
 62
     0
370
    -2
100
AcDbLine
 10
-0.3
 20
-0.4
 30
0.0
 11
0.4
 21
0.3
 31
0.0
  0
ENDBLK
  5
143
330
13E
100
AcDbEntity
  8
0
100
AcDbBlockEnd
  0
BLOCK
  5
148
330
144
100
AcDbEntity
  8
0
100
AcDbBlockBegin
  2
CDWK_PTTYP35
 70
     0
 10
0.0
 20
0.0
 30
0.0
  3
CDWK_PTTYP35
  1

  0
LINE
  5
145
330
144
100
AcDbEntity
  8
0
 62
     0
370
    -2
100
AcDbLine
 10
0.0
 20
0.2
 30
0.0
 11
0.0
 21
0.5
 31
0.0
  0
LINE
  5
146
330
144
100
AcDbEntity
  8
0
 62
     0
370
    -2
100
AcDbLine
 10
0.0
 20
-0.2
 30
0.0
 11
0.0
 21
-0.5
 31
0.0
  0
CIRCLE
  5
147
330
144
100
AcDbEntity
  8
0
 62
     0
370
    -2
100
AcDbCircle
 10
0.0
 20
0.0
 30
0.0
 40
0.2
  0
ENDBLK
  5
149
330
144
100
AcDbEntity
  8
0
100
AcDbBlockEnd
  0
BLOCK
  5
150
330
14A
100
AcDbEntity
  8
0
100
AcDbBlockBegin
  2
CDWK_PTTYP36
 70
     0
 10
0.0
 20
0.0
 30
0.0
  3
CDWK_PTTYP36
  1

  0
LINE
  5
14B
330
14A
100
AcDbEntity
  8
0
 62
     0
370
    -2
100
AcDbLine
 10
-0.5
 20
0.2
 30
0.0
 11
0.5
 21
0.2
 31
0.0
  0
LINE
  5
14C
330
14A
100
AcDbEntity
  8
0
 62
     0
370
    -2
100
AcDbLine
 10
0.5
 20
0.2
 30
0.0
 11
0.5
 21
-0.2
 31
0.0
  0
LINE
  5
14D
330
14A
100
AcDbEntity
  8
0
 62
     0
370
    -2
100
AcDbLine
 10
0.5
 20
-0.2
 30
0.0
 11
-0.5
 21
-0.2
 31
0.0
  0
LINE
  5
14E
330
14A
100
AcDbEntity
  8
0
 62
     0
370
    -2
100
AcDbLine
 10
-0.5
 20
-0.2
 30
0.0
 11
-0.5
 21
0.2
 31
0.0
  0
HATCH
  5
14F
330
14A
100
AcDbEntity
  8
0
 62
     0
370
    -2
100
AcDbHatch
 10
0.0
 20
0.0
 30
0.0
210
0.0
220
0.0
230
1.0
  2
SOLID
 70
     1
 71
     1
 91
        1
 92
        3
 72
     0
 73
     1
 93
        3
 10
-0.5
 20
-0.2
 10
0.5
 20
-0.2
 10
0.5
 20
0.2
 97
        0
 75
     0
 76
     1
 98
        0
  0
ENDBLK
  5
151
330
14A
100
AcDbEntity
  8
0
100
AcDbBlockEnd
  0
BLOCK
  5
155
330
152
100
AcDbEntity
  8
0
100
AcDbBlockBegin
  2
CDWK_PTTYP37
 70
     0
 10
0.0
 20
0.0
 30
0.0
  3
CDWK_PTTYP37
  1

  0
HATCH
  5
153
330
152
100
AcDbEntity
  8
0
 62
     0
370
    -2
100
AcDbHatch
 10
0.0
 20
0.0
 30
0.0
210
0.0
220
0.0
230
1.0
  2
SOLID
 70
     1
 71
     1
 91
        1
 92
        3
 72
     0
 73
     1
 93
      202
 10
-0.3535533905932738
 20
-0.3535533905932738
 10
-0.3485533905932738
 20
-0.3535533905932737
 10
-0.3435533905932738
 20
-0.3584836591895546
 10
-0.3385533905932738
 20
-0.3632782236961988
 10
-0.3335533905932738
 20
-0.367942389128785
 10
-0.3285533905932738
 20
-0.372481054046687
 10
-0.3235533905932738
 20
-0.3768987523588579
 10
-0.3185533905932738
 20
-0.3811996897107819
 10
-0.3135533905932738
 20
-0.3853877752881235
 10
-0.3085533905932737
 20
-0.3894666497242888
 10
-0.3035533905932737
 20
-0.3934397096803965
 10
-0.2985533905932737
 20
-0.3973101295704999
 10
-0.2935533905932737
 20
-0.4010808808273714
 10
-0.2885533905932737
 20
-0.4047547490409382
 10
-0.2835533905932737
 20
-0.4083343492496384
 10
-0.2785533905932737
 20
-0.4118221396222626
 10
-0.2735533905932737
 20
-0.4152204337324827
 10
-0.2685533905932737
 20
-0.4185314115988474
 10
-0.2635533905932737
 20
-0.4217571296384408
 10
-0.2585533905932737
 20
-0.4248995296617653
 10
-0.2535533905932737
 20
-0.4279604470190231
 10
-0.2485533905932737
 20
-0.4309416179932669
 10
-0.2435533905932737
 20
-0.4338446865234004
 10
-0.2385533905932737
 20
-0.4366712103293738
 10
-0.2335533905932737
 20
-0.439422666502825
 10
-0.2285533905932737
 20
-0.4421004566186126
 10
-0.2235533905932737
 20
-0.4447059114159811
 10
-0.2185533905932737
 20
-0.4472402950923041
 10
-0.2135533905932737
 20
-0.4497048092473372
 10
-0.2085533905932737
 20
-0.4521005965115692
 10
-0.2035533905932737
 20
-0.4544287438884664
 10
-0.1985533905932736
 20
-0.456690285837111
 10
-0.1935533905932736
 20
-0.45888620711884
 10
-0.1885533905932736
 20
-0.4610174454289638
 10
-0.1835533905932736
 20
-0.4630848938324164
 10
-0.1785533905932736
 20
-0.4650894030202291
 10
-0.1735533905932736
 20
-0.4670317834019928
 10
-0.1685533905932736
 20
-0.46891280704794
 10
-0.1635533905932736
 20
-0.4707332094929264
 10
-0.1585533905932736
 20
-0.4724936914133818
 10
-0.1535533905932736
 20
-0.4741949201872336
 10
-0.1485533905932736
 20
-0.4758375313458466
 10
-0.1435533905932736
 20
-0.4774221299261716
 10
-0.1385533905932736
 20
-0.4789492917305286
 10
-0.1335533905932736
 20
-0.4804195645007682
 10
-0.1285533905932736
 20
-0.4818334690129366
 10
-0.1235533905932736
 20
-0.4831915000980183
 10
-0.1185533905932736
 20
-0.4844941275938295
 10
-0.1135533905932736
 20
-0.4857417972326848
 10
-0.1085533905932736
 20
-0.4869349314690531
 10
-0.1035533905932736
 20
-0.4880739302510473
 10
-0.0985533905932736
 20
-0.489159171739258
 10
-0.0935533905932736
 20
-0.4901910129761353
 10
-0.0885533905932736
 20
-0.4911697905088447
 10
-0.0835533905932735
 20
-0.4920958209682695
 10
-0.0785533905932735
 20
-0.4929694016065986
 10
-0.0735533905932735
 20
-0.4937908107957261
 10
-0.0685533905932735
 20
-0.494560308488493
 10
-0.0635533905932735
 20
-0.4952781366446192
 10
-0.0585533905932735
 20
-0.4959445196230107
 10
-0.0535533905932735
 20
-0.4965596645419678
 10
-0.0485533905932735
 20
-0.4971237616086806
 10
-0.0435533905932735
 20
-0.4976369844192622
 10
-0.0385533905932735
 20
-0.4980994902304456
 10
-0.0335533905932735
 20
-0.4985114202039533
 10
-0.0285533905932735
 20
-0.4988728996244386
 10
-0.0235533905932735
 20
-0.4991840380917923
 10
-0.0185533905932735
 20
-0.49944492968851
 10
-0.0135533905932735
 20
-0.4996556531227215
 10
-0.0085533905932735
 20
-0.4998162718473921
 10
-0.0035533905932735
 20
-0.4999268341561182
 10
0.0014466094067265
 20
-0.499987373255857
 10
0.0064466094067265
 20
-0.4999979073168451
 10
0.0114466094067265
 20
-0.4999584394998819
 10
0.0164466094067265
 20
-0.4998689579610739
 10
0.0214466094067265
 20
-0.4997294358340547
 10
0.0264466094067265
 20
-0.4995398311896213
 10
0.0314466094067265
 20
-0.4993000869726422
 10
0.0364466094067265
 20
-0.4990101309160174
 10
0.0414466094067265
 20
-0.4986698754313855
 10
0.0464466094067265
 20
-0.498279217476192
 10
0.0514466094067265
 20
-0.4978380383966446
 10
0.0564466094067265
 20
-0.497346203745994
 10
0.0614466094067265
 20
-0.4968035630774849
 10
0.0664466094067264
 20
-0.4962099497112257
 10
0.0714466094067265
 20
-0.4955651804741228
 10
0.0764466094067265
 20
-0.4948690554119167
 10
0.0814466094067265
 20
-0.4941213574722463
 10
0.0864466094067265
 20
-0.4933218521575424
 10
0.0914466094067265
 20
-0.4924702871464235
 10
0.0964466094067265
 20
-0.4915663918821278
 10
0.1014466094067265
 20
-0.4906098771263643
 10
0.1064466094067265
 20
-0.4896004344768079
 10
0.1114466094067265
 20
-0.4885377358462822
 10
0.1164466094067265
 20
-0.4874214329014929
 10
0.1214466094067265
 20
-0.4862511564589613
 10
0.1264466094067265
 20
-0.4850265158355881
 10
0.1314466094067265
 20
-0.4837470981510305
 10
0.1364466094067265
 20
-0.482412467578809
 10
0.1414466094067265
 20
-0.4810221645427664
 10
0.1464466094067265
 20
-0.4795757048551781
 10
0.1514466094067265
 20
-0.4780725787924608
 10
0.1564466094067265
 20
-0.4765122501040308
 10
0.1614466094067265
 20
-0.4748941549494363
 10
0.1664466094067265
 20
-0.4732177007584056
 10
0.1714466094067265
 20
-0.4714822650079264
 10
0.1764466094067265
 20
-0.4696871939098801
 10
0.1814466094067266
 20
-0.4678318010021017
 10
0.1864466094067266
 20
-0.4659153656350076
 10
0.1914466094067266
 20
-0.4639371313451162
 10
0.1964466094067266
 20
-0.4618963041058764
 10
0.2014466094067266
 20
-0.4597920504451997
 10
0.2064466094067266
 20
-0.4576234954179405
 10
0.2114466094067266
 20
-0.4553897204202862
 10
0.2164466094067266
 20
-0.4530897608315588
 10
0.2214466094067266
 20
-0.45072260346729
 10
0.2264466094067266
 20
-0.4482871838255748
 10
0.2314466094067266
 20
-0.4457823831065977
 10
0.2364466094067266
 20
-0.4432070249828292
 10
0.2414466094067266
 20
-0.4405598720946596
 10
0.2464466094067266
 20
-0.4378396222431172
 10
0.2514466094067266
 20
-0.4350449042477435
 10
0.2564466094067266
 20
-0.4321742734336012
 10
0.2614466094067266
 20
-0.4292262067066663
 10
0.2664466094067266
 20
-0.4261990971714118
 10
0.2714466094067266
 20
-0.4230912482380831
 10
0.2764466094067266
 20
-0.4199008671598476
 10
0.2814466094067266
 20
-0.4166260579314797
 10
0.2864466094067266
 20
-0.4132648134712868
 10
0.2914466094067266
 20
-0.4098150069963156
 10
0.2964466094067266
 20
-0.4062743824871597
 10
0.3014466094067266
 20
-0.4026405441224911
 10
0.3064466094067266
 20
-0.3989109445442534
 10
0.3114466094067266
 20
-0.3950828717916294
 10
0.3164466094067266
 20
-0.391153434714632
 10
0.3214466094067266
 20
-0.3871195466454601
 10
0.3264466094067267
 20
-0.3829779070663467
 10
0.3314466094067267
 20
-0.3787249809648844
 10
0.3364466094067267
 20
-0.3743569755097196
 10
0.3414466094067267
 20
-0.3698698136084067
 10
0.3464466094067267
 20
-0.3652591038217257
 10
0.3514466094067267
 20
-0.3605201060004601
 10
0.3564466094067267
 20
-0.3556476918757041
 10
0.3614466094067267
 20
-0.3506362996645505
 10
0.3664466094067267
 20
-0.34547988153926
 10
0.3714466094067267
 20
-0.3401718425359658
 10
0.3764466094067267
 20
-0.334704969129899
 10
0.3814466094067267
 20
-0.3290713452523318
 10
0.3864466094067267
 20
-0.3232622529342269
 10
0.3914466094067267
 20
-0.3172680539828188
 10
0.3964466094067267
 20
-0.3110780480586465
 10
0.4014466094067267
 20
-0.304680301118911
 10
0.4064466094067267
 20
-0.2980614362775617
 10
0.4114466094067267
 20
-0.291206376478565
 10
0.4164466094067267
 20
-0.2840980246459106
 10
0.4214466094067267
 20
-0.276716861635935
 10
0.4264466094067267
 20
-0.2690404345439063
 10
0.4314466094067267
 20
-0.2610426963649944
 10
0.4364466094067267
 20
-0.2526931404518915
 10
0.4414466094067268
 20
-0.2439556458403291
 10
0.4464466094067268
 20
-0.2347869056044327
 10
0.4514466094067268
 20
-0.2251342376211081
 10
0.4564466094067268
 20
-0.2149324518428296
 10
0.4614466094067268
 20
-0.2040992228331676
 10
0.4664466094067268
 20
-0.1925279893081412
 10
0.4714466094067268
 20
-0.1800765408735088
 10
0.4764466094067268
 20
-0.1665475742210051
 10
0.4814466094067268
 20
-0.1516529867323223
 10
0.4864466094067268
 20
-0.1349413290684758
 10
0.4914466094067268
 20
-0.1156274024472547
 10
0.4964466094067268
 20
-0.0920881648347501
 10
0.5
 20
0.0
 10
0.495
 20
0.0
 10
0.49
 20
0.0705336798983295
 10
0.485
 20
0.0994987437106621
 10
0.48
 20
0.1215524578114322
 10
0.475
 20
0.14
 10
0.47
 20
0.15612494995996
 10
0.465
 20
0.1705872210923199
 10
0.46
 20
0.1837797594948911
 10
0.455
 20
0.1959591794226544
 10
0.45
 20
0.2073041244162789
 10
0.445
 20
0.2179449471770338
 10
0.4399999999999999
 20
0.2279802623035601
 10
0.4349999999999999
 20
0.2374868417407584
 10
0.4299999999999999
 20
0.2465258607124211
 10
0.4249999999999999
 20
0.2551470164434615
 10
0.4199999999999999
 20
0.2633913438213186
 10
0.4149999999999999
 20
0.2712931993250108
 10
0.4099999999999999
 20
0.2788816953476869
 10
0.4049999999999999
 20
0.2861817604250838
 10
0.3999999999999999
 20
0.2932149382279151
 10
0.3949999999999999
 20
0.3000000000000002
 10
0.3899999999999999
 20
0.3065534211193868
 10
0.3849999999999999
 20
0.3128897569432404
 10
0.3799999999999999
 20
0.3190219428189855
 10
0.3749999999999999
 20
0.3249615361854385
 10
0.3699999999999999
 20
0.330718913883074
 10
0.3649999999999999
 20
0.3363034344160049
 10
0.3599999999999999
 20
0.3417235724968357
 10
0.3549999999999999
 20
0.3469870314579496
 10
0.3535533905932738
 20
0.3535533905932738
 97
        0
 75
     0
 76
     1
 98
        0
  0
CIRCLE
  5
154
330
152
100
AcDbEntity
  8
0
 62
     0
370
    -2
100
AcDbCircle
 10
0.0
 20
0.0
 30
0.0
 40
0.5
  0
ENDBLK
  5
156
330
152
100
AcDbEntity
  8
0
100
AcDbBlockEnd
  0
BLOCK
  5
15B
330
157
100
AcDbEntity
  8
0
100
AcDbBlockBegin
  2
CDWK_PTTYP38
 70
     0
 10
0.0
 20
0.0
 30
0.0
  3
CDWK_PTTYP38
  1

  0
HATCH
  5
158
330
157
100
AcDbEntity
  8
0
 62
     0
370
    -2
100
AcDbHatch
 10
0.0
 20
0.0
 30
0.0
210
0.0
220
0.0
230
1.0
  2
SOLID
 70
     1
 71
     1
 91
        1
 92
        3
 72
     0
 73
     1
 93
      102
 10
0.0
 20
0.0
 10
0.0
 20
0.5
 10
0.005
 20
0.5
 10
0.01
 20
0.4999749993749688
 10
0.015
 20
0.4998999899979995
 10
0.02
 20
0.4997749493522059
 10
0.025
 20
0.4995998398718718
 10
0.03
 20
0.4993746088859545
 10
0.035
 20
0.4990991885387112
 10
0.04
 20
0.4987734956871706
 10
0.045
 20
0.4983974317750845
 10
0.05
 20
0.4979708826829135
 10
0.055
 20
0.49749371855331
 10
0.06
 20
0.4969657935914704
 10
0.065
 20
0.4963869458396343
 10
0.07
 20
0.4957569969249047
 10
0.075
 20
0.4950757517794626
 10
0.08
 20
0.4943429983321297
 10
0.085
 20
0.4935585071701227
 10
0.09
 20
0.4927220311697053
 10
0.095
 20
0.4918333050943175
 10
0.1
 20
0.4908920451586071
 10
0.105
 20
0.4898979485566356
 10
0.11
 20
0.4888506929523574
 10
0.115
 20
0.4877499359302879
 10
0.12
 20
0.4865953144040744
 10
0.125
 20
0.4853864439804639
 10
0.13
 20
0.4841229182759271
 10
0.135
 20
0.4828043081829325
 10
0.14
 20
0.4814301610825811
 10
0.145
 20
0.48
 10
0.15
 20
0.478513322698543
 10
0.1550000000000001
 20
0.4769696007084728
 10
0.1600000000000001
 20
0.4753682782853731
 10
0.1650000000000001
 20
0.4737087712930804
 10
0.1700000000000001
 20
0.4719904660054056
 10
0.1750000000000001
 20
0.4702127178203498
 10
0.1800000000000001
 20
0.4683748498798799
 10
0.1850000000000001
 20
0.466476151587624
 10
0.1900000000000001
 20
0.4645158770160606
 10
0.1950000000000001
 20
0.4624932431938871
 10
0.2000000000000001
 20
0.460407428263272
 10
0.2050000000000001
 20
0.4582575694955839
 10
0.2100000000000001
 20
0.4560427611529427
 10
0.2150000000000001
 20
0.4537620521815371
 10
0.2200000000000001
 20
0.4514144437210665
 10
0.2250000000000001
 20
0.4489988864128729
 10
0.2300000000000001
 20
0.4465142774872937
 10
0.2350000000000001
 20
0.4439594576084622
 10
0.2400000000000001
 20
0.4413332074521472
 10
0.2450000000000001
 20
0.4386342439892261
 10
0.2500000000000001
 20
0.4358612164439502
 10
0.2550000000000001
 20
0.4330127018922192
 10
0.2600000000000001
 20
0.4300872004605577
 10
0.2650000000000001
 20
0.4270831300812524
 10
0.2700000000000001
 20
0.423998820753077
 10
0.2750000000000001
 20
0.4208325082500162
 10
0.2800000000000001
 20
0.4175823272122516
 10
0.2850000000000001
 20
0.4142463035441595
 10
0.2900000000000001
 20
0.4108223460329293
 10
0.2950000000000002
 20
0.4073082370883259
 10
0.3000000000000002
 20
0.403701622488689
 10
0.3050000000000002
 20
0.3999999999999999
 10
0.3100000000000002
 20
0.3962007067131506
 10
0.3150000000000002
 20
0.3923009049186605
 10
0.3200000000000002
 20
0.3882975663070783
 10
0.3250000000000002
 20
0.3841874542459708
 10
0.3300000000000002
 20
0.3799671038392664
 10
0.3350000000000002
 20
0.3756327994198588
 10
0.3400000000000002
 20
0.3711805490593491
 10
0.3450000000000002
 20
0.366606055596467
 10
0.3500000000000002
 20
0.3619046835839512
 10
0.3550000000000002
 20
0.3570714214271423
 10
0.3600000000000002
 20
0.3521008378291649
 10
0.3650000000000002
 20
0.3469870314579492
 10
0.3700000000000002
 20
0.3417235724968353
 10
0.3750000000000002
 20
0.3363034344160045
 10
0.3800000000000002
 20
0.3307189138830736
 10
0.3850000000000002
 20
0.3249615361854382
 10
0.3900000000000002
 20
0.3190219428189851
 10
0.3950000000000002
 20
0.31288975694324
 10
0.4000000000000002
 20
0.3065534211193863
 10
0.4050000000000002
 20
0.2999999999999997
 10
0.4100000000000003
 20
0.2932149382279147
 10
0.4150000000000003
 20
0.2861817604250834
 10
0.4200000000000003
 20
0.2788816953476864
 10
0.4250000000000003
 20
0.2712931993250103
 10
0.4300000000000003
 20
0.263391343821318
 10
0.4350000000000003
 20
0.255147016443461
 10
0.4400000000000003
 20
0.2465258607124206
 10
0.4450000000000003
 20
0.2374868417407578
 10
0.4500000000000003
 20
0.2279802623035594
 10
0.4550000000000003
 20
0.2179449471770331
 10
0.4600000000000003
 20
0.2073041244162782
 10
0.4650000000000003
 20
0.1959591794226536
 10
0.4700000000000003
 20
0.1837797594948903
 10
0.4750000000000003
 20
0.170587221092319
 10
0.4800000000000003
 20
0.156124949959959
 10
0.4850000000000003
 20
0.1399999999999989
 10
0.4900000000000003
 20
0.1215524578114309
 10
0.4950000000000003
 20
0.0994987437106604
 10
0.5
 20
0.0
 97
        0
 75
     0
 76
     1
 98
        0
  0
HATCH
  5
159
330
157
100
AcDbEntity
  8
0
 62
     0
370
    -2
100
AcDbHatch
 10
0.0
 20
0.0
 30
0.0
210
0.0
220
0.0
230
1.0
  2
SOLID
 70
     1
 71
     1
 91
        1
 92
        3
 72
     0
 73
     1
 93
      102
 10
0.0
 20
0.0
 10
-0.5
 20
0.0
 10
-0.495
 20
0.0
 10
-0.49
 20
-0.0705336798983295
 10
-0.485
 20
-0.0994987437106621
 10
-0.48
 20
-0.1215524578114322
 10
-0.475
 20
-0.14
 10
-0.47
 20
-0.15612494995996
 10
-0.465
 20
-0.1705872210923199
 10
-0.46
 20
-0.1837797594948911
 10
-0.455
 20
-0.1959591794226544
 10
-0.45
 20
-0.2073041244162789
 10
-0.445
 20
-0.2179449471770338
 10
-0.4399999999999999
 20
-0.2279802623035601
 10
-0.4349999999999999
 20
-0.2374868417407584
 10
-0.4299999999999999
 20
-0.2465258607124211
 10
-0.4249999999999999
 20
-0.2551470164434615
 10
-0.4199999999999999
 20
-0.2633913438213186
 10
-0.4149999999999999
 20
-0.2712931993250108
 10
-0.4099999999999999
 20
-0.2788816953476869
 10
-0.4049999999999999
 20
-0.2861817604250838
 10
-0.3999999999999999
 20
-0.2932149382279151
 10
-0.3949999999999999
 20
-0.3000000000000002
 10
-0.3899999999999999
 20
-0.3065534211193868
 10
-0.3849999999999999
 20
-0.3128897569432404
 10
-0.3799999999999999
 20
-0.3190219428189855
 10
-0.3749999999999999
 20
-0.3249615361854385
 10
-0.3699999999999999
 20
-0.330718913883074
 10
-0.3649999999999999
 20
-0.3363034344160049
 10
-0.3599999999999999
 20
-0.3417235724968357
 10
-0.3549999999999999
 20
-0.3469870314579496
 10
-0.3499999999999999
 20
-0.3521008378291652
 10
-0.3449999999999999
 20
-0.3570714214271427
 10
-0.3399999999999999
 20
-0.3619046835839516
 10
-0.3349999999999999
 20
-0.3666060555964674
 10
-0.3299999999999998
 20
-0.3711805490593494
 10
-0.3249999999999998
 20
-0.3756327994198591
 10
-0.3199999999999998
 20
-0.3799671038392667
 10
-0.3149999999999998
 20
-0.3841874542459711
 10
-0.3099999999999998
 20
-0.3882975663070786
 10
-0.3049999999999998
 20
-0.3923009049186608
 10
-0.2999999999999998
 20
-0.3962007067131507
 10
-0.2949999999999998
 20
-0.4000000000000001
 10
-0.2899999999999998
 20
-0.4037016224886891
 10
-0.2849999999999998
 20
-0.4073082370883261
 10
-0.2799999999999998
 20
-0.4108223460329296
 10
-0.2749999999999998
 20
-0.4142463035441597
 10
-0.2699999999999998
 20
-0.4175823272122518
 10
-0.2649999999999998
 20
-0.4208325082500164
 10
-0.2599999999999998
 20
-0.4239988207530773
 10
-0.2549999999999998
 20
-0.4270831300812526
 10
-0.2499999999999998
 20
-0.4300872004605579
 10
-0.2449999999999998
 20
-0.4330127018922195
 10
-0.2399999999999998
 20
-0.4358612164439503
 10
-0.2349999999999998
 20
-0.4386342439892263
 10
-0.2299999999999998
 20
-0.4413332074521473
 10
-0.2249999999999998
 20
-0.4439594576084624
 10
-0.2199999999999998
 20
-0.4465142774872939
 10
-0.2149999999999997
 20
-0.4489988864128731
 10
-0.2099999999999997
 20
-0.4514144437210667
 10
-0.2049999999999997
 20
-0.4537620521815372
 10
-0.1999999999999997
 20
-0.4560427611529429
 10
-0.1949999999999997
 20
-0.4582575694955841
 10
-0.1899999999999997
 20
-0.4604074282632722
 10
-0.1849999999999997
 20
-0.4624932431938872
 10
-0.1799999999999997
 20
-0.4645158770160608
 10
-0.1749999999999997
 20
-0.4664761515876241
 10
-0.1699999999999997
 20
-0.46837484987988
 10
-0.1649999999999997
 20
-0.47021271782035
 10
-0.1599999999999997
 20
-0.4719904660054058
 10
-0.1549999999999997
 20
-0.4737087712930805
 10
-0.1499999999999997
 20
-0.4753682782853733
 10
-0.1449999999999997
 20
-0.4769696007084729
 10
-0.1399999999999997
 20
-0.4785133226985431
 10
-0.1349999999999997
 20
-0.4800000000000001
 10
-0.1299999999999997
 20
-0.4814301610825812
 10
-0.1249999999999997
 20
-0.4828043081829325
 10
-0.1199999999999997
 20
-0.4841229182759272
 10
-0.1149999999999997
 20
-0.485386443980464
 10
-0.1099999999999997
 20
-0.4865953144040744
 10
-0.1049999999999996
 20
-0.487749935930288
 10
-0.0999999999999996
 20
-0.4888506929523574
 10
-0.0949999999999996
 20
-0.4898979485566357
 10
-0.0899999999999996
 20
-0.4908920451586072
 10
-0.0849999999999996
 20
-0.4918333050943176
 10
-0.0799999999999996
 20
-0.4927220311697053
 10
-0.0749999999999996
 20
-0.4935585071701227
 10
-0.0699999999999996
 20
-0.4943429983321298
 10
-0.0649999999999996
 20
-0.4950757517794626
 10
-0.0599999999999996
 20
-0.4957569969249048
 10
-0.0549999999999996
 20
-0.4963869458396343
 10
-0.0499999999999996
 20
-0.4969657935914705
 10
-0.0449999999999996
 20
-0.49749371855331
 10
-0.0399999999999996
 20
-0.4979708826829135
 10
-0.0349999999999996
 20
-0.4983974317750846
 10
-0.0299999999999996
 20
-0.4987734956871706
 10
-0.0249999999999996
 20
-0.4990991885387112
 10
-0.0199999999999996
 20
-0.4993746088859545
 10
-0.0149999999999996
 20
-0.4995998398718719
 10
-0.0099999999999996
 20
-0.499774949352206
 10
-0.0049999999999996
 20
-0.4998999899979995
 10
0.0
 20
-0.5
 97
        0
 75
     0
 76
     1
 98
        0
  0
CIRCLE
  5
15A
330
157
100
AcDbEntity
  8
0
 62
     0
370
    -2
100
AcDbCircle
 10
0.0
 20
0.0
 30
0.0
 40
0.5
  0
ENDBLK
  5
15C
330
157
100
AcDbEntity
  8
0
100
AcDbBlockEnd
  0
BLOCK
  5
165
330
15D
100
AcDbEntity
  8
0
100
AcDbBlockBegin
  2
CDWK_PTTYP41
 70
     0
 10
0.0
 20
0.0
 30
0.0
  3
CDWK_PTTYP41
  1

  0
LINE
  5
15E
330
15D
100
AcDbEntity
  8
0
 62
     0
370
    -2
100
AcDbLine
 10
-0.5
 20
0.5
 30
0.0
 11
0.5
 21
0.5
 31
0.0
  0
LINE
  5
15F
330
15D
100
AcDbEntity
  8
0
 62
     0
370
    -2
100
AcDbLine
 10
0.5
 20
0.5
 30
0.0
 11
0.5
 21
-0.5
 31
0.0
  0
LINE
  5
160
330
15D
100
AcDbEntity
  8
0
 62
     0
370
    -2
100
AcDbLine
 10
0.5
 20
-0.5
 30
0.0
 11
-0.5
 21
-0.5
 31
0.0
  0
LINE
  5
161
330
15D
100
AcDbEntity
  8
0
 62
     0
370
    -2
100
AcDbLine
 10
-0.5
 20
-0.5
 30
0.0
 11
-0.5
 21
0.5
 31
0.0
  0
LINE
  5
162
330
15D
100
AcDbEntity
  8
0
 62
     0
370
    -2
100
AcDbLine
 10
-0.375
 20
0.25
 30
0.0
 11
0.375
 21
0.25
 31
0.0
  0
LINE
  5
163
330
15D
100
AcDbEntity
  8
0
 62
     0
370
    -2
100
AcDbLine
 10
-0.375
 20
0.0
 30
0.0
 11
0.375
 21
0.0
 31
0.0
  0
LINE
  5
164
330
15D
100
AcDbEntity
  8
0
 62
     0
370
    -2
100
AcDbLine
 10
-0.375
 20
-0.25
 30
0.0
 11
0.375
 21
-0.25
 31
0.0
  0
ENDBLK
  5
166
330
15D
100
AcDbEntity
  8
0
100
AcDbBlockEnd
  0
BLOCK
  5
16E
330
167
100
AcDbEntity
  8
0
100
AcDbBlockBegin
  2
CDWK_PTTYP42
 70
     0
 10
0.0
 20
0.0
 30
0.0
  3
CDWK_PTTYP42
  1

  0
LINE
  5
168
330
167
100
AcDbEntity
  8
0
 62
     0
370
    -2
100
AcDbLine
 10
-0.5
 20
0.5
 30
0.0
 11
0.5
 21
0.5
 31
0.0
  0
LINE
  5
169
330
167
100
AcDbEntity
  8
0
 62
     0
370
    -2
100
AcDbLine
 10
0.5
 20
0.5
 30
0.0
 11
0.5
 21
-0.5
 31
0.0
  0
LINE
  5
16A
330
167
100
AcDbEntity
  8
0
 62
     0
370
    -2
100
AcDbLine
 10
0.5
 20
-0.5
 30
0.0
 11
-0.5
 21
-0.5
 31
0.0
  0
LINE
  5
16B
330
167
100
AcDbEntity
  8
0
 62
     0
370
    -2
100
AcDbLine
 10
-0.5
 20
-0.5
 30
0.0
 11
-0.5
 21
0.5
 31
0.0
  0
LINE
  5
16C
330
167
100
AcDbEntity
  8
0
 62
     0
370
    -2
100
AcDbLine
 10
-0.375
 20
0.125
 30
0.0
 11
0.375
 21
0.125
 31
0.0
  0
LINE
  5
16D
330
167
100
AcDbEntity
  8
0
 62
     0
370
    -2
100
AcDbLine
 10
-0.375
 20
-0.125
 30
0.0
 11
0.375
 21
-0.125
 31
0.0
  0
ENDBLK
  5
16F
330
167
100
AcDbEntity
  8
0
100
AcDbBlockEnd
  0
BLOCK
  5
174
330
170
100
AcDbEntity
  8
0
100
AcDbBlockBegin
  2
CDWK_PTTYP43
 70
     0
 10
0.0
 20
0.0
 30
0.0
  3
CDWK_PTTYP43
  1

  0
CIRCLE
  5
171
330
170
100
AcDbEntity
  8
0
 62
     0
370
    -2
100
AcDbCircle
 10
0.0
 20
0.0
 30
0.0
 40
0.5
  0
LINE
  5
172
330
170
100
AcDbEntity
  8
0
 62
     0
370
    -2
100
AcDbLine
 10
-0.375
 20
0.166
 30
0.0
 11
0.375
 21
0.166
 31
0.0
  0
LINE
  5
173
330
170
100
AcDbEntity
  8
0
 62
     0
370
    -2
100
AcDbLine
 10
-0.375
 20
-0.166
 30
0.0
 11
0.375
 21
-0.166
 31
0.0
  0
ENDBLK
  5
175
330
170
100
AcDbEntity
  8
0
100
AcDbBlockEnd
  0
BLOCK
  5
17D
330
176
100
AcDbEntity
  8
0
100
AcDbBlockBegin
  2
CDWK_PTTYP44
 70
     0
 10
0.0
 20
0.0
 30
0.0
  3
CDWK_PTTYP44
  1

  0
CIRCLE
  5
177
330
176
100
AcDbEntity
  8
0
 62
     0
370
    -2
100
AcDbCircle
 10
0.0
 20
0.0
 30
0.0
 40
0.5
  0
LINE
  5
178
330
176
100
AcDbEntity
  8
0
 62
     0
370
    -2
100
AcDbLine
 10
-0.375
 20
0.333
 30
0.0
 11
0.375
 21
0.333
 31
0.0
  0
LINE
  5
179
330
176
100
AcDbEntity
  8
0
 62
     0
370
    -2
100
AcDbLine
 10
-0.375
 20
0.166
 30
0.0
 11
0.375
 21
0.166
 31
0.0
  0
LINE
  5
17A
330
176
100
AcDbEntity
  8
0
 62
     0
370
    -2
100
AcDbLine
 10
-0.375
 20
0.0
 30
0.0
 11
0.375
 21
0.0
 31
0.0
  0
LINE
  5
17B
330
176
100
AcDbEntity
  8
0
 62
     0
370
    -2
100
AcDbLine
 10
-0.375
 20
-0.166
 30
0.0
 11
0.375
 21
-0.166
 31
0.0
  0
LINE
  5
17C
330
176
100
AcDbEntity
  8
0
 62
     0
370
    -2
100
AcDbLine
 10
-0.375
 20
-0.333
 30
0.0
 11
0.375
 21
-0.333
 31
0.0
  0
ENDBLK
  5
17E
330
176
100
AcDbEntity
  8
0
100
AcDbBlockEnd
  0
BLOCK
  5
182
330
17F
100
AcDbEntity
  8
0
100
AcDbBlockBegin
  2
CDWK_PTTYP45
 70
     0
 10
0.0
 20
0.0
 30
0.0
  3
CDWK_PTTYP45
  1

  0
ELLIPSE
  5
180
330
17F
100
AcDbEntity
  8
0
 62
     0
370
    -2
100
AcDbEllipse
 10
0.0
 20
0.0
 30
0.0
 11
0.5
 21
0.0
 31
0.0
210
0.0
220
0.0
230
1.0
 40
0.82
 41
0.0
 42
6.283185307179586
  0
CIRCLE
  5
181
330
17F
100
AcDbEntity
  8
0
 62
     0
370
    -2
100
AcDbCircle
 10
-0.235
 20
0.0
 30
0.0
 40
0.26
  0
ENDBLK
  5
183
330
17F
100
AcDbEntity
  8
0
100
AcDbBlockEnd
  0
BLOCK
  5
187
330
184
100
AcDbEntity
  8
0
100
AcDbBlockBegin
  2
CDWK_PTTYP46
 70
     0
 10
0.0
 20
0.0
 30
0.0
  3
CDWK_PTTYP46
  1

  0
ELLIPSE
  5
185
330
184
100
AcDbEntity
  8
0
 62
     0
370
    -2
100
AcDbEllipse
 10
0.0
 20
0.0
 30
0.0
 11
0.5
 21
0.0
 31
0.0
210
0.0
220
0.0
230
1.0
 40
0.82
 41
0.0
 42
6.283185307179586
  0
CIRCLE
  5
186
330
184
100
AcDbEntity
  8
0
 62
     0
370
    -2
100
AcDbCircle
 10
0.0
 20
0.15
 30
0.0
 40
0.26
  0
ENDBLK
  5
188
330
184
100
AcDbEntity
  8
0
100
AcDbBlockEnd
  0
BLOCK
  5
18F
330
189
100
AcDbEntity
  8
0
100
AcDbBlockBegin
  2
CDWK_PTTYP47
 70
     0
 10
0.0
 20
0.0
 30
0.0
  3
CDWK_PTTYP47
  1

  0
LINE
  5
18A
330
189
100
AcDbEntity
  8
0
 62
     0
370
    -2
100
AcDbLine
 10
-0.5
 20
0.166
 30
0.0
 11
0.5
 21
0.166
 31
0.0
  0
LINE
  5
18B
330
189
100
AcDbEntity
  8
0
 62
     0
370
    -2
100
AcDbLine
 10
0.5
 20
0.166
 30
0.0
 11
0.5
 21
-0.166
 31
0.0
  0
LINE
  5
18C
330
189
100
AcDbEntity
  8
0
 62
     0
370
    -2
100
AcDbLine
 10
0.5
 20
-0.166
 30
0.0
 11
-0.5
 21
-0.166
 31
0.0
  0
LINE
  5
18D
330
189
100
AcDbEntity
  8
0
 62
     0
370
    -2
100
AcDbLine
 10
-0.5
 20
-0.166
 30
0.0
 11
-0.5
 21
0.166
 31
0.0
  0
CIRCLE
  5
18E
330
189
100
AcDbEntity
  8
0
 62
     0
370
    -2
100
AcDbCircle
 10
0.0
 20
-0.313
 30
0.0
 40
0.4
  0
ENDBLK
  5
190
330
189
100
AcDbEntity
  8
0
100
AcDbBlockEnd
  0
BLOCK
  5
195
330
192
100
AcDbEntity
  8
0
100
AcDbBlockBegin
  2
CDWK_PTTYP48
 70
     0
 10
0.0
 20
0.0
 30
0.0
  3
CDWK_PTTYP48
  1

  0
CIRCLE
  5
193
330
192
100
AcDbEntity
  8
0
  6
CADWORK_3
 62
     0
 48
0.1
370
    -2
100
AcDbCircle
 10
0.0
 20
0.0
 30
0.0
 40
0.5
  0
CIRCLE
  5
194
330
192
100
AcDbEntity
  8
0
 62
     0
370
    -2
100
AcDbCircle
 10
0.0
 20
0.0
 30
0.0
 40
0.25
  0
ENDBLK
  5
196
330
192
100
AcDbEntity
  8
0
100
AcDbBlockEnd
  0
BLOCK
  5
19C
330
197
100
AcDbEntity
  8
0
100
AcDbBlockBegin
  2
CDWK_PTTYP49
 70
     0
 10
0.0
 20
0.0
 30
0.0
  3
CDWK_PTTYP49
  1

  0
LINE
  5
198
330
197
100
AcDbEntity
  8
0
 62
     0
370
    -2
100
AcDbLine
 10
-0.5
 20
0.166
 30
0.0
 11
0.5
 21
0.166
 31
0.0
  0
LINE
  5
199
330
197
100
AcDbEntity
  8
0
 62
     0
370
    -2
100
AcDbLine
 10
0.5
 20
0.166
 30
0.0
 11
0.5
 21
-0.166
 31
0.0
  0
LINE
  5
19A
330
197
100
AcDbEntity
  8
0
 62
     0
370
    -2
100
AcDbLine
 10
0.5
 20
-0.166
 30
0.0
 11
-0.5
 21
-0.166
 31
0.0
  0
LINE
  5
19B
330
197
100
AcDbEntity
  8
0
 62
     0
370
    -2
100
AcDbLine
 10
-0.5
 20
-0.166
 30
0.0
 11
-0.5
 21
0.166
 31
0.0
  0
ENDBLK
  5
19D
330
197
100
AcDbEntity
  8
0
100
AcDbBlockEnd
  0
BLOCK
  5
1A6
330
19E
100
AcDbEntity
  8
0
100
AcDbBlockBegin
  2
CDWK_PTTYP50
 70
     0
 10
0.0
 20
0.0
 30
0.0
  3
CDWK_PTTYP50
  1

  0
LINE
  5
19F
330
19E
100
AcDbEntity
  8
0
 62
     0
370
    -2
100
AcDbLine
 10
-0.5
 20
0.166
 30
0.0
 11
0.5
 21
0.166
 31
0.0
  0
LINE
  5
1A0
330
19E
100
AcDbEntity
  8
0
 62
     0
370
    -2
100
AcDbLine
 10
0.5
 20
0.166
 30
0.0
 11
0.5
 21
-0.166
 31
0.0
  0
LINE
  5
1A1
330
19E
100
AcDbEntity
  8
0
 62
     0
370
    -2
100
AcDbLine
 10
0.5
 20
-0.166
 30
0.0
 11
-0.5
 21
-0.166
 31
0.0
  0
LINE
  5
1A2
330
19E
100
AcDbEntity
  8
0
 62
     0
370
    -2
100
AcDbLine
 10
-0.5
 20
-0.166
 30
0.0
 11
-0.5
 21
0.166
 31
0.0
  0
LINE
  5
1A3
330
19E
100
AcDbEntity
  8
0
 62
     0
370
    -2
100
AcDbLine
 10
-0.25
 20
-0.166
 30
0.0
 11
-0.25
 21
0.166
 31
0.0
  0
LINE
  5
1A4
330
19E
100
AcDbEntity
  8
0
 62
     0
370
    -2
100
AcDbLine
 10
0.0
 20
-0.166
 30
0.0
 11
0.0
 21
0.166
 31
0.0
  0
LINE
  5
1A5
330
19E
100
AcDbEntity
  8
0
 62
     0
370
    -2
100
AcDbLine
 10
0.25
 20
-0.166
 30
0.0
 11
0.25
 21
0.166
 31
0.0
  0
ENDBLK
  5
1A7
330
19E
100
AcDbEntity
  8
0
100
AcDbBlockEnd
  0
BLOCK
  5
1AB
330
1A8
100
AcDbEntity
  8
0
100
AcDbBlockBegin
  2
CDWK_PTTYP51
 70
     0
 10
0.0
 20
0.0
 30
0.0
  3
CDWK_PTTYP51
  1

  0
SPLINE
  5
1A9
330
1A8
100
AcDbEntity
  8
0
 62
     0
370
    -2
100
AcDbSpline
210
0.0
220
0.0
230
1.0
 70
  1064
 71
     3
 72
    12
 73
     8
 74
     6
 42
0.000000001
 43
0.0000000001
 44
0.0000000001
 40
0.0
 40
0.0
 40
0.0
 40
0.0
 40
0.1690118339052032
 40
0.5175774661755118
 40
0.8011704844252565
 40
0.9154070810132151
 40
0.975822310881188
 40
0.975822310881188
 40
0.975822310881188
 40
0.975822310881188
 10
-0.5
 20
-0.077
 30
0.0
 10
-0.443824324006723
 20
-0.0900581618560981
 30
0.0
 10
-0.2717933876546281
 20
-0.1300471387828842
 30
0.0
 10
-0.0276699186086479
 20
-0.0006977790990417
 30
0.0
 10
0.2303349729129116
 20
0.0817803270207037
 30
0.0
 10
0.3686157174766292
 20
0.0066250198607167
 30
0.0
 10
0.4216533294581816
 20
-0.0168719667726145
 30
0.0
 10
0.44
 20
-0.025
 30
0.0
 11
-0.5
 21
-0.077
 31
0.0
 11
-0.333
 21
-0.103
 31
0.0
 11
0.0
 21
0.0
 31
0.0
 11
0.28
 21
0.045
 31
0.0
 11
0.385
 21
0.0
 31
0.0
 11
0.44
 21
-0.025
 31
0.0
  0
HATCH
  5
1AA
330
1A8
100
AcDbEntity
  8
0
 62
     0
370
    -2
100
AcDbHatch
 10
0.0
 20
0.0
 30
0.0
210
0.0
220
0.0
230
1.0
  2
SOLID
 70
     1
 71
     1
 91
        1
 92
        3
 72
     0
 73
     1
 93
        3
 10
0.365
 20
-0.05
 10
0.5
 20
-0.042
 10
0.395
 20
0.045
 97
        0
 75
     0
 76
     1
 98
        0
  0
ENDBLK
  5
1AC
330
1A8
100
AcDbEntity
  8
0
100
AcDbBlockEnd
  0
BLOCK
  5
1B1
330
1AD
100
AcDbEntity
  8
0
100
AcDbBlockBegin
  2
CDWK_PTTYP52
 70
     0
 10
0.0
 20
0.0
 30
0.0
  3
CDWK_PTTYP52
  1

  0
LINE
  5
1AE
330
1AD
100
AcDbEntity
  8
0
 62
     0
370
    -2
100
AcDbLine
 10
-0.5
 20
-0.289
 30
0.0
 11
0.5
 21
-0.289
 31
0.0
  0
LINE
  5
1AF
330
1AD
100
AcDbEntity
  8
0
 62
     0
370
    -2
100
AcDbLine
 10
0.5
 20
-0.289
 30
0.0
 11
0.0
 21
0.577
 31
0.0
  0
LINE
  5
1B0
330
1AD
100
AcDbEntity
  8
0
 62
     0
370
    -2
100
AcDbLine
 10
0.0
 20
0.577
 30
0.0
 11
-0.5
 21
-0.289
 31
0.0
  0
ENDBLK
  5
1B2
330
1AD
100
AcDbEntity
  8
0
100
AcDbBlockEnd
  0
BLOCK
  5
1B8
330
1B3
100
AcDbEntity
  8
0
100
AcDbBlockBegin
  2
cw-dimension-symbol1
 70
     0
 10
0.0
 20
0.0
 30
0.0
  3
cw-dimension-symbol1
  1

  0
LINE
  5
1B4
330
1B3
100
AcDbEntity
  8
0
 62
     0
370
    -2
100
AcDbLine
 10
0.0
 20
0.0
 30
0.0
 11
-1.0
 21
0.25
 31
0.0
  0
LINE
  5
1B5
330
1B3
100
AcDbEntity
  8
0
 62
     0
370
    -2
100
AcDbLine
 10
0.0
 20
0.0
 30
0.0
 11
-1.0
 21
-0.25
 31
0.0
  0
LINE
  5
1B6
330
1B3
100
AcDbEntity
  8
0
 62
     0
370
    -2
100
AcDbLine
 10
-1.0
 20
0.25
 30
0.0
 11
-1.0
 21
-0.25
 31
0.0
  0
LINE
  5
1B7
330
1B3
100
AcDbEntity
  8
0
 62
     0
370
    -2
100
AcDbLine
 10
0.0
 20
0.0
 30
0.0
 11
-1.0
 21
0.0
 31
0.0
  0
ENDBLK
  5
1B9
330
1B3
100
AcDbEntity
  8
0
100
AcDbBlockEnd
  0
BLOCK
  5
1BD
330
1BA
100
AcDbEntity
  8
0
100
AcDbBlockBegin
  2
cw-dimension-symbol2
 70
     0
 10
0.0
 20
0.0
 30
0.0
  3
cw-dimension-symbol2
  1

  0
LINE
  5
1BB
330
1BA
100
AcDbEntity
  8
0
 62
     0
370
    -2
100
AcDbLine
 10
-1.0
 20
0.0
 30
0.0
 11
1.0
 21
0.0
 31
0.0
  0
LINE
  5
1BC
330
1BA
100
AcDbEntity
  8
0
 62
     0
370
    -2
100
AcDbLine
 10
-0.5
 20
-0.5
 30
0.0
 11
0.5
 21
0.5
 31
0.0
  0
ENDBLK
  5
1BE
330
1BA
100
AcDbEntity
  8
0
100
AcDbBlockEnd
  0
BLOCK
  5
1C2
330
1BF
100
AcDbEntity
  8
0
100
AcDbBlockBegin
  2
cw-dimension-symbol3
 70
     0
 10
0.0
 20
0.0
 30
0.0
  3
cw-dimension-symbol3
  1

  0
LINE
  5
1C0
330
1BF
100
AcDbEntity
  8
0
 62
     0
370
    -2
100
AcDbLine
 10
-1.0
 20
0.0
 30
0.0
 11
1.0
 21
0.0
 31
0.0
  0
CIRCLE
  5
1C1
330
1BF
100
AcDbEntity
  8
0
 62
     0
370
    -2
100
AcDbCircle
 10
0.0
 20
0.0
 30
0.0
 40
0.25
  0
ENDBLK
  5
1C3
330
1BF
100
AcDbEntity
  8
0
100
AcDbBlockEnd
  0
BLOCK
  5
1C9
330
1C4
100
AcDbEntity
  8
0
100
AcDbBlockBegin
  2
cw-dimension-symbol5
 70
     0
 10
0.0
 20
0.0
 30
0.0
  3
cw-dimension-symbol5
  1

  0
HATCH
  5
1C5
330
1C4
100
AcDbEntity
  8
0
 62
     0
370
    -2
100
AcDbHatch
 10
0.0
 20
0.0
 30
0.0
210
0.0
220
0.0
230
1.0
  2
SOLID
 70
     1
 71
     1
 91
        1
 92
        3
 72
     0
 73
     1
 93
        3
 10
0.0
 20
0.0
 10
-1.0
 20
0.25
 10
-1.0
 20
-0.25
 97
        0
 75
     0
 76
     1
 98
        0
  0
LINE
  5
1C6
330
1C4
100
AcDbEntity
  8
0
 62
     0
370
    -2
100
AcDbLine
 10
0.0
 20
0.0
 30
0.0
 11
-1.0
 21
0.25
 31
0.0
  0
LINE
  5
1C7
330
1C4
100
AcDbEntity
  8
0
 62
     0
370
    -2
100
AcDbLine
 10
-1.0
 20
0.25
 30
0.0
 11
-1.0
 21
-0.25
 31
0.0
  0
LINE
  5
1C8
330
1C4
100
AcDbEntity
  8
0
 62
     0
370
    -2
100
AcDbLine
 10
-1.0
 20
-0.25
 30
0.0
 11
0.0
 21
0.0
 31
0.0
  0
ENDBLK
  5
1CA
330
1C4
100
AcDbEntity
  8
0
100
AcDbBlockEnd
  0
BLOCK
  5
1CF
330
1CB
100
AcDbEntity
  8
0
100
AcDbBlockBegin
  2
cw-dimension-symbol6
 70
     0
 10
0.0
 20
0.0
 30
0.0
  3
cw-dimension-symbol6
  1

  0
LINE
  5
1CC
330
1CB
100
AcDbEntity
  8
0
 62
     0
370
    -2
100
AcDbLine
 10
0.0
 20
0.0
 30
0.0
 11
-1.0
 21
0.25
 31
0.0
  0
LINE
  5
1CD
330
1CB
100
AcDbEntity
  8
0
 62
     0
370
    -2
100
AcDbLine
 10
0.0
 20
0.0
 30
0.0
 11
-1.0
 21
-0.25
 31
0.0
  0
LINE
  5
1CE
330
1CB
100
AcDbEntity
  8
0
 62
     0
370
    -2
100
AcDbLine
 10
0.0
 20
0.0
 30
0.0
 11
-1.0
 21
0.0
 31
0.0
  0
ENDBLK
  5
1D0
330
1CB
100
AcDbEntity
  8
0
100
AcDbBlockEnd
  0
BLOCK
  5
1D5
330
1D1
100
AcDbEntity
  8
0
100
AcDbBlockBegin
  2
cw-dimension-symbol11
 70
     0
 10
0.0
 20
0.0
 30
0.0
  3
cw-dimension-symbol11
  1

  0
LINE
  5
1D2
330
1D1
100
AcDbEntity
  8
0
 62
     0
370
    -2
100
AcDbLine
 10
-1.0
 20
1.0
 30
0.0
 11
1.0
 21
1.0
 31
0.0
  0
LINE
  5
1D3
330
1D1
100
AcDbEntity
  8
0
 62
     0
370
    -2
100
AcDbLine
 10
0.0
 20
0.0
 30
0.0
 11
-1.0
 21
1.0
 31
0.0
  0
LINE
  5
1D4
330
1D1
100
AcDbEntity
  8
0
 62
     0
370
    -2
100
AcDbLine
 10
0.0
 20
0.0
 30
0.0
 11
1.0
 21
1.0
 31
0.0
  0
ENDBLK
  5
1D6
330
1D1
100
AcDbEntity
  8
0
100
AcDbBlockEnd
  0
BLOCK
  5
1DB
330
1D7
100
AcDbEntity
  8
0
100
AcDbBlockBegin
  2
cw-dimension-symbol13
 70
     0
 10
0.0
 20
0.0
 30
0.0
  3
cw-dimension-symbol13
  1

  0
LINE
  5
1D8
330
1D7
100
AcDbEntity
  8
0
 62
     0
370
    -2
100
AcDbLine
 10
-1.0
 20
-1.0
 30
0.0
 11
1.0
 21
-1.0
 31
0.0
  0
LINE
  5
1D9
330
1D7
100
AcDbEntity
  8
0
 62
     0
370
    -2
100
AcDbLine
 10
0.0
 20
0.0
 30
0.0
 11
-1.0
 21
-1.0
 31
0.0
  0
LINE
  5
1DA
330
1D7
100
AcDbEntity
  8
0
 62
     0
370
    -2
100
AcDbLine
 10
0.0
 20
0.0
 30
0.0
 11
1.0
 21
-1.0
 31
0.0
  0
ENDBLK
  5
1DC
330
1D7
100
AcDbEntity
  8
0
100
AcDbBlockEnd
  0
BLOCK
  5
1E2
330
1DD
100
AcDbEntity
  8
0
100
AcDbBlockBegin
  2
cw-dimension-symbol15
 70
     0
 10
0.0
 20
0.0
 30
0.0
  3
cw-dimension-symbol15
  1

  0
HATCH
  5
1DE
330
1DD
100
AcDbEntity
  8
0
 62
     0
370
    -2
100
AcDbHatch
 10
0.0
 20
0.0
 30
0.0
210
0.0
220
0.0
230
1.0
  2
SOLID
 70
     1
 71
     1
 91
        1
 92
        3
 72
     0
 73
     1
 93
        3
 10
0.0
 20
0.0
 10
-1.0
 20
1.0
 10
1.0
 20
1.0
 97
        0
 75
     0
 76
     1
 98
        0
  0
LINE
  5
1DF
330
1DD
100
AcDbEntity
  8
0
 62
     0
370
    -2
100
AcDbLine
 10
0.0
 20
0.0
 30
0.0
 11
-1.0
 21
1.0
 31
0.0
  0
LINE
  5
1E0
330
1DD
100
AcDbEntity
  8
0
 62
     0
370
    -2
100
AcDbLine
 10
-1.0
 20
1.0
 30
0.0
 11
1.0
 21
1.0
 31
0.0
  0
LINE
  5
1E1
330
1DD
100
AcDbEntity
  8
0
 62
     0
370
    -2
100
AcDbLine
 10
1.0
 20
1.0
 30
0.0
 11
0.0
 21
0.0
 31
0.0
  0
ENDBLK
  5
1E3
330
1DD
100
AcDbEntity
  8
0
100
AcDbBlockEnd
  0
BLOCK
  5
1E9
330
1E4
100
AcDbEntity
  8
0
100
AcDbBlockBegin
  2
cw-dimension-symbol16
 70
     0
 10
0.0
 20
0.0
 30
0.0
  3
cw-dimension-symbol16
  1

  0
HATCH
  5
1E5
330
1E4
100
AcDbEntity
  8
0
 62
     0
370
    -2
100
AcDbHatch
 10
0.0
 20
0.0
 30
0.0
210
0.0
220
0.0
230
1.0
  2
SOLID
 70
     1
 71
     1
 91
        1
 92
        3
 72
     0
 73
     1
 93
        3
 10
0.0
 20
0.0
 10
-1.0
 20
-1.0
 10
1.0
 20
-1.0
 97
        0
 75
     0
 76
     1
 98
        0
  0
LINE
  5
1E6
330
1E4
100
AcDbEntity
  8
0
 62
     0
370
    -2
100
AcDbLine
 10
0.0
 20
0.0
 30
0.0
 11
-1.0
 21
-1.0
 31
0.0
  0
LINE
  5
1E7
330
1E4
100
AcDbEntity
  8
0
 62
     0
370
    -2
100
AcDbLine
 10
-1.0
 20
-1.0
 30
0.0
 11
1.0
 21
-1.0
 31
0.0
  0
LINE
  5
1E8
330
1E4
100
AcDbEntity
  8
0
 62
     0
370
    -2
100
AcDbLine
 10
1.0
 20
-1.0
 30
0.0
 11
0.0
 21
0.0
 31
0.0
  0
ENDBLK
  5
1EA
330
1E4
100
AcDbEntity
  8
0
100
AcDbBlockEnd
  0
BLOCK
  5
1F0
330
1EB
100
AcDbEntity
  8
0
100
AcDbBlockBegin
  2
cw-dimension-symbol17
 70
     0
 10
0.0
 20
0.0
 30
0.0
  3
cw-dimension-symbol17
  1

  0
LINE
  5
1EC
330
1EB
100
AcDbEntity
  8
0
 62
     0
370
    -2
100
AcDbLine
 10
0.0
 20
0.0
 30
0.0
 11
1.0
 21
1.0
 31
0.0
  0
LINE
  5
1ED
330
1EB
100
AcDbEntity
  8
0
 62
     0
370
    -2
100
AcDbLine
 10
1.0
 20
1.0
 30
0.0
 11
-1.0
 21
1.0
 31
0.0
  0
LINE
  5
1EE
330
1EB
100
AcDbEntity
  8
0
 62
     0
370
    -2
100
AcDbLine
 10
-1.0
 20
1.0
 30
0.0
 11
0.0
 21
0.0
 31
0.0
  0
HATCH
  5
1EF
330
1EB
100
AcDbEntity
  8
0
 62
     0
370
    -2
100
AcDbHatch
 10
0.0
 20
0.0
 30
0.0
210
0.0
220
0.0
230
1.0
  2
SOLID
 70
     1
 71
     1
 91
        1
 92
        3
 72
     0
 73
     1
 93
        3
 10
0.0
 20
0.0
 10
-1.0
 20
1.0
 10
0.0
 20
1.0
 97
        0
 75
     0
 76
     1
 98
        0
  0
ENDBLK
  5
1F1
330
1EB
100
AcDbEntity
  8
0
100
AcDbBlockEnd
  0
BLOCK
  5
1F7
330
1F2
100
AcDbEntity
  8
0
100
AcDbBlockBegin
  2
cw-dimension-symbol18
 70
     0
 10
0.0
 20
0.0
 30
0.0
  3
cw-dimension-symbol18
  1

  0
LINE
  5
1F3
330
1F2
100
AcDbEntity
  8
0
 62
     0
370
    -2
100
AcDbLine
 10
0.0
 20
0.0
 30
0.0
 11
1.0
 21
-1.0
 31
0.0
  0
LINE
  5
1F4
330
1F2
100
AcDbEntity
  8
0
 62
     0
370
    -2
100
AcDbLine
 10
1.0
 20
-1.0
 30
0.0
 11
-1.0
 21
-1.0
 31
0.0
  0
LINE
  5
1F5
330
1F2
100
AcDbEntity
  8
0
 62
     0
370
    -2
100
AcDbLine
 10
-1.0
 20
-1.0
 30
0.0
 11
0.0
 21
0.0
 31
0.0
  0
HATCH
  5
1F6
330
1F2
100
AcDbEntity
  8
0
 62
     0
370
    -2
100
AcDbHatch
 10
0.0
 20
0.0
 30
0.0
210
0.0
220
0.0
230
1.0
  2
SOLID
 70
     1
 71
     1
 91
        1
 92
        3
 72
     0
 73
     1
 93
        3
 10
0.0
 20
0.0
 10
-1.0
 20
-1.0
 10
0.0
 20
-1.0
 97
        0
 75
     0
 76
     1
 98
        0
  0
ENDBLK
  5
1F8
330
1F2
100
AcDbEntity
  8
0
100
AcDbBlockEnd
  0
BLOCK
  5
1FA
330
1F9
100
AcDbEntity
  8
0
100
AcDbBlockBegin
  2
cw-dimension-symbol19
 70
     0
 10
0.0
 20
0.0
 30
0.0
  3
cw-dimension-symbol19
  1

  0
ENDBLK
  5
1FB
330
1F9
100
AcDbEntity
  8
0
100
AcDbBlockEnd
  0
BLOCK
  5
201
330
1FC
100
AcDbEntity
  8
0
100
AcDbBlockBegin
  2
cw-dimension-symbol20
 70
     0
 10
0.0
 20
0.0
 30
0.0
  3
cw-dimension-symbol20
  1

  0
LINE
  5
1FD
330
1FC
100
AcDbEntity
  8
0
 62
     0
370
    -2
100
AcDbLine
 10
0.0
 20
0.0
 30
0.0
 11
0.0
 21
2.0
 31
0.0
  0
LINE
  5
1FE
330
1FC
100
AcDbEntity
  8
0
 62
     0
370
    -2
100
AcDbLine
 10
0.0
 20
0.0
 30
0.0
 11
-1.0
 21
0.33
 31
0.0
  0
LINE
  5
1FF
330
1FC
100
AcDbEntity
  8
0
 62
     0
370
    -2
100
AcDbLine
 10
0.0
 20
0.0
 30
0.0
 11
1.0
 21
0.33
 31
0.0
  0
LINE
  5
200
330
1FC
100
AcDbEntity
  8
0
 62
     0
370
    -2
100
AcDbLine
 10
0.0
 20
2.0
 30
0.0
 11
4.15
 21
2.0
 31
0.0
  0
ENDBLK
  5
202
330
1FC
100
AcDbEntity
  8
0
100
AcDbBlockEnd
  0
BLOCK
  5
208
330
203
100
AcDbEntity
  8
0
100
AcDbBlockBegin
  2
cw-dimension-symbol21
 70
     0
 10
0.0
 20
0.0
 30
0.0
  3
cw-dimension-symbol21
  1

  0
LINE
  5
204
330
203
100
AcDbEntity
  8
0
 62
     0
370
    -2
100
AcDbLine
 10
0.0
 20
0.0
 30
0.0
 11
0.0
 21
-2.0
 31
0.0
  0
LINE
  5
205
330
203
100
AcDbEntity
  8
0
 62
     0
370
    -2
100
AcDbLine
 10
0.0
 20
0.0
 30
0.0
 11
-1.0
 21
-0.33
 31
0.0
  0
LINE
  5
206
330
203
100
AcDbEntity
  8
0
 62
     0
370
    -2
100
AcDbLine
 10
0.0
 20
0.0
 30
0.0
 11
1.0
 21
-0.33
 31
0.0
  0
LINE
  5
207
330
203
100
AcDbEntity
  8
0
 62
     0
370
    -2
100
AcDbLine
 10
0.0
 20
-2.0
 30
0.0
 11
4.15
 21
-2.0
 31
0.0
  0
ENDBLK
  5
209
330
203
100
AcDbEntity
  8
0
100
AcDbBlockEnd
  0
BLOCK
  5
23A
330
20A
100
AcDbEntity
  8
0
100
AcDbBlockBegin
  2
cw-line-extremity0
 70
     0
 10
0.0
 20
0.0
 30
0.0
  3
cw-line-extremity0
  1

  0
LINE
  5
20B
330
20A
100
AcDbEntity
  8
0
 62
     0
370
    -2
100
AcDbLine
 10
0.0
 20
0.0
 30
0.0
 11
4.0
 21
1.0
 31
0.0
  0
LINE
  5
20C
330
20A
100
AcDbEntity
  8
0
 62
     0
370
    -2
100
AcDbLine
 10
0.0
 20
0.0
 30
0.0
 11
4.0
 21
-1.0
 31
0.0
  0
LINE
  5
20D
330
20A
100
AcDbEntity
  8
0
 62
     0
370
    -2
100
AcDbLine
 10
4.0
 20
1.0
 30
0.0
 11
4.0
 21
-1.0
 31
0.0
  0
ENDBLK
  5
23B
330
20A
100
AcDbEntity
  8
0
100
AcDbBlockEnd
  0
BLOCK
  5
238
330
20E
100
AcDbEntity
  8
0
100
AcDbBlockBegin
  2
cw-line-extremity2
 70
     0
 10
0.0
 20
0.0
 30
0.0
  3
cw-line-extremity2
  1

  0
HATCH
  5
20F
330
20E
100
AcDbEntity
  8
0
 62
     0
370
     0
100
AcDbHatch
 10
0.0
 20
0.0
 30
0.0
210
0.0
220
0.0
230
1.0
  2
SOLID
 70
     1
 71
     1
 91
        1
 92
        3
 72
     0
 73
     1
 93
        3
 10
0.0
 20
0.0
 10
4.0
 20
1.0
 10
4.0
 20
-1.0
 97
        0
 75
     0
 76
     1
 98
        0
  0
LINE
  5
210
330
20E
100
AcDbEntity
  8
0
 62
     0
370
    -2
100
AcDbLine
 10
0.0
 20
0.0
 30
0.0
 11
4.0
 21
1.0
 31
0.0
  0
LINE
  5
211
330
20E
100
AcDbEntity
  8
0
 62
     0
370
    -2
100
AcDbLine
 10
4.0
 20
1.0
 30
0.0
 11
4.0
 21
-1.0
 31
0.0
  0
LINE
  5
212
330
20E
100
AcDbEntity
  8
0
 62
     0
370
    -2
100
AcDbLine
 10
4.0
 20
-1.0
 30
0.0
 11
0.0
 21
0.0
 31
0.0
  0
ENDBLK
  5
239
330
20E
100
AcDbEntity
  8
0
100
AcDbBlockEnd
  0
BLOCK
  5
236
330
213
100
AcDbEntity
  8
0
100
AcDbBlockBegin
  2
cw-line-extremity3
 70
     0
 10
0.0
 20
0.0
 30
0.0
  3
cw-line-extremity3
  1

  0
HATCH
  5
214
330
213
100
AcDbEntity
  8
0
 62
     0
370
     0
100
AcDbHatch
 10
0.0
 20
0.0
 30
0.0
210
0.0
220
0.0
230
1.0
  2
SOLID
 70
     1
 71
     1
 91
        1
 92
        3
 72
     0
 73
     1
 93
        3
 10
0.0
 20
0.0
 10
4.0
 20
1.0
 10
4.0
 20
-1.0
 97
        0
 75
     0
 76
     1
 98
        0
  0
LINE
  5
215
330
213
100
AcDbEntity
  8
0
 62
     0
370
    -2
100
AcDbLine
 10
0.0
 20
0.0
 30
0.0
 11
4.0
 21
1.0
 31
0.0
  0
LINE
  5
216
330
213
100
AcDbEntity
  8
0
 62
     0
370
    -2
100
AcDbLine
 10
4.0
 20
1.0
 30
0.0
 11
4.0
 21
-1.0
 31
0.0
  0
LINE
  5
217
330
213
100
AcDbEntity
  8
0
 62
     0
370
    -2
100
AcDbLine
 10
4.0
 20
-1.0
 30
0.0
 11
0.0
 21
0.0
 31
0.0
  0
ENDBLK
  5
237
330
213
100
AcDbEntity
  8
0
100
AcDbBlockEnd
  0
BLOCK
  5
234
330
218
100
AcDbEntity
  8
0
100
AcDbBlockBegin
  2
cw-line-extremity301
 70
     0
 10
0.0
 20
0.0
 30
0.0
  3
cw-line-extremity301
  1

  0
LINE
  5
219
330
218
100
AcDbEntity
  8
0
 62
     0
370
    -2
100
AcDbLine
 10
0.0
 20
2.66666
 30
0.0
 11
0.0
 21
-2.66666
 31
0.0
  0
ENDBLK
  5
235
330
218
100
AcDbEntity
  8
0
100
AcDbBlockEnd
  0
BLOCK
  5
232
330
21A
100
AcDbEntity
  8
0
100
AcDbBlockBegin
  2
cw-line-extremity4
 70
     0
 10
0.0
 20
0.0
 30
0.0
  3
cw-line-extremity4
  1

  0
HATCH
  5
21B
330
21A
100
AcDbEntity
  8
0
 62
     0
370
     5
100
AcDbHatch
 10
0.0
 20
0.0
 30
0.0
210
0.0
220
0.0
230
1.0
  2
SOLID
 70
     1
 71
     1
 91
        1
 92
        1
 93
        1
 72
     2
 10
0.0
 20
0.0
 40
1.0
 50
0.0
 51
360.0
 73
     1
 97
        0
 75
     0
 76
     1
 98
        0
  0
ENDBLK
  5
233
330
21A
100
AcDbEntity
  8
0
100
AcDbBlockEnd
  0
BLOCK
  5
230
330
21C
100
AcDbEntity
  8
0
100
AcDbBlockBegin
  2
cw-line-extremity5
 70
     0
 10
0.0
 20
0.0
 30
0.0
  3
cw-line-extremity5
  1

  0
LINE
  5
21D
330
21C
100
AcDbEntity
  8
0
 62
     0
370
    -2
100
AcDbLine
 10
0.0
 20
0.0
 30
0.0
 11
-1.0
 21
0.0
 31
0.0
  0
ENDBLK
  5
231
330
21C
100
AcDbEntity
  8
0
100
AcDbBlockEnd
  0
BLOCK
  5
22E
330
21E
100
AcDbEntity
  8
0
100
AcDbBlockBegin
  2
cw-line-extremity6
 70
     0
 10
0.0
 20
0.0
 30
0.0
  3
cw-line-extremity6
  1

  0
LINE
  5
21F
330
21E
100
AcDbEntity
  8
0
 62
     0
370
    18
100
AcDbLine
 10
0.0
 20
1.0
 30
0.0
 11
0.0
 21
-1.0
 31
0.0
  0
ENDBLK
  5
22F
330
21E
100
AcDbEntity
  8
0
100
AcDbBlockEnd
  0
BLOCK
  5
22C
330
220
100
AcDbEntity
  8
0
100
AcDbBlockBegin
  2
cw-line-extremity9
 70
     0
 10
0.0
 20
0.0
 30
0.0
  3
cw-line-extremity9
  1

  0
LINE
  5
221
330
220
100
AcDbEntity
  8
0
 62
     0
370
    18
100
AcDbLine
 10
-1.0
 20
-1.0
 30
0.0
 11
1.0
 21
1.0
 31
0.0
  0
ENDBLK
  5
22D
330
220
100
AcDbEntity
  8
0
100
AcDbBlockEnd
  0
BLOCK
  5
22A
330
222
100
AcDbEntity
  8
0
100
AcDbBlockBegin
  2
cw-line-extremity10
 70
     0
 10
0.0
 20
0.0
 30
0.0
  3
cw-line-extremity10
  1

  0
CIRCLE
  5
223
330
222
100
AcDbEntity
  8
0
 62
     0
370
    -2
100
AcDbCircle
 10
0.0
 20
0.0
 30
0.0
 40
1.0
  0
ENDBLK
  5
22B
330
222
100
AcDbEntity
  8
0
100
AcDbBlockEnd
  0
BLOCK
  5
228
330
224
100
AcDbEntity
  8
0
100
AcDbBlockBegin
  2
cw-line-extremity1
 70
     0
 10
0.0
 20
0.0
 30
0.0
  3
cw-line-extremity1
  1

  0
LINE
  5
225
330
224
100
AcDbEntity
  8
0
 62
     0
370
    -2
100
AcDbLine
 10
0.0
 20
0.0
 30
0.0
 11
0.0
 21
1.0
 31
0.0
  0
LINE
  5
226
330
224
100
AcDbEntity
  8
0
 62
     0
370
    -2
100
AcDbLine
 10
0.0
 20
1.0
 30
0.0
 11
0.5
 21
1.5
 31
0.0
  0
LINE
  5
227
330
224
100
AcDbEntity
  8
0
 62
     0
370
    -2
100
AcDbLine
 10
0.5
 20
1.5
 30
0.0
 11
1.5
 21
1.5
 31
0.0
  0
ENDBLK
  5
229
330
224
100
AcDbEntity
  8
0
100
AcDbBlockEnd
  0
BLOCK
  5
1C
330
1B
100
AcDbEntity
  8
0
100
AcDbBlockBegin
  2
*Paper_Space69
 70
     0
 10
0.0
 20
0.0
 30
0.0
  3
*Paper_Space69
  1

  0
ENDBLK
  5
1D
330
1B
100
AcDbEntity
  8
0
100
AcDbBlockEnd
  0
BLOCK
  5
3E5
330
3E4
100
AcDbEntity
  8
0
100
AcDbBlockBegin
  2
*D70
 70
     1
 10
0.0
 20
0.0
 30
0.0
  3
*D70
  1

  0
LINE
  5
3E7
330
3E4
100
AcDbEntity
  8
Ech.1_2
 62
     0
370
    -2
100
AcDbLine
 10
4564.772058610401
 20
-3849.083134474053
 30
0.0
 11
4562.510715201877
 21
-3849.083134474053
 31
0.0
  0
LINE
  5
3E8
330
3E4
100
AcDbEntity
  8
Ech.1_2
 62
     0
370
    -2
100
AcDbLine
 10
4564.772058610401
 20
-3839.811054822743
 30
0.0
 11
4562.510715201877
 21
-3839.811054822743
 31
0.0
  0
LINE
  5
3E9
330
3E4
100
AcDbEntity
  8
Ech.1_2
 62
     0
370
    -2
100
AcDbLine
 10
4564.510715201877
 20
-3847.083134474053
 30
0.0
 11
4564.510715201877
 21
-3841.811054822743
 31
0.0
  0
INSERT
  5
3EA
330
3E4
100
AcDbEntity
  8
Ech.1_2
 62
     0
370
    -2
100
AcDbBlockReference
  2
cw-dimension-symbol2
 10
4564.510715201877
 20
-3849.083134474053
 30
0.0
 41
2.0
 42
2.0
 43
2.0
 50
270.0
  0
INSERT
  5
3EB
330
3E4
100
AcDbEntity
  8
Ech.1_2
 62
     0
370
    -2
100
AcDbBlockReference
  2
cw-dimension-symbol2
 10
4564.510715201877
 20
-3839.811054822743
 30
0.0
 41
2.0
 42
2.0
 43
2.0
 50
90.0
  0
MTEXT
  5
3EC
330
3E4
100
AcDbEntity
  8
Ech.1_2
 62
   190
370
    15
100
AcDbMText
 10
4560.010715201877
 20
-3844.447094648402
 30
0.0
 40
5.0
 41
0.0
 46
0.0
 71
     5
 72
     1
  1
\A1;10 mini
  7
arial-z
 11
6.123233995736766E-17
 21
1.0
 31
0.0
 73
     1
 44
1.0
  0
POINT
  5
3ED
330
3E4
100
AcDbEntity
  8
Defpoints
 62
     0
100
AcDbPoint
 10
4564.772058610401
 20
-3849.083134474053
 30
0.0
  0
POINT
  5
3EE
330
3E4
100
AcDbEntity
  8
Defpoints
 62
     0
100
AcDbPoint
 10
4564.772058610401
 20
-3839.811054822743
 30
0.0
  0
POINT
  5
3EF
330
3E4
100
AcDbEntity
  8
Defpoints
 62
     0
100
AcDbPoint
 10
4564.510715201877
 20
-3839.811054822743
 30
0.0
  0
ENDBLK
  5
3E6
330
3E4
100
AcDbEntity
  8
0
100
AcDbBlockEnd
  0
ENDSEC
  0
SECTION
  2
ENTITIES
  0
LINE
  5
245
330
1F
100
AcDbEntity
  8
Ech.1_2
 62
     7
370
    20
100
AcDbLine
 10
4590.772058610233
 20
-3933.863025716348
 30
0.0
 11
4590.772058610233
 21
-3924.430631188867
 31
0.0
  0
HATCH
  5
246
330
1F
100
AcDbEntity
  8
Ech.1_2
 62
   254
420
 15326711
440
 33554687
370
     5
100
AcDbHatch
 10
0.0
 20
0.0
 30
0.0
210
0.0
220
0.0
230
1.0
  2
SOLID
 70
     1
 71
     1
 91
        1
 92
        3
 72
     0
 73
     1
 93
        4
 10
4493.950222774689
 20
-3828.472842387639
 10
4531.537927606118
 20
-3814.792036654619
 10
4540.772471475913
 20
-3840.163737415818
 10
4503.184766644485
 20
-3853.844543148896
 97
        0
 75
     0
 76
     1
 98
        0
  0
LWPOLYLINE
  5
247
330
1F
100
AcDbEntity
  8
Ech.1_2
 62
   190
370
    15
100
AcDbPolyline
 90
        5
 70
     0
 43
0.0
 10
4493.950222774689
 20
-3828.472842387639
 10
4531.537927606118
 20
-3814.792036654619
 10
4540.772471475913
 20
-3840.163737415818
 10
4503.184766644485
 20
-3853.844543148896
 10
4493.950222774689
 20
-3828.472842387639
  0
LWPOLYLINE
  5
248
330
1F
100
AcDbEntity
  8
Ech.1_2
 62
   190
370
    15
100
AcDbPolyline
 90
        4
 70
     0
 43
0.0
 10
4531.537927606118
 20
-3814.792036654619
 10
4503.184766644485
 20
-3853.844543148896
 10
4540.772471475913
 20
-3840.163737415818
 10
4493.950222774689
 20
-3828.472842387639
  0
LINE
  5
249
330
1F
100
AcDbEntity
  8
Ech.1_2
370
    20
100
AcDbLine
 10
4614.772471856417
 20
-3784.420477845781
 30
0.0
 11
4648.07247185642
 21
-3784.420477845781
 31
0.0
  0
LINE
  5
24A
330
1F
100
AcDbEntity
  8
Ech.1_2
 62
     7
370
    20
100
AcDbLine
 10
4590.772058610233
 20
-3874.956192908418
 30
0.0
 11
4590.772058610233
 21
-3910.956192908418
 31
0.0
  0
HATCH
  5
24B
330
1F
100
AcDbEntity
  8
Ech.1_2
 62
   254
420
 15326711
440
 33554687
370
     5
100
AcDbHatch
 10
0.0
 20
0.0
 30
0.0
210
0.0
220
0.0
230
1.0
  2
SOLID
 70
     1
 71
     1
 91
        1
 92
        3
 72
     0
 73
     1
 93
       12
 10
4556.252936238267
 20
-3726.753247339964
 10
4549.658394605663
 20
-3733.94458798173
 10
4472.693307616077
 20
-3733.94458798173
 10
4472.693307616077
 20
-3788.2446733626
 10
4479.884648257848
 20
-3794.839214995207
 10
4465.502368253125
 20
-3789.195238988084
 10
4472.693307616077
 20
-3795.789440250448
 10
4472.693307616077
 20
-3836.133064538672
 10
4667.772481373653
 20
-3765.130051965667
 10
4667.772481373653
 20
-3733.944449401339
 10
4557.203161493508
 20
-3733.94458798173
 10
4550.608960231144
 20
-3741.135527344684
 97
        0
 75
     0
 76
     1
 98
        0
  0
LWPOLYLINE
  5
24C
330
1F
100
AcDbEntity
  8
Ech.1_2
 62
   190
370
    15
100
AcDbPolyline
 90
       13
 70
     0
 43
0.0
 10
4556.252936238267
 20
-3726.753247339964
 10
4549.658394605663
 20
-3733.94458798173
 10
4472.693307616077
 20
-3733.94458798173
 10
4472.693307616077
 20
-3788.2446733626
 10
4479.884648257848
 20
-3794.839214995207
 10
4465.502368253125
 20
-3789.195238988084
 10
4472.693307616077
 20
-3795.789440250448
 10
4472.693307616077
 20
-3836.133064538672
 10
4667.772481373653
 20
-3765.130051965667
 10
4667.772481373653
 20
-3733.944449401339
 10
4557.203161493508
 20
-3733.94458798173
 10
4550.608960231144
 20
-3741.135527344684
 10
4556.252936238267
 20
-3726.753247339964
  0
HATCH
  5
24D
330
1F
100
AcDbEntity
  8
Ech.1_2
 62
   254
420
 15326711
440
 33554687
370
     5
100
AcDbHatch
 10
0.0
 20
0.0
 30
0.0
210
0.0
220
0.0
230
1.0
  2
SOLID
 70
     1
 71
     1
 91
        1
 92
        3
 72
     0
 73
     1
 93
        4
 10
4612.418730259267
 20
-3814.011581981891
 10
4472.693518627149
 20
-3864.865993425426
 10
4472.693518627149
 20
-3875.507737334681
 10
4615.840446635228
 20
-3823.407956459721
 97
        0
 75
     0
 76
     1
 98
        0
  0
LWPOLYLINE
  5
24E
330
1F
100
AcDbEntity
  8
Ech.1_2
 62
   190
370
    15
100
AcDbPolyline
 90
        5
 70
     0
 43
0.0
 10
4612.418730259267
 20
-3814.011581981891
 10
4472.693518627149
 20
-3864.865993425426
 10
4472.693518627149
 20
-3875.507737334681
 10
4615.840446635228
 20
-3823.407956459721
 10
4612.418730259267
 20
-3814.011581981891
  0
HATCH
  5
24F
330
1F
100
AcDbEntity
  8
Ech.1_2
 62
   254
420
 15326711
440
 33554687
370
     5
100
AcDbHatch
 10
0.0
 20
0.0
 30
0.0
210
0.0
220
0.0
230
1.0
  2
SOLID
 70
     1
 71
     1
 91
        1
 92
        3
 72
     0
 73
     1
 93
        5
 10
4617.772471921056
 20
-3799.774679958429
 10
4617.772624619338
 20
-3829.420477845781
 10
4667.772481373653
 20
-3829.420477845781
 10
4667.772481373653
 20
-3784.420477845781
 10
4617.772624619338
 20
-3784.420477845781
 97
        0
 75
     0
 76
     1
 98
        0
  0
LWPOLYLINE
  5
250
330
1F
100
AcDbEntity
  8
Ech.1_2
 62
   190
370
    15
100
AcDbPolyline
 90
        6
 70
     0
 43
0.0
 10
4617.772471921056
 20
-3799.774679958429
 10
4617.772624619338
 20
-3829.420477845781
 10
4667.772481373653
 20
-3829.420477845781
 10
4667.772481373653
 20
-3784.420477845781
 10
4617.772624619338
 20
-3784.420477845781
 10
4617.772471921056
 20
-3799.774679958429
  0
LWPOLYLINE
  5
251
330
1F
100
AcDbEntity
  8
Ech.1_2
 62
   254
420
 15656413
370
    20
100
AcDbPolyline
 90
        4
 70
     0
 43
0.0
 10
4590.772248035013
 20
-4022.031572320791
 10
4590.772211308515
 20
-3859.083134474053
 10
4617.772210727442
 20
-3859.083134474053
 10
4617.772624619338
 20
-4022.031572320791
  0
LINE
  5
252
330
1F
100
AcDbEntity
  8
Ech.1_2
 62
   190
370
    15
100
AcDbLine
 10
4617.772624619338
 20
-3784.420477845781
 30
0.0
 11
4667.772481373653
 21
-3796.920727654231
 31
0.0
  0
LINE
  5
253
330
1F
100
AcDbEntity
  8
Ech.1_2
 62
   190
370
    15
100
AcDbLine
 10
4667.772481373653
 20
-3816.920228037337
 30
0.0
 11
4617.772624619338
 21
-3829.420477845781
 31
0.0
  0
LWPOLYLINE
  5
254
330
1F
100
AcDbEntity
  8
Ech.1_2
370
    20
100
AcDbPolyline
 90
        4
 70
     0
 43
0.0
 10
4472.693518627149
 20
-3875.507737334681
 10
4615.840446635228
 20
-3823.407956459721
 10
4612.418730259267
 20
-3814.011581981891
 10
4472.693518627149
 20
-3864.865993425426
  0
LWPOLYLINE
  5
255
330
1F
100
AcDbEntity
  8
Ech.1_2
370
    20
100
AcDbPolyline
 90
        3
 70
     0
 43
0.0
 10
4667.772481373653
 20
-3784.420477845781
 10
4614.772471856417
 20
-3784.420477845781
 10
4667.772481373653
 20
-3765.130051965682
  0
HATCH
  5
256
330
1F
100
AcDbEntity
  8
Ech.1_2
 62
    35
420
  9529928
440
 33554687
370
    20
100
AcDbHatch
 10
0.0
 20
0.0
 30
0.0
210
0.0
220
0.0
230
1.0
  2
SOLID
 70
     1
 71
     1
 91
        1
 92
        3
 72
     0
 73
     1
 93
        5
 10
4590.772176340093
 20
-4022.031572320791
 10
4617.773055484335
 20
-4022.031572320791
 10
4617.772210727442
 20
-3859.083134474053
 10
4611.774169908513
 20
-3859.083134474053
 10
4590.772211308515
 20
-3859.083134474053
 97
        0
 75
     0
 76
     1
 98
        0
  0
LWPOLYLINE
  5
257
330
1F
100
AcDbEntity
  8
Ech.1_2
 62
   190
370
    15
100
AcDbPolyline
 90
        6
 70
     0
 43
0.0
 10
4590.772176340093
 20
-4022.031572320791
 10
4617.773055484335
 20
-4022.031572320791
 10
4617.772210727442
 20
-3859.083134474053
 10
4611.774169908513
 20
-3859.083134474053
 10
4590.772211308515
 20
-3859.083134474053
 10
4590.772176340093
 20
-4022.031572320791
  0
HATCH
  5
258
330
1F
100
AcDbEntity
  8
Ech.1_2
 62
   190
440
 33554687
370
    15
100
AcDbHatch
 10
0.0
 20
0.0
 30
0.0
210
0.0
220
0.0
230
1.0
  2
CwHatchPattern_20
 70
     0
 71
     1
 91
        1
 92
        3
 72
     0
 73
     1
 93
        4
 10
4612.418730259267
 20
-3814.011581981891
 10
4472.693518627149
 20
-3864.865993425426
 10
4472.693518627149
 20
-3875.507737334681
 10
4615.840446635228
 20
-3823.407956459721
 97
        0
 75
     0
 76
     2
 52
0.0
 41
1.5
 77
     0
 78
     2
 53
45.00000000000297
 43
0.0
 44
0.0
 45
-4.242640687119504
 46
4.242640687119065
 79
     0
 53
135.0000000000089
 43
0.0
 44
0.0
 45
-4.242640687118626
 46
-4.242640687119945
 79
     0
 98
        0
1001
ACAD
1010
0.0
1020
0.0
1030
0.0
  0
LWPOLYLINE
  5
259
330
1F
100
AcDbEntity
  8
Ech.1_2
 62
     7
370
    20
100
AcDbPolyline
 90
        5
 70
     0
 43
0.0
 10
4612.418730259267
 20
-3814.011581981891
 10
4472.693518627149
 20
-3864.865993425426
 10
4472.693518627149
 20
-3875.507737334681
 10
4615.840446635228
 20
-3823.407956459721
 10
4612.418730259267
 20
-3814.011581981891
  0
LINE
  5
25A
330
1F
100
AcDbEntity
  8
Ech.1_2
 62
     7
370
    20
100
AcDbLine
 10
4644.104769736052
 20
-3773.744394514952
 30
0.0
 11
4472.693307616077
 21
-3836.133064538672
 31
0.0
  0
HATCH
  5
25B
330
1F
100
AcDbEntity
  8
Ech.1_2
 62
   254
420
 15326711
440
 33554687
370
     5
100
AcDbHatch
 10
0.0
 20
0.0
 30
0.0
210
0.0
220
0.0
230
1.0
  2
SOLID
 70
     1
 71
     1
 91
        1
 92
        3
 72
     0
 73
     1
 93
        4
 10
4644.104769736052
 20
-3733.94458798173
 10
4644.104769736052
 20
-3784.420477845781
 10
4667.772481373653
 20
-3784.420477845781
 10
4667.772481373653
 20
-3733.94458798173
 97
        0
 75
     0
 76
     1
 98
        0
  0
LWPOLYLINE
  5
25C
330
1F
100
AcDbEntity
  8
Ech.1_2
 62
   190
370
    15
100
AcDbPolyline
 90
        5
 70
     0
 43
0.0
 10
4644.104769736052
 20
-3733.94458798173
 10
4644.104769736052
 20
-3784.420477845781
 10
4667.772481373653
 20
-3784.420477845781
 10
4667.772481373653
 20
-3733.94458798173
 10
4644.104769736052
 20
-3733.94458798173
  0
LWPOLYLINE
  5
25D
330
1F
100
AcDbEntity
  8
Ech.1_2
 62
   190
370
    15
100
AcDbPolyline
 90
        3
 70
     0
 43
0.0
 10
4644.104769736052
 20
-3784.420477845781
 10
4666.604769736052
 20
-3739.420477845781
 10
4667.772481373653
 20
-3741.755901120983
  0
LWPOLYLINE
  5
25E
330
1F
100
AcDbEntity
  8
Ech.1_2
 62
   190
370
    15
100
AcDbPolyline
 90
        3
 70
     0
 43
0.0
 10
4663.866824804027
 20
-3733.94458798173
 10
4666.604769736052
 20
-3739.420477845781
 10
4667.772481373653
 20
-3737.085054570585
  0
LWPOLYLINE
  5
25F
330
1F
100
AcDbEntity
  8
Ech.1_2
 62
   190
370
    15
100
AcDbPolyline
 90
      306
 70
     0
 43
0.0
 10
4604.235318342635
 20
-3927.365957707154
 10
4604.037504239476
 20
-3924.165044535703
 10
4603.846533648616
 20
-3920.965566441491
 10
4603.755753267892
 20
-3919.366814009989
 10
4603.669250082356
 20
-3917.76895850176
 10
4603.587879531044
 20
-3916.172179301462
 10
4603.512497052993
 20
-3914.57665579375
 10
4603.443958087243
 20
-3912.982567363276
 10
4603.38311807283
 20
-3911.390093394698
 10
4603.330832448791
 20
-3909.799413272669
 10
4603.287956654163
 20
-3908.210706381845
 10
4603.255346127986
 20
-3906.624152106883
 10
4603.233856309294
 20
-3905.039929832434
 10
4603.224342637127
 20
-3903.458218943155
 10
4603.227660550521
 20
-3901.879198823701
 10
4603.244665488516
 20
-3900.303048858728
 10
4603.276212890146
 20
-3898.729948432889
 10
4603.323118337875
 20
-3897.160059693316
 10
4603.385098526094
 20
-3895.593069530326
 10
4603.460659369043
 20
-3894.028141185342
 10
4603.548244479995
 20
-3892.464410955317
 10
4603.646297472223
 20
-3890.901015137204
 10
4603.753261959002
 20
-3889.337090027956
 10
4603.867581553604
 20
-3887.771771924525
 10
4603.987699869303
 20
-3886.204197123865
 10
4604.112060519373
 20
-3884.633501922927
 10
4604.239107117087
 20
-3883.058822618665
 10
4604.367283275718
 20
-3881.479295508031
 10
4604.495032608541
 20
-3879.894056887978
 10
4604.620798728828
 20
-3878.302243055459
 10
4604.743025249853
 20
-3876.702990307426
 10
4604.860155784891
 20
-3875.095434940833
 10
4604.970633947212
 20
-3873.478713252632
 10
4605.072903350092
 20
-3871.851961539774
 10
4605.165407606803
 20
-3870.214316099213
 10
4605.207511434494
 20
-3869.391138323843
 10
4605.246584134404
 20
-3868.564917786344
 10
4605.281932968534
 20
-3867.735913032512
 10
4605.312024034342
 20
-3866.905001436939
 10
4605.33524103826
 20
-3866.07312098773
 10
4605.349967686715
 20
-3865.241209672994
 10
4605.354587686138
 20
-3864.410205480838
 10
4605.347484742961
 20
-3863.581046399369
 10
4605.32704256361
 20
-3862.754670416694
 10
4605.311314168627
 20
-3862.342819208688
 10
4605.291644854514
 20
-3861.93201552092
 10
4605.267832584572
 20
-3861.522376601904
 10
4605.239675322106
 20
-3861.114019700154
 10
4605.206971030419
 20
-3860.707062064183
 10
4605.169517672812
 20
-3860.301620942503
 10
4605.127113212594
 20
-3859.89781358363
 10
4605.079555613065
 20
-3859.495757236076
 10
4605.026642837531
 20
-3859.095569148355
 10
4604.968172849293
 20
-3858.697366568979
 10
4604.903943611657
 20
-3858.301266746462
 10
4604.833753087926
 20
-3857.907386929318
 10
4604.757399241403
 20
-3857.515844366061
 10
4604.674680035393
 20
-3857.126756305202
 10
4604.585393433199
 20
-3856.740239995257
 10
4604.489337398123
 20
-3856.356412684737
 10
4604.386309893472
 20
-3855.975391622158
 10
4604.276108882547
 20
-3855.597294056031
 10
4604.158532328654
 20
-3855.222237234871
 10
4604.033378195095
 20
-3854.850338407191
 10
4603.900444445174
 20
-3854.481714821504
 10
4603.759529042194
 20
-3854.116483726324
 10
4603.61042994946
 20
-3853.754762370163
 10
4603.452945130277
 20
-3853.396668001536
 10
4603.286872547945
 20
-3853.042317868956
 10
4603.11201016577
 20
-3852.691829220936
 10
4602.928155947055
 20
-3852.34531930599
 10
4602.735107855104
 20
-3852.00290537263
 10
4602.532663853222
 20
-3851.664704669372
 10
4602.320631355828
 20
-3851.330834313083
 10
4602.099035603167
 20
-3851.001408386565
 10
4601.868119911644
 20
-3850.676537935062
 10
4601.628137098853
 20
-3850.356333871478
 10
4601.379339982389
 20
-3850.040907108714
 10
4601.121981379847
 20
-3849.730368559676
 10
4600.856314108823
 20
-3849.424829137264
 10
4600.58259098691
 20
-3849.124399754383
 10
4600.301064831705
 20
-3848.829191323936
 10
4600.0119884608
 20
-3848.539314758827
 10
4599.715614691791
 20
-3848.254880971957
 10
4599.412196342275
 20
-3847.976000876232
 10
4599.101986229842
 20
-3847.702785384552
 10
4598.785237172089
 20
-3847.435345409823
 10
4598.462201986612
 20
-3847.173791864946
 10
4598.133133491005
 20
-3846.918235662827
 10
4597.798284502862
 20
-3846.668787716365
 10
4597.457907839777
 20
-3846.425558938467
 10
4597.112256319348
 20
-3846.188660242034
 10
4596.761582759167
 20
-3845.958202539969
 10
4596.40613997683
 20
-3845.734296745177
 10
4596.04618078993
 20
-3845.51705377056
 10
4595.681958016063
 20
-3845.306584529021
 10
4595.313724472825
 20
-3845.102999933465
 10
4594.941732977809
 20
-3844.906410896792
 10
4594.566236348609
 20
-3844.716928331907
 10
4594.187487402824
 20
-3844.534663151715
 10
4593.805738958043
 20
-3844.359726269115
 10
4593.421243831863
 20
-3844.192228597012
 10
4593.034254841881
 20
-3844.032281048312
 10
4592.645024805689
 20
-3843.879994535913
 10
4592.253806540883
 20
-3843.735479972723
 10
4591.860852865057
 20
-3843.598848271642
 10
4591.466416595807
 20
-3843.470210345574
 10
4591.070750550726
 20
-3843.349677107423
 10
4590.674107547411
 20
-3843.237359470092
 10
4590.276740403454
 20
-3843.133368346483
 10
4589.878901936451
 20
-3843.037814649499
 10
4589.480844964
 20
-3842.950809292046
 10
4589.082822303688
 20
-3842.872463187023
 10
4588.685086773118
 20
-3842.802887247338
 10
4588.28789118988
 20
-3842.742192385891
 10
4587.89148837157
 20
-3842.690489515584
 10
4587.496131135782
 20
-3842.647889549323
 10
4587.102072300112
 20
-3842.614503400011
 10
4586.709541510567
 20
-3842.59042135039
 10
4586.318533355084
 20
-3842.575524405986
 10
4585.928905618483
 20
-3842.569571773581
 10
4585.540514388505
 20
-3842.572321149019
 10
4585.153215752889
 20
-3842.583530228135
 10
4584.766865799375
 20
-3842.602956706768
 10
4584.3813206157
 20
-3842.630358280759
 10
4583.996436289607
 20
-3842.665492645944
 10
4583.612068908833
 20
-3842.708117498164
 10
4583.228074561121
 20
-3842.757990533258
 10
4582.844309334207
 20
-3842.814869447063
 10
4582.460629315831
 20
-3842.878511935418
 10
4582.076890593734
 20
-3842.948675694163
 10
4581.692949255656
 20
-3843.025118419135
 10
4581.308661389336
 20
-3843.107597806174
 10
4580.923883082511
 20
-3843.195871551119
 10
4580.538470422924
 20
-3843.289697349809
 10
4580.152279498313
 20
-3843.388832898081
 10
4579.765166396418
 20
-3843.493035891775
 10
4579.376987204978
 20
-3843.602064026729
 10
4578.987598011734
 20
-3843.715674998783
 10
4578.596854904425
 20
-3843.833626503776
 10
4578.204613970788
 20
-3843.955676237544
 10
4577.810731298566
 20
-3844.08158189593
 10
4577.017465089322
 20
-3844.343991769901
 10
4576.215904978609
 20
-3844.618917692401
 10
4575.404899668341
 20
-3844.904421230139
 10
4574.583836416689
 20
-3845.198858418173
 10
4573.75543019129
 20
-3845.502404795301
 10
4572.92366558819
 20
-3845.815930099634
 10
4572.092529721201
 20
-3846.14030544593
 10
4571.266009704131
 20
-3846.476401948947
 10
4570.855726612381
 20
-3846.649117857588
 10
4570.44809265079
 20
-3846.825090723444
 10
4570.043606208585
 20
-3847.004429435859
 10
4569.64276567499
 20
-3847.187242884178
 10
4569.246069439233
 20
-3847.373639957746
 10
4568.854015890541
 20
-3847.563729545907
 10
4568.467103418137
 20
-3847.757620538007
 10
4568.08583041125
 20
-3847.955421823391
 10
4567.710695259105
 20
-3848.157242291401
 10
4567.342196350931
 20
-3848.363190831386
 10
4566.980832075949
 20
-3848.573376332688
 10
4566.62710082339
 20
-3848.78790768465
 10
4566.281500982478
 20
-3849.006893776621
 10
4565.944530942439
 20
-3849.230443497944
 10
4565.616689092501
 20
-3849.458665737963
 10
4565.298473821889
 20
-3849.691669386023
 10
4564.990383519829
 20
-3849.929563331469
 10
4564.692916575551
 20
-3850.172456463647
 10
4564.406571378275
 20
-3850.420457671899
 10
4564.131846317231
 20
-3850.673675845573
 10
4563.869239781644
 20
-3850.93221987401
 10
4563.619250160742
 20
-3851.196198646559
 10
4563.382375843749
 20
-3851.465721052562
 10
4563.159115219893
 20
-3851.740895981365
 10
4562.949966678399
 20
-3852.021832322311
 10
4562.755428608494
 20
-3852.308638964746
 10
4562.663794247022
 20
-3852.454277676944
 10
4562.575999399405
 20
-3852.601424798016
 10
4562.4921063643
 20
-3852.750093939133
 10
4562.412177440357
 20
-3852.900298711464
 10
4562.336274926233
 20
-3853.052052726176
 10
4562.264461120577
 20
-3853.205369594435
 10
4562.196793342867
 20
-3853.360261555953
 10
4562.133258582128
 20
-3853.516721478699
 10
4562.073791744703
 20
-3853.674727885048
 10
4562.018326510838
 20
-3853.834258959661
 10
4561.966796560785
 20
-3853.995292887199
 10
4561.919135574788
 20
-3854.157807852324
 10
4561.8752772331
 20
-3854.321782039698
 10
4561.835155215967
 20
-3854.48719363398
 10
4561.765854876363
 20
-3854.822241781918
 10
4561.710703997968
 20
-3855.162777773429
 10
4561.66917202277
 20
-3855.508627085803
 10
4561.640728392759
 20
-3855.859615196332
 10
4561.624842549923
 20
-3856.215567582303
 10
4561.620983936255
 20
-3856.576309721009
 10
4561.628621993741
 20
-3856.941667089741
 10
4561.647226164372
 20
-3857.311465165787
 10
4561.676265890137
 20
-3857.685529426438
 10
4561.715210613025
 20
-3858.063685348985
 10
4561.763529775028
 20
-3858.445758410719
 10
4561.820692818131
 20
-3858.831574088929
 10
4561.886169184329
 20
-3859.220957860908
 10
4561.959428315607
 20
-3859.613735203942
 10
4562.039939653957
 20
-3860.009731595325
 10
4562.127172641367
 20
-3860.408772512346
 10
4562.220596719826
 20
-3860.810683432294
 10
4562.319681331324
 20
-3861.215289832462
 10
4562.423895917854
 20
-3861.62241719014
 10
4562.5327099214
 20
-3862.031890982617
 10
4562.645592783955
 20
-3862.443536687184
 10
4562.881442854045
 20
-3863.27264574175
 10
4563.127201664042
 20
-3864.10834817216
 10
4563.378624749859
 20
-3864.949247796738
 10
4563.881485892621
 20
-3866.641053901687
 10
4564.124435021396
 20
-3867.489168018706
 10
4564.356070569657
 20
-3868.336894603184
 10
4564.466319356067
 20
-3868.760176263946
 10
4564.572148073317
 20
-3869.182837473444
 10
4564.673026163397
 20
-3869.60470370897
 10
4564.768423068293
 20
-3870.025600447811
 10
4564.857808229999
 20
-3870.44535316726
 10
4564.940651090501
 20
-3870.863787344605
 10
4565.016424668593
 20
-3871.280729578387
 10
4565.08485117766
 20
-3871.696084584149
 10
4565.146060403175
 20
-3872.109884842276
 10
4565.200219806551
 20
-3872.522174643735
 10
4565.247496849214
 20
-3872.932998279495
 10
4565.288058992582
 20
-3873.342400040523
 10
4565.322073698073
 20
-3873.750424217784
 10
4565.349708427109
 20
-3874.157115102248
 10
4565.371130641111
 20
-3874.562516984879
 10
4565.386507801496
 20
-3874.966674156646
 10
4565.396007369686
 20
-3875.369630908516
 10
4565.399796807101
 20
-3875.771431531454
 10
4565.398043575161
 20
-3876.172120316431
 10
4565.390915135285
 20
-3876.571741554411
 10
4565.378578948896
 20
-3876.970339536362
 10
4565.36120247741
 20
-3877.36795855325
 10
4565.338953182251
 20
-3877.764642896045
 10
4565.311998524836
 20
-3878.16043685571
 10
4565.280505966585
 20
-3878.555384723215
 10
4565.244642968922
 20
-3878.949530789526
 10
4565.204576993262
 20
-3879.342919345611
 10
4565.160475501028
 20
-3879.735594682436
 10
4565.060835812516
 20
-3880.518982862177
 10
4564.947063594745
 20
-3881.300049656483
 10
4564.820498539074
 20
-3882.079149393092
 10
4564.682480336867
 20
-3882.856636399741
 10
4564.534348679483
 20
-3883.632865004167
 10
4564.377443258281
 20
-3884.408189534105
 10
4564.213103764622
 20
-3885.182964317292
 10
4564.042655571351
 20
-3885.957538409417
 10
4563.866829526409
 20
-3886.732041963337
 10
4563.685561503082
 20
-3887.506312423894
 10
4563.498731902291
 20
-3888.280166811123
 10
4563.306221124957
 20
-3889.053422145056
 10
4563.107909571996
 20
-3889.825895445723
 10
4562.903677644328
 20
-3890.59740373316
 10
4562.693405742873
 20
-3891.367764027398
 10
4562.476974268548
 20
-3892.13679334847
 10
4562.254263622274
 20
-3892.904308716408
 10
4562.025154204967
 20
-3893.670127151244
 10
4561.789526417551
 20
-3894.434065673012
 10
4561.54726066094
 20
-3895.195941301745
 10
4561.298237336055
 20
-3895.955571057472
 10
4561.042336843814
 20
-3896.71277196023
 10
4560.779439585137
 20
-3897.467361030049
 10
4560.509425960942
 20
-3898.219155286963
 10
4560.232176372151
 20
-3898.967971751003
 10
4559.947571219677
 20
-3899.713627442202
 10
4559.655490904444
 20
-3900.455939380594
 10
4559.35581582737
 20
-3901.19472458621
 10
4559.048426389372
 20
-3901.929800079082
 10
4558.733202991372
 20
-3902.660982879245
 10
4558.410026034287
 20
-3903.388090006731
 10
4558.078775919034
 20
-3904.110938481569
 10
4557.739333046535
 20
-3904.829345323796
 10
4557.391579882801
 20
-3905.543129400856
 10
4557.035527544876
 20
-3906.252224670233
 10
4556.671389336484
 20
-3906.956745963782
 10
4556.299396282503
 20
-3907.656823966527
 10
4555.919779407799
 20
-3908.352589363489
 10
4555.532769737243
 20
-3909.044172839694
 10
4555.138598295705
 20
-3909.731705080164
 10
4554.737496108059
 20
-3910.415316769926
 10
4554.329694199169
 20
-3911.095138593999
 10
4553.91542359391
 20
-3911.77130123741
 10
4553.494915317154
 20
-3912.443935385182
 10
4553.068400393764
 20
-3913.113171722337
 10
4552.636109848616
 20
-3913.779140933902
 10
4552.198274706582
 20
-3914.441973704898
 10
4551.755125992528
 20
-3915.101800720349
 10
4551.306894731325
 20
-3915.75875266528
 10
4550.853811947844
 20
-3916.412960224712
 10
4550.396108666957
 20
-3917.064554083672
 10
4549.934015913534
 20
-3917.713664927182
 10
4549.467764712441
 20
-3918.360423440264
 10
4548.997586088554
 20
-3919.004960307945
 10
4548.046370671875
 20
-3920.287891847195
 10
4547.082217862452
 20
-3921.563505025118
 10
4546.106975859253
 20
-3922.832845321904
 10
4545.122492861239
 20
-3924.096958217743
 10
4544.130617067373
 20
-3925.356889192824
 10
4543.133196676621
 20
-3926.613683727338
 10
4541.129114900297
 20
-3929.122045395417
  0
LWPOLYLINE
  5
260
330
1F
100
AcDbEntity
  8
Ech.1_2
 62
     5
370
    40
100
AcDbPolyline
 90
        4
 70
     0
 43
0.0
 10
4667.772481373653
 20
-3784.420477845781
 10
4617.772624619338
 20
-3784.420477845781
 10
4617.772624619338
 20
-3829.420477845781
 10
4667.772481373653
 20
-3829.420477845781
  0
LWPOLYLINE
  5
261
330
1F
100
AcDbEntity
  8
Ech.1_2
 62
     5
370
    40
100
AcDbPolyline
 90
        3
 70
     0
 43
0.0
 10
4644.104769736052
 20
-3733.94458798173
 10
4644.104769736052
 20
-3784.420477845781
 10
4665.127593262328
 20
-3784.420477845781
  0
LINE
  5
262
330
1F
100
AcDbEntity
  8
Ech.1_2
 62
     5
370
    40
100
AcDbLine
 10
4644.104769736052
 20
-3784.420477845781
 30
0.0
 11
4667.772481373653
 21
-3784.420477845781
 31
0.0
  0
LWPOLYLINE
  5
263
330
1F
100
AcDbEntity
  8
Ech.1_2
 62
     5
370
    40
100
AcDbPolyline
 90
        5
 70
     0
 43
0.0
 10
4493.950222774689
 20
-3828.472842387639
 10
4531.537927606118
 20
-3814.792036654619
 10
4540.772471475913
 20
-3840.163737415818
 10
4503.184766644485
 20
-3853.844543148896
 10
4493.950222774689
 20
-3828.472842387639
  0
LWPOLYLINE
  5
264
330
1F
100
AcDbEntity
  8
Ech.1_2
 62
   173
420
  6710988
370
    70
100
AcDbPolyline
 90
        6
 70
     0
 43
0.0
 10
4617.772211308806
 20
-3848.357627725827
 10
4617.772595179185
 20
-3823.70478304419
 10
4606.190955045107
 20
-3827.919988740194
 10
4617.772595179185
 20
-3823.70478304419
 10
4617.77244826166
 20
-3811.063040935014
 10
4606.190955045107
 20
-3815.278245192416
  0
LWPOLYLINE
  5
265
330
1F
100
AcDbEntity
  8
Ech.1_2
 62
   190
370
    15
100
AcDbPolyline
 90
        6
 70
     0
 43
0.0
 10
4667.772624619338
 20
-4037.031565444226
 10
4667.772399851363
 20
-3878.039091801673
 10
4660.581460488411
 20
-3871.444890539309
 10
4674.963740493135
 20
-3877.088866546432
 10
4667.772399851363
 20
-3870.494324913825
 10
4667.772624619338
 20
-3718.94458798173
  0
LWPOLYLINE
  5
266
330
1F
100
AcDbEntity
  8
Ech.1_2
 62
   190
370
    15
100
AcDbPolyline
 90
        6
 70
     0
 43
0.0
 10
4557.772058610401
 20
-4022.031737349042
 10
4620.272341614869
 20
-4022.031565444226
 10
4626.866542877231
 20
-4014.840626081272
 10
4621.222566870108
 20
-4029.222906085999
 10
4627.817108502712
 20
-4022.031565444226
 10
4682.772624619338
 20
-4022.031565444226
  0
LWPOLYLINE
  5
267
330
1F
100
AcDbEntity
  8
Ech.1_2
 62
   190
370
    15
100
AcDbPolyline
 90
        6
 70
     0
 43
0.0
 10
4682.772624619338
 20
-3733.944430601137
 10
4557.203161493508
 20
-3733.94458798173
 10
4550.608960231144
 20
-3741.135527344684
 10
4556.252936238267
 20
-3726.753247339964
 10
4549.658394605663
 20
-3733.94458798173
 10
4457.693307616077
 20
-3733.944477372092
  0
LWPOLYLINE
  5
268
330
1F
100
AcDbEntity
  8
Ech.1_2
 62
   190
370
    15
100
AcDbPolyline
 90
        6
 70
     0
 43
0.0
 10
4472.693462234756
 20
-3890.507737334681
 10
4472.693307616077
 20
-3795.789440250448
 10
4465.502368253125
 20
-3789.195238988084
 10
4479.884648257848
 20
-3794.839214995207
 10
4472.693307616077
 20
-3788.2446733626
 10
4472.693518627149
 20
-3718.94458798173
  0
HATCH
  5
269
330
1F
100
AcDbEntity
  8
Ech.1_2
 62
    21
420
 16756102
440
 33554687
370
     5
100
AcDbHatch
 10
0.0
 20
0.0
 30
0.0
210
0.0
220
0.0
230
1.0
  2
SOLID
 70
     1
 71
     1
 91
        1
 92
        3
 72
     0
 73
     1
 93
       12
 10
4627.817391507033
 20
-4022.031271565998
 10
4667.772624619338
 20
-4022.031271565998
 10
4667.772624619338
 20
-3878.039091801673
 10
4660.581460488411
 20
-3871.444890539309
 10
4674.963740493135
 20
-3877.088866546432
 10
4667.772399851363
 20
-3870.494324913825
 10
4667.772481373653
 20
-3829.420477845781
 10
4617.772624619338
 20
-3829.420477845781
 10
4617.772624619338
 20
-4022.031572320791
 10
4620.272624619191
 20
-4022.031271565998
 10
4626.866825881552
 20
-4014.840332203044
 10
4621.22284987443
 20
-4029.222612207772
 97
        0
 75
     0
 76
     1
 98
        0
  0
LWPOLYLINE
  5
26A
330
1F
100
AcDbEntity
  8
Ech.1_2
 62
   190
370
    15
100
AcDbPolyline
 90
       13
 70
     0
 43
0.0
 10
4627.817391507033
 20
-4022.031271565998
 10
4667.772624619338
 20
-4022.031271565998
 10
4667.772624619338
 20
-3878.039091801673
 10
4660.581460488411
 20
-3871.444890539309
 10
4674.963740493135
 20
-3877.088866546432
 10
4667.772399851363
 20
-3870.494324913825
 10
4667.772481373653
 20
-3829.420477845781
 10
4617.772624619338
 20
-3829.420477845781
 10
4617.772624619338
 20
-4022.031572320791
 10
4620.272624619191
 20
-4022.031271565998
 10
4626.866825881552
 20
-4014.840332203044
 10
4621.22284987443
 20
-4029.222612207772
 10
4627.817391507033
 20
-4022.031271565998
  0
LWPOLYLINE
  5
26B
330
1F
100
AcDbEntity
  8
Ech.1_2
 62
   190
370
    15
100
AcDbPolyline
 90
        5
 70
     0
 43
0.0
 10
4790.300343097579
 20
-3601.81000115994
 10
4396.300343097579
 20
-3601.81000115994
 10
4396.300343097579
 20
-4143.810001159949
 10
4790.300343097579
 20
-4143.810001159949
 10
4790.300343097579
 20
-3601.81000115994
  0
LWPOLYLINE
  5
26C
330
1F
100
AcDbEntity
  8
Ech.1_2
 62
   190
370
    15
100
AcDbPolyline
 90
        4
 70
     0
 43
0.0
 10
4551.172425865236
 20
-3910.541905002168
 10
4541.129114900297
 20
-3929.122045395417
 10
4555.729723438042
 20
-3914.465590654627
 10
4551.172425865236
 20
-3910.541905002168
  0
LWPOLYLINE
  5
26D
330
1F
100
AcDbEntity
  8
Ech.1_2
 62
     8
370
    90
100
AcDbPolyline
 90
        3
 70
     0
 43
0.0
 10
4590.772211308515
 20
-3859.083134474053
 10
4617.772210727442
 20
-3859.083134474053
 10
4617.772210727442
 20
-3897.330895310437
  0
HATCH
  5
26E
330
1F
100
AcDbEntity
  8
Ech.1_2
 62
    17
420
  8405056
440
 33554687
370
    20
100
AcDbHatch
 10
0.0
 20
0.0
 30
0.0
210
0.0
220
0.0
230
1.0
  2
SOLID
 70
     1
 71
     1
 91
        1
 92
        3
 72
     1
 73
     1
 93
       21
 10
4586.772058610688
 20
-3999.175778556384
 42
0.0
 10
4590.772058610401
 20
-3995.175778556384
 42
0.0
 10
4590.772058610401
 20
-3966.846201943577
 42
0.0
 10
4586.772058610695
 20
-3963.17577855653
 42
0.0
 10
4590.772058610401
 20
-3959.175778556821
 42
0.0
 10
4590.772058610401
 20
-3925.019701289961
 42
0.0
 10
4584.30189937013
 20
-3925.019701289961
 42
0.0
 10
4584.30189937013
 20
-3917.12686742702
 42
0.0
 10
4583.058222521642
 20
-3913.17577855653
 42
0.0
 10
4579.563174973067
 20
-3913.17577855653
 42
0.0
 10
4578.752351757752
 20
-3915.835618949664
 42
0.0
 10
4578.752351757752
 20
-3926.528496619505
 42
0.0
 10
4579.664687172824
 20
-3927.708872937519
 42
0.0
 10
4578.752351757752
 20
-3928.781054352725
 42
0.0
 10
4578.752351757752
 20
-3936.906789245042
 42
-0.3131334096945185
 10
4577.450816292139
 20
-3938.724098598681
 42
0.0
 10
4571.809967432137
 20
-3940.738951963942
 42
0.2555986236835273
 10
4570.75775498628
 20
-3941.911886383396
 42
0.0
 10
4570.75775498628
 20
-4022.031737349042
 42
0.0
 10
4590.772058610401
 20
-4022.031737349042
 42
0.0
 10
4590.772058610401
 20
-4003.175778556093
 42
0.0
 97
        0
 75
     0
 76
     1
 98
        0
  0
LWPOLYLINE
  5
26F
330
1F
100
AcDbEntity
  8
Ech.1_2
 62
     7
370
    50
100
AcDbPolyline
 90
       22
 70
     0
 43
0.0
 10
4586.772058610688
 20
-3999.175778556384
 10
4590.772058610401
 20
-3995.175778556384
 10
4590.772058610401
 20
-3966.846201943577
 10
4586.772058610695
 20
-3963.17577855653
 10
4590.772058610401
 20
-3959.175778556821
 10
4590.772058610401
 20
-3925.019701289961
 10
4584.30189937013
 20
-3925.019701289961
 10
4584.30189937013
 20
-3917.12686742702
 10
4583.058222521642
 20
-3913.17577855653
 10
4579.563174973067
 20
-3913.17577855653
 10
4578.752351757752
 20
-3915.835618949664
 10
4578.752351757752
 20
-3926.528496619505
 10
4579.664687172824
 20
-3927.708872937519
 10
4578.752351757752
 20
-3928.781054352725
 10
4578.752351757752
 20
-3936.906789245042
 42
-0.3131334096951249
 10
4577.450816292139
 20
-3938.724098598681
 10
4571.809967432137
 20
-3940.738951963942
 42
0.2555986236838283
 10
4570.75775498628
 20
-3941.911886383396
 10
4570.75775498628
 20
-4022.031737349042
 10
4590.772058610401
 20
-4022.031737349042
 10
4590.772058610401
 20
-4003.175778556093
 10
4586.772058610688
 20
-3999.175778556384
  0
LWPOLYLINE
  5
270
330
1F
100
AcDbEntity
  8
Ech.1_2
 62
     7
370
    20
100
AcDbPolyline
 90
       21
 70
     0
 43
0.0
 10
4590.772058610401
 20
-4022.031737349042
 10
4590.772058610401
 20
-4003.175778556093
 10
4586.772058610688
 20
-3999.175778556384
 10
4590.772058610401
 20
-3995.175778556384
 10
4590.772058610401
 20
-3966.846201943577
 10
4586.772058610695
 20
-3963.17577855653
 10
4590.772058610401
 20
-3959.175778556821
 10
4590.772058610401
 20
-3925.019701289961
 10
4584.30189937013
 20
-3925.019701289961
 10
4584.30189937013
 20
-3917.12686742702
 10
4583.058222521642
 20
-3913.17577855653
 10
4579.563174973067
 20
-3913.17577855653
 10
4578.752351757752
 20
-3915.835618949664
 10
4578.752351757752
 20
-3926.528496619505
 10
4579.664687172824
 20
-3927.708872937519
 10
4578.752351757752
 20
-3928.781054352725
 10
4578.752351757752
 20
-3936.906789245042
 42
-0.3131334096938037
 10
4577.450816292139
 20
-3938.724098598681
 10
4571.809967432137
 20
-3940.738951963942
 42
0.2555986236838283
 10
4570.75775498628
 20
-3941.911886383396
 10
4570.75775498628
 20
-4022.031737349042
  0
LWPOLYLINE
  5
271
330
1F
100
AcDbEntity
  8
Ech.1_2
 62
     7
370
    20
100
AcDbPolyline
 90
       14
 70
     0
 43
0.0
 10
4570.75775498628
 20
-3849.083134474053
 10
4570.75775498628
 20
-3932.515496494694
 42
0.453913337307332
 10
4573.371101026454
 20
-3934.09295553608
 10
4576.936634683394
 20
-3932.722033682354
 42
0.2543174404562005
 10
4578.190632062751
 20
-3931.295575987964
 10
4578.190632062751
 20
-3912.479014358994
 10
4584.734080133911
 20
-3912.479014358994
 10
4584.734080133911
 20
-3925.019701289961
 10
4590.772058610401
 20
-3925.019701289961
 10
4590.772058610401
 20
-3888.183105336548
 10
4586.772058610688
 20
-3884.183105336839
 10
4590.772058610401
 20
-3880.183105336839
 10
4590.772058610401
 20
-3852.183105336402
 10
4587.672087748049
 20
-3849.083134474053
  0
HATCH
  5
272
330
1F
100
AcDbEntity
  8
Ech.1_2
 62
    17
420
  8405056
440
 33554687
370
    20
100
AcDbHatch
 10
0.0
 20
0.0
 30
0.0
210
0.0
220
0.0
230
1.0
  2
SOLID
 70
     1
 71
     1
 91
        1
 92
        3
 72
     1
 73
     1
 93
       14
 10
4576.936634683394
 20
-3932.722033682354
 42
0.2543174404557468
 10
4578.190632062751
 20
-3931.295575987964
 42
0.0
 10
4578.190632062751
 20
-3912.479014358994
 42
0.0
 10
4584.734080133911
 20
-3912.479014358994
 42
0.0
 10
4584.734080133911
 20
-3925.019701289961
 42
0.0
 10
4590.772058610401
 20
-3925.019701289961
 42
0.0
 10
4590.772058610401
 20
-3888.183105336548
 42
0.0
 10
4586.772058610688
 20
-3884.183105336839
 42
0.0
 10
4590.772058610401
 20
-3880.183105336839
 42
0.0
 10
4590.772058610401
 20
-3852.183105336402
 42
0.0
 10
4587.672087748049
 20
-3849.083134474053
 42
0.0
 10
4570.75775498628
 20
-3849.083134474053
 42
0.0
 10
4570.75775498628
 20
-3932.515496494694
 42
0.4539133373075333
 10
4573.371101026454
 20
-3934.09295553608
 42
0.0
 97
        0
 75
     0
 76
     1
 98
        0
  0
LWPOLYLINE
  5
273
330
1F
100
AcDbEntity
  8
Ech.1_2
 62
     7
370
    50
100
AcDbPolyline
 90
       15
 70
     0
 43
0.0
 10
4576.936634683394
 20
-3932.722033682354
 42
0.2543174404562005
 10
4578.190632062751
 20
-3931.295575987964
 10
4578.190632062751
 20
-3912.479014358994
 10
4584.734080133911
 20
-3912.479014358994
 10
4584.734080133911
 20
-3925.019701289961
 10
4590.772058610401
 20
-3925.019701289961
 10
4590.772058610401
 20
-3888.183105336548
 10
4586.772058610688
 20
-3884.183105336839
 10
4590.772058610401
 20
-3880.183105336839
 10
4590.772058610401
 20
-3852.183105336402
 10
4587.672087748049
 20
-3849.083134474053
 10
4570.75775498628
 20
-3849.083134474053
 10
4570.75775498628
 20
-3932.515496494694
 42
0.453913337307332
 10
4573.371101026454
 20
-3934.09295553608
 10
4576.936634683394
 20
-3932.722033682354
  0
LINE
  5
274
330
1F
100
AcDbEntity
  8
Ech.1_2
 62
   190
370
     9
100
AcDbLine
 10
4569.966503609794
 20
-3894.960264359006
 30
0.0
 11
4569.966503609794
 21
-3899.997764358983
 31
0.0
  0
LINE
  5
275
330
1F
100
AcDbEntity
  8
Ech.1_2
 62
   190
370
     9
100
AcDbLine
 10
4570.272058610695
 20
-3899.997764358983
 30
0.0
 11
4569.966503609794
 21
-3899.997764358983
 31
0.0
  0
HATCH
  5
276
330
1F
100
AcDbEntity
  8
Ech.1_2
 62
   252
440
 33554687
370
     5
100
AcDbHatch
 10
0.0
 20
0.0
 30
0.0
210
0.0
220
0.0
230
1.0
  2
SOLID
 70
     1
 71
     1
 91
        1
 92
        3
 72
     0
 73
     1
 93
        4
 10
4610.077613611891
 20
-3898.608875359047
 10
4610.91094761081
 20
-3898.608875359047
 10
4610.91094761081
 20
-3896.349153359
 10
4610.077613611891
 20
-3896.349153359
 97
        0
 75
     0
 76
     1
 98
        0
  0
LWPOLYLINE
  5
277
330
1F
100
AcDbEntity
  8
Ech.1_2
 62
     7
370
     9
100
AcDbPolyline
 90
        5
 70
     0
 43
0.0
 10
4610.077613611891
 20
-3898.608875359047
 10
4610.91094761081
 20
-3898.608875359047
 10
4610.91094761081
 20
-3896.349153359
 10
4610.077613611891
 20
-3896.349153359
 10
4610.077613611891
 20
-3898.608875359047
  0
LINE
  5
278
330
1F
100
AcDbEntity
  8
Ech.1_2
 62
   190
370
     9
100
AcDbLine
 10
4613.110031609314
 20
-3896.349153359
 30
0.0
 11
4570.827614609974
 21
-3896.349153359
 31
0.0
  0
LINE
  5
279
330
1F
100
AcDbEntity
  8
Ech.1_2
 62
   190
370
     9
100
AcDbLine
 10
4613.110031609314
 20
-3898.608875359047
 30
0.0
 11
4570.827614609974
 21
-3898.608875359047
 31
0.0
  0
ARC
  5
27A
330
1F
100
AcDbEntity
  8
Ech.1_2
 62
   190
370
     9
100
AcDbCircle
 10
4582.529707000628
 20
-3897.479014359023
 30
0.0
 40
12.81320339083424
100
AcDbArc
 50
168.6632793503132
 51
191.3367206496868
  0
LINE
  5
27B
330
1F
100
AcDbEntity
  8
Ech.1_2
 62
   190
370
     9
100
AcDbLine
 10
4570.272058610697
 20
-3894.960264359006
 30
0.0
 11
4570.272058610695
 21
-3895.793597358957
 31
0.0
  0
ARC
  5
27C
330
1F
100
AcDbEntity
  8
Ech.1_2
 62
   190
370
     9
100
AcDbCircle
 10
4570.827614600594
 20
-3895.793597369101
 30
0.0
 40
0.5555559898988737
100
AcDbArc
 50
179.9999989538207
 51
270.0000009674357
  0
LINE
  5
27D
330
1F
100
AcDbEntity
  8
Ech.1_2
 62
   190
370
     9
100
AcDbLine
 10
4570.272058610695
 20
-3895.793597358957
 30
0.0
 11
4570.272058610695
 21
-3899.164431359024
 31
0.0
  0
ARC
  5
27E
330
1F
100
AcDbEntity
  8
Ech.1_2
 62
   190
370
     9
100
AcDbCircle
 10
4570.827614600483
 20
-3899.164431348834
 30
0.0
 40
0.5555559897870862
100
AcDbArc
 50
89.99999902112094
 51
180.000001050963
  0
LINE
  5
27F
330
1F
100
AcDbEntity
  8
Ech.1_2
 62
   190
370
     9
100
AcDbLine
 10
4570.272058610695
 20
-3899.997764358983
 30
0.0
 11
4570.272058610695
 21
-3899.164431359024
 31
0.0
  0
LINE
  5
280
330
1F
100
AcDbEntity
  8
Ech.1_2
 62
   190
370
     9
100
AcDbLine
 10
4580.91094761081
 20
-3896.349153359
 30
0.0
 11
4580.91094761081
 21
-3898.608875359047
 31
0.0
  0
LINE
  5
281
330
1F
100
AcDbEntity
  8
Ech.1_2
 62
   190
370
     9
100
AcDbLine
 10
4581.74428061135
 20
-3896.349153359
 30
0.0
 11
4581.74428061135
 21
-3898.608875359047
 31
0.0
  0
LINE
  5
282
330
1F
100
AcDbEntity
  8
Ech.1_2
 62
   190
370
     9
100
AcDbLine
 10
4578.41094761081
 20
-3896.349153359
 30
0.0
 11
4578.41094761081
 21
-3898.608875359047
 31
0.0
  0
LINE
  5
283
330
1F
100
AcDbEntity
  8
Ech.1_2
 62
   190
370
     9
100
AcDbLine
 10
4579.24428061135
 20
-3896.349153359
 30
0.0
 11
4579.24428061135
 21
-3898.608875359047
 31
0.0
  0
LINE
  5
284
330
1F
100
AcDbEntity
  8
Ech.1_2
 62
   190
370
     9
100
AcDbLine
 10
4580.077613611891
 20
-3896.349153359
 30
0.0
 11
4580.077613611891
 21
-3898.608875359047
 31
0.0
  0
LINE
  5
285
330
1F
100
AcDbEntity
  8
Ech.1_2
 62
   190
370
     9
100
AcDbLine
 10
4575.91094761081
 20
-3896.349153359
 30
0.0
 11
4575.91094761081
 21
-3898.608875359047
 31
0.0
  0
LINE
  5
286
330
1F
100
AcDbEntity
  8
Ech.1_2
 62
   190
370
     9
100
AcDbLine
 10
4576.74428061135
 20
-3896.349153359
 30
0.0
 11
4576.74428061135
 21
-3898.608875359047
 31
0.0
  0
LINE
  5
287
330
1F
100
AcDbEntity
  8
Ech.1_2
 62
   190
370
     9
100
AcDbLine
 10
4577.577613611891
 20
-3896.349153359
 30
0.0
 11
4577.577613611891
 21
-3898.608875359047
 31
0.0
  0
LINE
  5
288
330
1F
100
AcDbEntity
  8
Ech.1_2
 62
   190
370
     9
100
AcDbLine
 10
4575.077613611891
 20
-3896.349153359
 30
0.0
 11
4575.077613611891
 21
-3898.608875359047
 31
0.0
  0
LINE
  5
289
330
1F
100
AcDbEntity
  8
Ech.1_2
 62
   190
370
     9
100
AcDbLine
 10
4574.24428061135
 20
-3896.349153359
 30
0.0
 11
4574.24428061135
 21
-3898.608875359047
 31
0.0
  0
LINE
  5
28A
330
1F
100
AcDbEntity
  8
Ech.1_2
 62
   190
370
     9
100
AcDbLine
 10
4573.41094761081
 20
-3896.349153359
 30
0.0
 11
4573.41094761081
 21
-3898.608875359047
 31
0.0
  0
LINE
  5
28B
330
1F
100
AcDbEntity
  8
Ech.1_2
 62
   190
370
     9
100
AcDbLine
 10
4572.577613611891
 20
-3896.349153359
 30
0.0
 11
4572.577613611891
 21
-3898.608875359039
 31
0.0
  0
LINE
  5
28C
330
1F
100
AcDbEntity
  8
Ech.1_2
 62
   190
370
     9
100
AcDbLine
 10
4607.577613611891
 20
-3896.349153359
 30
0.0
 11
4607.577613611891
 21
-3898.608875359047
 31
0.0
  0
LINE
  5
28D
330
1F
100
AcDbEntity
  8
Ech.1_2
 62
   190
370
     9
100
AcDbLine
 10
4606.74428061135
 20
-3896.349153359
 30
0.0
 11
4606.74428061135
 21
-3898.608875359047
 31
0.0
  0
LINE
  5
28E
330
1F
100
AcDbEntity
  8
Ech.1_2
 62
   190
370
     9
100
AcDbLine
 10
4608.41094761081
 20
-3896.349153359
 30
0.0
 11
4608.41094761081
 21
-3898.608875359047
 31
0.0
  0
LINE
  5
28F
330
1F
100
AcDbEntity
  8
Ech.1_2
 62
   190
370
     9
100
AcDbLine
 10
4604.24428061135
 20
-3896.349153359
 30
0.0
 11
4604.24428061135
 21
-3898.608875359047
 31
0.0
  0
LINE
  5
290
330
1F
100
AcDbEntity
  8
Ech.1_2
 62
   190
370
     9
100
AcDbLine
 10
4605.077613611891
 20
-3896.349153359
 30
0.0
 11
4605.077613611891
 21
-3898.608875359047
 31
0.0
  0
LINE
  5
291
330
1F
100
AcDbEntity
  8
Ech.1_2
 62
   190
370
     9
100
AcDbLine
 10
4605.91094761081
 20
-3896.349153359
 30
0.0
 11
4605.91094761081
 21
-3898.608875359047
 31
0.0
  0
LINE
  5
292
330
1F
100
AcDbEntity
  8
Ech.1_2
 62
   190
370
     9
100
AcDbLine
 10
4601.74428061135
 20
-3896.349153359
 30
0.0
 11
4601.74428061135
 21
-3898.608875359047
 31
0.0
  0
LINE
  5
293
330
1F
100
AcDbEntity
  8
Ech.1_2
 62
   190
370
     9
100
AcDbLine
 10
4602.577613611891
 20
-3896.349153359
 30
0.0
 11
4602.577613611891
 21
-3898.608875359047
 31
0.0
  0
LINE
  5
294
330
1F
100
AcDbEntity
  8
Ech.1_2
 62
   190
370
     9
100
AcDbLine
 10
4603.41094761081
 20
-3896.349153359
 30
0.0
 11
4603.41094761081
 21
-3898.608875359047
 31
0.0
  0
LINE
  5
295
330
1F
100
AcDbEntity
  8
Ech.1_2
 62
   190
370
     9
100
AcDbLine
 10
4599.24428061135
 20
-3896.349153359
 30
0.0
 11
4599.24428061135
 21
-3898.608875359047
 31
0.0
  0
LINE
  5
296
330
1F
100
AcDbEntity
  8
Ech.1_2
 62
   190
370
     9
100
AcDbLine
 10
4600.077613611891
 20
-3896.349153359
 30
0.0
 11
4600.077613611891
 21
-3898.608875359047
 31
0.0
  0
LINE
  5
297
330
1F
100
AcDbEntity
  8
Ech.1_2
 62
   190
370
     9
100
AcDbLine
 10
4600.91094761081
 20
-3896.349153359
 30
0.0
 11
4600.91094761081
 21
-3898.608875359047
 31
0.0
  0
LINE
  5
298
330
1F
100
AcDbEntity
  8
Ech.1_2
 62
   190
370
     9
100
AcDbLine
 10
4598.41094761081
 20
-3896.349153359
 30
0.0
 11
4598.41094761081
 21
-3898.608875359047
 31
0.0
  0
LINE
  5
299
330
1F
100
AcDbEntity
  8
Ech.1_2
 62
   190
370
     9
100
AcDbLine
 10
4585.077613611891
 20
-3896.349153359
 30
0.0
 11
4585.077613611891
 21
-3898.608875359047
 31
0.0
  0
LINE
  5
29A
330
1F
100
AcDbEntity
  8
Ech.1_2
 62
   190
370
     9
100
AcDbLine
 10
4585.91094761081
 20
-3896.349153359
 30
0.0
 11
4585.91094761081
 21
-3898.608875359047
 31
0.0
  0
LINE
  5
29B
330
1F
100
AcDbEntity
  8
Ech.1_2
 62
   190
370
     9
100
AcDbLine
 10
4586.74428061135
 20
-3896.349153359
 30
0.0
 11
4586.74428061135
 21
-3898.608875359047
 31
0.0
  0
LINE
  5
29C
330
1F
100
AcDbEntity
  8
Ech.1_2
 62
   190
370
     9
100
AcDbLine
 10
4587.577613611891
 20
-3896.349153359
 30
0.0
 11
4587.577613611891
 21
-3898.608875359047
 31
0.0
  0
LINE
  5
29D
330
1F
100
AcDbEntity
  8
Ech.1_2
 62
   190
370
     9
100
AcDbLine
 10
4570.272058610697
 20
-3894.960264359006
 30
0.0
 11
4569.966503609794
 21
-3894.960264359006
 31
0.0
  0
LINE
  5
29E
330
1F
100
AcDbEntity
  8
Ech.1_2
 62
   190
370
     9
100
AcDbLine
 10
4590.077613611891
 20
-3896.349153359
 30
0.0
 11
4590.077613611891
 21
-3898.608875359047
 31
0.0
  0
LINE
  5
29F
330
1F
100
AcDbEntity
  8
Ech.1_2
 62
   190
370
     9
100
AcDbLine
 10
4589.24428061135
 20
-3896.349153359
 30
0.0
 11
4589.24428061135
 21
-3898.608875359047
 31
0.0
  0
LINE
  5
2A0
330
1F
100
AcDbEntity
  8
Ech.1_2
 62
   190
370
     9
100
AcDbLine
 10
4588.41094761081
 20
-3896.349153359
 30
0.0
 11
4588.41094761081
 21
-3898.608875359047
 31
0.0
  0
LINE
  5
2A1
330
1F
100
AcDbEntity
  8
Ech.1_2
 62
   190
370
     9
100
AcDbLine
 10
4592.577613611891
 20
-3896.349153359
 30
0.0
 11
4592.577613611891
 21
-3898.608875359047
 31
0.0
  0
LINE
  5
2A2
330
1F
100
AcDbEntity
  8
Ech.1_2
 62
   190
370
     9
100
AcDbLine
 10
4591.74428061135
 20
-3896.349153359
 30
0.0
 11
4591.74428061135
 21
-3898.608875359047
 31
0.0
  0
LINE
  5
2A3
330
1F
100
AcDbEntity
  8
Ech.1_2
 62
   190
370
     9
100
AcDbLine
 10
4590.91094761081
 20
-3896.349153359
 30
0.0
 11
4590.91094761081
 21
-3898.608875359047
 31
0.0
  0
LINE
  5
2A4
330
1F
100
AcDbEntity
  8
Ech.1_2
 62
   190
370
     9
100
AcDbLine
 10
4595.077613611891
 20
-3896.349153359
 30
0.0
 11
4595.077613611891
 21
-3898.608875359047
 31
0.0
  0
LINE
  5
2A5
330
1F
100
AcDbEntity
  8
Ech.1_2
 62
   190
370
     9
100
AcDbLine
 10
4594.24428061135
 20
-3896.349153359
 30
0.0
 11
4594.24428061135
 21
-3898.608875359047
 31
0.0
  0
LINE
  5
2A6
330
1F
100
AcDbEntity
  8
Ech.1_2
 62
   190
370
     9
100
AcDbLine
 10
4593.41094761081
 20
-3896.349153359
 30
0.0
 11
4593.41094761081
 21
-3898.608875359047
 31
0.0
  0
LINE
  5
2A7
330
1F
100
AcDbEntity
  8
Ech.1_2
 62
   190
370
     9
100
AcDbLine
 10
4597.577613611891
 20
-3896.349153359
 30
0.0
 11
4597.577613611891
 21
-3898.608875359047
 31
0.0
  0
LINE
  5
2A8
330
1F
100
AcDbEntity
  8
Ech.1_2
 62
   190
370
     9
100
AcDbLine
 10
4596.74428061135
 20
-3896.349153359
 30
0.0
 11
4596.74428061135
 21
-3898.608875359047
 31
0.0
  0
LINE
  5
2A9
330
1F
100
AcDbEntity
  8
Ech.1_2
 62
   190
370
     9
100
AcDbLine
 10
4595.91094761081
 20
-3896.349153359
 30
0.0
 11
4595.91094761081
 21
-3898.608875359047
 31
0.0
  0
LINE
  5
2AA
330
1F
100
AcDbEntity
  8
Ech.1_2
 62
   190
370
     9
100
AcDbLine
 10
4583.41094761081
 20
-3896.349153359
 30
0.0
 11
4583.41094761081
 21
-3898.608875359047
 31
0.0
  0
LINE
  5
2AB
330
1F
100
AcDbEntity
  8
Ech.1_2
 62
   190
370
     9
100
AcDbLine
 10
4584.24428061135
 20
-3896.349153359
 30
0.0
 11
4584.24428061135
 21
-3898.608875359047
 31
0.0
  0
LINE
  5
2AC
330
1F
100
AcDbEntity
  8
Ech.1_2
 62
   190
370
     9
100
AcDbLine
 10
4585.077613611891
 20
-3896.349153359
 30
0.0
 11
4585.077613611891
 21
-3898.608875359047
 31
0.0
  0
LINE
  5
2AD
330
1F
100
AcDbEntity
  8
Ech.1_2
 62
   190
370
     9
100
AcDbLine
 10
4582.577613611891
 20
-3896.349153359
 30
0.0
 11
4582.577613611891
 21
-3898.608875359047
 31
0.0
  0
LINE
  5
2AE
330
1F
100
AcDbEntity
  8
Ech.1_2
 62
   190
370
     9
100
AcDbLine
 10
4615.772058610695
 20
-3897.479014358994
 30
0.0
 11
4613.110031609314
 21
-3896.349153359
 31
0.0
  0
ARC
  5
2AF
330
1F
100
AcDbEntity
  8
Ech.1_2
 62
   190
370
     9
100
AcDbCircle
 10
4614.519382599911
 20
-3897.479014358991
 30
0.0
 40
1.806337996665553
100
AcDbArc
 50
141.2812399141874
 51
218.7187600858125
  0
LINE
  5
2B0
330
1F
100
AcDbEntity
  8
Ech.1_2
 62
   190
370
     9
100
AcDbLine
 10
4615.772058610695
 20
-3897.479014358994
 30
0.0
 11
4613.110031609314
 21
-3898.608875359047
 31
0.0
  0
HATCH
  5
2B1
330
1F
100
AcDbEntity
  8
Ech.1_2
 62
   252
440
 33554687
370
     5
100
AcDbHatch
 10
0.0
 20
0.0
 30
0.0
210
0.0
220
0.0
230
1.0
  2
SOLID
 70
     1
 71
     1
 91
        1
 92
        3
 72
     0
 73
     1
 93
        4
 10
4572.577613611891
 20
-3898.608875359039
 10
4573.41094761081
 20
-3898.608875359047
 10
4573.41094761081
 20
-3896.349153359
 10
4572.577613611891
 20
-3896.349153359
 97
        0
 75
     0
 76
     1
 98
        0
  0
LWPOLYLINE
  5
2B2
330
1F
100
AcDbEntity
  8
Ech.1_2
 62
     7
370
     9
100
AcDbPolyline
 90
        5
 70
     0
 43
0.0
 10
4572.577613611891
 20
-3898.608875359039
 10
4573.41094761081
 20
-3898.608875359047
 10
4573.41094761081
 20
-3896.349153359
 10
4572.577613611891
 20
-3896.349153359
 10
4572.577613611891
 20
-3898.608875359039
  0
HATCH
  5
2B3
330
1F
100
AcDbEntity
  8
Ech.1_2
 62
   252
440
 33554687
370
     5
100
AcDbHatch
 10
0.0
 20
0.0
 30
0.0
210
0.0
220
0.0
230
1.0
  2
SOLID
 70
     1
 71
     1
 91
        1
 92
        3
 72
     0
 73
     1
 93
        4
 10
4573.41094761081
 20
-3898.608875359047
 10
4574.244281609728
 20
-3898.608875359047
 10
4574.244281609728
 20
-3896.349153359
 10
4573.41094761081
 20
-3896.349153359
 97
        0
 75
     0
 76
     1
 98
        0
  0
LWPOLYLINE
  5
2B4
330
1F
100
AcDbEntity
  8
Ech.1_2
 62
     7
370
     9
100
AcDbPolyline
 90
        5
 70
     0
 43
0.0
 10
4573.41094761081
 20
-3898.608875359047
 10
4574.244281609728
 20
-3898.608875359047
 10
4574.244281609728
 20
-3896.349153359
 10
4573.41094761081
 20
-3896.349153359
 10
4573.41094761081
 20
-3898.608875359047
  0
HATCH
  5
2B5
330
1F
100
AcDbEntity
  8
Ech.1_2
 62
   252
440
 33554687
370
     5
100
AcDbHatch
 10
0.0
 20
0.0
 30
0.0
210
0.0
220
0.0
230
1.0
  2
SOLID
 70
     1
 71
     1
 91
        1
 92
        3
 72
     0
 73
     1
 93
        4
 10
4574.244281609728
 20
-3898.608875359047
 10
4575.077615608647
 20
-3898.608875359047
 10
4575.077615608647
 20
-3896.349153359
 10
4574.244281609728
 20
-3896.349153359
 97
        0
 75
     0
 76
     1
 98
        0
  0
LWPOLYLINE
  5
2B6
330
1F
100
AcDbEntity
  8
Ech.1_2
 62
     7
370
     9
100
AcDbPolyline
 90
        5
 70
     0
 43
0.0
 10
4574.244281609728
 20
-3898.608875359047
 10
4575.077615608647
 20
-3898.608875359047
 10
4575.077615608647
 20
-3896.349153359
 10
4574.244281609728
 20
-3896.349153359
 10
4574.244281609728
 20
-3898.608875359047
  0
HATCH
  5
2B7
330
1F
100
AcDbEntity
  8
Ech.1_2
 62
   252
440
 33554687
370
     5
100
AcDbHatch
 10
0.0
 20
0.0
 30
0.0
210
0.0
220
0.0
230
1.0
  2
SOLID
 70
     1
 71
     1
 91
        1
 92
        3
 72
     0
 73
     1
 93
        4
 10
4575.077615608647
 20
-3898.608875359047
 10
4575.910949607565
 20
-3898.608875359047
 10
4575.910949607565
 20
-3896.349153359
 10
4575.077615608647
 20
-3896.349153359
 97
        0
 75
     0
 76
     1
 98
        0
  0
LWPOLYLINE
  5
2B8
330
1F
100
AcDbEntity
  8
Ech.1_2
 62
     7
370
     9
100
AcDbPolyline
 90
        5
 70
     0
 43
0.0
 10
4575.077615608647
 20
-3898.608875359047
 10
4575.910949607565
 20
-3898.608875359047
 10
4575.910949607565
 20
-3896.349153359
 10
4575.077615608647
 20
-3896.349153359
 10
4575.077615608647
 20
-3898.608875359047
  0
HATCH
  5
2B9
330
1F
100
AcDbEntity
  8
Ech.1_2
 62
   252
440
 33554687
370
     5
100
AcDbHatch
 10
0.0
 20
0.0
 30
0.0
210
0.0
220
0.0
230
1.0
  2
SOLID
 70
     1
 71
     1
 91
        1
 92
        3
 72
     0
 73
     1
 93
        4
 10
4575.91094761081
 20
-3898.608875359047
 10
4576.744281609728
 20
-3898.608875359047
 10
4576.744281609728
 20
-3896.349153359
 10
4575.91094761081
 20
-3896.349153359
 97
        0
 75
     0
 76
     1
 98
        0
  0
LWPOLYLINE
  5
2BA
330
1F
100
AcDbEntity
  8
Ech.1_2
 62
     7
370
     9
100
AcDbPolyline
 90
        5
 70
     0
 43
0.0
 10
4575.91094761081
 20
-3898.608875359047
 10
4576.744281609728
 20
-3898.608875359047
 10
4576.744281609728
 20
-3896.349153359
 10
4575.91094761081
 20
-3896.349153359
 10
4575.91094761081
 20
-3898.608875359047
  0
HATCH
  5
2BB
330
1F
100
AcDbEntity
  8
Ech.1_2
 62
   252
440
 33554687
370
     5
100
AcDbHatch
 10
0.0
 20
0.0
 30
0.0
210
0.0
220
0.0
230
1.0
  2
SOLID
 70
     1
 71
     1
 91
        1
 92
        3
 72
     0
 73
     1
 93
        4
 10
4576.74428061135
 20
-3898.608875359047
 10
4577.577614610269
 20
-3898.608875359047
 10
4577.577614610269
 20
-3896.349153358993
 10
4576.74428061135
 20
-3896.349153359
 97
        0
 75
     0
 76
     1
 98
        0
  0
LWPOLYLINE
  5
2BC
330
1F
100
AcDbEntity
  8
Ech.1_2
 62
     7
370
     9
100
AcDbPolyline
 90
        5
 70
     0
 43
0.0
 10
4576.74428061135
 20
-3898.608875359047
 10
4577.577614610269
 20
-3898.608875359047
 10
4577.577614610269
 20
-3896.349153358993
 10
4576.74428061135
 20
-3896.349153359
 10
4576.74428061135
 20
-3898.608875359047
  0
HATCH
  5
2BD
330
1F
100
AcDbEntity
  8
Ech.1_2
 62
   252
440
 33554687
370
     5
100
AcDbHatch
 10
0.0
 20
0.0
 30
0.0
210
0.0
220
0.0
230
1.0
  2
SOLID
 70
     1
 71
     1
 91
        1
 92
        3
 72
     0
 73
     1
 93
        4
 10
4577.577614610269
 20
-3898.608875359047
 10
4578.410948609187
 20
-3898.608875359047
 10
4578.410948609187
 20
-3896.349153359
 10
4577.577614610269
 20
-3896.349153358993
 97
        0
 75
     0
 76
     1
 98
        0
  0
LWPOLYLINE
  5
2BE
330
1F
100
AcDbEntity
  8
Ech.1_2
 62
     7
370
     9
100
AcDbPolyline
 90
        5
 70
     0
 43
0.0
 10
4577.577614610269
 20
-3898.608875359047
 10
4578.410948609187
 20
-3898.608875359047
 10
4578.410948609187
 20
-3896.349153359
 10
4577.577614610269
 20
-3896.349153358993
 10
4577.577614610269
 20
-3898.608875359047
  0
HATCH
  5
2BF
330
1F
100
AcDbEntity
  8
Ech.1_2
 62
   252
440
 33554687
370
     5
100
AcDbHatch
 10
0.0
 20
0.0
 30
0.0
210
0.0
220
0.0
230
1.0
  2
SOLID
 70
     1
 71
     1
 91
        1
 92
        3
 72
     0
 73
     1
 93
        4
 10
4578.41094761081
 20
-3898.608875359047
 10
4579.244281609728
 20
-3898.608875359047
 10
4579.244281609728
 20
-3896.349153359
 10
4578.41094761081
 20
-3896.349153359
 97
        0
 75
     0
 76
     1
 98
        0
  0
LWPOLYLINE
  5
2C0
330
1F
100
AcDbEntity
  8
Ech.1_2
 62
     7
370
     9
100
AcDbPolyline
 90
        5
 70
     0
 43
0.0
 10
4578.41094761081
 20
-3898.608875359047
 10
4579.244281609728
 20
-3898.608875359047
 10
4579.244281609728
 20
-3896.349153359
 10
4578.41094761081
 20
-3896.349153359
 10
4578.41094761081
 20
-3898.608875359047
  0
HATCH
  5
2C1
330
1F
100
AcDbEntity
  8
Ech.1_2
 62
   252
440
 33554687
370
     5
100
AcDbHatch
 10
0.0
 20
0.0
 30
0.0
210
0.0
220
0.0
230
1.0
  2
SOLID
 70
     1
 71
     1
 91
        1
 92
        3
 72
     0
 73
     1
 93
        4
 10
4579.244281609728
 20
-3898.608875359047
 10
4580.077615608647
 20
-3898.608875359047
 10
4580.077615608647
 20
-3896.349153359
 10
4579.244281609728
 20
-3896.349153359
 97
        0
 75
     0
 76
     1
 98
        0
  0
LWPOLYLINE
  5
2C2
330
1F
100
AcDbEntity
  8
Ech.1_2
 62
     7
370
     9
100
AcDbPolyline
 90
        5
 70
     0
 43
0.0
 10
4579.244281609728
 20
-3898.608875359047
 10
4580.077615608647
 20
-3898.608875359047
 10
4580.077615608647
 20
-3896.349153359
 10
4579.244281609728
 20
-3896.349153359
 10
4579.244281609728
 20
-3898.608875359047
  0
HATCH
  5
2C3
330
1F
100
AcDbEntity
  8
Ech.1_2
 62
   252
440
 33554687
370
     5
100
AcDbHatch
 10
0.0
 20
0.0
 30
0.0
210
0.0
220
0.0
230
1.0
  2
SOLID
 70
     1
 71
     1
 91
        1
 92
        3
 72
     0
 73
     1
 93
        4
 10
4580.077613611891
 20
-3898.608875359047
 10
4580.91094761081
 20
-3898.608875359047
 10
4580.91094761081
 20
-3896.349153359
 10
4580.077613611891
 20
-3896.349153359
 97
        0
 75
     0
 76
     1
 98
        0
  0
LWPOLYLINE
  5
2C4
330
1F
100
AcDbEntity
  8
Ech.1_2
 62
     7
370
     9
100
AcDbPolyline
 90
        5
 70
     0
 43
0.0
 10
4580.077613611891
 20
-3898.608875359047
 10
4580.91094761081
 20
-3898.608875359047
 10
4580.91094761081
 20
-3896.349153359
 10
4580.077613611891
 20
-3896.349153359
 10
4580.077613611891
 20
-3898.608875359047
  0
HATCH
  5
2C5
330
1F
100
AcDbEntity
  8
Ech.1_2
 62
   252
440
 33554687
370
     5
100
AcDbHatch
 10
0.0
 20
0.0
 30
0.0
210
0.0
220
0.0
230
1.0
  2
SOLID
 70
     1
 71
     1
 91
        1
 92
        3
 72
     0
 73
     1
 93
        4
 10
4580.91094761081
 20
-3898.608875359047
 10
4581.744281609728
 20
-3898.608875359047
 10
4581.744281609728
 20
-3896.349153359
 10
4580.91094761081
 20
-3896.349153359
 97
        0
 75
     0
 76
     1
 98
        0
  0
LWPOLYLINE
  5
2C6
330
1F
100
AcDbEntity
  8
Ech.1_2
 62
     7
370
     9
100
AcDbPolyline
 90
        5
 70
     0
 43
0.0
 10
4580.91094761081
 20
-3898.608875359047
 10
4581.744281609728
 20
-3898.608875359047
 10
4581.744281609728
 20
-3896.349153359
 10
4580.91094761081
 20
-3896.349153359
 10
4580.91094761081
 20
-3898.608875359047
  0
HATCH
  5
2C7
330
1F
100
AcDbEntity
  8
Ech.1_2
 62
   252
440
 33554687
370
     5
100
AcDbHatch
 10
0.0
 20
0.0
 30
0.0
210
0.0
220
0.0
230
1.0
  2
SOLID
 70
     1
 71
     1
 91
        1
 92
        3
 72
     0
 73
     1
 93
        4
 10
4581.744281609728
 20
-3898.608875359047
 10
4582.577615608647
 20
-3898.608875359047
 10
4582.577615608649
 20
-3896.349153359
 10
4581.744281609728
 20
-3896.349153359
 97
        0
 75
     0
 76
     1
 98
        0
  0
LWPOLYLINE
  5
2C8
330
1F
100
AcDbEntity
  8
Ech.1_2
 62
     7
370
     9
100
AcDbPolyline
 90
        5
 70
     0
 43
0.0
 10
4581.744281609728
 20
-3898.608875359047
 10
4582.577615608647
 20
-3898.608875359047
 10
4582.577615608649
 20
-3896.349153359
 10
4581.744281609728
 20
-3896.349153359
 10
4581.744281609728
 20
-3898.608875359047
  0
HATCH
  5
2C9
330
1F
100
AcDbEntity
  8
Ech.1_2
 62
   252
440
 33554687
370
     5
100
AcDbHatch
 10
0.0
 20
0.0
 30
0.0
210
0.0
220
0.0
230
1.0
  2
SOLID
 70
     1
 71
     1
 91
        1
 92
        3
 72
     0
 73
     1
 93
        4
 10
4582.577615608647
 20
-3898.608875359047
 10
4583.410949607565
 20
-3898.608875359047
 10
4583.410949607565
 20
-3896.349153359
 10
4582.577615608649
 20
-3896.349153359
 97
        0
 75
     0
 76
     1
 98
        0
  0
LWPOLYLINE
  5
2CA
330
1F
100
AcDbEntity
  8
Ech.1_2
 62
     7
370
     9
100
AcDbPolyline
 90
        5
 70
     0
 43
0.0
 10
4582.577615608647
 20
-3898.608875359047
 10
4583.410949607565
 20
-3898.608875359047
 10
4583.410949607565
 20
-3896.349153359
 10
4582.577615608649
 20
-3896.349153359
 10
4582.577615608647
 20
-3898.608875359047
  0
HATCH
  5
2CB
330
1F
100
AcDbEntity
  8
Ech.1_2
 62
   252
440
 33554687
370
     5
100
AcDbHatch
 10
0.0
 20
0.0
 30
0.0
210
0.0
220
0.0
230
1.0
  2
SOLID
 70
     1
 71
     1
 91
        1
 92
        3
 72
     0
 73
     1
 93
        4
 10
4583.410949607565
 20
-3898.608875359047
 10
4584.244283606484
 20
-3898.608875359047
 10
4584.244283606484
 20
-3896.349153359
 10
4583.410949607565
 20
-3896.349153359
 97
        0
 75
     0
 76
     1
 98
        0
  0
LWPOLYLINE
  5
2CC
330
1F
100
AcDbEntity
  8
Ech.1_2
 62
     7
370
     9
100
AcDbPolyline
 90
        5
 70
     0
 43
0.0
 10
4583.410949607565
 20
-3898.608875359047
 10
4584.244283606484
 20
-3898.608875359047
 10
4584.244283606484
 20
-3896.349153359
 10
4583.410949607565
 20
-3896.349153359
 10
4583.410949607565
 20
-3898.608875359047
  0
HATCH
  5
2CD
330
1F
100
AcDbEntity
  8
Ech.1_2
 62
   252
440
 33554687
370
     5
100
AcDbHatch
 10
0.0
 20
0.0
 30
0.0
210
0.0
220
0.0
230
1.0
  2
SOLID
 70
     1
 71
     1
 91
        1
 92
        3
 72
     0
 73
     1
 93
        4
 10
4584.244281609728
 20
-3898.608875359047
 10
4585.077615608647
 20
-3898.608875359047
 10
4585.077615608647
 20
-3896.349153359
 10
4584.244281609728
 20
-3896.349153359
 97
        0
 75
     0
 76
     1
 98
        0
  0
LWPOLYLINE
  5
2CE
330
1F
100
AcDbEntity
  8
Ech.1_2
 62
     7
370
     9
100
AcDbPolyline
 90
        5
 70
     0
 43
0.0
 10
4584.244281609728
 20
-3898.608875359047
 10
4585.077615608647
 20
-3898.608875359047
 10
4585.077615608647
 20
-3896.349153359
 10
4584.244281609728
 20
-3896.349153359
 10
4584.244281609728
 20
-3898.608875359047
  0
HATCH
  5
2CF
330
1F
100
AcDbEntity
  8
Ech.1_2
 62
   252
440
 33554687
370
     5
100
AcDbHatch
 10
0.0
 20
0.0
 30
0.0
210
0.0
220
0.0
230
1.0
  2
SOLID
 70
     1
 71
     1
 91
        1
 92
        3
 72
     0
 73
     1
 93
        4
 10
4585.077614610269
 20
-3898.608875359047
 10
4585.910948609187
 20
-3898.608875359047
 10
4585.910948609187
 20
-3896.349153359
 10
4585.077614610269
 20
-3896.349153359
 97
        0
 75
     0
 76
     1
 98
        0
  0
LWPOLYLINE
  5
2D0
330
1F
100
AcDbEntity
  8
Ech.1_2
 62
     7
370
     9
100
AcDbPolyline
 90
        5
 70
     0
 43
0.0
 10
4585.077614610269
 20
-3898.608875359047
 10
4585.910948609187
 20
-3898.608875359047
 10
4585.910948609187
 20
-3896.349153359
 10
4585.077614610269
 20
-3896.349153359
 10
4585.077614610269
 20
-3898.608875359047
  0
HATCH
  5
2D1
330
1F
100
AcDbEntity
  8
Ech.1_2
 62
   252
440
 33554687
370
     5
100
AcDbHatch
 10
0.0
 20
0.0
 30
0.0
210
0.0
220
0.0
230
1.0
  2
SOLID
 70
     1
 71
     1
 91
        1
 92
        3
 72
     0
 73
     1
 93
        4
 10
4585.910948609187
 20
-3898.608875359047
 10
4586.744282608106
 20
-3898.608875359047
 10
4586.744282608106
 20
-3896.349153359
 10
4585.910948609187
 20
-3896.349153359
 97
        0
 75
     0
 76
     1
 98
        0
  0
LWPOLYLINE
  5
2D2
330
1F
100
AcDbEntity
  8
Ech.1_2
 62
     7
370
     9
100
AcDbPolyline
 90
        5
 70
     0
 43
0.0
 10
4585.910948609187
 20
-3898.608875359047
 10
4586.744282608106
 20
-3898.608875359047
 10
4586.744282608106
 20
-3896.349153359
 10
4585.910948609187
 20
-3896.349153359
 10
4585.910948609187
 20
-3898.608875359047
  0
HATCH
  5
2D3
330
1F
100
AcDbEntity
  8
Ech.1_2
 62
   252
440
 33554687
370
     5
100
AcDbHatch
 10
0.0
 20
0.0
 30
0.0
210
0.0
220
0.0
230
1.0
  2
SOLID
 70
     1
 71
     1
 91
        1
 92
        3
 72
     0
 73
     1
 93
        4
 10
4586.744281609728
 20
-3898.608875359047
 10
4587.577615608647
 20
-3898.608875359047
 10
4587.577615608647
 20
-3896.349153359
 10
4586.744281609728
 20
-3896.349153359
 97
        0
 75
     0
 76
     1
 98
        0
  0
LWPOLYLINE
  5
2D4
330
1F
100
AcDbEntity
  8
Ech.1_2
 62
     7
370
     9
100
AcDbPolyline
 90
        5
 70
     0
 43
0.0
 10
4586.744281609728
 20
-3898.608875359047
 10
4587.577615608647
 20
-3898.608875359047
 10
4587.577615608647
 20
-3896.349153359
 10
4586.744281609728
 20
-3896.349153359
 10
4586.744281609728
 20
-3898.608875359047
  0
HATCH
  5
2D5
330
1F
100
AcDbEntity
  8
Ech.1_2
 62
   252
440
 33554687
370
     5
100
AcDbHatch
 10
0.0
 20
0.0
 30
0.0
210
0.0
220
0.0
230
1.0
  2
SOLID
 70
     1
 71
     1
 91
        1
 92
        3
 72
     0
 73
     1
 93
        4
 10
4587.577615608647
 20
-3898.608875359047
 10
4588.410949607565
 20
-3898.608875359047
 10
4588.410949607565
 20
-3896.349153359
 10
4587.577615608647
 20
-3896.349153359
 97
        0
 75
     0
 76
     1
 98
        0
  0
LWPOLYLINE
  5
2D6
330
1F
100
AcDbEntity
  8
Ech.1_2
 62
     7
370
     9
100
AcDbPolyline
 90
        5
 70
     0
 43
0.0
 10
4587.577615608647
 20
-3898.608875359047
 10
4588.410949607565
 20
-3898.608875359047
 10
4588.410949607565
 20
-3896.349153359
 10
4587.577615608647
 20
-3896.349153359
 10
4587.577615608647
 20
-3898.608875359047
  0
HATCH
  5
2D7
330
1F
100
AcDbEntity
  8
Ech.1_2
 62
   252
440
 33554687
370
     5
100
AcDbHatch
 10
0.0
 20
0.0
 30
0.0
210
0.0
220
0.0
230
1.0
  2
SOLID
 70
     1
 71
     1
 91
        1
 92
        3
 72
     0
 73
     1
 93
        4
 10
4588.41094761081
 20
-3898.608875359047
 10
4589.244281609728
 20
-3898.608875359047
 10
4589.244281609728
 20
-3896.349153359
 10
4588.41094761081
 20
-3896.349153359
 97
        0
 75
     0
 76
     1
 98
        0
  0
LWPOLYLINE
  5
2D8
330
1F
100
AcDbEntity
  8
Ech.1_2
 62
     7
370
     9
100
AcDbPolyline
 90
        5
 70
     0
 43
0.0
 10
4588.41094761081
 20
-3898.608875359047
 10
4589.244281609728
 20
-3898.608875359047
 10
4589.244281609728
 20
-3896.349153359
 10
4588.41094761081
 20
-3896.349153359
 10
4588.41094761081
 20
-3898.608875359047
  0
HATCH
  5
2D9
330
1F
100
AcDbEntity
  8
Ech.1_2
 62
   252
440
 33554687
370
     5
100
AcDbHatch
 10
0.0
 20
0.0
 30
0.0
210
0.0
220
0.0
230
1.0
  2
SOLID
 70
     1
 71
     1
 91
        1
 92
        3
 72
     0
 73
     1
 93
        4
 10
4589.244281609728
 20
-3898.608875359047
 10
4590.077615608647
 20
-3898.608875359047
 10
4590.077615608647
 20
-3896.349153359
 10
4589.244281609728
 20
-3896.349153359
 97
        0
 75
     0
 76
     1
 98
        0
  0
LWPOLYLINE
  5
2DA
330
1F
100
AcDbEntity
  8
Ech.1_2
 62
     7
370
     9
100
AcDbPolyline
 90
        5
 70
     0
 43
0.0
 10
4589.244281609728
 20
-3898.608875359047
 10
4590.077615608647
 20
-3898.608875359047
 10
4590.077615608647
 20
-3896.349153359
 10
4589.244281609728
 20
-3896.349153359
 10
4589.244281609728
 20
-3898.608875359047
  0
HATCH
  5
2DB
330
1F
100
AcDbEntity
  8
Ech.1_2
 62
   252
440
 33554687
370
     5
100
AcDbHatch
 10
0.0
 20
0.0
 30
0.0
210
0.0
220
0.0
230
1.0
  2
SOLID
 70
     1
 71
     1
 91
        1
 92
        3
 72
     0
 73
     1
 93
        4
 10
4590.077615608647
 20
-3898.608875359047
 10
4590.910949607565
 20
-3898.608875359047
 10
4590.910949607565
 20
-3896.349153359
 10
4590.077615608647
 20
-3896.349153359
 97
        0
 75
     0
 76
     1
 98
        0
  0
LWPOLYLINE
  5
2DC
330
1F
100
AcDbEntity
  8
Ech.1_2
 62
     7
370
     9
100
AcDbPolyline
 90
        5
 70
     0
 43
0.0
 10
4590.077615608647
 20
-3898.608875359047
 10
4590.910949607565
 20
-3898.608875359047
 10
4590.910949607565
 20
-3896.349153359
 10
4590.077615608647
 20
-3896.349153359
 10
4590.077615608647
 20
-3898.608875359047
  0
HATCH
  5
2DD
330
1F
100
AcDbEntity
  8
Ech.1_2
 62
   252
440
 33554687
370
     5
100
AcDbHatch
 10
0.0
 20
0.0
 30
0.0
210
0.0
220
0.0
230
1.0
  2
SOLID
 70
     1
 71
     1
 91
        1
 92
        3
 72
     0
 73
     1
 93
        4
 10
4590.910949607565
 20
-3898.608875359047
 10
4591.744283606486
 20
-3898.608875359047
 10
4591.744283606484
 20
-3896.349153359
 10
4590.910949607565
 20
-3896.349153359
 97
        0
 75
     0
 76
     1
 98
        0
  0
LWPOLYLINE
  5
2DE
330
1F
100
AcDbEntity
  8
Ech.1_2
 62
     7
370
     9
100
AcDbPolyline
 90
        5
 70
     0
 43
0.0
 10
4590.910949607565
 20
-3898.608875359047
 10
4591.744283606486
 20
-3898.608875359047
 10
4591.744283606484
 20
-3896.349153359
 10
4590.910949607565
 20
-3896.349153359
 10
4590.910949607565
 20
-3898.608875359047
  0
HATCH
  5
2DF
330
1F
100
AcDbEntity
  8
Ech.1_2
 62
   252
440
 33554687
370
     5
100
AcDbHatch
 10
0.0
 20
0.0
 30
0.0
210
0.0
220
0.0
230
1.0
  2
SOLID
 70
     1
 71
     1
 91
        1
 92
        3
 72
     0
 73
     1
 93
        4
 10
4591.744283606486
 20
-3898.608875359047
 10
4592.577617605402
 20
-3898.608875359047
 10
4592.577617605402
 20
-3896.349153359
 10
4591.744283606484
 20
-3896.349153359
 97
        0
 75
     0
 76
     1
 98
        0
  0
LWPOLYLINE
  5
2E0
330
1F
100
AcDbEntity
  8
Ech.1_2
 62
     7
370
     9
100
AcDbPolyline
 90
        5
 70
     0
 43
0.0
 10
4591.744283606486
 20
-3898.608875359047
 10
4592.577617605402
 20
-3898.608875359047
 10
4592.577617605402
 20
-3896.349153359
 10
4591.744283606484
 20
-3896.349153359
 10
4591.744283606486
 20
-3898.608875359047
  0
HATCH
  5
2E1
330
1F
100
AcDbEntity
  8
Ech.1_2
 62
   252
440
 33554687
370
     5
100
AcDbHatch
 10
0.0
 20
0.0
 30
0.0
210
0.0
220
0.0
230
1.0
  2
SOLID
 70
     1
 71
     1
 91
        1
 92
        3
 72
     0
 73
     1
 93
        4
 10
4592.577615608647
 20
-3898.608875359047
 10
4593.410949607565
 20
-3898.608875359047
 10
4593.410949607565
 20
-3896.349153359
 10
4592.577615608647
 20
-3896.349153359
 97
        0
 75
     0
 76
     1
 98
        0
  0
LWPOLYLINE
  5
2E2
330
1F
100
AcDbEntity
  8
Ech.1_2
 62
     7
370
     9
100
AcDbPolyline
 90
        5
 70
     0
 43
0.0
 10
4592.577615608647
 20
-3898.608875359047
 10
4593.410949607565
 20
-3898.608875359047
 10
4593.410949607565
 20
-3896.349153359
 10
4592.577615608647
 20
-3896.349153359
 10
4592.577615608647
 20
-3898.608875359047
  0
HATCH
  5
2E3
330
1F
100
AcDbEntity
  8
Ech.1_2
 62
   252
440
 33554687
370
     5
100
AcDbHatch
 10
0.0
 20
0.0
 30
0.0
210
0.0
220
0.0
230
1.0
  2
SOLID
 70
     1
 71
     1
 91
        1
 92
        3
 72
     0
 73
     1
 93
        4
 10
4593.410948609187
 20
-3898.608875359047
 10
4594.244282608106
 20
-3898.608875359047
 10
4594.244282608106
 20
-3896.349153359
 10
4593.410948609187
 20
-3896.349153359
 97
        0
 75
     0
 76
     1
 98
        0
  0
LWPOLYLINE
  5
2E4
330
1F
100
AcDbEntity
  8
Ech.1_2
 62
     7
370
     9
100
AcDbPolyline
 90
        5
 70
     0
 43
0.0
 10
4593.410948609187
 20
-3898.608875359047
 10
4594.244282608106
 20
-3898.608875359047
 10
4594.244282608106
 20
-3896.349153359
 10
4593.410948609187
 20
-3896.349153359
 10
4593.410948609187
 20
-3898.608875359047
  0
HATCH
  5
2E5
330
1F
100
AcDbEntity
  8
Ech.1_2
 62
   252
440
 33554687
370
     5
100
AcDbHatch
 10
0.0
 20
0.0
 30
0.0
210
0.0
220
0.0
230
1.0
  2
SOLID
 70
     1
 71
     1
 91
        1
 92
        3
 72
     0
 73
     1
 93
        4
 10
4594.244282608106
 20
-3898.608875359047
 10
4595.077616607025
 20
-3898.608875359047
 10
4595.077616607025
 20
-3896.349153359
 10
4594.244282608106
 20
-3896.349153359
 97
        0
 75
     0
 76
     1
 98
        0
  0
LWPOLYLINE
  5
2E6
330
1F
100
AcDbEntity
  8
Ech.1_2
 62
     7
370
     9
100
AcDbPolyline
 90
        5
 70
     0
 43
0.0
 10
4594.244282608106
 20
-3898.608875359047
 10
4595.077616607025
 20
-3898.608875359047
 10
4595.077616607025
 20
-3896.349153359
 10
4594.244282608106
 20
-3896.349153359
 10
4594.244282608106
 20
-3898.608875359047
  0
HATCH
  5
2E7
330
1F
100
AcDbEntity
  8
Ech.1_2
 62
   252
440
 33554687
370
     5
100
AcDbHatch
 10
0.0
 20
0.0
 30
0.0
210
0.0
220
0.0
230
1.0
  2
SOLID
 70
     1
 71
     1
 91
        1
 92
        3
 72
     0
 73
     1
 93
        4
 10
4595.077615608647
 20
-3898.608875359047
 10
4595.910949607565
 20
-3898.608875359047
 10
4595.910949607565
 20
-3896.349153359
 10
4595.077615608647
 20
-3896.349153359
 97
        0
 75
     0
 76
     1
 98
        0
  0
LWPOLYLINE
  5
2E8
330
1F
100
AcDbEntity
  8
Ech.1_2
 62
     7
370
     9
100
AcDbPolyline
 90
        5
 70
     0
 43
0.0
 10
4595.077615608647
 20
-3898.608875359047
 10
4595.910949607565
 20
-3898.608875359047
 10
4595.910949607565
 20
-3896.349153359
 10
4595.077615608647
 20
-3896.349153359
 10
4595.077615608647
 20
-3898.608875359047
  0
HATCH
  5
2E9
330
1F
100
AcDbEntity
  8
Ech.1_2
 62
   252
440
 33554687
370
     5
100
AcDbHatch
 10
0.0
 20
0.0
 30
0.0
210
0.0
220
0.0
230
1.0
  2
SOLID
 70
     1
 71
     1
 91
        1
 92
        3
 72
     0
 73
     1
 93
        4
 10
4595.910949607565
 20
-3898.608875359047
 10
4596.744283606484
 20
-3898.608875359047
 10
4596.744283606484
 20
-3896.349153359
 10
4595.910949607565
 20
-3896.349153359
 97
        0
 75
     0
 76
     1
 98
        0
  0
LWPOLYLINE
  5
2EA
330
1F
100
AcDbEntity
  8
Ech.1_2
 62
     7
370
     9
100
AcDbPolyline
 90
        5
 70
     0
 43
0.0
 10
4595.910949607565
 20
-3898.608875359047
 10
4596.744283606484
 20
-3898.608875359047
 10
4596.744283606484
 20
-3896.349153359
 10
4595.910949607565
 20
-3896.349153359
 10
4595.910949607565
 20
-3898.608875359047
  0
HATCH
  5
2EB
330
1F
100
AcDbEntity
  8
Ech.1_2
 62
   252
440
 33554687
370
     5
100
AcDbHatch
 10
0.0
 20
0.0
 30
0.0
210
0.0
220
0.0
230
1.0
  2
SOLID
 70
     1
 71
     1
 91
        1
 92
        3
 72
     0
 73
     1
 93
        4
 10
4596.744281609728
 20
-3898.608875359047
 10
4597.577615608647
 20
-3898.608875359047
 10
4597.577615608647
 20
-3896.349153359
 10
4596.744281609728
 20
-3896.349153359
 97
        0
 75
     0
 76
     1
 98
        0
  0
LWPOLYLINE
  5
2EC
330
1F
100
AcDbEntity
  8
Ech.1_2
 62
     7
370
     9
100
AcDbPolyline
 90
        5
 70
     0
 43
0.0
 10
4596.744281609728
 20
-3898.608875359047
 10
4597.577615608647
 20
-3898.608875359047
 10
4597.577615608647
 20
-3896.349153359
 10
4596.744281609728
 20
-3896.349153359
 10
4596.744281609728
 20
-3898.608875359047
  0
HATCH
  5
2ED
330
1F
100
AcDbEntity
  8
Ech.1_2
 62
   252
440
 33554687
370
     5
100
AcDbHatch
 10
0.0
 20
0.0
 30
0.0
210
0.0
220
0.0
230
1.0
  2
SOLID
 70
     1
 71
     1
 91
        1
 92
        3
 72
     0
 73
     1
 93
        4
 10
4597.577613611891
 20
-3898.608875359047
 10
4598.41094761081
 20
-3898.608875359047
 10
4598.41094761081
 20
-3896.349153359
 10
4597.577613611891
 20
-3896.349153359
 97
        0
 75
     0
 76
     1
 98
        0
  0
LWPOLYLINE
  5
2EE
330
1F
100
AcDbEntity
  8
Ech.1_2
 62
     7
370
     9
100
AcDbPolyline
 90
        5
 70
     0
 43
0.0
 10
4597.577613611891
 20
-3898.608875359047
 10
4598.41094761081
 20
-3898.608875359047
 10
4598.41094761081
 20
-3896.349153359
 10
4597.577613611891
 20
-3896.349153359
 10
4597.577613611891
 20
-3898.608875359047
  0
HATCH
  5
2EF
330
1F
100
AcDbEntity
  8
Ech.1_2
 62
   252
440
 33554687
370
     5
100
AcDbHatch
 10
0.0
 20
0.0
 30
0.0
210
0.0
220
0.0
230
1.0
  2
SOLID
 70
     1
 71
     1
 91
        1
 92
        3
 72
     0
 73
     1
 93
        4
 10
4598.41094761081
 20
-3898.608875359047
 10
4599.244281609728
 20
-3898.608875359047
 10
4599.244281609728
 20
-3896.349153359
 10
4598.41094761081
 20
-3896.349153359
 97
        0
 75
     0
 76
     1
 98
        0
  0
LWPOLYLINE
  5
2F0
330
1F
100
AcDbEntity
  8
Ech.1_2
 62
     7
370
     9
100
AcDbPolyline
 90
        5
 70
     0
 43
0.0
 10
4598.41094761081
 20
-3898.608875359047
 10
4599.244281609728
 20
-3898.608875359047
 10
4599.244281609728
 20
-3896.349153359
 10
4598.41094761081
 20
-3896.349153359
 10
4598.41094761081
 20
-3898.608875359047
  0
HATCH
  5
2F1
330
1F
100
AcDbEntity
  8
Ech.1_2
 62
   252
440
 33554687
370
     5
100
AcDbHatch
 10
0.0
 20
0.0
 30
0.0
210
0.0
220
0.0
230
1.0
  2
SOLID
 70
     1
 71
     1
 91
        1
 92
        3
 72
     0
 73
     1
 93
        4
 10
4599.244281609728
 20
-3898.608875359047
 10
4600.077615608647
 20
-3898.608875359047
 10
4600.077615608647
 20
-3896.349153359
 10
4599.244281609728
 20
-3896.349153359
 97
        0
 75
     0
 76
     1
 98
        0
  0
LWPOLYLINE
  5
2F2
330
1F
100
AcDbEntity
  8
Ech.1_2
 62
     7
370
     9
100
AcDbPolyline
 90
        5
 70
     0
 43
0.0
 10
4599.244281609728
 20
-3898.608875359047
 10
4600.077615608647
 20
-3898.608875359047
 10
4600.077615608647
 20
-3896.349153359
 10
4599.244281609728
 20
-3896.349153359
 10
4599.244281609728
 20
-3898.608875359047
  0
HATCH
  5
2F3
330
1F
100
AcDbEntity
  8
Ech.1_2
 62
   252
440
 33554687
370
     5
100
AcDbHatch
 10
0.0
 20
0.0
 30
0.0
210
0.0
220
0.0
230
1.0
  2
SOLID
 70
     1
 71
     1
 91
        1
 92
        3
 72
     0
 73
     1
 93
        4
 10
4600.077615608647
 20
-3898.608875359047
 10
4600.910949607565
 20
-3898.608875359047
 10
4600.910949607565
 20
-3896.349153359
 10
4600.077615608647
 20
-3896.349153359
 97
        0
 75
     0
 76
     1
 98
        0
  0
LWPOLYLINE
  5
2F4
330
1F
100
AcDbEntity
  8
Ech.1_2
 62
     7
370
     9
100
AcDbPolyline
 90
        5
 70
     0
 43
0.0
 10
4600.077615608647
 20
-3898.608875359047
 10
4600.910949607565
 20
-3898.608875359047
 10
4600.910949607565
 20
-3896.349153359
 10
4600.077615608647
 20
-3896.349153359
 10
4600.077615608647
 20
-3898.608875359047
  0
HATCH
  5
2F5
330
1F
100
AcDbEntity
  8
Ech.1_2
 62
   252
440
 33554687
370
     5
100
AcDbHatch
 10
0.0
 20
0.0
 30
0.0
210
0.0
220
0.0
230
1.0
  2
SOLID
 70
     1
 71
     1
 91
        1
 92
        3
 72
     0
 73
     1
 93
        4
 10
4600.91094761081
 20
-3898.608875359047
 10
4601.744281609728
 20
-3898.608875359047
 10
4601.744281609728
 20
-3896.349153359
 10
4600.91094761081
 20
-3896.349153359
 97
        0
 75
     0
 76
     1
 98
        0
  0
LWPOLYLINE
  5
2F6
330
1F
100
AcDbEntity
  8
Ech.1_2
 62
     7
370
     9
100
AcDbPolyline
 90
        5
 70
     0
 43
0.0
 10
4600.91094761081
 20
-3898.608875359047
 10
4601.744281609728
 20
-3898.608875359047
 10
4601.744281609728
 20
-3896.349153359
 10
4600.91094761081
 20
-3896.349153359
 10
4600.91094761081
 20
-3898.608875359047
  0
HATCH
  5
2F7
330
1F
100
AcDbEntity
  8
Ech.1_2
 62
   252
440
 33554687
370
     5
100
AcDbHatch
 10
0.0
 20
0.0
 30
0.0
210
0.0
220
0.0
230
1.0
  2
SOLID
 70
     1
 71
     1
 91
        1
 92
        3
 72
     0
 73
     1
 93
        4
 10
4601.74428061135
 20
-3898.608875359047
 10
4602.577614610269
 20
-3898.608875359047
 10
4602.577614610269
 20
-3896.349153359
 10
4601.74428061135
 20
-3896.349153359
 97
        0
 75
     0
 76
     1
 98
        0
  0
LWPOLYLINE
  5
2F8
330
1F
100
AcDbEntity
  8
Ech.1_2
 62
     7
370
     9
100
AcDbPolyline
 90
        5
 70
     0
 43
0.0
 10
4601.74428061135
 20
-3898.608875359047
 10
4602.577614610269
 20
-3898.608875359047
 10
4602.577614610269
 20
-3896.349153359
 10
4601.74428061135
 20
-3896.349153359
 10
4601.74428061135
 20
-3898.608875359047
  0
HATCH
  5
2F9
330
1F
100
AcDbEntity
  8
Ech.1_2
 62
   252
440
 33554687
370
     5
100
AcDbHatch
 10
0.0
 20
0.0
 30
0.0
210
0.0
220
0.0
230
1.0
  2
SOLID
 70
     1
 71
     1
 91
        1
 92
        3
 72
     0
 73
     1
 93
        4
 10
4602.577614610269
 20
-3898.608875359047
 10
4603.410948609187
 20
-3898.608875359047
 10
4603.410948609187
 20
-3896.349153359
 10
4602.577614610269
 20
-3896.349153359
 97
        0
 75
     0
 76
     1
 98
        0
  0
LWPOLYLINE
  5
2FA
330
1F
100
AcDbEntity
  8
Ech.1_2
 62
     7
370
     9
100
AcDbPolyline
 90
        5
 70
     0
 43
0.0
 10
4602.577614610269
 20
-3898.608875359047
 10
4603.410948609187
 20
-3898.608875359047
 10
4603.410948609187
 20
-3896.349153359
 10
4602.577614610269
 20
-3896.349153359
 10
4602.577614610269
 20
-3898.608875359047
  0
HATCH
  5
2FB
330
1F
100
AcDbEntity
  8
Ech.1_2
 62
   252
440
 33554687
370
     5
100
AcDbHatch
 10
0.0
 20
0.0
 30
0.0
210
0.0
220
0.0
230
1.0
  2
SOLID
 70
     1
 71
     1
 91
        1
 92
        3
 72
     0
 73
     1
 93
        4
 10
4603.41094761081
 20
-3898.608875359047
 10
4604.244281609728
 20
-3898.608875359047
 10
4604.244281609728
 20
-3896.349153359
 10
4603.41094761081
 20
-3896.349153359
 97
        0
 75
     0
 76
     1
 98
        0
  0
LWPOLYLINE
  5
2FC
330
1F
100
AcDbEntity
  8
Ech.1_2
 62
     7
370
     9
100
AcDbPolyline
 90
        5
 70
     0
 43
0.0
 10
4603.41094761081
 20
-3898.608875359047
 10
4604.244281609728
 20
-3898.608875359047
 10
4604.244281609728
 20
-3896.349153359
 10
4603.41094761081
 20
-3896.349153359
 10
4603.41094761081
 20
-3898.608875359047
  0
HATCH
  5
2FD
330
1F
100
AcDbEntity
  8
Ech.1_2
 62
   252
440
 33554687
370
     5
100
AcDbHatch
 10
0.0
 20
0.0
 30
0.0
210
0.0
220
0.0
230
1.0
  2
SOLID
 70
     1
 71
     1
 91
        1
 92
        3
 72
     0
 73
     1
 93
        4
 10
4604.244281609728
 20
-3898.608875359047
 10
4605.077615608647
 20
-3898.608875359047
 10
4605.077615608647
 20
-3896.349153359
 10
4604.244281609728
 20
-3896.349153359
 97
        0
 75
     0
 76
     1
 98
        0
  0
LWPOLYLINE
  5
2FE
330
1F
100
AcDbEntity
  8
Ech.1_2
 62
     7
370
     9
100
AcDbPolyline
 90
        5
 70
     0
 43
0.0
 10
4604.244281609728
 20
-3898.608875359047
 10
4605.077615608647
 20
-3898.608875359047
 10
4605.077615608647
 20
-3896.349153359
 10
4604.244281609728
 20
-3896.349153359
 10
4604.244281609728
 20
-3898.608875359047
  0
HATCH
  5
2FF
330
1F
100
AcDbEntity
  8
Ech.1_2
 62
   252
440
 33554687
370
     5
100
AcDbHatch
 10
0.0
 20
0.0
 30
0.0
210
0.0
220
0.0
230
1.0
  2
SOLID
 70
     1
 71
     1
 91
        1
 92
        3
 72
     0
 73
     1
 93
        4
 10
4605.077613611891
 20
-3898.608875359047
 10
4605.91094761081
 20
-3898.608875359047
 10
4605.91094761081
 20
-3896.349153359
 10
4605.077613611891
 20
-3896.349153359
 97
        0
 75
     0
 76
     1
 98
        0
  0
LWPOLYLINE
  5
300
330
1F
100
AcDbEntity
  8
Ech.1_2
 62
     7
370
     9
100
AcDbPolyline
 90
        5
 70
     0
 43
0.0
 10
4605.077613611891
 20
-3898.608875359047
 10
4605.91094761081
 20
-3898.608875359047
 10
4605.91094761081
 20
-3896.349153359
 10
4605.077613611891
 20
-3896.349153359
 10
4605.077613611891
 20
-3898.608875359047
  0
HATCH
  5
301
330
1F
100
AcDbEntity
  8
Ech.1_2
 62
   252
440
 33554687
370
     5
100
AcDbHatch
 10
0.0
 20
0.0
 30
0.0
210
0.0
220
0.0
230
1.0
  2
SOLID
 70
     1
 71
     1
 91
        1
 92
        3
 72
     0
 73
     1
 93
        4
 10
4605.91094761081
 20
-3898.608875359047
 10
4606.744281609728
 20
-3898.608875359047
 10
4606.744281609728
 20
-3896.349153359
 10
4605.91094761081
 20
-3896.349153359
 97
        0
 75
     0
 76
     1
 98
        0
  0
LWPOLYLINE
  5
302
330
1F
100
AcDbEntity
  8
Ech.1_2
 62
     7
370
     9
100
AcDbPolyline
 90
        5
 70
     0
 43
0.0
 10
4605.91094761081
 20
-3898.608875359047
 10
4606.744281609728
 20
-3898.608875359047
 10
4606.744281609728
 20
-3896.349153359
 10
4605.91094761081
 20
-3896.349153359
 10
4605.91094761081
 20
-3898.608875359047
  0
HATCH
  5
303
330
1F
100
AcDbEntity
  8
Ech.1_2
 62
   252
440
 33554687
370
     5
100
AcDbHatch
 10
0.0
 20
0.0
 30
0.0
210
0.0
220
0.0
230
1.0
  2
SOLID
 70
     1
 71
     1
 91
        1
 92
        3
 72
     0
 73
     1
 93
        4
 10
4606.744281609728
 20
-3898.608875359047
 10
4607.577615608647
 20
-3898.608875359047
 10
4607.577615608647
 20
-3896.349153359
 10
4606.744281609728
 20
-3896.349153359
 97
        0
 75
     0
 76
     1
 98
        0
  0
LWPOLYLINE
  5
304
330
1F
100
AcDbEntity
  8
Ech.1_2
 62
     7
370
     9
100
AcDbPolyline
 90
        5
 70
     0
 43
0.0
 10
4606.744281609728
 20
-3898.608875359047
 10
4607.577615608647
 20
-3898.608875359047
 10
4607.577615608647
 20
-3896.349153359
 10
4606.744281609728
 20
-3896.349153359
 10
4606.744281609728
 20
-3898.608875359047
  0
HATCH
  5
305
330
1F
100
AcDbEntity
  8
Ech.1_2
 62
   252
440
 33554687
370
     5
100
AcDbHatch
 10
0.0
 20
0.0
 30
0.0
210
0.0
220
0.0
230
1.0
  2
SOLID
 70
     1
 71
     1
 91
        1
 92
        3
 72
     0
 73
     1
 93
        4
 10
4607.577615608647
 20
-3898.608875359047
 10
4608.410949607565
 20
-3898.608875359047
 10
4608.410949607565
 20
-3896.349153359
 10
4607.577615608647
 20
-3896.349153359
 97
        0
 75
     0
 76
     1
 98
        0
  0
LWPOLYLINE
  5
306
330
1F
100
AcDbEntity
  8
Ech.1_2
 62
     7
370
     9
100
AcDbPolyline
 90
        5
 70
     0
 43
0.0
 10
4607.577615608647
 20
-3898.608875359047
 10
4608.410949607565
 20
-3898.608875359047
 10
4608.410949607565
 20
-3896.349153359
 10
4607.577615608647
 20
-3896.349153359
 10
4607.577615608647
 20
-3898.608875359047
  0
HATCH
  5
307
330
1F
100
AcDbEntity
  8
Ech.1_2
 62
   252
440
 33554687
370
     5
100
AcDbHatch
 10
0.0
 20
0.0
 30
0.0
210
0.0
220
0.0
230
1.0
  2
SOLID
 70
     1
 71
     1
 91
        1
 92
        3
 72
     1
 73
     1
 93
        4
 10
4613.110031609314
 20
-3896.349153359
 42
0.0
 10
4611.744279612973
 20
-3896.349153359
 42
0.0
 10
4611.744279612973
 20
-3898.608875359047
 42
0.0
 10
4613.110031609314
 20
-3898.608875359047
 42
-0.3513591548518968
 97
        0
 75
     0
 76
     1
 98
        0
  0
LWPOLYLINE
  5
308
330
1F
100
AcDbEntity
  8
Ech.1_2
 62
     7
370
     9
100
AcDbPolyline
 90
        5
 70
     0
 43
0.0
 10
4613.110031609314
 20
-3896.349153359
 10
4611.744279612973
 20
-3896.349153359
 10
4611.744279612973
 20
-3898.608875359047
 10
4613.110031609314
 20
-3898.608875359047
 42
-0.3513591548518972
 10
4613.110031609314
 20
-3896.349153359
  0
HATCH
  5
309
330
1F
100
AcDbEntity
  8
Ech.1_2
 62
   252
440
 33554687
370
     5
100
AcDbHatch
 10
0.0
 20
0.0
 30
0.0
210
0.0
220
0.0
230
1.0
  2
SOLID
 70
     1
 71
     1
 91
        1
 92
        3
 72
     1
 73
     1
 93
        3
 10
4615.772058610695
 20
-3897.479014358994
 42
0.0
 10
4613.110031609314
 20
-3896.349153359
 42
0.3513591548518968
 10
4613.110031609314
 20
-3898.608875359047
 42
0.0
 97
        0
 75
     0
 76
     1
 98
        0
  0
LWPOLYLINE
  5
30A
330
1F
100
AcDbEntity
  8
Ech.1_2
 62
     7
370
     9
100
AcDbPolyline
 90
        4
 70
     0
 43
0.0
 10
4615.772058610695
 20
-3897.479014358994
 10
4613.110031609314
 20
-3896.349153359
 42
0.3513591548518956
 10
4613.110031609314
 20
-3898.608875359047
 10
4615.772058610695
 20
-3897.479014358994
  0
HATCH
  5
30B
330
1F
100
AcDbEntity
  8
Ech.1_2
 62
   252
440
 33554687
370
     5
100
AcDbHatch
 10
0.0
 20
0.0
 30
0.0
210
0.0
220
0.0
230
1.0
  2
SOLID
 70
     1
 71
     1
 91
        1
 92
        3
 72
     1
 73
     1
 93
        6
 10
4572.577613611891
 20
-3898.608875359039
 42
0.0
 10
4570.827614609974
 20
-3898.608875359047
 42
0.4142135727489641
 10
4570.272058610695
 20
-3899.164431359024
 42
0.0
 10
4570.272058610695
 20
-3895.793597358957
 42
0.4142135726664357
 10
4570.827614609974
 20
-3896.349153359
 42
0.0
 10
4572.577613611891
 20
-3896.349153359
 42
0.0
 97
        0
 75
     0
 76
     1
 98
        0
  0
LWPOLYLINE
  5
30C
330
1F
100
AcDbEntity
  8
Ech.1_2
 62
     7
370
     9
100
AcDbPolyline
 90
        7
 70
     0
 43
0.0
 10
4572.577613611891
 20
-3898.608875359039
 10
4570.827614609974
 20
-3898.608875359047
 42
0.4142135727497837
 10
4570.272058610695
 20
-3899.164431359024
 10
4570.272058610695
 20
-3895.793597358957
 42
0.414213572666436
 10
4570.827614609974
 20
-3896.349153359
 10
4572.577613611891
 20
-3896.349153359
 10
4572.577613611891
 20
-3898.608875359039
  0
HATCH
  5
30D
330
1F
100
AcDbEntity
  8
Ech.1_2
 62
   252
440
 33554687
370
     5
100
AcDbHatch
 10
0.0
 20
0.0
 30
0.0
210
0.0
220
0.0
230
1.0
  2
SOLID
 70
     1
 71
     1
 91
        1
 92
        1
 93
        2
 72
     1
 10
4569.966503609794
 20
-3899.997764385409
 11
4569.966503609794
 21
-3894.960264332638
 72
     2
 10
4582.529707000618
 20
-3897.479014359023
 40
12.81320339082451
 50
168.6632793503046
 51
191.3367206496955
 73
     1
 97
        0
 75
     0
 76
     1
 98
        0
  0
LWPOLYLINE
  5
30E
330
1F
100
AcDbEntity
  8
Ech.1_2
 62
     7
370
     9
100
AcDbPolyline
 90
        3
 70
     0
 43
0.0
 10
4569.966503609794
 20
-3899.997764385409
 10
4569.966503609794
 20
-3894.960264332638
 42
0.0992555820868614
 10
4569.966503609794
 20
-3899.997764385409
  0
HATCH
  5
30F
330
1F
100
AcDbEntity
  8
Ech.1_2
 62
   252
440
 33554687
370
     5
100
AcDbHatch
 10
0.0
 20
0.0
 30
0.0
210
0.0
220
0.0
230
1.0
  2
SOLID
 70
     1
 71
     1
 91
        1
 92
        3
 72
     0
 73
     1
 93
        6
 10
4570.272058610695
 20
-3899.997764358983
 10
4570.272058610695
 20
-3899.164431359024
 10
4570.272058610695
 20
-3895.793597358957
 10
4570.272058610697
 20
-3894.960264359006
 10
4569.966503609794
 20
-3894.960264332638
 10
4569.966503609794
 20
-3899.997764385409
 97
        0
 75
     0
 76
     1
 98
        0
  0
LWPOLYLINE
  5
310
330
1F
100
AcDbEntity
  8
Ech.1_2
 62
     7
370
     9
100
AcDbPolyline
 90
        7
 70
     0
 43
0.0
 10
4570.272058610695
 20
-3899.997764358983
 10
4570.272058610695
 20
-3899.164431359024
 10
4570.272058610695
 20
-3895.793597358957
 10
4570.272058610697
 20
-3894.960264359006
 10
4569.966503609794
 20
-3894.960264332638
 10
4569.966503609794
 20
-3899.997764385409
 10
4570.272058610695
 20
-3899.997764358983
  0
HATCH
  5
311
330
1F
100
AcDbEntity
  8
Ech.1_2
 62
   252
440
 33554687
370
     5
100
AcDbHatch
 10
0.0
 20
0.0
 30
0.0
210
0.0
220
0.0
230
1.0
  2
SOLID
 70
     1
 71
     1
 91
        1
 92
        3
 72
     0
 73
     1
 93
        4
 10
4608.410949607565
 20
-3898.608875359047
 10
4609.244283606484
 20
-3898.608875359047
 10
4609.244283606484
 20
-3896.349153359
 10
4608.410949607565
 20
-3896.349153359
 97
        0
 75
     0
 76
     1
 98
        0
  0
LWPOLYLINE
  5
312
330
1F
100
AcDbEntity
  8
Ech.1_2
 62
     7
370
     9
100
AcDbPolyline
 90
        5
 70
     0
 43
0.0
 10
4608.410949607565
 20
-3898.608875359047
 10
4609.244283606484
 20
-3898.608875359047
 10
4609.244283606484
 20
-3896.349153359
 10
4608.410949607565
 20
-3896.349153359
 10
4608.410949607565
 20
-3898.608875359047
  0
LINE
  5
313
330
1F
100
AcDbEntity
  8
Ech.1_2
 62
   190
370
     9
100
AcDbLine
 10
4610.077613611891
 20
-3896.349153359
 30
0.0
 11
4610.077613611891
 21
-3898.608875359047
 31
0.0
  0
LINE
  5
314
330
1F
100
AcDbEntity
  8
Ech.1_2
 62
   190
370
     9
100
AcDbLine
 10
4610.91094761081
 20
-3896.349153359
 30
0.0
 11
4610.91094761081
 21
-3898.608875359047
 31
0.0
  0
LINE
  5
315
330
1F
100
AcDbEntity
  8
Ech.1_2
 62
   190
370
     9
100
AcDbLine
 10
4611.744279612973
 20
-3896.349153359
 30
0.0
 11
4611.744279612973
 21
-3898.608875359047
 31
0.0
  0
LINE
  5
316
330
1F
100
AcDbEntity
  8
Ech.1_2
 62
   190
370
     9
100
AcDbLine
 10
4609.244281609728
 20
-3896.349153359
 30
0.0
 11
4609.244281609728
 21
-3898.608875359047
 31
0.0
  0
HATCH
  5
317
330
1F
100
AcDbEntity
  8
Ech.1_2
 62
   252
440
 33554687
370
     5
100
AcDbHatch
 10
0.0
 20
0.0
 30
0.0
210
0.0
220
0.0
230
1.0
  2
SOLID
 70
     1
 71
     1
 91
        1
 92
        3
 72
     0
 73
     1
 93
        4
 10
4609.244279612973
 20
-3898.608875359047
 10
4610.077613611891
 20
-3898.608875359047
 10
4610.077613611891
 20
-3896.349153359
 10
4609.244279612973
 20
-3896.349153359
 97
        0
 75
     0
 76
     1
 98
        0
  0
LWPOLYLINE
  5
318
330
1F
100
AcDbEntity
  8
Ech.1_2
 62
     7
370
     9
100
AcDbPolyline
 90
        5
 70
     0
 43
0.0
 10
4609.244279612973
 20
-3898.608875359047
 10
4610.077613611891
 20
-3898.608875359047
 10
4610.077613611891
 20
-3896.349153359
 10
4609.244279612973
 20
-3896.349153359
 10
4609.244279612973
 20
-3898.608875359047
  0
HATCH
  5
319
330
1F
100
AcDbEntity
  8
Ech.1_2
 62
   252
440
 33554687
370
     5
100
AcDbHatch
 10
0.0
 20
0.0
 30
0.0
210
0.0
220
0.0
230
1.0
  2
SOLID
 70
     1
 71
     1
 91
        1
 92
        3
 72
     0
 73
     1
 93
        4
 10
4610.910945614054
 20
-3898.608875359047
 10
4611.744279612973
 20
-3898.608875359047
 10
4611.744279612973
 20
-3896.349153359
 10
4610.910945614054
 20
-3896.349153359
 97
        0
 75
     0
 76
     1
 98
        0
  0
LWPOLYLINE
  5
31A
330
1F
100
AcDbEntity
  8
Ech.1_2
 62
     7
370
     9
100
AcDbPolyline
 90
        5
 70
     0
 43
0.0
 10
4610.910945614054
 20
-3898.608875359047
 10
4611.744279612973
 20
-3898.608875359047
 10
4611.744279612973
 20
-3896.349153359
 10
4610.910945614054
 20
-3896.349153359
 10
4610.910945614054
 20
-3898.608875359047
  0
LWPOLYLINE
  5
31B
330
1F
100
AcDbEntity
  8
Ech.1_2
 62
   190
370
    15
100
AcDbPolyline
 90
        3
 70
     0
 43
0.0
 10
4529.380909081196
 20
-3847.652156038226
 10
4529.380909081196
 20
-3897.378559816914
 10
4524.180909081195
 20
-3897.378559816914
  0
INSERT
  5
31C
330
1F
100
AcDbEntity
  8
Ech.1_2
 62
   190
370
    15
100
AcDbBlockReference
  2
cw-line-extremity4
 10
4529.380909081196
 20
-3847.652156038226
 30
0.0
 50
270.0
  0
LWPOLYLINE
  5
31D
330
1F
100
AcDbEntity
  8
Ech.1_2
 62
   190
370
    15
100
AcDbPolyline
 90
        3
 70
     0
 43
0.0
 10
4580.772127335242
 20
-3924.090405039353
 10
4532.180909081195
 20
-3924.090405039353
 10
4524.180909081195
 20
-3924.090405039353
  0
INSERT
  5
31E
330
1F
100
AcDbEntity
  8
Ech.1_2
 62
   190
370
    15
100
AcDbBlockReference
  2
cw-line-extremity4
 10
4580.772127335242
 20
-3924.090405039353
 30
0.0
 50
180.0
  0
LWPOLYLINE
  5
31F
330
1F
100
AcDbEntity
  8
Ech.1_2
 62
   190
370
    15
100
AcDbPolyline
 90
        3
 70
     0
 43
0.0
 10
4603.272128588787
 20
-3959.219037969649
 10
4532.180909081195
 20
-3959.219037969649
 10
4524.180909081195
 20
-3959.219037969649
  0
INSERT
  5
320
330
1F
100
AcDbEntity
  8
Ech.1_2
 62
   190
370
    15
100
AcDbBlockReference
  2
cw-line-extremity4
 10
4603.272128588787
 20
-3959.219037969649
 30
0.0
 50
180.0
  0
LINE
  5
321
330
1F
100
AcDbEntity
  8
Ech.1_2
 62
     7
370
    20
100
AcDbLine
 10
4570.772058610401
 20
-3849.083134474053
 30
0.0
 11
4587.68639137217
 21
-3849.083134474053
 31
0.0
  0
LINE
  5
322
330
1F
100
AcDbEntity
  8
Ech.1_2
 62
   190
370
     9
100
AcDbLine
 10
4570.272058610697
 20
-3973.95293757869
 30
0.0
 11
4569.966503609794
 21
-3973.95293757869
 31
0.0
  0
LINE
  5
323
330
1F
100
AcDbEntity
  8
Ech.1_2
 62
   190
370
     9
100
AcDbLine
 10
4569.966503609794
 20
-3973.95293757869
 30
0.0
 11
4569.966503609794
 21
-3978.990437578666
 31
0.0
  0
LINE
  5
324
330
1F
100
AcDbEntity
  8
Ech.1_2
 62
   190
370
     9
100
AcDbLine
 10
4570.272058610695
 20
-3978.990437578666
 30
0.0
 11
4569.966503609794
 21
-3978.990437578666
 31
0.0
  0
HATCH
  5
325
330
1F
100
AcDbEntity
  8
Ech.1_2
 62
   252
440
 33554687
370
     5
100
AcDbHatch
 10
0.0
 20
0.0
 30
0.0
210
0.0
220
0.0
230
1.0
  2
SOLID
 70
     1
 71
     1
 91
        1
 92
        3
 72
     0
 73
     1
 93
        4
 10
4610.077613611891
 20
-3977.60154857873
 10
4610.91094761081
 20
-3977.60154857873
 10
4610.91094761081
 20
-3975.341826578684
 10
4610.077613611891
 20
-3975.341826578684
 97
        0
 75
     0
 76
     1
 98
        0
  0
LWPOLYLINE
  5
326
330
1F
100
AcDbEntity
  8
Ech.1_2
 62
     7
370
     9
100
AcDbPolyline
 90
        5
 70
     0
 43
0.0
 10
4610.077613611891
 20
-3977.60154857873
 10
4610.91094761081
 20
-3977.60154857873
 10
4610.91094761081
 20
-3975.341826578684
 10
4610.077613611891
 20
-3975.341826578684
 10
4610.077613611891
 20
-3977.60154857873
  0
LINE
  5
327
330
1F
100
AcDbEntity
  8
Ech.1_2
 62
   190
370
     9
100
AcDbLine
 10
4613.110031609314
 20
-3975.341826578684
 30
0.0
 11
4570.827614609974
 21
-3975.341826578684
 31
0.0
  0
LINE
  5
328
330
1F
100
AcDbEntity
  8
Ech.1_2
 62
   190
370
     9
100
AcDbLine
 10
4613.110031609314
 20
-3977.60154857873
 30
0.0
 11
4570.827614609974
 21
-3977.60154857873
 31
0.0
  0
ARC
  5
329
330
1F
100
AcDbEntity
  8
Ech.1_2
 62
   190
370
     9
100
AcDbCircle
 10
4582.529707000628
 20
-3976.471687578707
 30
0.0
 40
12.81320339083424
100
AcDbArc
 50
168.6632793503132
 51
191.3367206496868
  0
LINE
  5
32A
330
1F
100
AcDbEntity
  8
Ech.1_2
 62
   190
370
     9
100
AcDbLine
 10
4570.272058610697
 20
-3973.95293757869
 30
0.0
 11
4570.272058610695
 21
-3974.786270578648
 31
0.0
  0
ARC
  5
32B
330
1F
100
AcDbEntity
  8
Ech.1_2
 62
   190
370
     9
100
AcDbCircle
 10
4570.827614600594
 20
-3974.786270588785
 30
0.0
 40
0.5555559898988739
100
AcDbArc
 50
179.999998954571
 51
270.0000009674357
  0
LINE
  5
32C
330
1F
100
AcDbEntity
  8
Ech.1_2
 62
   190
370
     9
100
AcDbLine
 10
4570.272058610695
 20
-3974.786270578648
 30
0.0
 11
4570.272058610695
 21
-3978.157104578708
 31
0.0
  0
ARC
  5
32D
330
1F
100
AcDbEntity
  8
Ech.1_2
 62
   190
370
     9
100
AcDbCircle
 10
4570.827614600495
 20
-3978.15710456853
 30
0.0
 40
0.555555989799507
100
AcDbArc
 50
89.99999902234032
 51
180.0000010496968
  0
LINE
  5
32E
330
1F
100
AcDbEntity
  8
Ech.1_2
 62
   190
370
     9
100
AcDbLine
 10
4570.272058610695
 20
-3978.990437578666
 30
0.0
 11
4570.272058610695
 21
-3978.157104578708
 31
0.0
  0
LINE
  5
32F
330
1F
100
AcDbEntity
  8
Ech.1_2
 62
   190
370
     9
100
AcDbLine
 10
4580.91094761081
 20
-3975.341826578684
 30
0.0
 11
4580.91094761081
 21
-3977.60154857873
 31
0.0
  0
LINE
  5
330
330
1F
100
AcDbEntity
  8
Ech.1_2
 62
   190
370
     9
100
AcDbLine
 10
4581.74428061135
 20
-3975.341826578684
 30
0.0
 11
4581.74428061135
 21
-3977.60154857873
 31
0.0
  0
LINE
  5
331
330
1F
100
AcDbEntity
  8
Ech.1_2
 62
   190
370
     9
100
AcDbLine
 10
4578.41094761081
 20
-3975.341826578684
 30
0.0
 11
4578.41094761081
 21
-3977.60154857873
 31
0.0
  0
LINE
  5
332
330
1F
100
AcDbEntity
  8
Ech.1_2
 62
   190
370
     9
100
AcDbLine
 10
4579.24428061135
 20
-3975.341826578684
 30
0.0
 11
4579.24428061135
 21
-3977.60154857873
 31
0.0
  0
LINE
  5
333
330
1F
100
AcDbEntity
  8
Ech.1_2
 62
   190
370
     9
100
AcDbLine
 10
4580.077613611891
 20
-3975.341826578684
 30
0.0
 11
4580.077613611891
 21
-3977.60154857873
 31
0.0
  0
LINE
  5
334
330
1F
100
AcDbEntity
  8
Ech.1_2
 62
   190
370
     9
100
AcDbLine
 10
4575.91094761081
 20
-3975.341826578684
 30
0.0
 11
4575.91094761081
 21
-3977.60154857873
 31
0.0
  0
LINE
  5
335
330
1F
100
AcDbEntity
  8
Ech.1_2
 62
   190
370
     9
100
AcDbLine
 10
4576.74428061135
 20
-3975.341826578684
 30
0.0
 11
4576.74428061135
 21
-3977.60154857873
 31
0.0
  0
LINE
  5
336
330
1F
100
AcDbEntity
  8
Ech.1_2
 62
   190
370
     9
100
AcDbLine
 10
4577.577613611891
 20
-3975.341826578684
 30
0.0
 11
4577.577613611891
 21
-3977.60154857873
 31
0.0
  0
LINE
  5
337
330
1F
100
AcDbEntity
  8
Ech.1_2
 62
   190
370
     9
100
AcDbLine
 10
4575.077613611891
 20
-3975.341826578684
 30
0.0
 11
4575.077613611891
 21
-3977.60154857873
 31
0.0
  0
LINE
  5
338
330
1F
100
AcDbEntity
  8
Ech.1_2
 62
   190
370
     9
100
AcDbLine
 10
4574.24428061135
 20
-3975.341826578684
 30
0.0
 11
4574.24428061135
 21
-3977.60154857873
 31
0.0
  0
LINE
  5
339
330
1F
100
AcDbEntity
  8
Ech.1_2
 62
   190
370
     9
100
AcDbLine
 10
4573.41094761081
 20
-3975.341826578684
 30
0.0
 11
4573.41094761081
 21
-3977.60154857873
 31
0.0
  0
LINE
  5
33A
330
1F
100
AcDbEntity
  8
Ech.1_2
 62
   190
370
     9
100
AcDbLine
 10
4572.577613611891
 20
-3975.341826578684
 30
0.0
 11
4572.577613611891
 21
-3977.60154857873
 31
0.0
  0
LINE
  5
33B
330
1F
100
AcDbEntity
  8
Ech.1_2
 62
   190
370
     9
100
AcDbLine
 10
4607.577613611891
 20
-3975.341826578684
 30
0.0
 11
4607.577613611891
 21
-3977.60154857873
 31
0.0
  0
LINE
  5
33C
330
1F
100
AcDbEntity
  8
Ech.1_2
 62
   190
370
     9
100
AcDbLine
 10
4606.74428061135
 20
-3975.341826578684
 30
0.0
 11
4606.74428061135
 21
-3977.60154857873
 31
0.0
  0
LINE
  5
33D
330
1F
100
AcDbEntity
  8
Ech.1_2
 62
   190
370
     9
100
AcDbLine
 10
4608.41094761081
 20
-3975.341826578684
 30
0.0
 11
4608.41094761081
 21
-3977.60154857873
 31
0.0
  0
LINE
  5
33E
330
1F
100
AcDbEntity
  8
Ech.1_2
 62
   190
370
     9
100
AcDbLine
 10
4604.24428061135
 20
-3975.341826578684
 30
0.0
 11
4604.24428061135
 21
-3977.60154857873
 31
0.0
  0
LINE
  5
33F
330
1F
100
AcDbEntity
  8
Ech.1_2
 62
   190
370
     9
100
AcDbLine
 10
4605.077613611891
 20
-3975.341826578684
 30
0.0
 11
4605.077613611891
 21
-3977.60154857873
 31
0.0
  0
LINE
  5
340
330
1F
100
AcDbEntity
  8
Ech.1_2
 62
   190
370
     9
100
AcDbLine
 10
4605.91094761081
 20
-3975.341826578684
 30
0.0
 11
4605.91094761081
 21
-3977.60154857873
 31
0.0
  0
LINE
  5
341
330
1F
100
AcDbEntity
  8
Ech.1_2
 62
   190
370
     9
100
AcDbLine
 10
4601.74428061135
 20
-3975.341826578684
 30
0.0
 11
4601.74428061135
 21
-3977.60154857873
 31
0.0
  0
LINE
  5
342
330
1F
100
AcDbEntity
  8
Ech.1_2
 62
   190
370
     9
100
AcDbLine
 10
4602.577613611891
 20
-3975.341826578684
 30
0.0
 11
4602.577613611891
 21
-3977.60154857873
 31
0.0
  0
LINE
  5
343
330
1F
100
AcDbEntity
  8
Ech.1_2
 62
   190
370
     9
100
AcDbLine
 10
4603.41094761081
 20
-3975.341826578684
 30
0.0
 11
4603.41094761081
 21
-3977.60154857873
 31
0.0
  0
LINE
  5
344
330
1F
100
AcDbEntity
  8
Ech.1_2
 62
   190
370
     9
100
AcDbLine
 10
4599.24428061135
 20
-3975.341826578684
 30
0.0
 11
4599.24428061135
 21
-3977.60154857873
 31
0.0
  0
LINE
  5
345
330
1F
100
AcDbEntity
  8
Ech.1_2
 62
   190
370
     9
100
AcDbLine
 10
4600.077613611891
 20
-3975.341826578684
 30
0.0
 11
4600.077613611891
 21
-3977.60154857873
 31
0.0
  0
LINE
  5
346
330
1F
100
AcDbEntity
  8
Ech.1_2
 62
   190
370
     9
100
AcDbLine
 10
4600.91094761081
 20
-3975.341826578684
 30
0.0
 11
4600.91094761081
 21
-3977.60154857873
 31
0.0
  0
LINE
  5
347
330
1F
100
AcDbEntity
  8
Ech.1_2
 62
   190
370
     9
100
AcDbLine
 10
4598.41094761081
 20
-3975.341826578684
 30
0.0
 11
4598.41094761081
 21
-3977.60154857873
 31
0.0
  0
LINE
  5
348
330
1F
100
AcDbEntity
  8
Ech.1_2
 62
   190
370
     9
100
AcDbLine
 10
4585.077613611891
 20
-3975.341826578684
 30
0.0
 11
4585.077613611891
 21
-3977.60154857873
 31
0.0
  0
LINE
  5
349
330
1F
100
AcDbEntity
  8
Ech.1_2
 62
   190
370
     9
100
AcDbLine
 10
4585.91094761081
 20
-3975.341826578684
 30
0.0
 11
4585.91094761081
 21
-3977.60154857873
 31
0.0
  0
LINE
  5
34A
330
1F
100
AcDbEntity
  8
Ech.1_2
 62
   190
370
     9
100
AcDbLine
 10
4586.74428061135
 20
-3975.341826578684
 30
0.0
 11
4586.74428061135
 21
-3977.60154857873
 31
0.0
  0
LINE
  5
34B
330
1F
100
AcDbEntity
  8
Ech.1_2
 62
   190
370
     9
100
AcDbLine
 10
4587.577613611891
 20
-3975.341826578684
 30
0.0
 11
4587.577613611891
 21
-3977.60154857873
 31
0.0
  0
LINE
  5
34C
330
1F
100
AcDbEntity
  8
Ech.1_2
 62
   190
370
     9
100
AcDbLine
 10
4590.077613611891
 20
-3975.341826578684
 30
0.0
 11
4590.077613611891
 21
-3977.60154857873
 31
0.0
  0
LINE
  5
34D
330
1F
100
AcDbEntity
  8
Ech.1_2
 62
   190
370
     9
100
AcDbLine
 10
4589.24428061135
 20
-3975.341826578684
 30
0.0
 11
4589.24428061135
 21
-3977.60154857873
 31
0.0
  0
LINE
  5
34E
330
1F
100
AcDbEntity
  8
Ech.1_2
 62
   190
370
     9
100
AcDbLine
 10
4588.41094761081
 20
-3975.341826578684
 30
0.0
 11
4588.41094761081
 21
-3977.60154857873
 31
0.0
  0
LINE
  5
34F
330
1F
100
AcDbEntity
  8
Ech.1_2
 62
   190
370
     9
100
AcDbLine
 10
4592.577613611891
 20
-3975.341826578684
 30
0.0
 11
4592.577613611891
 21
-3977.60154857873
 31
0.0
  0
LINE
  5
350
330
1F
100
AcDbEntity
  8
Ech.1_2
 62
   190
370
     9
100
AcDbLine
 10
4591.74428061135
 20
-3975.341826578684
 30
0.0
 11
4591.74428061135
 21
-3977.60154857873
 31
0.0
  0
LINE
  5
351
330
1F
100
AcDbEntity
  8
Ech.1_2
 62
   190
370
     9
100
AcDbLine
 10
4590.91094761081
 20
-3975.341826578684
 30
0.0
 11
4590.91094761081
 21
-3977.60154857873
 31
0.0
  0
LINE
  5
352
330
1F
100
AcDbEntity
  8
Ech.1_2
 62
   190
370
     9
100
AcDbLine
 10
4595.077613611891
 20
-3975.341826578684
 30
0.0
 11
4595.077613611891
 21
-3977.60154857873
 31
0.0
  0
LINE
  5
353
330
1F
100
AcDbEntity
  8
Ech.1_2
 62
   190
370
     9
100
AcDbLine
 10
4594.24428061135
 20
-3975.341826578684
 30
0.0
 11
4594.24428061135
 21
-3977.60154857873
 31
0.0
  0
LINE
  5
354
330
1F
100
AcDbEntity
  8
Ech.1_2
 62
   190
370
     9
100
AcDbLine
 10
4593.41094761081
 20
-3975.341826578684
 30
0.0
 11
4593.41094761081
 21
-3977.60154857873
 31
0.0
  0
LINE
  5
355
330
1F
100
AcDbEntity
  8
Ech.1_2
 62
   190
370
     9
100
AcDbLine
 10
4597.577613611891
 20
-3975.341826578684
 30
0.0
 11
4597.577613611891
 21
-3977.60154857873
 31
0.0
  0
LINE
  5
356
330
1F
100
AcDbEntity
  8
Ech.1_2
 62
   190
370
     9
100
AcDbLine
 10
4596.74428061135
 20
-3975.341826578684
 30
0.0
 11
4596.74428061135
 21
-3977.60154857873
 31
0.0
  0
LINE
  5
357
330
1F
100
AcDbEntity
  8
Ech.1_2
 62
   190
370
     9
100
AcDbLine
 10
4595.91094761081
 20
-3975.341826578684
 30
0.0
 11
4595.91094761081
 21
-3977.60154857873
 31
0.0
  0
LINE
  5
358
330
1F
100
AcDbEntity
  8
Ech.1_2
 62
   190
370
     9
100
AcDbLine
 10
4583.41094761081
 20
-3975.341826578684
 30
0.0
 11
4583.41094761081
 21
-3977.60154857873
 31
0.0
  0
LINE
  5
359
330
1F
100
AcDbEntity
  8
Ech.1_2
 62
   190
370
     9
100
AcDbLine
 10
4584.24428061135
 20
-3975.341826578684
 30
0.0
 11
4584.24428061135
 21
-3977.60154857873
 31
0.0
  0
LINE
  5
35A
330
1F
100
AcDbEntity
  8
Ech.1_2
 62
   190
370
     9
100
AcDbLine
 10
4585.077613611891
 20
-3975.341826578684
 30
0.0
 11
4585.077613611891
 21
-3977.60154857873
 31
0.0
  0
LINE
  5
35B
330
1F
100
AcDbEntity
  8
Ech.1_2
 62
   190
370
     9
100
AcDbLine
 10
4582.577613611891
 20
-3975.341826578684
 30
0.0
 11
4582.577613611891
 21
-3977.60154857873
 31
0.0
  0
LINE
  5
35C
330
1F
100
AcDbEntity
  8
Ech.1_2
 62
   190
370
     9
100
AcDbLine
 10
4615.772058610695
 20
-3976.471687578678
 30
0.0
 11
4613.110031609314
 21
-3975.341826578684
 31
0.0
  0
ARC
  5
35D
330
1F
100
AcDbEntity
  8
Ech.1_2
 62
   190
370
     9
100
AcDbCircle
 10
4614.519382599922
 20
-3976.471687578678
 30
0.0
 40
1.806337996675907
100
AcDbArc
 50
141.2812399143139
 51
218.7187600856861
  0
LINE
  5
35E
330
1F
100
AcDbEntity
  8
Ech.1_2
 62
   190
370
     9
100
AcDbLine
 10
4615.772058610695
 20
-3976.471687578678
 30
0.0
 11
4613.110031609314
 21
-3977.60154857873
 31
0.0
  0
HATCH
  5
35F
330
1F
100
AcDbEntity
  8
Ech.1_2
 62
   252
440
 33554687
370
     5
100
AcDbHatch
 10
0.0
 20
0.0
 30
0.0
210
0.0
220
0.0
230
1.0
  2
SOLID
 70
     1
 71
     1
 91
        1
 92
        3
 72
     0
 73
     1
 93
        4
 10
4572.577613611891
 20
-3977.60154857873
 10
4573.41094761081
 20
-3977.60154857873
 10
4573.41094761081
 20
-3975.341826578684
 10
4572.577613611891
 20
-3975.341826578684
 97
        0
 75
     0
 76
     1
 98
        0
  0
LWPOLYLINE
  5
360
330
1F
100
AcDbEntity
  8
Ech.1_2
 62
     7
370
     9
100
AcDbPolyline
 90
        5
 70
     0
 43
0.0
 10
4572.577613611891
 20
-3977.60154857873
 10
4573.41094761081
 20
-3977.60154857873
 10
4573.41094761081
 20
-3975.341826578684
 10
4572.577613611891
 20
-3975.341826578684
 10
4572.577613611891
 20
-3977.60154857873
  0
HATCH
  5
361
330
1F
100
AcDbEntity
  8
Ech.1_2
 62
   252
440
 33554687
370
     5
100
AcDbHatch
 10
0.0
 20
0.0
 30
0.0
210
0.0
220
0.0
230
1.0
  2
SOLID
 70
     1
 71
     1
 91
        1
 92
        3
 72
     0
 73
     1
 93
        4
 10
4573.41094761081
 20
-3977.60154857873
 10
4574.244281609728
 20
-3977.60154857873
 10
4574.244281609728
 20
-3975.341826578684
 10
4573.41094761081
 20
-3975.341826578684
 97
        0
 75
     0
 76
     1
 98
        0
  0
LWPOLYLINE
  5
362
330
1F
100
AcDbEntity
  8
Ech.1_2
 62
     7
370
     9
100
AcDbPolyline
 90
        5
 70
     0
 43
0.0
 10
4573.41094761081
 20
-3977.60154857873
 10
4574.244281609728
 20
-3977.60154857873
 10
4574.244281609728
 20
-3975.341826578684
 10
4573.41094761081
 20
-3975.341826578684
 10
4573.41094761081
 20
-3977.60154857873
  0
HATCH
  5
363
330
1F
100
AcDbEntity
  8
Ech.1_2
 62
   252
440
 33554687
370
     5
100
AcDbHatch
 10
0.0
 20
0.0
 30
0.0
210
0.0
220
0.0
230
1.0
  2
SOLID
 70
     1
 71
     1
 91
        1
 92
        3
 72
     0
 73
     1
 93
        4
 10
4574.244281609728
 20
-3977.60154857873
 10
4575.077615608647
 20
-3977.60154857873
 10
4575.077615608647
 20
-3975.341826578684
 10
4574.244281609728
 20
-3975.341826578684
 97
        0
 75
     0
 76
     1
 98
        0
  0
LWPOLYLINE
  5
364
330
1F
100
AcDbEntity
  8
Ech.1_2
 62
     7
370
     9
100
AcDbPolyline
 90
        5
 70
     0
 43
0.0
 10
4574.244281609728
 20
-3977.60154857873
 10
4575.077615608647
 20
-3977.60154857873
 10
4575.077615608647
 20
-3975.341826578684
 10
4574.244281609728
 20
-3975.341826578684
 10
4574.244281609728
 20
-3977.60154857873
  0
HATCH
  5
365
330
1F
100
AcDbEntity
  8
Ech.1_2
 62
   252
440
 33554687
370
     5
100
AcDbHatch
 10
0.0
 20
0.0
 30
0.0
210
0.0
220
0.0
230
1.0
  2
SOLID
 70
     1
 71
     1
 91
        1
 92
        3
 72
     0
 73
     1
 93
        4
 10
4575.077615608647
 20
-3977.60154857873
 10
4575.910949607565
 20
-3977.60154857873
 10
4575.910949607565
 20
-3975.341826578684
 10
4575.077615608647
 20
-3975.341826578684
 97
        0
 75
     0
 76
     1
 98
        0
  0
LWPOLYLINE
  5
366
330
1F
100
AcDbEntity
  8
Ech.1_2
 62
     7
370
     9
100
AcDbPolyline
 90
        5
 70
     0
 43
0.0
 10
4575.077615608647
 20
-3977.60154857873
 10
4575.910949607565
 20
-3977.60154857873
 10
4575.910949607565
 20
-3975.341826578684
 10
4575.077615608647
 20
-3975.341826578684
 10
4575.077615608647
 20
-3977.60154857873
  0
HATCH
  5
367
330
1F
100
AcDbEntity
  8
Ech.1_2
 62
   252
440
 33554687
370
     5
100
AcDbHatch
 10
0.0
 20
0.0
 30
0.0
210
0.0
220
0.0
230
1.0
  2
SOLID
 70
     1
 71
     1
 91
        1
 92
        3
 72
     0
 73
     1
 93
        4
 10
4575.91094761081
 20
-3977.60154857873
 10
4576.744281609728
 20
-3977.60154857873
 10
4576.744281609728
 20
-3975.341826578684
 10
4575.91094761081
 20
-3975.341826578684
 97
        0
 75
     0
 76
     1
 98
        0
  0
LWPOLYLINE
  5
368
330
1F
100
AcDbEntity
  8
Ech.1_2
 62
     7
370
     9
100
AcDbPolyline
 90
        5
 70
     0
 43
0.0
 10
4575.91094761081
 20
-3977.60154857873
 10
4576.744281609728
 20
-3977.60154857873
 10
4576.744281609728
 20
-3975.341826578684
 10
4575.91094761081
 20
-3975.341826578684
 10
4575.91094761081
 20
-3977.60154857873
  0
HATCH
  5
369
330
1F
100
AcDbEntity
  8
Ech.1_2
 62
   252
440
 33554687
370
     5
100
AcDbHatch
 10
0.0
 20
0.0
 30
0.0
210
0.0
220
0.0
230
1.0
  2
SOLID
 70
     1
 71
     1
 91
        1
 92
        3
 72
     0
 73
     1
 93
        4
 10
4576.74428061135
 20
-3977.60154857873
 10
4577.577614610269
 20
-3977.60154857873
 10
4577.577614610269
 20
-3975.341826578684
 10
4576.74428061135
 20
-3975.341826578684
 97
        0
 75
     0
 76
     1
 98
        0
  0
LWPOLYLINE
  5
36A
330
1F
100
AcDbEntity
  8
Ech.1_2
 62
     7
370
     9
100
AcDbPolyline
 90
        5
 70
     0
 43
0.0
 10
4576.74428061135
 20
-3977.60154857873
 10
4577.577614610269
 20
-3977.60154857873
 10
4577.577614610269
 20
-3975.341826578684
 10
4576.74428061135
 20
-3975.341826578684
 10
4576.74428061135
 20
-3977.60154857873
  0
HATCH
  5
36B
330
1F
100
AcDbEntity
  8
Ech.1_2
 62
   252
440
 33554687
370
     5
100
AcDbHatch
 10
0.0
 20
0.0
 30
0.0
210
0.0
220
0.0
230
1.0
  2
SOLID
 70
     1
 71
     1
 91
        1
 92
        3
 72
     0
 73
     1
 93
        4
 10
4577.577614610269
 20
-3977.60154857873
 10
4578.410948609187
 20
-3977.60154857873
 10
4578.410948609187
 20
-3975.341826578684
 10
4577.577614610269
 20
-3975.341826578684
 97
        0
 75
     0
 76
     1
 98
        0
  0
LWPOLYLINE
  5
36C
330
1F
100
AcDbEntity
  8
Ech.1_2
 62
     7
370
     9
100
AcDbPolyline
 90
        5
 70
     0
 43
0.0
 10
4577.577614610269
 20
-3977.60154857873
 10
4578.410948609187
 20
-3977.60154857873
 10
4578.410948609187
 20
-3975.341826578684
 10
4577.577614610269
 20
-3975.341826578684
 10
4577.577614610269
 20
-3977.60154857873
  0
HATCH
  5
36D
330
1F
100
AcDbEntity
  8
Ech.1_2
 62
   252
440
 33554687
370
     5
100
AcDbHatch
 10
0.0
 20
0.0
 30
0.0
210
0.0
220
0.0
230
1.0
  2
SOLID
 70
     1
 71
     1
 91
        1
 92
        3
 72
     0
 73
     1
 93
        4
 10
4578.41094761081
 20
-3977.60154857873
 10
4579.244281609728
 20
-3977.60154857873
 10
4579.244281609728
 20
-3975.341826578684
 10
4578.41094761081
 20
-3975.341826578684
 97
        0
 75
     0
 76
     1
 98
        0
  0
LWPOLYLINE
  5
36E
330
1F
100
AcDbEntity
  8
Ech.1_2
 62
     7
370
     9
100
AcDbPolyline
 90
        5
 70
     0
 43
0.0
 10
4578.41094761081
 20
-3977.60154857873
 10
4579.244281609728
 20
-3977.60154857873
 10
4579.244281609728
 20
-3975.341826578684
 10
4578.41094761081
 20
-3975.341826578684
 10
4578.41094761081
 20
-3977.60154857873
  0
HATCH
  5
36F
330
1F
100
AcDbEntity
  8
Ech.1_2
 62
   252
440
 33554687
370
     5
100
AcDbHatch
 10
0.0
 20
0.0
 30
0.0
210
0.0
220
0.0
230
1.0
  2
SOLID
 70
     1
 71
     1
 91
        1
 92
        3
 72
     0
 73
     1
 93
        4
 10
4579.244281609728
 20
-3977.60154857873
 10
4580.077615608647
 20
-3977.60154857873
 10
4580.077615608647
 20
-3975.341826578684
 10
4579.244281609728
 20
-3975.341826578684
 97
        0
 75
     0
 76
     1
 98
        0
  0
LWPOLYLINE
  5
370
330
1F
100
AcDbEntity
  8
Ech.1_2
 62
     7
370
     9
100
AcDbPolyline
 90
        5
 70
     0
 43
0.0
 10
4579.244281609728
 20
-3977.60154857873
 10
4580.077615608647
 20
-3977.60154857873
 10
4580.077615608647
 20
-3975.341826578684
 10
4579.244281609728
 20
-3975.341826578684
 10
4579.244281609728
 20
-3977.60154857873
  0
HATCH
  5
371
330
1F
100
AcDbEntity
  8
Ech.1_2
 62
   252
440
 33554687
370
     5
100
AcDbHatch
 10
0.0
 20
0.0
 30
0.0
210
0.0
220
0.0
230
1.0
  2
SOLID
 70
     1
 71
     1
 91
        1
 92
        3
 72
     0
 73
     1
 93
        4
 10
4580.077613611891
 20
-3977.60154857873
 10
4580.91094761081
 20
-3977.60154857873
 10
4580.91094761081
 20
-3975.341826578684
 10
4580.077613611891
 20
-3975.341826578684
 97
        0
 75
     0
 76
     1
 98
        0
  0
LWPOLYLINE
  5
372
330
1F
100
AcDbEntity
  8
Ech.1_2
 62
     7
370
     9
100
AcDbPolyline
 90
        5
 70
     0
 43
0.0
 10
4580.077613611891
 20
-3977.60154857873
 10
4580.91094761081
 20
-3977.60154857873
 10
4580.91094761081
 20
-3975.341826578684
 10
4580.077613611891
 20
-3975.341826578684
 10
4580.077613611891
 20
-3977.60154857873
  0
HATCH
  5
373
330
1F
100
AcDbEntity
  8
Ech.1_2
 62
   252
440
 33554687
370
     5
100
AcDbHatch
 10
0.0
 20
0.0
 30
0.0
210
0.0
220
0.0
230
1.0
  2
SOLID
 70
     1
 71
     1
 91
        1
 92
        3
 72
     0
 73
     1
 93
        4
 10
4580.91094761081
 20
-3977.60154857873
 10
4581.744281609728
 20
-3977.60154857873
 10
4581.744281609728
 20
-3975.341826578684
 10
4580.91094761081
 20
-3975.341826578684
 97
        0
 75
     0
 76
     1
 98
        0
  0
LWPOLYLINE
  5
374
330
1F
100
AcDbEntity
  8
Ech.1_2
 62
     7
370
     9
100
AcDbPolyline
 90
        5
 70
     0
 43
0.0
 10
4580.91094761081
 20
-3977.60154857873
 10
4581.744281609728
 20
-3977.60154857873
 10
4581.744281609728
 20
-3975.341826578684
 10
4580.91094761081
 20
-3975.341826578684
 10
4580.91094761081
 20
-3977.60154857873
  0
HATCH
  5
375
330
1F
100
AcDbEntity
  8
Ech.1_2
 62
   252
440
 33554687
370
     5
100
AcDbHatch
 10
0.0
 20
0.0
 30
0.0
210
0.0
220
0.0
230
1.0
  2
SOLID
 70
     1
 71
     1
 91
        1
 92
        3
 72
     0
 73
     1
 93
        4
 10
4581.744281609728
 20
-3977.60154857873
 10
4582.577615608647
 20
-3977.60154857873
 10
4582.577615608649
 20
-3975.341826578684
 10
4581.744281609728
 20
-3975.341826578684
 97
        0
 75
     0
 76
     1
 98
        0
  0
LWPOLYLINE
  5
376
330
1F
100
AcDbEntity
  8
Ech.1_2
 62
     7
370
     9
100
AcDbPolyline
 90
        5
 70
     0
 43
0.0
 10
4581.744281609728
 20
-3977.60154857873
 10
4582.577615608647
 20
-3977.60154857873
 10
4582.577615608649
 20
-3975.341826578684
 10
4581.744281609728
 20
-3975.341826578684
 10
4581.744281609728
 20
-3977.60154857873
  0
HATCH
  5
377
330
1F
100
AcDbEntity
  8
Ech.1_2
 62
   252
440
 33554687
370
     5
100
AcDbHatch
 10
0.0
 20
0.0
 30
0.0
210
0.0
220
0.0
230
1.0
  2
SOLID
 70
     1
 71
     1
 91
        1
 92
        3
 72
     0
 73
     1
 93
        4
 10
4582.577615608647
 20
-3977.60154857873
 10
4583.410949607565
 20
-3977.60154857873
 10
4583.410949607565
 20
-3975.341826578684
 10
4582.577615608649
 20
-3975.341826578684
 97
        0
 75
     0
 76
     1
 98
        0
  0
LWPOLYLINE
  5
378
330
1F
100
AcDbEntity
  8
Ech.1_2
 62
     7
370
     9
100
AcDbPolyline
 90
        5
 70
     0
 43
0.0
 10
4582.577615608647
 20
-3977.60154857873
 10
4583.410949607565
 20
-3977.60154857873
 10
4583.410949607565
 20
-3975.341826578684
 10
4582.577615608649
 20
-3975.341826578684
 10
4582.577615608647
 20
-3977.60154857873
  0
HATCH
  5
379
330
1F
100
AcDbEntity
  8
Ech.1_2
 62
   252
440
 33554687
370
     5
100
AcDbHatch
 10
0.0
 20
0.0
 30
0.0
210
0.0
220
0.0
230
1.0
  2
SOLID
 70
     1
 71
     1
 91
        1
 92
        3
 72
     0
 73
     1
 93
        4
 10
4583.410949607565
 20
-3977.60154857873
 10
4584.244283606484
 20
-3977.60154857873
 10
4584.244283606484
 20
-3975.341826578684
 10
4583.410949607565
 20
-3975.341826578684
 97
        0
 75
     0
 76
     1
 98
        0
  0
LWPOLYLINE
  5
37A
330
1F
100
AcDbEntity
  8
Ech.1_2
 62
     7
370
     9
100
AcDbPolyline
 90
        5
 70
     0
 43
0.0
 10
4583.410949607565
 20
-3977.60154857873
 10
4584.244283606484
 20
-3977.60154857873
 10
4584.244283606484
 20
-3975.341826578684
 10
4583.410949607565
 20
-3975.341826578684
 10
4583.410949607565
 20
-3977.60154857873
  0
HATCH
  5
37B
330
1F
100
AcDbEntity
  8
Ech.1_2
 62
   252
440
 33554687
370
     5
100
AcDbHatch
 10
0.0
 20
0.0
 30
0.0
210
0.0
220
0.0
230
1.0
  2
SOLID
 70
     1
 71
     1
 91
        1
 92
        3
 72
     0
 73
     1
 93
        4
 10
4584.244281609728
 20
-3977.60154857873
 10
4585.077615608647
 20
-3977.60154857873
 10
4585.077615608647
 20
-3975.341826578684
 10
4584.244281609728
 20
-3975.341826578684
 97
        0
 75
     0
 76
     1
 98
        0
  0
LWPOLYLINE
  5
37C
330
1F
100
AcDbEntity
  8
Ech.1_2
 62
     7
370
     9
100
AcDbPolyline
 90
        5
 70
     0
 43
0.0
 10
4584.244281609728
 20
-3977.60154857873
 10
4585.077615608647
 20
-3977.60154857873
 10
4585.077615608647
 20
-3975.341826578684
 10
4584.244281609728
 20
-3975.341826578684
 10
4584.244281609728
 20
-3977.60154857873
  0
HATCH
  5
37D
330
1F
100
AcDbEntity
  8
Ech.1_2
 62
   252
440
 33554687
370
     5
100
AcDbHatch
 10
0.0
 20
0.0
 30
0.0
210
0.0
220
0.0
230
1.0
  2
SOLID
 70
     1
 71
     1
 91
        1
 92
        3
 72
     0
 73
     1
 93
        4
 10
4585.077614610269
 20
-3977.60154857873
 10
4585.910948609187
 20
-3977.60154857873
 10
4585.910948609187
 20
-3975.341826578684
 10
4585.077614610269
 20
-3975.341826578684
 97
        0
 75
     0
 76
     1
 98
        0
  0
LWPOLYLINE
  5
37E
330
1F
100
AcDbEntity
  8
Ech.1_2
 62
     7
370
     9
100
AcDbPolyline
 90
        5
 70
     0
 43
0.0
 10
4585.077614610269
 20
-3977.60154857873
 10
4585.910948609187
 20
-3977.60154857873
 10
4585.910948609187
 20
-3975.341826578684
 10
4585.077614610269
 20
-3975.341826578684
 10
4585.077614610269
 20
-3977.60154857873
  0
HATCH
  5
37F
330
1F
100
AcDbEntity
  8
Ech.1_2
 62
   252
440
 33554687
370
     5
100
AcDbHatch
 10
0.0
 20
0.0
 30
0.0
210
0.0
220
0.0
230
1.0
  2
SOLID
 70
     1
 71
     1
 91
        1
 92
        3
 72
     0
 73
     1
 93
        4
 10
4585.910948609187
 20
-3977.60154857873
 10
4586.744282608106
 20
-3977.60154857873
 10
4586.744282608106
 20
-3975.341826578684
 10
4585.910948609187
 20
-3975.341826578684
 97
        0
 75
     0
 76
     1
 98
        0
  0
LWPOLYLINE
  5
380
330
1F
100
AcDbEntity
  8
Ech.1_2
 62
     7
370
     9
100
AcDbPolyline
 90
        5
 70
     0
 43
0.0
 10
4585.910948609187
 20
-3977.60154857873
 10
4586.744282608106
 20
-3977.60154857873
 10
4586.744282608106
 20
-3975.341826578684
 10
4585.910948609187
 20
-3975.341826578684
 10
4585.910948609187
 20
-3977.60154857873
  0
HATCH
  5
381
330
1F
100
AcDbEntity
  8
Ech.1_2
 62
   252
440
 33554687
370
     5
100
AcDbHatch
 10
0.0
 20
0.0
 30
0.0
210
0.0
220
0.0
230
1.0
  2
SOLID
 70
     1
 71
     1
 91
        1
 92
        3
 72
     0
 73
     1
 93
        4
 10
4586.744281609728
 20
-3977.60154857873
 10
4587.577615608647
 20
-3977.60154857873
 10
4587.577615608647
 20
-3975.341826578684
 10
4586.744281609728
 20
-3975.341826578684
 97
        0
 75
     0
 76
     1
 98
        0
  0
LWPOLYLINE
  5
382
330
1F
100
AcDbEntity
  8
Ech.1_2
 62
     7
370
     9
100
AcDbPolyline
 90
        5
 70
     0
 43
0.0
 10
4586.744281609728
 20
-3977.60154857873
 10
4587.577615608647
 20
-3977.60154857873
 10
4587.577615608647
 20
-3975.341826578684
 10
4586.744281609728
 20
-3975.341826578684
 10
4586.744281609728
 20
-3977.60154857873
  0
HATCH
  5
383
330
1F
100
AcDbEntity
  8
Ech.1_2
 62
   252
440
 33554687
370
     5
100
AcDbHatch
 10
0.0
 20
0.0
 30
0.0
210
0.0
220
0.0
230
1.0
  2
SOLID
 70
     1
 71
     1
 91
        1
 92
        3
 72
     0
 73
     1
 93
        4
 10
4587.577615608647
 20
-3977.60154857873
 10
4588.410949607565
 20
-3977.60154857873
 10
4588.410949607565
 20
-3975.341826578684
 10
4587.577615608647
 20
-3975.341826578684
 97
        0
 75
     0
 76
     1
 98
        0
  0
LWPOLYLINE
  5
384
330
1F
100
AcDbEntity
  8
Ech.1_2
 62
     7
370
     9
100
AcDbPolyline
 90
        5
 70
     0
 43
0.0
 10
4587.577615608647
 20
-3977.60154857873
 10
4588.410949607565
 20
-3977.60154857873
 10
4588.410949607565
 20
-3975.341826578684
 10
4587.577615608647
 20
-3975.341826578684
 10
4587.577615608647
 20
-3977.60154857873
  0
HATCH
  5
385
330
1F
100
AcDbEntity
  8
Ech.1_2
 62
   252
440
 33554687
370
     5
100
AcDbHatch
 10
0.0
 20
0.0
 30
0.0
210
0.0
220
0.0
230
1.0
  2
SOLID
 70
     1
 71
     1
 91
        1
 92
        3
 72
     0
 73
     1
 93
        4
 10
4588.41094761081
 20
-3977.60154857873
 10
4589.244281609728
 20
-3977.60154857873
 10
4589.244281609728
 20
-3975.341826578684
 10
4588.41094761081
 20
-3975.341826578684
 97
        0
 75
     0
 76
     1
 98
        0
  0
LWPOLYLINE
  5
386
330
1F
100
AcDbEntity
  8
Ech.1_2
 62
     7
370
     9
100
AcDbPolyline
 90
        5
 70
     0
 43
0.0
 10
4588.41094761081
 20
-3977.60154857873
 10
4589.244281609728
 20
-3977.60154857873
 10
4589.244281609728
 20
-3975.341826578684
 10
4588.41094761081
 20
-3975.341826578684
 10
4588.41094761081
 20
-3977.60154857873
  0
HATCH
  5
387
330
1F
100
AcDbEntity
  8
Ech.1_2
 62
   252
440
 33554687
370
     5
100
AcDbHatch
 10
0.0
 20
0.0
 30
0.0
210
0.0
220
0.0
230
1.0
  2
SOLID
 70
     1
 71
     1
 91
        1
 92
        3
 72
     0
 73
     1
 93
        4
 10
4589.244281609728
 20
-3977.60154857873
 10
4590.077615608647
 20
-3977.60154857873
 10
4590.077615608647
 20
-3975.341826578684
 10
4589.244281609728
 20
-3975.341826578684
 97
        0
 75
     0
 76
     1
 98
        0
  0
LWPOLYLINE
  5
388
330
1F
100
AcDbEntity
  8
Ech.1_2
 62
     7
370
     9
100
AcDbPolyline
 90
        5
 70
     0
 43
0.0
 10
4589.244281609728
 20
-3977.60154857873
 10
4590.077615608647
 20
-3977.60154857873
 10
4590.077615608647
 20
-3975.341826578684
 10
4589.244281609728
 20
-3975.341826578684
 10
4589.244281609728
 20
-3977.60154857873
  0
HATCH
  5
389
330
1F
100
AcDbEntity
  8
Ech.1_2
 62
   252
440
 33554687
370
     5
100
AcDbHatch
 10
0.0
 20
0.0
 30
0.0
210
0.0
220
0.0
230
1.0
  2
SOLID
 70
     1
 71
     1
 91
        1
 92
        3
 72
     0
 73
     1
 93
        4
 10
4590.077615608647
 20
-3977.60154857873
 10
4590.910949607565
 20
-3977.60154857873
 10
4590.910949607565
 20
-3975.341826578684
 10
4590.077615608647
 20
-3975.341826578684
 97
        0
 75
     0
 76
     1
 98
        0
  0
LWPOLYLINE
  5
38A
330
1F
100
AcDbEntity
  8
Ech.1_2
 62
     7
370
     9
100
AcDbPolyline
 90
        5
 70
     0
 43
0.0
 10
4590.077615608647
 20
-3977.60154857873
 10
4590.910949607565
 20
-3977.60154857873
 10
4590.910949607565
 20
-3975.341826578684
 10
4590.077615608647
 20
-3975.341826578684
 10
4590.077615608647
 20
-3977.60154857873
  0
HATCH
  5
38B
330
1F
100
AcDbEntity
  8
Ech.1_2
 62
   252
440
 33554687
370
     5
100
AcDbHatch
 10
0.0
 20
0.0
 30
0.0
210
0.0
220
0.0
230
1.0
  2
SOLID
 70
     1
 71
     1
 91
        1
 92
        3
 72
     0
 73
     1
 93
        4
 10
4590.910949607565
 20
-3977.60154857873
 10
4591.744283606486
 20
-3977.60154857873
 10
4591.744283606484
 20
-3975.341826578684
 10
4590.910949607565
 20
-3975.341826578684
 97
        0
 75
     0
 76
     1
 98
        0
  0
LWPOLYLINE
  5
38C
330
1F
100
AcDbEntity
  8
Ech.1_2
 62
     7
370
     9
100
AcDbPolyline
 90
        5
 70
     0
 43
0.0
 10
4590.910949607565
 20
-3977.60154857873
 10
4591.744283606486
 20
-3977.60154857873
 10
4591.744283606484
 20
-3975.341826578684
 10
4590.910949607565
 20
-3975.341826578684
 10
4590.910949607565
 20
-3977.60154857873
  0
HATCH
  5
38D
330
1F
100
AcDbEntity
  8
Ech.1_2
 62
   252
440
 33554687
370
     5
100
AcDbHatch
 10
0.0
 20
0.0
 30
0.0
210
0.0
220
0.0
230
1.0
  2
SOLID
 70
     1
 71
     1
 91
        1
 92
        3
 72
     0
 73
     1
 93
        4
 10
4591.744283606486
 20
-3977.60154857873
 10
4592.577617605402
 20
-3977.60154857873
 10
4592.577617605402
 20
-3975.341826578684
 10
4591.744283606484
 20
-3975.341826578684
 97
        0
 75
     0
 76
     1
 98
        0
  0
LWPOLYLINE
  5
38E
330
1F
100
AcDbEntity
  8
Ech.1_2
 62
     7
370
     9
100
AcDbPolyline
 90
        5
 70
     0
 43
0.0
 10
4591.744283606486
 20
-3977.60154857873
 10
4592.577617605402
 20
-3977.60154857873
 10
4592.577617605402
 20
-3975.341826578684
 10
4591.744283606484
 20
-3975.341826578684
 10
4591.744283606486
 20
-3977.60154857873
  0
HATCH
  5
38F
330
1F
100
AcDbEntity
  8
Ech.1_2
 62
   252
440
 33554687
370
     5
100
AcDbHatch
 10
0.0
 20
0.0
 30
0.0
210
0.0
220
0.0
230
1.0
  2
SOLID
 70
     1
 71
     1
 91
        1
 92
        3
 72
     0
 73
     1
 93
        4
 10
4592.577615608647
 20
-3977.60154857873
 10
4593.410949607565
 20
-3977.60154857873
 10
4593.410949607565
 20
-3975.341826578684
 10
4592.577615608647
 20
-3975.341826578684
 97
        0
 75
     0
 76
     1
 98
        0
  0
LWPOLYLINE
  5
390
330
1F
100
AcDbEntity
  8
Ech.1_2
 62
     7
370
     9
100
AcDbPolyline
 90
        5
 70
     0
 43
0.0
 10
4592.577615608647
 20
-3977.60154857873
 10
4593.410949607565
 20
-3977.60154857873
 10
4593.410949607565
 20
-3975.341826578684
 10
4592.577615608647
 20
-3975.341826578684
 10
4592.577615608647
 20
-3977.60154857873
  0
HATCH
  5
391
330
1F
100
AcDbEntity
  8
Ech.1_2
 62
   252
440
 33554687
370
     5
100
AcDbHatch
 10
0.0
 20
0.0
 30
0.0
210
0.0
220
0.0
230
1.0
  2
SOLID
 70
     1
 71
     1
 91
        1
 92
        3
 72
     0
 73
     1
 93
        4
 10
4593.410948609187
 20
-3977.60154857873
 10
4594.244282608106
 20
-3977.60154857873
 10
4594.244282608106
 20
-3975.341826578684
 10
4593.410948609187
 20
-3975.341826578684
 97
        0
 75
     0
 76
     1
 98
        0
  0
LWPOLYLINE
  5
392
330
1F
100
AcDbEntity
  8
Ech.1_2
 62
     7
370
     9
100
AcDbPolyline
 90
        5
 70
     0
 43
0.0
 10
4593.410948609187
 20
-3977.60154857873
 10
4594.244282608106
 20
-3977.60154857873
 10
4594.244282608106
 20
-3975.341826578684
 10
4593.410948609187
 20
-3975.341826578684
 10
4593.410948609187
 20
-3977.60154857873
  0
HATCH
  5
393
330
1F
100
AcDbEntity
  8
Ech.1_2
 62
   252
440
 33554687
370
     5
100
AcDbHatch
 10
0.0
 20
0.0
 30
0.0
210
0.0
220
0.0
230
1.0
  2
SOLID
 70
     1
 71
     1
 91
        1
 92
        3
 72
     0
 73
     1
 93
        4
 10
4594.244282608106
 20
-3977.60154857873
 10
4595.077616607025
 20
-3977.60154857873
 10
4595.077616607025
 20
-3975.341826578684
 10
4594.244282608106
 20
-3975.341826578684
 97
        0
 75
     0
 76
     1
 98
        0
  0
LWPOLYLINE
  5
394
330
1F
100
AcDbEntity
  8
Ech.1_2
 62
     7
370
     9
100
AcDbPolyline
 90
        5
 70
     0
 43
0.0
 10
4594.244282608106
 20
-3977.60154857873
 10
4595.077616607025
 20
-3977.60154857873
 10
4595.077616607025
 20
-3975.341826578684
 10
4594.244282608106
 20
-3975.341826578684
 10
4594.244282608106
 20
-3977.60154857873
  0
HATCH
  5
395
330
1F
100
AcDbEntity
  8
Ech.1_2
 62
   252
440
 33554687
370
     5
100
AcDbHatch
 10
0.0
 20
0.0
 30
0.0
210
0.0
220
0.0
230
1.0
  2
SOLID
 70
     1
 71
     1
 91
        1
 92
        3
 72
     0
 73
     1
 93
        4
 10
4595.077615608647
 20
-3977.60154857873
 10
4595.910949607565
 20
-3977.60154857873
 10
4595.910949607565
 20
-3975.341826578684
 10
4595.077615608647
 20
-3975.341826578684
 97
        0
 75
     0
 76
     1
 98
        0
  0
LWPOLYLINE
  5
396
330
1F
100
AcDbEntity
  8
Ech.1_2
 62
     7
370
     9
100
AcDbPolyline
 90
        5
 70
     0
 43
0.0
 10
4595.077615608647
 20
-3977.60154857873
 10
4595.910949607565
 20
-3977.60154857873
 10
4595.910949607565
 20
-3975.341826578684
 10
4595.077615608647
 20
-3975.341826578684
 10
4595.077615608647
 20
-3977.60154857873
  0
HATCH
  5
397
330
1F
100
AcDbEntity
  8
Ech.1_2
 62
   252
440
 33554687
370
     5
100
AcDbHatch
 10
0.0
 20
0.0
 30
0.0
210
0.0
220
0.0
230
1.0
  2
SOLID
 70
     1
 71
     1
 91
        1
 92
        3
 72
     0
 73
     1
 93
        4
 10
4595.910949607565
 20
-3977.60154857873
 10
4596.744283606484
 20
-3977.60154857873
 10
4596.744283606484
 20
-3975.341826578684
 10
4595.910949607565
 20
-3975.341826578684
 97
        0
 75
     0
 76
     1
 98
        0
  0
LWPOLYLINE
  5
398
330
1F
100
AcDbEntity
  8
Ech.1_2
 62
     7
370
     9
100
AcDbPolyline
 90
        5
 70
     0
 43
0.0
 10
4595.910949607565
 20
-3977.60154857873
 10
4596.744283606484
 20
-3977.60154857873
 10
4596.744283606484
 20
-3975.341826578684
 10
4595.910949607565
 20
-3975.341826578684
 10
4595.910949607565
 20
-3977.60154857873
  0
HATCH
  5
399
330
1F
100
AcDbEntity
  8
Ech.1_2
 62
   252
440
 33554687
370
     5
100
AcDbHatch
 10
0.0
 20
0.0
 30
0.0
210
0.0
220
0.0
230
1.0
  2
SOLID
 70
     1
 71
     1
 91
        1
 92
        3
 72
     0
 73
     1
 93
        4
 10
4596.744281609728
 20
-3977.60154857873
 10
4597.577615608647
 20
-3977.60154857873
 10
4597.577615608647
 20
-3975.341826578684
 10
4596.744281609728
 20
-3975.341826578684
 97
        0
 75
     0
 76
     1
 98
        0
  0
LWPOLYLINE
  5
39A
330
1F
100
AcDbEntity
  8
Ech.1_2
 62
     7
370
     9
100
AcDbPolyline
 90
        5
 70
     0
 43
0.0
 10
4596.744281609728
 20
-3977.60154857873
 10
4597.577615608647
 20
-3977.60154857873
 10
4597.577615608647
 20
-3975.341826578684
 10
4596.744281609728
 20
-3975.341826578684
 10
4596.744281609728
 20
-3977.60154857873
  0
HATCH
  5
39B
330
1F
100
AcDbEntity
  8
Ech.1_2
 62
   252
440
 33554687
370
     5
100
AcDbHatch
 10
0.0
 20
0.0
 30
0.0
210
0.0
220
0.0
230
1.0
  2
SOLID
 70
     1
 71
     1
 91
        1
 92
        3
 72
     0
 73
     1
 93
        4
 10
4597.577613611891
 20
-3977.60154857873
 10
4598.41094761081
 20
-3977.60154857873
 10
4598.41094761081
 20
-3975.341826578684
 10
4597.577613611891
 20
-3975.341826578684
 97
        0
 75
     0
 76
     1
 98
        0
  0
LWPOLYLINE
  5
39C
330
1F
100
AcDbEntity
  8
Ech.1_2
 62
     7
370
     9
100
AcDbPolyline
 90
        5
 70
     0
 43
0.0
 10
4597.577613611891
 20
-3977.60154857873
 10
4598.41094761081
 20
-3977.60154857873
 10
4598.41094761081
 20
-3975.341826578684
 10
4597.577613611891
 20
-3975.341826578684
 10
4597.577613611891
 20
-3977.60154857873
  0
HATCH
  5
39D
330
1F
100
AcDbEntity
  8
Ech.1_2
 62
   252
440
 33554687
370
     5
100
AcDbHatch
 10
0.0
 20
0.0
 30
0.0
210
0.0
220
0.0
230
1.0
  2
SOLID
 70
     1
 71
     1
 91
        1
 92
        3
 72
     0
 73
     1
 93
        4
 10
4598.41094761081
 20
-3977.60154857873
 10
4599.244281609728
 20
-3977.60154857873
 10
4599.244281609728
 20
-3975.341826578684
 10
4598.41094761081
 20
-3975.341826578684
 97
        0
 75
     0
 76
     1
 98
        0
  0
LWPOLYLINE
  5
39E
330
1F
100
AcDbEntity
  8
Ech.1_2
 62
     7
370
     9
100
AcDbPolyline
 90
        5
 70
     0
 43
0.0
 10
4598.41094761081
 20
-3977.60154857873
 10
4599.244281609728
 20
-3977.60154857873
 10
4599.244281609728
 20
-3975.341826578684
 10
4598.41094761081
 20
-3975.341826578684
 10
4598.41094761081
 20
-3977.60154857873
  0
HATCH
  5
39F
330
1F
100
AcDbEntity
  8
Ech.1_2
 62
   252
440
 33554687
370
     5
100
AcDbHatch
 10
0.0
 20
0.0
 30
0.0
210
0.0
220
0.0
230
1.0
  2
SOLID
 70
     1
 71
     1
 91
        1
 92
        3
 72
     0
 73
     1
 93
        4
 10
4599.244281609728
 20
-3977.60154857873
 10
4600.077615608647
 20
-3977.60154857873
 10
4600.077615608647
 20
-3975.341826578684
 10
4599.244281609728
 20
-3975.341826578684
 97
        0
 75
     0
 76
     1
 98
        0
  0
LWPOLYLINE
  5
3A0
330
1F
100
AcDbEntity
  8
Ech.1_2
 62
     7
370
     9
100
AcDbPolyline
 90
        5
 70
     0
 43
0.0
 10
4599.244281609728
 20
-3977.60154857873
 10
4600.077615608647
 20
-3977.60154857873
 10
4600.077615608647
 20
-3975.341826578684
 10
4599.244281609728
 20
-3975.341826578684
 10
4599.244281609728
 20
-3977.60154857873
  0
HATCH
  5
3A1
330
1F
100
AcDbEntity
  8
Ech.1_2
 62
   252
440
 33554687
370
     5
100
AcDbHatch
 10
0.0
 20
0.0
 30
0.0
210
0.0
220
0.0
230
1.0
  2
SOLID
 70
     1
 71
     1
 91
        1
 92
        3
 72
     0
 73
     1
 93
        4
 10
4600.077615608647
 20
-3977.60154857873
 10
4600.910949607565
 20
-3977.60154857873
 10
4600.910949607565
 20
-3975.341826578684
 10
4600.077615608647
 20
-3975.341826578684
 97
        0
 75
     0
 76
     1
 98
        0
  0
LWPOLYLINE
  5
3A2
330
1F
100
AcDbEntity
  8
Ech.1_2
 62
     7
370
     9
100
AcDbPolyline
 90
        5
 70
     0
 43
0.0
 10
4600.077615608647
 20
-3977.60154857873
 10
4600.910949607565
 20
-3977.60154857873
 10
4600.910949607565
 20
-3975.341826578684
 10
4600.077615608647
 20
-3975.341826578684
 10
4600.077615608647
 20
-3977.60154857873
  0
HATCH
  5
3A3
330
1F
100
AcDbEntity
  8
Ech.1_2
 62
   252
440
 33554687
370
     5
100
AcDbHatch
 10
0.0
 20
0.0
 30
0.0
210
0.0
220
0.0
230
1.0
  2
SOLID
 70
     1
 71
     1
 91
        1
 92
        3
 72
     0
 73
     1
 93
        4
 10
4600.91094761081
 20
-3977.60154857873
 10
4601.744281609728
 20
-3977.60154857873
 10
4601.744281609728
 20
-3975.341826578684
 10
4600.91094761081
 20
-3975.341826578684
 97
        0
 75
     0
 76
     1
 98
        0
  0
LWPOLYLINE
  5
3A4
330
1F
100
AcDbEntity
  8
Ech.1_2
 62
     7
370
     9
100
AcDbPolyline
 90
        5
 70
     0
 43
0.0
 10
4600.91094761081
 20
-3977.60154857873
 10
4601.744281609728
 20
-3977.60154857873
 10
4601.744281609728
 20
-3975.341826578684
 10
4600.91094761081
 20
-3975.341826578684
 10
4600.91094761081
 20
-3977.60154857873
  0
HATCH
  5
3A5
330
1F
100
AcDbEntity
  8
Ech.1_2
 62
   252
440
 33554687
370
     5
100
AcDbHatch
 10
0.0
 20
0.0
 30
0.0
210
0.0
220
0.0
230
1.0
  2
SOLID
 70
     1
 71
     1
 91
        1
 92
        3
 72
     0
 73
     1
 93
        4
 10
4601.74428061135
 20
-3977.60154857873
 10
4602.577614610269
 20
-3977.60154857873
 10
4602.577614610269
 20
-3975.341826578684
 10
4601.74428061135
 20
-3975.341826578684
 97
        0
 75
     0
 76
     1
 98
        0
  0
LWPOLYLINE
  5
3A6
330
1F
100
AcDbEntity
  8
Ech.1_2
 62
     7
370
     9
100
AcDbPolyline
 90
        5
 70
     0
 43
0.0
 10
4601.74428061135
 20
-3977.60154857873
 10
4602.577614610269
 20
-3977.60154857873
 10
4602.577614610269
 20
-3975.341826578684
 10
4601.74428061135
 20
-3975.341826578684
 10
4601.74428061135
 20
-3977.60154857873
  0
HATCH
  5
3A7
330
1F
100
AcDbEntity
  8
Ech.1_2
 62
   252
440
 33554687
370
     5
100
AcDbHatch
 10
0.0
 20
0.0
 30
0.0
210
0.0
220
0.0
230
1.0
  2
SOLID
 70
     1
 71
     1
 91
        1
 92
        3
 72
     0
 73
     1
 93
        4
 10
4602.577614610269
 20
-3977.60154857873
 10
4603.410948609187
 20
-3977.60154857873
 10
4603.410948609187
 20
-3975.341826578684
 10
4602.577614610269
 20
-3975.341826578684
 97
        0
 75
     0
 76
     1
 98
        0
  0
LWPOLYLINE
  5
3A8
330
1F
100
AcDbEntity
  8
Ech.1_2
 62
     7
370
     9
100
AcDbPolyline
 90
        5
 70
     0
 43
0.0
 10
4602.577614610269
 20
-3977.60154857873
 10
4603.410948609187
 20
-3977.60154857873
 10
4603.410948609187
 20
-3975.341826578684
 10
4602.577614610269
 20
-3975.341826578684
 10
4602.577614610269
 20
-3977.60154857873
  0
HATCH
  5
3A9
330
1F
100
AcDbEntity
  8
Ech.1_2
 62
   252
440
 33554687
370
     5
100
AcDbHatch
 10
0.0
 20
0.0
 30
0.0
210
0.0
220
0.0
230
1.0
  2
SOLID
 70
     1
 71
     1
 91
        1
 92
        3
 72
     0
 73
     1
 93
        4
 10
4603.41094761081
 20
-3977.60154857873
 10
4604.244281609728
 20
-3977.60154857873
 10
4604.244281609728
 20
-3975.341826578684
 10
4603.41094761081
 20
-3975.341826578684
 97
        0
 75
     0
 76
     1
 98
        0
  0
LWPOLYLINE
  5
3AA
330
1F
100
AcDbEntity
  8
Ech.1_2
 62
     7
370
     9
100
AcDbPolyline
 90
        5
 70
     0
 43
0.0
 10
4603.41094761081
 20
-3977.60154857873
 10
4604.244281609728
 20
-3977.60154857873
 10
4604.244281609728
 20
-3975.341826578684
 10
4603.41094761081
 20
-3975.341826578684
 10
4603.41094761081
 20
-3977.60154857873
  0
HATCH
  5
3AB
330
1F
100
AcDbEntity
  8
Ech.1_2
 62
   252
440
 33554687
370
     5
100
AcDbHatch
 10
0.0
 20
0.0
 30
0.0
210
0.0
220
0.0
230
1.0
  2
SOLID
 70
     1
 71
     1
 91
        1
 92
        3
 72
     0
 73
     1
 93
        4
 10
4604.244281609728
 20
-3977.60154857873
 10
4605.077615608647
 20
-3977.60154857873
 10
4605.077615608647
 20
-3975.341826578684
 10
4604.244281609728
 20
-3975.341826578684
 97
        0
 75
     0
 76
     1
 98
        0
  0
LWPOLYLINE
  5
3AC
330
1F
100
AcDbEntity
  8
Ech.1_2
 62
     7
370
     9
100
AcDbPolyline
 90
        5
 70
     0
 43
0.0
 10
4604.244281609728
 20
-3977.60154857873
 10
4605.077615608647
 20
-3977.60154857873
 10
4605.077615608647
 20
-3975.341826578684
 10
4604.244281609728
 20
-3975.341826578684
 10
4604.244281609728
 20
-3977.60154857873
  0
HATCH
  5
3AD
330
1F
100
AcDbEntity
  8
Ech.1_2
 62
   252
440
 33554687
370
     5
100
AcDbHatch
 10
0.0
 20
0.0
 30
0.0
210
0.0
220
0.0
230
1.0
  2
SOLID
 70
     1
 71
     1
 91
        1
 92
        3
 72
     0
 73
     1
 93
        4
 10
4605.077613611891
 20
-3977.60154857873
 10
4605.91094761081
 20
-3977.60154857873
 10
4605.91094761081
 20
-3975.341826578684
 10
4605.077613611891
 20
-3975.341826578684
 97
        0
 75
     0
 76
     1
 98
        0
  0
LWPOLYLINE
  5
3AE
330
1F
100
AcDbEntity
  8
Ech.1_2
 62
     7
370
     9
100
AcDbPolyline
 90
        5
 70
     0
 43
0.0
 10
4605.077613611891
 20
-3977.60154857873
 10
4605.91094761081
 20
-3977.60154857873
 10
4605.91094761081
 20
-3975.341826578684
 10
4605.077613611891
 20
-3975.341826578684
 10
4605.077613611891
 20
-3977.60154857873
  0
HATCH
  5
3AF
330
1F
100
AcDbEntity
  8
Ech.1_2
 62
   252
440
 33554687
370
     5
100
AcDbHatch
 10
0.0
 20
0.0
 30
0.0
210
0.0
220
0.0
230
1.0
  2
SOLID
 70
     1
 71
     1
 91
        1
 92
        3
 72
     0
 73
     1
 93
        4
 10
4605.91094761081
 20
-3977.60154857873
 10
4606.744281609728
 20
-3977.60154857873
 10
4606.744281609728
 20
-3975.341826578684
 10
4605.91094761081
 20
-3975.341826578684
 97
        0
 75
     0
 76
     1
 98
        0
  0
LWPOLYLINE
  5
3B0
330
1F
100
AcDbEntity
  8
Ech.1_2
 62
     7
370
     9
100
AcDbPolyline
 90
        5
 70
     0
 43
0.0
 10
4605.91094761081
 20
-3977.60154857873
 10
4606.744281609728
 20
-3977.60154857873
 10
4606.744281609728
 20
-3975.341826578684
 10
4605.91094761081
 20
-3975.341826578684
 10
4605.91094761081
 20
-3977.60154857873
  0
HATCH
  5
3B1
330
1F
100
AcDbEntity
  8
Ech.1_2
 62
   252
440
 33554687
370
     5
100
AcDbHatch
 10
0.0
 20
0.0
 30
0.0
210
0.0
220
0.0
230
1.0
  2
SOLID
 70
     1
 71
     1
 91
        1
 92
        3
 72
     0
 73
     1
 93
        4
 10
4606.744281609728
 20
-3977.60154857873
 10
4607.577615608647
 20
-3977.60154857873
 10
4607.577615608647
 20
-3975.341826578684
 10
4606.744281609728
 20
-3975.341826578684
 97
        0
 75
     0
 76
     1
 98
        0
  0
LWPOLYLINE
  5
3B2
330
1F
100
AcDbEntity
  8
Ech.1_2
 62
     7
370
     9
100
AcDbPolyline
 90
        5
 70
     0
 43
0.0
 10
4606.744281609728
 20
-3977.60154857873
 10
4607.577615608647
 20
-3977.60154857873
 10
4607.577615608647
 20
-3975.341826578684
 10
4606.744281609728
 20
-3975.341826578684
 10
4606.744281609728
 20
-3977.60154857873
  0
HATCH
  5
3B3
330
1F
100
AcDbEntity
  8
Ech.1_2
 62
   252
440
 33554687
370
     5
100
AcDbHatch
 10
0.0
 20
0.0
 30
0.0
210
0.0
220
0.0
230
1.0
  2
SOLID
 70
     1
 71
     1
 91
        1
 92
        3
 72
     0
 73
     1
 93
        4
 10
4607.577615608647
 20
-3977.60154857873
 10
4608.410949607565
 20
-3977.60154857873
 10
4608.410949607565
 20
-3975.341826578684
 10
4607.577615608647
 20
-3975.341826578684
 97
        0
 75
     0
 76
     1
 98
        0
  0
LWPOLYLINE
  5
3B4
330
1F
100
AcDbEntity
  8
Ech.1_2
 62
     7
370
     9
100
AcDbPolyline
 90
        5
 70
     0
 43
0.0
 10
4607.577615608647
 20
-3977.60154857873
 10
4608.410949607565
 20
-3977.60154857873
 10
4608.410949607565
 20
-3975.341826578684
 10
4607.577615608647
 20
-3975.341826578684
 10
4607.577615608647
 20
-3977.60154857873
  0
HATCH
  5
3B5
330
1F
100
AcDbEntity
  8
Ech.1_2
 62
   252
440
 33554687
370
     5
100
AcDbHatch
 10
0.0
 20
0.0
 30
0.0
210
0.0
220
0.0
230
1.0
  2
SOLID
 70
     1
 71
     1
 91
        1
 92
        3
 72
     1
 73
     1
 93
        4
 10
4613.110031609314
 20
-3975.341826578684
 42
0.0
 10
4611.744279612973
 20
-3975.341826578684
 42
0.0
 10
4611.744279612973
 20
-3977.60154857873
 42
0.0
 10
4613.110031609314
 20
-3977.60154857873
 42
-0.3513591548518968
 97
        0
 75
     0
 76
     1
 98
        0
  0
LWPOLYLINE
  5
3B6
330
1F
100
AcDbEntity
  8
Ech.1_2
 62
     7
370
     9
100
AcDbPolyline
 90
        5
 70
     0
 43
0.0
 10
4613.110031609314
 20
-3975.341826578684
 10
4611.744279612973
 20
-3975.341826578684
 10
4611.744279612973
 20
-3977.60154857873
 10
4613.110031609314
 20
-3977.60154857873
 42
-0.3513591548518972
 10
4613.110031609314
 20
-3975.341826578684
  0
HATCH
  5
3B7
330
1F
100
AcDbEntity
  8
Ech.1_2
 62
   252
440
 33554687
370
     5
100
AcDbHatch
 10
0.0
 20
0.0
 30
0.0
210
0.0
220
0.0
230
1.0
  2
SOLID
 70
     1
 71
     1
 91
        1
 92
        3
 72
     1
 73
     1
 93
        3
 10
4615.772058610695
 20
-3976.471687578678
 42
0.0
 10
4613.110031609314
 20
-3975.341826578684
 42
0.3513591548518968
 10
4613.110031609314
 20
-3977.60154857873
 42
0.0
 97
        0
 75
     0
 76
     1
 98
        0
  0
LWPOLYLINE
  5
3B8
330
1F
100
AcDbEntity
  8
Ech.1_2
 62
     7
370
     9
100
AcDbPolyline
 90
        4
 70
     0
 43
0.0
 10
4615.772058610695
 20
-3976.471687578678
 10
4613.110031609314
 20
-3975.341826578684
 42
0.3513591548518956
 10
4613.110031609314
 20
-3977.60154857873
 10
4615.772058610695
 20
-3976.471687578678
  0
HATCH
  5
3B9
330
1F
100
AcDbEntity
  8
Ech.1_2
 62
   252
440
 33554687
370
     5
100
AcDbHatch
 10
0.0
 20
0.0
 30
0.0
210
0.0
220
0.0
230
1.0
  2
SOLID
 70
     1
 71
     1
 91
        1
 92
        3
 72
     1
 73
     1
 93
        6
 10
4572.577613611891
 20
-3977.60154857873
 42
0.0
 10
4570.827614609974
 20
-3977.60154857873
 42
0.4142135727375045
 10
4570.272058610695
 20
-3978.157104578708
 42
0.0
 10
4570.272058610695
 20
-3974.786270578648
 42
0.4142135726642369
 10
4570.827614609974
 20
-3975.341826578684
 42
0.0
 10
4572.577613611891
 20
-3975.341826578684
 42
0.0
 97
        0
 75
     0
 76
     1
 98
        0
  0
LWPOLYLINE
  5
3BA
330
1F
100
AcDbEntity
  8
Ech.1_2
 62
     7
370
     9
100
AcDbPolyline
 90
        7
 70
     0
 43
0.0
 10
4572.577613611891
 20
-3977.60154857873
 10
4570.827614609974
 20
-3977.60154857873
 42
0.4142135727366852
 10
4570.272058610695
 20
-3978.157104578708
 10
4570.272058610695
 20
-3974.786270578648
 42
0.4142135726626001
 10
4570.827614609974
 20
-3975.341826578684
 10
4572.577613611891
 20
-3975.341826578684
 10
4572.577613611891
 20
-3977.60154857873
  0
HATCH
  5
3BB
330
1F
100
AcDbEntity
  8
Ech.1_2
 62
   252
440
 33554687
370
     5
100
AcDbHatch
 10
0.0
 20
0.0
 30
0.0
210
0.0
220
0.0
230
1.0
  2
SOLID
 70
     1
 71
     1
 91
        1
 92
        1
 93
        2
 72
     1
 10
4569.966503609794
 20
-3978.990437605093
 11
4569.966503609794
 21
-3973.952937552322
 72
     2
 10
4582.529707000618
 20
-3976.471687578707
 40
12.81320339082451
 50
168.6632793503046
 51
191.3367206496955
 73
     1
 97
        0
 75
     0
 76
     1
 98
        0
  0
LWPOLYLINE
  5
3BC
330
1F
100
AcDbEntity
  8
Ech.1_2
 62
     7
370
     9
100
AcDbPolyline
 90
        3
 70
     0
 43
0.0
 10
4569.966503609794
 20
-3978.990437605093
 10
4569.966503609794
 20
-3973.952937552322
 42
0.0992555820868614
 10
4569.966503609794
 20
-3978.990437605093
  0
HATCH
  5
3BD
330
1F
100
AcDbEntity
  8
Ech.1_2
 62
   252
440
 33554687
370
     5
100
AcDbHatch
 10
0.0
 20
0.0
 30
0.0
210
0.0
220
0.0
230
1.0
  2
SOLID
 70
     1
 71
     1
 91
        1
 92
        3
 72
     0
 73
     1
 93
        6
 10
4570.272058610695
 20
-3978.990437578666
 10
4570.272058610695
 20
-3978.157104578708
 10
4570.272058610695
 20
-3974.786270578648
 10
4570.272058610697
 20
-3973.95293757869
 10
4569.966503609794
 20
-3973.952937552322
 10
4569.966503609794
 20
-3978.990437605093
 97
        0
 75
     0
 76
     1
 98
        0
  0
LWPOLYLINE
  5
3BE
330
1F
100
AcDbEntity
  8
Ech.1_2
 62
     7
370
     9
100
AcDbPolyline
 90
        7
 70
     0
 43
0.0
 10
4570.272058610695
 20
-3978.990437578666
 10
4570.272058610695
 20
-3978.157104578708
 10
4570.272058610695
 20
-3974.786270578648
 10
4570.272058610697
 20
-3973.95293757869
 10
4569.966503609794
 20
-3973.952937552322
 10
4569.966503609794
 20
-3978.990437605093
 10
4570.272058610695
 20
-3978.990437578666
  0
HATCH
  5
3BF
330
1F
100
AcDbEntity
  8
Ech.1_2
 62
   252
440
 33554687
370
     5
100
AcDbHatch
 10
0.0
 20
0.0
 30
0.0
210
0.0
220
0.0
230
1.0
  2
SOLID
 70
     1
 71
     1
 91
        1
 92
        3
 72
     0
 73
     1
 93
        4
 10
4608.410949607565
 20
-3977.60154857873
 10
4609.244283606484
 20
-3977.60154857873
 10
4609.244283606484
 20
-3975.341826578684
 10
4608.410949607565
 20
-3975.341826578684
 97
        0
 75
     0
 76
     1
 98
        0
  0
LWPOLYLINE
  5
3C0
330
1F
100
AcDbEntity
  8
Ech.1_2
 62
     7
370
     9
100
AcDbPolyline
 90
        5
 70
     0
 43
0.0
 10
4608.410949607565
 20
-3977.60154857873
 10
4609.244283606484
 20
-3977.60154857873
 10
4609.244283606484
 20
-3975.341826578684
 10
4608.410949607565
 20
-3975.341826578684
 10
4608.410949607565
 20
-3977.60154857873
  0
LINE
  5
3C1
330
1F
100
AcDbEntity
  8
Ech.1_2
 62
   190
370
     9
100
AcDbLine
 10
4610.077613611891
 20
-3975.341826578684
 30
0.0
 11
4610.077613611891
 21
-3977.60154857873
 31
0.0
  0
LINE
  5
3C2
330
1F
100
AcDbEntity
  8
Ech.1_2
 62
   190
370
     9
100
AcDbLine
 10
4610.91094761081
 20
-3975.341826578684
 30
0.0
 11
4610.91094761081
 21
-3977.60154857873
 31
0.0
  0
LINE
  5
3C3
330
1F
100
AcDbEntity
  8
Ech.1_2
 62
   190
370
     9
100
AcDbLine
 10
4611.744279612973
 20
-3975.341826578684
 30
0.0
 11
4611.744279612973
 21
-3977.60154857873
 31
0.0
  0
LINE
  5
3C4
330
1F
100
AcDbEntity
  8
Ech.1_2
 62
   190
370
     9
100
AcDbLine
 10
4609.244281609728
 20
-3975.341826578684
 30
0.0
 11
4609.244281609728
 21
-3977.60154857873
 31
0.0
  0
HATCH
  5
3C5
330
1F
100
AcDbEntity
  8
Ech.1_2
 62
   252
440
 33554687
370
     5
100
AcDbHatch
 10
0.0
 20
0.0
 30
0.0
210
0.0
220
0.0
230
1.0
  2
SOLID
 70
     1
 71
     1
 91
        1
 92
        3
 72
     0
 73
     1
 93
        4
 10
4609.244279612973
 20
-3977.60154857873
 10
4610.077613611891
 20
-3977.60154857873
 10
4610.077613611891
 20
-3975.341826578684
 10
4609.244279612973
 20
-3975.341826578684
 97
        0
 75
     0
 76
     1
 98
        0
  0
LWPOLYLINE
  5
3C6
330
1F
100
AcDbEntity
  8
Ech.1_2
 62
     7
370
     9
100
AcDbPolyline
 90
        5
 70
     0
 43
0.0
 10
4609.244279612973
 20
-3977.60154857873
 10
4610.077613611891
 20
-3977.60154857873
 10
4610.077613611891
 20
-3975.341826578684
 10
4609.244279612973
 20
-3975.341826578684
 10
4609.244279612973
 20
-3977.60154857873
  0
HATCH
  5
3C7
330
1F
100
AcDbEntity
  8
Ech.1_2
 62
   252
440
 33554687
370
     5
100
AcDbHatch
 10
0.0
 20
0.0
 30
0.0
210
0.0
220
0.0
230
1.0
  2
SOLID
 70
     1
 71
     1
 91
        1
 92
        3
 72
     0
 73
     1
 93
        4
 10
4610.910945614054
 20
-3977.60154857873
 10
4611.744279612973
 20
-3977.60154857873
 10
4611.744279612973
 20
-3975.341826578684
 10
4610.910945614054
 20
-3975.341826578684
 97
        0
 75
     0
 76
     1
 98
        0
  0
LWPOLYLINE
  5
3C8
330
1F
100
AcDbEntity
  8
Ech.1_2
 62
     7
370
     9
100
AcDbPolyline
 90
        5
 70
     0
 43
0.0
 10
4610.910945614054
 20
-3977.60154857873
 10
4611.744279612973
 20
-3977.60154857873
 10
4611.744279612973
 20
-3975.341826578684
 10
4610.910945614054
 20
-3975.341826578684
 10
4610.910945614054
 20
-3977.60154857873
  0
LWPOLYLINE
  5
3C9
330
1F
100
AcDbEntity
  8
Ech.1_2
 62
   190
370
    15
100
AcDbPolyline
 90
        5
 70
     0
 43
0.0
 10
4396.300343097579
 20
-4088.844772333925
 10
4790.300343097579
 20
-4088.844772333925
 10
4790.300343097579
 20
-4143.810001159949
 10
4396.300343097579
 20
-4143.810001159949
 10
4396.300343097579
 20
-4088.844772333925
  0
LWPOLYLINE
  5
3CA
330
1F
100
AcDbEntity
  8
Ech.1_2
 62
   190
370
    15
100
AcDbPolyline
 90
        5
 70
     0
 43
0.0
 10
4790.300343097579
 20
-3640.016786362254
 10
4396.300343097579
 20
-3640.016786362254
 10
4396.300343097579
 20
-3601.810001159994
 10
4790.300343097579
 20
-3601.810001159994
 10
4790.300343097579
 20
-3640.016786362254
  0
LWPOLYLINE
  5
3CB
330
1F
100
AcDbEntity
  8
Ech.1_2
 62
   190
370
    15
100
AcDbPolyline
 90
        5
 70
     0
 43
0.0
 10
4790.300343097579
 20
-4097.644772333926
 10
4396.300343097579
 20
-4097.644772333926
 10
4396.300343097579
 20
-4088.844772333925
 10
4790.300343097579
 20
-4088.844772333925
 10
4790.300343097579
 20
-4097.644772333926
  0
LWPOLYLINE
  5
3CC
330
1F
100
AcDbEntity
  8
Ech.1_2
 62
   190
370
    15
100
AcDbPolyline
 90
        5
 70
     0
 43
0.0
 10
4790.300343097579
 20
-4120.39323042606
 10
4396.300343097579
 20
-4120.39323042606
 10
4396.300343097579
 20
-4110.902419101767
 10
4790.300343097579
 20
-4110.902419101767
 10
4790.300343097579
 20
-4120.39323042606
  0
LINE
  5
3CD
330
1F
100
AcDbEntity
  8
Ech.1_2
 62
   190
370
    15
100
AcDbLine
 10
4471.582167882761
 20
-4088.844772333925
 30
0.0
 11
4471.582167882761
 21
-4097.644772333926
 31
0.0
  0
LINE
  5
3CE
330
1F
100
AcDbEntity
  8
Ech.1_2
 62
   190
370
    15
100
AcDbLine
 10
4734.38140893498
 20
-4088.844772333925
 30
0.0
 11
4734.38140893498
 21
-4097.644772333926
 31
0.0
  0
LINE
  5
3CF
330
1F
100
AcDbEntity
  8
Ech.1_2
 62
   190
370
    15
100
AcDbLine
 10
4534.044255080902
 20
-4088.844772333925
 30
0.0
 11
4534.044255080902
 21
-4097.644772333926
 31
0.0
  0
IMAGE
  5
3D2
330
1F
100
AcDbEntity
  8
Ech.1_2
160
                 8
310
0800000000000000
100
AcDbRasterImage
 90
        0
 10
4472.726042593931
 20
-4141.79578216753
 30
0.0
 11
0.1133603238866397
 21
0.0
 31
0.0
 12
0.0
 22
0.1111111111111111
 32
0.0
 13
247.0
 23
171.0
340
3D1
 70
     3
280
     0
281
    50
282
    50
283
     0
360
3D3
 71
     1
 91
        2
 14
-0.5
 24
-0.5
 14
246.5
 24
170.5
290
     0
  0
IMAGE
  5
3D5
330
1F
100
AcDbEntity
  8
Ech.1_2
160
                 8
310
0800000000000000
100
AcDbRasterImage
 90
        0
 10
4577.157111090723
 20
-4142.817627089044
 30
0.0
 11
0.16
 21
0.0
 31
0.0
 12
0.0
 22
0.1578947368421053
 32
0.0
 13
200.0
 23
133.0
340
3D4
 70
     3
280
     0
281
    50
282
    50
283
     0
360
3D6
 71
     1
 91
        2
 14
-0.5
 24
-0.5
 14
199.5
 24
132.5
290
     0
  0
IMAGE
  5
3D8
330
1F
100
AcDbEntity
  8
Ech.1_2
160
                 8
310
0800000000000000
100
AcDbRasterImage
 90
        0
 10
4674.506977642381
 20
-4143.299618255023
 30
0.0
 11
0.03770739064856712
 21
0.0
 31
0.0
 12
0.0
 22
0.03793103448275862
 32
0.0
 13
1326.0
 23
580.0
340
3D7
 70
     3
280
     0
281
    50
282
    50
283
     0
360
3D9
 71
     1
 91
        2
 14
-0.5
 24
-0.5
 14
1325.5
 24
579.5
290
     0
  0
LWPOLYLINE
  5
3DA
330
1F
100
AcDbEntity
  8
Ech.1_2
 62
   190
370
    15
100
AcDbPolyline
 90
        5
 70
     0
 43
0.0
 10
4790.300343097579
 20
-4143.810001159949
 10
4790.300343097579
 20
-3601.810001159947
 10
4396.300343097579
 20
-3601.810001159947
 10
4396.300343097579
 20
-4143.810001159949
 10
4790.300343097579
 20
-4143.810001159949
  0
LINE
  5
3DB
330
1F
100
AcDbEntity
  8
Ech.1_2
 62
   190
370
    15
100
AcDbLine
 10
4790.300343097579
 20
-3613.810001159994
 30
0.0
 11
4396.300343097579
 21
-3613.810001159994
 31
0.0
  0
LINE
  5
3DC
330
1F
100
AcDbEntity
  8
Ech.1_2
 62
   190
370
    15
100
AcDbLine
 10
4617.772624619338
 20
-4022.031572320791
 30
0.0
 11
4617.772624619338
 21
-3784.420477845781
 31
0.0
  0
LWPOLYLINE
  5
3DD
330
1F
100
AcDbEntity
  8
Ech.1_2
 62
   190
370
    15
100
AcDbPolyline
 90
        3
 70
     0
 43
0.0
 10
4609.031270670737
 20
-3859.083134474053
 10
4688.568115499242
 20
-3859.083134474053
 10
4691.768115499242
 20
-3859.083134474053
  0
INSERT
  5
3DE
330
1F
100
AcDbEntity
  8
Ech.1_2
 62
   190
370
    15
100
AcDbBlockReference
  2
cw-line-extremity4
 10
4609.031270670737
 20
-3859.083134474053
 30
0.0
  0
LWPOLYLINE
  5
3DF
330
1F
100
AcDbEntity
  8
Ech.1_2
 62
   190
370
    15
100
AcDbPolyline
 90
        3
 70
     0
 43
0.0
 10
4640.772398584075
 20
-4015.8413596636
 10
4532.180909081195
 20
-4015.8413596636
 10
4524.180909081195
 20
-4015.8413596636
  0
INSERT
  5
3E0
330
1F
100
AcDbEntity
  8
Ech.1_2
 62
   190
370
    15
100
AcDbBlockReference
  2
cw-line-extremity4
 10
4640.772398584075
 20
-4015.8413596636
 30
0.0
 50
180.0
  0
DIMENSION
  5
3E2
102
{ACAD_REACTORS
330
3E3
102
}
330
1F
100
AcDbEntity
  8
Ech.1_2
 62
   190
370
    15
100
AcDbDimension
280
     0
  2
*D70
 10
4564.510715201877
 20
-3839.811054822743
 30
0.0
 11
4560.010715201877
 21
-3844.447094648402
 31
0.0
 70
   161
  1
10 mini
 71
     5
 42
9.272079651309468
 73
     0
 74
     0
 75
     0
 53
90.0
  3
Standard
100
AcDbAlignedDimension
 13
4564.772058610401
 23
-3849.083134474053
 33
0.0
 14
4564.772058610401
 24
-3839.811054822743
 34
0.0
1001
ACAD
1000
DSTYLE
1002
{
1070
   178
1070
   190
1070
   271
1070
     0
1070
   147
1040
0.0
1070
   140
1040
5.0
1070
   340
1005
3E1
1070
   144
1040
1.0
1070
    42
1040
0.0
1070
    44
1040
2.0
1070
    41
1040
2.0
1070
   342
1005
1BA
1070
   175
1070
     1
1070
   279
1070
     2
1070
   172
1070
     1
1002
}
  0
MTEXT
  5
3F0
330
1F
100
AcDbEntity
  8
Ech.1_2
 62
     4
420
    65535
100
AcDbMText
 10
4694.518115499242
 20
-3855.843812293753
 30
0.0
 40
5.5
 41
86.2398199823765
 46
0.0
 71
     1
 72
     1
  1
{\fArial|b0|i0;\W1.000000;\H5.500000;\c16711848;Grille pare-insectes}
 73
     1
 44
1.07999975538982
  0
MTEXT
  5
3F1
330
1F
100
AcDbEntity
  8
Ech.1_2
 62
     4
420
    65535
100
AcDbMText
 10
4521.430909081195
 20
-3894.628559816914
 30
0.0
 40
5.5
 41
85.90521157704461
 46
0.0
 71
     3
 72
     1
  1
{\fArial|b0|i0;\W1.000000;\H5.500000;\c16711848;Habillage en sous-face}
 73
     1
 44
1.07999975538982
  0
MTEXT
  5
3F2
330
1F
100
AcDbEntity
  8
Ech.1_2
 62
     4
420
    65535
100
AcDbMText
 10
4521.430909081195
 20
-4013.122916604798
 30
0.0
 40
5.5
 41
73.4925035111446
 46
0.0
 71
     3
 72
     1
  1
{\fArial|b0|i0;\W1.000000;\H5.500000;\c16711848;Paroi support}
 73
     1
 44
1.07999975538982
  0
MTEXT
  5
3F3
330
1F
100
AcDbEntity
  8
Ech.1_2
 62
     4
420
    65535
100
AcDbMText
 10
4634.212832007941
 20
-4090.320345451977
 30
0.0
 40
5.0
 41
195.3371538540778
 46
0.0
 71
     2
 72
     1
  1
{\fArial|b0|i0;\W1.000000;\H5.000000;\c16711848;Vue en coupe verticale}
 73
     1
 44
1.07999975538982
  0
MTEXT
  5
3F4
330
1F
100
AcDbEntity
  8
Ech.1_2
 62
     4
420
    65535
100
AcDbMText
 10
4762.340876016279
 20
-4090.253474854913
 30
0.0
 40
5.0
 41
50.91893416259882
 46
0.0
 71
     2
 72
     1
  1
{\fArial|b0|i0;\W1.000000;\H5.000000;\c16711848;Ech 1/2 }
 73
     1
 44
1.07999975538982
  0
MTEXT
  5
3F5
330
1F
100
AcDbEntity
  8
Ech.1_2
 62
     4
420
    65535
100
AcDbMText
 10
4502.813211481832
 20
-4090.144772333924
 30
0.0
 40
5.0
 41
57.46208719814058
 46
0.0
 71
     2
 72
     1
  1
{\fArial|b0|i0;\W1.000000;\H5.000000;\c16711848;BLEHZ60-02}
 73
     1
 44
1.07999975538982
  0
MTEXT
  5
3F6
330
1F
100
AcDbEntity
  8
Ech.1_2
 62
   200
420
 11010303
100
AcDbMText
 10
4593.300343097579
 20
-4098.85241926866
 30
0.0
 40
2.5
 41
391.5
 46
0.0
 71
     2
 72
     1
  3
{\fArial|b0|i1;\W1.000000;\H2.500000;\c16711848; Il est rappelé à l'utilisateur qui consulte le site et utilise les informations qu'il contient, qu'il doit les utiliser sous sa seule responsabilité en vérifiant leur pertinence, leur cohérence et leur
  1
 non obsolescence.}
 73
     1
 44
1.07999975538982
  0
MTEXT
  5
3F7
330
1F
100
AcDbEntity
  8
Ech.1_2
 62
   200
420
 11010303
100
AcDbMText
 10
4593.300343097579
 20
-4112.51823042606
 30
0.0
 40
3.25
 41
390.75
 46
0.0
 71
     2
 72
     1
  1
{\fArial|b0|i1;\W1.000000;\H3.250000;\c16711848;www.catalogue-bois-construction.fr}
 73
     1
 44
1.07999975538982
  0
MTEXT
  5
3F8
330
1F
100
AcDbEntity
  8
Ech.1_2
 62
     4
420
    65535
100
AcDbMText
 10
4593.300343097579
 20
-3630.423990129164
 30
0.0
 40
6.5
 41
387.5
 46
0.0
 71
     2
 72
     1
  1
{\fArial|b0|i0;\W1.000000;\H6.500000;\c16711848;Détail tête de mur sous débord de toit - Jonction avec habillage en sous-face de rampant}
 73
     1
 44
1.07999975538982
  0
MTEXT
  5
3F9
330
1F
100
AcDbEntity
  8
Ech.1_2
 62
     4
420
    65535
100
AcDbMText
 10
4521.430909081195
 20
-3911.540886190842
 30
0.0
 40
5.5
 41
115.044963059303
 46
0.0
 71
     3
 72
     1
  1
{\fArial|b0|i0;\W1.000000;\H5.500000;\c16711848;Bardage bois en lames à emboitement en pose horizontale - épaisseur 20-22 mm}
 73
     1
 44
1.07999975538982
  0
MTEXT
  5
3FA
330
1F
100
AcDbEntity
  8
Ech.1_2
 62
   200
420
 11010303
100
AcDbMText
 10
4593.300343097579
 20
-3604.81000115994
 30
0.0
 40
6.0
 41
388.0
 46
0.0
 71
     2
 72
     1
  1
{\fArial|b1|i0;\W1.000000;\H6.000000;\c16711848;BARDAGES EN LAMES : lames à emboitement - pose horizontale (épaisseur 20-22 mm)}
 73
     1
 44
1.07999975538982
1001
ACAD
1000
ACAD_MTEXT_TEXT_BORDERS_BEGIN
1070
    80
1070
    16
1070
    46
1040
1.5
1070
    81
1070
     1
1070
     5
1005
3FF
1000
ACAD_MTEXT_TEXT_BORDERS_END
  0
MTEXT
  5
3FB
330
1F
100
AcDbEntity
  8
Ech.1_2
 62
     4
420
    65535
100
AcDbMText
 10
4593.300343097579
 20
-3617.352786423233
 30
0.0
 40
6.0
 41
388.0
 46
0.0
 71
     2
 72
     1
  1
{\fArial|b0|i0;\W1.000000;\H6.000000;\c16711848;avec exigences globales feu façade}
 73
     1
 44
1.07999975538982
  0
MTEXT
  5
3FC
330
1F
100
AcDbEntity
  8
Ech.1_2
 62
     4
420
    65535
100
AcDbMText
 10
4521.430909081195
 20
-3956.469037969649
 30
0.0
 40
5.5
 41
121.7246840856078
 46
0.0
 71
     3
 72
     1
  1
{\fArial|b0|i0;\W1.000000;\H5.500000;\c16711848;Tasseau bois support de bardage}
 73
     1
 44
1.07999975538982
  0
TEXT
  5
3FE
330
1F
100
AcDbEntity
  8
Ech.1_2
 62
   190
100
AcDbText
 10
4417.029195378496
 20
-4095.117132073809
 30
0.0
 40
5.0
  1
18/09/2020
  7
arial-
100
AcDbText
  0
LWPOLYLINE
  5
3FF
330
1F
100
AcDbEntity
  8
Ech.1_2
 62
   200
420
 11010303
100
AcDbPolyline
 90
        4
 70
     1
 43
0.0
 10
4396.300343097579
 20
-3601.81000115994
 10
4790.300343097579
 20
-3601.81000115994
 10
4790.300343097579
 20
-3615.70600115994
 10
4396.300343097579
 20
-3615.70600115994
  0
VIEWPORT
  5
242
330
23C
100
AcDbEntity
 67
     1
  8
0
100
AcDbViewport
 10
98.8
 20
135.7999999999986
 30
0.0
 40
209.0608
 41
287.3527999999972
 68
     1
 69
     1
 12
128.5
 22
97.5
 13
0.0
 23
0.0
 14
10.0
 24
10.0
 15
10.0
 25
10.0
 16
0.0
 26
0.0
 36
1.0
 17
0.0
 27
0.0
 37
0.0
 42
50.0
 43
0.0
 44
0.0
 45
222.18
 50
0.0
 51
0.0
 72
   100
 90
   557152
  1

281
     0
 71
     1
 74
     0
110
0.0
120
0.0
130
0.0
111
1.0
121
0.0
131
0.0
112
0.0
122
1.0
132
0.0
 79
     0
146
0.0
170
     0
 61
     5
348
2F
292
     1
282
     1
141
0.0
142
0.0
 63
   256
361
243
  0
VIEWPORT
  5
244
330
23C
100
AcDbEntity
 67
     1
  8
0
 60
     1
100
AcDbViewport
 10
98.8
 20
135.7999999999986
 30
0.0
 40
197.6
 41
271.5999999999973
 68
     2
 69
     2
 12
4593.300343097579
 22
-3872.810001159937
 13
0.0
 23
0.0
 14
10.0
 24
10.0
 15
10.0
 25
10.0
 16
0.0
 26
0.0
 36
1.0
 17
0.0
 27
0.0
 37
0.0
 42
50.0
 43
0.0
 44
0.0
 45
543.1999999999946
 50
0.0
 51
0.0
 72
   100
 90
   557152
  1

281
     0
 71
     1
 74
     0
110
0.0
120
0.0
130
0.0
111
1.0
121
0.0
131
0.0
112
0.0
122
1.0
132
0.0
 79
     0
146
0.0
170
     0
 61
     5
348
2F
292
     1
282
     1
141
0.0
142
0.0
 63
   256
  0
ENDSEC
  0
SECTION
  2
OBJECTS
  0
DICTIONARY
  5
C
330
0
100
AcDbDictionary
281
     1
  3
ACAD_DETAILVIEWSTYLE
350
407
  3
ACAD_GROUP
350
D
  3
ACAD_IMAGE_DICT
350
3D0
  3
ACAD_IMAGE_VARS
350
6F
  3
ACAD_LAYOUT
350
1A
  3
ACAD_MATERIAL
350
43
  3
ACAD_MLEADERSTYLE
350
6B
  3
ACAD_MLINESTYLE
350
17
  3
ACAD_PLOTSETTINGS
350
19
  3
ACAD_PLOTSTYLENAME
350
E
  3
ACAD_SCALELIST
350
47
  3
ACAD_SECTIONVIEWSTYLE
350
408
  3
ACAD_TABLESTYLE
350
69
  3
ACAD_VISUALSTYLE
350
2A
  3
ACDB_RECOMPOSE_DATA
350
404
  3
AcDbVariableDictionary
350
400
  0
SUN
  5
6D
330
29
100
AcDbSun
 90
        1
290
     0
 63
     7
421
 16777215
 40
1.0
291
     1
 91
  2455826
 92
 54000000
292
     0
 70
     2
 71
   256
280
     1
  0
IMAGEDEF_REACTOR
  5
3D3
330
3D2
100
AcDbRasterImageDefReactor
 90
        2
330
3D2
  0
IMAGEDEF_REACTOR
  5
3D6
330
3D5
100
AcDbRasterImageDefReactor
 90
        2
330
3D5
  0
IMAGEDEF_REACTOR
  5
3D9
330
3D8
100
AcDbRasterImageDefReactor
 90
        2
330
3D8
  0
SUN
  5
243
330
242
100
AcDbSun
 90
        1
290
     0
 63
     7
421
 16777215
 40
1.0
291
     1
 91
  2455826
 92
 54000000
292
     0
 70
     2
 71
   256
280
     1
  0
DICTIONARY
  5
407
102
{ACAD_REACTORS
330
C
102
}
330
C
100
AcDbDictionary
281
     1
  0
DICTIONARY
  5
D
102
{ACAD_REACTORS
330
C
102
}
330
C
100
AcDbDictionary
281
     1
  3
DIM46
350
3E3
  0
DICTIONARY
  5
3D0
102
{ACAD_REACTORS
330
C
102
}
330
C
100
AcDbDictionary
281
     1
  3
C:\Users\MAIFFR~1\AppData\Local\Temp\EXE_LOGO_FBF_soutien_Q_L.jpg1
350
3D4
  3
C:\Users\MAIFFR~1\AppData\Local\Temp\fcba.jpg0
350
3D1
  3
C:\Users\MAIFFR~1\AppData\Local\Temp\logo_codifab_baseline_soutien.jpg2
350
3D7
  0
RASTERVARIABLES
  5
6F
102
{ACAD_REACTORS
330
C
102
}
330
C
100
AcDbRasterVariables
 90
        0
 70
     0
 71
     1
 72
     1
  0
DICTIONARY
  5
1A
102
{ACAD_REACTORS
330
C
102
}
330
C
100
AcDbDictionary
281
     1
  3
CompleteLayout
350
1E
  3
Model
350
22
  3
PrintFrame_62
350
23D
  0
DICTIONARY
  5
43
102
{ACAD_REACTORS
330
C
102
}
330
C
100
AcDbDictionary
281
     1
  3
ByBlock
350
45
  3
ByLayer
350
44
  3
Global
350
46
  0
DICTIONARY
  5
6B
102
{ACAD_REACTORS
330
C
102
}
330
C
100
AcDbDictionary
281
     1
  3
Standard
350
6C
  0
DICTIONARY
  5
17
102
{ACAD_REACTORS
330
C
102
}
330
C
100
AcDbDictionary
281
     1
  3
Standard
350
18
  0
DICTIONARY
  5
19
102
{ACAD_REACTORS
330
C
102
}
330
C
100
AcDbDictionary
281
     1
  3
PlotSettings_
350
240
  0
ACDBDICTIONARYWDFLT
  5
E
102
{ACAD_REACTORS
330
C
102
}
330
C
100
AcDbDictionary
281
     1
  3
Normal
350
F
100
AcDbDictionaryWithDefault
340
F
  0
DICTIONARY
  5
47
102
{ACAD_REACTORS
330
C
102
}
330
C
100
AcDbDictionary
281
     1
  3
A0
350
48
  3
A1
350
49
  3
A2
350
4A
  3
A3
350
4B
  3
A4
350
4C
  3
A5
350
4D
  3
A6
350
4E
  3
A7
350
4F
  3
A8
350
50
  3
A9
350
51
  3
B0
350
52
  3
B1
350
53
  3
B2
350
54
  3
B3
350
55
  3
B4
350
56
  3
B5
350
57
  3
B6
350
58
  3
B7
350
59
  3
B8
350
5A
  3
B9
350
5B
  3
C0
350
5C
  3
C1
350
5D
  3
C2
350
5E
  3
C3
350
5F
  3
C4
350
60
  3
C5
350
61
  3
C6
350
62
  3
C7
350
63
  3
C8
350
64
  3
C9
350
65
  3
D0
350
66
  3
D1
350
67
  3
D2
350
68
  0
DICTIONARY
  5
408
102
{ACAD_REACTORS
330
C
102
}
330
C
100
AcDbDictionary
281
     1
  0
DICTIONARY
  5
69
102
{ACAD_REACTORS
330
C
102
}
330
C
100
AcDbDictionary
281
     1
  3
Standard
350
6A
  0
DICTIONARY
  5
2A
102
{ACAD_REACTORS
330
C
102
}
330
C
100
AcDbDictionary
281
     1
  3
2dWireframe
350
2F
  3
Basic
350
32
  3
Brighten
350
36
  3
ColorChange
350
3A
  3
Conceptual
350
34
  3
Dim
350
35
  3
EdgeColorOff
350
3D
  3
Facepattern
350
39
  3
Flat
350
2B
  3
FlatWithEdges
350
2C
  3
Gouraud
350
2D
  3
GouraudWithEdges
350
2E
  3
Hidden
350
31
  3
JitterOff
350
3B
  3
Linepattern
350
38
  3
OverhangOff
350
3C
  3
Realistic
350
33
  3
Shaded
350
42
  3
Shaded with edges
350
41
  3
Shades of Gray
350
3E
  3
Sketchy
350
3F
  3
Thicken
350
37
  3
Wireframe
350
30
  3
X-Ray
350
40
  0
XRECORD
  5
404
102
{ACAD_REACTORS
330
C
102
}
330
C
100
AcDbXrecord
280
     1
 90
        1
330
6A
  0
DICTIONARY
  5
400
102
{ACAD_REACTORS
330
C
102
}
330
C
100
AcDbDictionary
281
     1
  3
CANNOSCALE
350
401
  3
CMLEADERSTYLE
350
406
  3
CTABLESTYLE
350
405
  3
WIPEOUTFRAME
350
409
  0
GROUP
  5
3E3
102
{ACAD_REACTORS
330
D
102
}
330
D
100
AcDbGroup
300

 70
     0
 71
     1
340
3E2
  0
IMAGEDEF
  5
3D4
102
{ACAD_REACTORS
330
3D0
330
3D6
102
}
330
3D0
100
AcDbRasterImageDef
 90
        0
  1
EXE_LOGO_FBF_soutien_Q_L.jpg
 10
200.0
 20
133.0
 11
0.3527336860670194
 21
0.3527336860670194
280
     1
281
     3
  0
IMAGEDEF
  5
3D1
102
{ACAD_REACTORS
330
3D0
330
3D3
102
}
330
3D0
100
AcDbRasterImageDef
 90
        0
  1
fcba.jpg
 10
247.0
 20
171.0
 11
0.3527336860670194
 21
0.3527336860670194
280
     1
281
     3
  0
IMAGEDEF
  5
3D7
102
{ACAD_REACTORS
330
3D0
330
3D9
102
}
330
3D0
100
AcDbRasterImageDef
 90
        0
  1
logo_codifab_baseline_soutien.jpg
 10
1326.0
 20
580.0
 11
0.08466683600033867
 21
0.08466683600033867
280
     1
281
     3
  0
LAYOUT
  5
1E
102
{ACAD_REACTORS
330
1A
102
}
330
1A
100
AcDbPlotSettings
  1

  2
none_device
  4

  6

 40
0.0
 41
0.0
 42
0.0
 43
0.0
 44
0.0
 45
0.0
 46
0.0
 47
0.0
 48
0.0
 49
0.0
140
0.0
141
0.0
142
1.0
143
1.0
 70
   688
 72
     0
 73
     0
 74
     5
  7

 75
    16
 76
     0
 77
     2
 78
   300
147
1.0
148
0.0
149
0.0
100
AcDbLayout
  1
CompleteLayout
 70
     1
 71
     1
 10
0.0
 20
0.0
 11
12.0
 21
9.0
 12
0.0
 22
0.0
 32
0.0
 14
1.000000000000000E+20
 24
1.000000000000000E+20
 34
1.000000000000000E+20
 15
-1.000000000000000E+20
 25
-1.000000000000000E+20
 35
-1.000000000000000E+20
146
0.0
 13
0.0
 23
0.0
 33
0.0
 16
1.0
 26
0.0
 36
0.0
 17
0.0
 27
1.0
 37
0.0
 76
     0
330
1B
  0
LAYOUT
  5
22
102
{ACAD_REACTORS
330
1A
102
}
330
1A
100
AcDbPlotSettings
  1

  2
none_device
  4
Letter_(8.50_x_11.00_Inches)
  6

 40
6.35
 41
6.35
 42
6.35000508
 43
6.35000508
 44
215.9
 45
279.4
 46
0.0
 47
0.0
 48
0.0
 49
0.0
140
0.0
141
0.0
142
1.0
143
1.0
 70
  1712
 72
     0
 73
     0
 74
     0
  7

 75
     0
 76
     0
 77
     2
 78
   300
147
1.0
148
0.0
149
0.0
100
AcDbLayout
  1
Model
 70
     1
 71
     0
 10
0.0
 20
0.0
 11
12.0
 21
9.0
 12
0.0
 22
0.0
 32
0.0
 14
4396.300343097579
 24
-4143.810001159949
 34
0.0
 15
4790.300343097579
 25
-3601.81000115994
 35
0.0
146
0.0
 13
0.0
 23
0.0
 33
0.0
 16
1.0
 26
0.0
 36
0.0
 17
0.0
 27
1.0
 37
0.0
 76
     0
330
1F
331
29
  0
LAYOUT
  5
23D
102
{ACAD_REACTORS
330
1A
102
}
330
1A
100
AcDbPlotSettings
  1
PlotSettings_
  2
Custom Device
  4
Custom_210.000000x297.000000_12.700000_12.700000_6.200000_6.200000
  6

 40
6.2
 41
12.7
 42
6.2
 43
12.7
 44
210.0
 45
296.9999999999973
 46
0.0
 47
0.0
 48
0.0
 49
0.0
140
0.0
141
0.0
142
1.0
143
1.0
 70
   752
 72
     1
 73
     0
 74
     5
  7

 75
    16
 76
     0
 77
     2
 78
   300
147
1.0
148
0.0
149
0.0
100
AcDbLayout
  1
PrintFrame_62
 70
     0
 71
     2
 10
-20.0
 20
-7.5
 11
277.0
 21
202.5
 12
0.0
 22
0.0
 32
0.0
 14
0.0
 24
0.0
 34
0.0
 15
197.6
 25
271.5999999999973
 35
0.0
146
0.0
 13
0.0
 23
0.0
 33
0.0
 16
1.0
 26
0.0
 36
0.0
 17
0.0
 27
1.0
 37
0.0
 76
     0
330
23C
331
242
1001
PLOTTRANSPARENCY
1071
        1
1000
layout-user-created
1070
     1
1000
layout-line-weight-scale
1042
1.0
  0
MATERIAL
  5
45
102
{ACAD_REACTORS
330
43
102
}
330
43
100
AcDbMaterial
  1
ByBlock
 72
     1
 94
      127
  0
MATERIAL
  5
44
102
{ACAD_REACTORS
330
43
102
}
330
43
100
AcDbMaterial
  1
ByLayer
 72
     1
 94
      127
  0
MATERIAL
  5
46
102
{ACAD_REACTORS
330
43
102
}
330
43
100
AcDbMaterial
  1
Global
 72
     1
 94
      127
  0
MLEADERSTYLE
  5
6C
102
{ACAD_REACTORS
330
6B
102
}
330
6B
100
AcDbMLeaderStyle
179
     2
170
     2
171
     1
172
     0
 90
        2
 40
0.0
 41
0.0
173
     1
 91
-1056964608
340
14
 92
       -2
290
     1
 42
0.09
291
     1
 43
0.36
  3
Standard
341
0
 44
0.18
300

342
11
174
     1
178
     6
175
     1
176
     0
 93
-1056964608
 45
0.18
292
     0
297
     0
 46
0.18
343
0
 94
-1056964608
 47
1.0
 49
1.0
140
1.0
293
     1
141
0.0
294
     1
177
     0
142
1.0
295
     0
296
     0
143
0.125
271
     0
272
     9
273
     9
298
     0
  0
MLINESTYLE
  5
18
102
{ACAD_REACTORS
330
17
102
}
330
17
100
AcDbMlineStyle
  2
Standard
 70
     0
  3

 62
   256
 51
90.0
 52
90.0
 71
     2
 49
0.5
 62
   256
  6
BYLAYER
 49
-0.5
 62
   256
  6
BYLAYER
  0
PLOTSETTINGS
  5
240
102
{ACAD_REACTORS
330
19
102
}
330
19
100
AcDbPlotSettings
  1
PlotSettings_
  2
Custom Device
  4
Custom_210.000000x297.000000_12.700000_12.700000_6.200000_6.200000
  6

 40
6.2
 41
12.7
 42
6.2
 43
12.7
 44
210.0
 45
296.9999999999973
 46
0.0
 47
0.0
 48
0.0
 49
0.0
140
0.0
141
0.0
142
1.0
143
1.0
 70
   752
 72
     1
 73
     0
 74
     5
  7

 75
    16
 76
     0
 77
     2
 78
   300
147
1.0
148
0.0
149
0.0
1001
PLOTTRANSPARENCY
1071
        1
1000
layout-user-created
1070
     1
1000
layout-line-weight-scale
1042
1.0
  0
ACDBPLACEHOLDER
  5
F
102
{ACAD_REACTORS
330
E
102
}
330
E
  0
SCALE
  5
48
102
{ACAD_REACTORS
330
47
102
}
330
47
100
AcDbScale
 70
     0
300
1:1
140
1.0
141
1.0
290
     1
  0
SCALE
  5
49
102
{ACAD_REACTORS
330
47
102
}
330
47
100
AcDbScale
 70
     0
300
1:2
140
1.0
141
2.0
290
     0
  0
SCALE
  5
4A
102
{ACAD_REACTORS
330
47
102
}
330
47
100
AcDbScale
 70
     0
300
1:4
140
1.0
141
4.0
290
     0
  0
SCALE
  5
4B
102
{ACAD_REACTORS
330
47
102
}
330
47
100
AcDbScale
 70
     0
300
1:5
140
1.0
141
5.0
290
     0
  0
SCALE
  5
4C
102
{ACAD_REACTORS
330
47
102
}
330
47
100
AcDbScale
 70
     0
300
1:8
140
1.0
141
8.0
290
     0
  0
SCALE
  5
4D
102
{ACAD_REACTORS
330
47
102
}
330
47
100
AcDbScale
 70
     0
300
1:10
140
1.0
141
10.0
290
     0
  0
SCALE
  5
4E
102
{ACAD_REACTORS
330
47
102
}
330
47
100
AcDbScale
 70
     0
300
1:16
140
1.0
141
16.0
290
     0
  0
SCALE
  5
4F
102
{ACAD_REACTORS
330
47
102
}
330
47
100
AcDbScale
 70
     0
300
1:20
140
1.0
141
20.0
290
     0
  0
SCALE
  5
50
102
{ACAD_REACTORS
330
47
102
}
330
47
100
AcDbScale
 70
     0
300
1:30
140
1.0
141
30.0
290
     0
  0
SCALE
  5
51
102
{ACAD_REACTORS
330
47
102
}
330
47
100
AcDbScale
 70
     0
300
1:40
140
1.0
141
40.0
290
     0
  0
SCALE
  5
52
102
{ACAD_REACTORS
330
47
102
}
330
47
100
AcDbScale
 70
     0
300
1:50
140
1.0
141
50.0
290
     0
  0
SCALE
  5
53
102
{ACAD_REACTORS
330
47
102
}
330
47
100
AcDbScale
 70
     0
300
1:100
140
1.0
141
100.0
290
     0
  0
SCALE
  5
54
102
{ACAD_REACTORS
330
47
102
}
330
47
100
AcDbScale
 70
     0
300
2:1
140
2.0
141
1.0
290
     0
  0
SCALE
  5
55
102
{ACAD_REACTORS
330
47
102
}
330
47
100
AcDbScale
 70
     0
300
4:1
140
4.0
141
1.0
290
     0
  0
SCALE
  5
56
102
{ACAD_REACTORS
330
47
102
}
330
47
100
AcDbScale
 70
     0
300
8:1
140
8.0
141
1.0
290
     0
  0
SCALE
  5
57
102
{ACAD_REACTORS
330
47
102
}
330
47
100
AcDbScale
 70
     0
300
10:1
140
10.0
141
1.0
290
     0
  0
SCALE
  5
58
102
{ACAD_REACTORS
330
47
102
}
330
47
100
AcDbScale
 70
     0
300
100:1
140
100.0
141
1.0
290
     0
  0
SCALE
  5
59
102
{ACAD_REACTORS
330
47
102
}
330
47
100
AcDbScale
 70
     0
300
1/128" = 1'-0"
140
0.0078125
141
12.0
290
     0
  0
SCALE
  5
5A
102
{ACAD_REACTORS
330
47
102
}
330
47
100
AcDbScale
 70
     0
300
1/64" = 1'-0"
140
0.015625
141
12.0
290
     0
  0
SCALE
  5
5B
102
{ACAD_REACTORS
330
47
102
}
330
47
100
AcDbScale
 70
     0
300
1/32" = 1'-0"
140
0.03125
141
12.0
290
     0
  0
SCALE
  5
5C
102
{ACAD_REACTORS
330
47
102
}
330
47
100
AcDbScale
 70
     0
300
1/16" = 1'-0"
140
0.0625
141
12.0
290
     0
  0
SCALE
  5
5D
102
{ACAD_REACTORS
330
47
102
}
330
47
100
AcDbScale
 70
     0
300
3/32" = 1'-0"
140
0.09375
141
12.0
290
     0
  0
SCALE
  5
5E
102
{ACAD_REACTORS
330
47
102
}
330
47
100
AcDbScale
 70
     0
300
1/8" = 1'-0"
140
0.125
141
12.0
290
     0
  0
SCALE
  5
5F
102
{ACAD_REACTORS
330
47
102
}
330
47
100
AcDbScale
 70
     0
300
3/16" = 1'-0"
140
0.1875
141
12.0
290
     0
  0
SCALE
  5
60
102
{ACAD_REACTORS
330
47
102
}
330
47
100
AcDbScale
 70
     0
300
1/4" = 1'-0"
140
0.25
141
12.0
290
     0
  0
SCALE
  5
61
102
{ACAD_REACTORS
330
47
102
}
330
47
100
AcDbScale
 70
     0
300
3/8" = 1'-0"
140
0.375
141
12.0
290
     0
  0
SCALE
  5
62
102
{ACAD_REACTORS
330
47
102
}
330
47
100
AcDbScale
 70
     0
300
1/2" = 1'-0"
140
0.5
141
12.0
290
     0
  0
SCALE
  5
63
102
{ACAD_REACTORS
330
47
102
}
330
47
100
AcDbScale
 70
     0
300
3/4" = 1'-0"
140
0.75
141
12.0
290
     0
  0
SCALE
  5
64
102
{ACAD_REACTORS
330
47
102
}
330
47
100
AcDbScale
 70
     0
300
1" = 1'-0"
140
1.0
141
12.0
290
     0
  0
SCALE
  5
65
102
{ACAD_REACTORS
330
47
102
}
330
47
100
AcDbScale
 70
     0
300
1-1/2" = 1'-0"
140
1.5
141
12.0
290
     0
  0
SCALE
  5
66
102
{ACAD_REACTORS
330
47
102
}
330
47
100
AcDbScale
 70
     0
300
3" = 1'-0"
140
3.0
141
12.0
290
     0
  0
SCALE
  5
67
102
{ACAD_REACTORS
330
47
102
}
330
47
100
AcDbScale
 70
     0
300
6" = 1'-0"
140
6.0
141
12.0
290
     0
  0
SCALE
  5
68
102
{ACAD_REACTORS
330
47
102
}
330
47
100
AcDbScale
 70
     0
300
1'-0" = 1'-0"
140
12.0
141
12.0
290
     0
  0
TABLESTYLE
  5
6A
102
{ACAD_REACTORS
330
69
102
}
102
{ACAD_XDICTIONARY
360
402
102
}
330
69
100
AcDbTableStyle
  3
Standard
 70
     0
 71
     0
 40
0.06
 41
0.06
280
     0
281
     0
  7
Standard
140
0.18
170
     2
 62
     0
 63
   257
283
     0
 90
        4
 91
        0
  1

274
    -2
284
     1
 64
     0
275
    -2
285
     1
 65
     0
276
    -2
286
     1
 66
     0
277
    -2
287
     1
 67
     0
278
    -2
288
     1
 68
     0
279
    -2
289
     1
 69
     0
  7
Standard
140
0.25
170
     5
 62
     0
 63
   257
283
     0
 90
        4
 91
        0
  1

274
    -2
284
     1
 64
     0
275
    -2
285
     1
 65
     0
276
    -2
286
     1
 66
     0
277
    -2
287
     1
 67
     0
278
    -2
288
     1
 68
     0
279
    -2
289
     1
 69
     0
  7
Standard
140
0.18
170
     5
 62
     0
 63
   257
283
     0
 90
        4
 91
        0
  1

274
    -2
284
     1
 64
     0
275
    -2
285
     1
 65
     0
276
    -2
286
     1
 66
     0
277
    -2
287
     1
 67
     0
278
    -2
288
     1
 68
     0
279
    -2
289
     1
 69
     0
  0
VISUALSTYLE
  5
2F
102
{ACAD_REACTORS
330
2A
102
}
330
2A
100
AcDbVisualStyle
  2
2dWireframe
 70
     4
177
     3
291
     0
 70
    58
 90
        0
176
     1
 90
        2
176
     1
 90
        0
176
     1
 90
        0
176
     1
 40
0.6
176
     1
 40
30.0
176
     1
 62
     7
420
 16777215
176
     1
 90
        1
176
     1
 90
        4
176
     1
 62
     7
176
     1
 62
   257
176
     1
 90
        1
176
     1
 90
        1
176
     1
 40
1.0
176
     1
 90
        0
176
     1
 62
   257
176
     1
 40
1.0
176
     1
 90
        1
176
     1
 90
        6
176
     1
 90
        2
176
     1
 62
     7
176
     1
 90
        5
176
     1
 90
        0
176
     1
 90
        0
176
     1
290
     0
176
     1
 90
        1
176
     1
 40
0.0
176
     1
 90
        0
176
     1
290
     1
176
     1
290
     1
176
     1
290
     0
176
     1
290
     0
176
     1
290
     0
176
     1
290
     0
176
     1
290
     0
176
     1
290
     0
176
     1
290
     0
176
     1
 90
       50
176
     1
 40
0.0
176
     1
 40
1.0
176
     1
 90
        0
176
     1
 62
    18
420
        0
176
     1
 90
       50
176
     1
 90
        3
176
     1
 62
     5
420
      255
176
     1
290
     0
176
     1
 90
       50
176
     1
 90
       50
176
     1
 90
       50
176
     1
290
     0
176
     1
 90
       50
176
     1
 62
   256
176
     0
 40
1.0
176
     0
 90
        2
176
     1
  1
strokes_ogs.tif
176
     1
290
     0
176
     1
 40
1.0
176
     1
 40
1.0
176
     1
  0
VISUALSTYLE
  5
32
102
{ACAD_REACTORS
330
2A
102
}
330
2A
100
AcDbVisualStyle
  2
Basic
 70
     7
177
     3
291
     1
 70
    58
 90
        1
176
     1
 90
        0
176
     1
 90
        1
176
     1
 90
        0
176
     1
 40
0.6
176
     1
 40
30.0
176
     1
 62
     7
420
 16777215
176
     1
 90
        0
176
     1
 90
        4
176
     1
 62
     7
176
     1
 62
   257
176
     1
 90
        1
176
     1
 90
        1
176
     1
 40
1.0
176
     1
 90
        8
176
     1
 62
     7
176
     1
 40
1.0
176
     1
 90
        1
176
     1
 90
        6
176
     1
 90
        2
176
     1
 62
     7
176
     1
 90
        5
176
     1
 90
        0
176
     1
 90
        0
176
     1
290
     0
176
     1
 90
        1
176
     1
 40
0.0
176
     1
 90
        0
176
     1
290
     0
176
     1
290
     1
176
     1
290
     1
176
     1
290
     0
176
     1
290
     0
176
     1
290
     0
176
     1
290
     0
176
     1
290
     0
176
     1
290
     0
176
     1
 90
       50
176
     1
 40
0.0
176
     1
 40
1.0
176
     1
 90
        0
176
     1
 62
    18
420
        0
176
     1
 90
       50
176
     1
 90
        3
176
     1
 62
     5
420
      255
176
     1
290
     0
176
     1
 90
       50
176
     1
 90
       50
176
     1
 90
       50
176
     1
290
     0
176
     1
 90
       50
176
     1
 62
   256
176
     0
 40
1.0
176
     0
 90
        2
176
     1
  1
strokes_ogs.tif
176
     1
290
     0
176
     1
 40
1.0
176
     1
 40
1.0
176
     1
  0
VISUALSTYLE
  5
36
102
{ACAD_REACTORS
330
2A
102
}
330
2A
100
AcDbVisualStyle
  2
Brighten
 70
    12
177
     3
291
     1
 70
    58
 90
        2
176
     1
 90
        2
176
     1
 90
        0
176
     1
 90
        0
176
     1
 40
0.6
176
     1
 40
30.0
176
     1
 62
     7
420
 16777215
176
     1
 90
        1
176
     1
 90
        4
176
     1
 62
     7
176
     1
 62
   257
176
     1
 90
        1
176
     1
 90
        1
176
     1
 40
1.0
176
     1
 90
        8
176
     1
 62
     7
176
     1
 40
1.0
176
     1
 90
        1
176
     1
 90
        6
176
     1
 90
        2
176
     1
 62
     7
176
     1
 90
        5
176
     1
 90
        0
176
     1
 90
        0
176
     1
290
     0
176
     1
 90
        1
176
     1
 40
50.0
176
     1
 90
        0
176
     1
290
     0
176
     1
290
     1
176
     1
290
     1
176
     1
290
     0
176
     1
290
     0
176
     1
290
     0
176
     1
290
     0
176
     1
290
     0
176
     1
290
     0
176
     1
 90
       50
176
     1
 40
0.0
176
     1
 40
1.0
176
     1
 90
        0
176
     1
 62
    18
420
        0
176
     1
 90
       50
176
     1
 90
        3
176
     1
 62
     5
420
      255
176
     1
290
     0
176
     1
 90
       50
176
     1
 90
       50
176
     1
 90
       50
176
     1
290
     0
176
     1
 90
       50
176
     1
 62
   256
176
     0
 40
1.0
176
     0
 90
        2
176
     1
  1
strokes_ogs.tif
176
     1
290
     0
176
     1
 40
1.0
176
     1
 40
1.0
176
     1
  0
VISUALSTYLE
  5
3A
102
{ACAD_REACTORS
330
2A
102
}
330
2A
100
AcDbVisualStyle
  2
ColorChange
 70
    16
177
     3
291
     1
 70
    58
 90
        2
176
     1
 90
        2
176
     1
 90
        3
176
     1
 90
        0
176
     1
 40
0.6
176
     1
 40
30.0
176
     1
 62
     8
420
  8421504
176
     1
 90
        1
176
     1
 90
        4
176
     1
 62
     7
176
     1
 62
   257
176
     1
 90
        1
176
     1
 90
        1
176
     1
 40
1.0
176
     1
 90
        8
176
     1
 62
     8
420
  8421504
176
     1
 40
1.0
176
     1
 90
        1
176
     1
 90
        6
176
     1
 90
        2
176
     1
 62
     7
176
     1
 90
        5
176
     1
 90
        0
176
     1
 90
        0
176
     1
290
     0
176
     1
 90
        1
176
     1
 40
0.0
176
     1
 90
        0
176
     1
290
     0
176
     1
290
     1
176
     1
290
     1
176
     1
290
     0
176
     1
290
     0
176
     1
290
     0
176
     1
290
     0
176
     1
290
     0
176
     1
290
     0
176
     1
 90
       50
176
     1
 40
0.0
176
     1
 40
1.0
176
     1
 90
        0
176
     1
 62
    18
420
        0
176
     1
 90
       50
176
     1
 90
        3
176
     1
 62
     5
420
      255
176
     1
290
     0
176
     1
 90
       50
176
     1
 90
       50
176
     1
 90
       50
176
     1
290
     0
176
     1
 90
       50
176
     1
 62
   256
176
     0
 40
1.0
176
     0
 90
        2
176
     1
  1
strokes_ogs.tif
176
     1
290
     0
176
     1
 40
1.0
176
     1
 40
1.0
176
     1
  0
VISUALSTYLE
  5
34
102
{ACAD_REACTORS
330
2A
102
}
330
2A
100
AcDbVisualStyle
  2
Conceptual
 70
     9
177
     3
291
     0
 70
    58
 90
        3
176
     1
 90
        2
176
     1
 90
        0
176
     1
 90
        0
176
     1
 40
0.6
176
     1
 40
30.0
176
     1
 62
     7
420
 16777215
176
     1
 90
        2
176
     1
 90
        2
176
     1
 62
     7
176
     1
 62
   257
176
     1
 90
        1
176
     1
 90
        1
176
     1
 40
179.0
176
     1
 90
        8
176
     1
 62
     7
176
     1
 40
1.0
176
     1
 90
        1
176
     1
 90
        6
176
     1
 90
        2
176
     1
 62
     7
176
     1
 90
        3
176
     1
 90
        0
176
     1
 90
        0
176
     1
290
     0
176
     1
 90
        1
176
     1
 40
0.0
176
     1
 90
        0
176
     1
290
     0
176
     1
290
     1
176
     1
290
     1
176
     1
290
     0
176
     1
290
     0
176
     1
290
     0
176
     1
290
     0
176
     1
290
     0
176
     1
290
     0
176
     1
 90
       50
176
     1
 40
0.0
176
     1
 40
1.0
176
     1
 90
        0
176
     1
 62
    18
420
        0
176
     1
 90
       50
176
     1
 90
        3
176
     1
 62
     5
420
      255
176
     1
290
     0
176
     1
 90
       50
176
     1
 90
       50
176
     1
 90
       50
176
     1
290
     0
176
     1
 90
       50
176
     1
 62
   256
176
     0
 40
1.0
176
     0
 90
        2
176
     1
  1
strokes_ogs.tif
176
     1
290
     0
176
     1
 40
1.0
176
     1
 40
1.0
176
     1
  0
VISUALSTYLE
  5
35
102
{ACAD_REACTORS
330
2A
102
}
330
2A
100
AcDbVisualStyle
  2
Dim
 70
    11
177
     3
291
     1
 70
    58
 90
        2
176
     1
 90
        2
176
     1
 90
        0
176
     1
 90
        0
176
     1
 40
0.6
176
     1
 40
30.0
176
     1
 62
     7
420
 16777215
176
     1
 90
        1
176
     1
 90
        4
176
     1
 62
     7
176
     1
 62
   257
176
     1
 90
        1
176
     1
 90
        1
176
     1
 40
1.0
176
     1
 90
        8
176
     1
 62
     7
176
     1
 40
1.0
176
     1
 90
        1
176
     1
 90
        6
176
     1
 90
        2
176
     1
 62
     7
176
     1
 90
        5
176
     1
 90
        0
176
     1
 90
        0
176
     1
290
     0
176
     1
 90
        1
176
     1
 40
-50.0
176
     1
 90
        0
176
     1
290
     0
176
     1
290
     1
176
     1
290
     1
176
     1
290
     0
176
     1
290
     0
176
     1
290
     0
176
     1
290
     0
176
     1
290
     0
176
     1
290
     0
176
     1
 90
       50
176
     1
 40
0.0
176
     1
 40
1.0
176
     1
 90
        0
176
     1
 62
    18
420
        0
176
     1
 90
       50
176
     1
 90
        3
176
     1
 62
     5
420
      255
176
     1
290
     0
176
     1
 90
       50
176
     1
 90
       50
176
     1
 90
       50
176
     1
290
     0
176
     1
 90
       50
176
     1
 62
   256
176
     0
 40
1.0
176
     0
 90
        2
176
     1
  1
strokes_ogs.tif
176
     1
290
     0
176
     1
 40
1.0
176
     1
 40
1.0
176
     1
  0
VISUALSTYLE
  5
3D
102
{ACAD_REACTORS
330
2A
102
}
330
2A
100
AcDbVisualStyle
  2
EdgeColorOff
 70
    22
177
     3
291
     1
 70
    58
 90
        2
176
     0
 90
        2
176
     0
 90
        0
176
     0
 90
        0
176
     0
 40
0.6
176
     0
 40
30.0
176
     0
 62
     7
420
 16777215
176
     0
 90
        1
176
     0
 90
        4
176
     0
 62
     7
176
     0
 62
   257
176
     0
 90
        1
176
     0
 90
        1
176
     0
 40
1.0
176
     0
 90
        8
176
     2
 62
     7
176
     0
 40
1.0
176
     0
 90
        1
176
     0
 90
        6
176
     0
 90
        2
176
     0
 62
     7
176
     0
 90
        5
176
     0
 90
        0
176
     0
 90
        0
176
     0
290
     0
176
     0
 90
        1
176
     0
 40
0.0
176
     0
 90
        0
176
     0
290
     0
176
     0
290
     1
176
     0
290
     1
176
     0
290
     0
176
     0
290
     0
176
     0
290
     0
176
     0
290
     0
176
     0
290
     0
176
     0
290
     0
176
     0
 90
       50
176
     0
 40
0.0
176
     0
 40
1.0
176
     0
 90
        0
176
     0
 62
    18
420
        0
176
     0
 90
       50
176
     0
 90
        3
176
     0
 62
     5
420
      255
176
     0
290
     0
176
     0
 90
       50
176
     0
 90
       50
176
     0
 90
       50
176
     0
290
     0
176
     0
 90
       50
176
     0
 62
   256
176
     0
 40
1.0
176
     0
 90
        2
176
     0
  1
strokes_ogs.tif
176
     0
290
     0
176
     0
 40
1.0
176
     0
 40
1.0
176
     0
  0
VISUALSTYLE
  5
39
102
{ACAD_REACTORS
330
2A
102
}
330
2A
100
AcDbVisualStyle
  2
Facepattern
 70
    15
177
     3
291
     1
 70
    58
 90
        2
176
     1
 90
        2
176
     1
 90
        0
176
     1
 90
        0
176
     1
 40
0.6
176
     1
 40
30.0
176
     1
 62
     7
420
 16777215
176
     1
 90
        1
176
     1
 90
        4
176
     1
 62
     7
176
     1
 62
   257
176
     1
 90
        1
176
     1
 90
        1
176
     1
 40
1.0
176
     1
 90
        8
176
     1
 62
     7
176
     1
 40
1.0
176
     1
 90
        1
176
     1
 90
        6
176
     1
 90
        2
176
     1
 62
     7
176
     1
 90
        5
176
     1
 90
        0
176
     1
 90
        0
176
     1
290
     0
176
     1
 90
        1
176
     1
 40
0.0
176
     1
 90
        0
176
     1
290
     0
176
     1
290
     1
176
     1
290
     1
176
     1
290
     0
176
     1
290
     0
176
     1
290
     0
176
     1
290
     0
176
     1
290
     0
176
     1
290
     0
176
     1
 90
       50
176
     1
 40
0.0
176
     1
 40
1.0
176
     1
 90
        0
176
     1
 62
    18
420
        0
176
     1
 90
       50
176
     1
 90
        3
176
     1
 62
     5
420
      255
176
     1
290
     0
176
     1
 90
       50
176
     1
 90
       50
176
     1
 90
       50
176
     1
290
     0
176
     1
 90
       50
176
     1
 62
   256
176
     0
 40
1.0
176
     0
 90
        2
176
     1
  1
strokes_ogs.tif
176
     1
290
     0
176
     1
 40
1.0
176
     1
 40
1.0
176
     1
  0
VISUALSTYLE
  5
2B
102
{ACAD_REACTORS
330
2A
102
}
330
2A
100
AcDbVisualStyle
  2
Flat
 70
     0
177
     3
291
     1
 70
    58
 90
        2
176
     1
 90
        1
176
     1
 90
        1
176
     1
 90
        2
176
     1
 40
0.6
176
     1
 40
30.0
176
     1
 62
     7
420
 16777215
176
     1
 90
        0
176
     1
 90
        0
176
     1
 62
     7
176
     1
 62
   257
176
     1
 90
        1
176
     1
 90
        1
176
     1
 40
1.0
176
     1
 90
        8
176
     1
 62
     7
176
     1
 40
1.0
176
     1
 90
        1
176
     1
 90
        6
176
     1
 90
        2
176
     1
 62
     7
176
     1
 90
        5
176
     1
 90
        0
176
     1
 90
        0
176
     1
290
     0
176
     1
 90
       13
176
     1
 40
0.0
176
     1
 90
        0
176
     1
290
     0
176
     1
290
     1
176
     1
290
     1
176
     1
290
     0
176
     1
290
     0
176
     1
290
     0
176
     1
290
     0
176
     1
290
     0
176
     1
290
     0
176
     1
 90
       50
176
     1
 40
0.0
176
     1
 40
1.0
176
     1
 90
        0
176
     1
 62
    18
420
        0
176
     1
 90
       50
176
     1
 90
        3
176
     1
 62
     5
420
      255
176
     1
290
     0
176
     1
 90
       50
176
     1
 90
       50
176
     1
 90
       50
176
     1
290
     0
176
     1
 90
       50
176
     1
 62
   256
176
     0
 40
1.0
176
     0
 90
        2
176
     1
  1
strokes_ogs.tif
176
     1
290
     0
176
     1
 40
1.0
176
     1
 40
1.0
176
     1
  0
VISUALSTYLE
  5
2C
102
{ACAD_REACTORS
330
2A
102
}
330
2A
100
AcDbVisualStyle
  2
FlatWithEdges
 70
     1
177
     3
291
     1
 70
    58
 90
        2
176
     1
 90
        1
176
     1
 90
        1
176
     1
 90
        2
176
     1
 40
0.6
176
     1
 40
30.0
176
     1
 62
     7
420
 16777215
176
     1
 90
        1
176
     1
 90
        0
176
     1
 62
     7
176
     1
 62
   257
176
     1
 90
        1
176
     1
 90
        1
176
     1
 40
1.0
176
     1
 90
        0
176
     1
 62
   257
176
     1
 40
1.0
176
     1
 90
        1
176
     1
 90
        6
176
     1
 90
        2
176
     1
 62
     7
176
     1
 90
        5
176
     1
 90
        0
176
     1
 90
        0
176
     1
290
     0
176
     1
 90
       13
176
     1
 40
0.0
176
     1
 90
        0
176
     1
290
     0
176
     1
290
     1
176
     1
290
     1
176
     1
290
     0
176
     1
290
     0
176
     1
290
     0
176
     1
290
     0
176
     1
290
     0
176
     1
290
     0
176
     1
 90
       50
176
     1
 40
0.0
176
     1
 40
1.0
176
     1
 90
        0
176
     1
 62
    18
420
        0
176
     1
 90
       50
176
     1
 90
        3
176
     1
 62
     5
420
      255
176
     1
290
     0
176
     1
 90
       50
176
     1
 90
       50
176
     1
 90
       50
176
     1
290
     0
176
     1
 90
       50
176
     1
 62
   256
176
     0
 40
1.0
176
     0
 90
        2
176
     1
  1
strokes_ogs.tif
176
     1
290
     0
176
     1
 40
1.0
176
     1
 40
1.0
176
     1
  0
VISUALSTYLE
  5
2D
102
{ACAD_REACTORS
330
2A
102
}
330
2A
100
AcDbVisualStyle
  2
Gouraud
 70
     2
177
     3
291
     1
 70
    58
 90
        2
176
     1
 90
        2
176
     1
 90
        1
176
     1
 90
        2
176
     1
 40
0.6
176
     1
 40
30.0
176
     1
 62
     7
420
 16777215
176
     1
 90
        0
176
     1
 90
        0
176
     1
 62
     7
176
     1
 62
   257
176
     1
 90
        1
176
     1
 90
        1
176
     1
 40
1.0
176
     1
 90
        0
176
     1
 62
     7
176
     1
 40
1.0
176
     1
 90
        1
176
     1
 90
        6
176
     1
 90
        2
176
     1
 62
     7
176
     1
 90
        5
176
     1
 90
        0
176
     1
 90
        0
176
     1
290
     0
176
     1
 90
       13
176
     1
 40
0.0
176
     1
 90
        0
176
     1
290
     0
176
     1
290
     1
176
     1
290
     1
176
     1
290
     0
176
     1
290
     0
176
     1
290
     0
176
     1
290
     0
176
     1
290
     0
176
     1
290
     0
176
     1
 90
       50
176
     1
 40
0.0
176
     1
 40
1.0
176
     1
 90
        0
176
     1
 62
    18
420
        0
176
     1
 90
       50
176
     1
 90
        3
176
     1
 62
     5
420
      255
176
     1
290
     0
176
     1
 90
       50
176
     1
 90
       50
176
     1
 90
       50
176
     1
290
     0
176
     1
 90
       50
176
     1
 62
   256
176
     0
 40
1.0
176
     0
 90
        2
176
     1
  1
strokes_ogs.tif
176
     1
290
     0
176
     1
 40
1.0
176
     1
 40
1.0
176
     1
  0
VISUALSTYLE
  5
2E
102
{ACAD_REACTORS
330
2A
102
}
330
2A
100
AcDbVisualStyle
  2
GouraudWithEdges
 70
     3
177
     3
291
     1
 70
    58
 90
        2
176
     1
 90
        2
176
     1
 90
        1
176
     1
 90
        2
176
     1
 40
0.6
176
     1
 40
30.0
176
     1
 62
     7
420
 16777215
176
     1
 90
        1
176
     1
 90
        0
176
     1
 62
     7
176
     1
 62
   257
176
     1
 90
        1
176
     1
 90
        1
176
     1
 40
1.0
176
     1
 90
        0
176
     1
 62
   257
176
     1
 40
1.0
176
     1
 90
        1
176
     1
 90
        6
176
     1
 90
        2
176
     1
 62
     7
176
     1
 90
        5
176
     1
 90
        0
176
     1
 90
        0
176
     1
290
     0
176
     1
 90
       13
176
     1
 40
0.0
176
     1
 90
        0
176
     1
290
     0
176
     1
290
     1
176
     1
290
     1
176
     1
290
     0
176
     1
290
     0
176
     1
290
     0
176
     1
290
     0
176
     1
290
     0
176
     1
290
     0
176
     1
 90
       50
176
     1
 40
0.0
176
     1
 40
1.0
176
     1
 90
        0
176
     1
 62
    18
420
        0
176
     1
 90
       50
176
     1
 90
        3
176
     1
 62
     5
420
      255
176
     1
290
     0
176
     1
 90
       50
176
     1
 90
       50
176
     1
 90
       50
176
     1
290
     0
176
     1
 90
       50
176
     1
 62
   256
176
     0
 40
1.0
176
     0
 90
        2
176
     1
  1
strokes_ogs.tif
176
     1
290
     0
176
     1
 40
1.0
176
     1
 40
1.0
176
     1
  0
VISUALSTYLE
  5
31
102
{ACAD_REACTORS
330
2A
102
}
330
2A
100
AcDbVisualStyle
  2
Hidden
 70
     6
177
     3
291
     0
 70
    58
 90
        1
176
     1
 90
        2
176
     1
 90
        2
176
     1
 90
        0
176
     1
 40
0.6
176
     1
 40
30.0
176
     1
 62
     7
420
 16777215
176
     1
 90
        2
176
     1
 90
        2
176
     1
 62
     7
176
     1
 62
   257
176
     1
 90
        2
176
     1
 90
        1
176
     1
 40
40.0
176
     1
 90
        0
176
     1
 62
   257
176
     1
 40
1.0
176
     1
 90
        1
176
     1
 90
        6
176
     1
 90
        2
176
     1
 62
     7
176
     1
 90
        3
176
     1
 90
        0
176
     1
 90
        0
176
     1
290
     0
176
     1
 90
        1
176
     1
 40
0.0
176
     1
 90
        0
176
     1
290
     0
176
     1
290
     1
176
     1
290
     1
176
     1
290
     0
176
     1
290
     0
176
     1
290
     0
176
     1
290
     0
176
     1
290
     0
176
     1
290
     0
176
     1
 90
       50
176
     1
 40
0.0
176
     1
 40
1.0
176
     1
 90
        0
176
     1
 62
    18
420
        0
176
     1
 90
       50
176
     1
 90
        3
176
     1
 62
     5
420
      255
176
     1
290
     0
176
     1
 90
       50
176
     1
 90
       50
176
     1
 90
       50
176
     1
290
     0
176
     1
 90
       50
176
     1
 62
   256
176
     0
 40
1.0
176
     0
 90
        2
176
     1
  1
strokes_ogs.tif
176
     1
290
     0
176
     1
 40
1.0
176
     1
 40
1.0
176
     1
  0
VISUALSTYLE
  5
3B
102
{ACAD_REACTORS
330
2A
102
}
330
2A
100
AcDbVisualStyle
  2
JitterOff
 70
    20
177
     3
291
     1
 70
    58
 90
        2
176
     0
 90
        2
176
     0
 90
        0
176
     0
 90
        0
176
     0
 40
0.6
176
     0
 40
30.0
176
     0
 62
     7
420
 16777215
176
     0
 90
        1
176
     0
 90
        4
176
     0
 62
     7
176
     0
 62
   257
176
     0
 90
        1
176
     0
 90
        1
176
     0
 40
1.0
176
     0
 90
       10
176
     2
 62
     7
176
     0
 40
1.0
176
     0
 90
        1
176
     0
 90
        6
176
     0
 90
        2
176
     0
 62
     7
176
     0
 90
        5
176
     0
 90
        0
176
     0
 90
        0
176
     0
290
     0
176
     0
 90
        1
176
     0
 40
0.0
176
     0
 90
        0
176
     0
290
     0
176
     0
290
     1
176
     0
290
     1
176
     0
290
     0
176
     0
290
     0
176
     0
290
     0
176
     0
290
     0
176
     0
290
     0
176
     0
290
     0
176
     0
 90
       50
176
     0
 40
0.0
176
     0
 40
1.0
176
     0
 90
        0
176
     0
 62
    18
420
        0
176
     0
 90
       50
176
     0
 90
        3
176
     0
 62
     5
420
      255
176
     0
290
     0
176
     0
 90
       50
176
     0
 90
       50
176
     0
 90
       50
176
     0
290
     0
176
     0
 90
       50
176
     0
 62
   256
176
     0
 40
1.0
176
     0
 90
        2
176
     0
  1
strokes_ogs.tif
176
     0
290
     0
176
     0
 40
1.0
176
     0
 40
1.0
176
     0
  0
VISUALSTYLE
  5
38
102
{ACAD_REACTORS
330
2A
102
}
330
2A
100
AcDbVisualStyle
  2
Linepattern
 70
    14
177
     3
291
     1
 70
    58
 90
        2
176
     1
 90
        2
176
     1
 90
        0
176
     1
 90
        0
176
     1
 40
0.6
176
     1
 40
30.0
176
     1
 62
     7
420
 16777215
176
     1
 90
        1
176
     1
 90
        4
176
     1
 62
     7
176
     1
 62
   257
176
     1
 90
        7
176
     1
 90
        7
176
     1
 40
1.0
176
     1
 90
        8
176
     1
 62
     7
176
     1
 40
1.0
176
     1
 90
        1
176
     1
 90
        6
176
     1
 90
        2
176
     1
 62
     7
176
     1
 90
        5
176
     1
 90
        0
176
     1
 90
        0
176
     1
290
     0
176
     1
 90
        1
176
     1
 40
0.0
176
     1
 90
        0
176
     1
290
     0
176
     1
290
     1
176
     1
290
     1
176
     1
290
     0
176
     1
290
     0
176
     1
290
     0
176
     1
290
     0
176
     1
290
     0
176
     1
290
     0
176
     1
 90
       50
176
     1
 40
0.0
176
     1
 40
1.0
176
     1
 90
        0
176
     1
 62
    18
420
        0
176
     1
 90
       50
176
     1
 90
        3
176
     1
 62
     5
420
      255
176
     1
290
     0
176
     1
 90
       50
176
     1
 90
       50
176
     1
 90
       50
176
     1
290
     0
176
     1
 90
       50
176
     1
 62
   256
176
     0
 40
1.0
176
     0
 90
        2
176
     1
  1
strokes_ogs.tif
176
     1
290
     0
176
     1
 40
1.0
176
     1
 40
1.0
176
     1
  0
VISUALSTYLE
  5
3C
102
{ACAD_REACTORS
330
2A
102
}
330
2A
100
AcDbVisualStyle
  2
OverhangOff
 70
    21
177
     3
291
     1
 70
    58
 90
        2
176
     0
 90
        2
176
     0
 90
        0
176
     0
 90
        0
176
     0
 40
0.6
176
     0
 40
30.0
176
     0
 62
     7
420
 16777215
176
     0
 90
        1
176
     0
 90
        4
176
     0
 62
     7
176
     0
 62
   257
176
     0
 90
        1
176
     0
 90
        1
176
     0
 40
1.0
176
     0
 90
        9
176
     2
 62
     7
176
     0
 40
1.0
176
     0
 90
        1
176
     0
 90
        6
176
     0
 90
        2
176
     0
 62
     7
176
     0
 90
        5
176
     0
 90
        0
176
     0
 90
        0
176
     0
290
     0
176
     0
 90
        1
176
     0
 40
0.0
176
     0
 90
        0
176
     0
290
     0
176
     0
290
     1
176
     0
290
     1
176
     0
290
     0
176
     0
290
     0
176
     0
290
     0
176
     0
290
     0
176
     0
290
     0
176
     0
290
     0
176
     0
 90
       50
176
     0
 40
0.0
176
     0
 40
1.0
176
     0
 90
        0
176
     0
 62
    18
420
        0
176
     0
 90
       50
176
     0
 90
        3
176
     0
 62
     5
420
      255
176
     0
290
     0
176
     0
 90
       50
176
     0
 90
       50
176
     0
 90
       50
176
     0
290
     0
176
     0
 90
       50
176
     0
 62
   256
176
     0
 40
1.0
176
     0
 90
        2
176
     0
  1
strokes_ogs.tif
176
     0
290
     0
176
     0
 40
1.0
176
     0
 40
1.0
176
     0
  0
VISUALSTYLE
  5
33
102
{ACAD_REACTORS
330
2A
102
}
330
2A
100
AcDbVisualStyle
  2
Realistic
 70
     8
177
     3
291
     0
 70
    58
 90
        2
176
     1
 90
        3
176
     1
 90
        0
176
     1
 90
        2
176
     1
 40
0.6
176
     1
 40
30.0
176
     1
 62
     7
420
 16777215
176
     1
 90
        0
176
     1
 90
        0
176
     1
 62
     7
176
     1
 62
   257
176
     1
 90
        1
176
     1
 90
        1
176
     1
 40
1.0
176
     1
 90
        8
176
     1
 62
   257
176
     1
 40
1.0
176
     1
 90
        1
176
     1
 90
        6
176
     1
 90
        2
176
     1
 62
     7
176
     1
 90
        3
176
     1
 90
        0
176
     1
 90
        0
176
     1
290
     0
176
     1
 90
       13
176
     1
 40
0.0
176
     1
 90
        0
176
     1
290
     0
176
     1
290
     1
176
     1
290
     1
176
     1
290
     0
176
     1
290
     0
176
     1
290
     0
176
     1
290
     0
176
     1
290
     0
176
     1
290
     0
176
     1
 90
       50
176
     1
 40
0.0
176
     1
 40
1.0
176
     1
 90
        0
176
     1
 62
    18
420
        0
176
     1
 90
       50
176
     1
 90
        3
176
     1
 62
     5
420
      255
176
     1
290
     0
176
     1
 90
       50
176
     1
 90
       50
176
     1
 90
       50
176
     1
290
     0
176
     1
 90
       50
176
     1
 62
   256
176
     0
 40
1.0
176
     0
 90
        2
176
     1
  1
strokes_ogs.tif
176
     1
290
     0
176
     1
 40
1.0
176
     1
 40
1.0
176
     1
  0
VISUALSTYLE
  5
42
102
{ACAD_REACTORS
330
2A
102
}
330
2A
100
AcDbVisualStyle
  2
Shaded
 70
    27
177
     3
291
     0
 70
    58
 90
        2
176
     1
 90
        2
176
     1
 90
        1
176
     1
 90
        2
176
     1
 40
0.6
176
     1
 40
30.0
176
     1
 62
     7
420
 16777215
176
     1
 90
        0
176
     1
 90
        4
176
     1
 62
     7
176
     1
 62
   257
176
     1
 90
        1
176
     1
 90
        1
176
     1
 40
1.0
176
     1
 90
        8
176
     1
 62
   257
176
     1
 40
1.0
176
     1
 90
        1
176
     1
 90
        6
176
     1
 90
        2
176
     1
 62
     8
420
  7895160
176
     1
 90
        3
176
     1
 90
        0
176
     1
 90
        0
176
     1
290
     0
176
     1
 90
        5
176
     1
 40
0.0
176
     1
 90
        0
176
     1
290
     0
176
     1
290
     1
176
     1
290
     1
176
     1
290
     0
176
     1
290
     0
176
     1
290
     0
176
     1
290
     0
176
     1
290
     0
176
     1
290
     0
176
     1
 90
       50
176
     1
 40
0.0
176
     1
 40
1.0
176
     1
 90
        0
176
     1
 62
    18
420
        0
176
     1
 90
       50
176
     1
 90
        3
176
     1
 62
     5
420
      255
176
     1
290
     0
176
     1
 90
       50
176
     1
 90
       50
176
     1
 90
       50
176
     1
290
     0
176
     1
 90
       50
176
     1
 62
   256
176
     0
 40
1.0
176
     0
 90
        2
176
     1
  1
strokes_ogs.tif
176
     1
290
     0
176
     1
 40
1.0
176
     1
 40
1.0
176
     1
  0
VISUALSTYLE
  5
41
102
{ACAD_REACTORS
330
2A
102
}
330
2A
100
AcDbVisualStyle
  2
Shaded with edges
 70
    26
177
     3
291
     0
 70
    58
 90
        2
176
     1
 90
        2
176
     1
 90
        1
176
     1
 90
        2
176
     1
 40
0.6
176
     1
 40
30.0
176
     1
 62
     7
420
 16777215
176
     1
 90
        1
176
     1
 90
       10
176
     1
 62
     7
176
     1
 62
   257
176
     1
 90
        2
176
     1
 90
        1
176
     1
 40
1.0
176
     1
 90
        8
176
     1
 62
   257
176
     1
 40
1.0
176
     1
 90
        1
176
     1
 90
        6
176
     1
 90
        2
176
     1
 62
     7
176
     1
 90
        3
176
     1
 90
        0
176
     1
 90
        0
176
     1
290
     0
176
     1
 90
        5
176
     1
 40
0.0
176
     1
 90
        0
176
     1
290
     0
176
     1
290
     1
176
     1
290
     1
176
     1
290
     0
176
     1
290
     0
176
     1
290
     0
176
     1
290
     0
176
     1
290
     0
176
     1
290
     0
176
     1
 90
       50
176
     1
 40
0.0
176
     1
 40
1.0
176
     1
 90
        0
176
     1
 62
    18
420
        0
176
     1
 90
       50
176
     1
 90
        3
176
     1
 62
     5
420
      255
176
     1
290
     0
176
     1
 90
       50
176
     1
 90
       50
176
     1
 90
       50
176
     1
290
     0
176
     1
 90
       50
176
     1
 62
   256
176
     0
 40
1.0
176
     0
 90
        2
176
     1
  1
strokes_ogs.tif
176
     1
290
     0
176
     1
 40
1.0
176
     1
 40
1.0
176
     1
  0
VISUALSTYLE
  5
3E
102
{ACAD_REACTORS
330
2A
102
}
330
2A
100
AcDbVisualStyle
  2
Shades of Gray
 70
    23
177
     3
291
     0
 70
    58
 90
        2
176
     1
 90
        2
176
     1
 90
        3
176
     1
 90
        0
176
     1
 40
0.6
176
     1
 40
30.0
176
     1
 62
     7
420
 16777215
176
     1
 90
        2
176
     1
 90
        2
176
     1
 62
     7
176
     1
 62
     7
176
     1
 90
        1
176
     1
 90
        1
176
     1
 40
40.0
176
     1
 90
        8
176
     1
 62
     7
176
     1
 40
1.0
176
     1
 90
        1
176
     1
 90
        6
176
     1
 90
        2
176
     1
 62
     7
176
     1
 90
        3
176
     1
 90
        0
176
     1
 90
        0
176
     1
290
     0
176
     1
 90
        1
176
     1
 40
0.0
176
     1
 90
        0
176
     1
290
     0
176
     1
290
     1
176
     1
290
     1
176
     1
290
     0
176
     1
290
     0
176
     1
290
     0
176
     1
290
     0
176
     1
290
     0
176
     1
290
     0
176
     1
 90
       50
176
     1
 40
0.0
176
     1
 40
1.0
176
     1
 90
        0
176
     1
 62
    18
420
        0
176
     1
 90
       50
176
     1
 90
        3
176
     1
 62
     5
420
      255
176
     1
290
     0
176
     1
 90
       50
176
     1
 90
       50
176
     1
 90
       50
176
     1
290
     0
176
     1
 90
       50
176
     1
 62
   256
176
     0
 40
1.0
176
     0
 90
        2
176
     1
  1
strokes_ogs.tif
176
     1
290
     0
176
     1
 40
1.0
176
     1
 40
1.0
176
     1
  0
VISUALSTYLE
  5
3F
102
{ACAD_REACTORS
330
2A
102
}
330
2A
100
AcDbVisualStyle
  2
Sketchy
 70
    24
177
     3
291
     0
 70
    58
 90
        1
176
     1
 90
        2
176
     1
 90
        2
176
     1
 90
        0
176
     1
 40
0.6
176
     1
 40
30.0
176
     1
 62
     7
420
 16777215
176
     1
 90
        2
176
     1
 90
        2
176
     1
 62
     7
176
     1
 62
     7
176
     1
 90
        1
176
     1
 90
        1
176
     1
 40
40.0
176
     1
 90
       11
176
     1
 62
     7
176
     1
 40
1.0
176
     1
 90
        1
176
     1
 90
        6
176
     1
 90
        2
176
     1
 62
     7
176
     1
 90
        6
176
     1
 90
        0
176
     1
 90
        0
176
     1
290
     0
176
     1
 90
        1
176
     1
 40
0.0
176
     1
 90
        0
176
     1
290
     0
176
     1
290
     1
176
     1
290
     1
176
     1
290
     0
176
     1
290
     0
176
     1
290
     0
176
     1
290
     0
176
     1
290
     0
176
     1
290
     0
176
     1
 90
       50
176
     1
 40
0.0
176
     1
 40
1.0
176
     1
 90
        0
176
     1
 62
    18
420
        0
176
     1
 90
       50
176
     1
 90
        3
176
     1
 62
     5
420
      255
176
     1
290
     0
176
     1
 90
       50
176
     1
 90
       50
176
     1
 90
       50
176
     1
290
     0
176
     1
 90
       50
176
     1
 62
   256
176
     0
 40
1.0
176
     0
 90
        2
176
     1
  1
strokes_ogs.tif
176
     1
290
     0
176
     1
 40
1.0
176
     1
 40
1.0
176
     1
  0
VISUALSTYLE
  5
37
102
{ACAD_REACTORS
330
2A
102
}
330
2A
100
AcDbVisualStyle
  2
Thicken
 70
    13
177
     3
291
     1
 70
    58
 90
        2
176
     1
 90
        2
176
     1
 90
        0
176
     1
 90
        0
176
     1
 40
0.6
176
     1
 40
30.0
176
     1
 62
     7
420
 16777215
176
     1
 90
        1
176
     1
 90
        4
176
     1
 62
     7
176
     1
 62
   257
176
     1
 90
        1
176
     1
 90
        1
176
     1
 40
1.0
176
     1
 90
       12
176
     1
 62
     7
176
     1
 40
1.0
176
     1
 90
        1
176
     1
 90
        6
176
     1
 90
        2
176
     1
 62
     7
176
     1
 90
        5
176
     1
 90
        0
176
     1
 90
        0
176
     1
290
     0
176
     1
 90
        1
176
     1
 40
0.0
176
     1
 90
        0
176
     1
290
     0
176
     1
290
     1
176
     1
290
     1
176
     1
290
     0
176
     1
290
     0
176
     1
290
     0
176
     1
290
     0
176
     1
290
     0
176
     1
290
     0
176
     1
 90
       50
176
     1
 40
0.0
176
     1
 40
1.0
176
     1
 90
        0
176
     1
 62
    18
420
        0
176
     1
 90
       50
176
     1
 90
        3
176
     1
 62
     5
420
      255
176
     1
290
     0
176
     1
 90
       50
176
     1
 90
       50
176
     1
 90
       50
176
     1
290
     0
176
     1
 90
       50
176
     1
 62
   256
176
     0
 40
1.0
176
     0
 90
        2
176
     1
  1
strokes_ogs.tif
176
     1
290
     0
176
     1
 40
1.0
176
     1
 40
1.0
176
     1
  0
VISUALSTYLE
  5
30
102
{ACAD_REACTORS
330
2A
102
}
330
2A
100
AcDbVisualStyle
  2
Wireframe
 70
     5
177
     3
291
     0
 70
    58
 90
        0
176
     1
 90
        2
176
     1
 90
        0
176
     1
 90
        0
176
     1
 40
0.6
176
     1
 40
30.0
176
     1
 62
     7
420
 16777215
176
     1
 90
        1
176
     1
 90
        4
176
     1
 62
     7
176
     1
 62
   257
176
     1
 90
        1
176
     1
 90
        1
176
     1
 40
1.0
176
     1
 90
        0
176
     1
 62
   257
176
     1
 40
1.0
176
     1
 90
        1
176
     1
 90
        6
176
     1
 90
        2
176
     1
 62
     7
176
     1
 90
        3
176
     1
 90
        0
176
     1
 90
        0
176
     1
290
     0
176
     1
 90
        1
176
     1
 40
0.0
176
     1
 90
        0
176
     1
290
     0
176
     1
290
     1
176
     1
290
     1
176
     1
290
     0
176
     1
290
     0
176
     1
290
     0
176
     1
290
     0
176
     1
290
     0
176
     1
290
     0
176
     1
 90
       50
176
     1
 40
0.0
176
     1
 40
1.0
176
     1
 90
        0
176
     1
 62
    18
420
        0
176
     1
 90
       50
176
     1
 90
        3
176
     1
 62
     5
420
      255
176
     1
290
     0
176
     1
 90
       50
176
     1
 90
       50
176
     1
 90
       50
176
     1
290
     0
176
     1
 90
       50
176
     1
 62
   256
176
     0
 40
1.0
176
     0
 90
        2
176
     1
  1
strokes_ogs.tif
176
     1
290
     0
176
     1
 40
1.0
176
     1
 40
1.0
176
     1
  0
VISUALSTYLE
  5
40
102
{ACAD_REACTORS
330
2A
102
}
330
2A
100
AcDbVisualStyle
  2
X-Ray
 70
    25
177
     3
291
     0
 70
    58
 90
        2
176
     1
 90
        2
176
     1
 90
        1
176
     1
 90
        1
176
     1
 40
0.5
176
     1
 40
30.0
176
     1
 62
     7
420
 16777215
176
     1
 90
        1
176
     1
 90
        0
176
     1
 62
     7
176
     1
 62
   257
176
     1
 90
        1
176
     1
 90
        1
176
     1
 40
1.0
176
     1
 90
        8
176
     1
 62
     7
176
     1
 40
1.0
176
     1
 90
        1
176
     1
 90
        6
176
     1
 90
        2
176
     1
 62
     7
176
     1
 90
        3
176
     1
 90
        0
176
     1
 90
        0
176
     1
290
     0
176
     1
 90
       13
176
     1
 40
0.0
176
     1
 90
        0
176
     1
290
     0
176
     1
290
     1
176
     1
290
     1
176
     1
290
     0
176
     1
290
     0
176
     1
290
     0
176
     1
290
     0
176
     1
290
     0
176
     1
290
     0
176
     1
 90
       50
176
     1
 40
0.0
176
     1
 40
1.0
176
     1
 90
        0
176
     1
 62
    18
420
        0
176
     1
 90
       50
176
     1
 90
        3
176
     1
 62
     5
420
      255
176
     1
290
     0
176
     1
 90
       50
176
     1
 90
       50
176
     1
 90
       50
176
     1
290
     0
176
     1
 90
       50
176
     1
 62
   256
176
     0
 40
1.0
176
     0
 90
        2
176
     1
  1
strokes_ogs.tif
176
     1
290
     0
176
     1
 40
1.0
176
     1
 40
1.0
176
     1
  0
DICTIONARYVAR
  5
401
102
{ACAD_REACTORS
330
400
102
}
330
400
100
DictionaryVariables
280
     0
  1
1:1
  0
DICTIONARYVAR
  5
406
102
{ACAD_REACTORS
330
400
102
}
330
400
100
DictionaryVariables
280
     0
  1
Standard
  0
DICTIONARYVAR
  5
405
102
{ACAD_REACTORS
330
400
102
}
330
400
100
DictionaryVariables
280
     0
  1
Standard
  0
DICTIONARYVAR
  5
409
102
{ACAD_REACTORS
330
400
102
}
330
400
100
DictionaryVariables
280
     0
  1
0
  0
DICTIONARY
  5
402
330
6A
100
AcDbDictionary
280
     1
281
     1
  3
ACAD_ROUNDTRIP_2008_TABLESTYLE_CELLSTYLEMAP
360
403
  0
CELLSTYLEMAP
  5
403
102
{ACAD_REACTORS
330
402
102
}
330
402
100
AcDbCellStyleMap
 90
        3
300
CELLSTYLE
  1
TABLEFORMAT_BEGIN
 90
        5
170
     1
 91
        0
 92
    32768
 62
   257
 93
        1
300
CONTENTFORMAT
  1
CONTENTFORMAT_BEGIN
 90
        0
 91
        0
 92
        4
 93
        0
300

 40
0.0
140
1.0
 94
        5
 62
     0
340
11
144
0.25
309
CONTENTFORMAT_END
171
     1
301
MARGIN
  1
CELLMARGIN_BEGIN
 40
0.06
 40
0.06
 40
0.06
 40
0.06
 40
0.06
 40
0.06
309
CELLMARGIN_END
 94
        6
 95
        1
302
GRIDFORMAT
  1
GRIDFORMAT_BEGIN
 90
        0
 91
        1
 62
     0
 92
       -2
340
14
 93
        0
 40
0.045
309
GRIDFORMAT_END
 95
        2
302
GRIDFORMAT
  1
GRIDFORMAT_BEGIN
 90
        0
 91
        1
 62
     0
 92
       -2
340
14
 93
        0
 40
0.045
309
GRIDFORMAT_END
 95
        4
302
GRIDFORMAT
  1
GRIDFORMAT_BEGIN
 90
        0
 91
        1
 62
     0
 92
       -2
340
14
 93
        0
 40
0.045
309
GRIDFORMAT_END
 95
        8
302
GRIDFORMAT
  1
GRIDFORMAT_BEGIN
 90
        0
 91
        1
 62
     0
 92
       -2
340
14
 93
        0
 40
0.045
309
GRIDFORMAT_END
 95
       16
302
GRIDFORMAT
  1
GRIDFORMAT_BEGIN
 90
        0
 91
        1
 62
     0
 92
       -2
340
14
 93
        0
 40
0.045
309
GRIDFORMAT_END
 95
       32
302
GRIDFORMAT
  1
GRIDFORMAT_BEGIN
 90
        0
 91
        1
 62
     0
 92
       -2
340
14
 93
        0
 40
0.045
309
GRIDFORMAT_END
309
TABLEFORMAT_END
  1
CELLSTYLE_BEGIN
 90
        1
 91
        1
300
_TITLE
309
CELLSTYLE_END
300
CELLSTYLE
  1
TABLEFORMAT_BEGIN
 90
        5
170
     1
 91
        0
 92
        0
 62
   257
 93
        1
300
CONTENTFORMAT
  1
CONTENTFORMAT_BEGIN
 90
        0
 91
        0
 92
        4
 93
        0
300

 40
0.0
140
1.0
 94
        5
 62
     0
340
11
144
0.18
309
CONTENTFORMAT_END
171
     1
301
MARGIN
  1
CELLMARGIN_BEGIN
 40
0.06
 40
0.06
 40
0.06
 40
0.06
 40
0.06
 40
0.06
309
CELLMARGIN_END
 94
        6
 95
        1
302
GRIDFORMAT
  1
GRIDFORMAT_BEGIN
 90
        0
 91
        1
 62
     0
 92
       -2
340
14
 93
        0
 40
0.045
309
GRIDFORMAT_END
 95
        2
302
GRIDFORMAT
  1
GRIDFORMAT_BEGIN
 90
        0
 91
        1
 62
     0
 92
       -2
340
14
 93
        0
 40
0.045
309
GRIDFORMAT_END
 95
        4
302
GRIDFORMAT
  1
GRIDFORMAT_BEGIN
 90
        0
 91
        1
 62
     0
 92
       -2
340
14
 93
        0
 40
0.045
309
GRIDFORMAT_END
 95
        8
302
GRIDFORMAT
  1
GRIDFORMAT_BEGIN
 90
        0
 91
        1
 62
     0
 92
       -2
340
14
 93
        0
 40
0.045
309
GRIDFORMAT_END
 95
       16
302
GRIDFORMAT
  1
GRIDFORMAT_BEGIN
 90
        0
 91
        1
 62
     0
 92
       -2
340
14
 93
        0
 40
0.045
309
GRIDFORMAT_END
 95
       32
302
GRIDFORMAT
  1
GRIDFORMAT_BEGIN
 90
        0
 91
        1
 62
     0
 92
       -2
340
14
 93
        0
 40
0.045
309
GRIDFORMAT_END
309
TABLEFORMAT_END
  1
CELLSTYLE_BEGIN
 90
        2
 91
        1
300
_HEADER
309
CELLSTYLE_END
300
CELLSTYLE
  1
TABLEFORMAT_BEGIN
 90
        5
170
     1
 91
        0
 92
        0
 62
   257
 93
        1
300
CONTENTFORMAT
  1
CONTENTFORMAT_BEGIN
 90
        0
 91
        0
 92
        4
 93
        0
300

 40
0.0
140
1.0
 94
        2
 62
     0
340
11
144
0.18
309
CONTENTFORMAT_END
171
     1
301
MARGIN
  1
CELLMARGIN_BEGIN
 40
0.06
 40
0.06
 40
0.06
 40
0.06
 40
0.06
 40
0.06
309
CELLMARGIN_END
 94
        6
 95
        1
302
GRIDFORMAT
  1
GRIDFORMAT_BEGIN
 90
        0
 91
        1
 62
     0
 92
       -2
340
14
 93
        0
 40
0.045
309
GRIDFORMAT_END
 95
        2
302
GRIDFORMAT
  1
GRIDFORMAT_BEGIN
 90
        0
 91
        1
 62
     0
 92
       -2
340
14
 93
        0
 40
0.045
309
GRIDFORMAT_END
 95
        4
302
GRIDFORMAT
  1
GRIDFORMAT_BEGIN
 90
        0
 91
        1
 62
     0
 92
       -2
340
14
 93
        0
 40
0.045
309
GRIDFORMAT_END
 95
        8
302
GRIDFORMAT
  1
GRIDFORMAT_BEGIN
 90
        0
 91
        1
 62
     0
 92
       -2
340
14
 93
        0
 40
0.045
309
GRIDFORMAT_END
 95
       16
302
GRIDFORMAT
  1
GRIDFORMAT_BEGIN
 90
        0
 91
        1
 62
     0
 92
       -2
340
14
 93
        0
 40
0.045
309
GRIDFORMAT_END
 95
       32
302
GRIDFORMAT
  1
GRIDFORMAT_BEGIN
 90
        0
 91
        1
 62
     0
 92
       -2
340
14
 93
        0
 40
0.045
309
GRIDFORMAT_END
309
TABLEFORMAT_END
  1
CELLSTYLE_BEGIN
 90
        3
 91
        2
300
_DATA
309
CELLSTYLE_END
  0
ENDSEC
  0
EOF
