  0
SECTION
  2
HEADER
  9
$ACADVER
  1
AC1027
  9
$ACADMAINTVER
 70
   105
  9
$DWGCODEPAGE
  3
ANSI_1252
  9
$REQUIREDVERSIONS
160
                 0
  9
$INSBASE
 10
0.0
 20
0.0
 30
0.0
  9
$EXTMIN
 10
-0.4328742585184955
 20
-3182.003379414948
 30
0.0
  9
$EXTMAX
 10
393.5671257414851
 20
-2640.003379414948
 30
1000.0
  9
$LIMMIN
 10
0.0
 20
0.0
  9
$LIMMAX
 10
12.0
 20
9.0
  9
$ORTHOMODE
 70
     0
  9
$REGENMODE
 70
     1
  9
$FILLMODE
 70
     1
  9
$QTEXTMODE
 70
     0
  9
$MIRRTEXT
 70
     1
  9
$LTSCALE
 40
2.0
  9
$ATTMODE
 70
     1
  9
$TEXTSIZE
 40
0.2
  9
$TRACEWID
 40
0.05
  9
$TEXTSTYLE
  7
Standard
  9
$CLAYER
  8
0
  9
$CELTYPE
  6
ByLayer
  9
$CECOLOR
 62
   256
  9
$CELTSCALE
 40
1.0
  9
$DISPSILH
 70
     0
  9
$DIMSCALE
 40
1.0
  9
$DIMASZ
 40
0.18
  9
$DIMEXO
 40
0.0625
  9
$DIMDLI
 40
0.38
  9
$DIMRND
 40
0.0
  9
$DIMDLE
 40
0.0
  9
$DIMEXE
 40
0.18
  9
$DIMTP
 40
0.0
  9
$DIMTM
 40
0.0
  9
$DIMTXT
 40
0.18
  9
$DIMCEN
 40
0.09
  9
$DIMTSZ
 40
0.0
  9
$DIMTOL
 70
     0
  9
$DIMLIM
 70
     0
  9
$DIMTIH
 70
     1
  9
$DIMTOH
 70
     1
  9
$DIMSE1
 70
     0
  9
$DIMSE2
 70
     0
  9
$DIMTAD
 70
     0
  9
$DIMZIN
 70
     0
  9
$DIMBLK
  1

  9
$DIMASO
 70
     1
  9
$DIMSHO
 70
     1
  9
$DIMPOST
  1

  9
$DIMAPOST
  1

  9
$DIMALT
 70
     0
  9
$DIMALTD
 70
     2
  9
$DIMALTF
 40
25.4
  9
$DIMLFAC
 40
1.0
  9
$DIMTOFL
 70
     1
  9
$DIMTVP
 40
0.0
  9
$DIMTIX
 70
     0
  9
$DIMSOXD
 70
     1
  9
$DIMSAH
 70
     0
  9
$DIMBLK1
  1

  9
$DIMBLK2
  1

  9
$DIMSTYLE
  2
Standard
  9
$DIMCLRD
 70
     0
  9
$DIMCLRE
 70
     0
  9
$DIMCLRT
 70
     0
  9
$DIMTFAC
 40
1.0
  9
$DIMGAP
 40
0.09
  9
$DIMJUST
 70
     0
  9
$DIMSD1
 70
     0
  9
$DIMSD2
 70
     0
  9
$DIMTOLJ
 70
     1
  9
$DIMTZIN
 70
     0
  9
$DIMALTZ
 70
     0
  9
$DIMALTTZ
 70
     0
  9
$DIMUPT
 70
     0
  9
$DIMDEC
 70
     4
  9
$DIMTDEC
 70
     4
  9
$DIMALTU
 70
     2
  9
$DIMALTTD
 70
     2
  9
$DIMTXSTY
  7
Standard
  9
$DIMAUNIT
 70
     0
  9
$DIMADEC
 70
     0
  9
$DIMALTRND
 40
0.0
  9
$DIMAZIN
 70
     0
  9
$DIMDSEP
 70
    46
  9
$DIMATFIT
 70
     3
  9
$DIMFRAC
 70
     0
  9
$DIMLDRBLK
  1

  9
$DIMLUNIT
 70
     2
  9
$DIMLWD
 70
    -2
  9
$DIMLWE
 70
    -2
  9
$DIMTMOVE
 70
     2
  9
$DIMFXL
 40
1.0
  9
$DIMFXLON
 70
     0
  9
$DIMJOGANG
 40
0.7853981633974483
  9
$DIMTFILL
 70
     0
  9
$DIMTFILLCLR
 70
     0
  9
$DIMARCSYM
 70
     0
  9
$DIMLTYPE
  6

  9
$DIMLTEX1
  6

  9
$DIMLTEX2
  6

  9
$DIMTXTDIRECTION
 70
     0
  9
$LUNITS
 70
     2
  9
$LUPREC
 70
     4
  9
$SKETCHINC
 40
0.1
  9
$FILLETRAD
 40
0.5
  9
$AUNITS
 70
     0
  9
$AUPREC
 70
     0
  9
$MENU
  1
.
  9
$ELEVATION
 40
0.0
  9
$PELEVATION
 40
0.0
  9
$THICKNESS
 40
0.0
  9
$LIMCHECK
 70
     0
  9
$CHAMFERA
 40
0.0
  9
$CHAMFERB
 40
0.0
  9
$CHAMFERC
 40
0.0
  9
$CHAMFERD
 40
0.0
  9
$SKPOLY
 70
     0
  9
$TDCREATE
 40
2459196.883396713
  9
$TDUCREATE
 40
2459196.841730046
  9
$TDUPDATE
 40
2459196.883399028
  9
$TDUUPDATE
 40
2459196.841732361
  9
$TDINDWG
 40
0.0000000116
  9
$TDUSRTIMER
 40
0.0000000116
  9
$USRTIMER
 70
     1
  9
$ANGBASE
 50
0.0
  9
$ANGDIR
 70
     0
  9
$PDMODE
 70
     0
  9
$PDSIZE
 40
0.0
  9
$PLINEWID
 40
0.0
  9
$SPLFRAME
 70
     0
  9
$SPLINETYPE
 70
     6
  9
$SPLINESEGS
 70
     8
  9
$HANDSEED
  5
497
  9
$SURFTAB1
 70
     6
  9
$SURFTAB2
 70
     6
  9
$SURFTYPE
 70
     6
  9
$SURFU
 70
     6
  9
$SURFV
 70
     6
  9
$UCSBASE
  2

  9
$UCSNAME
  2

  9
$UCSORG
 10
0.0
 20
0.0
 30
0.0
  9
$UCSXDIR
 10
1.0
 20
0.0
 30
0.0
  9
$UCSYDIR
 10
0.0
 20
1.0
 30
0.0
  9
$UCSORTHOREF
  2

  9
$UCSORTHOVIEW
 70
     0
  9
$UCSORGTOP
 10
0.0
 20
0.0
 30
0.0
  9
$UCSORGBOTTOM
 10
0.0
 20
0.0
 30
0.0
  9
$UCSORGLEFT
 10
0.0
 20
0.0
 30
0.0
  9
$UCSORGRIGHT
 10
0.0
 20
0.0
 30
0.0
  9
$UCSORGFRONT
 10
0.0
 20
0.0
 30
0.0
  9
$UCSORGBACK
 10
0.0
 20
0.0
 30
0.0
  9
$PUCSBASE
  2

  9
$PUCSNAME
  2

  9
$PUCSORG
 10
0.0
 20
0.0
 30
0.0
  9
$PUCSXDIR
 10
1.0
 20
0.0
 30
0.0
  9
$PUCSYDIR
 10
0.0
 20
1.0
 30
0.0
  9
$PUCSORTHOREF
  2

  9
$PUCSORTHOVIEW
 70
     0
  9
$PUCSORGTOP
 10
0.0
 20
0.0
 30
0.0
  9
$PUCSORGBOTTOM
 10
0.0
 20
0.0
 30
0.0
  9
$PUCSORGLEFT
 10
0.0
 20
0.0
 30
0.0
  9
$PUCSORGRIGHT
 10
0.0
 20
0.0
 30
0.0
  9
$PUCSORGFRONT
 10
0.0
 20
0.0
 30
0.0
  9
$PUCSORGBACK
 10
0.0
 20
0.0
 30
0.0
  9
$USERI1
 70
     0
  9
$USERI2
 70
     0
  9
$USERI3
 70
     0
  9
$USERI4
 70
     0
  9
$USERI5
 70
     0
  9
$USERR1
 40
0.0
  9
$USERR2
 40
0.0
  9
$USERR3
 40
0.0
  9
$USERR4
 40
0.0
  9
$USERR5
 40
0.0
  9
$WORLDVIEW
 70
     1
  9
$SHADEDGE
 70
     3
  9
$SHADEDIF
 70
    70
  9
$TILEMODE
 70
     1
  9
$MAXACTVP
 70
    64
  9
$PINSBASE
 10
0.0
 20
0.0
 30
0.0
  9
$PLIMCHECK
 70
     0
  9
$PEXTMIN
 10
0.0
 20
0.0
 30
0.0
  9
$PEXTMAX
 10
197.6
 20
271.6
 30
0.0
  9
$PLIMMIN
 10
-20.0
 20
-7.5
  9
$PLIMMAX
 10
277.0
 20
202.5
  9
$UNITMODE
 70
     0
  9
$VISRETAIN
 70
     1
  9
$PLINEGEN
 70
     0
  9
$PSLTSCALE
 70
     0
  9
$TREEDEPTH
 70
  3020
  9
$CMLSTYLE
  2
Standard
  9
$CMLJUST
 70
     0
  9
$CMLSCALE
 40
1.0
  9
$PROXYGRAPHICS
 70
     1
  9
$MEASUREMENT
 70
     1
  9
$CELWEIGHT
370
    -1
  9
$ENDCAPS
280
     0
  9
$JOINSTYLE
280
     0
  9
$LWDISPLAY
290
     0
  9
$INSUNITS
 70
     4
  9
$HYPERLINKBASE
  1

  9
$STYLESHEET
  1

  9
$XEDIT
290
     1
  9
$CEPSNTYPE
380
     0
  9
$PSTYLEMODE
290
     0
  9
$FINGERPRINTGUID
  2
{F3EB15BB-1F70-40B4-849B-06C67C404B24}
  9
$VERSIONGUID
  2
{FAEB1C32-E019-11D5-929B-00C0DF256EC4}
  9
$EXTNAMES
290
     1
  9
$PSVPSCALE
 40
0.0
  9
$OLESTARTUP
290
     0
  9
$SORTENTS
280
   127
  9
$INDEXCTL
280
     0
  9
$HIDETEXT
280
     1
  9
$XCLIPFRAME
280
     2
  9
$HALOGAP
280
     0
  9
$OBSCOLOR
 70
   257
  9
$OBSLTYPE
280
     0
  9
$INTERSECTIONDISPLAY
280
     0
  9
$INTERSECTIONCOLOR
 70
   257
  9
$DIMASSOC
280
     2
  9
$PROJECTNAME
  1

  9
$CAMERADISPLAY
290
     0
  9
$LENSLENGTH
 40
50.0
  9
$CAMERAHEIGHT
 40
0.0
  9
$STEPSPERSEC
 40
2.0
  9
$STEPSIZE
 40
6.0
  9
$3DDWFPREC
 40
2.0
  9
$PSOLWIDTH
 40
0.25
  9
$PSOLHEIGHT
 40
4.0
  9
$LOFTANG1
 40
1.570796326794897
  9
$LOFTANG2
 40
1.570796326794897
  9
$LOFTMAG1
 40
0.0
  9
$LOFTMAG2
 40
0.0
  9
$LOFTPARAM
 70
     7
  9
$LOFTNORMALS
280
     1
  9
$LATITUDE
 40
37.795
  9
$LONGITUDE
 40
-122.394
  9
$NORTHDIRECTION
 40
0.0
  9
$TIMEZONE
 70
 -8000
  9
$LIGHTGLYPHDISPLAY
280
     1
  9
$TILEMODELIGHTSYNCH
280
     1
  9
$CMATERIAL
347
44
  9
$SOLIDHIST
280
     0
  9
$SHOWHIST
280
     1
  9
$DWFFRAME
280
     2
  9
$DGNFRAME
280
     2
  9
$REALWORLDSCALE
290
     1
  9
$INTERFERECOLOR
 62
   256
  9
$CSHADOW
280
     0
  9
$SHADOWPLANELOCATION
 40
0.0
  0
ENDSEC
  0
SECTION
  2
CLASSES
  0
CLASS
  1
ACDBDICTIONARYWDFLT
  2
AcDbDictionaryWithDefault
  3
ObjectDBX Classes
 90
        0
 91
        3
280
     0
281
     0
  0
CLASS
  1
VISUALSTYLE
  2
AcDbVisualStyle
  3
ObjectDBX Classes
 90
     4095
 91
        3
280
     0
281
     0
  0
CLASS
  1
MATERIAL
  2
AcDbMaterial
  3
ObjectDBX Classes
 90
     1153
 91
        3
280
     0
281
     0
  0
CLASS
  1
SCALE
  2
AcDbScale
  3
ObjectDBX Classes
 90
     1153
 91
        3
280
     0
281
     0
  0
CLASS
  1
TABLESTYLE
  2
AcDbTableStyle
  3
ObjectDBX Classes
 90
     4095
 91
        3
280
     0
281
     0
  0
CLASS
  1
MLEADERSTYLE
  2
AcDbMLeaderStyle
  3
ACDB_MLEADERSTYLE_CLASS
 90
     4095
 91
        3
280
     0
281
     0
  0
CLASS
  1
SUN
  2
AcDbSun
  3
SCENEOE
 90
     1153
 91
        3
280
     0
281
     0
  0
CLASS
  1
RASTERVARIABLES
  2
AcDbRasterVariables
  3
ISM
 90
        0
 91
        3
280
     0
281
     0
  0
CLASS
  1
PLOTSETTINGS
  2
AcDbPlotSettings
  3
ObjectDBX Classes
 90
        0
 91
        3
280
     0
281
     0
  0
CLASS
  1
IMAGEDEF
  2
AcDbRasterImageDef
  3
ISM
 90
        0
 91
        3
280
     0
281
     0
  0
CLASS
  1
IMAGE
  2
AcDbRasterImage
  3
ISM
 90
      127
 91
        4
280
     0
281
     1
  0
CLASS
  1
IMAGEDEF_REACTOR
  2
AcDbRasterImageDefReactor
  3
ISM
 90
        1
 91
        3
280
     0
281
     0
  0
CLASS
  1
DICTIONARYVAR
  2
AcDbDictionaryVar
  3
ObjectDBX Classes
 90
        0
 91
        3
280
     0
281
     0
  0
CLASS
  1
CELLSTYLEMAP
  2
AcDbCellStyleMap
  3
ObjectDBX Classes
 90
     1152
 91
        3
280
     0
281
     0
  0
ENDSEC
  0
SECTION
  2
TABLES
  0
TABLE
  2
VPORT
  5
8
330
0
100
AcDbSymbolTable
 70
     1
  0
VPORT
  5
29
330
8
100
AcDbSymbolTableRecord
100
AcDbViewportTableRecord
  2
*Active
 70
     0
 10
0.0
 20
0.0
 11
1.0
 21
1.0
 12
10.42990654205607
 22
4.5
 13
0.0
 23
0.0
 14
0.5
 24
0.5
 15
0.5
 25
0.5
 16
0.0
 26
0.0
 36
1.0
 17
0.0
 27
0.0
 37
0.0
 40
9.0
 41
1.972972972850329
 42
50.0
 43
0.0
 44
0.0
 50
0.0
 51
0.0
 71
     0
 72
   100
 73
     1
 74
     3
 75
     0
 76
     0
 77
     0
 78
     0
281
     0
 65
     1
110
0.0
120
0.0
130
0.0
111
1.0
121
0.0
131
0.0
112
0.0
122
1.0
132
0.0
 79
     0
146
0.0
348
2F
 60
     3
 61
     5
292
     1
282
     1
141
0.0
142
0.0
 63
   250
361
6D
  0
ENDTAB
  0
TABLE
  2
LTYPE
  5
5
330
0
100
AcDbSymbolTable
 70
     2
  0
LTYPE
  5
14
330
5
100
AcDbSymbolTableRecord
100
AcDbLinetypeTableRecord
  2
ByBlock
 70
     0
  3

 72
    65
 73
     0
 40
0.0
  0
LTYPE
  5
15
330
5
100
AcDbSymbolTableRecord
100
AcDbLinetypeTableRecord
  2
ByLayer
 70
     0
  3

 72
    65
 73
     0
 40
0.0
  0
LTYPE
  5
16
330
5
100
AcDbSymbolTableRecord
100
AcDbLinetypeTableRecord
  2
Continuous
 70
     0
  3
Solid line
 72
    65
 73
     0
 40
0.0
  0
LTYPE
  5
182
330
5
100
AcDbSymbolTableRecord
100
AcDbLinetypeTableRecord
  2
CADWORK_3
 70
     0
  3

 72
    65
 73
     2
 40
4.0
 49
2.0
 74
     0
 49
-2.0
 74
     0
  0
ENDTAB
  0
TABLE
  2
LAYER
  5
2
330
0
100
AcDbSymbolTable
 70
    19
  0
LAYER
  5
10
330
2
100
AcDbSymbolTableRecord
100
AcDbLayerTableRecord
  2
0
 70
     0
 62
     7
  6
Continuous
370
    -3
390
F
347
46
348
0
  0
LAYER
  5
70
330
2
100
AcDbSymbolTableRecord
100
AcDbLayerTableRecord
  2
Standard
 70
     0
 62
     7
  6
Continuous
370
    -3
390
F
347
46
348
0
  0
LAYER
  5
71
330
2
100
AcDbSymbolTableRecord
100
AcDbLayerTableRecord
  2
Ech.1_1
 70
     0
 62
     7
  6
Continuous
370
    -3
390
F
347
46
348
0
  0
LAYER
  5
72
330
2
100
AcDbSymbolTableRecord
100
AcDbLayerTableRecord
  2
Ech.1_2
 70
     0
 62
     7
  6
Continuous
370
    -3
390
F
347
46
348
0
  0
LAYER
  5
73
330
2
100
AcDbSymbolTableRecord
100
AcDbLayerTableRecord
  2
Ech.1_5
 70
     0
 62
     7
  6
Continuous
370
    -3
390
F
347
46
348
0
  0
LAYER
  5
74
330
2
100
AcDbSymbolTableRecord
100
AcDbLayerTableRecord
  2
Ech.1_10
 70
     0
 62
     7
  6
Continuous
370
    -3
390
F
347
46
348
0
  0
LAYER
  5
75
330
2
100
AcDbSymbolTableRecord
100
AcDbLayerTableRecord
  2
Ech.1_20
 70
     0
 62
     7
  6
Continuous
370
    -3
390
F
347
46
348
0
  0
LAYER
  5
76
330
2
100
AcDbSymbolTableRecord
100
AcDbLayerTableRecord
  2
Ech.1_25
 70
     0
 62
     7
  6
Continuous
370
    -3
390
F
347
46
348
0
  0
LAYER
  5
77
330
2
100
AcDbSymbolTableRecord
100
AcDbLayerTableRecord
  2
Ech.1_33
 70
     0
 62
     7
  6
Continuous
370
    -3
390
F
347
46
348
0
  0
LAYER
  5
78
330
2
100
AcDbSymbolTableRecord
100
AcDbLayerTableRecord
  2
Ech.1_50
 70
     0
 62
     7
  6
Continuous
370
    -3
390
F
347
46
348
0
  0
LAYER
  5
79
330
2
100
AcDbSymbolTableRecord
100
AcDbLayerTableRecord
  2
Ech.1_75
 70
     0
 62
     7
  6
Continuous
370
    -3
390
F
347
46
348
0
  0
LAYER
  5
7A
330
2
100
AcDbSymbolTableRecord
100
AcDbLayerTableRecord
  2
Ech.1_100
 70
     0
 62
     7
  6
Continuous
370
    -3
390
F
347
46
348
0
  0
LAYER
  5
7B
330
2
100
AcDbSymbolTableRecord
100
AcDbLayerTableRecord
  2
Ech.1_200
 70
     0
 62
     7
  6
Continuous
370
    -3
390
F
347
46
348
0
  0
LAYER
  5
7C
330
2
100
AcDbSymbolTableRecord
100
AcDbLayerTableRecord
  2
Ech.1_500
 70
     0
 62
     7
  6
Continuous
370
    -3
390
F
347
46
348
0
  0
LAYER
  5
7D
330
2
100
AcDbSymbolTableRecord
100
AcDbLayerTableRecord
  2
Ech.1_1000
 70
     0
 62
     7
  6
Continuous
370
    -3
390
F
347
46
348
0
  0
LAYER
  5
7E
330
2
100
AcDbSymbolTableRecord
100
AcDbLayerTableRecord
  2
Cadres traceur
 70
     0
 62
     7
  6
Continuous
370
    -3
390
F
347
46
348
0
  0
LAYER
  5
7F
330
2
100
AcDbSymbolTableRecord
100
AcDbLayerTableRecord
  2
Cadres laser
 70
     0
 62
     7
  6
Continuous
370
    -3
390
F
347
46
348
0
  0
LAYER
  5
80
330
2
100
AcDbSymbolTableRecord
100
AcDbLayerTableRecord
  2
Légende d_aide
 70
     0
 62
     7
  6
Continuous
370
    -3
390
F
347
46
348
0
  0
LAYER
  5
45D
330
2
100
AcDbSymbolTableRecord
100
AcDbLayerTableRecord
  2
Defpoints
 70
     0
 62
     7
  6
Continuous
290
     0
370
    -3
390
F
347
46
348
0
  0
ENDTAB
  0
TABLE
  2
STYLE
  5
3
330
0
100
AcDbSymbolTable
 70
     9
  0
STYLE
  5
11
330
3
100
AcDbSymbolTableRecord
100
AcDbTextStyleTableRecord
  2
Standard
 70
     0
 40
0.0
 41
1.0
 50
0.0
 71
     0
 42
0.2
  3
txt
  4

  0
STYLE
  5
81
330
3
100
AcDbSymbolTableRecord
100
AcDbTextStyleTableRecord
  2
CwStyleShx
 70
     0
 40
1.0
 41
1.0
 50
0.0
 71
     0
 42
0.2
  3

  4

  0
STYLE
  5
82
330
3
100
AcDbSymbolTableRecord
100
AcDbTextStyleTableRecord
  2
CwStyleShx16
 70
     0
 40
1.0
 41
1.0
 50
0.0
 71
     0
 42
0.2
  3

  4

  0
STYLE
  5
83
330
3
100
AcDbSymbolTableRecord
100
AcDbTextStyleTableRecord
  2
MONOTXT
 70
     0
 40
0.0
 41
1.0
 50
0.0
 71
     0
 42
0.2
  3
MONOTXT
  4

  0
STYLE
  5
84
330
3
100
AcDbSymbolTableRecord
100
AcDbTextStyleTableRecord
  2
SYMAP
 70
     0
 40
1.0
 41
1.0
 50
0.0
 71
     0
 42
0.2
  3
SYMAP
  4

  0
STYLE
  5
85
330
3
100
AcDbSymbolTableRecord
100
AcDbTextStyleTableRecord
  2
CwStyleTtf
 70
     0
 40
1.0
 41
1.0
 50
0.0
 71
     0
 42
0.2
  3
arial.ttf
  4

  0
STYLE
  5
45A
330
3
100
AcDbSymbolTableRecord
100
AcDbTextStyleTableRecord
  2
arial-z
 70
     0
 40
0.0
 41
1.0
 50
0.0
 71
     0
 42
0.2
  3
arial.ttf
  4

1001
ACAD
1000
Arial
1071
        0
  0
STYLE
  5
488
330
3
100
AcDbSymbolTableRecord
100
AcDbTextStyleTableRecord
  2
arial-
 70
     0
 40
1.0
 41
1.0
 50
0.0
 71
     0
 42
0.2
  3

  4

1001
ACAD
1000
Arial
1071
        0
  0
STYLE
  5
48B
330
3
100
AcDbSymbolTableRecord
100
AcDbTextStyleTableRecord
  2
arial-b
 70
     0
 40
1.0
 41
1.0
 50
0.0
 71
     0
 42
0.2
  3
arialbd.ttf
  4

1001
ACAD
1000
Arial
1071
 33554432
  0
ENDTAB
  0
TABLE
  2
VIEW
  5
6
330
0
100
AcDbSymbolTable
 70
     0
  0
ENDTAB
  0
TABLE
  2
UCS
  5
7
330
0
100
AcDbSymbolTable
 70
     0
  0
ENDTAB
  0
TABLE
  2
APPID
  5
9
330
0
100
AcDbSymbolTable
 70
     3
  0
APPID
  5
12
330
9
100
AcDbSymbolTableRecord
100
AcDbRegAppTableRecord
  2
ACAD
 70
     0
  0
APPID
  5
6E
330
9
100
AcDbSymbolTableRecord
100
AcDbRegAppTableRecord
  2
Cadwork
 70
     0
  0
APPID
  5
232
330
9
100
AcDbSymbolTableRecord
100
AcDbRegAppTableRecord
  2
PLOTTRANSPARENCY
 70
     0
  0
ENDTAB
  0
TABLE
  2
DIMSTYLE
  5
A
330
0
100
AcDbSymbolTable
 70
     1
100
AcDbDimStyleTable
  0
DIMSTYLE
105
27
102
{ACAD_REACTORS
330
45B
330
46C
102
}
330
A
100
AcDbSymbolTableRecord
100
AcDbDimStyleTableRecord
  2
Standard
 70
     0
178
     0
340
11
  0
ENDTAB
  0
TABLE
  2
BLOCK_RECORD
  5
1
330
0
100
AcDbSymbolTable
 70
    71
  0
BLOCK_RECORD
  5
1F
330
1
100
AcDbSymbolTableRecord
100
AcDbBlockTableRecord
  2
*Model_Space
340
22
 70
     0
280
     1
281
     0
  0
BLOCK_RECORD
  5
22D
330
1
100
AcDbSymbolTableRecord
100
AcDbBlockTableRecord
  2
*Paper_Space
340
22E
 70
     0
280
     1
281
     0
  0
BLOCK_RECORD
  5
86
330
1
100
AcDbSymbolTableRecord
100
AcDbBlockTableRecord
  2
CDWK_PTTYP1
340
0
 70
     0
280
     1
281
     1
  0
BLOCK_RECORD
  5
8D
330
1
100
AcDbSymbolTableRecord
100
AcDbBlockTableRecord
  2
CDWK_PTTYP2
340
0
 70
     0
280
     1
281
     1
  0
BLOCK_RECORD
  5
92
330
1
100
AcDbSymbolTableRecord
100
AcDbBlockTableRecord
  2
CDWK_PTTYP4
340
0
 70
     0
280
     1
281
     1
  0
BLOCK_RECORD
  5
96
330
1
100
AcDbSymbolTableRecord
100
AcDbBlockTableRecord
  2
CDWK_PTTYP5
340
0
 70
     0
280
     1
281
     1
  0
BLOCK_RECORD
  5
9F
330
1
100
AcDbSymbolTableRecord
100
AcDbBlockTableRecord
  2
CDWK_PTTYP6
340
0
 70
     0
280
     1
281
     1
  0
BLOCK_RECORD
  5
A7
330
1
100
AcDbSymbolTableRecord
100
AcDbBlockTableRecord
  2
CDWK_PTTYP7
340
0
 70
     0
280
     1
281
     1
  0
BLOCK_RECORD
  5
B0
330
1
100
AcDbSymbolTableRecord
100
AcDbBlockTableRecord
  2
CDWK_PTTYP8
340
0
 70
     0
280
     1
281
     1
  0
BLOCK_RECORD
  5
B4
330
1
100
AcDbSymbolTableRecord
100
AcDbBlockTableRecord
  2
CDWK_PTTYP9
340
0
 70
     0
280
     1
281
     1
  0
BLOCK_RECORD
  5
B9
330
1
100
AcDbSymbolTableRecord
100
AcDbBlockTableRecord
  2
CDWK_PTTYP10
340
0
 70
     0
280
     1
281
     1
  0
BLOCK_RECORD
  5
BD
330
1
100
AcDbSymbolTableRecord
100
AcDbBlockTableRecord
  2
CDWK_PTTYP11
340
0
 70
     0
280
     1
281
     1
  0
BLOCK_RECORD
  5
C2
330
1
100
AcDbSymbolTableRecord
100
AcDbBlockTableRecord
  2
CDWK_PTTYP12
340
0
 70
     0
280
     1
281
     1
  0
BLOCK_RECORD
  5
C7
330
1
100
AcDbSymbolTableRecord
100
AcDbBlockTableRecord
  2
CDWK_PTTYP13
340
0
 70
     0
280
     1
281
     1
  0
BLOCK_RECORD
  5
CD
330
1
100
AcDbSymbolTableRecord
100
AcDbBlockTableRecord
  2
CDWK_PTTYP16
340
0
 70
     0
280
     1
281
     1
  0
BLOCK_RECORD
  5
D4
330
1
100
AcDbSymbolTableRecord
100
AcDbBlockTableRecord
  2
CDWK_PTTYP17
340
0
 70
     0
280
     1
281
     1
  0
BLOCK_RECORD
  5
D9
330
1
100
AcDbSymbolTableRecord
100
AcDbBlockTableRecord
  2
CDWK_PTTYP18
340
0
 70
     0
280
     1
281
     1
  0
BLOCK_RECORD
  5
DE
330
1
100
AcDbSymbolTableRecord
100
AcDbBlockTableRecord
  2
CDWK_PTTYP19
340
0
 70
     0
280
     1
281
     1
  0
BLOCK_RECORD
  5
E4
330
1
100
AcDbSymbolTableRecord
100
AcDbBlockTableRecord
  2
CDWK_PTTYP20
340
0
 70
     0
280
     1
281
     1
  0
BLOCK_RECORD
  5
E9
330
1
100
AcDbSymbolTableRecord
100
AcDbBlockTableRecord
  2
CDWK_PTTYP21
340
0
 70
     0
280
     1
281
     1
  0
BLOCK_RECORD
  5
EE
330
1
100
AcDbSymbolTableRecord
100
AcDbBlockTableRecord
  2
CDWK_PTTYP25
340
0
 70
     0
280
     1
281
     1
  0
BLOCK_RECORD
  5
F5
330
1
100
AcDbSymbolTableRecord
100
AcDbBlockTableRecord
  2
CDWK_PTTYP26
340
0
 70
     0
280
     1
281
     1
  0
BLOCK_RECORD
  5
FC
330
1
100
AcDbSymbolTableRecord
100
AcDbBlockTableRecord
  2
CDWK_PTTYP27
340
0
 70
     0
280
     1
281
     1
  0
BLOCK_RECORD
  5
104
330
1
100
AcDbSymbolTableRecord
100
AcDbBlockTableRecord
  2
CDWK_PTTYP28
340
0
 70
     0
280
     1
281
     1
  0
BLOCK_RECORD
  5
10B
330
1
100
AcDbSymbolTableRecord
100
AcDbBlockTableRecord
  2
CDWK_PTTYP29
340
0
 70
     0
280
     1
281
     1
  0
BLOCK_RECORD
  5
111
330
1
100
AcDbSymbolTableRecord
100
AcDbBlockTableRecord
  2
CDWK_PTTYP30
340
0
 70
     0
280
     1
281
     1
  0
BLOCK_RECORD
  5
118
330
1
100
AcDbSymbolTableRecord
100
AcDbBlockTableRecord
  2
CDWK_PTTYP31
340
0
 70
     0
280
     1
281
     1
  0
BLOCK_RECORD
  5
120
330
1
100
AcDbSymbolTableRecord
100
AcDbBlockTableRecord
  2
CDWK_PTTYP32
340
0
 70
     0
280
     1
281
     1
  0
BLOCK_RECORD
  5
129
330
1
100
AcDbSymbolTableRecord
100
AcDbBlockTableRecord
  2
CDWK_PTTYP33
340
0
 70
     0
280
     1
281
     1
  0
BLOCK_RECORD
  5
12F
330
1
100
AcDbSymbolTableRecord
100
AcDbBlockTableRecord
  2
CDWK_PTTYP34
340
0
 70
     0
280
     1
281
     1
  0
BLOCK_RECORD
  5
135
330
1
100
AcDbSymbolTableRecord
100
AcDbBlockTableRecord
  2
CDWK_PTTYP35
340
0
 70
     0
280
     1
281
     1
  0
BLOCK_RECORD
  5
13B
330
1
100
AcDbSymbolTableRecord
100
AcDbBlockTableRecord
  2
CDWK_PTTYP36
340
0
 70
     0
280
     1
281
     1
  0
BLOCK_RECORD
  5
143
330
1
100
AcDbSymbolTableRecord
100
AcDbBlockTableRecord
  2
CDWK_PTTYP37
340
0
 70
     0
280
     1
281
     1
  0
BLOCK_RECORD
  5
148
330
1
100
AcDbSymbolTableRecord
100
AcDbBlockTableRecord
  2
CDWK_PTTYP38
340
0
 70
     0
280
     1
281
     1
  0
BLOCK_RECORD
  5
14E
330
1
100
AcDbSymbolTableRecord
100
AcDbBlockTableRecord
  2
CDWK_PTTYP41
340
0
 70
     0
280
     1
281
     1
  0
BLOCK_RECORD
  5
158
330
1
100
AcDbSymbolTableRecord
100
AcDbBlockTableRecord
  2
CDWK_PTTYP42
340
0
 70
     0
280
     1
281
     1
  0
BLOCK_RECORD
  5
161
330
1
100
AcDbSymbolTableRecord
100
AcDbBlockTableRecord
  2
CDWK_PTTYP43
340
0
 70
     0
280
     1
281
     1
  0
BLOCK_RECORD
  5
167
330
1
100
AcDbSymbolTableRecord
100
AcDbBlockTableRecord
  2
CDWK_PTTYP44
340
0
 70
     0
280
     1
281
     1
  0
BLOCK_RECORD
  5
170
330
1
100
AcDbSymbolTableRecord
100
AcDbBlockTableRecord
  2
CDWK_PTTYP45
340
0
 70
     0
280
     1
281
     1
  0
BLOCK_RECORD
  5
175
330
1
100
AcDbSymbolTableRecord
100
AcDbBlockTableRecord
  2
CDWK_PTTYP46
340
0
 70
     0
280
     1
281
     1
  0
BLOCK_RECORD
  5
17A
330
1
100
AcDbSymbolTableRecord
100
AcDbBlockTableRecord
  2
CDWK_PTTYP47
340
0
 70
     0
280
     1
281
     1
  0
BLOCK_RECORD
  5
183
330
1
100
AcDbSymbolTableRecord
100
AcDbBlockTableRecord
  2
CDWK_PTTYP48
340
0
 70
     0
280
     1
281
     1
  0
BLOCK_RECORD
  5
188
330
1
100
AcDbSymbolTableRecord
100
AcDbBlockTableRecord
  2
CDWK_PTTYP49
340
0
 70
     0
280
     1
281
     1
  0
BLOCK_RECORD
  5
18F
330
1
100
AcDbSymbolTableRecord
100
AcDbBlockTableRecord
  2
CDWK_PTTYP50
340
0
 70
     0
280
     1
281
     1
  0
BLOCK_RECORD
  5
199
330
1
100
AcDbSymbolTableRecord
100
AcDbBlockTableRecord
  2
CDWK_PTTYP51
340
0
 70
     0
280
     1
281
     1
  0
BLOCK_RECORD
  5
19E
330
1
100
AcDbSymbolTableRecord
100
AcDbBlockTableRecord
  2
CDWK_PTTYP52
340
0
 70
     0
280
     1
281
     1
  0
BLOCK_RECORD
  5
1A4
330
1
100
AcDbSymbolTableRecord
100
AcDbBlockTableRecord
  2
cw-dimension-symbol1
340
0
 70
     0
280
     1
281
     0
  0
BLOCK_RECORD
  5
1AB
330
1
100
AcDbSymbolTableRecord
100
AcDbBlockTableRecord
  2
cw-dimension-symbol2
340
0
102
{BLKREFS
331
467
331
466
331
477
331
476
102
}
 70
     0
280
     1
281
     0
  0
BLOCK_RECORD
  5
1B0
330
1
100
AcDbSymbolTableRecord
100
AcDbBlockTableRecord
  2
cw-dimension-symbol3
340
0
 70
     0
280
     1
281
     0
  0
BLOCK_RECORD
  5
1B5
330
1
100
AcDbSymbolTableRecord
100
AcDbBlockTableRecord
  2
cw-dimension-symbol5
340
0
 70
     0
280
     1
281
     0
  0
BLOCK_RECORD
  5
1BC
330
1
100
AcDbSymbolTableRecord
100
AcDbBlockTableRecord
  2
cw-dimension-symbol6
340
0
 70
     0
280
     1
281
     0
  0
BLOCK_RECORD
  5
1C2
330
1
100
AcDbSymbolTableRecord
100
AcDbBlockTableRecord
  2
cw-dimension-symbol11
340
0
 70
     0
280
     1
281
     0
  0
BLOCK_RECORD
  5
1C8
330
1
100
AcDbSymbolTableRecord
100
AcDbBlockTableRecord
  2
cw-dimension-symbol13
340
0
 70
     0
280
     1
281
     0
  0
BLOCK_RECORD
  5
1CE
330
1
100
AcDbSymbolTableRecord
100
AcDbBlockTableRecord
  2
cw-dimension-symbol15
340
0
 70
     0
280
     1
281
     0
  0
BLOCK_RECORD
  5
1D5
330
1
100
AcDbSymbolTableRecord
100
AcDbBlockTableRecord
  2
cw-dimension-symbol16
340
0
 70
     0
280
     1
281
     0
  0
BLOCK_RECORD
  5
1DC
330
1
100
AcDbSymbolTableRecord
100
AcDbBlockTableRecord
  2
cw-dimension-symbol17
340
0
 70
     0
280
     1
281
     0
  0
BLOCK_RECORD
  5
1E3
330
1
100
AcDbSymbolTableRecord
100
AcDbBlockTableRecord
  2
cw-dimension-symbol18
340
0
 70
     0
280
     1
281
     0
  0
BLOCK_RECORD
  5
1EA
330
1
100
AcDbSymbolTableRecord
100
AcDbBlockTableRecord
  2
cw-dimension-symbol19
340
0
 70
     0
280
     1
281
     0
  0
BLOCK_RECORD
  5
1ED
330
1
100
AcDbSymbolTableRecord
100
AcDbBlockTableRecord
  2
cw-dimension-symbol20
340
0
 70
     0
280
     1
281
     0
  0
BLOCK_RECORD
  5
1F4
330
1
100
AcDbSymbolTableRecord
100
AcDbBlockTableRecord
  2
cw-dimension-symbol21
340
0
 70
     0
280
     1
281
     0
  0
BLOCK_RECORD
  5
1FB
330
1
100
AcDbSymbolTableRecord
100
AcDbBlockTableRecord
  2
cw-line-extremity0
340
0
 70
     0
280
     1
281
     0
  0
BLOCK_RECORD
  5
1FF
330
1
100
AcDbSymbolTableRecord
100
AcDbBlockTableRecord
  2
cw-line-extremity2
340
0
 70
     0
280
     1
281
     0
  0
BLOCK_RECORD
  5
204
330
1
100
AcDbSymbolTableRecord
100
AcDbBlockTableRecord
  2
cw-line-extremity3
340
0
 70
     0
280
     1
281
     0
  0
BLOCK_RECORD
  5
209
330
1
100
AcDbSymbolTableRecord
100
AcDbBlockTableRecord
  2
cw-line-extremity301
340
0
 70
     0
280
     1
281
     0
  0
BLOCK_RECORD
  5
20B
330
1
100
AcDbSymbolTableRecord
100
AcDbBlockTableRecord
  2
cw-line-extremity4
340
0
102
{BLKREFS
331
23B
331
451
331
453
331
455
331
457
331
459
102
}
 70
     0
280
     1
281
     0
  0
BLOCK_RECORD
  5
20D
330
1
100
AcDbSymbolTableRecord
100
AcDbBlockTableRecord
  2
cw-line-extremity5
340
0
 70
     0
280
     1
281
     0
  0
BLOCK_RECORD
  5
20F
330
1
100
AcDbSymbolTableRecord
100
AcDbBlockTableRecord
  2
cw-line-extremity6
340
0
 70
     0
280
     1
281
     0
  0
BLOCK_RECORD
  5
211
330
1
100
AcDbSymbolTableRecord
100
AcDbBlockTableRecord
  2
cw-line-extremity9
340
0
 70
     0
280
     1
281
     0
  0
BLOCK_RECORD
  5
213
330
1
100
AcDbSymbolTableRecord
100
AcDbBlockTableRecord
  2
cw-line-extremity10
340
0
 70
     0
280
     1
281
     0
  0
BLOCK_RECORD
  5
215
330
1
100
AcDbSymbolTableRecord
100
AcDbBlockTableRecord
  2
cw-line-extremity1
340
0
 70
     0
280
     1
281
     0
  0
BLOCK_RECORD
  5
1B
330
1
100
AcDbSymbolTableRecord
100
AcDbBlockTableRecord
  2
*Paper_Space69
340
1E
 70
     0
280
     1
281
     0
  0
BLOCK_RECORD
  5
45E
330
1
100
AcDbSymbolTableRecord
100
AcDbBlockTableRecord
  2
*D70
340
0
 70
     0
280
     1
281
     0
  0
BLOCK_RECORD
  5
46E
330
1
100
AcDbSymbolTableRecord
100
AcDbBlockTableRecord
  2
*D71
340
0
 70
     0
280
     1
281
     0
  0
ENDTAB
  0
ENDSEC
  0
SECTION
  2
BLOCKS
  0
BLOCK
  5
20
330
1F
100
AcDbEntity
  8
0
100
AcDbBlockBegin
  2
*Model_Space
 70
     0
 10
0.0
 20
0.0
 30
0.0
  3
*Model_Space
  1

  0
ENDBLK
  5
21
330
1F
100
AcDbEntity
  8
0
100
AcDbBlockEnd
  0
BLOCK
  5
22F
330
22D
100
AcDbEntity
 67
     1
  8
0
100
AcDbBlockBegin
  2
*Paper_Space
 70
     0
 10
0.0
 20
0.0
 30
0.0
  3
*Paper_Space
  1

  0
ENDBLK
  5
230
330
22D
100
AcDbEntity
 67
     1
  8
0
100
AcDbBlockEnd
  0
BLOCK
  5
8B
330
86
100
AcDbEntity
  8
0
100
AcDbBlockBegin
  2
CDWK_PTTYP1
 70
     0
 10
0.0
 20
0.0
 30
0.0
  3
CDWK_PTTYP1
  1

  0
LINE
  5
87
330
86
100
AcDbEntity
  8
0
 62
     0
370
    -2
100
AcDbLine
 10
-0.5
 20
0.5
 30
0.0
 11
0.5
 21
0.5
 31
0.0
  0
LINE
  5
88
330
86
100
AcDbEntity
  8
0
 62
     0
370
    -2
100
AcDbLine
 10
0.5
 20
0.5
 30
0.0
 11
0.5
 21
-0.5
 31
0.0
  0
LINE
  5
89
330
86
100
AcDbEntity
  8
0
 62
     0
370
    -2
100
AcDbLine
 10
0.5
 20
-0.5
 30
0.0
 11
-0.5
 21
-0.5
 31
0.0
  0
LINE
  5
8A
330
86
100
AcDbEntity
  8
0
 62
     0
370
    -2
100
AcDbLine
 10
-0.5
 20
-0.5
 30
0.0
 11
-0.5
 21
0.5
 31
0.0
  0
ENDBLK
  5
8C
330
86
100
AcDbEntity
  8
0
100
AcDbBlockEnd
  0
BLOCK
  5
90
330
8D
100
AcDbEntity
  8
0
100
AcDbBlockBegin
  2
CDWK_PTTYP2
 70
     0
 10
0.0
 20
0.0
 30
0.0
  3
CDWK_PTTYP2
  1

  0
LINE
  5
8E
330
8D
100
AcDbEntity
  8
0
 62
     0
370
    -2
100
AcDbLine
 10
0.0
 20
0.5
 30
0.0
 11
0.0
 21
-0.5
 31
0.0
  0
LINE
  5
8F
330
8D
100
AcDbEntity
  8
0
 62
     0
370
    -2
100
AcDbLine
 10
0.5
 20
0.0
 30
0.0
 11
-0.5
 21
0.0
 31
0.0
  0
ENDBLK
  5
91
330
8D
100
AcDbEntity
  8
0
100
AcDbBlockEnd
  0
BLOCK
  5
94
330
92
100
AcDbEntity
  8
0
100
AcDbBlockBegin
  2
CDWK_PTTYP4
 70
     0
 10
0.0
 20
0.0
 30
0.0
  3
CDWK_PTTYP4
  1

  0
HATCH
  5
93
330
92
100
AcDbEntity
  8
0
 62
     0
370
    -2
100
AcDbHatch
 10
0.0
 20
0.0
 30
0.0
210
0.0
220
0.0
230
1.0
  2
SOLID
 70
     1
 71
     1
 91
        1
 92
        1
 93
        1
 72
     2
 10
0.0
 20
0.0
 40
0.5
 50
0.0
 51
360.0
 73
     1
 97
        0
 75
     0
 76
     1
 98
        0
  0
ENDBLK
  5
95
330
92
100
AcDbEntity
  8
0
100
AcDbBlockEnd
  0
BLOCK
  5
9D
330
96
100
AcDbEntity
  8
0
100
AcDbBlockBegin
  2
CDWK_PTTYP5
 70
     0
 10
0.0
 20
0.0
 30
0.0
  3
CDWK_PTTYP5
  1

  0
LINE
  5
97
330
96
100
AcDbEntity
  8
0
 62
     0
370
    -2
100
AcDbLine
 10
-0.5
 20
0.5
 30
0.0
 11
0.5
 21
0.5
 31
0.0
  0
LINE
  5
98
330
96
100
AcDbEntity
  8
0
 62
     0
370
    -2
100
AcDbLine
 10
0.5
 20
0.5
 30
0.0
 11
0.5
 21
-0.5
 31
0.0
  0
LINE
  5
99
330
96
100
AcDbEntity
  8
0
 62
     0
370
    -2
100
AcDbLine
 10
0.5
 20
-0.5
 30
0.0
 11
-0.5
 21
-0.5
 31
0.0
  0
LINE
  5
9A
330
96
100
AcDbEntity
  8
0
 62
     0
370
    -2
100
AcDbLine
 10
-0.5
 20
-0.5
 30
0.0
 11
-0.5
 21
0.5
 31
0.0
  0
HATCH
  5
9B
330
96
100
AcDbEntity
  8
0
 62
     0
370
    -2
100
AcDbHatch
 10
0.0
 20
0.0
 30
0.0
210
0.0
220
0.0
230
1.0
  2
SOLID
 70
     1
 71
     1
 91
        1
 92
        3
 72
     0
 73
     1
 93
        4
 10
-0.5
 20
0.0
 10
0.0
 20
0.0
 10
0.0
 20
-0.5
 10
-0.5
 20
-0.5
 97
        0
 75
     0
 76
     1
 98
        0
  0
HATCH
  5
9C
330
96
100
AcDbEntity
  8
0
 62
     0
370
    -2
100
AcDbHatch
 10
0.0
 20
0.0
 30
0.0
210
0.0
220
0.0
230
1.0
  2
SOLID
 70
     1
 71
     1
 91
        1
 92
        3
 72
     0
 73
     1
 93
        4
 10
0.0
 20
0.0
 10
0.5
 20
0.0
 10
0.5
 20
0.5
 10
0.0
 20
0.5
 97
        0
 75
     0
 76
     1
 98
        0
  0
ENDBLK
  5
9E
330
96
100
AcDbEntity
  8
0
100
AcDbBlockEnd
  0
BLOCK
  5
A5
330
9F
100
AcDbEntity
  8
0
100
AcDbBlockBegin
  2
CDWK_PTTYP6
 70
     0
 10
0.0
 20
0.0
 30
0.0
  3
CDWK_PTTYP6
  1

  0
LINE
  5
A0
330
9F
100
AcDbEntity
  8
0
 62
     0
370
    -2
100
AcDbLine
 10
-0.5
 20
0.5
 30
0.0
 11
0.5
 21
0.5
 31
0.0
  0
LINE
  5
A1
330
9F
100
AcDbEntity
  8
0
 62
     0
370
    -2
100
AcDbLine
 10
0.5
 20
0.5
 30
0.0
 11
0.5
 21
-0.5
 31
0.0
  0
LINE
  5
A2
330
9F
100
AcDbEntity
  8
0
 62
     0
370
    -2
100
AcDbLine
 10
0.5
 20
-0.5
 30
0.0
 11
-0.5
 21
-0.5
 31
0.0
  0
LINE
  5
A3
330
9F
100
AcDbEntity
  8
0
 62
     0
370
    -2
100
AcDbLine
 10
-0.5
 20
-0.5
 30
0.0
 11
-0.5
 21
0.5
 31
0.0
  0
HATCH
  5
A4
330
9F
100
AcDbEntity
  8
0
 62
     0
370
    -2
100
AcDbHatch
 10
0.0
 20
0.0
 30
0.0
210
0.0
220
0.0
230
1.0
  2
SOLID
 70
     1
 71
     1
 91
        1
 92
        3
 72
     0
 73
     1
 93
        3
 10
-0.5
 20
-0.5
 10
-0.5
 20
0.5
 10
0.5
 20
0.5
 97
        0
 75
     0
 76
     1
 98
        0
  0
ENDBLK
  5
A6
330
9F
100
AcDbEntity
  8
0
100
AcDbBlockEnd
  0
BLOCK
  5
AE
330
A7
100
AcDbEntity
  8
0
100
AcDbBlockBegin
  2
CDWK_PTTYP7
 70
     0
 10
0.0
 20
0.0
 30
0.0
  3
CDWK_PTTYP7
  1

  0
LINE
  5
A8
330
A7
100
AcDbEntity
  8
0
 62
     0
370
    -2
100
AcDbLine
 10
-0.5
 20
0.5
 30
0.0
 11
0.5
 21
0.5
 31
0.0
  0
LINE
  5
A9
330
A7
100
AcDbEntity
  8
0
 62
     0
370
    -2
100
AcDbLine
 10
0.5
 20
0.5
 30
0.0
 11
0.5
 21
-0.5
 31
0.0
  0
LINE
  5
AA
330
A7
100
AcDbEntity
  8
0
 62
     0
370
    -2
100
AcDbLine
 10
0.5
 20
-0.5
 30
0.0
 11
-0.5
 21
-0.5
 31
0.0
  0
LINE
  5
AB
330
A7
100
AcDbEntity
  8
0
 62
     0
370
    -2
100
AcDbLine
 10
-0.5
 20
-0.5
 30
0.0
 11
-0.5
 21
0.5
 31
0.0
  0
LINE
  5
AC
330
A7
100
AcDbEntity
  8
0
 62
     0
370
    -2
100
AcDbLine
 10
0.0
 20
0.5
 30
0.0
 11
0.0
 21
-0.5
 31
0.0
  0
LINE
  5
AD
330
A7
100
AcDbEntity
  8
0
 62
     0
370
    -2
100
AcDbLine
 10
0.5
 20
0.0
 30
0.0
 11
-0.5
 21
0.0
 31
0.0
  0
ENDBLK
  5
AF
330
A7
100
AcDbEntity
  8
0
100
AcDbBlockEnd
  0
BLOCK
  5
B2
330
B0
100
AcDbEntity
  8
0
100
AcDbBlockBegin
  2
CDWK_PTTYP8
 70
     0
 10
0.0
 20
0.0
 30
0.0
  3
CDWK_PTTYP8
  1

  0
HATCH
  5
B1
330
B0
100
AcDbEntity
  8
0
 62
     0
370
    -2
100
AcDbHatch
 10
0.0
 20
0.0
 30
0.0
210
0.0
220
0.0
230
1.0
  2
SOLID
 70
     1
 71
     1
 91
        1
 92
        3
 72
     0
 73
     1
 93
        4
 10
0.5
 20
0.5
 10
0.5
 20
-0.5
 10
-0.5
 20
-0.5
 10
-0.5
 20
0.5
 97
        0
 75
     0
 76
     1
 98
        0
  0
ENDBLK
  5
B3
330
B0
100
AcDbEntity
  8
0
100
AcDbBlockEnd
  0
BLOCK
  5
B7
330
B4
100
AcDbEntity
  8
0
100
AcDbBlockBegin
  2
CDWK_PTTYP9
 70
     0
 10
0.0
 20
0.0
 30
0.0
  3
CDWK_PTTYP9
  1

  0
CIRCLE
  5
B5
330
B4
100
AcDbEntity
  8
0
 62
     0
370
    -2
100
AcDbCircle
 10
0.0
 20
0.0
 30
0.0
 40
0.1666666666666667
  0
CIRCLE
  5
B6
330
B4
100
AcDbEntity
  8
0
 62
     0
370
    -2
100
AcDbCircle
 10
0.0
 20
0.0
 30
0.0
 40
0.5
  0
ENDBLK
  5
B8
330
B4
100
AcDbEntity
  8
0
100
AcDbBlockEnd
  0
BLOCK
  5
BB
330
B9
100
AcDbEntity
  8
0
100
AcDbBlockBegin
  2
CDWK_PTTYP10
 70
     0
 10
0.0
 20
0.0
 30
0.0
  3
CDWK_PTTYP10
  1

  0
CIRCLE
  5
BA
330
B9
100
AcDbEntity
  8
0
 62
     0
370
    -2
100
AcDbCircle
 10
0.0
 20
0.0
 30
0.0
 40
0.5
  0
ENDBLK
  5
BC
330
B9
100
AcDbEntity
  8
0
100
AcDbBlockEnd
  0
BLOCK
  5
C0
330
BD
100
AcDbEntity
  8
0
100
AcDbBlockBegin
  2
CDWK_PTTYP11
 70
     0
 10
0.0
 20
0.0
 30
0.0
  3
CDWK_PTTYP11
  1

  0
CIRCLE
  5
BE
330
BD
100
AcDbEntity
  8
0
 62
     0
370
    -2
100
AcDbCircle
 10
0.0
 20
0.0
 30
0.0
 40
0.25
  0
CIRCLE
  5
BF
330
BD
100
AcDbEntity
  8
0
 62
     0
370
    -2
100
AcDbCircle
 10
0.0
 20
0.0
 30
0.0
 40
0.5
  0
ENDBLK
  5
C1
330
BD
100
AcDbEntity
  8
0
100
AcDbBlockEnd
  0
BLOCK
  5
C5
330
C2
100
AcDbEntity
  8
0
100
AcDbBlockBegin
  2
CDWK_PTTYP12
 70
     0
 10
0.0
 20
0.0
 30
0.0
  3
CDWK_PTTYP12
  1

  0
CIRCLE
  5
C3
330
C2
100
AcDbEntity
  8
0
 62
     0
370
    -2
100
AcDbCircle
 10
0.25
 20
0.0
 30
0.0
 40
0.25
  0
CIRCLE
  5
C4
330
C2
100
AcDbEntity
  8
0
 62
     0
370
    -2
100
AcDbCircle
 10
0.0
 20
0.0
 30
0.0
 40
0.5
  0
ENDBLK
  5
C6
330
C2
100
AcDbEntity
  8
0
100
AcDbBlockEnd
  0
BLOCK
  5
CB
330
C7
100
AcDbEntity
  8
0
100
AcDbBlockBegin
  2
CDWK_PTTYP13
 70
     0
 10
0.0
 20
0.0
 30
0.0
  3
CDWK_PTTYP13
  1

  0
CIRCLE
  5
C8
330
C7
100
AcDbEntity
  8
0
 62
     0
370
    -2
100
AcDbCircle
 10
-0.25
 20
0.0
 30
0.0
 40
0.25
  0
CIRCLE
  5
C9
330
C7
100
AcDbEntity
  8
0
 62
     0
370
    -2
100
AcDbCircle
 10
0.25
 20
0.0
 30
0.0
 40
0.25
  0
CIRCLE
  5
CA
330
C7
100
AcDbEntity
  8
0
 62
     0
370
    -2
100
AcDbCircle
 10
0.0
 20
0.0
 30
0.0
 40
0.5
  0
ENDBLK
  5
CC
330
C7
100
AcDbEntity
  8
0
100
AcDbBlockEnd
  0
BLOCK
  5
D2
330
CD
100
AcDbEntity
  8
0
100
AcDbBlockBegin
  2
CDWK_PTTYP16
 70
     0
 10
0.0
 20
0.0
 30
0.0
  3
CDWK_PTTYP16
  1

  0
LINE
  5
CE
330
CD
100
AcDbEntity
  8
0
 62
     0
370
    -2
100
AcDbLine
 10
-0.5
 20
-0.289
 30
0.0
 11
0.5
 21
-0.289
 31
0.0
  0
LINE
  5
CF
330
CD
100
AcDbEntity
  8
0
 62
     0
370
    -2
100
AcDbLine
 10
0.5
 20
-0.289
 30
0.0
 11
0.0
 21
0.577
 31
0.0
  0
LINE
  5
D0
330
CD
100
AcDbEntity
  8
0
 62
     0
370
    -2
100
AcDbLine
 10
0.0
 20
0.577
 30
0.0
 11
-0.5
 21
-0.289
 31
0.0
  0
CIRCLE
  5
D1
330
CD
100
AcDbEntity
  8
0
 62
     0
370
    -2
100
AcDbCircle
 10
0.0
 20
0.0
 30
0.0
 40
0.289
  0
ENDBLK
  5
D3
330
CD
100
AcDbEntity
  8
0
100
AcDbBlockEnd
  0
BLOCK
  5
D7
330
D4
100
AcDbEntity
  8
0
100
AcDbBlockBegin
  2
CDWK_PTTYP17
 70
     0
 10
0.0
 20
0.0
 30
0.0
  3
CDWK_PTTYP17
  1

  0
CIRCLE
  5
D5
330
D4
100
AcDbEntity
  8
0
 62
     0
370
    -2
100
AcDbCircle
 10
0.0
 20
0.0
 30
0.0
 40
0.5
  0
HATCH
  5
D6
330
D4
100
AcDbEntity
  8
0
 62
     0
370
    -2
100
AcDbHatch
 10
0.0
 20
0.0
 30
0.0
210
0.0
220
0.0
230
1.0
  2
SOLID
 70
     1
 71
     1
 91
        1
 92
        1
 93
        1
 72
     2
 10
0.0
 20
0.0
 40
0.25
 50
0.0
 51
360.0
 73
     1
 97
        0
 75
     0
 76
     1
 98
        0
  0
ENDBLK
  5
D8
330
D4
100
AcDbEntity
  8
0
100
AcDbBlockEnd
  0
BLOCK
  5
DC
330
D9
100
AcDbEntity
  8
0
100
AcDbBlockBegin
  2
CDWK_PTTYP18
 70
     0
 10
0.0
 20
0.0
 30
0.0
  3
CDWK_PTTYP18
  1

  0
CIRCLE
  5
DA
330
D9
100
AcDbEntity
  8
0
 62
     0
370
    -2
100
AcDbCircle
 10
0.0
 20
0.0
 30
0.0
 40
0.5
  0
CIRCLE
  5
DB
330
D9
100
AcDbEntity
  8
0
 62
     0
370
    -2
100
AcDbCircle
 10
0.0
 20
0.0
 30
0.0
 40
0.208
  0
ENDBLK
  5
DD
330
D9
100
AcDbEntity
  8
0
100
AcDbBlockEnd
  0
BLOCK
  5
E2
330
DE
100
AcDbEntity
  8
0
100
AcDbBlockBegin
  2
CDWK_PTTYP19
 70
     0
 10
0.0
 20
0.0
 30
0.0
  3
CDWK_PTTYP19
  1

  0
CIRCLE
  5
DF
330
DE
100
AcDbEntity
  8
0
 62
     0
370
    -2
100
AcDbCircle
 10
0.0
 20
0.0
 30
0.0
 40
0.25
  0
CIRCLE
  5
E0
330
DE
100
AcDbEntity
  8
0
 62
     0
370
    -2
100
AcDbCircle
 10
0.0
 20
0.0
 30
0.0
 40
0.35
  0
LINE
  5
E1
330
DE
100
AcDbEntity
  8
0
 62
     0
370
    -2
100
AcDbLine
 10
-0.25
 20
0.0
 30
0.0
 11
0.25
 21
0.0
 31
0.0
  0
ENDBLK
  5
E3
330
DE
100
AcDbEntity
  8
0
100
AcDbBlockEnd
  0
BLOCK
  5
E7
330
E4
100
AcDbEntity
  8
0
100
AcDbBlockBegin
  2
CDWK_PTTYP20
 70
     0
 10
0.0
 20
0.0
 30
0.0
  3
CDWK_PTTYP20
  1

  0
CIRCLE
  5
E5
330
E4
100
AcDbEntity
  8
0
 62
     0
370
    -2
100
AcDbCircle
 10
0.0
 20
0.0
 30
0.0
 40
0.3333333333333333
  0
CIRCLE
  5
E6
330
E4
100
AcDbEntity
  8
0
 62
     0
370
    -2
100
AcDbCircle
 10
0.0
 20
0.0
 30
0.0
 40
0.5
  0
ENDBLK
  5
E8
330
E4
100
AcDbEntity
  8
0
100
AcDbBlockEnd
  0
BLOCK
  5
EC
330
E9
100
AcDbEntity
  8
0
100
AcDbBlockBegin
  2
CDWK_PTTYP21
 70
     0
 10
0.0
 20
0.0
 30
0.0
  3
CDWK_PTTYP21
  1

  0
CIRCLE
  5
EA
330
E9
100
AcDbEntity
  8
0
 62
     0
370
    -2
100
AcDbCircle
 10
0.0
 20
0.0
 30
0.0
 40
0.5
  0
LINE
  5
EB
330
E9
100
AcDbEntity
  8
0
 62
     0
370
    -2
100
AcDbLine
 10
-0.5
 20
0.0
 30
0.0
 11
0.5
 21
0.0
 31
0.0
  0
ENDBLK
  5
ED
330
E9
100
AcDbEntity
  8
0
100
AcDbBlockEnd
  0
BLOCK
  5
F3
330
EE
100
AcDbEntity
  8
0
100
AcDbBlockBegin
  2
CDWK_PTTYP25
 70
     0
 10
0.0
 20
0.0
 30
0.0
  3
CDWK_PTTYP25
  1

  0
LINE
  5
EF
330
EE
100
AcDbEntity
  8
0
 62
     0
370
    -2
100
AcDbLine
 10
0.0
 20
0.5
 30
0.0
 11
-0.4330127018922193
 21
-0.25
 31
0.0
  0
LINE
  5
F0
330
EE
100
AcDbEntity
  8
0
 62
     0
370
    -2
100
AcDbLine
 10
-0.4330127018922193
 20
-0.25
 30
0.0
 11
0.4330127018922193
 21
-0.25
 31
0.0
  0
LINE
  5
F1
330
EE
100
AcDbEntity
  8
0
 62
     0
370
    -2
100
AcDbLine
 10
0.4330127018922193
 20
-0.25
 30
0.0
 11
0.0
 21
0.5
 31
0.0
  0
CIRCLE
  5
F2
330
EE
100
AcDbEntity
  8
0
 62
     0
370
    -2
100
AcDbCircle
 10
0.0
 20
0.0
 30
0.0
 40
0.5
  0
ENDBLK
  5
F4
330
EE
100
AcDbEntity
  8
0
100
AcDbBlockEnd
  0
BLOCK
  5
FA
330
F5
100
AcDbEntity
  8
0
100
AcDbBlockBegin
  2
CDWK_PTTYP26
 70
     0
 10
0.0
 20
0.0
 30
0.0
  3
CDWK_PTTYP26
  1

  0
LINE
  5
F6
330
F5
100
AcDbEntity
  8
0
 62
     0
370
    -2
100
AcDbLine
 10
-0.5
 20
-0.289
 30
0.0
 11
0.5
 21
-0.289
 31
0.0
  0
LINE
  5
F7
330
F5
100
AcDbEntity
  8
0
 62
     0
370
    -2
100
AcDbLine
 10
0.5
 20
-0.289
 30
0.0
 11
0.0
 21
0.577
 31
0.0
  0
LINE
  5
F8
330
F5
100
AcDbEntity
  8
0
 62
     0
370
    -2
100
AcDbLine
 10
0.0
 20
0.577
 30
0.0
 11
-0.5
 21
-0.289
 31
0.0
  0
CIRCLE
  5
F9
330
F5
100
AcDbEntity
  8
0
 62
     0
370
    -2
100
AcDbCircle
 10
0.0
 20
0.0
 30
0.0
 40
0.125
  0
ENDBLK
  5
FB
330
F5
100
AcDbEntity
  8
0
100
AcDbBlockEnd
  0
BLOCK
  5
102
330
FC
100
AcDbEntity
  8
0
100
AcDbBlockBegin
  2
CDWK_PTTYP27
 70
     0
 10
0.0
 20
0.0
 30
0.0
  3
CDWK_PTTYP27
  1

  0
LINE
  5
FD
330
FC
100
AcDbEntity
  8
0
 62
     0
370
    -2
100
AcDbLine
 10
0.0
 20
0.5
 30
0.0
 11
-0.4330127018922193
 21
-0.25
 31
0.0
  0
LINE
  5
FE
330
FC
100
AcDbEntity
  8
0
 62
     0
370
    -2
100
AcDbLine
 10
-0.4330127018922193
 20
-0.25
 30
0.0
 11
0.4330127018922193
 21
-0.25
 31
0.0
  0
LINE
  5
FF
330
FC
100
AcDbEntity
  8
0
 62
     0
370
    -2
100
AcDbLine
 10
0.4330127018922193
 20
-0.25
 30
0.0
 11
0.0
 21
0.5
 31
0.0
  0
CIRCLE
  5
100
330
FC
100
AcDbEntity
  8
0
 62
     0
370
    -2
100
AcDbCircle
 10
0.0
 20
0.0
 30
0.0
 40
0.125
  0
CIRCLE
  5
101
330
FC
100
AcDbEntity
  8
0
 62
     0
370
    -2
100
AcDbCircle
 10
0.0
 20
0.0
 30
0.0
 40
0.5
  0
ENDBLK
  5
103
330
FC
100
AcDbEntity
  8
0
100
AcDbBlockEnd
  0
BLOCK
  5
109
330
104
100
AcDbEntity
  8
0
100
AcDbBlockBegin
  2
CDWK_PTTYP28
 70
     0
 10
0.0
 20
0.0
 30
0.0
  3
CDWK_PTTYP28
  1

  0
LINE
  5
105
330
104
100
AcDbEntity
  8
0
 62
     0
370
    -2
100
AcDbLine
 10
-0.5
 20
0.5
 30
0.0
 11
0.5
 21
0.5
 31
0.0
  0
LINE
  5
106
330
104
100
AcDbEntity
  8
0
 62
     0
370
    -2
100
AcDbLine
 10
0.5
 20
0.5
 30
0.0
 11
-0.5
 21
-0.5
 31
0.0
  0
LINE
  5
107
330
104
100
AcDbEntity
  8
0
 62
     0
370
    -2
100
AcDbLine
 10
0.5
 20
-0.5
 30
0.0
 11
-0.5
 21
-0.5
 31
0.0
  0
LINE
  5
108
330
104
100
AcDbEntity
  8
0
 62
     0
370
    -2
100
AcDbLine
 10
-0.5
 20
0.5
 30
0.0
 11
0.5
 21
-0.5
 31
0.0
  0
ENDBLK
  5
10A
330
104
100
AcDbEntity
  8
0
100
AcDbBlockEnd
  0
BLOCK
  5
10F
330
10B
100
AcDbEntity
  8
0
100
AcDbBlockBegin
  2
CDWK_PTTYP29
 70
     0
 10
0.0
 20
0.0
 30
0.0
  3
CDWK_PTTYP29
  1

  0
CIRCLE
  5
10C
330
10B
100
AcDbEntity
  8
0
 62
     0
370
    -2
100
AcDbCircle
 10
0.0
 20
0.0
 30
0.0
 40
0.2
  0
CIRCLE
  5
10D
330
10B
100
AcDbEntity
  8
0
 62
     0
370
    -2
100
AcDbCircle
 10
0.0
 20
0.0
 30
0.0
 40
0.35
  0
CIRCLE
  5
10E
330
10B
100
AcDbEntity
  8
0
 62
     0
370
    -2
100
AcDbCircle
 10
0.0
 20
0.0
 30
0.0
 40
0.5
  0
ENDBLK
  5
110
330
10B
100
AcDbEntity
  8
0
100
AcDbBlockEnd
  0
BLOCK
  5
116
330
111
100
AcDbEntity
  8
0
100
AcDbBlockBegin
  2
CDWK_PTTYP30
 70
     0
 10
0.0
 20
0.0
 30
0.0
  3
CDWK_PTTYP30
  1

  0
LINE
  5
112
330
111
100
AcDbEntity
  8
0
 62
     0
370
    -2
100
AcDbLine
 10
-0.5
 20
0.5
 30
0.0
 11
-0.1
 21
0.1
 31
0.0
  0
LINE
  5
113
330
111
100
AcDbEntity
  8
0
 62
     0
370
    -2
100
AcDbLine
 10
0.5
 20
0.5
 30
0.0
 11
0.1
 21
0.1
 31
0.0
  0
LINE
  5
114
330
111
100
AcDbEntity
  8
0
 62
     0
370
    -2
100
AcDbLine
 10
0.5
 20
-0.5
 30
0.0
 11
0.1
 21
-0.1
 31
0.0
  0
LINE
  5
115
330
111
100
AcDbEntity
  8
0
 62
     0
370
    -2
100
AcDbLine
 10
-0.5
 20
-0.5
 30
0.0
 11
-0.1
 21
-0.1
 31
0.0
  0
ENDBLK
  5
117
330
111
100
AcDbEntity
  8
0
100
AcDbBlockEnd
  0
BLOCK
  5
11E
330
118
100
AcDbEntity
  8
0
100
AcDbBlockBegin
  2
CDWK_PTTYP31
 70
     0
 10
0.0
 20
0.0
 30
0.0
  3
CDWK_PTTYP31
  1

  0
LINE
  5
119
330
118
100
AcDbEntity
  8
0
 62
     0
370
    -2
100
AcDbLine
 10
-0.5
 20
0.0
 30
0.0
 11
-0.1
 21
0.0
 31
0.0
  0
LINE
  5
11A
330
118
100
AcDbEntity
  8
0
 62
     0
370
    -2
100
AcDbLine
 10
0.1
 20
0.0
 30
0.0
 11
0.5
 21
0.0
 31
0.0
  0
LINE
  5
11B
330
118
100
AcDbEntity
  8
0
 62
     0
370
    -2
100
AcDbLine
 10
0.0
 20
0.5
 30
0.0
 11
0.0
 21
0.1
 31
0.0
  0
LINE
  5
11C
330
118
100
AcDbEntity
  8
0
 62
     0
370
    -2
100
AcDbLine
 10
0.0
 20
-0.1
 30
0.0
 11
0.0
 21
-0.5
 31
0.0
  0
CIRCLE
  5
11D
330
118
100
AcDbEntity
  8
0
 62
     0
370
    -2
100
AcDbCircle
 10
0.0
 20
0.0
 30
0.0
 40
0.1
  0
ENDBLK
  5
11F
330
118
100
AcDbEntity
  8
0
100
AcDbBlockEnd
  0
BLOCK
  5
127
330
120
100
AcDbEntity
  8
0
100
AcDbBlockBegin
  2
CDWK_PTTYP32
 70
     0
 10
0.0
 20
0.0
 30
0.0
  3
CDWK_PTTYP32
  1

  0
CIRCLE
  5
121
330
120
100
AcDbEntity
  8
0
 62
     0
370
    -2
100
AcDbCircle
 10
0.0
 20
0.0
 30
0.0
 40
0.2
  0
CIRCLE
  5
122
330
120
100
AcDbEntity
  8
0
 62
     0
370
    -2
100
AcDbCircle
 10
0.0
 20
0.0
 30
0.0
 40
0.5
  0
LINE
  5
123
330
120
100
AcDbEntity
  8
0
 62
     0
370
    -2
100
AcDbLine
 10
0.1414213562373095
 20
0.1414213562373095
 30
0.0
 11
0.3535533905932738
 21
0.3535533905932738
 31
0.0
  0
LINE
  5
124
330
120
100
AcDbEntity
  8
0
 62
     0
370
    -2
100
AcDbLine
 10
-0.1414213562373095
 20
0.1414213562373095
 30
0.0
 11
-0.3535533905932738
 21
0.3535533905932738
 31
0.0
  0
LINE
  5
125
330
120
100
AcDbEntity
  8
0
 62
     0
370
    -2
100
AcDbLine
 10
0.1414213562373095
 20
-0.1414213562373095
 30
0.0
 11
0.3535533905932738
 21
-0.3535533905932738
 31
0.0
  0
LINE
  5
126
330
120
100
AcDbEntity
  8
0
 62
     0
370
    -2
100
AcDbLine
 10
-0.1414213562373095
 20
-0.1414213562373095
 30
0.0
 11
-0.3535533905932738
 21
-0.3535533905932738
 31
0.0
  0
ENDBLK
  5
128
330
120
100
AcDbEntity
  8
0
100
AcDbBlockEnd
  0
BLOCK
  5
12D
330
129
100
AcDbEntity
  8
0
100
AcDbBlockBegin
  2
CDWK_PTTYP33
 70
     0
 10
0.0
 20
0.0
 30
0.0
  3
CDWK_PTTYP33
  1

  0
LINE
  5
12A
330
129
100
AcDbEntity
  8
0
 62
     0
370
    -2
100
AcDbLine
 10
0.0
 20
-0.5
 30
0.0
 11
0.0
 21
0.5
 31
0.0
  0
LINE
  5
12B
330
129
100
AcDbEntity
  8
0
 62
     0
370
    -2
100
AcDbLine
 10
0.5
 20
0.0
 30
0.0
 11
-0.5
 21
0.0
 31
0.0
  0
CIRCLE
  5
12C
330
129
100
AcDbEntity
  8
0
 62
     0
370
    -2
100
AcDbCircle
 10
0.0
 20
0.0
 30
0.0
 40
0.5
  0
ENDBLK
  5
12E
330
129
100
AcDbEntity
  8
0
100
AcDbBlockEnd
  0
BLOCK
  5
133
330
12F
100
AcDbEntity
  8
0
100
AcDbBlockBegin
  2
CDWK_PTTYP34
 70
     0
 10
0.0
 20
0.0
 30
0.0
  3
CDWK_PTTYP34
  1

  0
CIRCLE
  5
130
330
12F
100
AcDbEntity
  8
0
 62
     0
370
    -2
100
AcDbCircle
 10
0.0
 20
0.0
 30
0.0
 40
0.5
  0
LINE
  5
131
330
12F
100
AcDbEntity
  8
0
 62
     0
370
    -2
100
AcDbLine
 10
-0.4
 20
-0.3
 30
0.0
 11
0.3
 21
0.4
 31
0.0
  0
LINE
  5
132
330
12F
100
AcDbEntity
  8
0
 62
     0
370
    -2
100
AcDbLine
 10
-0.3
 20
-0.4
 30
0.0
 11
0.4
 21
0.3
 31
0.0
  0
ENDBLK
  5
134
330
12F
100
AcDbEntity
  8
0
100
AcDbBlockEnd
  0
BLOCK
  5
139
330
135
100
AcDbEntity
  8
0
100
AcDbBlockBegin
  2
CDWK_PTTYP35
 70
     0
 10
0.0
 20
0.0
 30
0.0
  3
CDWK_PTTYP35
  1

  0
LINE
  5
136
330
135
100
AcDbEntity
  8
0
 62
     0
370
    -2
100
AcDbLine
 10
0.0
 20
0.2
 30
0.0
 11
0.0
 21
0.5
 31
0.0
  0
LINE
  5
137
330
135
100
AcDbEntity
  8
0
 62
     0
370
    -2
100
AcDbLine
 10
0.0
 20
-0.2
 30
0.0
 11
0.0
 21
-0.5
 31
0.0
  0
CIRCLE
  5
138
330
135
100
AcDbEntity
  8
0
 62
     0
370
    -2
100
AcDbCircle
 10
0.0
 20
0.0
 30
0.0
 40
0.2
  0
ENDBLK
  5
13A
330
135
100
AcDbEntity
  8
0
100
AcDbBlockEnd
  0
BLOCK
  5
141
330
13B
100
AcDbEntity
  8
0
100
AcDbBlockBegin
  2
CDWK_PTTYP36
 70
     0
 10
0.0
 20
0.0
 30
0.0
  3
CDWK_PTTYP36
  1

  0
LINE
  5
13C
330
13B
100
AcDbEntity
  8
0
 62
     0
370
    -2
100
AcDbLine
 10
-0.5
 20
0.2
 30
0.0
 11
0.5
 21
0.2
 31
0.0
  0
LINE
  5
13D
330
13B
100
AcDbEntity
  8
0
 62
     0
370
    -2
100
AcDbLine
 10
0.5
 20
0.2
 30
0.0
 11
0.5
 21
-0.2
 31
0.0
  0
LINE
  5
13E
330
13B
100
AcDbEntity
  8
0
 62
     0
370
    -2
100
AcDbLine
 10
0.5
 20
-0.2
 30
0.0
 11
-0.5
 21
-0.2
 31
0.0
  0
LINE
  5
13F
330
13B
100
AcDbEntity
  8
0
 62
     0
370
    -2
100
AcDbLine
 10
-0.5
 20
-0.2
 30
0.0
 11
-0.5
 21
0.2
 31
0.0
  0
HATCH
  5
140
330
13B
100
AcDbEntity
  8
0
 62
     0
370
    -2
100
AcDbHatch
 10
0.0
 20
0.0
 30
0.0
210
0.0
220
0.0
230
1.0
  2
SOLID
 70
     1
 71
     1
 91
        1
 92
        3
 72
     0
 73
     1
 93
        3
 10
-0.5
 20
-0.2
 10
0.5
 20
-0.2
 10
0.5
 20
0.2
 97
        0
 75
     0
 76
     1
 98
        0
  0
ENDBLK
  5
142
330
13B
100
AcDbEntity
  8
0
100
AcDbBlockEnd
  0
BLOCK
  5
146
330
143
100
AcDbEntity
  8
0
100
AcDbBlockBegin
  2
CDWK_PTTYP37
 70
     0
 10
0.0
 20
0.0
 30
0.0
  3
CDWK_PTTYP37
  1

  0
HATCH
  5
144
330
143
100
AcDbEntity
  8
0
 62
     0
370
    -2
100
AcDbHatch
 10
0.0
 20
0.0
 30
0.0
210
0.0
220
0.0
230
1.0
  2
SOLID
 70
     1
 71
     1
 91
        1
 92
        3
 72
     0
 73
     1
 93
      202
 10
-0.3535533905932738
 20
-0.3535533905932738
 10
-0.3485533905932738
 20
-0.3535533905932737
 10
-0.3435533905932738
 20
-0.3584836591895546
 10
-0.3385533905932738
 20
-0.3632782236961988
 10
-0.3335533905932738
 20
-0.367942389128785
 10
-0.3285533905932738
 20
-0.372481054046687
 10
-0.3235533905932738
 20
-0.3768987523588579
 10
-0.3185533905932738
 20
-0.3811996897107819
 10
-0.3135533905932738
 20
-0.3853877752881235
 10
-0.3085533905932737
 20
-0.3894666497242888
 10
-0.3035533905932737
 20
-0.3934397096803965
 10
-0.2985533905932737
 20
-0.3973101295704999
 10
-0.2935533905932737
 20
-0.4010808808273714
 10
-0.2885533905932737
 20
-0.4047547490409382
 10
-0.2835533905932737
 20
-0.4083343492496384
 10
-0.2785533905932737
 20
-0.4118221396222626
 10
-0.2735533905932737
 20
-0.4152204337324827
 10
-0.2685533905932737
 20
-0.4185314115988474
 10
-0.2635533905932737
 20
-0.4217571296384408
 10
-0.2585533905932737
 20
-0.4248995296617653
 10
-0.2535533905932737
 20
-0.4279604470190231
 10
-0.2485533905932737
 20
-0.4309416179932669
 10
-0.2435533905932737
 20
-0.4338446865234004
 10
-0.2385533905932737
 20
-0.4366712103293738
 10
-0.2335533905932737
 20
-0.439422666502825
 10
-0.2285533905932737
 20
-0.4421004566186126
 10
-0.2235533905932737
 20
-0.4447059114159811
 10
-0.2185533905932737
 20
-0.4472402950923041
 10
-0.2135533905932737
 20
-0.4497048092473372
 10
-0.2085533905932737
 20
-0.4521005965115692
 10
-0.2035533905932737
 20
-0.4544287438884664
 10
-0.1985533905932736
 20
-0.456690285837111
 10
-0.1935533905932736
 20
-0.45888620711884
 10
-0.1885533905932736
 20
-0.4610174454289638
 10
-0.1835533905932736
 20
-0.4630848938324164
 10
-0.1785533905932736
 20
-0.4650894030202291
 10
-0.1735533905932736
 20
-0.4670317834019928
 10
-0.1685533905932736
 20
-0.46891280704794
 10
-0.1635533905932736
 20
-0.4707332094929264
 10
-0.1585533905932736
 20
-0.4724936914133818
 10
-0.1535533905932736
 20
-0.4741949201872336
 10
-0.1485533905932736
 20
-0.4758375313458466
 10
-0.1435533905932736
 20
-0.4774221299261716
 10
-0.1385533905932736
 20
-0.4789492917305286
 10
-0.1335533905932736
 20
-0.4804195645007682
 10
-0.1285533905932736
 20
-0.4818334690129366
 10
-0.1235533905932736
 20
-0.4831915000980183
 10
-0.1185533905932736
 20
-0.4844941275938295
 10
-0.1135533905932736
 20
-0.4857417972326848
 10
-0.1085533905932736
 20
-0.4869349314690531
 10
-0.1035533905932736
 20
-0.4880739302510473
 10
-0.0985533905932736
 20
-0.489159171739258
 10
-0.0935533905932736
 20
-0.4901910129761353
 10
-0.0885533905932736
 20
-0.4911697905088447
 10
-0.0835533905932735
 20
-0.4920958209682695
 10
-0.0785533905932735
 20
-0.4929694016065986
 10
-0.0735533905932735
 20
-0.4937908107957261
 10
-0.0685533905932735
 20
-0.494560308488493
 10
-0.0635533905932735
 20
-0.4952781366446192
 10
-0.0585533905932735
 20
-0.4959445196230107
 10
-0.0535533905932735
 20
-0.4965596645419678
 10
-0.0485533905932735
 20
-0.4971237616086806
 10
-0.0435533905932735
 20
-0.4976369844192622
 10
-0.0385533905932735
 20
-0.4980994902304456
 10
-0.0335533905932735
 20
-0.4985114202039533
 10
-0.0285533905932735
 20
-0.4988728996244386
 10
-0.0235533905932735
 20
-0.4991840380917923
 10
-0.0185533905932735
 20
-0.49944492968851
 10
-0.0135533905932735
 20
-0.4996556531227215
 10
-0.0085533905932735
 20
-0.4998162718473921
 10
-0.0035533905932735
 20
-0.4999268341561182
 10
0.0014466094067265
 20
-0.499987373255857
 10
0.0064466094067265
 20
-0.4999979073168451
 10
0.0114466094067265
 20
-0.4999584394998819
 10
0.0164466094067265
 20
-0.4998689579610739
 10
0.0214466094067265
 20
-0.4997294358340547
 10
0.0264466094067265
 20
-0.4995398311896213
 10
0.0314466094067265
 20
-0.4993000869726422
 10
0.0364466094067265
 20
-0.4990101309160174
 10
0.0414466094067265
 20
-0.4986698754313855
 10
0.0464466094067265
 20
-0.498279217476192
 10
0.0514466094067265
 20
-0.4978380383966446
 10
0.0564466094067265
 20
-0.497346203745994
 10
0.0614466094067265
 20
-0.4968035630774849
 10
0.0664466094067264
 20
-0.4962099497112257
 10
0.0714466094067265
 20
-0.4955651804741228
 10
0.0764466094067265
 20
-0.4948690554119167
 10
0.0814466094067265
 20
-0.4941213574722463
 10
0.0864466094067265
 20
-0.4933218521575424
 10
0.0914466094067265
 20
-0.4924702871464235
 10
0.0964466094067265
 20
-0.4915663918821278
 10
0.1014466094067265
 20
-0.4906098771263643
 10
0.1064466094067265
 20
-0.4896004344768079
 10
0.1114466094067265
 20
-0.4885377358462822
 10
0.1164466094067265
 20
-0.4874214329014929
 10
0.1214466094067265
 20
-0.4862511564589613
 10
0.1264466094067265
 20
-0.4850265158355881
 10
0.1314466094067265
 20
-0.4837470981510305
 10
0.1364466094067265
 20
-0.482412467578809
 10
0.1414466094067265
 20
-0.4810221645427664
 10
0.1464466094067265
 20
-0.4795757048551781
 10
0.1514466094067265
 20
-0.4780725787924608
 10
0.1564466094067265
 20
-0.4765122501040308
 10
0.1614466094067265
 20
-0.4748941549494363
 10
0.1664466094067265
 20
-0.4732177007584056
 10
0.1714466094067265
 20
-0.4714822650079264
 10
0.1764466094067265
 20
-0.4696871939098801
 10
0.1814466094067266
 20
-0.4678318010021017
 10
0.1864466094067266
 20
-0.4659153656350076
 10
0.1914466094067266
 20
-0.4639371313451162
 10
0.1964466094067266
 20
-0.4618963041058764
 10
0.2014466094067266
 20
-0.4597920504451997
 10
0.2064466094067266
 20
-0.4576234954179405
 10
0.2114466094067266
 20
-0.4553897204202862
 10
0.2164466094067266
 20
-0.4530897608315588
 10
0.2214466094067266
 20
-0.45072260346729
 10
0.2264466094067266
 20
-0.4482871838255748
 10
0.2314466094067266
 20
-0.4457823831065977
 10
0.2364466094067266
 20
-0.4432070249828292
 10
0.2414466094067266
 20
-0.4405598720946596
 10
0.2464466094067266
 20
-0.4378396222431172
 10
0.2514466094067266
 20
-0.4350449042477435
 10
0.2564466094067266
 20
-0.4321742734336012
 10
0.2614466094067266
 20
-0.4292262067066663
 10
0.2664466094067266
 20
-0.4261990971714118
 10
0.2714466094067266
 20
-0.4230912482380831
 10
0.2764466094067266
 20
-0.4199008671598476
 10
0.2814466094067266
 20
-0.4166260579314797
 10
0.2864466094067266
 20
-0.4132648134712868
 10
0.2914466094067266
 20
-0.4098150069963156
 10
0.2964466094067266
 20
-0.4062743824871597
 10
0.3014466094067266
 20
-0.4026405441224911
 10
0.3064466094067266
 20
-0.3989109445442534
 10
0.3114466094067266
 20
-0.3950828717916294
 10
0.3164466094067266
 20
-0.391153434714632
 10
0.3214466094067266
 20
-0.3871195466454601
 10
0.3264466094067267
 20
-0.3829779070663467
 10
0.3314466094067267
 20
-0.3787249809648844
 10
0.3364466094067267
 20
-0.3743569755097196
 10
0.3414466094067267
 20
-0.3698698136084067
 10
0.3464466094067267
 20
-0.3652591038217257
 10
0.3514466094067267
 20
-0.3605201060004601
 10
0.3564466094067267
 20
-0.3556476918757041
 10
0.3614466094067267
 20
-0.3506362996645505
 10
0.3664466094067267
 20
-0.34547988153926
 10
0.3714466094067267
 20
-0.3401718425359658
 10
0.3764466094067267
 20
-0.334704969129899
 10
0.3814466094067267
 20
-0.3290713452523318
 10
0.3864466094067267
 20
-0.3232622529342269
 10
0.3914466094067267
 20
-0.3172680539828188
 10
0.3964466094067267
 20
-0.3110780480586465
 10
0.4014466094067267
 20
-0.304680301118911
 10
0.4064466094067267
 20
-0.2980614362775617
 10
0.4114466094067267
 20
-0.291206376478565
 10
0.4164466094067267
 20
-0.2840980246459106
 10
0.4214466094067267
 20
-0.276716861635935
 10
0.4264466094067267
 20
-0.2690404345439063
 10
0.4314466094067267
 20
-0.2610426963649944
 10
0.4364466094067267
 20
-0.2526931404518915
 10
0.4414466094067268
 20
-0.2439556458403291
 10
0.4464466094067268
 20
-0.2347869056044327
 10
0.4514466094067268
 20
-0.2251342376211081
 10
0.4564466094067268
 20
-0.2149324518428296
 10
0.4614466094067268
 20
-0.2040992228331676
 10
0.4664466094067268
 20
-0.1925279893081412
 10
0.4714466094067268
 20
-0.1800765408735088
 10
0.4764466094067268
 20
-0.1665475742210051
 10
0.4814466094067268
 20
-0.1516529867323223
 10
0.4864466094067268
 20
-0.1349413290684758
 10
0.4914466094067268
 20
-0.1156274024472547
 10
0.4964466094067268
 20
-0.0920881648347501
 10
0.5
 20
0.0
 10
0.495
 20
0.0
 10
0.49
 20
0.0705336798983295
 10
0.485
 20
0.0994987437106621
 10
0.48
 20
0.1215524578114322
 10
0.475
 20
0.14
 10
0.47
 20
0.15612494995996
 10
0.465
 20
0.1705872210923199
 10
0.46
 20
0.1837797594948911
 10
0.455
 20
0.1959591794226544
 10
0.45
 20
0.2073041244162789
 10
0.445
 20
0.2179449471770338
 10
0.4399999999999999
 20
0.2279802623035601
 10
0.4349999999999999
 20
0.2374868417407584
 10
0.4299999999999999
 20
0.2465258607124211
 10
0.4249999999999999
 20
0.2551470164434615
 10
0.4199999999999999
 20
0.2633913438213186
 10
0.4149999999999999
 20
0.2712931993250108
 10
0.4099999999999999
 20
0.2788816953476869
 10
0.4049999999999999
 20
0.2861817604250838
 10
0.3999999999999999
 20
0.2932149382279151
 10
0.3949999999999999
 20
0.3000000000000002
 10
0.3899999999999999
 20
0.3065534211193868
 10
0.3849999999999999
 20
0.3128897569432404
 10
0.3799999999999999
 20
0.3190219428189855
 10
0.3749999999999999
 20
0.3249615361854385
 10
0.3699999999999999
 20
0.330718913883074
 10
0.3649999999999999
 20
0.3363034344160049
 10
0.3599999999999999
 20
0.3417235724968357
 10
0.3549999999999999
 20
0.3469870314579496
 10
0.3535533905932738
 20
0.3535533905932738
 97
        0
 75
     0
 76
     1
 98
        0
  0
CIRCLE
  5
145
330
143
100
AcDbEntity
  8
0
 62
     0
370
    -2
100
AcDbCircle
 10
0.0
 20
0.0
 30
0.0
 40
0.5
  0
ENDBLK
  5
147
330
143
100
AcDbEntity
  8
0
100
AcDbBlockEnd
  0
BLOCK
  5
14C
330
148
100
AcDbEntity
  8
0
100
AcDbBlockBegin
  2
CDWK_PTTYP38
 70
     0
 10
0.0
 20
0.0
 30
0.0
  3
CDWK_PTTYP38
  1

  0
HATCH
  5
149
330
148
100
AcDbEntity
  8
0
 62
     0
370
    -2
100
AcDbHatch
 10
0.0
 20
0.0
 30
0.0
210
0.0
220
0.0
230
1.0
  2
SOLID
 70
     1
 71
     1
 91
        1
 92
        3
 72
     0
 73
     1
 93
      102
 10
0.0
 20
0.0
 10
0.0
 20
0.5
 10
0.005
 20
0.5
 10
0.01
 20
0.4999749993749688
 10
0.015
 20
0.4998999899979995
 10
0.02
 20
0.4997749493522059
 10
0.025
 20
0.4995998398718718
 10
0.03
 20
0.4993746088859545
 10
0.035
 20
0.4990991885387112
 10
0.04
 20
0.4987734956871706
 10
0.045
 20
0.4983974317750845
 10
0.05
 20
0.4979708826829135
 10
0.055
 20
0.49749371855331
 10
0.06
 20
0.4969657935914704
 10
0.065
 20
0.4963869458396343
 10
0.07
 20
0.4957569969249047
 10
0.075
 20
0.4950757517794626
 10
0.08
 20
0.4943429983321297
 10
0.085
 20
0.4935585071701227
 10
0.09
 20
0.4927220311697053
 10
0.095
 20
0.4918333050943175
 10
0.1
 20
0.4908920451586071
 10
0.105
 20
0.4898979485566356
 10
0.11
 20
0.4888506929523574
 10
0.115
 20
0.4877499359302879
 10
0.12
 20
0.4865953144040744
 10
0.125
 20
0.4853864439804639
 10
0.13
 20
0.4841229182759271
 10
0.135
 20
0.4828043081829325
 10
0.14
 20
0.4814301610825811
 10
0.145
 20
0.48
 10
0.15
 20
0.478513322698543
 10
0.1550000000000001
 20
0.4769696007084728
 10
0.1600000000000001
 20
0.4753682782853731
 10
0.1650000000000001
 20
0.4737087712930804
 10
0.1700000000000001
 20
0.4719904660054056
 10
0.1750000000000001
 20
0.4702127178203498
 10
0.1800000000000001
 20
0.4683748498798799
 10
0.1850000000000001
 20
0.466476151587624
 10
0.1900000000000001
 20
0.4645158770160606
 10
0.1950000000000001
 20
0.4624932431938871
 10
0.2000000000000001
 20
0.460407428263272
 10
0.2050000000000001
 20
0.4582575694955839
 10
0.2100000000000001
 20
0.4560427611529427
 10
0.2150000000000001
 20
0.4537620521815371
 10
0.2200000000000001
 20
0.4514144437210665
 10
0.2250000000000001
 20
0.4489988864128729
 10
0.2300000000000001
 20
0.4465142774872937
 10
0.2350000000000001
 20
0.4439594576084622
 10
0.2400000000000001
 20
0.4413332074521472
 10
0.2450000000000001
 20
0.4386342439892261
 10
0.2500000000000001
 20
0.4358612164439502
 10
0.2550000000000001
 20
0.4330127018922192
 10
0.2600000000000001
 20
0.4300872004605577
 10
0.2650000000000001
 20
0.4270831300812524
 10
0.2700000000000001
 20
0.423998820753077
 10
0.2750000000000001
 20
0.4208325082500162
 10
0.2800000000000001
 20
0.4175823272122516
 10
0.2850000000000001
 20
0.4142463035441595
 10
0.2900000000000001
 20
0.4108223460329293
 10
0.2950000000000002
 20
0.4073082370883259
 10
0.3000000000000002
 20
0.403701622488689
 10
0.3050000000000002
 20
0.3999999999999999
 10
0.3100000000000002
 20
0.3962007067131506
 10
0.3150000000000002
 20
0.3923009049186605
 10
0.3200000000000002
 20
0.3882975663070783
 10
0.3250000000000002
 20
0.3841874542459708
 10
0.3300000000000002
 20
0.3799671038392664
 10
0.3350000000000002
 20
0.3756327994198588
 10
0.3400000000000002
 20
0.3711805490593491
 10
0.3450000000000002
 20
0.366606055596467
 10
0.3500000000000002
 20
0.3619046835839512
 10
0.3550000000000002
 20
0.3570714214271423
 10
0.3600000000000002
 20
0.3521008378291649
 10
0.3650000000000002
 20
0.3469870314579492
 10
0.3700000000000002
 20
0.3417235724968353
 10
0.3750000000000002
 20
0.3363034344160045
 10
0.3800000000000002
 20
0.3307189138830736
 10
0.3850000000000002
 20
0.3249615361854382
 10
0.3900000000000002
 20
0.3190219428189851
 10
0.3950000000000002
 20
0.31288975694324
 10
0.4000000000000002
 20
0.3065534211193863
 10
0.4050000000000002
 20
0.2999999999999997
 10
0.4100000000000003
 20
0.2932149382279147
 10
0.4150000000000003
 20
0.2861817604250834
 10
0.4200000000000003
 20
0.2788816953476864
 10
0.4250000000000003
 20
0.2712931993250103
 10
0.4300000000000003
 20
0.263391343821318
 10
0.4350000000000003
 20
0.255147016443461
 10
0.4400000000000003
 20
0.2465258607124206
 10
0.4450000000000003
 20
0.2374868417407578
 10
0.4500000000000003
 20
0.2279802623035594
 10
0.4550000000000003
 20
0.2179449471770331
 10
0.4600000000000003
 20
0.2073041244162782
 10
0.4650000000000003
 20
0.1959591794226536
 10
0.4700000000000003
 20
0.1837797594948903
 10
0.4750000000000003
 20
0.170587221092319
 10
0.4800000000000003
 20
0.156124949959959
 10
0.4850000000000003
 20
0.1399999999999989
 10
0.4900000000000003
 20
0.1215524578114309
 10
0.4950000000000003
 20
0.0994987437106604
 10
0.5
 20
0.0
 97
        0
 75
     0
 76
     1
 98
        0
  0
HATCH
  5
14A
330
148
100
AcDbEntity
  8
0
 62
     0
370
    -2
100
AcDbHatch
 10
0.0
 20
0.0
 30
0.0
210
0.0
220
0.0
230
1.0
  2
SOLID
 70
     1
 71
     1
 91
        1
 92
        3
 72
     0
 73
     1
 93
      102
 10
0.0
 20
0.0
 10
-0.5
 20
0.0
 10
-0.495
 20
0.0
 10
-0.49
 20
-0.0705336798983295
 10
-0.485
 20
-0.0994987437106621
 10
-0.48
 20
-0.1215524578114322
 10
-0.475
 20
-0.14
 10
-0.47
 20
-0.15612494995996
 10
-0.465
 20
-0.1705872210923199
 10
-0.46
 20
-0.1837797594948911
 10
-0.455
 20
-0.1959591794226544
 10
-0.45
 20
-0.2073041244162789
 10
-0.445
 20
-0.2179449471770338
 10
-0.4399999999999999
 20
-0.2279802623035601
 10
-0.4349999999999999
 20
-0.2374868417407584
 10
-0.4299999999999999
 20
-0.2465258607124211
 10
-0.4249999999999999
 20
-0.2551470164434615
 10
-0.4199999999999999
 20
-0.2633913438213186
 10
-0.4149999999999999
 20
-0.2712931993250108
 10
-0.4099999999999999
 20
-0.2788816953476869
 10
-0.4049999999999999
 20
-0.2861817604250838
 10
-0.3999999999999999
 20
-0.2932149382279151
 10
-0.3949999999999999
 20
-0.3000000000000002
 10
-0.3899999999999999
 20
-0.3065534211193868
 10
-0.3849999999999999
 20
-0.3128897569432404
 10
-0.3799999999999999
 20
-0.3190219428189855
 10
-0.3749999999999999
 20
-0.3249615361854385
 10
-0.3699999999999999
 20
-0.330718913883074
 10
-0.3649999999999999
 20
-0.3363034344160049
 10
-0.3599999999999999
 20
-0.3417235724968357
 10
-0.3549999999999999
 20
-0.3469870314579496
 10
-0.3499999999999999
 20
-0.3521008378291652
 10
-0.3449999999999999
 20
-0.3570714214271427
 10
-0.3399999999999999
 20
-0.3619046835839516
 10
-0.3349999999999999
 20
-0.3666060555964674
 10
-0.3299999999999998
 20
-0.3711805490593494
 10
-0.3249999999999998
 20
-0.3756327994198591
 10
-0.3199999999999998
 20
-0.3799671038392667
 10
-0.3149999999999998
 20
-0.3841874542459711
 10
-0.3099999999999998
 20
-0.3882975663070786
 10
-0.3049999999999998
 20
-0.3923009049186608
 10
-0.2999999999999998
 20
-0.3962007067131507
 10
-0.2949999999999998
 20
-0.4000000000000001
 10
-0.2899999999999998
 20
-0.4037016224886891
 10
-0.2849999999999998
 20
-0.4073082370883261
 10
-0.2799999999999998
 20
-0.4108223460329296
 10
-0.2749999999999998
 20
-0.4142463035441597
 10
-0.2699999999999998
 20
-0.4175823272122518
 10
-0.2649999999999998
 20
-0.4208325082500164
 10
-0.2599999999999998
 20
-0.4239988207530773
 10
-0.2549999999999998
 20
-0.4270831300812526
 10
-0.2499999999999998
 20
-0.4300872004605579
 10
-0.2449999999999998
 20
-0.4330127018922195
 10
-0.2399999999999998
 20
-0.4358612164439503
 10
-0.2349999999999998
 20
-0.4386342439892263
 10
-0.2299999999999998
 20
-0.4413332074521473
 10
-0.2249999999999998
 20
-0.4439594576084624
 10
-0.2199999999999998
 20
-0.4465142774872939
 10
-0.2149999999999997
 20
-0.4489988864128731
 10
-0.2099999999999997
 20
-0.4514144437210667
 10
-0.2049999999999997
 20
-0.4537620521815372
 10
-0.1999999999999997
 20
-0.4560427611529429
 10
-0.1949999999999997
 20
-0.4582575694955841
 10
-0.1899999999999997
 20
-0.4604074282632722
 10
-0.1849999999999997
 20
-0.4624932431938872
 10
-0.1799999999999997
 20
-0.4645158770160608
 10
-0.1749999999999997
 20
-0.4664761515876241
 10
-0.1699999999999997
 20
-0.46837484987988
 10
-0.1649999999999997
 20
-0.47021271782035
 10
-0.1599999999999997
 20
-0.4719904660054058
 10
-0.1549999999999997
 20
-0.4737087712930805
 10
-0.1499999999999997
 20
-0.4753682782853733
 10
-0.1449999999999997
 20
-0.4769696007084729
 10
-0.1399999999999997
 20
-0.4785133226985431
 10
-0.1349999999999997
 20
-0.4800000000000001
 10
-0.1299999999999997
 20
-0.4814301610825812
 10
-0.1249999999999997
 20
-0.4828043081829325
 10
-0.1199999999999997
 20
-0.4841229182759272
 10
-0.1149999999999997
 20
-0.485386443980464
 10
-0.1099999999999997
 20
-0.4865953144040744
 10
-0.1049999999999996
 20
-0.487749935930288
 10
-0.0999999999999996
 20
-0.4888506929523574
 10
-0.0949999999999996
 20
-0.4898979485566357
 10
-0.0899999999999996
 20
-0.4908920451586072
 10
-0.0849999999999996
 20
-0.4918333050943176
 10
-0.0799999999999996
 20
-0.4927220311697053
 10
-0.0749999999999996
 20
-0.4935585071701227
 10
-0.0699999999999996
 20
-0.4943429983321298
 10
-0.0649999999999996
 20
-0.4950757517794626
 10
-0.0599999999999996
 20
-0.4957569969249048
 10
-0.0549999999999996
 20
-0.4963869458396343
 10
-0.0499999999999996
 20
-0.4969657935914705
 10
-0.0449999999999996
 20
-0.49749371855331
 10
-0.0399999999999996
 20
-0.4979708826829135
 10
-0.0349999999999996
 20
-0.4983974317750846
 10
-0.0299999999999996
 20
-0.4987734956871706
 10
-0.0249999999999996
 20
-0.4990991885387112
 10
-0.0199999999999996
 20
-0.4993746088859545
 10
-0.0149999999999996
 20
-0.4995998398718719
 10
-0.0099999999999996
 20
-0.499774949352206
 10
-0.0049999999999996
 20
-0.4998999899979995
 10
0.0
 20
-0.5
 97
        0
 75
     0
 76
     1
 98
        0
  0
CIRCLE
  5
14B
330
148
100
AcDbEntity
  8
0
 62
     0
370
    -2
100
AcDbCircle
 10
0.0
 20
0.0
 30
0.0
 40
0.5
  0
ENDBLK
  5
14D
330
148
100
AcDbEntity
  8
0
100
AcDbBlockEnd
  0
BLOCK
  5
156
330
14E
100
AcDbEntity
  8
0
100
AcDbBlockBegin
  2
CDWK_PTTYP41
 70
     0
 10
0.0
 20
0.0
 30
0.0
  3
CDWK_PTTYP41
  1

  0
LINE
  5
14F
330
14E
100
AcDbEntity
  8
0
 62
     0
370
    -2
100
AcDbLine
 10
-0.5
 20
0.5
 30
0.0
 11
0.5
 21
0.5
 31
0.0
  0
LINE
  5
150
330
14E
100
AcDbEntity
  8
0
 62
     0
370
    -2
100
AcDbLine
 10
0.5
 20
0.5
 30
0.0
 11
0.5
 21
-0.5
 31
0.0
  0
LINE
  5
151
330
14E
100
AcDbEntity
  8
0
 62
     0
370
    -2
100
AcDbLine
 10
0.5
 20
-0.5
 30
0.0
 11
-0.5
 21
-0.5
 31
0.0
  0
LINE
  5
152
330
14E
100
AcDbEntity
  8
0
 62
     0
370
    -2
100
AcDbLine
 10
-0.5
 20
-0.5
 30
0.0
 11
-0.5
 21
0.5
 31
0.0
  0
LINE
  5
153
330
14E
100
AcDbEntity
  8
0
 62
     0
370
    -2
100
AcDbLine
 10
-0.375
 20
0.25
 30
0.0
 11
0.375
 21
0.25
 31
0.0
  0
LINE
  5
154
330
14E
100
AcDbEntity
  8
0
 62
     0
370
    -2
100
AcDbLine
 10
-0.375
 20
0.0
 30
0.0
 11
0.375
 21
0.0
 31
0.0
  0
LINE
  5
155
330
14E
100
AcDbEntity
  8
0
 62
     0
370
    -2
100
AcDbLine
 10
-0.375
 20
-0.25
 30
0.0
 11
0.375
 21
-0.25
 31
0.0
  0
ENDBLK
  5
157
330
14E
100
AcDbEntity
  8
0
100
AcDbBlockEnd
  0
BLOCK
  5
15F
330
158
100
AcDbEntity
  8
0
100
AcDbBlockBegin
  2
CDWK_PTTYP42
 70
     0
 10
0.0
 20
0.0
 30
0.0
  3
CDWK_PTTYP42
  1

  0
LINE
  5
159
330
158
100
AcDbEntity
  8
0
 62
     0
370
    -2
100
AcDbLine
 10
-0.5
 20
0.5
 30
0.0
 11
0.5
 21
0.5
 31
0.0
  0
LINE
  5
15A
330
158
100
AcDbEntity
  8
0
 62
     0
370
    -2
100
AcDbLine
 10
0.5
 20
0.5
 30
0.0
 11
0.5
 21
-0.5
 31
0.0
  0
LINE
  5
15B
330
158
100
AcDbEntity
  8
0
 62
     0
370
    -2
100
AcDbLine
 10
0.5
 20
-0.5
 30
0.0
 11
-0.5
 21
-0.5
 31
0.0
  0
LINE
  5
15C
330
158
100
AcDbEntity
  8
0
 62
     0
370
    -2
100
AcDbLine
 10
-0.5
 20
-0.5
 30
0.0
 11
-0.5
 21
0.5
 31
0.0
  0
LINE
  5
15D
330
158
100
AcDbEntity
  8
0
 62
     0
370
    -2
100
AcDbLine
 10
-0.375
 20
0.125
 30
0.0
 11
0.375
 21
0.125
 31
0.0
  0
LINE
  5
15E
330
158
100
AcDbEntity
  8
0
 62
     0
370
    -2
100
AcDbLine
 10
-0.375
 20
-0.125
 30
0.0
 11
0.375
 21
-0.125
 31
0.0
  0
ENDBLK
  5
160
330
158
100
AcDbEntity
  8
0
100
AcDbBlockEnd
  0
BLOCK
  5
165
330
161
100
AcDbEntity
  8
0
100
AcDbBlockBegin
  2
CDWK_PTTYP43
 70
     0
 10
0.0
 20
0.0
 30
0.0
  3
CDWK_PTTYP43
  1

  0
CIRCLE
  5
162
330
161
100
AcDbEntity
  8
0
 62
     0
370
    -2
100
AcDbCircle
 10
0.0
 20
0.0
 30
0.0
 40
0.5
  0
LINE
  5
163
330
161
100
AcDbEntity
  8
0
 62
     0
370
    -2
100
AcDbLine
 10
-0.375
 20
0.166
 30
0.0
 11
0.375
 21
0.166
 31
0.0
  0
LINE
  5
164
330
161
100
AcDbEntity
  8
0
 62
     0
370
    -2
100
AcDbLine
 10
-0.375
 20
-0.166
 30
0.0
 11
0.375
 21
-0.166
 31
0.0
  0
ENDBLK
  5
166
330
161
100
AcDbEntity
  8
0
100
AcDbBlockEnd
  0
BLOCK
  5
16E
330
167
100
AcDbEntity
  8
0
100
AcDbBlockBegin
  2
CDWK_PTTYP44
 70
     0
 10
0.0
 20
0.0
 30
0.0
  3
CDWK_PTTYP44
  1

  0
CIRCLE
  5
168
330
167
100
AcDbEntity
  8
0
 62
     0
370
    -2
100
AcDbCircle
 10
0.0
 20
0.0
 30
0.0
 40
0.5
  0
LINE
  5
169
330
167
100
AcDbEntity
  8
0
 62
     0
370
    -2
100
AcDbLine
 10
-0.375
 20
0.333
 30
0.0
 11
0.375
 21
0.333
 31
0.0
  0
LINE
  5
16A
330
167
100
AcDbEntity
  8
0
 62
     0
370
    -2
100
AcDbLine
 10
-0.375
 20
0.166
 30
0.0
 11
0.375
 21
0.166
 31
0.0
  0
LINE
  5
16B
330
167
100
AcDbEntity
  8
0
 62
     0
370
    -2
100
AcDbLine
 10
-0.375
 20
0.0
 30
0.0
 11
0.375
 21
0.0
 31
0.0
  0
LINE
  5
16C
330
167
100
AcDbEntity
  8
0
 62
     0
370
    -2
100
AcDbLine
 10
-0.375
 20
-0.166
 30
0.0
 11
0.375
 21
-0.166
 31
0.0
  0
LINE
  5
16D
330
167
100
AcDbEntity
  8
0
 62
     0
370
    -2
100
AcDbLine
 10
-0.375
 20
-0.333
 30
0.0
 11
0.375
 21
-0.333
 31
0.0
  0
ENDBLK
  5
16F
330
167
100
AcDbEntity
  8
0
100
AcDbBlockEnd
  0
BLOCK
  5
173
330
170
100
AcDbEntity
  8
0
100
AcDbBlockBegin
  2
CDWK_PTTYP45
 70
     0
 10
0.0
 20
0.0
 30
0.0
  3
CDWK_PTTYP45
  1

  0
ELLIPSE
  5
171
330
170
100
AcDbEntity
  8
0
 62
     0
370
    -2
100
AcDbEllipse
 10
0.0
 20
0.0
 30
0.0
 11
0.5
 21
0.0
 31
0.0
210
0.0
220
0.0
230
1.0
 40
0.82
 41
0.0
 42
6.283185307179586
  0
CIRCLE
  5
172
330
170
100
AcDbEntity
  8
0
 62
     0
370
    -2
100
AcDbCircle
 10
-0.235
 20
0.0
 30
0.0
 40
0.26
  0
ENDBLK
  5
174
330
170
100
AcDbEntity
  8
0
100
AcDbBlockEnd
  0
BLOCK
  5
178
330
175
100
AcDbEntity
  8
0
100
AcDbBlockBegin
  2
CDWK_PTTYP46
 70
     0
 10
0.0
 20
0.0
 30
0.0
  3
CDWK_PTTYP46
  1

  0
ELLIPSE
  5
176
330
175
100
AcDbEntity
  8
0
 62
     0
370
    -2
100
AcDbEllipse
 10
0.0
 20
0.0
 30
0.0
 11
0.5
 21
0.0
 31
0.0
210
0.0
220
0.0
230
1.0
 40
0.82
 41
0.0
 42
6.283185307179586
  0
CIRCLE
  5
177
330
175
100
AcDbEntity
  8
0
 62
     0
370
    -2
100
AcDbCircle
 10
0.0
 20
0.15
 30
0.0
 40
0.26
  0
ENDBLK
  5
179
330
175
100
AcDbEntity
  8
0
100
AcDbBlockEnd
  0
BLOCK
  5
180
330
17A
100
AcDbEntity
  8
0
100
AcDbBlockBegin
  2
CDWK_PTTYP47
 70
     0
 10
0.0
 20
0.0
 30
0.0
  3
CDWK_PTTYP47
  1

  0
LINE
  5
17B
330
17A
100
AcDbEntity
  8
0
 62
     0
370
    -2
100
AcDbLine
 10
-0.5
 20
0.166
 30
0.0
 11
0.5
 21
0.166
 31
0.0
  0
LINE
  5
17C
330
17A
100
AcDbEntity
  8
0
 62
     0
370
    -2
100
AcDbLine
 10
0.5
 20
0.166
 30
0.0
 11
0.5
 21
-0.166
 31
0.0
  0
LINE
  5
17D
330
17A
100
AcDbEntity
  8
0
 62
     0
370
    -2
100
AcDbLine
 10
0.5
 20
-0.166
 30
0.0
 11
-0.5
 21
-0.166
 31
0.0
  0
LINE
  5
17E
330
17A
100
AcDbEntity
  8
0
 62
     0
370
    -2
100
AcDbLine
 10
-0.5
 20
-0.166
 30
0.0
 11
-0.5
 21
0.166
 31
0.0
  0
CIRCLE
  5
17F
330
17A
100
AcDbEntity
  8
0
 62
     0
370
    -2
100
AcDbCircle
 10
0.0
 20
-0.313
 30
0.0
 40
0.4
  0
ENDBLK
  5
181
330
17A
100
AcDbEntity
  8
0
100
AcDbBlockEnd
  0
BLOCK
  5
186
330
183
100
AcDbEntity
  8
0
100
AcDbBlockBegin
  2
CDWK_PTTYP48
 70
     0
 10
0.0
 20
0.0
 30
0.0
  3
CDWK_PTTYP48
  1

  0
CIRCLE
  5
184
330
183
100
AcDbEntity
  8
0
  6
CADWORK_3
 62
     0
 48
0.1
370
    -2
100
AcDbCircle
 10
0.0
 20
0.0
 30
0.0
 40
0.5
  0
CIRCLE
  5
185
330
183
100
AcDbEntity
  8
0
 62
     0
370
    -2
100
AcDbCircle
 10
0.0
 20
0.0
 30
0.0
 40
0.25
  0
ENDBLK
  5
187
330
183
100
AcDbEntity
  8
0
100
AcDbBlockEnd
  0
BLOCK
  5
18D
330
188
100
AcDbEntity
  8
0
100
AcDbBlockBegin
  2
CDWK_PTTYP49
 70
     0
 10
0.0
 20
0.0
 30
0.0
  3
CDWK_PTTYP49
  1

  0
LINE
  5
189
330
188
100
AcDbEntity
  8
0
 62
     0
370
    -2
100
AcDbLine
 10
-0.5
 20
0.166
 30
0.0
 11
0.5
 21
0.166
 31
0.0
  0
LINE
  5
18A
330
188
100
AcDbEntity
  8
0
 62
     0
370
    -2
100
AcDbLine
 10
0.5
 20
0.166
 30
0.0
 11
0.5
 21
-0.166
 31
0.0
  0
LINE
  5
18B
330
188
100
AcDbEntity
  8
0
 62
     0
370
    -2
100
AcDbLine
 10
0.5
 20
-0.166
 30
0.0
 11
-0.5
 21
-0.166
 31
0.0
  0
LINE
  5
18C
330
188
100
AcDbEntity
  8
0
 62
     0
370
    -2
100
AcDbLine
 10
-0.5
 20
-0.166
 30
0.0
 11
-0.5
 21
0.166
 31
0.0
  0
ENDBLK
  5
18E
330
188
100
AcDbEntity
  8
0
100
AcDbBlockEnd
  0
BLOCK
  5
197
330
18F
100
AcDbEntity
  8
0
100
AcDbBlockBegin
  2
CDWK_PTTYP50
 70
     0
 10
0.0
 20
0.0
 30
0.0
  3
CDWK_PTTYP50
  1

  0
LINE
  5
190
330
18F
100
AcDbEntity
  8
0
 62
     0
370
    -2
100
AcDbLine
 10
-0.5
 20
0.166
 30
0.0
 11
0.5
 21
0.166
 31
0.0
  0
LINE
  5
191
330
18F
100
AcDbEntity
  8
0
 62
     0
370
    -2
100
AcDbLine
 10
0.5
 20
0.166
 30
0.0
 11
0.5
 21
-0.166
 31
0.0
  0
LINE
  5
192
330
18F
100
AcDbEntity
  8
0
 62
     0
370
    -2
100
AcDbLine
 10
0.5
 20
-0.166
 30
0.0
 11
-0.5
 21
-0.166
 31
0.0
  0
LINE
  5
193
330
18F
100
AcDbEntity
  8
0
 62
     0
370
    -2
100
AcDbLine
 10
-0.5
 20
-0.166
 30
0.0
 11
-0.5
 21
0.166
 31
0.0
  0
LINE
  5
194
330
18F
100
AcDbEntity
  8
0
 62
     0
370
    -2
100
AcDbLine
 10
-0.25
 20
-0.166
 30
0.0
 11
-0.25
 21
0.166
 31
0.0
  0
LINE
  5
195
330
18F
100
AcDbEntity
  8
0
 62
     0
370
    -2
100
AcDbLine
 10
0.0
 20
-0.166
 30
0.0
 11
0.0
 21
0.166
 31
0.0
  0
LINE
  5
196
330
18F
100
AcDbEntity
  8
0
 62
     0
370
    -2
100
AcDbLine
 10
0.25
 20
-0.166
 30
0.0
 11
0.25
 21
0.166
 31
0.0
  0
ENDBLK
  5
198
330
18F
100
AcDbEntity
  8
0
100
AcDbBlockEnd
  0
BLOCK
  5
19C
330
199
100
AcDbEntity
  8
0
100
AcDbBlockBegin
  2
CDWK_PTTYP51
 70
     0
 10
0.0
 20
0.0
 30
0.0
  3
CDWK_PTTYP51
  1

  0
SPLINE
  5
19A
330
199
100
AcDbEntity
  8
0
 62
     0
370
    -2
100
AcDbSpline
210
0.0
220
0.0
230
1.0
 70
  1064
 71
     3
 72
    12
 73
     8
 74
     6
 42
0.000000001
 43
0.0000000001
 44
0.0000000001
 40
0.0
 40
0.0
 40
0.0
 40
0.0
 40
0.1690118339052032
 40
0.5175774661755118
 40
0.8011704844252565
 40
0.9154070810132151
 40
0.975822310881188
 40
0.975822310881188
 40
0.975822310881188
 40
0.975822310881188
 10
-0.5
 20
-0.077
 30
0.0
 10
-0.443824324006723
 20
-0.0900581618560981
 30
0.0
 10
-0.2717933876546281
 20
-0.1300471387828842
 30
0.0
 10
-0.0276699186086479
 20
-0.0006977790990417
 30
0.0
 10
0.2303349729129116
 20
0.0817803270207037
 30
0.0
 10
0.3686157174766292
 20
0.0066250198607167
 30
0.0
 10
0.4216533294581816
 20
-0.0168719667726145
 30
0.0
 10
0.44
 20
-0.025
 30
0.0
 11
-0.5
 21
-0.077
 31
0.0
 11
-0.333
 21
-0.103
 31
0.0
 11
0.0
 21
0.0
 31
0.0
 11
0.28
 21
0.045
 31
0.0
 11
0.385
 21
0.0
 31
0.0
 11
0.44
 21
-0.025
 31
0.0
  0
HATCH
  5
19B
330
199
100
AcDbEntity
  8
0
 62
     0
370
    -2
100
AcDbHatch
 10
0.0
 20
0.0
 30
0.0
210
0.0
220
0.0
230
1.0
  2
SOLID
 70
     1
 71
     1
 91
        1
 92
        3
 72
     0
 73
     1
 93
        3
 10
0.365
 20
-0.05
 10
0.5
 20
-0.042
 10
0.395
 20
0.045
 97
        0
 75
     0
 76
     1
 98
        0
  0
ENDBLK
  5
19D
330
199
100
AcDbEntity
  8
0
100
AcDbBlockEnd
  0
BLOCK
  5
1A2
330
19E
100
AcDbEntity
  8
0
100
AcDbBlockBegin
  2
CDWK_PTTYP52
 70
     0
 10
0.0
 20
0.0
 30
0.0
  3
CDWK_PTTYP52
  1

  0
LINE
  5
19F
330
19E
100
AcDbEntity
  8
0
 62
     0
370
    -2
100
AcDbLine
 10
-0.5
 20
-0.289
 30
0.0
 11
0.5
 21
-0.289
 31
0.0
  0
LINE
  5
1A0
330
19E
100
AcDbEntity
  8
0
 62
     0
370
    -2
100
AcDbLine
 10
0.5
 20
-0.289
 30
0.0
 11
0.0
 21
0.577
 31
0.0
  0
LINE
  5
1A1
330
19E
100
AcDbEntity
  8
0
 62
     0
370
    -2
100
AcDbLine
 10
0.0
 20
0.577
 30
0.0
 11
-0.5
 21
-0.289
 31
0.0
  0
ENDBLK
  5
1A3
330
19E
100
AcDbEntity
  8
0
100
AcDbBlockEnd
  0
BLOCK
  5
1A9
330
1A4
100
AcDbEntity
  8
0
100
AcDbBlockBegin
  2
cw-dimension-symbol1
 70
     0
 10
0.0
 20
0.0
 30
0.0
  3
cw-dimension-symbol1
  1

  0
LINE
  5
1A5
330
1A4
100
AcDbEntity
  8
0
 62
     0
370
    -2
100
AcDbLine
 10
0.0
 20
0.0
 30
0.0
 11
-1.0
 21
0.25
 31
0.0
  0
LINE
  5
1A6
330
1A4
100
AcDbEntity
  8
0
 62
     0
370
    -2
100
AcDbLine
 10
0.0
 20
0.0
 30
0.0
 11
-1.0
 21
-0.25
 31
0.0
  0
LINE
  5
1A7
330
1A4
100
AcDbEntity
  8
0
 62
     0
370
    -2
100
AcDbLine
 10
-1.0
 20
0.25
 30
0.0
 11
-1.0
 21
-0.25
 31
0.0
  0
LINE
  5
1A8
330
1A4
100
AcDbEntity
  8
0
 62
     0
370
    -2
100
AcDbLine
 10
0.0
 20
0.0
 30
0.0
 11
-1.0
 21
0.0
 31
0.0
  0
ENDBLK
  5
1AA
330
1A4
100
AcDbEntity
  8
0
100
AcDbBlockEnd
  0
BLOCK
  5
1AE
330
1AB
100
AcDbEntity
  8
0
100
AcDbBlockBegin
  2
cw-dimension-symbol2
 70
     0
 10
0.0
 20
0.0
 30
0.0
  3
cw-dimension-symbol2
  1

  0
LINE
  5
1AC
330
1AB
100
AcDbEntity
  8
0
 62
     0
370
    -2
100
AcDbLine
 10
-1.0
 20
0.0
 30
0.0
 11
1.0
 21
0.0
 31
0.0
  0
LINE
  5
1AD
330
1AB
100
AcDbEntity
  8
0
 62
     0
370
    -2
100
AcDbLine
 10
-0.5
 20
-0.5
 30
0.0
 11
0.5
 21
0.5
 31
0.0
  0
ENDBLK
  5
1AF
330
1AB
100
AcDbEntity
  8
0
100
AcDbBlockEnd
  0
BLOCK
  5
1B3
330
1B0
100
AcDbEntity
  8
0
100
AcDbBlockBegin
  2
cw-dimension-symbol3
 70
     0
 10
0.0
 20
0.0
 30
0.0
  3
cw-dimension-symbol3
  1

  0
LINE
  5
1B1
330
1B0
100
AcDbEntity
  8
0
 62
     0
370
    -2
100
AcDbLine
 10
-1.0
 20
0.0
 30
0.0
 11
1.0
 21
0.0
 31
0.0
  0
CIRCLE
  5
1B2
330
1B0
100
AcDbEntity
  8
0
 62
     0
370
    -2
100
AcDbCircle
 10
0.0
 20
0.0
 30
0.0
 40
0.25
  0
ENDBLK
  5
1B4
330
1B0
100
AcDbEntity
  8
0
100
AcDbBlockEnd
  0
BLOCK
  5
1BA
330
1B5
100
AcDbEntity
  8
0
100
AcDbBlockBegin
  2
cw-dimension-symbol5
 70
     0
 10
0.0
 20
0.0
 30
0.0
  3
cw-dimension-symbol5
  1

  0
HATCH
  5
1B6
330
1B5
100
AcDbEntity
  8
0
 62
     0
370
    -2
100
AcDbHatch
 10
0.0
 20
0.0
 30
0.0
210
0.0
220
0.0
230
1.0
  2
SOLID
 70
     1
 71
     1
 91
        1
 92
        3
 72
     0
 73
     1
 93
        3
 10
0.0
 20
0.0
 10
-1.0
 20
0.25
 10
-1.0
 20
-0.25
 97
        0
 75
     0
 76
     1
 98
        0
  0
LINE
  5
1B7
330
1B5
100
AcDbEntity
  8
0
 62
     0
370
    -2
100
AcDbLine
 10
0.0
 20
0.0
 30
0.0
 11
-1.0
 21
0.25
 31
0.0
  0
LINE
  5
1B8
330
1B5
100
AcDbEntity
  8
0
 62
     0
370
    -2
100
AcDbLine
 10
-1.0
 20
0.25
 30
0.0
 11
-1.0
 21
-0.25
 31
0.0
  0
LINE
  5
1B9
330
1B5
100
AcDbEntity
  8
0
 62
     0
370
    -2
100
AcDbLine
 10
-1.0
 20
-0.25
 30
0.0
 11
0.0
 21
0.0
 31
0.0
  0
ENDBLK
  5
1BB
330
1B5
100
AcDbEntity
  8
0
100
AcDbBlockEnd
  0
BLOCK
  5
1C0
330
1BC
100
AcDbEntity
  8
0
100
AcDbBlockBegin
  2
cw-dimension-symbol6
 70
     0
 10
0.0
 20
0.0
 30
0.0
  3
cw-dimension-symbol6
  1

  0
LINE
  5
1BD
330
1BC
100
AcDbEntity
  8
0
 62
     0
370
    -2
100
AcDbLine
 10
0.0
 20
0.0
 30
0.0
 11
-1.0
 21
0.25
 31
0.0
  0
LINE
  5
1BE
330
1BC
100
AcDbEntity
  8
0
 62
     0
370
    -2
100
AcDbLine
 10
0.0
 20
0.0
 30
0.0
 11
-1.0
 21
-0.25
 31
0.0
  0
LINE
  5
1BF
330
1BC
100
AcDbEntity
  8
0
 62
     0
370
    -2
100
AcDbLine
 10
0.0
 20
0.0
 30
0.0
 11
-1.0
 21
0.0
 31
0.0
  0
ENDBLK
  5
1C1
330
1BC
100
AcDbEntity
  8
0
100
AcDbBlockEnd
  0
BLOCK
  5
1C6
330
1C2
100
AcDbEntity
  8
0
100
AcDbBlockBegin
  2
cw-dimension-symbol11
 70
     0
 10
0.0
 20
0.0
 30
0.0
  3
cw-dimension-symbol11
  1

  0
LINE
  5
1C3
330
1C2
100
AcDbEntity
  8
0
 62
     0
370
    -2
100
AcDbLine
 10
-1.0
 20
1.0
 30
0.0
 11
1.0
 21
1.0
 31
0.0
  0
LINE
  5
1C4
330
1C2
100
AcDbEntity
  8
0
 62
     0
370
    -2
100
AcDbLine
 10
0.0
 20
0.0
 30
0.0
 11
-1.0
 21
1.0
 31
0.0
  0
LINE
  5
1C5
330
1C2
100
AcDbEntity
  8
0
 62
     0
370
    -2
100
AcDbLine
 10
0.0
 20
0.0
 30
0.0
 11
1.0
 21
1.0
 31
0.0
  0
ENDBLK
  5
1C7
330
1C2
100
AcDbEntity
  8
0
100
AcDbBlockEnd
  0
BLOCK
  5
1CC
330
1C8
100
AcDbEntity
  8
0
100
AcDbBlockBegin
  2
cw-dimension-symbol13
 70
     0
 10
0.0
 20
0.0
 30
0.0
  3
cw-dimension-symbol13
  1

  0
LINE
  5
1C9
330
1C8
100
AcDbEntity
  8
0
 62
     0
370
    -2
100
AcDbLine
 10
-1.0
 20
-1.0
 30
0.0
 11
1.0
 21
-1.0
 31
0.0
  0
LINE
  5
1CA
330
1C8
100
AcDbEntity
  8
0
 62
     0
370
    -2
100
AcDbLine
 10
0.0
 20
0.0
 30
0.0
 11
-1.0
 21
-1.0
 31
0.0
  0
LINE
  5
1CB
330
1C8
100
AcDbEntity
  8
0
 62
     0
370
    -2
100
AcDbLine
 10
0.0
 20
0.0
 30
0.0
 11
1.0
 21
-1.0
 31
0.0
  0
ENDBLK
  5
1CD
330
1C8
100
AcDbEntity
  8
0
100
AcDbBlockEnd
  0
BLOCK
  5
1D3
330
1CE
100
AcDbEntity
  8
0
100
AcDbBlockBegin
  2
cw-dimension-symbol15
 70
     0
 10
0.0
 20
0.0
 30
0.0
  3
cw-dimension-symbol15
  1

  0
HATCH
  5
1CF
330
1CE
100
AcDbEntity
  8
0
 62
     0
370
    -2
100
AcDbHatch
 10
0.0
 20
0.0
 30
0.0
210
0.0
220
0.0
230
1.0
  2
SOLID
 70
     1
 71
     1
 91
        1
 92
        3
 72
     0
 73
     1
 93
        3
 10
0.0
 20
0.0
 10
-1.0
 20
1.0
 10
1.0
 20
1.0
 97
        0
 75
     0
 76
     1
 98
        0
  0
LINE
  5
1D0
330
1CE
100
AcDbEntity
  8
0
 62
     0
370
    -2
100
AcDbLine
 10
0.0
 20
0.0
 30
0.0
 11
-1.0
 21
1.0
 31
0.0
  0
LINE
  5
1D1
330
1CE
100
AcDbEntity
  8
0
 62
     0
370
    -2
100
AcDbLine
 10
-1.0
 20
1.0
 30
0.0
 11
1.0
 21
1.0
 31
0.0
  0
LINE
  5
1D2
330
1CE
100
AcDbEntity
  8
0
 62
     0
370
    -2
100
AcDbLine
 10
1.0
 20
1.0
 30
0.0
 11
0.0
 21
0.0
 31
0.0
  0
ENDBLK
  5
1D4
330
1CE
100
AcDbEntity
  8
0
100
AcDbBlockEnd
  0
BLOCK
  5
1DA
330
1D5
100
AcDbEntity
  8
0
100
AcDbBlockBegin
  2
cw-dimension-symbol16
 70
     0
 10
0.0
 20
0.0
 30
0.0
  3
cw-dimension-symbol16
  1

  0
HATCH
  5
1D6
330
1D5
100
AcDbEntity
  8
0
 62
     0
370
    -2
100
AcDbHatch
 10
0.0
 20
0.0
 30
0.0
210
0.0
220
0.0
230
1.0
  2
SOLID
 70
     1
 71
     1
 91
        1
 92
        3
 72
     0
 73
     1
 93
        3
 10
0.0
 20
0.0
 10
-1.0
 20
-1.0
 10
1.0
 20
-1.0
 97
        0
 75
     0
 76
     1
 98
        0
  0
LINE
  5
1D7
330
1D5
100
AcDbEntity
  8
0
 62
     0
370
    -2
100
AcDbLine
 10
0.0
 20
0.0
 30
0.0
 11
-1.0
 21
-1.0
 31
0.0
  0
LINE
  5
1D8
330
1D5
100
AcDbEntity
  8
0
 62
     0
370
    -2
100
AcDbLine
 10
-1.0
 20
-1.0
 30
0.0
 11
1.0
 21
-1.0
 31
0.0
  0
LINE
  5
1D9
330
1D5
100
AcDbEntity
  8
0
 62
     0
370
    -2
100
AcDbLine
 10
1.0
 20
-1.0
 30
0.0
 11
0.0
 21
0.0
 31
0.0
  0
ENDBLK
  5
1DB
330
1D5
100
AcDbEntity
  8
0
100
AcDbBlockEnd
  0
BLOCK
  5
1E1
330
1DC
100
AcDbEntity
  8
0
100
AcDbBlockBegin
  2
cw-dimension-symbol17
 70
     0
 10
0.0
 20
0.0
 30
0.0
  3
cw-dimension-symbol17
  1

  0
LINE
  5
1DD
330
1DC
100
AcDbEntity
  8
0
 62
     0
370
    -2
100
AcDbLine
 10
0.0
 20
0.0
 30
0.0
 11
1.0
 21
1.0
 31
0.0
  0
LINE
  5
1DE
330
1DC
100
AcDbEntity
  8
0
 62
     0
370
    -2
100
AcDbLine
 10
1.0
 20
1.0
 30
0.0
 11
-1.0
 21
1.0
 31
0.0
  0
LINE
  5
1DF
330
1DC
100
AcDbEntity
  8
0
 62
     0
370
    -2
100
AcDbLine
 10
-1.0
 20
1.0
 30
0.0
 11
0.0
 21
0.0
 31
0.0
  0
HATCH
  5
1E0
330
1DC
100
AcDbEntity
  8
0
 62
     0
370
    -2
100
AcDbHatch
 10
0.0
 20
0.0
 30
0.0
210
0.0
220
0.0
230
1.0
  2
SOLID
 70
     1
 71
     1
 91
        1
 92
        3
 72
     0
 73
     1
 93
        3
 10
0.0
 20
0.0
 10
-1.0
 20
1.0
 10
0.0
 20
1.0
 97
        0
 75
     0
 76
     1
 98
        0
  0
ENDBLK
  5
1E2
330
1DC
100
AcDbEntity
  8
0
100
AcDbBlockEnd
  0
BLOCK
  5
1E8
330
1E3
100
AcDbEntity
  8
0
100
AcDbBlockBegin
  2
cw-dimension-symbol18
 70
     0
 10
0.0
 20
0.0
 30
0.0
  3
cw-dimension-symbol18
  1

  0
LINE
  5
1E4
330
1E3
100
AcDbEntity
  8
0
 62
     0
370
    -2
100
AcDbLine
 10
0.0
 20
0.0
 30
0.0
 11
1.0
 21
-1.0
 31
0.0
  0
LINE
  5
1E5
330
1E3
100
AcDbEntity
  8
0
 62
     0
370
    -2
100
AcDbLine
 10
1.0
 20
-1.0
 30
0.0
 11
-1.0
 21
-1.0
 31
0.0
  0
LINE
  5
1E6
330
1E3
100
AcDbEntity
  8
0
 62
     0
370
    -2
100
AcDbLine
 10
-1.0
 20
-1.0
 30
0.0
 11
0.0
 21
0.0
 31
0.0
  0
HATCH
  5
1E7
330
1E3
100
AcDbEntity
  8
0
 62
     0
370
    -2
100
AcDbHatch
 10
0.0
 20
0.0
 30
0.0
210
0.0
220
0.0
230
1.0
  2
SOLID
 70
     1
 71
     1
 91
        1
 92
        3
 72
     0
 73
     1
 93
        3
 10
0.0
 20
0.0
 10
-1.0
 20
-1.0
 10
0.0
 20
-1.0
 97
        0
 75
     0
 76
     1
 98
        0
  0
ENDBLK
  5
1E9
330
1E3
100
AcDbEntity
  8
0
100
AcDbBlockEnd
  0
BLOCK
  5
1EB
330
1EA
100
AcDbEntity
  8
0
100
AcDbBlockBegin
  2
cw-dimension-symbol19
 70
     0
 10
0.0
 20
0.0
 30
0.0
  3
cw-dimension-symbol19
  1

  0
ENDBLK
  5
1EC
330
1EA
100
AcDbEntity
  8
0
100
AcDbBlockEnd
  0
BLOCK
  5
1F2
330
1ED
100
AcDbEntity
  8
0
100
AcDbBlockBegin
  2
cw-dimension-symbol20
 70
     0
 10
0.0
 20
0.0
 30
0.0
  3
cw-dimension-symbol20
  1

  0
LINE
  5
1EE
330
1ED
100
AcDbEntity
  8
0
 62
     0
370
    -2
100
AcDbLine
 10
0.0
 20
0.0
 30
0.0
 11
0.0
 21
2.0
 31
0.0
  0
LINE
  5
1EF
330
1ED
100
AcDbEntity
  8
0
 62
     0
370
    -2
100
AcDbLine
 10
0.0
 20
0.0
 30
0.0
 11
-1.0
 21
0.33
 31
0.0
  0
LINE
  5
1F0
330
1ED
100
AcDbEntity
  8
0
 62
     0
370
    -2
100
AcDbLine
 10
0.0
 20
0.0
 30
0.0
 11
1.0
 21
0.33
 31
0.0
  0
LINE
  5
1F1
330
1ED
100
AcDbEntity
  8
0
 62
     0
370
    -2
100
AcDbLine
 10
0.0
 20
2.0
 30
0.0
 11
4.15
 21
2.0
 31
0.0
  0
ENDBLK
  5
1F3
330
1ED
100
AcDbEntity
  8
0
100
AcDbBlockEnd
  0
BLOCK
  5
1F9
330
1F4
100
AcDbEntity
  8
0
100
AcDbBlockBegin
  2
cw-dimension-symbol21
 70
     0
 10
0.0
 20
0.0
 30
0.0
  3
cw-dimension-symbol21
  1

  0
LINE
  5
1F5
330
1F4
100
AcDbEntity
  8
0
 62
     0
370
    -2
100
AcDbLine
 10
0.0
 20
0.0
 30
0.0
 11
0.0
 21
-2.0
 31
0.0
  0
LINE
  5
1F6
330
1F4
100
AcDbEntity
  8
0
 62
     0
370
    -2
100
AcDbLine
 10
0.0
 20
0.0
 30
0.0
 11
-1.0
 21
-0.33
 31
0.0
  0
LINE
  5
1F7
330
1F4
100
AcDbEntity
  8
0
 62
     0
370
    -2
100
AcDbLine
 10
0.0
 20
0.0
 30
0.0
 11
1.0
 21
-0.33
 31
0.0
  0
LINE
  5
1F8
330
1F4
100
AcDbEntity
  8
0
 62
     0
370
    -2
100
AcDbLine
 10
0.0
 20
-2.0
 30
0.0
 11
4.15
 21
-2.0
 31
0.0
  0
ENDBLK
  5
1FA
330
1F4
100
AcDbEntity
  8
0
100
AcDbBlockEnd
  0
BLOCK
  5
22B
330
1FB
100
AcDbEntity
  8
0
100
AcDbBlockBegin
  2
cw-line-extremity0
 70
     0
 10
0.0
 20
0.0
 30
0.0
  3
cw-line-extremity0
  1

  0
LINE
  5
1FC
330
1FB
100
AcDbEntity
  8
0
 62
     0
370
    -2
100
AcDbLine
 10
0.0
 20
0.0
 30
0.0
 11
4.0
 21
1.0
 31
0.0
  0
LINE
  5
1FD
330
1FB
100
AcDbEntity
  8
0
 62
     0
370
    -2
100
AcDbLine
 10
0.0
 20
0.0
 30
0.0
 11
4.0
 21
-1.0
 31
0.0
  0
LINE
  5
1FE
330
1FB
100
AcDbEntity
  8
0
 62
     0
370
    -2
100
AcDbLine
 10
4.0
 20
1.0
 30
0.0
 11
4.0
 21
-1.0
 31
0.0
  0
ENDBLK
  5
22C
330
1FB
100
AcDbEntity
  8
0
100
AcDbBlockEnd
  0
BLOCK
  5
229
330
1FF
100
AcDbEntity
  8
0
100
AcDbBlockBegin
  2
cw-line-extremity2
 70
     0
 10
0.0
 20
0.0
 30
0.0
  3
cw-line-extremity2
  1

  0
HATCH
  5
200
330
1FF
100
AcDbEntity
  8
0
 62
     0
370
     0
100
AcDbHatch
 10
0.0
 20
0.0
 30
0.0
210
0.0
220
0.0
230
1.0
  2
SOLID
 70
     1
 71
     1
 91
        1
 92
        3
 72
     0
 73
     1
 93
        3
 10
0.0
 20
0.0
 10
4.0
 20
1.0
 10
4.0
 20
-1.0
 97
        0
 75
     0
 76
     1
 98
        0
  0
LINE
  5
201
330
1FF
100
AcDbEntity
  8
0
 62
     0
370
    -2
100
AcDbLine
 10
0.0
 20
0.0
 30
0.0
 11
4.0
 21
1.0
 31
0.0
  0
LINE
  5
202
330
1FF
100
AcDbEntity
  8
0
 62
     0
370
    -2
100
AcDbLine
 10
4.0
 20
1.0
 30
0.0
 11
4.0
 21
-1.0
 31
0.0
  0
LINE
  5
203
330
1FF
100
AcDbEntity
  8
0
 62
     0
370
    -2
100
AcDbLine
 10
4.0
 20
-1.0
 30
0.0
 11
0.0
 21
0.0
 31
0.0
  0
ENDBLK
  5
22A
330
1FF
100
AcDbEntity
  8
0
100
AcDbBlockEnd
  0
BLOCK
  5
227
330
204
100
AcDbEntity
  8
0
100
AcDbBlockBegin
  2
cw-line-extremity3
 70
     0
 10
0.0
 20
0.0
 30
0.0
  3
cw-line-extremity3
  1

  0
HATCH
  5
205
330
204
100
AcDbEntity
  8
0
 62
     0
370
     0
100
AcDbHatch
 10
0.0
 20
0.0
 30
0.0
210
0.0
220
0.0
230
1.0
  2
SOLID
 70
     1
 71
     1
 91
        1
 92
        3
 72
     0
 73
     1
 93
        3
 10
0.0
 20
0.0
 10
4.0
 20
1.0
 10
4.0
 20
-1.0
 97
        0
 75
     0
 76
     1
 98
        0
  0
LINE
  5
206
330
204
100
AcDbEntity
  8
0
 62
     0
370
    -2
100
AcDbLine
 10
0.0
 20
0.0
 30
0.0
 11
4.0
 21
1.0
 31
0.0
  0
LINE
  5
207
330
204
100
AcDbEntity
  8
0
 62
     0
370
    -2
100
AcDbLine
 10
4.0
 20
1.0
 30
0.0
 11
4.0
 21
-1.0
 31
0.0
  0
LINE
  5
208
330
204
100
AcDbEntity
  8
0
 62
     0
370
    -2
100
AcDbLine
 10
4.0
 20
-1.0
 30
0.0
 11
0.0
 21
0.0
 31
0.0
  0
ENDBLK
  5
228
330
204
100
AcDbEntity
  8
0
100
AcDbBlockEnd
  0
BLOCK
  5
225
330
209
100
AcDbEntity
  8
0
100
AcDbBlockBegin
  2
cw-line-extremity301
 70
     0
 10
0.0
 20
0.0
 30
0.0
  3
cw-line-extremity301
  1

  0
LINE
  5
20A
330
209
100
AcDbEntity
  8
0
 62
     0
370
    -2
100
AcDbLine
 10
0.0
 20
2.66666
 30
0.0
 11
0.0
 21
-2.66666
 31
0.0
  0
ENDBLK
  5
226
330
209
100
AcDbEntity
  8
0
100
AcDbBlockEnd
  0
BLOCK
  5
223
330
20B
100
AcDbEntity
  8
0
100
AcDbBlockBegin
  2
cw-line-extremity4
 70
     0
 10
0.0
 20
0.0
 30
0.0
  3
cw-line-extremity4
  1

  0
HATCH
  5
20C
330
20B
100
AcDbEntity
  8
0
 62
     0
370
     5
100
AcDbHatch
 10
0.0
 20
0.0
 30
0.0
210
0.0
220
0.0
230
1.0
  2
SOLID
 70
     1
 71
     1
 91
        1
 92
        1
 93
        1
 72
     2
 10
0.0
 20
0.0
 40
1.0
 50
0.0
 51
360.0
 73
     1
 97
        0
 75
     0
 76
     1
 98
        0
  0
ENDBLK
  5
224
330
20B
100
AcDbEntity
  8
0
100
AcDbBlockEnd
  0
BLOCK
  5
221
330
20D
100
AcDbEntity
  8
0
100
AcDbBlockBegin
  2
cw-line-extremity5
 70
     0
 10
0.0
 20
0.0
 30
0.0
  3
cw-line-extremity5
  1

  0
LINE
  5
20E
330
20D
100
AcDbEntity
  8
0
 62
     0
370
    -2
100
AcDbLine
 10
0.0
 20
0.0
 30
0.0
 11
-1.0
 21
0.0
 31
0.0
  0
ENDBLK
  5
222
330
20D
100
AcDbEntity
  8
0
100
AcDbBlockEnd
  0
BLOCK
  5
21F
330
20F
100
AcDbEntity
  8
0
100
AcDbBlockBegin
  2
cw-line-extremity6
 70
     0
 10
0.0
 20
0.0
 30
0.0
  3
cw-line-extremity6
  1

  0
LINE
  5
210
330
20F
100
AcDbEntity
  8
0
 62
     0
370
    18
100
AcDbLine
 10
0.0
 20
1.0
 30
0.0
 11
0.0
 21
-1.0
 31
0.0
  0
ENDBLK
  5
220
330
20F
100
AcDbEntity
  8
0
100
AcDbBlockEnd
  0
BLOCK
  5
21D
330
211
100
AcDbEntity
  8
0
100
AcDbBlockBegin
  2
cw-line-extremity9
 70
     0
 10
0.0
 20
0.0
 30
0.0
  3
cw-line-extremity9
  1

  0
LINE
  5
212
330
211
100
AcDbEntity
  8
0
 62
     0
370
    18
100
AcDbLine
 10
-1.0
 20
-1.0
 30
0.0
 11
1.0
 21
1.0
 31
0.0
  0
ENDBLK
  5
21E
330
211
100
AcDbEntity
  8
0
100
AcDbBlockEnd
  0
BLOCK
  5
21B
330
213
100
AcDbEntity
  8
0
100
AcDbBlockBegin
  2
cw-line-extremity10
 70
     0
 10
0.0
 20
0.0
 30
0.0
  3
cw-line-extremity10
  1

  0
CIRCLE
  5
214
330
213
100
AcDbEntity
  8
0
 62
     0
370
    -2
100
AcDbCircle
 10
0.0
 20
0.0
 30
0.0
 40
1.0
  0
ENDBLK
  5
21C
330
213
100
AcDbEntity
  8
0
100
AcDbBlockEnd
  0
BLOCK
  5
219
330
215
100
AcDbEntity
  8
0
100
AcDbBlockBegin
  2
cw-line-extremity1
 70
     0
 10
0.0
 20
0.0
 30
0.0
  3
cw-line-extremity1
  1

  0
LINE
  5
216
330
215
100
AcDbEntity
  8
0
 62
     0
370
    -2
100
AcDbLine
 10
0.0
 20
0.0
 30
0.0
 11
0.0
 21
1.0
 31
0.0
  0
LINE
  5
217
330
215
100
AcDbEntity
  8
0
 62
     0
370
    -2
100
AcDbLine
 10
0.0
 20
1.0
 30
0.0
 11
0.5
 21
1.5
 31
0.0
  0
LINE
  5
218
330
215
100
AcDbEntity
  8
0
 62
     0
370
    -2
100
AcDbLine
 10
0.5
 20
1.5
 30
0.0
 11
1.5
 21
1.5
 31
0.0
  0
ENDBLK
  5
21A
330
215
100
AcDbEntity
  8
0
100
AcDbBlockEnd
  0
BLOCK
  5
1C
330
1B
100
AcDbEntity
  8
0
100
AcDbBlockBegin
  2
*Paper_Space69
 70
     0
 10
0.0
 20
0.0
 30
0.0
  3
*Paper_Space69
  1

  0
ENDBLK
  5
1D
330
1B
100
AcDbEntity
  8
0
100
AcDbBlockEnd
  0
BLOCK
  5
45F
330
45E
100
AcDbEntity
  8
0
100
AcDbBlockBegin
  2
*D70
 70
     1
 10
0.0
 20
0.0
 30
0.0
  3
*D70
  1

  0
LINE
  5
461
330
45E
100
AcDbEntity
  8
Ech.1_5
 62
     0
370
    -2
100
AcDbLine
 10
167.8937440904625
 20
-2907.622579896224
 30
0.0
 11
172.2899342436602
 21
-2907.622579896224
 31
0.0
  0
LINE
  5
462
330
45E
100
AcDbEntity
  8
Ech.1_5
 62
     0
370
    -2
100
AcDbLine
 10
179.8937440904626
 20
-2905.589213105991
 30
0.0
 11
168.2899342436602
 21
-2905.589213105991
 31
0.0
  0
LINE
  5
463
330
45E
100
AcDbEntity
  8
Ech.1_5
 62
     0
370
    -2
100
AcDbLine
 10
170.2899342436602
 20
-2907.622579896224
 30
0.0
 11
170.2899342436602
 21
-2905.589213105991
 31
0.0
  0
LINE
  5
464
330
45E
100
AcDbEntity
  8
Ech.1_5
 62
     0
370
    -2
100
AcDbLine
 10
170.2899342436602
 20
-2909.622579896224
 30
0.0
 11
170.2899342436602
 21
-2911.622579896224
 31
0.0
  0
LINE
  5
465
330
45E
100
AcDbEntity
  8
Ech.1_5
 62
     0
370
    -2
100
AcDbLine
 10
170.2899342436602
 20
-2903.589213105991
 30
0.0
 11
170.2899342436602
 21
-2901.589213105991
 31
0.0
  0
INSERT
  5
466
330
45E
100
AcDbEntity
  8
Ech.1_5
 62
     0
370
    -2
100
AcDbBlockReference
  2
cw-dimension-symbol2
 10
170.2899342436602
 20
-2907.622579896224
 30
0.0
 41
2.0
 42
2.0
 43
2.0
 50
90.0
  0
INSERT
  5
467
330
45E
100
AcDbEntity
  8
Ech.1_5
 62
     0
370
    -2
100
AcDbBlockReference
  2
cw-dimension-symbol2
 10
170.2899342436602
 20
-2905.589213105991
 30
0.0
 41
2.0
 42
2.0
 43
2.0
 50
270.0
  0
MTEXT
  5
468
330
45E
100
AcDbEntity
  8
Ech.1_5
 62
   190
370
    20
100
AcDbMText
 10
165.7899342436602
 20
-2906.605896501108
 30
0.0
 40
5.0
 41
0.0
 46
0.0
 71
     5
 72
     1
  1
\A1;5 mm
  7
arial-z
 11
6.123233995736766E-17
 21
1.0
 31
0.0
 73
     1
 44
1.0
  0
POINT
  5
469
330
45E
100
AcDbEntity
  8
Defpoints
 62
     0
100
AcDbPoint
 10
167.8937440904625
 20
-2907.622579896224
 30
0.0
  0
POINT
  5
46A
330
45E
100
AcDbEntity
  8
Defpoints
 62
     0
100
AcDbPoint
 10
179.8937440904626
 20
-2905.589213105991
 30
0.0
  0
POINT
  5
46B
330
45E
100
AcDbEntity
  8
Defpoints
 62
     0
100
AcDbPoint
 10
170.2899342436602
 20
-2905.589213105991
 30
0.0
  0
ENDBLK
  5
460
330
45E
100
AcDbEntity
  8
0
100
AcDbBlockEnd
  0
BLOCK
  5
46F
330
46E
100
AcDbEntity
  8
0
100
AcDbBlockBegin
  2
*D71
 70
     1
 10
0.0
 20
0.0
 30
0.0
  3
*D71
  1

  0
LINE
  5
471
330
46E
100
AcDbEntity
  8
Ech.1_5
 62
     0
370
    -2
100
AcDbLine
 10
167.8937440904625
 20
-2873.456247184415
 30
0.0
 11
172.2899342436602
 21
-2873.456247184415
 31
0.0
  0
LINE
  5
472
330
46E
100
AcDbEntity
  8
Ech.1_5
 62
     0
370
    -2
100
AcDbLine
 10
179.8937440904626
 20
-2871.422880394183
 30
0.0
 11
168.2899342436602
 21
-2871.422880394183
 31
0.0
  0
LINE
  5
473
330
46E
100
AcDbEntity
  8
Ech.1_5
 62
     0
370
    -2
100
AcDbLine
 10
170.2899342436602
 20
-2873.456247184415
 30
0.0
 11
170.2899342436602
 21
-2871.422880394183
 31
0.0
  0
LINE
  5
474
330
46E
100
AcDbEntity
  8
Ech.1_5
 62
     0
370
    -2
100
AcDbLine
 10
170.2899342436602
 20
-2875.456247184415
 30
0.0
 11
170.2899342436602
 21
-2877.456247184415
 31
0.0
  0
LINE
  5
475
330
46E
100
AcDbEntity
  8
Ech.1_5
 62
     0
370
    -2
100
AcDbLine
 10
170.2899342436602
 20
-2869.422880394183
 30
0.0
 11
170.2899342436602
 21
-2867.422880394183
 31
0.0
  0
INSERT
  5
476
330
46E
100
AcDbEntity
  8
Ech.1_5
 62
     0
370
    -2
100
AcDbBlockReference
  2
cw-dimension-symbol2
 10
170.2899342436602
 20
-2873.456247184415
 30
0.0
 41
2.0
 42
2.0
 43
2.0
 50
90.0
  0
INSERT
  5
477
330
46E
100
AcDbEntity
  8
Ech.1_5
 62
     0
370
    -2
100
AcDbBlockReference
  2
cw-dimension-symbol2
 10
170.2899342436602
 20
-2871.422880394183
 30
0.0
 41
2.0
 42
2.0
 43
2.0
 50
270.0
  0
MTEXT
  5
478
330
46E
100
AcDbEntity
  8
Ech.1_5
 62
   190
370
    20
100
AcDbMText
 10
165.7899342436602
 20
-2872.439563789299
 30
0.0
 40
5.0
 41
0.0
 46
0.0
 71
     5
 72
     1
  1
\A1;5 mm
  7
arial-z
 11
6.123233995736766E-17
 21
1.0
 31
0.0
 73
     1
 44
1.0
  0
POINT
  5
479
330
46E
100
AcDbEntity
  8
Defpoints
 62
     0
100
AcDbPoint
 10
167.8937440904625
 20
-2873.456247184415
 30
0.0
  0
POINT
  5
47A
330
46E
100
AcDbEntity
  8
Defpoints
 62
     0
100
AcDbPoint
 10
179.8937440904626
 20
-2871.422880394183
 30
0.0
  0
POINT
  5
47B
330
46E
100
AcDbEntity
  8
Defpoints
 62
     0
100
AcDbPoint
 10
170.2899342436602
 20
-2871.422880394183
 30
0.0
  0
ENDBLK
  5
470
330
46E
100
AcDbEntity
  8
0
100
AcDbBlockEnd
  0
ENDSEC
  0
SECTION
  2
ENTITIES
  0
LWPOLYLINE
  5
236
330
1F
100
AcDbEntity
  8
Ech.1_5
 62
   190
370
    20
100
AcDbPolyline
 90
        9
 70
     0
 43
0.0
 10
217.2366513055025
 20
-3050.111913126985
 10
223.8311929381078
 20
-3042.920572485215
 10
218.1872169309852
 20
-3057.302852489937
 10
224.7814181933445
 20
-3050.111913126985
 10
251.6366513056262
 20
-3050.111261307074
 10
251.6366513056262
 20
-2905.589213105991
 10
191.6138168188412
 20
-2905.589213105991
 10
191.6138168189169
 20
-3050.111796490008
 10
217.2366513055025
 20
-3050.111913126985
  0
HATCH
  5
237
330
1F
100
AcDbEntity
  8
Ech.1_5
 62
   254
420
 15326711
440
 33554687
370
     5
100
AcDbHatch
 10
0.0
 20
0.0
 30
0.0
210
0.0
220
0.0
230
1.0
  2
SOLID
 70
     1
 71
     1
 91
        1
 92
        3
 72
     0
 73
     1
 93
        8
 10
191.6138168187132
 20
-2728.956201211254
 10
191.6138168187947
 20
-2873.456247184415
 10
251.6366513056262
 20
-2873.456310790394
 10
251.6366513056262
 20
-2728.956324516989
 10
221.0814181934056
 20
-2728.956164498844
 10
214.4868765608062
 20
-2736.147505140614
 10
220.1308525679287
 20
-2721.765225135891
 10
213.5366513055637
 20
-2728.956164498844
 97
        0
 75
     0
 76
     1
 98
        0
  0
LWPOLYLINE
  5
238
330
1F
100
AcDbEntity
  8
Ech.1_5
 62
   190
370
    20
100
AcDbPolyline
 90
        9
 70
     0
 43
0.0
 10
191.6138168187132
 20
-2728.956201211254
 10
191.6138168187947
 20
-2873.456247184415
 10
251.6366513056262
 20
-2873.456310790394
 10
251.6366513056262
 20
-2728.956324516989
 10
221.0814181934056
 20
-2728.956164498844
 10
214.4868765608062
 20
-2736.147505140614
 10
220.1308525679287
 20
-2721.765225135891
 10
213.5366513055637
 20
-2728.956164498844
 10
191.6138168187132
 20
-2728.956201211254
  0
LINE
  5
239
330
1F
100
AcDbEntity
  8
Ech.1_5
 62
   190
370
    20
100
AcDbLine
 10
251.6366513056262
 20
-2842.060087488721
 30
0.0
 11
251.6366513056262
 21
-2728.956662308758
 31
0.0
  0
LWPOLYLINE
  5
23A
330
1F
100
AcDbEntity
  8
Ech.1_5
 62
   190
370
    20
100
AcDbPolyline
 90
        3
 70
     0
 43
0.0
 10
253.3628778318053
 20
-2896.326587975959
 10
277.3609546045708
 20
-2926.17807617031
 10
285.3609546045708
 20
-2926.17807617031
  0
INSERT
  5
23B
330
1F
100
AcDbEntity
  8
Ech.1_5
 62
   190
370
    20
100
AcDbBlockReference
  2
cw-line-extremity4
 10
253.3628778318053
 20
-2896.326587975959
 30
0.0
 50
308.7963440570761
  0
LWPOLYLINE
  5
23C
330
1F
100
AcDbEntity
  8
Ech.1_5
 62
   190
370
    20
100
AcDbPolyline
 90
        6
 70
     0
 43
0.0
 10
144.0138168189169
 20
-2728.956425981247
 10
213.5366513055637
 20
-2728.956164498844
 10
220.1308525679287
 20
-2721.765225135891
 10
214.4868765608062
 20
-2736.147505140614
 10
221.0814181934056
 20
-2728.956164498844
 10
257.6366513056262
 20
-2728.956365711832
  0
LWPOLYLINE
  5
23D
330
1F
100
AcDbEntity
  8
Ech.1_5
 62
   190
370
    20
100
AcDbPolyline
 90
        5
 70
     0
 43
0.0
 10
148.0138168189169
 20
-2921.589213105991
 10
148.0138168189169
 20
-2857.589213105991
 10
134.0138168189169
 20
-2873.589213105991
 10
134.0138168189169
 20
-2905.589213105991
 10
148.0138168189169
 20
-2921.589213105991
  0
LWPOLYLINE
  5
23E
330
1F
100
AcDbEntity
  8
Ech.1_5
 62
   190
370
    20
100
AcDbPolyline
 90
        4
 70
     0
 43
0.0
 10
148.0138168189169
 20
-2905.589213105991
 10
271.3891144749902
 20
-2905.589213105991
 10
271.3891144749902
 20
-2873.456247184415
 10
148.0138168189169
 20
-2873.456247184415
  0
LWPOLYLINE
  5
23F
330
1F
100
AcDbEntity
  8
Ech.1_5
 62
   190
370
    20
100
AcDbPolyline
 90
        4
 70
     0
 43
0.0
 10
134.0138168189169
 20
-2905.589213105991
 10
102.0138168189169
 20
-2905.589213105991
 10
102.0138168189169
 20
-2873.589213105991
 10
134.0138168189169
 20
-2873.589213105991
  0
LWPOLYLINE
  5
240
330
1F
100
AcDbEntity
  8
Ech.1_5
 62
   190
370
    20
100
AcDbPolyline
 90
        4
 70
     0
 43
0.0
 10
102.0138168189169
 20
-2901.589213105991
 10
98.0138168189169
 20
-2901.589213105991
 10
98.0138168189169
 20
-2877.589213105991
 10
102.0138168189169
 20
-2877.589213105991
  0
LWPOLYLINE
  5
241
330
1F
100
AcDbEntity
  8
Ech.1_5
 62
   190
370
    20
100
AcDbPolyline
 90
        8
 70
     0
 43
0.0
 10
271.3891144749902
 20
-2903.589213105991
 10
273.3891144749902
 20
-2903.589213105991
 10
275.3891144749902
 20
-2905.589213105991
 10
277.3891144749902
 20
-2903.589213105991
 10
277.3891144749902
 20
-2875.589213105991
 10
275.3891144749902
 20
-2873.589213105991
 10
273.3891144749902
 20
-2875.589213105991
 10
271.3891144749902
 20
-2875.589213105991
  0
LWPOLYLINE
  5
242
330
1F
100
AcDbEntity
  8
Ech.1_5
 62
   190
370
    20
100
AcDbPolyline
 90
        4
 70
     0
 43
0.0
 10
277.3891144749902
 20
-2903.589213105991
 10
289.3891144749902
 20
-2903.589213105991
 10
289.3891144749902
 20
-2875.589213105991
 10
277.3891144749902
 20
-2875.589213105991
  0
LINE
  5
243
330
1F
100
AcDbEntity
  8
Ech.1_5
 62
   190
370
    20
100
AcDbLine
 10
273.3891144749902
 20
-2903.589213105991
 30
0.0
 11
273.3891144749902
 21
-2875.589213105991
 31
0.0
  0
LWPOLYLINE
  5
244
330
1F
100
AcDbEntity
  8
Ech.1_5
 62
   190
370
    20
100
AcDbPolyline
 90
        5
 70
     0
 43
0.0
 10
128.0138168189169
 20
-2887.589213105991
 10
108.0138168189169
 20
-2887.589213105991
 42
1.0
 10
108.0138168189169
 20
-2891.589213105991
 10
128.0138168189169
 20
-2891.589213105991
 42
1.0
 10
128.0138168189169
 20
-2887.589213105991
  0
LWPOLYLINE
  5
245
330
1F
100
AcDbEntity
  8
Ech.1_5
 62
   190
370
    20
100
AcDbPolyline
 90
        5
 70
     0
 43
0.0
 10
128.0138168189169
 20
-2877.589213105991
 10
108.0138168189169
 20
-2877.589213105991
 42
1.0
 10
108.0138168189169
 20
-2881.589213105991
 10
128.0138168189169
 20
-2881.589213105991
 42
1.0
 10
128.0138168189169
 20
-2877.589213105991
  0
LWPOLYLINE
  5
246
330
1F
100
AcDbEntity
  8
Ech.1_5
 62
   190
370
    20
100
AcDbPolyline
 90
        5
 70
     0
 43
0.0
 10
128.0138168189169
 20
-2901.589213105991
 10
108.0138168189169
 20
-2901.589213105991
 42
-1.0
 10
108.0138168189169
 20
-2897.589213105991
 10
128.0138168189169
 20
-2897.589213105991
 42
-1.0
 10
128.0138168189169
 20
-2901.589213105991
  0
LWPOLYLINE
  5
247
330
1F
100
AcDbEntity
  8
Ech.1_5
 62
   190
370
    20
100
AcDbPolyline
 90
        9
 70
     0
 43
0.0
 38
1000.0
 10
217.2366513055025
 20
-3050.111913126985
 10
223.8311929381078
 20
-3042.920572485215
 10
218.1872169309852
 20
-3057.302852489937
 10
224.7814181933445
 20
-3050.111913126985
 10
251.6366513056262
 20
-3050.111261307074
 10
251.6366513056262
 20
-2905.589213105991
 10
191.6138168188412
 20
-2905.589213105991
 10
191.6138168189169
 20
-3050.111796490008
 10
217.2366513055025
 20
-3050.111913126985
  0
HATCH
  5
248
330
1F
100
AcDbEntity
  8
Ech.1_5
 62
   254
420
 15326711
440
 33554687
370
     5
100
AcDbHatch
 10
0.0
 20
0.0
 30
0.0
210
0.0
220
0.0
230
1.0
  2
SOLID
 70
     1
 71
     1
 91
        1
 92
        3
 72
     0
 73
     1
 93
        8
 10
251.6366513056262
 20
-2905.589213105991
 10
191.6138168188412
 20
-2905.589213105991
 10
191.6138168189169
 20
-3050.111796490008
 10
217.2366513055025
 20
-3050.111913126985
 10
223.8311929381078
 20
-3042.920572485215
 10
218.1872169309852
 20
-3057.302852489937
 10
224.7814181933445
 20
-3050.111913126985
 10
251.6366513056262
 20
-3050.111261307074
 97
        0
 75
     0
 76
     1
 98
        0
  0
LWPOLYLINE
  5
249
330
1F
100
AcDbEntity
  8
Ech.1_5
 62
   190
370
    20
100
AcDbPolyline
 90
        9
 70
     0
 43
0.0
 38
1000.0
 39
-1000.0
 10
251.6366513056262
 20
-2905.589213105991
 10
191.6138168188412
 20
-2905.589213105991
 10
191.6138168189169
 20
-3050.111796490008
 10
217.2366513055025
 20
-3050.111913126985
 10
223.8311929381078
 20
-3042.920572485215
 10
218.1872169309852
 20
-3057.302852489937
 10
224.7814181933445
 20
-3050.111913126985
 10
251.6366513056262
 20
-3050.111261307074
 10
251.6366513056262
 20
-2905.589213105991
  0
LWPOLYLINE
  5
24A
330
1F
100
AcDbEntity
  8
Ech.1_5
 62
   190
370
    20
100
AcDbPolyline
 90
        6
 70
     0
 43
0.0
 10
257.6366513056262
 20
-3050.111531080672
 10
224.7814181933445
 20
-3050.111913126985
 10
218.1872169309852
 20
-3057.302852489937
 10
223.8311929381078
 20
-3042.920572485215
 10
217.2366513055025
 20
-3050.111913126985
 10
144.0138168189169
 20
-3050.111604733199
  0
LWPOLYLINE
  5
24B
330
1F
100
AcDbEntity
  8
Ech.1_5
 62
   190
370
    20
100
AcDbPolyline
 90
        5
 70
     0
 43
0.0
 10
-0.4328742585184955
 20
-3127.038150588926
 10
393.5671257414815
 20
-3127.038150588926
 10
393.5671257414815
 20
-3182.003379414948
 10
-0.4328742585184955
 20
-3182.003379414948
 10
-0.4328742585184955
 20
-3127.038150588926
  0
LWPOLYLINE
  5
24C
330
1F
100
AcDbEntity
  8
Ech.1_5
 62
   190
370
    20
100
AcDbPolyline
 90
        5
 70
     0
 43
0.0
 10
393.5671257414815
 20
-2678.210164617255
 10
-0.4328742585184955
 20
-2678.210164617255
 10
-0.4328742585184955
 20
-2640.003379414996
 10
393.5671257414815
 20
-2640.003379414996
 10
393.5671257414815
 20
-2678.210164617255
  0
LWPOLYLINE
  5
24D
330
1F
100
AcDbEntity
  8
Ech.1_5
 62
   190
370
    20
100
AcDbPolyline
 90
        5
 70
     0
 43
0.0
 10
393.5671257414815
 20
-3135.838150588925
 10
-0.4328742585184955
 20
-3135.838150588925
 10
-0.4328742585184955
 20
-3127.038150588926
 10
393.5671257414815
 20
-3127.038150588926
 10
393.5671257414815
 20
-3135.838150588925
  0
LWPOLYLINE
  5
24E
330
1F
100
AcDbEntity
  8
Ech.1_5
 62
   190
370
    20
100
AcDbPolyline
 90
        5
 70
     0
 43
0.0
 10
393.5671257414815
 20
-3158.586608681062
 10
-0.4328742585184955
 20
-3158.586608681062
 10
-0.4328742585184955
 20
-3149.095797356767
 10
393.5671257414815
 20
-3149.095797356767
 10
393.5671257414815
 20
-3158.586608681062
  0
LINE
  5
24F
330
1F
100
AcDbEntity
  8
Ech.1_5
 62
   190
370
    20
100
AcDbLine
 10
74.84895052666434
 20
-3127.038150588926
 30
0.0
 11
74.84895052666434
 21
-3135.838150588925
 31
0.0
  0
LINE
  5
250
330
1F
100
AcDbEntity
  8
Ech.1_5
 62
   190
370
    20
100
AcDbLine
 10
337.6481915788831
 20
-3127.038150588926
 30
0.0
 11
337.6481915788831
 21
-3135.838150588925
 31
0.0
  0
LINE
  5
251
330
1F
100
AcDbEntity
  8
Ech.1_5
 62
   190
370
    20
100
AcDbLine
 10
137.311037724806
 20
-3127.038150588926
 30
0.0
 11
137.311037724806
 21
-3135.838150588925
 31
0.0
  0
IMAGE
  5
254
330
1F
100
AcDbEntity
  8
Ech.1_5
160
                 8
310
0800000000000000
100
AcDbRasterImage
 90
        0
 10
75.99282523783441
 20
-3179.989160422529
 30
0.0
 11
0.1133603238866397
 21
0.0
 31
0.0
 12
0.0
 22
0.1111111111111111
 32
0.0
 13
247.0
 23
171.0
340
253
 70
     3
280
     0
281
    50
282
    50
283
     0
360
255
 71
     1
 91
        2
 14
-0.5
 24
-0.5
 14
246.5
 24
170.5
290
     0
  0
IMAGE
  5
257
330
1F
100
AcDbEntity
  8
Ech.1_5
160
                 8
310
0800000000000000
100
AcDbRasterImage
 90
        0
 10
180.4238937346255
 20
-3181.011005344042
 30
0.0
 11
0.16
 21
0.0
 31
0.0
 12
0.0
 22
0.1578947368421053
 32
0.0
 13
200.0
 23
133.0
340
256
 70
     3
280
     0
281
    50
282
    50
283
     0
360
258
 71
     1
 91
        2
 14
-0.5
 24
-0.5
 14
199.5
 24
132.5
290
     0
  0
IMAGE
  5
25A
330
1F
100
AcDbEntity
  8
Ech.1_5
160
                 8
310
0800000000000000
100
AcDbRasterImage
 90
        0
 10
277.7737602862839
 20
-3181.492996510022
 30
0.0
 11
0.03770739064856712
 21
0.0
 31
0.0
 12
0.0
 22
0.03793103448275862
 32
0.0
 13
1326.0
 23
580.0
340
259
 70
     3
280
     0
281
    50
282
    50
283
     0
360
25B
 71
     1
 91
        2
 14
-0.5
 24
-0.5
 14
1325.5
 24
579.5
290
     0
  0
LINE
  5
25C
330
1F
100
AcDbEntity
  8
Ech.1_5
 62
   190
370
    20
100
AcDbLine
 10
393.5671257414851
 20
-2652.003379414952
 30
0.0
 11
-0.4328742585148575
 21
-2652.003379414952
 31
0.0
  0
LWPOLYLINE
  5
25D
330
1F
100
AcDbEntity
  8
Ech.1_5
 62
   190
370
    20
100
AcDbPolyline
 90
        5
 70
     0
 43
0.0
 10
393.5671257414815
 20
-3182.003379414948
 10
393.5671257414815
 20
-2640.003379414948
 10
-0.4328742585184955
 20
-2640.003379414948
 10
-0.4328742585184955
 20
-3182.003379414948
 10
393.5671257414815
 20
-3182.003379414948
  0
HATCH
  5
25E
330
1F
100
AcDbEntity
  8
Ech.1_5
 62
    35
420
  9529928
440
 33554687
370
    20
100
AcDbHatch
 10
0.0
 20
0.0
 30
0.0
210
0.0
220
0.0
230
1.0
  2
SOLID
 70
     1
 71
     1
 91
        1
 92
        3
 72
     0
 73
     1
 93
        5
 10
178.8138028314731
 20
-3050.111796491547
 10
191.6141547215993
 20
-3050.111796491547
 10
191.6138168188423
 20
-2907.622579896224
 10
189.2146004912705
 20
-2907.622579896224
 10
178.8138168188417
 20
-2907.622579896224
 97
        0
 75
     0
 76
     1
 98
        0
  0
LWPOLYLINE
  5
25F
330
1F
100
AcDbEntity
  8
Ech.1_5
 62
   190
370
    20
100
AcDbPolyline
 90
        6
 70
     0
 43
0.0
 10
178.8138028314731
 20
-3050.111796491547
 10
191.6141547215993
 20
-3050.111796491547
 10
191.6138168188423
 20
-2907.622579896224
 10
189.2146004912705
 20
-2907.622579896224
 10
178.8138168188417
 20
-2907.622579896224
 10
178.8138028314731
 20
-3050.111796491547
  0
HATCH
  5
260
330
1F
100
AcDbEntity
  8
Ech.1_5
 62
    17
420
  8405056
440
 33554687
370
    20
100
AcDbHatch
 10
0.0
 20
0.0
 30
0.0
210
0.0
220
0.0
230
1.0
  2
SOLID
 70
     1
 71
     1
 91
        1
 92
        3
 72
     0
 73
     1
 93
        4
 10
166.0138168188417
 20
-2907.622579896224
 10
150.0138168188423
 20
-2907.62255983089
 10
150.0138168188423
 20
-3050.111796491547
 10
166.0138168188417
 20
-3050.111796491547
 97
        0
 75
     0
 76
     1
 98
        0
  0
LWPOLYLINE
  5
261
330
1F
100
AcDbEntity
  8
Ech.1_5
 62
     7
370
    20
100
AcDbPolyline
 90
        5
 70
     0
 43
0.0
 10
166.0138168188417
 20
-2907.622579896224
 10
150.0138168188423
 20
-2907.62255983089
 10
150.0138168188423
 20
-3050.111796491547
 10
166.0138168188417
 20
-3050.111796491547
 10
166.0138168188417
 20
-2907.622579896224
  0
HATCH
  5
262
330
1F
100
AcDbEntity
  8
Ech.1_5
 62
    35
420
  9529928
440
 33554687
370
    20
100
AcDbHatch
 10
0.0
 20
0.0
 30
0.0
210
0.0
220
0.0
230
1.0
  2
SOLID
 70
     1
 71
     1
 91
        1
 92
        3
 72
     0
 73
     1
 93
        4
 10
166.0138168188417
 20
-2915.012609737294
 10
166.0138168188417
 20
-2927.812609737293
 10
178.8138168188417
 20
-2927.812609737293
 10
178.8138168188417
 20
-2907.622579896224
 97
        0
 75
     0
 76
     1
 98
        0
  0
LWPOLYLINE
  5
263
330
1F
100
AcDbEntity
  8
Ech.1_5
 62
   190
370
    20
100
AcDbPolyline
 90
        5
 70
     0
 43
0.0
 10
166.0138168188417
 20
-2915.012609737294
 10
166.0138168188417
 20
-2927.812609737293
 10
178.8138168188417
 20
-2927.812609737293
 10
178.8138168188417
 20
-2907.622579896224
 10
166.0138168188417
 20
-2915.012609737294
  0
LWPOLYLINE
  5
264
330
1F
100
AcDbEntity
  8
Ech.1_5
 62
   190
370
    20
100
AcDbPolyline
 90
        4
 70
     0
 43
0.0
 10
178.8138168188417
 20
-2907.622579896224
 10
166.0138168188417
 20
-2927.812609737293
 10
178.8138168188417
 20
-2927.812609737293
 10
166.0138168188417
 20
-2915.012655061767
  0
LWPOLYLINE
  5
265
330
1F
100
AcDbEntity
  8
Ech.1_5
 62
     5
370
    40
100
AcDbPolyline
 90
        5
 70
     0
 43
0.0
 10
166.0138168188417
 20
-2915.012655061767
 10
166.0138168188417
 20
-2927.812609737293
 10
178.8138168188417
 20
-2927.812609737293
 10
178.8138168188417
 20
-2907.622579896224
 10
166.0138168188417
 20
-2915.012655061767
  0
LINE
  5
266
330
1F
100
AcDbEntity
  8
Ech.1_5
 62
   190
370
     9
100
AcDbLine
 10
149.6693724187696
 20
-2920.40513239952
 30
0.0
 11
149.6693724187696
 21
-2922.420132399511
 31
0.0
  0
LINE
  5
267
330
1F
100
AcDbEntity
  8
Ech.1_5
 62
   190
370
     9
100
AcDbLine
 10
149.7915944191301
 20
-2922.420132399509
 30
0.0
 11
149.6693724187696
 21
-2922.420132399511
 31
0.0
  0
ARC
  5
268
330
1F
100
AcDbEntity
  8
Ech.1_5
 62
   190
370
     9
100
AcDbCircle
 10
154.6946537750948
 20
-2921.412632399527
 30
0.0
 40
5.125281356325222
100
AcDbArc
 50
168.6632793503026
 51
191.3367206496974
  0
LINE
  5
269
330
1F
100
AcDbEntity
  8
Ech.1_5
 62
   190
370
     9
100
AcDbLine
 10
149.791594419133
 20
-2920.405132399519
 30
0.0
 11
149.7915944191301
 21
-2920.738465599499
 31
0.0
  0
ARC
  5
26A
330
1F
100
AcDbEntity
  8
Ech.1_5
 62
   190
370
     9
100
AcDbCircle
 10
150.0138168150909
 20
-2920.738465603557
 30
0.0
 40
0.2222223959608207
100
AcDbArc
 50
179.9999989536799
 51
270.0000009670752
  0
LINE
  5
26B
330
1F
100
AcDbEntity
  8
Ech.1_5
 62
   190
370
     9
100
AcDbLine
 10
149.7915944191301
 20
-2920.738465599499
 30
0.0
 11
149.7915944191301
 21
-2922.086799199526
 31
0.0
  0
ARC
  5
26C
330
1F
100
AcDbEntity
  8
Ech.1_5
 62
   190
370
     9
100
AcDbCircle
 10
150.0138168150434
 20
-2922.08679919545
 30
0.0
 40
0.2222223959133206
100
AcDbArc
 50
89.99999902049659
 51
180.0000010508927
  0
LINE
  5
26D
330
1F
100
AcDbEntity
  8
Ech.1_5
 62
   190
370
     9
100
AcDbLine
 10
149.7915944191301
 20
-2922.420132399509
 30
0.0
 11
149.7915944191301
 21
-2922.086799199526
 31
0.0
  0
LINE
  5
26E
330
1F
100
AcDbEntity
  8
Ech.1_5
 62
   190
370
     9
100
AcDbLine
 10
150.7138164196099
 20
-2920.960687999517
 30
0.0
 11
150.7138164196099
 21
-2921.864576799537
 31
0.0
  0
LINE
  5
26F
330
1F
100
AcDbEntity
  8
Ech.1_5
 62
   190
370
     9
100
AcDbLine
 10
149.791594419133
 20
-2920.405132399519
 30
0.0
 11
149.6693724187696
 21
-2920.40513239952
 31
0.0
  0
HATCH
  5
270
330
1F
100
AcDbEntity
  8
Ech.1_5
 62
   252
440
 33554687
370
     5
100
AcDbHatch
 10
0.0
 20
0.0
 30
0.0
210
0.0
220
0.0
230
1.0
  2
SOLID
 70
     1
 71
     1
 91
        1
 92
        3
 72
     1
 73
     1
 93
        6
 10
150.7138164196099
 20
-2921.864576799537
 42
0.0
 10
150.0138168188424
 20
-2921.864576799537
 42
0.4142135727510476
 10
149.7915944191301
 20
-2922.086799199526
 42
0.0
 10
149.7915944191301
 20
-2920.738465599499
 42
0.414213572665201
 10
150.0138168188417
 20
-2920.960687999518
 42
0.0
 10
150.7138164196099
 20
-2920.960687999517
 42
0.0
 97
        0
 75
     0
 76
     1
 98
        0
  0
LWPOLYLINE
  5
271
330
1F
100
AcDbEntity
  8
Ech.1_5
 62
     7
370
     9
100
AcDbPolyline
 90
        7
 70
     0
 43
0.0
 10
150.7138164196099
 20
-2921.864576799537
 10
150.0138168188424
 20
-2921.864576799537
 42
0.4142135727520974
 10
149.7915944191301
 20
-2922.086799199526
 10
149.7915944191301
 20
-2920.738465599499
 42
0.4142135726650794
 10
150.0138168188417
 20
-2920.960687999518
 10
150.7138164196099
 20
-2920.960687999517
 10
150.7138164196099
 20
-2921.864576799537
  0
HATCH
  5
272
330
1F
100
AcDbEntity
  8
Ech.1_5
 62
   252
440
 33554687
370
     5
100
AcDbHatch
 10
0.0
 20
0.0
 30
0.0
210
0.0
220
0.0
230
1.0
  2
SOLID
 70
     1
 71
     1
 91
        1
 92
        1
 93
        2
 72
     1
 10
149.6693724187696
 20
-2922.42013241008
 11
149.6693724187696
 21
-2920.405132388973
 72
     2
 10
154.694653775092
 20
-2921.412632399527
 40
5.125281356322474
 50
168.6632793502964
 51
191.3367206497036
 73
     1
 97
        0
 75
     0
 76
     1
 98
        0
  0
LWPOLYLINE
  5
273
330
1F
100
AcDbEntity
  8
Ech.1_5
 62
     7
370
     9
100
AcDbPolyline
 90
        3
 70
     0
 43
0.0
 10
149.6693724187696
 20
-2922.42013241008
 10
149.6693724187696
 20
-2920.405132388973
 42
0.0992555820869331
 10
149.6693724187696
 20
-2922.42013241008
  0
HATCH
  5
274
330
1F
100
AcDbEntity
  8
Ech.1_5
 62
   252
440
 33554687
370
     5
100
AcDbHatch
 10
0.0
 20
0.0
 30
0.0
210
0.0
220
0.0
230
1.0
  2
SOLID
 70
     1
 71
     1
 91
        1
 92
        3
 72
     0
 73
     1
 93
        6
 10
149.7915944191301
 20
-2922.420132399509
 10
149.7915944191301
 20
-2922.086799199526
 10
149.7915944191301
 20
-2920.738465599499
 10
149.791594419133
 20
-2920.405132399519
 10
149.6693724187696
 20
-2920.405132388973
 10
149.6693724187696
 20
-2922.42013241008
 97
        0
 75
     0
 76
     1
 98
        0
  0
LWPOLYLINE
  5
275
330
1F
100
AcDbEntity
  8
Ech.1_5
 62
     7
370
     9
100
AcDbPolyline
 90
        7
 70
     0
 43
0.0
 10
149.7915944191301
 20
-2922.420132399509
 10
149.7915944191301
 20
-2922.086799199526
 10
149.7915944191301
 20
-2920.738465599499
 10
149.791594419133
 20
-2920.405132399519
 10
149.6693724187696
 20
-2920.405132388973
 10
149.6693724187696
 20
-2922.42013241008
 10
149.7915944191301
 20
-2922.420132399509
  0
LINE
  5
276
330
1F
100
AcDbEntity
  8
Ech.1_5
 62
   190
370
     9
100
AcDbLine
 10
176.7267835734666
 20
-2920.960688055796
 30
0.0
 11
154.1591120881219
 21
-2920.960687999535
 31
0.0
  0
LINE
  5
277
330
1F
100
AcDbEntity
  8
Ech.1_5
 62
   190
370
     9
100
AcDbLine
 10
176.7267836185703
 20
-2921.864576867558
 30
0.0
 11
154.1591120881211
 21
-2921.864576799555
 31
0.0
  0
LINE
  5
278
330
1F
100
AcDbEntity
  8
Ech.1_5
 62
   190
370
     9
100
AcDbLine
 10
154.047150019178
 20
-2920.960687999515
 30
0.0
 11
154.0471500191766
 21
-2921.864576799534
 31
0.0
  0
LINE
  5
279
330
1F
100
AcDbEntity
  8
Ech.1_5
 62
   190
370
     9
100
AcDbLine
 10
154.3804832193943
 20
-2920.960687999519
 30
0.0
 11
154.3804832193936
 21
-2921.864576799535
 31
0.0
  0
LINE
  5
27A
330
1F
100
AcDbEntity
  8
Ech.1_5
 62
   190
370
     9
100
AcDbLine
 10
153.0471500191773
 20
-2920.960687999515
 30
0.0
 11
153.0471500191788
 21
-2921.864576799537
 31
0.0
  0
LINE
  5
27B
330
1F
100
AcDbEntity
  8
Ech.1_5
 62
   190
370
     9
100
AcDbLine
 10
153.380483219395
 20
-2920.960687999519
 30
0.0
 11
153.3804832193936
 21
-2921.864576799535
 31
0.0
  0
LINE
  5
27C
330
1F
100
AcDbEntity
  8
Ech.1_5
 62
   190
370
     9
100
AcDbLine
 10
153.7138164196106
 20
-2920.960687999518
 30
0.0
 11
153.7138164196099
 21
-2921.864576799537
 31
0.0
  0
LINE
  5
27D
330
1F
100
AcDbEntity
  8
Ech.1_5
 62
   190
370
     9
100
AcDbLine
 10
152.0471500191773
 20
-2920.960687999515
 30
0.0
 11
152.047150019178
 21
-2921.864576799537
 31
0.0
  0
LINE
  5
27E
330
1F
100
AcDbEntity
  8
Ech.1_5
 62
   190
370
     9
100
AcDbLine
 10
152.3804832193943
 20
-2920.960687999519
 30
0.0
 11
152.3804832193943
 21
-2921.864576799535
 31
0.0
  0
LINE
  5
27F
330
1F
100
AcDbEntity
  8
Ech.1_5
 62
   190
370
     9
100
AcDbLine
 10
152.7138164196106
 20
-2920.960687999517
 30
0.0
 11
152.7138164196099
 21
-2921.864576799537
 31
0.0
  0
LINE
  5
280
330
1F
100
AcDbEntity
  8
Ech.1_5
 62
   190
370
     9
100
AcDbLine
 10
151.7138164196099
 20
-2920.960687999517
 30
0.0
 11
151.7138164196106
 21
-2921.864576799537
 31
0.0
  0
LINE
  5
281
330
1F
100
AcDbEntity
  8
Ech.1_5
 62
   190
370
     9
100
AcDbLine
 10
151.3804832193943
 20
-2920.960687999518
 30
0.0
 11
151.3804832193936
 21
-2921.864576799535
 31
0.0
  0
LINE
  5
282
330
1F
100
AcDbEntity
  8
Ech.1_5
 62
   190
370
     9
100
AcDbLine
 10
151.047150019178
 20
-2920.960687999518
 30
0.0
 11
151.0471500191773
 21
-2921.864576799537
 31
0.0
  0
LINE
  5
283
330
1F
100
AcDbEntity
  8
Ech.1_5
 62
   190
370
     9
100
AcDbLine
 10
164.7138164196099
 20
-2920.960687999518
 30
0.0
 11
164.7138164196106
 21
-2921.864576799535
 31
0.0
  0
LINE
  5
284
330
1F
100
AcDbEntity
  8
Ech.1_5
 62
   190
370
     9
100
AcDbLine
 10
164.3804832193943
 20
-2920.960687999515
 30
0.0
 11
164.3804832193943
 21
-2921.864576799537
 31
0.0
  0
LINE
  5
285
330
1F
100
AcDbEntity
  8
Ech.1_5
 62
   190
370
     9
100
AcDbLine
 10
165.047150019178
 20
-2920.960687999517
 30
0.0
 11
165.047150019178
 21
-2921.864576799537
 31
0.0
  0
LINE
  5
286
330
1F
100
AcDbEntity
  8
Ech.1_5
 62
   190
370
     9
100
AcDbLine
 10
163.3804832193936
 20
-2920.960687999518
 30
0.0
 11
163.3804832193943
 21
-2921.864576799537
 31
0.0
  0
LINE
  5
287
330
1F
100
AcDbEntity
  8
Ech.1_5
 62
   190
370
     9
100
AcDbLine
 10
163.7138164196106
 20
-2920.960687999518
 30
0.0
 11
163.7138164196099
 21
-2921.864576799535
 31
0.0
  0
LINE
  5
288
330
1F
100
AcDbEntity
  8
Ech.1_5
 62
   190
370
     9
100
AcDbLine
 10
164.0471500191773
 20
-2920.960687999517
 30
0.0
 11
164.0471500191773
 21
-2921.864576799537
 31
0.0
  0
LINE
  5
289
330
1F
100
AcDbEntity
  8
Ech.1_5
 62
   190
370
     9
100
AcDbLine
 10
162.3804832193929
 20
-2920.960687999518
 30
0.0
 11
162.3804832193943
 21
-2921.864576799537
 31
0.0
  0
LINE
  5
28A
330
1F
100
AcDbEntity
  8
Ech.1_5
 62
   190
370
     9
100
AcDbLine
 10
162.7138164196099
 20
-2920.960687999518
 30
0.0
 11
162.7138164196099
 21
-2921.864576799535
 31
0.0
  0
LINE
  5
28B
330
1F
100
AcDbEntity
  8
Ech.1_5
 62
   190
370
     9
100
AcDbLine
 10
163.0471500191773
 20
-2920.960687999517
 30
0.0
 11
163.047150019178
 21
-2921.864576799537
 31
0.0
  0
LINE
  5
28C
330
1F
100
AcDbEntity
  8
Ech.1_5
 62
   190
370
     9
100
AcDbLine
 10
161.3804832193943
 20
-2920.960687999518
 30
0.0
 11
161.3804832193936
 21
-2921.864576799537
 31
0.0
  0
LINE
  5
28D
330
1F
100
AcDbEntity
  8
Ech.1_5
 62
   190
370
     9
100
AcDbLine
 10
161.7138164196092
 20
-2920.960687999518
 30
0.0
 11
161.7138164196099
 21
-2921.864576799534
 31
0.0
  0
LINE
  5
28E
330
1F
100
AcDbEntity
  8
Ech.1_5
 62
   190
370
     9
100
AcDbLine
 10
162.047150019178
 20
-2920.960687999517
 30
0.0
 11
162.0471500191773
 21
-2921.864576799535
 31
0.0
  0
LINE
  5
28F
330
1F
100
AcDbEntity
  8
Ech.1_5
 62
   190
370
     9
100
AcDbLine
 10
161.047150019178
 20
-2920.960687999517
 30
0.0
 11
161.0471500191766
 21
-2921.864576799535
 31
0.0
  0
LINE
  5
290
330
1F
100
AcDbEntity
  8
Ech.1_5
 62
   190
370
     9
100
AcDbLine
 10
155.7138164196099
 20
-2920.960687999518
 30
0.0
 11
155.7138164196106
 21
-2921.864576799537
 31
0.0
  0
LINE
  5
291
330
1F
100
AcDbEntity
  8
Ech.1_5
 62
   190
370
     9
100
AcDbLine
 10
156.0471500191766
 20
-2920.960687999518
 30
0.0
 11
156.0471500191773
 21
-2921.864576799535
 31
0.0
  0
LINE
  5
292
330
1F
100
AcDbEntity
  8
Ech.1_5
 62
   190
370
     9
100
AcDbLine
 10
156.3804832193936
 20
-2920.960687999517
 30
0.0
 11
156.3804832193943
 21
-2921.864576799539
 31
0.0
  0
LINE
  5
293
330
1F
100
AcDbEntity
  8
Ech.1_5
 62
   190
370
     9
100
AcDbLine
 10
156.7138164196106
 20
-2920.960687999518
 30
0.0
 11
156.7138164196099
 21
-2921.864576799537
 31
0.0
  0
LINE
  5
294
330
1F
100
AcDbEntity
  8
Ech.1_5
 62
   190
370
     9
100
AcDbLine
 10
157.7138164196106
 20
-2920.960687999518
 30
0.0
 11
157.7138164196106
 21
-2921.864576799537
 31
0.0
  0
LINE
  5
295
330
1F
100
AcDbEntity
  8
Ech.1_5
 62
   190
370
     9
100
AcDbLine
 10
157.3804832193943
 20
-2920.960687999517
 30
0.0
 11
157.3804832193936
 21
-2921.864576799537
 31
0.0
  0
LINE
  5
296
330
1F
100
AcDbEntity
  8
Ech.1_5
 62
   190
370
     9
100
AcDbLine
 10
157.0471500191773
 20
-2920.960687999518
 30
0.0
 11
157.0471500191773
 21
-2921.864576799535
 31
0.0
  0
LINE
  5
297
330
1F
100
AcDbEntity
  8
Ech.1_5
 62
   190
370
     9
100
AcDbLine
 10
158.7138164196099
 20
-2920.960687999515
 30
0.0
 11
158.7138164196114
 21
-2921.864576799537
 31
0.0
  0
LINE
  5
298
330
1F
100
AcDbEntity
  8
Ech.1_5
 62
   190
370
     9
100
AcDbLine
 10
158.3804832193936
 20
-2920.960687999517
 30
0.0
 11
158.3804832193943
 21
-2921.864576799537
 31
0.0
  0
LINE
  5
299
330
1F
100
AcDbEntity
  8
Ech.1_5
 62
   190
370
     9
100
AcDbLine
 10
158.047150019178
 20
-2920.960687999518
 30
0.0
 11
158.0471500191773
 21
-2921.864576799535
 31
0.0
  0
LINE
  5
29A
330
1F
100
AcDbEntity
  8
Ech.1_5
 62
   190
370
     9
100
AcDbLine
 10
159.7138164196099
 20
-2920.960687999515
 30
0.0
 11
159.7138164196099
 21
-2921.864576799534
 31
0.0
  0
LINE
  5
29B
330
1F
100
AcDbEntity
  8
Ech.1_5
 62
   190
370
     9
100
AcDbLine
 10
159.3804832193943
 20
-2920.960687999517
 30
0.0
 11
159.3804832193943
 21
-2921.864576799537
 31
0.0
  0
LINE
  5
29C
330
1F
100
AcDbEntity
  8
Ech.1_5
 62
   190
370
     9
100
AcDbLine
 10
159.0471500191773
 20
-2920.960687999519
 30
0.0
 11
159.047150019178
 21
-2921.864576799535
 31
0.0
  0
LINE
  5
29D
330
1F
100
AcDbEntity
  8
Ech.1_5
 62
   190
370
     9
100
AcDbLine
 10
160.7138164196099
 20
-2920.960687999515
 30
0.0
 11
160.7138164196092
 21
-2921.864576799534
 31
0.0
  0
LINE
  5
29E
330
1F
100
AcDbEntity
  8
Ech.1_5
 62
   190
370
     9
100
AcDbLine
 10
160.3804832193943
 20
-2920.960687999518
 30
0.0
 11
160.3804832193943
 21
-2921.864576799537
 31
0.0
  0
LINE
  5
29F
330
1F
100
AcDbEntity
  8
Ech.1_5
 62
   190
370
     9
100
AcDbLine
 10
160.0471500191773
 20
-2920.960687999519
 30
0.0
 11
160.047150019178
 21
-2921.864576799535
 31
0.0
  0
LINE
  5
2A0
330
1F
100
AcDbEntity
  8
Ech.1_5
 62
   190
370
     9
100
AcDbLine
 10
155.0471500191773
 20
-2920.960687999515
 30
0.0
 11
155.0471500191773
 21
-2921.864576799535
 31
0.0
  0
LINE
  5
2A1
330
1F
100
AcDbEntity
  8
Ech.1_5
 62
   190
370
     9
100
AcDbLine
 10
155.3804832193929
 20
-2920.960687999517
 30
0.0
 11
155.3804832193936
 21
-2921.864576799535
 31
0.0
  0
LINE
  5
2A2
330
1F
100
AcDbEntity
  8
Ech.1_5
 62
   190
370
     9
100
AcDbLine
 10
155.7138164196099
 20
-2920.960687999518
 30
0.0
 11
155.7138164196106
 21
-2921.864576799537
 31
0.0
  0
LINE
  5
2A3
330
1F
100
AcDbEntity
  8
Ech.1_5
 62
   190
370
     9
100
AcDbLine
 10
154.7138164196106
 20
-2920.960687999518
 30
0.0
 11
154.7138164196099
 21
-2921.864576799537
 31
0.0
  0
LINE
  5
2A4
330
1F
100
AcDbEntity
  8
Ech.1_5
 62
   190
370
     9
100
AcDbLine
 10
177.7915944191241
 20
-2921.41263239953
 30
0.0
 11
176.7267836185717
 21
-2920.960687999535
 31
0.0
  0
ARC
  5
2A5
330
1F
100
AcDbEntity
  8
Ech.1_5
 62
   190
370
     9
100
AcDbCircle
 10
177.2905241101732
 20
-2921.412632433548
 30
0.0
 40
0.7225351986620491
100
AcDbArc
 50
141.2812399139852
 51
218.7187600858303
  0
LINE
  5
2A6
330
1F
100
AcDbEntity
  8
Ech.1_5
 62
   190
370
     9
100
AcDbLine
 10
177.7915944191241
 20
-2921.41263239953
 30
0.0
 11
176.7267836185717
 21
-2921.864576799554
 31
0.0
  0
HATCH
  5
2A7
330
1F
100
AcDbEntity
  8
Ech.1_5
 62
   252
440
 33554687
370
     5
100
AcDbHatch
 10
0.0
 20
0.0
 30
0.0
210
0.0
220
0.0
230
1.0
  2
SOLID
 70
     1
 71
     1
 91
        1
 92
        3
 72
     0
 73
     1
 93
        4
 10
150.7138164196099
 20
-2921.864576799537
 10
151.0471500191773
 20
-2921.864576799537
 10
151.047150019178
 20
-2920.960687999518
 10
150.7138164196099
 20
-2920.960687999517
 97
        0
 75
     0
 76
     1
 98
        0
  0
LWPOLYLINE
  5
2A8
330
1F
100
AcDbEntity
  8
Ech.1_5
 62
     7
370
     9
100
AcDbPolyline
 90
        5
 70
     0
 43
0.0
 10
150.7138164196099
 20
-2921.864576799537
 10
151.0471500191773
 20
-2921.864576799537
 10
151.047150019178
 20
-2920.960687999518
 10
150.7138164196099
 20
-2920.960687999517
 10
150.7138164196099
 20
-2921.864576799537
  0
HATCH
  5
2A9
330
1F
100
AcDbEntity
  8
Ech.1_5
 62
   252
440
 33554687
370
     5
100
AcDbHatch
 10
0.0
 20
0.0
 30
0.0
210
0.0
220
0.0
230
1.0
  2
SOLID
 70
     1
 71
     1
 91
        1
 92
        3
 72
     0
 73
     1
 93
        4
 10
151.0471500191773
 20
-2921.864576799537
 10
151.3804836187454
 20
-2921.864576799535
 10
151.3804836187447
 20
-2920.960687999519
 10
151.047150019178
 20
-2920.960687999518
 97
        0
 75
     0
 76
     1
 98
        0
  0
LWPOLYLINE
  5
2AA
330
1F
100
AcDbEntity
  8
Ech.1_5
 62
     7
370
     9
100
AcDbPolyline
 90
        5
 70
     0
 43
0.0
 10
151.0471500191773
 20
-2921.864576799537
 10
151.3804836187454
 20
-2921.864576799535
 10
151.3804836187447
 20
-2920.960687999519
 10
151.047150019178
 20
-2920.960687999518
 10
151.0471500191773
 20
-2921.864576799537
  0
HATCH
  5
2AB
330
1F
100
AcDbEntity
  8
Ech.1_5
 62
   252
440
 33554687
370
     5
100
AcDbHatch
 10
0.0
 20
0.0
 30
0.0
210
0.0
220
0.0
230
1.0
  2
SOLID
 70
     1
 71
     1
 91
        1
 92
        3
 72
     0
 73
     1
 93
        4
 10
151.3804836187454
 20
-2921.864576799535
 10
151.7138172183129
 20
-2921.864576799537
 10
151.7138172183114
 20
-2920.960687999518
 10
151.3804836187447
 20
-2920.960687999519
 97
        0
 75
     0
 76
     1
 98
        0
  0
LWPOLYLINE
  5
2AC
330
1F
100
AcDbEntity
  8
Ech.1_5
 62
     7
370
     9
100
AcDbPolyline
 90
        5
 70
     0
 43
0.0
 10
151.3804836187454
 20
-2921.864576799535
 10
151.7138172183129
 20
-2921.864576799537
 10
151.7138172183114
 20
-2920.960687999518
 10
151.3804836187447
 20
-2920.960687999519
 10
151.3804836187454
 20
-2921.864576799535
  0
HATCH
  5
2AD
330
1F
100
AcDbEntity
  8
Ech.1_5
 62
   252
440
 33554687
370
     5
100
AcDbHatch
 10
0.0
 20
0.0
 30
0.0
210
0.0
220
0.0
230
1.0
  2
SOLID
 70
     1
 71
     1
 91
        1
 92
        3
 72
     0
 73
     1
 93
        4
 10
151.7138172183129
 20
-2921.864576799537
 10
152.0471508178796
 20
-2921.864576799537
 10
152.0471508178803
 20
-2920.960687999518
 10
151.7138172183114
 20
-2920.960687999518
 97
        0
 75
     0
 76
     1
 98
        0
  0
LWPOLYLINE
  5
2AE
330
1F
100
AcDbEntity
  8
Ech.1_5
 62
     7
370
     9
100
AcDbPolyline
 90
        5
 70
     0
 43
0.0
 10
151.7138172183129
 20
-2921.864576799537
 10
152.0471508178796
 20
-2921.864576799537
 10
152.0471508178803
 20
-2920.960687999518
 10
151.7138172183114
 20
-2920.960687999518
 10
151.7138172183129
 20
-2921.864576799537
  0
HATCH
  5
2AF
330
1F
100
AcDbEntity
  8
Ech.1_5
 62
   252
440
 33554687
370
     5
100
AcDbHatch
 10
0.0
 20
0.0
 30
0.0
210
0.0
220
0.0
230
1.0
  2
SOLID
 70
     1
 71
     1
 91
        1
 92
        3
 72
     0
 73
     1
 93
        4
 10
152.047150019178
 20
-2921.864576799537
 10
152.3804836187447
 20
-2921.864576799535
 10
152.3804836187454
 20
-2920.960687999519
 10
152.0471500191773
 20
-2920.960687999515
 97
        0
 75
     0
 76
     1
 98
        0
  0
LWPOLYLINE
  5
2B0
330
1F
100
AcDbEntity
  8
Ech.1_5
 62
     7
370
     9
100
AcDbPolyline
 90
        5
 70
     0
 43
0.0
 10
152.047150019178
 20
-2921.864576799537
 10
152.3804836187447
 20
-2921.864576799535
 10
152.3804836187454
 20
-2920.960687999519
 10
152.0471500191773
 20
-2920.960687999515
 10
152.047150019178
 20
-2921.864576799537
  0
HATCH
  5
2B1
330
1F
100
AcDbEntity
  8
Ech.1_5
 62
   252
440
 33554687
370
     5
100
AcDbHatch
 10
0.0
 20
0.0
 30
0.0
210
0.0
220
0.0
230
1.0
  2
SOLID
 70
     1
 71
     1
 91
        1
 92
        3
 72
     0
 73
     1
 93
        4
 10
152.3804832193943
 20
-2921.864576799535
 10
152.7138168189617
 20
-2921.864576799537
 10
152.7138168189617
 20
-2920.960687999518
 10
152.3804832193943
 20
-2920.960687999519
 97
        0
 75
     0
 76
     1
 98
        0
  0
LWPOLYLINE
  5
2B2
330
1F
100
AcDbEntity
  8
Ech.1_5
 62
     7
370
     9
100
AcDbPolyline
 90
        5
 70
     0
 43
0.0
 10
152.3804832193943
 20
-2921.864576799535
 10
152.7138168189617
 20
-2921.864576799537
 10
152.7138168189617
 20
-2920.960687999518
 10
152.3804832193943
 20
-2920.960687999519
 10
152.3804832193943
 20
-2921.864576799535
  0
HATCH
  5
2B3
330
1F
100
AcDbEntity
  8
Ech.1_5
 62
   252
440
 33554687
370
     5
100
AcDbHatch
 10
0.0
 20
0.0
 30
0.0
210
0.0
220
0.0
230
1.0
  2
SOLID
 70
     1
 71
     1
 91
        1
 92
        3
 72
     0
 73
     1
 93
        4
 10
152.7138168189617
 20
-2921.864576799537
 10
153.0471504185292
 20
-2921.864576799537
 10
153.0471504185292
 20
-2920.960687999515
 10
152.7138168189617
 20
-2920.960687999518
 97
        0
 75
     0
 76
     1
 98
        0
  0
LWPOLYLINE
  5
2B4
330
1F
100
AcDbEntity
  8
Ech.1_5
 62
     7
370
     9
100
AcDbPolyline
 90
        5
 70
     0
 43
0.0
 10
152.7138168189617
 20
-2921.864576799537
 10
153.0471504185292
 20
-2921.864576799537
 10
153.0471504185292
 20
-2920.960687999515
 10
152.7138168189617
 20
-2920.960687999518
 10
152.7138168189617
 20
-2921.864576799537
  0
HATCH
  5
2B5
330
1F
100
AcDbEntity
  8
Ech.1_5
 62
   252
440
 33554687
370
     5
100
AcDbHatch
 10
0.0
 20
0.0
 30
0.0
210
0.0
220
0.0
230
1.0
  2
SOLID
 70
     1
 71
     1
 91
        1
 92
        3
 72
     0
 73
     1
 93
        4
 10
153.0471500191788
 20
-2921.864576799537
 10
153.3804836187454
 20
-2921.864576799535
 10
153.3804836187447
 20
-2920.960687999519
 10
153.0471500191773
 20
-2920.960687999515
 97
        0
 75
     0
 76
     1
 98
        0
  0
LWPOLYLINE
  5
2B6
330
1F
100
AcDbEntity
  8
Ech.1_5
 62
     7
370
     9
100
AcDbPolyline
 90
        5
 70
     0
 43
0.0
 10
153.0471500191788
 20
-2921.864576799537
 10
153.3804836187454
 20
-2921.864576799535
 10
153.3804836187447
 20
-2920.960687999519
 10
153.0471500191773
 20
-2920.960687999515
 10
153.0471500191788
 20
-2921.864576799537
  0
HATCH
  5
2B7
330
1F
100
AcDbEntity
  8
Ech.1_5
 62
   252
440
 33554687
370
     5
100
AcDbHatch
 10
0.0
 20
0.0
 30
0.0
210
0.0
220
0.0
230
1.0
  2
SOLID
 70
     1
 71
     1
 91
        1
 92
        3
 72
     0
 73
     1
 93
        4
 10
153.3804836187454
 20
-2921.864576799535
 10
153.7138172183129
 20
-2921.864576799537
 10
153.7138172183121
 20
-2920.960687999518
 10
153.3804836187447
 20
-2920.960687999519
 97
        0
 75
     0
 76
     1
 98
        0
  0
LWPOLYLINE
  5
2B8
330
1F
100
AcDbEntity
  8
Ech.1_5
 62
     7
370
     9
100
AcDbPolyline
 90
        5
 70
     0
 43
0.0
 10
153.3804836187454
 20
-2921.864576799535
 10
153.7138172183129
 20
-2921.864576799537
 10
153.7138172183121
 20
-2920.960687999518
 10
153.3804836187447
 20
-2920.960687999519
 10
153.3804836187454
 20
-2921.864576799535
  0
HATCH
  5
2B9
330
1F
100
AcDbEntity
  8
Ech.1_5
 62
   252
440
 33554687
370
     5
100
AcDbHatch
 10
0.0
 20
0.0
 30
0.0
210
0.0
220
0.0
230
1.0
  2
SOLID
 70
     1
 71
     1
 91
        1
 92
        3
 72
     0
 73
     1
 93
        4
 10
153.7138164196099
 20
-2921.864576799537
 10
154.0471500191766
 20
-2921.864576799534
 10
154.047150019178
 20
-2920.960687999515
 10
153.7138164196106
 20
-2920.960687999518
 97
        0
 75
     0
 76
     1
 98
        0
  0
LWPOLYLINE
  5
2BA
330
1F
100
AcDbEntity
  8
Ech.1_5
 62
     7
370
     9
100
AcDbPolyline
 90
        5
 70
     0
 43
0.0
 10
153.7138164196099
 20
-2921.864576799537
 10
154.0471500191766
 20
-2921.864576799534
 10
154.047150019178
 20
-2920.960687999515
 10
153.7138164196106
 20
-2920.960687999518
 10
153.7138164196099
 20
-2921.864576799537
  0
HATCH
  5
2BB
330
1F
100
AcDbEntity
  8
Ech.1_5
 62
   252
440
 33554687
370
     5
100
AcDbHatch
 10
0.0
 20
0.0
 30
0.0
210
0.0
220
0.0
230
1.0
  2
SOLID
 70
     1
 71
     1
 91
        1
 92
        3
 72
     0
 73
     1
 93
        4
 10
154.0471500191766
 20
-2921.864576799534
 10
154.3804836187447
 20
-2921.864576799535
 10
154.3804836187454
 20
-2920.960687999519
 10
154.047150019178
 20
-2920.960687999515
 97
        0
 75
     0
 76
     1
 98
        0
  0
LWPOLYLINE
  5
2BC
330
1F
100
AcDbEntity
  8
Ech.1_5
 62
     7
370
     9
100
AcDbPolyline
 90
        5
 70
     0
 43
0.0
 10
154.0471500191766
 20
-2921.864576799534
 10
154.3804836187447
 20
-2921.864576799535
 10
154.3804836187454
 20
-2920.960687999519
 10
154.047150019178
 20
-2920.960687999515
 10
154.0471500191766
 20
-2921.864576799534
  0
HATCH
  5
2BD
330
1F
100
AcDbEntity
  8
Ech.1_5
 62
   252
440
 33554687
370
     5
100
AcDbHatch
 10
0.0
 20
0.0
 30
0.0
210
0.0
220
0.0
230
1.0
  2
SOLID
 70
     1
 71
     1
 91
        1
 92
        3
 72
     0
 73
     1
 93
        4
 10
154.3804836187447
 20
-2921.864576799535
 10
154.7138172183136
 20
-2921.864576799537
 10
154.7138172183121
 20
-2920.960687999518
 10
154.3804836187454
 20
-2920.960687999519
 97
        0
 75
     0
 76
     1
 98
        0
  0
LWPOLYLINE
  5
2BE
330
1F
100
AcDbEntity
  8
Ech.1_5
 62
     7
370
     9
100
AcDbPolyline
 90
        5
 70
     0
 43
0.0
 10
154.3804836187447
 20
-2921.864576799535
 10
154.7138172183136
 20
-2921.864576799537
 10
154.7138172183121
 20
-2920.960687999518
 10
154.3804836187454
 20
-2920.960687999519
 10
154.3804836187447
 20
-2921.864576799535
  0
HATCH
  5
2BF
330
1F
100
AcDbEntity
  8
Ech.1_5
 62
   252
440
 33554687
370
     5
100
AcDbHatch
 10
0.0
 20
0.0
 30
0.0
210
0.0
220
0.0
230
1.0
  2
SOLID
 70
     1
 71
     1
 91
        1
 92
        3
 72
     0
 73
     1
 93
        4
 10
154.7138172183136
 20
-2921.864576799537
 10
155.0471508178803
 20
-2921.864576799535
 10
155.0471508178788
 20
-2920.960687999515
 10
154.7138172183121
 20
-2920.960687999518
 97
        0
 75
     0
 76
     1
 98
        0
  0
LWPOLYLINE
  5
2C0
330
1F
100
AcDbEntity
  8
Ech.1_5
 62
     7
370
     9
100
AcDbPolyline
 90
        5
 70
     0
 43
0.0
 10
154.7138172183136
 20
-2921.864576799537
 10
155.0471508178803
 20
-2921.864576799535
 10
155.0471508178788
 20
-2920.960687999515
 10
154.7138172183121
 20
-2920.960687999518
 10
154.7138172183136
 20
-2921.864576799537
  0
HATCH
  5
2C1
330
1F
100
AcDbEntity
  8
Ech.1_5
 62
   252
440
 33554687
370
     5
100
AcDbHatch
 10
0.0
 20
0.0
 30
0.0
210
0.0
220
0.0
230
1.0
  2
SOLID
 70
     1
 71
     1
 91
        1
 92
        3
 72
     0
 73
     1
 93
        4
 10
155.0471508178803
 20
-2921.864576799535
 10
155.380484417447
 20
-2921.864576799537
 10
155.3804844174477
 20
-2920.960687999517
 10
155.0471508178788
 20
-2920.960687999515
 97
        0
 75
     0
 76
     1
 98
        0
  0
LWPOLYLINE
  5
2C2
330
1F
100
AcDbEntity
  8
Ech.1_5
 62
     7
370
     9
100
AcDbPolyline
 90
        5
 70
     0
 43
0.0
 10
155.0471508178803
 20
-2921.864576799535
 10
155.380484417447
 20
-2921.864576799537
 10
155.3804844174477
 20
-2920.960687999517
 10
155.0471508178788
 20
-2920.960687999515
 10
155.0471508178803
 20
-2921.864576799535
  0
HATCH
  5
2C3
330
1F
100
AcDbEntity
  8
Ech.1_5
 62
   252
440
 33554687
370
     5
100
AcDbHatch
 10
0.0
 20
0.0
 30
0.0
210
0.0
220
0.0
230
1.0
  2
SOLID
 70
     1
 71
     1
 91
        1
 92
        3
 72
     0
 73
     1
 93
        4
 10
155.3804836187447
 20
-2921.864576799537
 10
155.7138172183129
 20
-2921.864576799537
 10
155.7138172183121
 20
-2920.960687999518
 10
155.3804836187454
 20
-2920.960687999517
 97
        0
 75
     0
 76
     1
 98
        0
  0
LWPOLYLINE
  5
2C4
330
1F
100
AcDbEntity
  8
Ech.1_5
 62
     7
370
     9
100
AcDbPolyline
 90
        5
 70
     0
 43
0.0
 10
155.3804836187447
 20
-2921.864576799537
 10
155.7138172183129
 20
-2921.864576799537
 10
155.7138172183121
 20
-2920.960687999518
 10
155.3804836187454
 20
-2920.960687999517
 10
155.3804836187447
 20
-2921.864576799537
  0
HATCH
  5
2C5
330
1F
100
AcDbEntity
  8
Ech.1_5
 62
   252
440
 33554687
370
     5
100
AcDbHatch
 10
0.0
 20
0.0
 30
0.0
210
0.0
220
0.0
230
1.0
  2
SOLID
 70
     1
 71
     1
 91
        1
 92
        3
 72
     0
 73
     1
 93
        4
 10
155.713816818961
 20
-2921.864576799537
 10
156.0471504185284
 20
-2921.864576799535
 10
156.0471504185292
 20
-2920.960687999515
 10
155.7138168189617
 20
-2920.960687999518
 97
        0
 75
     0
 76
     1
 98
        0
  0
LWPOLYLINE
  5
2C6
330
1F
100
AcDbEntity
  8
Ech.1_5
 62
     7
370
     9
100
AcDbPolyline
 90
        5
 70
     0
 43
0.0
 10
155.713816818961
 20
-2921.864576799537
 10
156.0471504185284
 20
-2921.864576799535
 10
156.0471504185292
 20
-2920.960687999515
 10
155.7138168189617
 20
-2920.960687999518
 10
155.713816818961
 20
-2921.864576799537
  0
HATCH
  5
2C7
330
1F
100
AcDbEntity
  8
Ech.1_5
 62
   252
440
 33554687
370
     5
100
AcDbHatch
 10
0.0
 20
0.0
 30
0.0
210
0.0
220
0.0
230
1.0
  2
SOLID
 70
     1
 71
     1
 91
        1
 92
        3
 72
     0
 73
     1
 93
        4
 10
156.0471504185284
 20
-2921.864576799535
 10
156.3804840180966
 20
-2921.864576799537
 10
156.3804840180958
 20
-2920.960687999517
 10
156.0471504185292
 20
-2920.960687999515
 97
        0
 75
     0
 76
     1
 98
        0
  0
LWPOLYLINE
  5
2C8
330
1F
100
AcDbEntity
  8
Ech.1_5
 62
     7
370
     9
100
AcDbPolyline
 90
        5
 70
     0
 43
0.0
 10
156.0471504185284
 20
-2921.864576799535
 10
156.3804840180966
 20
-2921.864576799537
 10
156.3804840180958
 20
-2920.960687999517
 10
156.0471504185292
 20
-2920.960687999515
 10
156.0471504185284
 20
-2921.864576799535
  0
HATCH
  5
2C9
330
1F
100
AcDbEntity
  8
Ech.1_5
 62
   252
440
 33554687
370
     5
100
AcDbHatch
 10
0.0
 20
0.0
 30
0.0
210
0.0
220
0.0
230
1.0
  2
SOLID
 70
     1
 71
     1
 91
        1
 92
        3
 72
     0
 73
     1
 93
        4
 10
156.3804836187447
 20
-2921.864576799537
 10
156.7138172183114
 20
-2921.864576799537
 10
156.7138172183129
 20
-2920.960687999518
 10
156.3804836187454
 20
-2920.960687999517
 97
        0
 75
     0
 76
     1
 98
        0
  0
LWPOLYLINE
  5
2CA
330
1F
100
AcDbEntity
  8
Ech.1_5
 62
     7
370
     9
100
AcDbPolyline
 90
        5
 70
     0
 43
0.0
 10
156.3804836187447
 20
-2921.864576799537
 10
156.7138172183114
 20
-2921.864576799537
 10
156.7138172183129
 20
-2920.960687999518
 10
156.3804836187454
 20
-2920.960687999517
 10
156.3804836187447
 20
-2921.864576799537
  0
HATCH
  5
2CB
330
1F
100
AcDbEntity
  8
Ech.1_5
 62
   252
440
 33554687
370
     5
100
AcDbHatch
 10
0.0
 20
0.0
 30
0.0
210
0.0
220
0.0
230
1.0
  2
SOLID
 70
     1
 71
     1
 91
        1
 92
        3
 72
     0
 73
     1
 93
        4
 10
156.7138172183114
 20
-2921.864576799537
 10
157.0471508178803
 20
-2921.864576799535
 10
157.0471508178796
 20
-2920.960687999515
 10
156.7138172183129
 20
-2920.960687999518
 97
        0
 75
     0
 76
     1
 98
        0
  0
LWPOLYLINE
  5
2CC
330
1F
100
AcDbEntity
  8
Ech.1_5
 62
     7
370
     9
100
AcDbPolyline
 90
        5
 70
     0
 43
0.0
 10
156.7138172183114
 20
-2921.864576799537
 10
157.0471508178803
 20
-2921.864576799535
 10
157.0471508178796
 20
-2920.960687999515
 10
156.7138172183129
 20
-2920.960687999518
 10
156.7138172183114
 20
-2921.864576799537
  0
HATCH
  5
2CD
330
1F
100
AcDbEntity
  8
Ech.1_5
 62
   252
440
 33554687
370
     5
100
AcDbHatch
 10
0.0
 20
0.0
 30
0.0
210
0.0
220
0.0
230
1.0
  2
SOLID
 70
     1
 71
     1
 91
        1
 92
        3
 72
     0
 73
     1
 93
        4
 10
157.0471500191773
 20
-2921.864576799535
 10
157.3804836187454
 20
-2921.864576799537
 10
157.380483618744
 20
-2920.960687999517
 10
157.0471500191773
 20
-2920.960687999518
 97
        0
 75
     0
 76
     1
 98
        0
  0
LWPOLYLINE
  5
2CE
330
1F
100
AcDbEntity
  8
Ech.1_5
 62
     7
370
     9
100
AcDbPolyline
 90
        5
 70
     0
 43
0.0
 10
157.0471500191773
 20
-2921.864576799535
 10
157.3804836187454
 20
-2921.864576799537
 10
157.380483618744
 20
-2920.960687999517
 10
157.0471500191773
 20
-2920.960687999518
 10
157.0471500191773
 20
-2921.864576799535
  0
HATCH
  5
2CF
330
1F
100
AcDbEntity
  8
Ech.1_5
 62
   252
440
 33554687
370
     5
100
AcDbHatch
 10
0.0
 20
0.0
 30
0.0
210
0.0
220
0.0
230
1.0
  2
SOLID
 70
     1
 71
     1
 91
        1
 92
        3
 72
     0
 73
     1
 93
        4
 10
157.3804836187454
 20
-2921.864576799537
 10
157.7138172183121
 20
-2921.864576799537
 10
157.7138172183129
 20
-2920.960687999518
 10
157.380483618744
 20
-2920.960687999517
 97
        0
 75
     0
 76
     1
 98
        0
  0
LWPOLYLINE
  5
2D0
330
1F
100
AcDbEntity
  8
Ech.1_5
 62
     7
370
     9
100
AcDbPolyline
 90
        5
 70
     0
 43
0.0
 10
157.3804836187454
 20
-2921.864576799537
 10
157.7138172183121
 20
-2921.864576799537
 10
157.7138172183129
 20
-2920.960687999518
 10
157.380483618744
 20
-2920.960687999517
 10
157.3804836187454
 20
-2921.864576799537
  0
HATCH
  5
2D1
330
1F
100
AcDbEntity
  8
Ech.1_5
 62
   252
440
 33554687
370
     5
100
AcDbHatch
 10
0.0
 20
0.0
 30
0.0
210
0.0
220
0.0
230
1.0
  2
SOLID
 70
     1
 71
     1
 91
        1
 92
        3
 72
     0
 73
     1
 93
        4
 10
157.7138172183121
 20
-2921.864576799537
 10
158.0471508178796
 20
-2921.864576799535
 10
158.0471508178803
 20
-2920.960687999519
 10
157.7138172183129
 20
-2920.960687999518
 97
        0
 75
     0
 76
     1
 98
        0
  0
LWPOLYLINE
  5
2D2
330
1F
100
AcDbEntity
  8
Ech.1_5
 62
     7
370
     9
100
AcDbPolyline
 90
        5
 70
     0
 43
0.0
 10
157.7138172183121
 20
-2921.864576799537
 10
158.0471508178796
 20
-2921.864576799535
 10
158.0471508178803
 20
-2920.960687999519
 10
157.7138172183129
 20
-2920.960687999518
 10
157.7138172183121
 20
-2921.864576799537
  0
HATCH
  5
2D3
330
1F
100
AcDbEntity
  8
Ech.1_5
 62
   252
440
 33554687
370
     5
100
AcDbHatch
 10
0.0
 20
0.0
 30
0.0
210
0.0
220
0.0
230
1.0
  2
SOLID
 70
     1
 71
     1
 91
        1
 92
        3
 72
     0
 73
     1
 93
        4
 10
158.0471508178796
 20
-2921.864576799535
 10
158.3804844174477
 20
-2921.864576799537
 10
158.380484417447
 20
-2920.960687999518
 10
158.0471508178803
 20
-2920.960687999519
 97
        0
 75
     0
 76
     1
 98
        0
  0
LWPOLYLINE
  5
2D4
330
1F
100
AcDbEntity
  8
Ech.1_5
 62
     7
370
     9
100
AcDbPolyline
 90
        5
 70
     0
 43
0.0
 10
158.0471508178796
 20
-2921.864576799535
 10
158.3804844174477
 20
-2921.864576799537
 10
158.380484417447
 20
-2920.960687999518
 10
158.0471508178803
 20
-2920.960687999519
 10
158.0471508178796
 20
-2921.864576799535
  0
HATCH
  5
2D5
330
1F
100
AcDbEntity
  8
Ech.1_5
 62
   252
440
 33554687
370
     5
100
AcDbHatch
 10
0.0
 20
0.0
 30
0.0
210
0.0
220
0.0
230
1.0
  2
SOLID
 70
     1
 71
     1
 91
        1
 92
        3
 72
     0
 73
     1
 93
        4
 10
158.3804844174477
 20
-2921.864576799537
 10
158.7138180170151
 20
-2921.864576799537
 10
158.7138180170144
 20
-2920.960687999515
 10
158.380484417447
 20
-2920.960687999518
 97
        0
 75
     0
 76
     1
 98
        0
  0
LWPOLYLINE
  5
2D6
330
1F
100
AcDbEntity
  8
Ech.1_5
 62
     7
370
     9
100
AcDbPolyline
 90
        5
 70
     0
 43
0.0
 10
158.3804844174477
 20
-2921.864576799537
 10
158.7138180170151
 20
-2921.864576799537
 10
158.7138180170144
 20
-2920.960687999515
 10
158.380484417447
 20
-2920.960687999518
 10
158.3804844174477
 20
-2921.864576799537
  0
HATCH
  5
2D7
330
1F
100
AcDbEntity
  8
Ech.1_5
 62
   252
440
 33554687
370
     5
100
AcDbHatch
 10
0.0
 20
0.0
 30
0.0
210
0.0
220
0.0
230
1.0
  2
SOLID
 70
     1
 71
     1
 91
        1
 92
        3
 72
     0
 73
     1
 93
        4
 10
158.7138172183129
 20
-2921.864576799537
 10
159.0471508178796
 20
-2921.864576799535
 10
159.047150817881
 20
-2920.960687999519
 10
158.7138172183121
 20
-2920.960687999515
 97
        0
 75
     0
 76
     1
 98
        0
  0
LWPOLYLINE
  5
2D8
330
1F
100
AcDbEntity
  8
Ech.1_5
 62
     7
370
     9
100
AcDbPolyline
 90
        5
 70
     0
 43
0.0
 10
158.7138172183129
 20
-2921.864576799537
 10
159.0471508178796
 20
-2921.864576799535
 10
159.047150817881
 20
-2920.960687999519
 10
158.7138172183121
 20
-2920.960687999515
 10
158.7138172183129
 20
-2921.864576799537
  0
HATCH
  5
2D9
330
1F
100
AcDbEntity
  8
Ech.1_5
 62
   252
440
 33554687
370
     5
100
AcDbHatch
 10
0.0
 20
0.0
 30
0.0
210
0.0
220
0.0
230
1.0
  2
SOLID
 70
     1
 71
     1
 91
        1
 92
        3
 72
     0
 73
     1
 93
        4
 10
159.0471504185292
 20
-2921.864576799535
 10
159.3804840180966
 20
-2921.864576799537
 10
159.3804840180958
 20
-2920.960687999518
 10
159.0471504185292
 20
-2920.960687999519
 97
        0
 75
     0
 76
     1
 98
        0
  0
LWPOLYLINE
  5
2DA
330
1F
100
AcDbEntity
  8
Ech.1_5
 62
     7
370
     9
100
AcDbPolyline
 90
        5
 70
     0
 43
0.0
 10
159.0471504185292
 20
-2921.864576799535
 10
159.3804840180966
 20
-2921.864576799537
 10
159.3804840180958
 20
-2920.960687999518
 10
159.0471504185292
 20
-2920.960687999519
 10
159.0471504185292
 20
-2921.864576799535
  0
HATCH
  5
2DB
330
1F
100
AcDbEntity
  8
Ech.1_5
 62
   252
440
 33554687
370
     5
100
AcDbHatch
 10
0.0
 20
0.0
 30
0.0
210
0.0
220
0.0
230
1.0
  2
SOLID
 70
     1
 71
     1
 91
        1
 92
        3
 72
     0
 73
     1
 93
        4
 10
159.3804840180966
 20
-2921.864576799537
 10
159.713817617664
 20
-2921.864576799537
 10
159.7138176176625
 20
-2920.960687999515
 10
159.3804840180958
 20
-2920.960687999518
 97
        0
 75
     0
 76
     1
 98
        0
  0
LWPOLYLINE
  5
2DC
330
1F
100
AcDbEntity
  8
Ech.1_5
 62
     7
370
     9
100
AcDbPolyline
 90
        5
 70
     0
 43
0.0
 10
159.3804840180966
 20
-2921.864576799537
 10
159.713817617664
 20
-2921.864576799537
 10
159.7138176176625
 20
-2920.960687999515
 10
159.3804840180958
 20
-2920.960687999518
 10
159.3804840180966
 20
-2921.864576799537
  0
HATCH
  5
2DD
330
1F
100
AcDbEntity
  8
Ech.1_5
 62
   252
440
 33554687
370
     5
100
AcDbHatch
 10
0.0
 20
0.0
 30
0.0
210
0.0
220
0.0
230
1.0
  2
SOLID
 70
     1
 71
     1
 91
        1
 92
        3
 72
     0
 73
     1
 93
        4
 10
159.7138172183121
 20
-2921.864576799537
 10
160.0471508178796
 20
-2921.864576799535
 10
160.0471508178803
 20
-2920.960687999519
 10
159.7138172183121
 20
-2920.960687999515
 97
        0
 75
     0
 76
     1
 98
        0
  0
LWPOLYLINE
  5
2DE
330
1F
100
AcDbEntity
  8
Ech.1_5
 62
     7
370
     9
100
AcDbPolyline
 90
        5
 70
     0
 43
0.0
 10
159.7138172183121
 20
-2921.864576799537
 10
160.0471508178796
 20
-2921.864576799535
 10
160.0471508178803
 20
-2920.960687999519
 10
159.7138172183121
 20
-2920.960687999515
 10
159.7138172183121
 20
-2921.864576799537
  0
HATCH
  5
2DF
330
1F
100
AcDbEntity
  8
Ech.1_5
 62
   252
440
 33554687
370
     5
100
AcDbHatch
 10
0.0
 20
0.0
 30
0.0
210
0.0
220
0.0
230
1.0
  2
SOLID
 70
     1
 71
     1
 91
        1
 92
        3
 72
     0
 73
     1
 93
        4
 10
160.0471508178796
 20
-2921.864576799535
 10
160.3804844174477
 20
-2921.864576799537
 10
160.380484417447
 20
-2920.960687999518
 10
160.0471508178803
 20
-2920.960687999519
 97
        0
 75
     0
 76
     1
 98
        0
  0
LWPOLYLINE
  5
2E0
330
1F
100
AcDbEntity
  8
Ech.1_5
 62
     7
370
     9
100
AcDbPolyline
 90
        5
 70
     0
 43
0.0
 10
160.0471508178796
 20
-2921.864576799535
 10
160.3804844174477
 20
-2921.864576799537
 10
160.380484417447
 20
-2920.960687999518
 10
160.0471508178803
 20
-2920.960687999519
 10
160.0471508178796
 20
-2921.864576799535
  0
HATCH
  5
2E1
330
1F
100
AcDbEntity
  8
Ech.1_5
 62
   252
440
 33554687
370
     5
100
AcDbHatch
 10
0.0
 20
0.0
 30
0.0
210
0.0
220
0.0
230
1.0
  2
SOLID
 70
     1
 71
     1
 91
        1
 92
        3
 72
     0
 73
     1
 93
        4
 10
160.3804836187454
 20
-2921.864576799537
 10
160.7138172183129
 20
-2921.864576799534
 10
160.7138172183114
 20
-2920.960687999515
 10
160.3804836187447
 20
-2920.960687999518
 97
        0
 75
     0
 76
     1
 98
        0
  0
LWPOLYLINE
  5
2E2
330
1F
100
AcDbEntity
  8
Ech.1_5
 62
     7
370
     9
100
AcDbPolyline
 90
        5
 70
     0
 43
0.0
 10
160.3804836187454
 20
-2921.864576799537
 10
160.7138172183129
 20
-2921.864576799534
 10
160.7138172183114
 20
-2920.960687999515
 10
160.3804836187447
 20
-2920.960687999518
 10
160.3804836187454
 20
-2921.864576799537
  0
HATCH
  5
2E3
330
1F
100
AcDbEntity
  8
Ech.1_5
 62
   252
440
 33554687
370
     5
100
AcDbHatch
 10
0.0
 20
0.0
 30
0.0
210
0.0
220
0.0
230
1.0
  2
SOLID
 70
     1
 71
     1
 91
        1
 92
        3
 72
     0
 73
     1
 93
        4
 10
160.7138164196092
 20
-2921.864576799534
 10
161.0471500191766
 20
-2921.864576799535
 10
161.047150019178
 20
-2920.960687999517
 10
160.7138164196099
 20
-2920.960687999515
 97
        0
 75
     0
 76
     1
 98
        0
  0
LWPOLYLINE
  5
2E4
330
1F
100
AcDbEntity
  8
Ech.1_5
 62
     7
370
     9
100
AcDbPolyline
 90
        5
 70
     0
 43
0.0
 10
160.7138164196092
 20
-2921.864576799534
 10
161.0471500191766
 20
-2921.864576799535
 10
161.047150019178
 20
-2920.960687999517
 10
160.7138164196099
 20
-2920.960687999515
 10
160.7138164196092
 20
-2921.864576799534
  0
HATCH
  5
2E5
330
1F
100
AcDbEntity
  8
Ech.1_5
 62
   252
440
 33554687
370
     5
100
AcDbHatch
 10
0.0
 20
0.0
 30
0.0
210
0.0
220
0.0
230
1.0
  2
SOLID
 70
     1
 71
     1
 91
        1
 92
        3
 72
     0
 73
     1
 93
        4
 10
161.0471500191766
 20
-2921.864576799535
 10
161.3804836187454
 20
-2921.864576799537
 10
161.3804836187447
 20
-2920.960687999518
 10
161.047150019178
 20
-2920.960687999517
 97
        0
 75
     0
 76
     1
 98
        0
  0
LWPOLYLINE
  5
2E6
330
1F
100
AcDbEntity
  8
Ech.1_5
 62
     7
370
     9
100
AcDbPolyline
 90
        5
 70
     0
 43
0.0
 10
161.0471500191766
 20
-2921.864576799535
 10
161.3804836187454
 20
-2921.864576799537
 10
161.3804836187447
 20
-2920.960687999518
 10
161.047150019178
 20
-2920.960687999517
 10
161.0471500191766
 20
-2921.864576799535
  0
HATCH
  5
2E7
330
1F
100
AcDbEntity
  8
Ech.1_5
 62
   252
440
 33554687
370
     5
100
AcDbHatch
 10
0.0
 20
0.0
 30
0.0
210
0.0
220
0.0
230
1.0
  2
SOLID
 70
     1
 71
     1
 91
        1
 92
        3
 72
     0
 73
     1
 93
        4
 10
161.3804836187454
 20
-2921.864576799537
 10
161.7138172183129
 20
-2921.864576799535
 10
161.7138172183114
 20
-2920.960687999515
 10
161.3804836187447
 20
-2920.960687999518
 97
        0
 75
     0
 76
     1
 98
        0
  0
LWPOLYLINE
  5
2E8
330
1F
100
AcDbEntity
  8
Ech.1_5
 62
     7
370
     9
100
AcDbPolyline
 90
        5
 70
     0
 43
0.0
 10
161.3804836187454
 20
-2921.864576799537
 10
161.7138172183129
 20
-2921.864576799535
 10
161.7138172183114
 20
-2920.960687999515
 10
161.3804836187447
 20
-2920.960687999518
 10
161.3804836187454
 20
-2921.864576799537
  0
HATCH
  5
2E9
330
1F
100
AcDbEntity
  8
Ech.1_5
 62
   252
440
 33554687
370
     5
100
AcDbHatch
 10
0.0
 20
0.0
 30
0.0
210
0.0
220
0.0
230
1.0
  2
SOLID
 70
     1
 71
     1
 91
        1
 92
        3
 72
     0
 73
     1
 93
        4
 10
161.7138172183129
 20
-2921.864576799535
 10
162.0471508178796
 20
-2921.864576799537
 10
162.0471508178796
 20
-2920.960687999517
 10
161.7138172183114
 20
-2920.960687999515
 97
        0
 75
     0
 76
     1
 98
        0
  0
LWPOLYLINE
  5
2EA
330
1F
100
AcDbEntity
  8
Ech.1_5
 62
     7
370
     9
100
AcDbPolyline
 90
        5
 70
     0
 43
0.0
 10
161.7138172183129
 20
-2921.864576799535
 10
162.0471508178796
 20
-2921.864576799537
 10
162.0471508178796
 20
-2920.960687999517
 10
161.7138172183114
 20
-2920.960687999515
 10
161.7138172183129
 20
-2921.864576799535
  0
HATCH
  5
2EB
330
1F
100
AcDbEntity
  8
Ech.1_5
 62
   252
440
 33554687
370
     5
100
AcDbHatch
 10
0.0
 20
0.0
 30
0.0
210
0.0
220
0.0
230
1.0
  2
SOLID
 70
     1
 71
     1
 91
        1
 92
        3
 72
     0
 73
     1
 93
        4
 10
162.0471500191773
 20
-2921.864576799535
 10
162.3804836187447
 20
-2921.864576799537
 10
162.3804836187447
 20
-2920.960687999518
 10
162.047150019178
 20
-2920.960687999517
 97
        0
 75
     0
 76
     1
 98
        0
  0
LWPOLYLINE
  5
2EC
330
1F
100
AcDbEntity
  8
Ech.1_5
 62
     7
370
     9
100
AcDbPolyline
 90
        5
 70
     0
 43
0.0
 10
162.0471500191773
 20
-2921.864576799535
 10
162.3804836187447
 20
-2921.864576799537
 10
162.3804836187447
 20
-2920.960687999518
 10
162.047150019178
 20
-2920.960687999517
 10
162.0471500191773
 20
-2921.864576799535
  0
HATCH
  5
2ED
330
1F
100
AcDbEntity
  8
Ech.1_5
 62
   252
440
 33554687
370
     5
100
AcDbHatch
 10
0.0
 20
0.0
 30
0.0
210
0.0
220
0.0
230
1.0
  2
SOLID
 70
     1
 71
     1
 91
        1
 92
        3
 72
     0
 73
     1
 93
        4
 10
162.3804832193943
 20
-2921.864576799537
 10
162.713816818961
 20
-2921.864576799535
 10
162.7138168189617
 20
-2920.960687999518
 10
162.3804832193929
 20
-2920.960687999518
 97
        0
 75
     0
 76
     1
 98
        0
  0
LWPOLYLINE
  5
2EE
330
1F
100
AcDbEntity
  8
Ech.1_5
 62
     7
370
     9
100
AcDbPolyline
 90
        5
 70
     0
 43
0.0
 10
162.3804832193943
 20
-2921.864576799537
 10
162.713816818961
 20
-2921.864576799535
 10
162.7138168189617
 20
-2920.960687999518
 10
162.3804832193929
 20
-2920.960687999518
 10
162.3804832193943
 20
-2921.864576799537
  0
HATCH
  5
2EF
330
1F
100
AcDbEntity
  8
Ech.1_5
 62
   252
440
 33554687
370
     5
100
AcDbHatch
 10
0.0
 20
0.0
 30
0.0
210
0.0
220
0.0
230
1.0
  2
SOLID
 70
     1
 71
     1
 91
        1
 92
        3
 72
     0
 73
     1
 93
        4
 10
162.713816818961
 20
-2921.864576799535
 10
163.0471504185277
 20
-2921.864576799534
 10
163.0471504185284
 20
-2920.960687999517
 10
162.7138168189617
 20
-2920.960687999518
 97
        0
 75
     0
 76
     1
 98
        0
  0
LWPOLYLINE
  5
2F0
330
1F
100
AcDbEntity
  8
Ech.1_5
 62
     7
370
     9
100
AcDbPolyline
 90
        5
 70
     0
 43
0.0
 10
162.713816818961
 20
-2921.864576799535
 10
163.0471504185277
 20
-2921.864576799534
 10
163.0471504185284
 20
-2920.960687999517
 10
162.7138168189617
 20
-2920.960687999518
 10
162.713816818961
 20
-2921.864576799535
  0
HATCH
  5
2F1
330
1F
100
AcDbEntity
  8
Ech.1_5
 62
   252
440
 33554687
370
     5
100
AcDbHatch
 10
0.0
 20
0.0
 30
0.0
210
0.0
220
0.0
230
1.0
  2
SOLID
 70
     1
 71
     1
 91
        1
 92
        3
 72
     0
 73
     1
 93
        4
 10
163.047150019178
 20
-2921.864576799537
 10
163.3804836187447
 20
-2921.864576799537
 10
163.3804836187454
 20
-2920.960687999518
 10
163.0471500191773
 20
-2920.960687999517
 97
        0
 75
     0
 76
     1
 98
        0
  0
LWPOLYLINE
  5
2F2
330
1F
100
AcDbEntity
  8
Ech.1_5
 62
     7
370
     9
100
AcDbPolyline
 90
        5
 70
     0
 43
0.0
 10
163.047150019178
 20
-2921.864576799537
 10
163.3804836187447
 20
-2921.864576799537
 10
163.3804836187454
 20
-2920.960687999518
 10
163.0471500191773
 20
-2920.960687999517
 10
163.047150019178
 20
-2921.864576799537
  0
HATCH
  5
2F3
330
1F
100
AcDbEntity
  8
Ech.1_5
 62
   252
440
 33554687
370
     5
100
AcDbHatch
 10
0.0
 20
0.0
 30
0.0
210
0.0
220
0.0
230
1.0
  2
SOLID
 70
     1
 71
     1
 91
        1
 92
        3
 72
     0
 73
     1
 93
        4
 10
163.3804836187447
 20
-2921.864576799537
 10
163.7138172183121
 20
-2921.864576799535
 10
163.7138172183129
 20
-2920.960687999518
 10
163.3804836187454
 20
-2920.960687999518
 97
        0
 75
     0
 76
     1
 98
        0
  0
LWPOLYLINE
  5
2F4
330
1F
100
AcDbEntity
  8
Ech.1_5
 62
     7
370
     9
100
AcDbPolyline
 90
        5
 70
     0
 43
0.0
 10
163.3804836187447
 20
-2921.864576799537
 10
163.7138172183121
 20
-2921.864576799535
 10
163.7138172183129
 20
-2920.960687999518
 10
163.3804836187454
 20
-2920.960687999518
 10
163.3804836187447
 20
-2921.864576799537
  0
HATCH
  5
2F5
330
1F
100
AcDbEntity
  8
Ech.1_5
 62
   252
440
 33554687
370
     5
100
AcDbHatch
 10
0.0
 20
0.0
 30
0.0
210
0.0
220
0.0
230
1.0
  2
SOLID
 70
     1
 71
     1
 91
        1
 92
        3
 72
     0
 73
     1
 93
        4
 10
163.7138164196099
 20
-2921.864576799535
 10
164.0471500191773
 20
-2921.864576799537
 10
164.0471500191773
 20
-2920.960687999517
 10
163.7138164196106
 20
-2920.960687999518
 97
        0
 75
     0
 76
     1
 98
        0
  0
LWPOLYLINE
  5
2F6
330
1F
100
AcDbEntity
  8
Ech.1_5
 62
     7
370
     9
100
AcDbPolyline
 90
        5
 70
     0
 43
0.0
 10
163.7138164196099
 20
-2921.864576799535
 10
164.0471500191773
 20
-2921.864576799537
 10
164.0471500191773
 20
-2920.960687999517
 10
163.7138164196106
 20
-2920.960687999518
 10
163.7138164196099
 20
-2921.864576799535
  0
HATCH
  5
2F7
330
1F
100
AcDbEntity
  8
Ech.1_5
 62
   252
440
 33554687
370
     5
100
AcDbHatch
 10
0.0
 20
0.0
 30
0.0
210
0.0
220
0.0
230
1.0
  2
SOLID
 70
     1
 71
     1
 91
        1
 92
        3
 72
     0
 73
     1
 93
        4
 10
164.0471500191773
 20
-2921.864576799537
 10
164.3804836187454
 20
-2921.864576799537
 10
164.3804836187447
 20
-2920.960687999515
 10
164.0471500191773
 20
-2920.960687999517
 97
        0
 75
     0
 76
     1
 98
        0
  0
LWPOLYLINE
  5
2F8
330
1F
100
AcDbEntity
  8
Ech.1_5
 62
     7
370
     9
100
AcDbPolyline
 90
        5
 70
     0
 43
0.0
 10
164.0471500191773
 20
-2921.864576799537
 10
164.3804836187454
 20
-2921.864576799537
 10
164.3804836187447
 20
-2920.960687999515
 10
164.0471500191773
 20
-2920.960687999517
 10
164.0471500191773
 20
-2921.864576799537
  0
HATCH
  5
2F9
330
1F
100
AcDbEntity
  8
Ech.1_5
 62
   252
440
 33554687
370
     5
100
AcDbHatch
 10
0.0
 20
0.0
 30
0.0
210
0.0
220
0.0
230
1.0
  2
SOLID
 70
     1
 71
     1
 91
        1
 92
        3
 72
     0
 73
     1
 93
        4
 10
164.3804836187454
 20
-2921.864576799537
 10
164.7138172183121
 20
-2921.864576799535
 10
164.7138172183129
 20
-2920.960687999518
 10
164.3804836187447
 20
-2920.960687999515
 97
        0
 75
     0
 76
     1
 98
        0
  0
LWPOLYLINE
  5
2FA
330
1F
100
AcDbEntity
  8
Ech.1_5
 62
     7
370
     9
100
AcDbPolyline
 90
        5
 70
     0
 43
0.0
 10
164.3804836187454
 20
-2921.864576799537
 10
164.7138172183121
 20
-2921.864576799535
 10
164.7138172183129
 20
-2920.960687999518
 10
164.3804836187447
 20
-2920.960687999515
 10
164.3804836187454
 20
-2921.864576799537
  0
HATCH
  5
2FB
330
1F
100
AcDbEntity
  8
Ech.1_5
 62
   252
440
 33554687
370
     5
100
AcDbHatch
 10
0.0
 20
0.0
 30
0.0
210
0.0
220
0.0
230
1.0
  2
SOLID
 70
     1
 71
     1
 91
        1
 92
        3
 72
     0
 73
     1
 93
        4
 10
164.7138172183121
 20
-2921.864576799535
 10
165.0471508178796
 20
-2921.864576799537
 10
165.0471508178803
 20
-2920.960687999517
 10
164.7138172183129
 20
-2920.960687999518
 97
        0
 75
     0
 76
     1
 98
        0
  0
LWPOLYLINE
  5
2FC
330
1F
100
AcDbEntity
  8
Ech.1_5
 62
     7
370
     9
100
AcDbPolyline
 90
        5
 70
     0
 43
0.0
 10
164.7138172183121
 20
-2921.864576799535
 10
165.0471508178796
 20
-2921.864576799537
 10
165.0471508178803
 20
-2920.960687999517
 10
164.7138172183129
 20
-2920.960687999518
 10
164.7138172183121
 20
-2921.864576799535
  0
HATCH
  5
2FD
330
1F
100
AcDbEntity
  8
Ech.1_5
 62
   252
440
 33554687
370
     5
100
AcDbHatch
 10
0.0
 20
0.0
 30
0.0
210
0.0
220
0.0
230
1.0
  2
SOLID
 70
     1
 71
     1
 91
        1
 92
        3
 72
     1
 73
     1
 93
        4
 10
176.7267836185717
 20
-2920.960687999535
 42
0.0
 10
176.0471532139885
 20
-2920.960687999515
 42
0.0
 10
176.0471532139877
 20
-2921.864576799531
 42
0.0
 10
176.7267836185717
 20
-2921.864576799554
 42
-0.3513591548534989
 97
        0
 75
     0
 76
     1
 98
        0
  0
LWPOLYLINE
  5
2FE
330
1F
100
AcDbEntity
  8
Ech.1_5
 62
     7
370
     9
100
AcDbPolyline
 90
        5
 70
     0
 43
0.0
 10
176.7267836185717
 20
-2920.960687999535
 10
176.0471532139885
 20
-2920.960687999515
 10
176.0471532139877
 20
-2921.864576799531
 10
176.7267836185717
 20
-2921.864576799554
 42
-0.3513591548535066
 10
176.7267836185717
 20
-2920.960687999535
  0
HATCH
  5
2FF
330
1F
100
AcDbEntity
  8
Ech.1_5
 62
   252
440
 33554687
370
     5
100
AcDbHatch
 10
0.0
 20
0.0
 30
0.0
210
0.0
220
0.0
230
1.0
  2
SOLID
 70
     1
 71
     1
 91
        1
 92
        3
 72
     1
 73
     1
 93
        3
 10
177.7915944191241
 20
-2921.41263239953
 42
0.0
 10
176.7267836185717
 20
-2920.960687999535
 42
0.3513591548534989
 10
176.7267836185717
 20
-2921.864576799554
 42
0.0
 97
        0
 75
     0
 76
     1
 98
        0
  0
LWPOLYLINE
  5
300
330
1F
100
AcDbEntity
  8
Ech.1_5
 62
     7
370
     9
100
AcDbPolyline
 90
        4
 70
     0
 43
0.0
 10
177.7915944191241
 20
-2921.41263239953
 10
176.7267836185717
 20
-2920.960687999535
 42
0.3513591548535063
 10
176.7267836185717
 20
-2921.864576799554
 10
177.7915944191241
 20
-2921.41263239953
  0
HATCH
  5
301
330
1F
100
AcDbEntity
  8
Ech.1_5
 62
   252
440
 33554687
370
     5
100
AcDbHatch
 10
0.0
 20
0.0
 30
0.0
210
0.0
220
0.0
230
1.0
  2
SOLID
 70
     1
 71
     1
 91
        1
 92
        3
 72
     0
 73
     1
 93
        4
 10
165.0471508178796
 20
-2921.864576799537
 10
165.3804844174477
 20
-2921.864576799537
 10
165.380484417447
 20
-2920.960687999515
 10
165.0471508178803
 20
-2920.960687999517
 97
        0
 75
     0
 76
     1
 98
        0
  0
LWPOLYLINE
  5
302
330
1F
100
AcDbEntity
  8
Ech.1_5
 62
     7
370
     9
100
AcDbPolyline
 90
        5
 70
     0
 43
0.0
 10
165.0471508178796
 20
-2921.864576799537
 10
165.3804844174477
 20
-2921.864576799537
 10
165.380484417447
 20
-2920.960687999515
 10
165.0471508178803
 20
-2920.960687999517
 10
165.0471508178796
 20
-2921.864576799537
  0
LINE
  5
303
330
1F
100
AcDbEntity
  8
Ech.1_5
 62
   190
370
     9
100
AcDbLine
 10
165.7138164196099
 20
-2920.960687999518
 30
0.0
 11
165.7138164196106
 21
-2921.864576799535
 31
0.0
  0
LINE
  5
304
330
1F
100
AcDbEntity
  8
Ech.1_5
 62
   190
370
     9
100
AcDbLine
 10
165.3804836187447
 20
-2920.960687999515
 30
0.0
 11
165.3804836187447
 21
-2921.864576799537
 31
0.0
  0
HATCH
  5
305
330
1F
100
AcDbEntity
  8
Ech.1_5
 62
   252
440
 33554687
370
     5
100
AcDbHatch
 10
0.0
 20
0.0
 30
0.0
210
0.0
220
0.0
230
1.0
  2
SOLID
 70
     1
 71
     1
 91
        1
 92
        3
 72
     0
 73
     1
 93
        4
 10
165.3804828200432
 20
-2921.864576799537
 10
165.7138164196106
 20
-2921.864576799535
 10
165.7138164196099
 20
-2920.960687999518
 10
165.3804828200425
 20
-2920.960687999515
 97
        0
 75
     0
 76
     1
 98
        0
  0
LWPOLYLINE
  5
306
330
1F
100
AcDbEntity
  8
Ech.1_5
 62
     7
370
     9
100
AcDbPolyline
 90
        5
 70
     0
 43
0.0
 10
165.3804828200432
 20
-2921.864576799537
 10
165.7138164196106
 20
-2921.864576799535
 10
165.7138164196099
 20
-2920.960687999518
 10
165.3804828200425
 20
-2920.960687999515
 10
165.3804828200432
 20
-2921.864576799537
  0
HATCH
  5
307
330
1F
100
AcDbEntity
  8
Ech.1_5
 62
   252
440
 33554687
370
     5
100
AcDbHatch
 10
0.0
 20
0.0
 30
0.0
210
0.0
220
0.0
230
1.0
  2
SOLID
 70
     1
 71
     1
 91
        1
 92
        3
 72
     0
 73
     1
 93
        4
 10
165.7138164196106
 20
-2921.864576799535
 10
166.047150019178
 20
-2921.864576799537
 10
166.0471500191773
 20
-2920.960687999517
 10
165.7138164196099
 20
-2920.960687999517
 97
        0
 75
     0
 76
     1
 98
        0
  0
LWPOLYLINE
  5
308
330
1F
100
AcDbEntity
  8
Ech.1_5
 62
     7
370
     9
100
AcDbPolyline
 90
        5
 70
     0
 43
0.0
 10
165.7138164196106
 20
-2921.864576799535
 10
166.047150019178
 20
-2921.864576799537
 10
166.0471500191773
 20
-2920.960687999517
 10
165.7138164196099
 20
-2920.960687999517
 10
165.7138164196106
 20
-2921.864576799535
  0
HATCH
  5
309
330
1F
100
AcDbEntity
  8
Ech.1_5
 62
   252
440
 33554687
370
     5
100
AcDbHatch
 10
0.0
 20
0.0
 30
0.0
210
0.0
220
0.0
230
1.0
  2
SOLID
 70
     1
 71
     1
 91
        1
 92
        3
 72
     0
 73
     1
 93
        4
 10
166.047150019178
 20
-2921.864576799537
 10
166.3804836187447
 20
-2921.864576799534
 10
166.3804836187454
 20
-2920.960687999515
 10
166.0471500191773
 20
-2920.960687999517
 97
        0
 75
     0
 76
     1
 98
        0
  0
LWPOLYLINE
  5
30A
330
1F
100
AcDbEntity
  8
Ech.1_5
 62
     7
370
     9
100
AcDbPolyline
 90
        5
 70
     0
 43
0.0
 10
166.047150019178
 20
-2921.864576799537
 10
166.3804836187447
 20
-2921.864576799534
 10
166.3804836187454
 20
-2920.960687999515
 10
166.0471500191773
 20
-2920.960687999517
 10
166.047150019178
 20
-2921.864576799537
  0
HATCH
  5
30B
330
1F
100
AcDbEntity
  8
Ech.1_5
 62
   252
440
 33554687
370
     5
100
AcDbHatch
 10
0.0
 20
0.0
 30
0.0
210
0.0
220
0.0
230
1.0
  2
SOLID
 70
     1
 71
     1
 91
        1
 92
        3
 72
     0
 73
     1
 93
        4
 10
166.3804836187447
 20
-2921.864576799534
 10
166.7138172183121
 20
-2921.864576799532
 10
166.7138172183129
 20
-2920.960687999517
 10
166.3804836187454
 20
-2920.960687999515
 97
        0
 75
     0
 76
     1
 98
        0
  0
LWPOLYLINE
  5
30C
330
1F
100
AcDbEntity
  8
Ech.1_5
 62
     7
370
     9
100
AcDbPolyline
 90
        5
 70
     0
 43
0.0
 10
166.3804836187447
 20
-2921.864576799534
 10
166.7138172183121
 20
-2921.864576799532
 10
166.7138172183129
 20
-2920.960687999517
 10
166.3804836187454
 20
-2920.960687999515
 10
166.3804836187447
 20
-2921.864576799534
  0
HATCH
  5
30D
330
1F
100
AcDbEntity
  8
Ech.1_5
 62
   252
440
 33554687
370
     5
100
AcDbHatch
 10
0.0
 20
0.0
 30
0.0
210
0.0
220
0.0
230
1.0
  2
SOLID
 70
     1
 71
     1
 91
        1
 92
        3
 72
     0
 73
     1
 93
        4
 10
166.7138172183121
 20
-2921.864576799532
 10
167.047150817881
 20
-2921.864576799537
 10
167.0471508178803
 20
-2920.960687999518
 10
166.7138172183129
 20
-2920.960687999517
 97
        0
 75
     0
 76
     1
 98
        0
  0
LWPOLYLINE
  5
30E
330
1F
100
AcDbEntity
  8
Ech.1_5
 62
     7
370
     9
100
AcDbPolyline
 90
        5
 70
     0
 43
0.0
 10
166.7138172183121
 20
-2921.864576799532
 10
167.047150817881
 20
-2921.864576799537
 10
167.0471508178803
 20
-2920.960687999518
 10
166.7138172183129
 20
-2920.960687999517
 10
166.7138172183121
 20
-2921.864576799532
  0
HATCH
  5
30F
330
1F
100
AcDbEntity
  8
Ech.1_5
 62
   252
440
 33554687
370
     5
100
AcDbHatch
 10
0.0
 20
0.0
 30
0.0
210
0.0
220
0.0
230
1.0
  2
SOLID
 70
     1
 71
     1
 91
        1
 92
        3
 72
     0
 73
     1
 93
        4
 10
167.047150817881
 20
-2921.864576799537
 10
167.3804844174477
 20
-2921.864576799534
 10
167.380484417447
 20
-2920.960687999515
 10
167.0471508178803
 20
-2920.960687999518
 97
        0
 75
     0
 76
     1
 98
        0
  0
LWPOLYLINE
  5
310
330
1F
100
AcDbEntity
  8
Ech.1_5
 62
     7
370
     9
100
AcDbPolyline
 90
        5
 70
     0
 43
0.0
 10
167.047150817881
 20
-2921.864576799537
 10
167.3804844174477
 20
-2921.864576799534
 10
167.380484417447
 20
-2920.960687999515
 10
167.0471508178803
 20
-2920.960687999518
 10
167.047150817881
 20
-2921.864576799537
  0
HATCH
  5
311
330
1F
100
AcDbEntity
  8
Ech.1_5
 62
   252
440
 33554687
370
     5
100
AcDbHatch
 10
0.0
 20
0.0
 30
0.0
210
0.0
220
0.0
230
1.0
  2
SOLID
 70
     1
 71
     1
 91
        1
 92
        3
 72
     0
 73
     1
 93
        4
 10
167.3804844174477
 20
-2921.864576799534
 10
167.7138180170144
 20
-2921.864576799532
 10
167.7138180170151
 20
-2920.960687999517
 10
167.380484417447
 20
-2920.960687999515
 97
        0
 75
     0
 76
     1
 98
        0
  0
LWPOLYLINE
  5
312
330
1F
100
AcDbEntity
  8
Ech.1_5
 62
     7
370
     9
100
AcDbPolyline
 90
        5
 70
     0
 43
0.0
 10
167.3804844174477
 20
-2921.864576799534
 10
167.7138180170144
 20
-2921.864576799532
 10
167.7138180170151
 20
-2920.960687999517
 10
167.380484417447
 20
-2920.960687999515
 10
167.3804844174477
 20
-2921.864576799534
  0
HATCH
  5
313
330
1F
100
AcDbEntity
  8
Ech.1_5
 62
   252
440
 33554687
370
     5
100
AcDbHatch
 10
0.0
 20
0.0
 30
0.0
210
0.0
220
0.0
230
1.0
  2
SOLID
 70
     1
 71
     1
 91
        1
 92
        3
 72
     0
 73
     1
 93
        4
 10
167.7138180170144
 20
-2921.864576799532
 10
168.0471516165825
 20
-2921.864576799537
 10
168.0471516165825
 20
-2920.960687999518
 10
167.7138180170151
 20
-2920.960687999517
 97
        0
 75
     0
 76
     1
 98
        0
  0
LWPOLYLINE
  5
314
330
1F
100
AcDbEntity
  8
Ech.1_5
 62
     7
370
     9
100
AcDbPolyline
 90
        5
 70
     0
 43
0.0
 10
167.7138180170144
 20
-2921.864576799532
 10
168.0471516165825
 20
-2921.864576799537
 10
168.0471516165825
 20
-2920.960687999518
 10
167.7138180170151
 20
-2920.960687999517
 10
167.7138180170144
 20
-2921.864576799532
  0
HATCH
  5
315
330
1F
100
AcDbEntity
  8
Ech.1_5
 62
   252
440
 33554687
370
     5
100
AcDbHatch
 10
0.0
 20
0.0
 30
0.0
210
0.0
220
0.0
230
1.0
  2
SOLID
 70
     1
 71
     1
 91
        1
 92
        3
 72
     0
 73
     1
 93
        4
 10
168.0471516165825
 20
-2921.864576799537
 10
168.3804852161499
 20
-2921.864576799535
 10
168.3804852161492
 20
-2920.960687999515
 10
168.0471516165825
 20
-2920.960687999518
 97
        0
 75
     0
 76
     1
 98
        0
  0
LWPOLYLINE
  5
316
330
1F
100
AcDbEntity
  8
Ech.1_5
 62
     7
370
     9
100
AcDbPolyline
 90
        5
 70
     0
 43
0.0
 10
168.0471516165825
 20
-2921.864576799537
 10
168.3804852161499
 20
-2921.864576799535
 10
168.3804852161492
 20
-2920.960687999515
 10
168.0471516165825
 20
-2920.960687999518
 10
168.0471516165825
 20
-2921.864576799537
  0
HATCH
  5
317
330
1F
100
AcDbEntity
  8
Ech.1_5
 62
   252
440
 33554687
370
     5
100
AcDbHatch
 10
0.0
 20
0.0
 30
0.0
210
0.0
220
0.0
230
1.0
  2
SOLID
 70
     1
 71
     1
 91
        1
 92
        3
 72
     0
 73
     1
 93
        4
 10
168.3804852161499
 20
-2921.864576799535
 10
168.7138188157173
 20
-2921.864576799534
 10
168.7138188157173
 20
-2920.960687999517
 10
168.3804852161492
 20
-2920.960687999515
 97
        0
 75
     0
 76
     1
 98
        0
  0
LWPOLYLINE
  5
318
330
1F
100
AcDbEntity
  8
Ech.1_5
 62
     7
370
     9
100
AcDbPolyline
 90
        5
 70
     0
 43
0.0
 10
168.3804852161499
 20
-2921.864576799535
 10
168.7138188157173
 20
-2921.864576799534
 10
168.7138188157173
 20
-2920.960687999517
 10
168.3804852161492
 20
-2920.960687999515
 10
168.3804852161499
 20
-2921.864576799535
  0
LINE
  5
319
330
1F
100
AcDbEntity
  8
Ech.1_5
 62
   190
370
     9
100
AcDbLine
 10
169.0471516165825
 20
-2920.960687999515
 30
0.0
 11
169.0471516165825
 21
-2921.864576799534
 31
0.0
  0
HATCH
  5
31A
330
1F
100
AcDbEntity
  8
Ech.1_5
 62
   252
440
 33554687
370
     5
100
AcDbHatch
 10
0.0
 20
0.0
 30
0.0
210
0.0
220
0.0
230
1.0
  2
SOLID
 70
     1
 71
     1
 91
        1
 92
        3
 72
     0
 73
     1
 93
        4
 10
168.7138188157173
 20
-2921.864576799534
 10
169.047152415284
 20
-2921.864576799534
 10
169.0471524152848
 20
-2920.960687999515
 10
168.7138188157173
 20
-2920.960687999517
 97
        0
 75
     0
 76
     1
 98
        0
  0
LWPOLYLINE
  5
31B
330
1F
100
AcDbEntity
  8
Ech.1_5
 62
     7
370
     9
100
AcDbPolyline
 90
        5
 70
     0
 43
0.0
 10
168.7138188157173
 20
-2921.864576799534
 10
169.047152415284
 20
-2921.864576799534
 10
169.0471524152848
 20
-2920.960687999515
 10
168.7138188157173
 20
-2920.960687999517
 10
168.7138188157173
 20
-2921.864576799534
  0
HATCH
  5
31C
330
1F
100
AcDbEntity
  8
Ech.1_5
 62
   252
440
 33554687
370
     5
100
AcDbHatch
 10
0.0
 20
0.0
 30
0.0
210
0.0
220
0.0
230
1.0
  2
SOLID
 70
     1
 71
     1
 91
        1
 92
        3
 72
     0
 73
     1
 93
        4
 10
169.047152415284
 20
-2921.864576799534
 10
169.3804860148529
 20
-2921.864576799535
 10
169.3804860148514
 20
-2920.960687999512
 10
169.0471524152848
 20
-2920.960687999515
 97
        0
 75
     0
 76
     1
 98
        0
  0
LWPOLYLINE
  5
31D
330
1F
100
AcDbEntity
  8
Ech.1_5
 62
     7
370
     9
100
AcDbPolyline
 90
        5
 70
     0
 43
0.0
 10
169.047152415284
 20
-2921.864576799534
 10
169.3804860148529
 20
-2921.864576799535
 10
169.3804860148514
 20
-2920.960687999512
 10
169.0471524152848
 20
-2920.960687999515
 10
169.047152415284
 20
-2921.864576799534
  0
LINE
  5
31E
330
1F
100
AcDbEntity
  8
Ech.1_5
 62
   190
370
     9
100
AcDbLine
 10
169.7138180170144
 20
-2920.960687999517
 30
0.0
 11
169.7138180170151
 21
-2921.864576799534
 31
0.0
  0
LINE
  5
31F
330
1F
100
AcDbEntity
  8
Ech.1_5
 62
   190
370
     9
100
AcDbLine
 10
169.3804852161499
 20
-2920.960687999512
 30
0.0
 11
169.3804852161492
 21
-2921.864576799535
 31
0.0
  0
HATCH
  5
320
330
1F
100
AcDbEntity
  8
Ech.1_5
 62
   252
440
 33554687
370
     5
100
AcDbHatch
 10
0.0
 20
0.0
 30
0.0
210
0.0
220
0.0
230
1.0
  2
SOLID
 70
     1
 71
     1
 91
        1
 92
        3
 72
     0
 73
     1
 93
        4
 10
169.3804844174477
 20
-2921.864576799535
 10
169.7138180170151
 20
-2921.864576799534
 10
169.7138180170144
 20
-2920.960687999517
 10
169.380484417447
 20
-2920.960687999512
 97
        0
 75
     0
 76
     1
 98
        0
  0
LWPOLYLINE
  5
321
330
1F
100
AcDbEntity
  8
Ech.1_5
 62
     7
370
     9
100
AcDbPolyline
 90
        5
 70
     0
 43
0.0
 10
169.3804844174477
 20
-2921.864576799535
 10
169.7138180170151
 20
-2921.864576799534
 10
169.7138180170144
 20
-2920.960687999517
 10
169.380484417447
 20
-2920.960687999512
 10
169.3804844174477
 20
-2921.864576799535
  0
HATCH
  5
322
330
1F
100
AcDbEntity
  8
Ech.1_5
 62
   252
440
 33554687
370
     5
100
AcDbHatch
 10
0.0
 20
0.0
 30
0.0
210
0.0
220
0.0
230
1.0
  2
SOLID
 70
     1
 71
     1
 91
        1
 92
        3
 72
     0
 73
     1
 93
        4
 10
169.7138180170151
 20
-2921.864576799534
 10
170.0471516165825
 20
-2921.864576799534
 10
170.0471516165818
 20
-2920.960687999515
 10
169.7138180170144
 20
-2920.960687999514
 97
        0
 75
     0
 76
     1
 98
        0
  0
LWPOLYLINE
  5
323
330
1F
100
AcDbEntity
  8
Ech.1_5
 62
     7
370
     9
100
AcDbPolyline
 90
        5
 70
     0
 43
0.0
 10
169.7138180170151
 20
-2921.864576799534
 10
170.0471516165825
 20
-2921.864576799534
 10
170.0471516165818
 20
-2920.960687999515
 10
169.7138180170144
 20
-2920.960687999514
 10
169.7138180170151
 20
-2921.864576799534
  0
HATCH
  5
324
330
1F
100
AcDbEntity
  8
Ech.1_5
 62
   252
440
 33554687
370
     5
100
AcDbHatch
 10
0.0
 20
0.0
 30
0.0
210
0.0
220
0.0
230
1.0
  2
SOLID
 70
     1
 71
     1
 91
        1
 92
        3
 72
     0
 73
     1
 93
        4
 10
170.0471516165825
 20
-2921.864576799534
 10
170.3804852161499
 20
-2921.864576799532
 10
170.3804852161499
 20
-2920.960687999512
 10
170.0471516165818
 20
-2920.960687999515
 97
        0
 75
     0
 76
     1
 98
        0
  0
LWPOLYLINE
  5
325
330
1F
100
AcDbEntity
  8
Ech.1_5
 62
     7
370
     9
100
AcDbPolyline
 90
        5
 70
     0
 43
0.0
 10
170.0471516165825
 20
-2921.864576799534
 10
170.3804852161499
 20
-2921.864576799532
 10
170.3804852161499
 20
-2920.960687999512
 10
170.0471516165818
 20
-2920.960687999515
 10
170.0471516165825
 20
-2921.864576799534
  0
LINE
  5
326
330
1F
100
AcDbEntity
  8
Ech.1_5
 62
   190
370
     9
100
AcDbLine
 10
172.0471512172321
 20
-2920.960687999514
 30
0.0
 11
172.0471512172314
 21
-2921.864576799532
 31
0.0
  0
LINE
  5
327
330
1F
100
AcDbEntity
  8
Ech.1_5
 62
   190
370
     9
100
AcDbLine
 10
172.380484417447
 20
-2920.960687999514
 30
0.0
 11
172.3804844174477
 21
-2921.864576799529
 31
0.0
  0
LINE
  5
328
330
1F
100
AcDbEntity
  8
Ech.1_5
 62
   190
370
     9
100
AcDbLine
 10
171.7138180170158
 20
-2920.960687999512
 30
0.0
 11
171.7138180170144
 21
-2921.864576799531
 31
0.0
  0
LINE
  5
329
330
1F
100
AcDbEntity
  8
Ech.1_5
 62
   190
370
     9
100
AcDbLine
 10
171.3804844174477
 20
-2920.960687999511
 30
0.0
 11
171.380484417447
 21
-2921.864576799529
 31
0.0
  0
LINE
  5
32A
330
1F
100
AcDbEntity
  8
Ech.1_5
 62
   190
370
     9
100
AcDbLine
 10
171.0471512172321
 20
-2920.960687999514
 30
0.0
 11
171.0471512172321
 21
-2921.864576799532
 31
0.0
  0
LINE
  5
32B
330
1F
100
AcDbEntity
  8
Ech.1_5
 62
   190
370
     9
100
AcDbLine
 10
170.7138180170151
 20
-2920.960687999515
 30
0.0
 11
170.7138180170158
 21
-2921.864576799531
 31
0.0
  0
HATCH
  5
32C
330
1F
100
AcDbEntity
  8
Ech.1_5
 62
   252
440
 33554687
370
     5
100
AcDbHatch
 10
0.0
 20
0.0
 30
0.0
210
0.0
220
0.0
230
1.0
  2
SOLID
 70
     1
 71
     1
 91
        1
 92
        3
 72
     0
 73
     1
 93
        4
 10
170.3804852161499
 20
-2921.864576799532
 10
170.7138188157173
 20
-2921.864576799531
 10
170.7138188157181
 20
-2920.960687999515
 10
170.3804852161499
 20
-2920.960687999511
 97
        0
 75
     0
 76
     1
 98
        0
  0
LWPOLYLINE
  5
32D
330
1F
100
AcDbEntity
  8
Ech.1_5
 62
     7
370
     9
100
AcDbPolyline
 90
        5
 70
     0
 43
0.0
 10
170.3804852161499
 20
-2921.864576799532
 10
170.7138188157173
 20
-2921.864576799531
 10
170.7138188157181
 20
-2920.960687999515
 10
170.3804852161499
 20
-2920.960687999511
 10
170.3804852161499
 20
-2921.864576799532
  0
HATCH
  5
32E
330
1F
100
AcDbEntity
  8
Ech.1_5
 62
   252
440
 33554687
370
     5
100
AcDbHatch
 10
0.0
 20
0.0
 30
0.0
210
0.0
220
0.0
230
1.0
  2
SOLID
 70
     1
 71
     1
 91
        1
 92
        3
 72
     0
 73
     1
 93
        4
 10
170.7138188157173
 20
-2921.864576799531
 10
171.0471524152855
 20
-2921.864576799532
 10
171.0471524152848
 20
-2920.960687999514
 10
170.7138188157181
 20
-2920.960687999515
 97
        0
 75
     0
 76
     1
 98
        0
  0
LWPOLYLINE
  5
32F
330
1F
100
AcDbEntity
  8
Ech.1_5
 62
     7
370
     9
100
AcDbPolyline
 90
        5
 70
     0
 43
0.0
 10
170.7138188157173
 20
-2921.864576799531
 10
171.0471524152855
 20
-2921.864576799532
 10
171.0471524152848
 20
-2920.960687999514
 10
170.7138188157181
 20
-2920.960687999515
 10
170.7138188157173
 20
-2921.864576799531
  0
HATCH
  5
330
330
1F
100
AcDbEntity
  8
Ech.1_5
 62
   252
440
 33554687
370
     5
100
AcDbHatch
 10
0.0
 20
0.0
 30
0.0
210
0.0
220
0.0
230
1.0
  2
SOLID
 70
     1
 71
     1
 91
        1
 92
        3
 72
     0
 73
     1
 93
        4
 10
171.0471516165832
 20
-2921.864576799532
 10
171.3804852161506
 20
-2921.864576799529
 10
171.3804852161492
 20
-2920.960687999511
 10
171.0471516165825
 20
-2920.960687999514
 97
        0
 75
     0
 76
     1
 98
        0
  0
LWPOLYLINE
  5
331
330
1F
100
AcDbEntity
  8
Ech.1_5
 62
     7
370
     9
100
AcDbPolyline
 90
        5
 70
     0
 43
0.0
 10
171.0471516165832
 20
-2921.864576799532
 10
171.3804852161506
 20
-2921.864576799529
 10
171.3804852161492
 20
-2920.960687999511
 10
171.0471516165825
 20
-2920.960687999514
 10
171.0471516165832
 20
-2921.864576799532
  0
HATCH
  5
332
330
1F
100
AcDbEntity
  8
Ech.1_5
 62
   252
440
 33554687
370
     5
100
AcDbHatch
 10
0.0
 20
0.0
 30
0.0
210
0.0
220
0.0
230
1.0
  2
SOLID
 70
     1
 71
     1
 91
        1
 92
        3
 72
     0
 73
     1
 93
        4
 10
171.380484417447
 20
-2921.864576799529
 10
171.7138180170144
 20
-2921.864576799531
 10
171.7138180170158
 20
-2920.960687999512
 10
171.3804844174477
 20
-2920.960687999511
 97
        0
 75
     0
 76
     1
 98
        0
  0
LWPOLYLINE
  5
333
330
1F
100
AcDbEntity
  8
Ech.1_5
 62
     7
370
     9
100
AcDbPolyline
 90
        5
 70
     0
 43
0.0
 10
171.380484417447
 20
-2921.864576799529
 10
171.7138180170144
 20
-2921.864576799531
 10
171.7138180170158
 20
-2920.960687999512
 10
171.3804844174477
 20
-2920.960687999511
 10
171.380484417447
 20
-2921.864576799529
  0
HATCH
  5
334
330
1F
100
AcDbEntity
  8
Ech.1_5
 62
   252
440
 33554687
370
     5
100
AcDbHatch
 10
0.0
 20
0.0
 30
0.0
210
0.0
220
0.0
230
1.0
  2
SOLID
 70
     1
 71
     1
 91
        1
 92
        3
 72
     0
 73
     1
 93
        4
 10
171.7138180170144
 20
-2921.864576799531
 10
172.0471516165832
 20
-2921.864576799532
 10
172.0471516165825
 20
-2920.960687999514
 10
171.7138180170158
 20
-2920.960687999512
 97
        0
 75
     0
 76
     1
 98
        0
  0
LWPOLYLINE
  5
335
330
1F
100
AcDbEntity
  8
Ech.1_5
 62
     7
370
     9
100
AcDbPolyline
 90
        5
 70
     0
 43
0.0
 10
171.7138180170144
 20
-2921.864576799531
 10
172.0471516165832
 20
-2921.864576799532
 10
172.0471516165825
 20
-2920.960687999514
 10
171.7138180170158
 20
-2920.960687999512
 10
171.7138180170144
 20
-2921.864576799531
  0
HATCH
  5
336
330
1F
100
AcDbEntity
  8
Ech.1_5
 62
   252
440
 33554687
370
     5
100
AcDbHatch
 10
0.0
 20
0.0
 30
0.0
210
0.0
220
0.0
230
1.0
  2
SOLID
 70
     1
 71
     1
 91
        1
 92
        3
 72
     0
 73
     1
 93
        4
 10
172.0471516165832
 20
-2921.864576799532
 10
172.3804852161506
 20
-2921.864576799531
 10
172.3804852161492
 20
-2920.960687999511
 10
172.0471516165825
 20
-2920.960687999514
 97
        0
 75
     0
 76
     1
 98
        0
  0
LWPOLYLINE
  5
337
330
1F
100
AcDbEntity
  8
Ech.1_5
 62
     7
370
     9
100
AcDbPolyline
 90
        5
 70
     0
 43
0.0
 10
172.0471516165832
 20
-2921.864576799532
 10
172.3804852161506
 20
-2921.864576799531
 10
172.3804852161492
 20
-2920.960687999511
 10
172.0471516165825
 20
-2920.960687999514
 10
172.0471516165832
 20
-2921.864576799532
  0
HATCH
  5
338
330
1F
100
AcDbEntity
  8
Ech.1_5
 62
   252
440
 33554687
370
     5
100
AcDbHatch
 10
0.0
 20
0.0
 30
0.0
210
0.0
220
0.0
230
1.0
  2
SOLID
 70
     1
 71
     1
 91
        1
 92
        3
 72
     0
 73
     1
 93
        4
 10
172.3804852161506
 20
-2921.864576799531
 10
172.7138188157195
 20
-2921.864576799532
 10
172.7138188157181
 20
-2920.960687999509
 10
172.3804852161514
 20
-2920.960687999512
 97
        0
 75
     0
 76
     1
 98
        0
  0
LWPOLYLINE
  5
339
330
1F
100
AcDbEntity
  8
Ech.1_5
 62
     7
370
     9
100
AcDbPolyline
 90
        5
 70
     0
 43
0.0
 10
172.3804852161506
 20
-2921.864576799531
 10
172.7138188157195
 20
-2921.864576799532
 10
172.7138188157181
 20
-2920.960687999509
 10
172.3804852161514
 20
-2920.960687999512
 10
172.3804852161506
 20
-2921.864576799531
  0
LINE
  5
33A
330
1F
100
AcDbEntity
  8
Ech.1_5
 62
   190
370
     9
100
AcDbLine
 10
173.047150817881
 20
-2920.960687999514
 30
0.0
 11
173.0471508178817
 21
-2921.864576799531
 31
0.0
  0
LINE
  5
33B
330
1F
100
AcDbEntity
  8
Ech.1_5
 62
   190
370
     9
100
AcDbLine
 10
172.7138180170166
 20
-2920.960687999509
 30
0.0
 11
172.7138180170158
 21
-2921.864576799532
 31
0.0
  0
HATCH
  5
33C
330
1F
100
AcDbEntity
  8
Ech.1_5
 62
   252
440
 33554687
370
     5
100
AcDbHatch
 10
0.0
 20
0.0
 30
0.0
210
0.0
220
0.0
230
1.0
  2
SOLID
 70
     1
 71
     1
 91
        1
 92
        3
 72
     0
 73
     1
 93
        4
 10
172.7138172183143
 20
-2921.864576799532
 10
173.0471508178817
 20
-2921.864576799531
 10
173.047150817881
 20
-2920.960687999514
 10
172.7138172183136
 20
-2920.960687999509
 97
        0
 75
     0
 76
     1
 98
        0
  0
LWPOLYLINE
  5
33D
330
1F
100
AcDbEntity
  8
Ech.1_5
 62
     7
370
     9
100
AcDbPolyline
 90
        5
 70
     0
 43
0.0
 10
172.7138172183143
 20
-2921.864576799532
 10
173.0471508178817
 20
-2921.864576799531
 10
173.047150817881
 20
-2920.960687999514
 10
172.7138172183136
 20
-2920.960687999509
 10
172.7138172183143
 20
-2921.864576799532
  0
HATCH
  5
33E
330
1F
100
AcDbEntity
  8
Ech.1_5
 62
   252
440
 33554687
370
     5
100
AcDbHatch
 10
0.0
 20
0.0
 30
0.0
210
0.0
220
0.0
230
1.0
  2
SOLID
 70
     1
 71
     1
 91
        1
 92
        3
 72
     0
 73
     1
 93
        4
 10
173.0471508178817
 20
-2921.864576799531
 10
173.3804844174491
 20
-2921.864576799531
 10
173.3804844174484
 20
-2920.960687999512
 10
173.047150817881
 20
-2920.960687999511
 97
        0
 75
     0
 76
     1
 98
        0
  0
LWPOLYLINE
  5
33F
330
1F
100
AcDbEntity
  8
Ech.1_5
 62
     7
370
     9
100
AcDbPolyline
 90
        5
 70
     0
 43
0.0
 10
173.0471508178817
 20
-2921.864576799531
 10
173.3804844174491
 20
-2921.864576799531
 10
173.3804844174484
 20
-2920.960687999512
 10
173.047150817881
 20
-2920.960687999511
 10
173.0471508178817
 20
-2921.864576799531
  0
HATCH
  5
340
330
1F
100
AcDbEntity
  8
Ech.1_5
 62
   252
440
 33554687
370
     5
100
AcDbHatch
 10
0.0
 20
0.0
 30
0.0
210
0.0
220
0.0
230
1.0
  2
SOLID
 70
     1
 71
     1
 91
        1
 92
        3
 72
     0
 73
     1
 93
        4
 10
173.3804844174491
 20
-2921.864576799531
 10
173.7138180170166
 20
-2921.864576799529
 10
173.7138180170166
 20
-2920.960687999509
 10
173.3804844174484
 20
-2920.960687999512
 97
        0
 75
     0
 76
     1
 98
        0
  0
LWPOLYLINE
  5
341
330
1F
100
AcDbEntity
  8
Ech.1_5
 62
     7
370
     9
100
AcDbPolyline
 90
        5
 70
     0
 43
0.0
 10
173.3804844174491
 20
-2921.864576799531
 10
173.7138180170166
 20
-2921.864576799529
 10
173.7138180170166
 20
-2920.960687999509
 10
173.3804844174484
 20
-2920.960687999512
 10
173.3804844174491
 20
-2921.864576799531
  0
LINE
  5
342
330
1F
100
AcDbEntity
  8
Ech.1_5
 62
   190
370
     9
100
AcDbLine
 10
175.3804840180987
 20
-2920.960687999511
 30
0.0
 11
175.380484018098
 21
-2921.864576799529
 31
0.0
  0
LINE
  5
343
330
1F
100
AcDbEntity
  8
Ech.1_5
 62
   190
370
     9
100
AcDbLine
 10
175.0471508178825
 20
-2920.960687999509
 30
0.0
 11
175.047150817881
 21
-2921.864576799528
 31
0.0
  0
LINE
  5
344
330
1F
100
AcDbEntity
  8
Ech.1_5
 62
   190
370
     9
100
AcDbLine
 10
174.7138172183143
 20
-2920.960687999508
 30
0.0
 11
174.7138172183136
 21
-2921.864576799526
 31
0.0
  0
LINE
  5
345
330
1F
100
AcDbEntity
  8
Ech.1_5
 62
   190
370
     9
100
AcDbLine
 10
174.3804840180987
 20
-2920.960687999511
 30
0.0
 11
174.3804840180987
 21
-2921.864576799529
 31
0.0
  0
LINE
  5
346
330
1F
100
AcDbEntity
  8
Ech.1_5
 62
   190
370
     9
100
AcDbLine
 10
174.0471508178817
 20
-2920.960687999512
 30
0.0
 11
174.0471508178825
 21
-2921.864576799528
 31
0.0
  0
HATCH
  5
347
330
1F
100
AcDbEntity
  8
Ech.1_5
 62
   252
440
 33554687
370
     5
100
AcDbHatch
 10
0.0
 20
0.0
 30
0.0
210
0.0
220
0.0
230
1.0
  2
SOLID
 70
     1
 71
     1
 91
        1
 92
        3
 72
     0
 73
     1
 93
        4
 10
173.7138180170166
 20
-2921.864576799529
 10
174.047151616584
 20
-2921.864576799528
 10
174.0471516165847
 20
-2920.960687999512
 10
173.7138180170166
 20
-2920.960687999508
 97
        0
 75
     0
 76
     1
 98
        0
  0
LWPOLYLINE
  5
348
330
1F
100
AcDbEntity
  8
Ech.1_5
 62
     7
370
     9
100
AcDbPolyline
 90
        5
 70
     0
 43
0.0
 10
173.7138180170166
 20
-2921.864576799529
 10
174.047151616584
 20
-2921.864576799528
 10
174.0471516165847
 20
-2920.960687999512
 10
173.7138180170166
 20
-2920.960687999508
 10
173.7138180170166
 20
-2921.864576799529
  0
HATCH
  5
349
330
1F
100
AcDbEntity
  8
Ech.1_5
 62
   252
440
 33554687
370
     5
100
AcDbHatch
 10
0.0
 20
0.0
 30
0.0
210
0.0
220
0.0
230
1.0
  2
SOLID
 70
     1
 71
     1
 91
        1
 92
        3
 72
     0
 73
     1
 93
        4
 10
174.047151616584
 20
-2921.864576799528
 10
174.3804852161521
 20
-2921.864576799529
 10
174.3804852161514
 20
-2920.960687999511
 10
174.0471516165847
 20
-2920.960687999512
 97
        0
 75
     0
 76
     1
 98
        0
  0
LWPOLYLINE
  5
34A
330
1F
100
AcDbEntity
  8
Ech.1_5
 62
     7
370
     9
100
AcDbPolyline
 90
        5
 70
     0
 43
0.0
 10
174.047151616584
 20
-2921.864576799528
 10
174.3804852161521
 20
-2921.864576799529
 10
174.3804852161514
 20
-2920.960687999511
 10
174.0471516165847
 20
-2920.960687999512
 10
174.047151616584
 20
-2921.864576799528
  0
HATCH
  5
34B
330
1F
100
AcDbEntity
  8
Ech.1_5
 62
   252
440
 33554687
370
     5
100
AcDbHatch
 10
0.0
 20
0.0
 30
0.0
210
0.0
220
0.0
230
1.0
  2
SOLID
 70
     1
 71
     1
 91
        1
 92
        3
 72
     0
 73
     1
 93
        4
 10
174.3804844174499
 20
-2921.864576799529
 10
174.7138180170173
 20
-2921.864576799526
 10
174.7138180170158
 20
-2920.960687999508
 10
174.3804844174491
 20
-2920.960687999511
 97
        0
 75
     0
 76
     1
 98
        0
  0
LWPOLYLINE
  5
34C
330
1F
100
AcDbEntity
  8
Ech.1_5
 62
     7
370
     9
100
AcDbPolyline
 90
        5
 70
     0
 43
0.0
 10
174.3804844174499
 20
-2921.864576799529
 10
174.7138180170173
 20
-2921.864576799526
 10
174.7138180170158
 20
-2920.960687999508
 10
174.3804844174491
 20
-2920.960687999511
 10
174.3804844174499
 20
-2921.864576799529
  0
HATCH
  5
34D
330
1F
100
AcDbEntity
  8
Ech.1_5
 62
   252
440
 33554687
370
     5
100
AcDbHatch
 10
0.0
 20
0.0
 30
0.0
210
0.0
220
0.0
230
1.0
  2
SOLID
 70
     1
 71
     1
 91
        1
 92
        3
 72
     0
 73
     1
 93
        4
 10
174.7138172183136
 20
-2921.864576799526
 10
175.047150817881
 20
-2921.864576799528
 10
175.0471508178825
 20
-2920.960687999509
 10
174.7138172183143
 20
-2920.960687999508
 97
        0
 75
     0
 76
     1
 98
        0
  0
LWPOLYLINE
  5
34E
330
1F
100
AcDbEntity
  8
Ech.1_5
 62
     7
370
     9
100
AcDbPolyline
 90
        5
 70
     0
 43
0.0
 10
174.7138172183136
 20
-2921.864576799526
 10
175.047150817881
 20
-2921.864576799528
 10
175.0471508178825
 20
-2920.960687999509
 10
174.7138172183143
 20
-2920.960687999508
 10
174.7138172183136
 20
-2921.864576799526
  0
HATCH
  5
34F
330
1F
100
AcDbEntity
  8
Ech.1_5
 62
   252
440
 33554687
370
     5
100
AcDbHatch
 10
0.0
 20
0.0
 30
0.0
210
0.0
220
0.0
230
1.0
  2
SOLID
 70
     1
 71
     1
 91
        1
 92
        3
 72
     0
 73
     1
 93
        4
 10
175.047150817881
 20
-2921.864576799528
 10
175.3804844174499
 20
-2921.864576799529
 10
175.3804844174491
 20
-2920.960687999511
 10
175.0471508178825
 20
-2920.960687999509
 97
        0
 75
     0
 76
     1
 98
        0
  0
LWPOLYLINE
  5
350
330
1F
100
AcDbEntity
  8
Ech.1_5
 62
     7
370
     9
100
AcDbPolyline
 90
        5
 70
     0
 43
0.0
 10
175.047150817881
 20
-2921.864576799528
 10
175.3804844174499
 20
-2921.864576799529
 10
175.3804844174491
 20
-2920.960687999511
 10
175.0471508178825
 20
-2920.960687999509
 10
175.047150817881
 20
-2921.864576799528
  0
HATCH
  5
351
330
1F
100
AcDbEntity
  8
Ech.1_5
 62
   252
440
 33554687
370
     5
100
AcDbHatch
 10
0.0
 20
0.0
 30
0.0
210
0.0
220
0.0
230
1.0
  2
SOLID
 70
     1
 71
     1
 91
        1
 92
        3
 72
     0
 73
     1
 93
        4
 10
175.3804844174499
 20
-2921.864576799529
 10
175.7138180170173
 20
-2921.864576799528
 10
175.7138180170158
 20
-2920.960687999508
 10
175.3804844174491
 20
-2920.960687999511
 97
        0
 75
     0
 76
     1
 98
        0
  0
LWPOLYLINE
  5
352
330
1F
100
AcDbEntity
  8
Ech.1_5
 62
     7
370
     9
100
AcDbPolyline
 90
        5
 70
     0
 43
0.0
 10
175.3804844174499
 20
-2921.864576799529
 10
175.7138180170173
 20
-2921.864576799528
 10
175.7138180170158
 20
-2920.960687999508
 10
175.3804844174491
 20
-2920.960687999511
 10
175.3804844174499
 20
-2921.864576799529
  0
HATCH
  5
353
330
1F
100
AcDbEntity
  8
Ech.1_5
 62
   252
440
 33554687
370
     5
100
AcDbHatch
 10
0.0
 20
0.0
 30
0.0
210
0.0
220
0.0
230
1.0
  2
SOLID
 70
     1
 71
     1
 91
        1
 92
        3
 72
     0
 73
     1
 93
        4
 10
175.7138180170173
 20
-2921.864576799528
 10
176.0471516165847
 20
-2921.864576799526
 10
176.0471516165832
 20
-2920.960687999506
 10
175.7138180170166
 20
-2920.960687999509
 97
        0
 75
     0
 76
     1
 98
        0
  0
LWPOLYLINE
  5
354
330
1F
100
AcDbEntity
  8
Ech.1_5
 62
     7
370
     9
100
AcDbPolyline
 90
        5
 70
     0
 43
0.0
 10
175.7138180170173
 20
-2921.864576799528
 10
176.0471516165847
 20
-2921.864576799526
 10
176.0471516165832
 20
-2920.960687999506
 10
175.7138180170166
 20
-2920.960687999509
 10
175.7138180170173
 20
-2921.864576799528
  0
HATCH
  5
355
330
1F
100
AcDbEntity
  8
Ech.1_5
 62
    35
420
  9529928
440
 33554687
370
    20
100
AcDbHatch
 10
0.0
 20
0.0
 30
0.0
210
0.0
220
0.0
230
1.0
  2
SOLID
 70
     1
 71
     1
 91
        1
 92
        3
 72
     0
 73
     1
 93
        5
 10
178.8134649286673
 20
-2871.422880394183
 10
191.6138168187935
 20
-2871.422880394183
 10
191.6134789160365
 20
-2728.956295240045
 10
189.2142625884647
 20
-2728.956295240045
 10
178.8134789160358
 20
-2728.956295240045
 97
        0
 75
     0
 76
     1
 98
        0
  0
LWPOLYLINE
  5
356
330
1F
100
AcDbEntity
  8
Ech.1_5
 62
   190
370
    20
100
AcDbPolyline
 90
        6
 70
     0
 43
0.0
 10
178.8134649286673
 20
-2871.422880394183
 10
191.6138168187935
 20
-2871.422880394183
 10
191.6134789160365
 20
-2728.956295240045
 10
189.2142625884647
 20
-2728.956295240045
 10
178.8134789160358
 20
-2728.956295240045
 10
178.8134649286673
 20
-2871.422880394183
  0
HATCH
  5
357
330
1F
100
AcDbEntity
  8
Ech.1_5
 62
    17
420
  8405056
440
 33554687
370
    20
100
AcDbHatch
 10
0.0
 20
0.0
 30
0.0
210
0.0
220
0.0
230
1.0
  2
SOLID
 70
     1
 71
     1
 91
        1
 92
        3
 72
     0
 73
     1
 93
        4
 10
166.0134789160358
 20
-2728.956295240045
 10
150.0134789160365
 20
-2728.956275174711
 10
150.0134789160365
 20
-2871.422880394183
 10
166.0134789160358
 20
-2871.422880394183
 97
        0
 75
     0
 76
     1
 98
        0
  0
LWPOLYLINE
  5
358
330
1F
100
AcDbEntity
  8
Ech.1_5
 62
     7
370
    20
100
AcDbPolyline
 90
        5
 70
     0
 43
0.0
 10
166.0134789160358
 20
-2728.956295240045
 10
150.0134789160365
 20
-2728.956275174711
 10
150.0134789160365
 20
-2871.422880394183
 10
166.0134789160358
 20
-2871.422880394183
 10
166.0134789160358
 20
-2728.956295240045
  0
HATCH
  5
359
330
1F
100
AcDbEntity
  8
Ech.1_5
 62
    35
420
  9529928
440
 33554687
370
    20
100
AcDbHatch
 10
0.0
 20
0.0
 30
0.0
210
0.0
220
0.0
230
1.0
  2
SOLID
 70
     1
 71
     1
 91
        1
 92
        3
 72
     0
 73
     1
 93
        4
 10
166.0134789160358
 20
-2858.622880394183
 10
166.0134789160358
 20
-2871.422880394183
 10
178.8134789160358
 20
-2871.422880394183
 10
178.8134789160358
 20
-2851.232850553114
 97
        0
 75
     0
 76
     1
 98
        0
  0
LWPOLYLINE
  5
35A
330
1F
100
AcDbEntity
  8
Ech.1_5
 62
   190
370
    20
100
AcDbPolyline
 90
        5
 70
     0
 43
0.0
 10
166.0134789160358
 20
-2858.622880394183
 10
166.0134789160358
 20
-2871.422880394183
 10
178.8134789160358
 20
-2871.422880394183
 10
178.8134789160358
 20
-2851.232850553114
 10
166.0134789160358
 20
-2858.622880394183
  0
LWPOLYLINE
  5
35B
330
1F
100
AcDbEntity
  8
Ech.1_5
 62
   190
370
    20
100
AcDbPolyline
 90
        4
 70
     0
 43
0.0
 10
178.8134789160358
 20
-2851.232850553114
 10
166.0134789160358
 20
-2871.422880394183
 10
178.8134789160358
 20
-2871.422880394183
 10
166.0134789160358
 20
-2858.622925718657
  0
LWPOLYLINE
  5
35C
330
1F
100
AcDbEntity
  8
Ech.1_5
 62
     5
370
    40
100
AcDbPolyline
 90
        5
 70
     0
 43
0.0
 10
166.0134789160358
 20
-2858.622925718657
 10
166.0134789160358
 20
-2871.422880394183
 10
178.8134789160358
 20
-2871.422880394183
 10
178.8134789160358
 20
-2851.232850553114
 10
166.0134789160358
 20
-2858.622925718657
  0
LINE
  5
35D
330
1F
100
AcDbEntity
  8
Ech.1_5
 62
   190
370
     9
100
AcDbLine
 10
149.6690345159637
 20
-2864.01540305641
 30
0.0
 11
149.6690345159637
 21
-2866.030403056401
 31
0.0
  0
LINE
  5
35E
330
1F
100
AcDbEntity
  8
Ech.1_5
 62
   190
370
     9
100
AcDbLine
 10
149.7912565163242
 20
-2866.030403056399
 30
0.0
 11
149.6690345159637
 21
-2866.030403056401
 31
0.0
  0
ARC
  5
35F
330
1F
100
AcDbEntity
  8
Ech.1_5
 62
   190
370
     9
100
AcDbCircle
 10
154.6943158722904
 20
-2865.022903056416
 30
0.0
 40
5.125281356326651
100
AcDbArc
 50
168.6632793503058
 51
191.3367206496942
  0
LINE
  5
360
330
1F
100
AcDbEntity
  8
Ech.1_5
 62
   190
370
     9
100
AcDbLine
 10
149.7912565163271
 20
-2864.015403056409
 30
0.0
 11
149.7912565163242
 21
-2864.348736256389
 31
0.0
  0
ARC
  5
361
330
1F
100
AcDbEntity
  8
Ech.1_5
 62
   190
370
     9
100
AcDbCircle
 10
150.013478912285
 20
-2864.348736260447
 30
0.0
 40
0.2222223959608207
100
AcDbArc
 50
179.9999989536799
 51
270.0000009670752
  0
LINE
  5
362
330
1F
100
AcDbEntity
  8
Ech.1_5
 62
   190
370
     9
100
AcDbLine
 10
149.7912565163242
 20
-2864.348736256389
 30
0.0
 11
149.7912565163242
 21
-2865.697069856416
 31
0.0
  0
ARC
  5
363
330
1F
100
AcDbEntity
  8
Ech.1_5
 62
   190
370
     9
100
AcDbCircle
 10
150.0134789122383
 20
-2865.69706985234
 30
0.0
 40
0.2222223959140485
100
AcDbArc
 50
89.99999902068711
 51
180.0000010508927
  0
LINE
  5
364
330
1F
100
AcDbEntity
  8
Ech.1_5
 62
   190
370
     9
100
AcDbLine
 10
149.7912565163242
 20
-2866.030403056399
 30
0.0
 11
149.7912565163242
 21
-2865.697069856416
 31
0.0
  0
LINE
  5
365
330
1F
100
AcDbEntity
  8
Ech.1_5
 62
   190
370
     9
100
AcDbLine
 10
150.713478516804
 20
-2864.570958656406
 30
0.0
 11
150.713478516804
 21
-2865.474847456426
 31
0.0
  0
LINE
  5
366
330
1F
100
AcDbEntity
  8
Ech.1_5
 62
   190
370
     9
100
AcDbLine
 10
149.7912565163271
 20
-2864.015403056409
 30
0.0
 11
149.6690345159637
 21
-2864.01540305641
 31
0.0
  0
HATCH
  5
367
330
1F
100
AcDbEntity
  8
Ech.1_5
 62
   252
440
 33554687
370
     5
100
AcDbHatch
 10
0.0
 20
0.0
 30
0.0
210
0.0
220
0.0
230
1.0
  2
SOLID
 70
     1
 71
     1
 91
        1
 92
        3
 72
     1
 73
     1
 93
        6
 10
150.713478516804
 20
-2865.474847456426
 42
0.0
 10
150.0134789160365
 20
-2865.474847456426
 42
0.4142135727511354
 10
149.7912565163242
 20
-2865.697069856416
 42
0.0
 10
149.7912565163242
 20
-2864.348736256389
 42
0.4142135726653289
 10
150.0134789160358
 20
-2864.570958656408
 42
0.0
 10
150.713478516804
 20
-2864.570958656406
 42
0.0
 97
        0
 75
     0
 76
     1
 98
        0
  0
LWPOLYLINE
  5
368
330
1F
100
AcDbEntity
  8
Ech.1_5
 62
     7
370
     9
100
AcDbPolyline
 90
        7
 70
     0
 43
0.0
 10
150.713478516804
 20
-2865.474847456426
 10
150.0134789160365
 20
-2865.474847456426
 42
0.4142135727520974
 10
149.7912565163242
 20
-2865.697069856416
 10
149.7912565163242
 20
-2864.348736256389
 42
0.4142135726650794
 10
150.0134789160358
 20
-2864.570958656408
 10
150.713478516804
 20
-2864.570958656406
 10
150.713478516804
 20
-2865.474847456426
  0
HATCH
  5
369
330
1F
100
AcDbEntity
  8
Ech.1_5
 62
   252
440
 33554687
370
     5
100
AcDbHatch
 10
0.0
 20
0.0
 30
0.0
210
0.0
220
0.0
230
1.0
  2
SOLID
 70
     1
 71
     1
 91
        1
 92
        1
 93
        2
 72
     1
 10
149.6690345159637
 20
-2866.03040306697
 11
149.6690345159637
 21
-2864.015403045863
 72
     2
 10
154.6943158722861
 20
-2865.022903056416
 40
5.125281356322474
 50
168.6632793502964
 51
191.3367206497036
 73
     1
 97
        0
 75
     0
 76
     1
 98
        0
  0
LWPOLYLINE
  5
36A
330
1F
100
AcDbEntity
  8
Ech.1_5
 62
     7
370
     9
100
AcDbPolyline
 90
        3
 70
     0
 43
0.0
 10
149.6690345159637
 20
-2866.03040306697
 10
149.6690345159637
 20
-2864.015403045863
 42
0.0992555820869331
 10
149.6690345159637
 20
-2866.03040306697
  0
HATCH
  5
36B
330
1F
100
AcDbEntity
  8
Ech.1_5
 62
   252
440
 33554687
370
     5
100
AcDbHatch
 10
0.0
 20
0.0
 30
0.0
210
0.0
220
0.0
230
1.0
  2
SOLID
 70
     1
 71
     1
 91
        1
 92
        3
 72
     0
 73
     1
 93
        6
 10
149.7912565163242
 20
-2866.030403056399
 10
149.7912565163242
 20
-2865.697069856416
 10
149.7912565163242
 20
-2864.348736256389
 10
149.7912565163271
 20
-2864.015403056409
 10
149.6690345159637
 20
-2864.015403045863
 10
149.6690345159637
 20
-2866.03040306697
 97
        0
 75
     0
 76
     1
 98
        0
  0
LWPOLYLINE
  5
36C
330
1F
100
AcDbEntity
  8
Ech.1_5
 62
     7
370
     9
100
AcDbPolyline
 90
        7
 70
     0
 43
0.0
 10
149.7912565163242
 20
-2866.030403056399
 10
149.7912565163242
 20
-2865.697069856416
 10
149.7912565163242
 20
-2864.348736256389
 10
149.7912565163271
 20
-2864.015403056409
 10
149.6690345159637
 20
-2864.015403045863
 10
149.6690345159637
 20
-2866.03040306697
 10
149.7912565163242
 20
-2866.030403056399
  0
LINE
  5
36D
330
1F
100
AcDbEntity
  8
Ech.1_5
 62
   190
370
     9
100
AcDbLine
 10
176.7264456706607
 20
-2864.570958712686
 30
0.0
 11
154.158774185316
 21
-2864.570958656425
 31
0.0
  0
LINE
  5
36E
330
1F
100
AcDbEntity
  8
Ech.1_5
 62
   190
370
     9
100
AcDbLine
 10
176.7264457157644
 20
-2865.474847524448
 30
0.0
 11
154.1587741853153
 21
-2865.474847456445
 31
0.0
  0
LINE
  5
36F
330
1F
100
AcDbEntity
  8
Ech.1_5
 62
   190
370
     9
100
AcDbLine
 10
154.0468121163722
 20
-2864.570958656405
 30
0.0
 11
154.0468121163707
 21
-2865.474847456424
 31
0.0
  0
LINE
  5
370
330
1F
100
AcDbEntity
  8
Ech.1_5
 62
   190
370
     9
100
AcDbLine
 10
154.3801453165885
 20
-2864.570958656409
 30
0.0
 11
154.3801453165877
 21
-2865.474847456425
 31
0.0
  0
LINE
  5
371
330
1F
100
AcDbEntity
  8
Ech.1_5
 62
   190
370
     9
100
AcDbLine
 10
153.0468121163715
 20
-2864.570958656405
 30
0.0
 11
153.0468121163729
 21
-2865.474847456426
 31
0.0
  0
LINE
  5
372
330
1F
100
AcDbEntity
  8
Ech.1_5
 62
   190
370
     9
100
AcDbLine
 10
153.3801453165892
 20
-2864.570958656409
 30
0.0
 11
153.3801453165877
 21
-2865.474847456425
 31
0.0
  0
LINE
  5
373
330
1F
100
AcDbEntity
  8
Ech.1_5
 62
   190
370
     9
100
AcDbLine
 10
153.7134785168048
 20
-2864.570958656408
 30
0.0
 11
153.713478516804
 21
-2865.474847456426
 31
0.0
  0
LINE
  5
374
330
1F
100
AcDbEntity
  8
Ech.1_5
 62
   190
370
     9
100
AcDbLine
 10
152.0468121163715
 20
-2864.570958656405
 30
0.0
 11
152.0468121163722
 21
-2865.474847456426
 31
0.0
  0
LINE
  5
375
330
1F
100
AcDbEntity
  8
Ech.1_5
 62
   190
370
     9
100
AcDbLine
 10
152.3801453165885
 20
-2864.570958656409
 30
0.0
 11
152.3801453165885
 21
-2865.474847456425
 31
0.0
  0
LINE
  5
376
330
1F
100
AcDbEntity
  8
Ech.1_5
 62
   190
370
     9
100
AcDbLine
 10
152.7134785168048
 20
-2864.570958656406
 30
0.0
 11
152.713478516804
 21
-2865.474847456426
 31
0.0
  0
LINE
  5
377
330
1F
100
AcDbEntity
  8
Ech.1_5
 62
   190
370
     9
100
AcDbLine
 10
151.713478516804
 20
-2864.570958656406
 30
0.0
 11
151.7134785168048
 21
-2865.474847456426
 31
0.0
  0
LINE
  5
378
330
1F
100
AcDbEntity
  8
Ech.1_5
 62
   190
370
     9
100
AcDbLine
 10
151.3801453165885
 20
-2864.570958656408
 30
0.0
 11
151.3801453165877
 21
-2865.474847456425
 31
0.0
  0
LINE
  5
379
330
1F
100
AcDbEntity
  8
Ech.1_5
 62
   190
370
     9
100
AcDbLine
 10
151.0468121163722
 20
-2864.570958656408
 30
0.0
 11
151.0468121163715
 21
-2865.474847456426
 31
0.0
  0
LINE
  5
37A
330
1F
100
AcDbEntity
  8
Ech.1_5
 62
   190
370
     9
100
AcDbLine
 10
164.713478516804
 20
-2864.570958656408
 30
0.0
 11
164.7134785168048
 21
-2865.474847456425
 31
0.0
  0
LINE
  5
37B
330
1F
100
AcDbEntity
  8
Ech.1_5
 62
   190
370
     9
100
AcDbLine
 10
164.3801453165885
 20
-2864.570958656405
 30
0.0
 11
164.3801453165885
 21
-2865.474847456426
 31
0.0
  0
LINE
  5
37C
330
1F
100
AcDbEntity
  8
Ech.1_5
 62
   190
370
     9
100
AcDbLine
 10
165.0468121163722
 20
-2864.570958656406
 30
0.0
 11
165.0468121163722
 21
-2865.474847456426
 31
0.0
  0
LINE
  5
37D
330
1F
100
AcDbEntity
  8
Ech.1_5
 62
   190
370
     9
100
AcDbLine
 10
163.3801453165877
 20
-2864.570958656408
 30
0.0
 11
163.3801453165885
 21
-2865.474847456426
 31
0.0
  0
LINE
  5
37E
330
1F
100
AcDbEntity
  8
Ech.1_5
 62
   190
370
     9
100
AcDbLine
 10
163.7134785168048
 20
-2864.570958656408
 30
0.0
 11
163.713478516804
 21
-2865.474847456425
 31
0.0
  0
LINE
  5
37F
330
1F
100
AcDbEntity
  8
Ech.1_5
 62
   190
370
     9
100
AcDbLine
 10
164.0468121163715
 20
-2864.570958656406
 30
0.0
 11
164.0468121163715
 21
-2865.474847456426
 31
0.0
  0
LINE
  5
380
330
1F
100
AcDbEntity
  8
Ech.1_5
 62
   190
370
     9
100
AcDbLine
 10
162.380145316587
 20
-2864.570958656408
 30
0.0
 11
162.3801453165885
 21
-2865.474847456426
 31
0.0
  0
LINE
  5
381
330
1F
100
AcDbEntity
  8
Ech.1_5
 62
   190
370
     9
100
AcDbLine
 10
162.713478516804
 20
-2864.570958656408
 30
0.0
 11
162.713478516804
 21
-2865.474847456425
 31
0.0
  0
LINE
  5
382
330
1F
100
AcDbEntity
  8
Ech.1_5
 62
   190
370
     9
100
AcDbLine
 10
163.0468121163715
 20
-2864.570958656406
 30
0.0
 11
163.0468121163722
 21
-2865.474847456426
 31
0.0
  0
LINE
  5
383
330
1F
100
AcDbEntity
  8
Ech.1_5
 62
   190
370
     9
100
AcDbLine
 10
161.3801453165885
 20
-2864.570958656408
 30
0.0
 11
161.3801453165877
 21
-2865.474847456426
 31
0.0
  0
LINE
  5
384
330
1F
100
AcDbEntity
  8
Ech.1_5
 62
   190
370
     9
100
AcDbLine
 10
161.7134785168033
 20
-2864.570958656408
 30
0.0
 11
161.713478516804
 21
-2865.474847456424
 31
0.0
  0
LINE
  5
385
330
1F
100
AcDbEntity
  8
Ech.1_5
 62
   190
370
     9
100
AcDbLine
 10
162.0468121163722
 20
-2864.570958656406
 30
0.0
 11
162.0468121163715
 21
-2865.474847456425
 31
0.0
  0
LINE
  5
386
330
1F
100
AcDbEntity
  8
Ech.1_5
 62
   190
370
     9
100
AcDbLine
 10
161.0468121163722
 20
-2864.570958656406
 30
0.0
 11
161.0468121163707
 21
-2865.474847456425
 31
0.0
  0
LINE
  5
387
330
1F
100
AcDbEntity
  8
Ech.1_5
 62
   190
370
     9
100
AcDbLine
 10
155.713478516804
 20
-2864.570958656408
 30
0.0
 11
155.7134785168048
 21
-2865.474847456426
 31
0.0
  0
LINE
  5
388
330
1F
100
AcDbEntity
  8
Ech.1_5
 62
   190
370
     9
100
AcDbLine
 10
156.0468121163707
 20
-2864.570958656408
 30
0.0
 11
156.0468121163715
 21
-2865.474847456425
 31
0.0
  0
LINE
  5
389
330
1F
100
AcDbEntity
  8
Ech.1_5
 62
   190
370
     9
100
AcDbLine
 10
156.3801453165877
 20
-2864.570958656406
 30
0.0
 11
156.3801453165885
 21
-2865.474847456429
 31
0.0
  0
LINE
  5
38A
330
1F
100
AcDbEntity
  8
Ech.1_5
 62
   190
370
     9
100
AcDbLine
 10
156.7134785168048
 20
-2864.570958656408
 30
0.0
 11
156.713478516804
 21
-2865.474847456426
 31
0.0
  0
LINE
  5
38B
330
1F
100
AcDbEntity
  8
Ech.1_5
 62
   190
370
     9
100
AcDbLine
 10
157.7134785168048
 20
-2864.570958656408
 30
0.0
 11
157.7134785168048
 21
-2865.474847456426
 31
0.0
  0
LINE
  5
38C
330
1F
100
AcDbEntity
  8
Ech.1_5
 62
   190
370
     9
100
AcDbLine
 10
157.3801453165885
 20
-2864.570958656406
 30
0.0
 11
157.3801453165877
 21
-2865.474847456426
 31
0.0
  0
LINE
  5
38D
330
1F
100
AcDbEntity
  8
Ech.1_5
 62
   190
370
     9
100
AcDbLine
 10
157.0468121163715
 20
-2864.570958656408
 30
0.0
 11
157.0468121163715
 21
-2865.474847456425
 31
0.0
  0
LINE
  5
38E
330
1F
100
AcDbEntity
  8
Ech.1_5
 62
   190
370
     9
100
AcDbLine
 10
158.713478516804
 20
-2864.570958656405
 30
0.0
 11
158.7134785168055
 21
-2865.474847456426
 31
0.0
  0
LINE
  5
38F
330
1F
100
AcDbEntity
  8
Ech.1_5
 62
   190
370
     9
100
AcDbLine
 10
158.3801453165877
 20
-2864.570958656406
 30
0.0
 11
158.3801453165885
 21
-2865.474847456426
 31
0.0
  0
LINE
  5
390
330
1F
100
AcDbEntity
  8
Ech.1_5
 62
   190
370
     9
100
AcDbLine
 10
158.0468121163722
 20
-2864.570958656408
 30
0.0
 11
158.0468121163715
 21
-2865.474847456425
 31
0.0
  0
LINE
  5
391
330
1F
100
AcDbEntity
  8
Ech.1_5
 62
   190
370
     9
100
AcDbLine
 10
159.713478516804
 20
-2864.570958656405
 30
0.0
 11
159.713478516804
 21
-2865.474847456424
 31
0.0
  0
LINE
  5
392
330
1F
100
AcDbEntity
  8
Ech.1_5
 62
   190
370
     9
100
AcDbLine
 10
159.3801453165885
 20
-2864.570958656406
 30
0.0
 11
159.3801453165885
 21
-2865.474847456426
 31
0.0
  0
LINE
  5
393
330
1F
100
AcDbEntity
  8
Ech.1_5
 62
   190
370
     9
100
AcDbLine
 10
159.0468121163715
 20
-2864.570958656409
 30
0.0
 11
159.0468121163722
 21
-2865.474847456425
 31
0.0
  0
LINE
  5
394
330
1F
100
AcDbEntity
  8
Ech.1_5
 62
   190
370
     9
100
AcDbLine
 10
160.713478516804
 20
-2864.570958656405
 30
0.0
 11
160.7134785168033
 21
-2865.474847456424
 31
0.0
  0
LINE
  5
395
330
1F
100
AcDbEntity
  8
Ech.1_5
 62
   190
370
     9
100
AcDbLine
 10
160.3801453165885
 20
-2864.570958656408
 30
0.0
 11
160.3801453165885
 21
-2865.474847456426
 31
0.0
  0
LINE
  5
396
330
1F
100
AcDbEntity
  8
Ech.1_5
 62
   190
370
     9
100
AcDbLine
 10
160.0468121163715
 20
-2864.570958656409
 30
0.0
 11
160.0468121163722
 21
-2865.474847456425
 31
0.0
  0
LINE
  5
397
330
1F
100
AcDbEntity
  8
Ech.1_5
 62
   190
370
     9
100
AcDbLine
 10
155.0468121163715
 20
-2864.570958656405
 30
0.0
 11
155.0468121163715
 21
-2865.474847456425
 31
0.0
  0
LINE
  5
398
330
1F
100
AcDbEntity
  8
Ech.1_5
 62
   190
370
     9
100
AcDbLine
 10
155.380145316587
 20
-2864.570958656406
 30
0.0
 11
155.3801453165877
 21
-2865.474847456425
 31
0.0
  0
LINE
  5
399
330
1F
100
AcDbEntity
  8
Ech.1_5
 62
   190
370
     9
100
AcDbLine
 10
155.713478516804
 20
-2864.570958656408
 30
0.0
 11
155.7134785168048
 21
-2865.474847456426
 31
0.0
  0
LINE
  5
39A
330
1F
100
AcDbEntity
  8
Ech.1_5
 62
   190
370
     9
100
AcDbLine
 10
154.7134785168048
 20
-2864.570958656408
 30
0.0
 11
154.713478516804
 21
-2865.474847456426
 31
0.0
  0
LINE
  5
39B
330
1F
100
AcDbEntity
  8
Ech.1_5
 62
   190
370
     9
100
AcDbLine
 10
177.7912565163182
 20
-2865.02290305642
 30
0.0
 11
176.7264457157659
 21
-2864.570958656425
 31
0.0
  0
ARC
  5
39C
330
1F
100
AcDbEntity
  8
Ech.1_5
 62
   190
370
     9
100
AcDbCircle
 10
177.2901862073674
 20
-2865.022903090437
 30
0.0
 40
0.7225351986620995
100
AcDbArc
 50
141.2812399139866
 51
218.7187600858275
  0
LINE
  5
39D
330
1F
100
AcDbEntity
  8
Ech.1_5
 62
   190
370
     9
100
AcDbLine
 10
177.7912565163182
 20
-2865.02290305642
 30
0.0
 11
176.7264457157659
 21
-2865.474847456444
 31
0.0
  0
HATCH
  5
39E
330
1F
100
AcDbEntity
  8
Ech.1_5
 62
   252
440
 33554687
370
     5
100
AcDbHatch
 10
0.0
 20
0.0
 30
0.0
210
0.0
220
0.0
230
1.0
  2
SOLID
 70
     1
 71
     1
 91
        1
 92
        3
 72
     0
 73
     1
 93
        4
 10
150.713478516804
 20
-2865.474847456426
 10
151.0468121163715
 20
-2865.474847456426
 10
151.0468121163722
 20
-2864.570958656408
 10
150.713478516804
 20
-2864.570958656406
 97
        0
 75
     0
 76
     1
 98
        0
  0
LWPOLYLINE
  5
39F
330
1F
100
AcDbEntity
  8
Ech.1_5
 62
     7
370
     9
100
AcDbPolyline
 90
        5
 70
     0
 43
0.0
 10
150.713478516804
 20
-2865.474847456426
 10
151.0468121163715
 20
-2865.474847456426
 10
151.0468121163722
 20
-2864.570958656408
 10
150.713478516804
 20
-2864.570958656406
 10
150.713478516804
 20
-2865.474847456426
  0
HATCH
  5
3A0
330
1F
100
AcDbEntity
  8
Ech.1_5
 62
   252
440
 33554687
370
     5
100
AcDbHatch
 10
0.0
 20
0.0
 30
0.0
210
0.0
220
0.0
230
1.0
  2
SOLID
 70
     1
 71
     1
 91
        1
 92
        3
 72
     0
 73
     1
 93
        4
 10
151.0468121163715
 20
-2865.474847456426
 10
151.3801457159396
 20
-2865.474847456425
 10
151.3801457159389
 20
-2864.570958656409
 10
151.0468121163722
 20
-2864.570958656408
 97
        0
 75
     0
 76
     1
 98
        0
  0
LWPOLYLINE
  5
3A1
330
1F
100
AcDbEntity
  8
Ech.1_5
 62
     7
370
     9
100
AcDbPolyline
 90
        5
 70
     0
 43
0.0
 10
151.0468121163715
 20
-2865.474847456426
 10
151.3801457159396
 20
-2865.474847456425
 10
151.3801457159389
 20
-2864.570958656409
 10
151.0468121163722
 20
-2864.570958656408
 10
151.0468121163715
 20
-2865.474847456426
  0
HATCH
  5
3A2
330
1F
100
AcDbEntity
  8
Ech.1_5
 62
   252
440
 33554687
370
     5
100
AcDbHatch
 10
0.0
 20
0.0
 30
0.0
210
0.0
220
0.0
230
1.0
  2
SOLID
 70
     1
 71
     1
 91
        1
 92
        3
 72
     0
 73
     1
 93
        4
 10
151.3801457159396
 20
-2865.474847456425
 10
151.713479315507
 20
-2865.474847456426
 10
151.7134793155055
 20
-2864.570958656408
 10
151.3801457159389
 20
-2864.570958656409
 97
        0
 75
     0
 76
     1
 98
        0
  0
LWPOLYLINE
  5
3A3
330
1F
100
AcDbEntity
  8
Ech.1_5
 62
     7
370
     9
100
AcDbPolyline
 90
        5
 70
     0
 43
0.0
 10
151.3801457159396
 20
-2865.474847456425
 10
151.713479315507
 20
-2865.474847456426
 10
151.7134793155055
 20
-2864.570958656408
 10
151.3801457159389
 20
-2864.570958656409
 10
151.3801457159396
 20
-2865.474847456425
  0
HATCH
  5
3A4
330
1F
100
AcDbEntity
  8
Ech.1_5
 62
   252
440
 33554687
370
     5
100
AcDbHatch
 10
0.0
 20
0.0
 30
0.0
210
0.0
220
0.0
230
1.0
  2
SOLID
 70
     1
 71
     1
 91
        1
 92
        3
 72
     0
 73
     1
 93
        4
 10
151.713479315507
 20
-2865.474847456426
 10
152.0468129150737
 20
-2865.474847456426
 10
152.0468129150744
 20
-2864.570958656408
 10
151.7134793155055
 20
-2864.570958656408
 97
        0
 75
     0
 76
     1
 98
        0
  0
LWPOLYLINE
  5
3A5
330
1F
100
AcDbEntity
  8
Ech.1_5
 62
     7
370
     9
100
AcDbPolyline
 90
        5
 70
     0
 43
0.0
 10
151.713479315507
 20
-2865.474847456426
 10
152.0468129150737
 20
-2865.474847456426
 10
152.0468129150744
 20
-2864.570958656408
 10
151.7134793155055
 20
-2864.570958656408
 10
151.713479315507
 20
-2865.474847456426
  0
HATCH
  5
3A6
330
1F
100
AcDbEntity
  8
Ech.1_5
 62
   252
440
 33554687
370
     5
100
AcDbHatch
 10
0.0
 20
0.0
 30
0.0
210
0.0
220
0.0
230
1.0
  2
SOLID
 70
     1
 71
     1
 91
        1
 92
        3
 72
     0
 73
     1
 93
        4
 10
152.0468121163722
 20
-2865.474847456426
 10
152.3801457159389
 20
-2865.474847456425
 10
152.3801457159396
 20
-2864.570958656409
 10
152.0468121163715
 20
-2864.570958656405
 97
        0
 75
     0
 76
     1
 98
        0
  0
LWPOLYLINE
  5
3A7
330
1F
100
AcDbEntity
  8
Ech.1_5
 62
     7
370
     9
100
AcDbPolyline
 90
        5
 70
     0
 43
0.0
 10
152.0468121163722
 20
-2865.474847456426
 10
152.3801457159389
 20
-2865.474847456425
 10
152.3801457159396
 20
-2864.570958656409
 10
152.0468121163715
 20
-2864.570958656405
 10
152.0468121163722
 20
-2865.474847456426
  0
HATCH
  5
3A8
330
1F
100
AcDbEntity
  8
Ech.1_5
 62
   252
440
 33554687
370
     5
100
AcDbHatch
 10
0.0
 20
0.0
 30
0.0
210
0.0
220
0.0
230
1.0
  2
SOLID
 70
     1
 71
     1
 91
        1
 92
        3
 72
     0
 73
     1
 93
        4
 10
152.3801453165885
 20
-2865.474847456425
 10
152.7134789161559
 20
-2865.474847456426
 10
152.7134789161559
 20
-2864.570958656408
 10
152.3801453165885
 20
-2864.570958656409
 97
        0
 75
     0
 76
     1
 98
        0
  0
LWPOLYLINE
  5
3A9
330
1F
100
AcDbEntity
  8
Ech.1_5
 62
     7
370
     9
100
AcDbPolyline
 90
        5
 70
     0
 43
0.0
 10
152.3801453165885
 20
-2865.474847456425
 10
152.7134789161559
 20
-2865.474847456426
 10
152.7134789161559
 20
-2864.570958656408
 10
152.3801453165885
 20
-2864.570958656409
 10
152.3801453165885
 20
-2865.474847456425
  0
HATCH
  5
3AA
330
1F
100
AcDbEntity
  8
Ech.1_5
 62
   252
440
 33554687
370
     5
100
AcDbHatch
 10
0.0
 20
0.0
 30
0.0
210
0.0
220
0.0
230
1.0
  2
SOLID
 70
     1
 71
     1
 91
        1
 92
        3
 72
     0
 73
     1
 93
        4
 10
152.7134789161559
 20
-2865.474847456426
 10
153.0468125157233
 20
-2865.474847456426
 10
153.0468125157233
 20
-2864.570958656405
 10
152.7134789161559
 20
-2864.570958656408
 97
        0
 75
     0
 76
     1
 98
        0
  0
LWPOLYLINE
  5
3AB
330
1F
100
AcDbEntity
  8
Ech.1_5
 62
     7
370
     9
100
AcDbPolyline
 90
        5
 70
     0
 43
0.0
 10
152.7134789161559
 20
-2865.474847456426
 10
153.0468125157233
 20
-2865.474847456426
 10
153.0468125157233
 20
-2864.570958656405
 10
152.7134789161559
 20
-2864.570958656408
 10
152.7134789161559
 20
-2865.474847456426
  0
HATCH
  5
3AC
330
1F
100
AcDbEntity
  8
Ech.1_5
 62
   252
440
 33554687
370
     5
100
AcDbHatch
 10
0.0
 20
0.0
 30
0.0
210
0.0
220
0.0
230
1.0
  2
SOLID
 70
     1
 71
     1
 91
        1
 92
        3
 72
     0
 73
     1
 93
        4
 10
153.0468121163729
 20
-2865.474847456426
 10
153.3801457159396
 20
-2865.474847456425
 10
153.3801457159389
 20
-2864.570958656409
 10
153.0468121163715
 20
-2864.570958656405
 97
        0
 75
     0
 76
     1
 98
        0
  0
LWPOLYLINE
  5
3AD
330
1F
100
AcDbEntity
  8
Ech.1_5
 62
     7
370
     9
100
AcDbPolyline
 90
        5
 70
     0
 43
0.0
 10
153.0468121163729
 20
-2865.474847456426
 10
153.3801457159396
 20
-2865.474847456425
 10
153.3801457159389
 20
-2864.570958656409
 10
153.0468121163715
 20
-2864.570958656405
 10
153.0468121163729
 20
-2865.474847456426
  0
HATCH
  5
3AE
330
1F
100
AcDbEntity
  8
Ech.1_5
 62
   252
440
 33554687
370
     5
100
AcDbHatch
 10
0.0
 20
0.0
 30
0.0
210
0.0
220
0.0
230
1.0
  2
SOLID
 70
     1
 71
     1
 91
        1
 92
        3
 72
     0
 73
     1
 93
        4
 10
153.3801457159396
 20
-2865.474847456425
 10
153.713479315507
 20
-2865.474847456426
 10
153.7134793155063
 20
-2864.570958656408
 10
153.3801457159389
 20
-2864.570958656409
 97
        0
 75
     0
 76
     1
 98
        0
  0
LWPOLYLINE
  5
3AF
330
1F
100
AcDbEntity
  8
Ech.1_5
 62
     7
370
     9
100
AcDbPolyline
 90
        5
 70
     0
 43
0.0
 10
153.3801457159396
 20
-2865.474847456425
 10
153.713479315507
 20
-2865.474847456426
 10
153.7134793155063
 20
-2864.570958656408
 10
153.3801457159389
 20
-2864.570958656409
 10
153.3801457159396
 20
-2865.474847456425
  0
HATCH
  5
3B0
330
1F
100
AcDbEntity
  8
Ech.1_5
 62
   252
440
 33554687
370
     5
100
AcDbHatch
 10
0.0
 20
0.0
 30
0.0
210
0.0
220
0.0
230
1.0
  2
SOLID
 70
     1
 71
     1
 91
        1
 92
        3
 72
     0
 73
     1
 93
        4
 10
153.713478516804
 20
-2865.474847456426
 10
154.0468121163707
 20
-2865.474847456424
 10
154.0468121163722
 20
-2864.570958656405
 10
153.7134785168048
 20
-2864.570958656408
 97
        0
 75
     0
 76
     1
 98
        0
  0
LWPOLYLINE
  5
3B1
330
1F
100
AcDbEntity
  8
Ech.1_5
 62
     7
370
     9
100
AcDbPolyline
 90
        5
 70
     0
 43
0.0
 10
153.713478516804
 20
-2865.474847456426
 10
154.0468121163707
 20
-2865.474847456424
 10
154.0468121163722
 20
-2864.570958656405
 10
153.7134785168048
 20
-2864.570958656408
 10
153.713478516804
 20
-2865.474847456426
  0
HATCH
  5
3B2
330
1F
100
AcDbEntity
  8
Ech.1_5
 62
   252
440
 33554687
370
     5
100
AcDbHatch
 10
0.0
 20
0.0
 30
0.0
210
0.0
220
0.0
230
1.0
  2
SOLID
 70
     1
 71
     1
 91
        1
 92
        3
 72
     0
 73
     1
 93
        4
 10
154.0468121163707
 20
-2865.474847456424
 10
154.3801457159389
 20
-2865.474847456425
 10
154.3801457159396
 20
-2864.570958656409
 10
154.0468121163722
 20
-2864.570958656405
 97
        0
 75
     0
 76
     1
 98
        0
  0
LWPOLYLINE
  5
3B3
330
1F
100
AcDbEntity
  8
Ech.1_5
 62
     7
370
     9
100
AcDbPolyline
 90
        5
 70
     0
 43
0.0
 10
154.0468121163707
 20
-2865.474847456424
 10
154.3801457159389
 20
-2865.474847456425
 10
154.3801457159396
 20
-2864.570958656409
 10
154.0468121163722
 20
-2864.570958656405
 10
154.0468121163707
 20
-2865.474847456424
  0
HATCH
  5
3B4
330
1F
100
AcDbEntity
  8
Ech.1_5
 62
   252
440
 33554687
370
     5
100
AcDbHatch
 10
0.0
 20
0.0
 30
0.0
210
0.0
220
0.0
230
1.0
  2
SOLID
 70
     1
 71
     1
 91
        1
 92
        3
 72
     0
 73
     1
 93
        4
 10
154.3801457159389
 20
-2865.474847456425
 10
154.7134793155077
 20
-2865.474847456426
 10
154.7134793155063
 20
-2864.570958656408
 10
154.3801457159396
 20
-2864.570958656409
 97
        0
 75
     0
 76
     1
 98
        0
  0
LWPOLYLINE
  5
3B5
330
1F
100
AcDbEntity
  8
Ech.1_5
 62
     7
370
     9
100
AcDbPolyline
 90
        5
 70
     0
 43
0.0
 10
154.3801457159389
 20
-2865.474847456425
 10
154.7134793155077
 20
-2865.474847456426
 10
154.7134793155063
 20
-2864.570958656408
 10
154.3801457159396
 20
-2864.570958656409
 10
154.3801457159389
 20
-2865.474847456425
  0
HATCH
  5
3B6
330
1F
100
AcDbEntity
  8
Ech.1_5
 62
   252
440
 33554687
370
     5
100
AcDbHatch
 10
0.0
 20
0.0
 30
0.0
210
0.0
220
0.0
230
1.0
  2
SOLID
 70
     1
 71
     1
 91
        1
 92
        3
 72
     0
 73
     1
 93
        4
 10
154.7134793155077
 20
-2865.474847456426
 10
155.0468129150744
 20
-2865.474847456425
 10
155.046812915073
 20
-2864.570958656405
 10
154.7134793155063
 20
-2864.570958656408
 97
        0
 75
     0
 76
     1
 98
        0
  0
LWPOLYLINE
  5
3B7
330
1F
100
AcDbEntity
  8
Ech.1_5
 62
     7
370
     9
100
AcDbPolyline
 90
        5
 70
     0
 43
0.0
 10
154.7134793155077
 20
-2865.474847456426
 10
155.0468129150744
 20
-2865.474847456425
 10
155.046812915073
 20
-2864.570958656405
 10
154.7134793155063
 20
-2864.570958656408
 10
154.7134793155077
 20
-2865.474847456426
  0
HATCH
  5
3B8
330
1F
100
AcDbEntity
  8
Ech.1_5
 62
   252
440
 33554687
370
     5
100
AcDbHatch
 10
0.0
 20
0.0
 30
0.0
210
0.0
220
0.0
230
1.0
  2
SOLID
 70
     1
 71
     1
 91
        1
 92
        3
 72
     0
 73
     1
 93
        4
 10
155.0468129150744
 20
-2865.474847456425
 10
155.3801465146411
 20
-2865.474847456426
 10
155.3801465146418
 20
-2864.570958656406
 10
155.046812915073
 20
-2864.570958656405
 97
        0
 75
     0
 76
     1
 98
        0
  0
LWPOLYLINE
  5
3B9
330
1F
100
AcDbEntity
  8
Ech.1_5
 62
     7
370
     9
100
AcDbPolyline
 90
        5
 70
     0
 43
0.0
 10
155.0468129150744
 20
-2865.474847456425
 10
155.3801465146411
 20
-2865.474847456426
 10
155.3801465146418
 20
-2864.570958656406
 10
155.046812915073
 20
-2864.570958656405
 10
155.0468129150744
 20
-2865.474847456425
  0
HATCH
  5
3BA
330
1F
100
AcDbEntity
  8
Ech.1_5
 62
   252
440
 33554687
370
     5
100
AcDbHatch
 10
0.0
 20
0.0
 30
0.0
210
0.0
220
0.0
230
1.0
  2
SOLID
 70
     1
 71
     1
 91
        1
 92
        3
 72
     0
 73
     1
 93
        4
 10
155.3801457159389
 20
-2865.474847456426
 10
155.713479315507
 20
-2865.474847456426
 10
155.7134793155063
 20
-2864.570958656408
 10
155.3801457159396
 20
-2864.570958656406
 97
        0
 75
     0
 76
     1
 98
        0
  0
LWPOLYLINE
  5
3BB
330
1F
100
AcDbEntity
  8
Ech.1_5
 62
     7
370
     9
100
AcDbPolyline
 90
        5
 70
     0
 43
0.0
 10
155.3801457159389
 20
-2865.474847456426
 10
155.713479315507
 20
-2865.474847456426
 10
155.7134793155063
 20
-2864.570958656408
 10
155.3801457159396
 20
-2864.570958656406
 10
155.3801457159389
 20
-2865.474847456426
  0
HATCH
  5
3BC
330
1F
100
AcDbEntity
  8
Ech.1_5
 62
   252
440
 33554687
370
     5
100
AcDbHatch
 10
0.0
 20
0.0
 30
0.0
210
0.0
220
0.0
230
1.0
  2
SOLID
 70
     1
 71
     1
 91
        1
 92
        3
 72
     0
 73
     1
 93
        4
 10
155.7134789161552
 20
-2865.474847456426
 10
156.0468125157226
 20
-2865.474847456425
 10
156.0468125157233
 20
-2864.570958656405
 10
155.7134789161559
 20
-2864.570958656408
 97
        0
 75
     0
 76
     1
 98
        0
  0
LWPOLYLINE
  5
3BD
330
1F
100
AcDbEntity
  8
Ech.1_5
 62
     7
370
     9
100
AcDbPolyline
 90
        5
 70
     0
 43
0.0
 10
155.7134789161552
 20
-2865.474847456426
 10
156.0468125157226
 20
-2865.474847456425
 10
156.0468125157233
 20
-2864.570958656405
 10
155.7134789161559
 20
-2864.570958656408
 10
155.7134789161552
 20
-2865.474847456426
  0
HATCH
  5
3BE
330
1F
100
AcDbEntity
  8
Ech.1_5
 62
   252
440
 33554687
370
     5
100
AcDbHatch
 10
0.0
 20
0.0
 30
0.0
210
0.0
220
0.0
230
1.0
  2
SOLID
 70
     1
 71
     1
 91
        1
 92
        3
 72
     0
 73
     1
 93
        4
 10
156.0468125157226
 20
-2865.474847456425
 10
156.3801461152907
 20
-2865.474847456426
 10
156.38014611529
 20
-2864.570958656406
 10
156.0468125157233
 20
-2864.570958656405
 97
        0
 75
     0
 76
     1
 98
        0
  0
LWPOLYLINE
  5
3BF
330
1F
100
AcDbEntity
  8
Ech.1_5
 62
     7
370
     9
100
AcDbPolyline
 90
        5
 70
     0
 43
0.0
 10
156.0468125157226
 20
-2865.474847456425
 10
156.3801461152907
 20
-2865.474847456426
 10
156.38014611529
 20
-2864.570958656406
 10
156.0468125157233
 20
-2864.570958656405
 10
156.0468125157226
 20
-2865.474847456425
  0
HATCH
  5
3C0
330
1F
100
AcDbEntity
  8
Ech.1_5
 62
   252
440
 33554687
370
     5
100
AcDbHatch
 10
0.0
 20
0.0
 30
0.0
210
0.0
220
0.0
230
1.0
  2
SOLID
 70
     1
 71
     1
 91
        1
 92
        3
 72
     0
 73
     1
 93
        4
 10
156.3801457159389
 20
-2865.474847456426
 10
156.7134793155055
 20
-2865.474847456426
 10
156.713479315507
 20
-2864.570958656408
 10
156.3801457159396
 20
-2864.570958656406
 97
        0
 75
     0
 76
     1
 98
        0
  0
LWPOLYLINE
  5
3C1
330
1F
100
AcDbEntity
  8
Ech.1_5
 62
     7
370
     9
100
AcDbPolyline
 90
        5
 70
     0
 43
0.0
 10
156.3801457159389
 20
-2865.474847456426
 10
156.7134793155055
 20
-2865.474847456426
 10
156.713479315507
 20
-2864.570958656408
 10
156.3801457159396
 20
-2864.570958656406
 10
156.3801457159389
 20
-2865.474847456426
  0
HATCH
  5
3C2
330
1F
100
AcDbEntity
  8
Ech.1_5
 62
   252
440
 33554687
370
     5
100
AcDbHatch
 10
0.0
 20
0.0
 30
0.0
210
0.0
220
0.0
230
1.0
  2
SOLID
 70
     1
 71
     1
 91
        1
 92
        3
 72
     0
 73
     1
 93
        4
 10
156.7134793155055
 20
-2865.474847456426
 10
157.0468129150744
 20
-2865.474847456425
 10
157.0468129150737
 20
-2864.570958656405
 10
156.713479315507
 20
-2864.570958656408
 97
        0
 75
     0
 76
     1
 98
        0
  0
LWPOLYLINE
  5
3C3
330
1F
100
AcDbEntity
  8
Ech.1_5
 62
     7
370
     9
100
AcDbPolyline
 90
        5
 70
     0
 43
0.0
 10
156.7134793155055
 20
-2865.474847456426
 10
157.0468129150744
 20
-2865.474847456425
 10
157.0468129150737
 20
-2864.570958656405
 10
156.713479315507
 20
-2864.570958656408
 10
156.7134793155055
 20
-2865.474847456426
  0
HATCH
  5
3C4
330
1F
100
AcDbEntity
  8
Ech.1_5
 62
   252
440
 33554687
370
     5
100
AcDbHatch
 10
0.0
 20
0.0
 30
0.0
210
0.0
220
0.0
230
1.0
  2
SOLID
 70
     1
 71
     1
 91
        1
 92
        3
 72
     0
 73
     1
 93
        4
 10
157.0468121163715
 20
-2865.474847456425
 10
157.3801457159396
 20
-2865.474847456426
 10
157.3801457159381
 20
-2864.570958656406
 10
157.0468121163715
 20
-2864.570958656408
 97
        0
 75
     0
 76
     1
 98
        0
  0
LWPOLYLINE
  5
3C5
330
1F
100
AcDbEntity
  8
Ech.1_5
 62
     7
370
     9
100
AcDbPolyline
 90
        5
 70
     0
 43
0.0
 10
157.0468121163715
 20
-2865.474847456425
 10
157.3801457159396
 20
-2865.474847456426
 10
157.3801457159381
 20
-2864.570958656406
 10
157.0468121163715
 20
-2864.570958656408
 10
157.0468121163715
 20
-2865.474847456425
  0
HATCH
  5
3C6
330
1F
100
AcDbEntity
  8
Ech.1_5
 62
   252
440
 33554687
370
     5
100
AcDbHatch
 10
0.0
 20
0.0
 30
0.0
210
0.0
220
0.0
230
1.0
  2
SOLID
 70
     1
 71
     1
 91
        1
 92
        3
 72
     0
 73
     1
 93
        4
 10
157.3801457159396
 20
-2865.474847456426
 10
157.7134793155063
 20
-2865.474847456426
 10
157.713479315507
 20
-2864.570958656408
 10
157.3801457159381
 20
-2864.570958656406
 97
        0
 75
     0
 76
     1
 98
        0
  0
LWPOLYLINE
  5
3C7
330
1F
100
AcDbEntity
  8
Ech.1_5
 62
     7
370
     9
100
AcDbPolyline
 90
        5
 70
     0
 43
0.0
 10
157.3801457159396
 20
-2865.474847456426
 10
157.7134793155063
 20
-2865.474847456426
 10
157.713479315507
 20
-2864.570958656408
 10
157.3801457159381
 20
-2864.570958656406
 10
157.3801457159396
 20
-2865.474847456426
  0
HATCH
  5
3C8
330
1F
100
AcDbEntity
  8
Ech.1_5
 62
   252
440
 33554687
370
     5
100
AcDbHatch
 10
0.0
 20
0.0
 30
0.0
210
0.0
220
0.0
230
1.0
  2
SOLID
 70
     1
 71
     1
 91
        1
 92
        3
 72
     0
 73
     1
 93
        4
 10
157.7134793155063
 20
-2865.474847456426
 10
158.0468129150737
 20
-2865.474847456425
 10
158.0468129150744
 20
-2864.570958656409
 10
157.713479315507
 20
-2864.570958656408
 97
        0
 75
     0
 76
     1
 98
        0
  0
LWPOLYLINE
  5
3C9
330
1F
100
AcDbEntity
  8
Ech.1_5
 62
     7
370
     9
100
AcDbPolyline
 90
        5
 70
     0
 43
0.0
 10
157.7134793155063
 20
-2865.474847456426
 10
158.0468129150737
 20
-2865.474847456425
 10
158.0468129150744
 20
-2864.570958656409
 10
157.713479315507
 20
-2864.570958656408
 10
157.7134793155063
 20
-2865.474847456426
  0
HATCH
  5
3CA
330
1F
100
AcDbEntity
  8
Ech.1_5
 62
   252
440
 33554687
370
     5
100
AcDbHatch
 10
0.0
 20
0.0
 30
0.0
210
0.0
220
0.0
230
1.0
  2
SOLID
 70
     1
 71
     1
 91
        1
 92
        3
 72
     0
 73
     1
 93
        4
 10
158.0468129150737
 20
-2865.474847456425
 10
158.3801465146418
 20
-2865.474847456426
 10
158.3801465146411
 20
-2864.570958656408
 10
158.0468129150744
 20
-2864.570958656409
 97
        0
 75
     0
 76
     1
 98
        0
  0
LWPOLYLINE
  5
3CB
330
1F
100
AcDbEntity
  8
Ech.1_5
 62
     7
370
     9
100
AcDbPolyline
 90
        5
 70
     0
 43
0.0
 10
158.0468129150737
 20
-2865.474847456425
 10
158.3801465146418
 20
-2865.474847456426
 10
158.3801465146411
 20
-2864.570958656408
 10
158.0468129150744
 20
-2864.570958656409
 10
158.0468129150737
 20
-2865.474847456425
  0
HATCH
  5
3CC
330
1F
100
AcDbEntity
  8
Ech.1_5
 62
   252
440
 33554687
370
     5
100
AcDbHatch
 10
0.0
 20
0.0
 30
0.0
210
0.0
220
0.0
230
1.0
  2
SOLID
 70
     1
 71
     1
 91
        1
 92
        3
 72
     0
 73
     1
 93
        4
 10
158.3801465146418
 20
-2865.474847456426
 10
158.7134801142092
 20
-2865.474847456426
 10
158.7134801142085
 20
-2864.570958656405
 10
158.3801465146411
 20
-2864.570958656408
 97
        0
 75
     0
 76
     1
 98
        0
  0
LWPOLYLINE
  5
3CD
330
1F
100
AcDbEntity
  8
Ech.1_5
 62
     7
370
     9
100
AcDbPolyline
 90
        5
 70
     0
 43
0.0
 10
158.3801465146418
 20
-2865.474847456426
 10
158.7134801142092
 20
-2865.474847456426
 10
158.7134801142085
 20
-2864.570958656405
 10
158.3801465146411
 20
-2864.570958656408
 10
158.3801465146418
 20
-2865.474847456426
  0
HATCH
  5
3CE
330
1F
100
AcDbEntity
  8
Ech.1_5
 62
   252
440
 33554687
370
     5
100
AcDbHatch
 10
0.0
 20
0.0
 30
0.0
210
0.0
220
0.0
230
1.0
  2
SOLID
 70
     1
 71
     1
 91
        1
 92
        3
 72
     0
 73
     1
 93
        4
 10
158.713479315507
 20
-2865.474847456426
 10
159.0468129150737
 20
-2865.474847456425
 10
159.0468129150752
 20
-2864.570958656409
 10
158.7134793155063
 20
-2864.570958656405
 97
        0
 75
     0
 76
     1
 98
        0
  0
LWPOLYLINE
  5
3CF
330
1F
100
AcDbEntity
  8
Ech.1_5
 62
     7
370
     9
100
AcDbPolyline
 90
        5
 70
     0
 43
0.0
 10
158.713479315507
 20
-2865.474847456426
 10
159.0468129150737
 20
-2865.474847456425
 10
159.0468129150752
 20
-2864.570958656409
 10
158.7134793155063
 20
-2864.570958656405
 10
158.713479315507
 20
-2865.474847456426
  0
HATCH
  5
3D0
330
1F
100
AcDbEntity
  8
Ech.1_5
 62
   252
440
 33554687
370
     5
100
AcDbHatch
 10
0.0
 20
0.0
 30
0.0
210
0.0
220
0.0
230
1.0
  2
SOLID
 70
     1
 71
     1
 91
        1
 92
        3
 72
     0
 73
     1
 93
        4
 10
159.0468125157233
 20
-2865.474847456425
 10
159.3801461152907
 20
-2865.474847456426
 10
159.38014611529
 20
-2864.570958656408
 10
159.0468125157233
 20
-2864.570958656409
 97
        0
 75
     0
 76
     1
 98
        0
  0
LWPOLYLINE
  5
3D1
330
1F
100
AcDbEntity
  8
Ech.1_5
 62
     7
370
     9
100
AcDbPolyline
 90
        5
 70
     0
 43
0.0
 10
159.0468125157233
 20
-2865.474847456425
 10
159.3801461152907
 20
-2865.474847456426
 10
159.38014611529
 20
-2864.570958656408
 10
159.0468125157233
 20
-2864.570958656409
 10
159.0468125157233
 20
-2865.474847456425
  0
HATCH
  5
3D2
330
1F
100
AcDbEntity
  8
Ech.1_5
 62
   252
440
 33554687
370
     5
100
AcDbHatch
 10
0.0
 20
0.0
 30
0.0
210
0.0
220
0.0
230
1.0
  2
SOLID
 70
     1
 71
     1
 91
        1
 92
        3
 72
     0
 73
     1
 93
        4
 10
159.3801461152907
 20
-2865.474847456426
 10
159.7134797148581
 20
-2865.474847456426
 10
159.7134797148567
 20
-2864.570958656405
 10
159.38014611529
 20
-2864.570958656408
 97
        0
 75
     0
 76
     1
 98
        0
  0
LWPOLYLINE
  5
3D3
330
1F
100
AcDbEntity
  8
Ech.1_5
 62
     7
370
     9
100
AcDbPolyline
 90
        5
 70
     0
 43
0.0
 10
159.3801461152907
 20
-2865.474847456426
 10
159.7134797148581
 20
-2865.474847456426
 10
159.7134797148567
 20
-2864.570958656405
 10
159.38014611529
 20
-2864.570958656408
 10
159.3801461152907
 20
-2865.474847456426
  0
HATCH
  5
3D4
330
1F
100
AcDbEntity
  8
Ech.1_5
 62
   252
440
 33554687
370
     5
100
AcDbHatch
 10
0.0
 20
0.0
 30
0.0
210
0.0
220
0.0
230
1.0
  2
SOLID
 70
     1
 71
     1
 91
        1
 92
        3
 72
     0
 73
     1
 93
        4
 10
159.7134793155063
 20
-2865.474847456426
 10
160.0468129150737
 20
-2865.474847456425
 10
160.0468129150744
 20
-2864.570958656409
 10
159.7134793155063
 20
-2864.570958656405
 97
        0
 75
     0
 76
     1
 98
        0
  0
LWPOLYLINE
  5
3D5
330
1F
100
AcDbEntity
  8
Ech.1_5
 62
     7
370
     9
100
AcDbPolyline
 90
        5
 70
     0
 43
0.0
 10
159.7134793155063
 20
-2865.474847456426
 10
160.0468129150737
 20
-2865.474847456425
 10
160.0468129150744
 20
-2864.570958656409
 10
159.7134793155063
 20
-2864.570958656405
 10
159.7134793155063
 20
-2865.474847456426
  0
HATCH
  5
3D6
330
1F
100
AcDbEntity
  8
Ech.1_5
 62
   252
440
 33554687
370
     5
100
AcDbHatch
 10
0.0
 20
0.0
 30
0.0
210
0.0
220
0.0
230
1.0
  2
SOLID
 70
     1
 71
     1
 91
        1
 92
        3
 72
     0
 73
     1
 93
        4
 10
160.0468129150737
 20
-2865.474847456425
 10
160.3801465146418
 20
-2865.474847456426
 10
160.3801465146411
 20
-2864.570958656408
 10
160.0468129150744
 20
-2864.570958656409
 97
        0
 75
     0
 76
     1
 98
        0
  0
LWPOLYLINE
  5
3D7
330
1F
100
AcDbEntity
  8
Ech.1_5
 62
     7
370
     9
100
AcDbPolyline
 90
        5
 70
     0
 43
0.0
 10
160.0468129150737
 20
-2865.474847456425
 10
160.3801465146418
 20
-2865.474847456426
 10
160.3801465146411
 20
-2864.570958656408
 10
160.0468129150744
 20
-2864.570958656409
 10
160.0468129150737
 20
-2865.474847456425
  0
HATCH
  5
3D8
330
1F
100
AcDbEntity
  8
Ech.1_5
 62
   252
440
 33554687
370
     5
100
AcDbHatch
 10
0.0
 20
0.0
 30
0.0
210
0.0
220
0.0
230
1.0
  2
SOLID
 70
     1
 71
     1
 91
        1
 92
        3
 72
     0
 73
     1
 93
        4
 10
160.3801457159396
 20
-2865.474847456426
 10
160.713479315507
 20
-2865.474847456424
 10
160.7134793155055
 20
-2864.570958656405
 10
160.3801457159389
 20
-2864.570958656408
 97
        0
 75
     0
 76
     1
 98
        0
  0
LWPOLYLINE
  5
3D9
330
1F
100
AcDbEntity
  8
Ech.1_5
 62
     7
370
     9
100
AcDbPolyline
 90
        5
 70
     0
 43
0.0
 10
160.3801457159396
 20
-2865.474847456426
 10
160.713479315507
 20
-2865.474847456424
 10
160.7134793155055
 20
-2864.570958656405
 10
160.3801457159389
 20
-2864.570958656408
 10
160.3801457159396
 20
-2865.474847456426
  0
HATCH
  5
3DA
330
1F
100
AcDbEntity
  8
Ech.1_5
 62
   252
440
 33554687
370
     5
100
AcDbHatch
 10
0.0
 20
0.0
 30
0.0
210
0.0
220
0.0
230
1.0
  2
SOLID
 70
     1
 71
     1
 91
        1
 92
        3
 72
     0
 73
     1
 93
        4
 10
160.7134785168033
 20
-2865.474847456424
 10
161.0468121163707
 20
-2865.474847456425
 10
161.0468121163722
 20
-2864.570958656406
 10
160.713478516804
 20
-2864.570958656405
 97
        0
 75
     0
 76
     1
 98
        0
  0
LWPOLYLINE
  5
3DB
330
1F
100
AcDbEntity
  8
Ech.1_5
 62
     7
370
     9
100
AcDbPolyline
 90
        5
 70
     0
 43
0.0
 10
160.7134785168033
 20
-2865.474847456424
 10
161.0468121163707
 20
-2865.474847456425
 10
161.0468121163722
 20
-2864.570958656406
 10
160.713478516804
 20
-2864.570958656405
 10
160.7134785168033
 20
-2865.474847456424
  0
HATCH
  5
3DC
330
1F
100
AcDbEntity
  8
Ech.1_5
 62
   252
440
 33554687
370
     5
100
AcDbHatch
 10
0.0
 20
0.0
 30
0.0
210
0.0
220
0.0
230
1.0
  2
SOLID
 70
     1
 71
     1
 91
        1
 92
        3
 72
     0
 73
     1
 93
        4
 10
161.0468121163707
 20
-2865.474847456425
 10
161.3801457159396
 20
-2865.474847456426
 10
161.3801457159389
 20
-2864.570958656408
 10
161.0468121163722
 20
-2864.570958656406
 97
        0
 75
     0
 76
     1
 98
        0
  0
LWPOLYLINE
  5
3DD
330
1F
100
AcDbEntity
  8
Ech.1_5
 62
     7
370
     9
100
AcDbPolyline
 90
        5
 70
     0
 43
0.0
 10
161.0468121163707
 20
-2865.474847456425
 10
161.3801457159396
 20
-2865.474847456426
 10
161.3801457159389
 20
-2864.570958656408
 10
161.0468121163722
 20
-2864.570958656406
 10
161.0468121163707
 20
-2865.474847456425
  0
HATCH
  5
3DE
330
1F
100
AcDbEntity
  8
Ech.1_5
 62
   252
440
 33554687
370
     5
100
AcDbHatch
 10
0.0
 20
0.0
 30
0.0
210
0.0
220
0.0
230
1.0
  2
SOLID
 70
     1
 71
     1
 91
        1
 92
        3
 72
     0
 73
     1
 93
        4
 10
161.3801457159396
 20
-2865.474847456426
 10
161.713479315507
 20
-2865.474847456425
 10
161.7134793155055
 20
-2864.570958656405
 10
161.3801457159389
 20
-2864.570958656408
 97
        0
 75
     0
 76
     1
 98
        0
  0
LWPOLYLINE
  5
3DF
330
1F
100
AcDbEntity
  8
Ech.1_5
 62
     7
370
     9
100
AcDbPolyline
 90
        5
 70
     0
 43
0.0
 10
161.3801457159396
 20
-2865.474847456426
 10
161.713479315507
 20
-2865.474847456425
 10
161.7134793155055
 20
-2864.570958656405
 10
161.3801457159389
 20
-2864.570958656408
 10
161.3801457159396
 20
-2865.474847456426
  0
HATCH
  5
3E0
330
1F
100
AcDbEntity
  8
Ech.1_5
 62
   252
440
 33554687
370
     5
100
AcDbHatch
 10
0.0
 20
0.0
 30
0.0
210
0.0
220
0.0
230
1.0
  2
SOLID
 70
     1
 71
     1
 91
        1
 92
        3
 72
     0
 73
     1
 93
        4
 10
161.713479315507
 20
-2865.474847456425
 10
162.0468129150737
 20
-2865.474847456426
 10
162.0468129150737
 20
-2864.570958656406
 10
161.7134793155055
 20
-2864.570958656405
 97
        0
 75
     0
 76
     1
 98
        0
  0
LWPOLYLINE
  5
3E1
330
1F
100
AcDbEntity
  8
Ech.1_5
 62
     7
370
     9
100
AcDbPolyline
 90
        5
 70
     0
 43
0.0
 10
161.713479315507
 20
-2865.474847456425
 10
162.0468129150737
 20
-2865.474847456426
 10
162.0468129150737
 20
-2864.570958656406
 10
161.7134793155055
 20
-2864.570958656405
 10
161.713479315507
 20
-2865.474847456425
  0
HATCH
  5
3E2
330
1F
100
AcDbEntity
  8
Ech.1_5
 62
   252
440
 33554687
370
     5
100
AcDbHatch
 10
0.0
 20
0.0
 30
0.0
210
0.0
220
0.0
230
1.0
  2
SOLID
 70
     1
 71
     1
 91
        1
 92
        3
 72
     0
 73
     1
 93
        4
 10
162.0468121163715
 20
-2865.474847456425
 10
162.3801457159389
 20
-2865.474847456426
 10
162.3801457159389
 20
-2864.570958656408
 10
162.0468121163722
 20
-2864.570958656406
 97
        0
 75
     0
 76
     1
 98
        0
  0
LWPOLYLINE
  5
3E3
330
1F
100
AcDbEntity
  8
Ech.1_5
 62
     7
370
     9
100
AcDbPolyline
 90
        5
 70
     0
 43
0.0
 10
162.0468121163715
 20
-2865.474847456425
 10
162.3801457159389
 20
-2865.474847456426
 10
162.3801457159389
 20
-2864.570958656408
 10
162.0468121163722
 20
-2864.570958656406
 10
162.0468121163715
 20
-2865.474847456425
  0
HATCH
  5
3E4
330
1F
100
AcDbEntity
  8
Ech.1_5
 62
   252
440
 33554687
370
     5
100
AcDbHatch
 10
0.0
 20
0.0
 30
0.0
210
0.0
220
0.0
230
1.0
  2
SOLID
 70
     1
 71
     1
 91
        1
 92
        3
 72
     0
 73
     1
 93
        4
 10
162.3801453165885
 20
-2865.474847456426
 10
162.7134789161552
 20
-2865.474847456425
 10
162.7134789161559
 20
-2864.570958656408
 10
162.380145316587
 20
-2864.570958656408
 97
        0
 75
     0
 76
     1
 98
        0
  0
LWPOLYLINE
  5
3E5
330
1F
100
AcDbEntity
  8
Ech.1_5
 62
     7
370
     9
100
AcDbPolyline
 90
        5
 70
     0
 43
0.0
 10
162.3801453165885
 20
-2865.474847456426
 10
162.7134789161552
 20
-2865.474847456425
 10
162.7134789161559
 20
-2864.570958656408
 10
162.380145316587
 20
-2864.570958656408
 10
162.3801453165885
 20
-2865.474847456426
  0
HATCH
  5
3E6
330
1F
100
AcDbEntity
  8
Ech.1_5
 62
   252
440
 33554687
370
     5
100
AcDbHatch
 10
0.0
 20
0.0
 30
0.0
210
0.0
220
0.0
230
1.0
  2
SOLID
 70
     1
 71
     1
 91
        1
 92
        3
 72
     0
 73
     1
 93
        4
 10
162.7134789161552
 20
-2865.474847456425
 10
163.0468125157219
 20
-2865.474847456424
 10
163.0468125157226
 20
-2864.570958656406
 10
162.7134789161559
 20
-2864.570958656408
 97
        0
 75
     0
 76
     1
 98
        0
  0
LWPOLYLINE
  5
3E7
330
1F
100
AcDbEntity
  8
Ech.1_5
 62
     7
370
     9
100
AcDbPolyline
 90
        5
 70
     0
 43
0.0
 10
162.7134789161552
 20
-2865.474847456425
 10
163.0468125157219
 20
-2865.474847456424
 10
163.0468125157226
 20
-2864.570958656406
 10
162.7134789161559
 20
-2864.570958656408
 10
162.7134789161552
 20
-2865.474847456425
  0
HATCH
  5
3E8
330
1F
100
AcDbEntity
  8
Ech.1_5
 62
   252
440
 33554687
370
     5
100
AcDbHatch
 10
0.0
 20
0.0
 30
0.0
210
0.0
220
0.0
230
1.0
  2
SOLID
 70
     1
 71
     1
 91
        1
 92
        3
 72
     0
 73
     1
 93
        4
 10
163.0468121163722
 20
-2865.474847456426
 10
163.3801457159389
 20
-2865.474847456426
 10
163.3801457159396
 20
-2864.570958656408
 10
163.0468121163715
 20
-2864.570958656406
 97
        0
 75
     0
 76
     1
 98
        0
  0
LWPOLYLINE
  5
3E9
330
1F
100
AcDbEntity
  8
Ech.1_5
 62
     7
370
     9
100
AcDbPolyline
 90
        5
 70
     0
 43
0.0
 10
163.0468121163722
 20
-2865.474847456426
 10
163.3801457159389
 20
-2865.474847456426
 10
163.3801457159396
 20
-2864.570958656408
 10
163.0468121163715
 20
-2864.570958656406
 10
163.0468121163722
 20
-2865.474847456426
  0
HATCH
  5
3EA
330
1F
100
AcDbEntity
  8
Ech.1_5
 62
   252
440
 33554687
370
     5
100
AcDbHatch
 10
0.0
 20
0.0
 30
0.0
210
0.0
220
0.0
230
1.0
  2
SOLID
 70
     1
 71
     1
 91
        1
 92
        3
 72
     0
 73
     1
 93
        4
 10
163.3801457159389
 20
-2865.474847456426
 10
163.7134793155063
 20
-2865.474847456425
 10
163.713479315507
 20
-2864.570958656408
 10
163.3801457159396
 20
-2864.570958656408
 97
        0
 75
     0
 76
     1
 98
        0
  0
LWPOLYLINE
  5
3EB
330
1F
100
AcDbEntity
  8
Ech.1_5
 62
     7
370
     9
100
AcDbPolyline
 90
        5
 70
     0
 43
0.0
 10
163.3801457159389
 20
-2865.474847456426
 10
163.7134793155063
 20
-2865.474847456425
 10
163.713479315507
 20
-2864.570958656408
 10
163.3801457159396
 20
-2864.570958656408
 10
163.3801457159389
 20
-2865.474847456426
  0
HATCH
  5
3EC
330
1F
100
AcDbEntity
  8
Ech.1_5
 62
   252
440
 33554687
370
     5
100
AcDbHatch
 10
0.0
 20
0.0
 30
0.0
210
0.0
220
0.0
230
1.0
  2
SOLID
 70
     1
 71
     1
 91
        1
 92
        3
 72
     0
 73
     1
 93
        4
 10
163.713478516804
 20
-2865.474847456425
 10
164.0468121163715
 20
-2865.474847456426
 10
164.0468121163715
 20
-2864.570958656406
 10
163.7134785168048
 20
-2864.570958656408
 97
        0
 75
     0
 76
     1
 98
        0
  0
LWPOLYLINE
  5
3ED
330
1F
100
AcDbEntity
  8
Ech.1_5
 62
     7
370
     9
100
AcDbPolyline
 90
        5
 70
     0
 43
0.0
 10
163.713478516804
 20
-2865.474847456425
 10
164.0468121163715
 20
-2865.474847456426
 10
164.0468121163715
 20
-2864.570958656406
 10
163.7134785168048
 20
-2864.570958656408
 10
163.713478516804
 20
-2865.474847456425
  0
HATCH
  5
3EE
330
1F
100
AcDbEntity
  8
Ech.1_5
 62
   252
440
 33554687
370
     5
100
AcDbHatch
 10
0.0
 20
0.0
 30
0.0
210
0.0
220
0.0
230
1.0
  2
SOLID
 70
     1
 71
     1
 91
        1
 92
        3
 72
     0
 73
     1
 93
        4
 10
164.0468121163715
 20
-2865.474847456426
 10
164.3801457159396
 20
-2865.474847456426
 10
164.3801457159389
 20
-2864.570958656405
 10
164.0468121163715
 20
-2864.570958656406
 97
        0
 75
     0
 76
     1
 98
        0
  0
LWPOLYLINE
  5
3EF
330
1F
100
AcDbEntity
  8
Ech.1_5
 62
     7
370
     9
100
AcDbPolyline
 90
        5
 70
     0
 43
0.0
 10
164.0468121163715
 20
-2865.474847456426
 10
164.3801457159396
 20
-2865.474847456426
 10
164.3801457159389
 20
-2864.570958656405
 10
164.0468121163715
 20
-2864.570958656406
 10
164.0468121163715
 20
-2865.474847456426
  0
HATCH
  5
3F0
330
1F
100
AcDbEntity
  8
Ech.1_5
 62
   252
440
 33554687
370
     5
100
AcDbHatch
 10
0.0
 20
0.0
 30
0.0
210
0.0
220
0.0
230
1.0
  2
SOLID
 70
     1
 71
     1
 91
        1
 92
        3
 72
     0
 73
     1
 93
        4
 10
164.3801457159396
 20
-2865.474847456426
 10
164.7134793155063
 20
-2865.474847456425
 10
164.713479315507
 20
-2864.570958656408
 10
164.3801457159389
 20
-2864.570958656405
 97
        0
 75
     0
 76
     1
 98
        0
  0
LWPOLYLINE
  5
3F1
330
1F
100
AcDbEntity
  8
Ech.1_5
 62
     7
370
     9
100
AcDbPolyline
 90
        5
 70
     0
 43
0.0
 10
164.3801457159396
 20
-2865.474847456426
 10
164.7134793155063
 20
-2865.474847456425
 10
164.713479315507
 20
-2864.570958656408
 10
164.3801457159389
 20
-2864.570958656405
 10
164.3801457159396
 20
-2865.474847456426
  0
HATCH
  5
3F2
330
1F
100
AcDbEntity
  8
Ech.1_5
 62
   252
440
 33554687
370
     5
100
AcDbHatch
 10
0.0
 20
0.0
 30
0.0
210
0.0
220
0.0
230
1.0
  2
SOLID
 70
     1
 71
     1
 91
        1
 92
        3
 72
     0
 73
     1
 93
        4
 10
164.7134793155063
 20
-2865.474847456425
 10
165.0468129150737
 20
-2865.474847456426
 10
165.0468129150744
 20
-2864.570958656406
 10
164.713479315507
 20
-2864.570958656408
 97
        0
 75
     0
 76
     1
 98
        0
  0
LWPOLYLINE
  5
3F3
330
1F
100
AcDbEntity
  8
Ech.1_5
 62
     7
370
     9
100
AcDbPolyline
 90
        5
 70
     0
 43
0.0
 10
164.7134793155063
 20
-2865.474847456425
 10
165.0468129150737
 20
-2865.474847456426
 10
165.0468129150744
 20
-2864.570958656406
 10
164.713479315507
 20
-2864.570958656408
 10
164.7134793155063
 20
-2865.474847456425
  0
HATCH
  5
3F4
330
1F
100
AcDbEntity
  8
Ech.1_5
 62
   252
440
 33554687
370
     5
100
AcDbHatch
 10
0.0
 20
0.0
 30
0.0
210
0.0
220
0.0
230
1.0
  2
SOLID
 70
     1
 71
     1
 91
        1
 92
        3
 72
     1
 73
     1
 93
        4
 10
176.7264457157659
 20
-2864.570958656425
 42
0.0
 10
176.0468153111826
 20
-2864.570958656405
 42
0.0
 10
176.0468153111819
 20
-2865.47484745642
 42
0.0
 10
176.7264457157659
 20
-2865.474847456444
 42
-0.3513591548534989
 97
        0
 75
     0
 76
     1
 98
        0
  0
LWPOLYLINE
  5
3F5
330
1F
100
AcDbEntity
  8
Ech.1_5
 62
     7
370
     9
100
AcDbPolyline
 90
        5
 70
     0
 43
0.0
 10
176.7264457157659
 20
-2864.570958656425
 10
176.0468153111826
 20
-2864.570958656405
 10
176.0468153111819
 20
-2865.47484745642
 10
176.7264457157659
 20
-2865.474847456444
 42
-0.3513591548535066
 10
176.7264457157659
 20
-2864.570958656425
  0
HATCH
  5
3F6
330
1F
100
AcDbEntity
  8
Ech.1_5
 62
   252
440
 33554687
370
     5
100
AcDbHatch
 10
0.0
 20
0.0
 30
0.0
210
0.0
220
0.0
230
1.0
  2
SOLID
 70
     1
 71
     1
 91
        1
 92
        3
 72
     1
 73
     1
 93
        3
 10
177.7912565163182
 20
-2865.02290305642
 42
0.0
 10
176.7264457157659
 20
-2864.570958656425
 42
0.3513591548534989
 10
176.7264457157659
 20
-2865.474847456444
 42
0.0
 97
        0
 75
     0
 76
     1
 98
        0
  0
LWPOLYLINE
  5
3F7
330
1F
100
AcDbEntity
  8
Ech.1_5
 62
     7
370
     9
100
AcDbPolyline
 90
        4
 70
     0
 43
0.0
 10
177.7912565163182
 20
-2865.02290305642
 10
176.7264457157659
 20
-2864.570958656425
 42
0.3513591548535063
 10
176.7264457157659
 20
-2865.474847456444
 10
177.7912565163182
 20
-2865.02290305642
  0
HATCH
  5
3F8
330
1F
100
AcDbEntity
  8
Ech.1_5
 62
   252
440
 33554687
370
     5
100
AcDbHatch
 10
0.0
 20
0.0
 30
0.0
210
0.0
220
0.0
230
1.0
  2
SOLID
 70
     1
 71
     1
 91
        1
 92
        3
 72
     0
 73
     1
 93
        4
 10
165.0468129150737
 20
-2865.474847456426
 10
165.3801465146418
 20
-2865.474847456426
 10
165.3801465146411
 20
-2864.570958656405
 10
165.0468129150744
 20
-2864.570958656406
 97
        0
 75
     0
 76
     1
 98
        0
  0
LWPOLYLINE
  5
3F9
330
1F
100
AcDbEntity
  8
Ech.1_5
 62
     7
370
     9
100
AcDbPolyline
 90
        5
 70
     0
 43
0.0
 10
165.0468129150737
 20
-2865.474847456426
 10
165.3801465146418
 20
-2865.474847456426
 10
165.3801465146411
 20
-2864.570958656405
 10
165.0468129150744
 20
-2864.570958656406
 10
165.0468129150737
 20
-2865.474847456426
  0
LINE
  5
3FA
330
1F
100
AcDbEntity
  8
Ech.1_5
 62
   190
370
     9
100
AcDbLine
 10
165.713478516804
 20
-2864.570958656408
 30
0.0
 11
165.7134785168048
 21
-2865.474847456425
 31
0.0
  0
LINE
  5
3FB
330
1F
100
AcDbEntity
  8
Ech.1_5
 62
   190
370
     9
100
AcDbLine
 10
165.3801457159389
 20
-2864.570958656405
 30
0.0
 11
165.3801457159389
 21
-2865.474847456426
 31
0.0
  0
HATCH
  5
3FC
330
1F
100
AcDbEntity
  8
Ech.1_5
 62
   252
440
 33554687
370
     5
100
AcDbHatch
 10
0.0
 20
0.0
 30
0.0
210
0.0
220
0.0
230
1.0
  2
SOLID
 70
     1
 71
     1
 91
        1
 92
        3
 72
     0
 73
     1
 93
        4
 10
165.3801449172373
 20
-2865.474847456426
 10
165.7134785168048
 20
-2865.474847456425
 10
165.713478516804
 20
-2864.570958656408
 10
165.3801449172366
 20
-2864.570958656405
 97
        0
 75
     0
 76
     1
 98
        0
  0
LWPOLYLINE
  5
3FD
330
1F
100
AcDbEntity
  8
Ech.1_5
 62
     7
370
     9
100
AcDbPolyline
 90
        5
 70
     0
 43
0.0
 10
165.3801449172373
 20
-2865.474847456426
 10
165.7134785168048
 20
-2865.474847456425
 10
165.713478516804
 20
-2864.570958656408
 10
165.3801449172366
 20
-2864.570958656405
 10
165.3801449172373
 20
-2865.474847456426
  0
HATCH
  5
3FE
330
1F
100
AcDbEntity
  8
Ech.1_5
 62
   252
440
 33554687
370
     5
100
AcDbHatch
 10
0.0
 20
0.0
 30
0.0
210
0.0
220
0.0
230
1.0
  2
SOLID
 70
     1
 71
     1
 91
        1
 92
        3
 72
     0
 73
     1
 93
        4
 10
165.7134785168048
 20
-2865.474847456425
 10
166.0468121163722
 20
-2865.474847456426
 10
166.0468121163715
 20
-2864.570958656406
 10
165.713478516804
 20
-2864.570958656406
 97
        0
 75
     0
 76
     1
 98
        0
  0
LWPOLYLINE
  5
3FF
330
1F
100
AcDbEntity
  8
Ech.1_5
 62
     7
370
     9
100
AcDbPolyline
 90
        5
 70
     0
 43
0.0
 10
165.7134785168048
 20
-2865.474847456425
 10
166.0468121163722
 20
-2865.474847456426
 10
166.0468121163715
 20
-2864.570958656406
 10
165.713478516804
 20
-2864.570958656406
 10
165.7134785168048
 20
-2865.474847456425
  0
HATCH
  5
400
330
1F
100
AcDbEntity
  8
Ech.1_5
 62
   252
440
 33554687
370
     5
100
AcDbHatch
 10
0.0
 20
0.0
 30
0.0
210
0.0
220
0.0
230
1.0
  2
SOLID
 70
     1
 71
     1
 91
        1
 92
        3
 72
     0
 73
     1
 93
        4
 10
166.0468121163722
 20
-2865.474847456426
 10
166.3801457159389
 20
-2865.474847456424
 10
166.3801457159396
 20
-2864.570958656405
 10
166.0468121163715
 20
-2864.570958656406
 97
        0
 75
     0
 76
     1
 98
        0
  0
LWPOLYLINE
  5
401
330
1F
100
AcDbEntity
  8
Ech.1_5
 62
     7
370
     9
100
AcDbPolyline
 90
        5
 70
     0
 43
0.0
 10
166.0468121163722
 20
-2865.474847456426
 10
166.3801457159389
 20
-2865.474847456424
 10
166.3801457159396
 20
-2864.570958656405
 10
166.0468121163715
 20
-2864.570958656406
 10
166.0468121163722
 20
-2865.474847456426
  0
HATCH
  5
402
330
1F
100
AcDbEntity
  8
Ech.1_5
 62
   252
440
 33554687
370
     5
100
AcDbHatch
 10
0.0
 20
0.0
 30
0.0
210
0.0
220
0.0
230
1.0
  2
SOLID
 70
     1
 71
     1
 91
        1
 92
        3
 72
     0
 73
     1
 93
        4
 10
166.3801457159389
 20
-2865.474847456424
 10
166.7134793155063
 20
-2865.474847456422
 10
166.713479315507
 20
-2864.570958656406
 10
166.3801457159396
 20
-2864.570958656405
 97
        0
 75
     0
 76
     1
 98
        0
  0
LWPOLYLINE
  5
403
330
1F
100
AcDbEntity
  8
Ech.1_5
 62
     7
370
     9
100
AcDbPolyline
 90
        5
 70
     0
 43
0.0
 10
166.3801457159389
 20
-2865.474847456424
 10
166.7134793155063
 20
-2865.474847456422
 10
166.713479315507
 20
-2864.570958656406
 10
166.3801457159396
 20
-2864.570958656405
 10
166.3801457159389
 20
-2865.474847456424
  0
HATCH
  5
404
330
1F
100
AcDbEntity
  8
Ech.1_5
 62
   252
440
 33554687
370
     5
100
AcDbHatch
 10
0.0
 20
0.0
 30
0.0
210
0.0
220
0.0
230
1.0
  2
SOLID
 70
     1
 71
     1
 91
        1
 92
        3
 72
     0
 73
     1
 93
        4
 10
166.7134793155063
 20
-2865.474847456422
 10
167.0468129150752
 20
-2865.474847456426
 10
167.0468129150744
 20
-2864.570958656408
 10
166.713479315507
 20
-2864.570958656406
 97
        0
 75
     0
 76
     1
 98
        0
  0
LWPOLYLINE
  5
405
330
1F
100
AcDbEntity
  8
Ech.1_5
 62
     7
370
     9
100
AcDbPolyline
 90
        5
 70
     0
 43
0.0
 10
166.7134793155063
 20
-2865.474847456422
 10
167.0468129150752
 20
-2865.474847456426
 10
167.0468129150744
 20
-2864.570958656408
 10
166.713479315507
 20
-2864.570958656406
 10
166.7134793155063
 20
-2865.474847456422
  0
HATCH
  5
406
330
1F
100
AcDbEntity
  8
Ech.1_5
 62
   252
440
 33554687
370
     5
100
AcDbHatch
 10
0.0
 20
0.0
 30
0.0
210
0.0
220
0.0
230
1.0
  2
SOLID
 70
     1
 71
     1
 91
        1
 92
        3
 72
     0
 73
     1
 93
        4
 10
167.0468129150752
 20
-2865.474847456426
 10
167.3801465146418
 20
-2865.474847456424
 10
167.3801465146411
 20
-2864.570958656405
 10
167.0468129150744
 20
-2864.570958656408
 97
        0
 75
     0
 76
     1
 98
        0
  0
LWPOLYLINE
  5
407
330
1F
100
AcDbEntity
  8
Ech.1_5
 62
     7
370
     9
100
AcDbPolyline
 90
        5
 70
     0
 43
0.0
 10
167.0468129150752
 20
-2865.474847456426
 10
167.3801465146418
 20
-2865.474847456424
 10
167.3801465146411
 20
-2864.570958656405
 10
167.0468129150744
 20
-2864.570958656408
 10
167.0468129150752
 20
-2865.474847456426
  0
HATCH
  5
408
330
1F
100
AcDbEntity
  8
Ech.1_5
 62
   252
440
 33554687
370
     5
100
AcDbHatch
 10
0.0
 20
0.0
 30
0.0
210
0.0
220
0.0
230
1.0
  2
SOLID
 70
     1
 71
     1
 91
        1
 92
        3
 72
     0
 73
     1
 93
        4
 10
167.3801465146418
 20
-2865.474847456424
 10
167.7134801142085
 20
-2865.474847456422
 10
167.7134801142092
 20
-2864.570958656406
 10
167.3801465146411
 20
-2864.570958656405
 97
        0
 75
     0
 76
     1
 98
        0
  0
LWPOLYLINE
  5
409
330
1F
100
AcDbEntity
  8
Ech.1_5
 62
     7
370
     9
100
AcDbPolyline
 90
        5
 70
     0
 43
0.0
 10
167.3801465146418
 20
-2865.474847456424
 10
167.7134801142085
 20
-2865.474847456422
 10
167.7134801142092
 20
-2864.570958656406
 10
167.3801465146411
 20
-2864.570958656405
 10
167.3801465146418
 20
-2865.474847456424
  0
HATCH
  5
40A
330
1F
100
AcDbEntity
  8
Ech.1_5
 62
   252
440
 33554687
370
     5
100
AcDbHatch
 10
0.0
 20
0.0
 30
0.0
210
0.0
220
0.0
230
1.0
  2
SOLID
 70
     1
 71
     1
 91
        1
 92
        3
 72
     0
 73
     1
 93
        4
 10
167.7134801142085
 20
-2865.474847456422
 10
168.0468137137767
 20
-2865.474847456426
 10
168.0468137137767
 20
-2864.570958656408
 10
167.7134801142092
 20
-2864.570958656406
 97
        0
 75
     0
 76
     1
 98
        0
  0
LWPOLYLINE
  5
40B
330
1F
100
AcDbEntity
  8
Ech.1_5
 62
     7
370
     9
100
AcDbPolyline
 90
        5
 70
     0
 43
0.0
 10
167.7134801142085
 20
-2865.474847456422
 10
168.0468137137767
 20
-2865.474847456426
 10
168.0468137137767
 20
-2864.570958656408
 10
167.7134801142092
 20
-2864.570958656406
 10
167.7134801142085
 20
-2865.474847456422
  0
HATCH
  5
40C
330
1F
100
AcDbEntity
  8
Ech.1_5
 62
   252
440
 33554687
370
     5
100
AcDbHatch
 10
0.0
 20
0.0
 30
0.0
210
0.0
220
0.0
230
1.0
  2
SOLID
 70
     1
 71
     1
 91
        1
 92
        3
 72
     0
 73
     1
 93
        4
 10
168.0468137137767
 20
-2865.474847456426
 10
168.3801473133441
 20
-2865.474847456425
 10
168.3801473133433
 20
-2864.570958656405
 10
168.0468137137767
 20
-2864.570958656408
 97
        0
 75
     0
 76
     1
 98
        0
  0
LWPOLYLINE
  5
40D
330
1F
100
AcDbEntity
  8
Ech.1_5
 62
     7
370
     9
100
AcDbPolyline
 90
        5
 70
     0
 43
0.0
 10
168.0468137137767
 20
-2865.474847456426
 10
168.3801473133441
 20
-2865.474847456425
 10
168.3801473133433
 20
-2864.570958656405
 10
168.0468137137767
 20
-2864.570958656408
 10
168.0468137137767
 20
-2865.474847456426
  0
HATCH
  5
40E
330
1F
100
AcDbEntity
  8
Ech.1_5
 62
   252
440
 33554687
370
     5
100
AcDbHatch
 10
0.0
 20
0.0
 30
0.0
210
0.0
220
0.0
230
1.0
  2
SOLID
 70
     1
 71
     1
 91
        1
 92
        3
 72
     0
 73
     1
 93
        4
 10
168.3801473133441
 20
-2865.474847456425
 10
168.7134809129115
 20
-2865.474847456424
 10
168.7134809129115
 20
-2864.570958656406
 10
168.3801473133433
 20
-2864.570958656405
 97
        0
 75
     0
 76
     1
 98
        0
  0
LWPOLYLINE
  5
40F
330
1F
100
AcDbEntity
  8
Ech.1_5
 62
     7
370
     9
100
AcDbPolyline
 90
        5
 70
     0
 43
0.0
 10
168.3801473133441
 20
-2865.474847456425
 10
168.7134809129115
 20
-2865.474847456424
 10
168.7134809129115
 20
-2864.570958656406
 10
168.3801473133433
 20
-2864.570958656405
 10
168.3801473133441
 20
-2865.474847456425
  0
LINE
  5
410
330
1F
100
AcDbEntity
  8
Ech.1_5
 62
   190
370
     9
100
AcDbLine
 10
169.0468137137767
 20
-2864.570958656405
 30
0.0
 11
169.0468137137767
 21
-2865.474847456424
 31
0.0
  0
HATCH
  5
411
330
1F
100
AcDbEntity
  8
Ech.1_5
 62
   252
440
 33554687
370
     5
100
AcDbHatch
 10
0.0
 20
0.0
 30
0.0
210
0.0
220
0.0
230
1.0
  2
SOLID
 70
     1
 71
     1
 91
        1
 92
        3
 72
     0
 73
     1
 93
        4
 10
168.7134809129115
 20
-2865.474847456424
 10
169.0468145124782
 20
-2865.474847456424
 10
169.0468145124789
 20
-2864.570958656405
 10
168.7134809129115
 20
-2864.570958656406
 97
        0
 75
     0
 76
     1
 98
        0
  0
LWPOLYLINE
  5
412
330
1F
100
AcDbEntity
  8
Ech.1_5
 62
     7
370
     9
100
AcDbPolyline
 90
        5
 70
     0
 43
0.0
 10
168.7134809129115
 20
-2865.474847456424
 10
169.0468145124782
 20
-2865.474847456424
 10
169.0468145124789
 20
-2864.570958656405
 10
168.7134809129115
 20
-2864.570958656406
 10
168.7134809129115
 20
-2865.474847456424
  0
HATCH
  5
413
330
1F
100
AcDbEntity
  8
Ech.1_5
 62
   252
440
 33554687
370
     5
100
AcDbHatch
 10
0.0
 20
0.0
 30
0.0
210
0.0
220
0.0
230
1.0
  2
SOLID
 70
     1
 71
     1
 91
        1
 92
        3
 72
     0
 73
     1
 93
        4
 10
169.0468145124782
 20
-2865.474847456424
 10
169.380148112047
 20
-2865.474847456425
 10
169.3801481120456
 20
-2864.570958656402
 10
169.0468145124789
 20
-2864.570958656405
 97
        0
 75
     0
 76
     1
 98
        0
  0
LWPOLYLINE
  5
414
330
1F
100
AcDbEntity
  8
Ech.1_5
 62
     7
370
     9
100
AcDbPolyline
 90
        5
 70
     0
 43
0.0
 10
169.0468145124782
 20
-2865.474847456424
 10
169.380148112047
 20
-2865.474847456425
 10
169.3801481120456
 20
-2864.570958656402
 10
169.0468145124789
 20
-2864.570958656405
 10
169.0468145124782
 20
-2865.474847456424
  0
LINE
  5
415
330
1F
100
AcDbEntity
  8
Ech.1_5
 62
   190
370
     9
100
AcDbLine
 10
169.7134801142085
 20
-2864.570958656406
 30
0.0
 11
169.7134801142092
 21
-2865.474847456424
 31
0.0
  0
LINE
  5
416
330
1F
100
AcDbEntity
  8
Ech.1_5
 62
   190
370
     9
100
AcDbLine
 10
169.3801473133441
 20
-2864.570958656402
 30
0.0
 11
169.3801473133433
 21
-2865.474847456425
 31
0.0
  0
HATCH
  5
417
330
1F
100
AcDbEntity
  8
Ech.1_5
 62
   252
440
 33554687
370
     5
100
AcDbHatch
 10
0.0
 20
0.0
 30
0.0
210
0.0
220
0.0
230
1.0
  2
SOLID
 70
     1
 71
     1
 91
        1
 92
        3
 72
     0
 73
     1
 93
        4
 10
169.3801465146418
 20
-2865.474847456425
 10
169.7134801142092
 20
-2865.474847456424
 10
169.7134801142085
 20
-2864.570958656406
 10
169.3801465146411
 20
-2864.570958656402
 97
        0
 75
     0
 76
     1
 98
        0
  0
LWPOLYLINE
  5
418
330
1F
100
AcDbEntity
  8
Ech.1_5
 62
     7
370
     9
100
AcDbPolyline
 90
        5
 70
     0
 43
0.0
 10
169.3801465146418
 20
-2865.474847456425
 10
169.7134801142092
 20
-2865.474847456424
 10
169.7134801142085
 20
-2864.570958656406
 10
169.3801465146411
 20
-2864.570958656402
 10
169.3801465146418
 20
-2865.474847456425
  0
HATCH
  5
419
330
1F
100
AcDbEntity
  8
Ech.1_5
 62
   252
440
 33554687
370
     5
100
AcDbHatch
 10
0.0
 20
0.0
 30
0.0
210
0.0
220
0.0
230
1.0
  2
SOLID
 70
     1
 71
     1
 91
        1
 92
        3
 72
     0
 73
     1
 93
        4
 10
169.7134801142092
 20
-2865.474847456424
 10
170.0468137137767
 20
-2865.474847456424
 10
170.0468137137759
 20
-2864.570958656405
 10
169.7134801142085
 20
-2864.570958656403
 97
        0
 75
     0
 76
     1
 98
        0
  0
LWPOLYLINE
  5
41A
330
1F
100
AcDbEntity
  8
Ech.1_5
 62
     7
370
     9
100
AcDbPolyline
 90
        5
 70
     0
 43
0.0
 10
169.7134801142092
 20
-2865.474847456424
 10
170.0468137137767
 20
-2865.474847456424
 10
170.0468137137759
 20
-2864.570958656405
 10
169.7134801142085
 20
-2864.570958656403
 10
169.7134801142092
 20
-2865.474847456424
  0
HATCH
  5
41B
330
1F
100
AcDbEntity
  8
Ech.1_5
 62
   252
440
 33554687
370
     5
100
AcDbHatch
 10
0.0
 20
0.0
 30
0.0
210
0.0
220
0.0
230
1.0
  2
SOLID
 70
     1
 71
     1
 91
        1
 92
        3
 72
     0
 73
     1
 93
        4
 10
170.0468137137767
 20
-2865.474847456424
 10
170.3801473133441
 20
-2865.474847456422
 10
170.3801473133441
 20
-2864.570958656402
 10
170.0468137137759
 20
-2864.570958656405
 97
        0
 75
     0
 76
     1
 98
        0
  0
LWPOLYLINE
  5
41C
330
1F
100
AcDbEntity
  8
Ech.1_5
 62
     7
370
     9
100
AcDbPolyline
 90
        5
 70
     0
 43
0.0
 10
170.0468137137767
 20
-2865.474847456424
 10
170.3801473133441
 20
-2865.474847456422
 10
170.3801473133441
 20
-2864.570958656402
 10
170.0468137137759
 20
-2864.570958656405
 10
170.0468137137767
 20
-2865.474847456424
  0
LINE
  5
41D
330
1F
100
AcDbEntity
  8
Ech.1_5
 62
   190
370
     9
100
AcDbLine
 10
172.0468133144263
 20
-2864.570958656403
 30
0.0
 11
172.0468133144255
 21
-2865.474847456422
 31
0.0
  0
LINE
  5
41E
330
1F
100
AcDbEntity
  8
Ech.1_5
 62
   190
370
     9
100
AcDbLine
 10
172.3801465146411
 20
-2864.570958656403
 30
0.0
 11
172.3801465146418
 21
-2865.474847456419
 31
0.0
  0
LINE
  5
41F
330
1F
100
AcDbEntity
  8
Ech.1_5
 62
   190
370
     9
100
AcDbLine
 10
171.71348011421
 20
-2864.570958656402
 30
0.0
 11
171.7134801142085
 21
-2865.47484745642
 31
0.0
  0
LINE
  5
420
330
1F
100
AcDbEntity
  8
Ech.1_5
 62
   190
370
     9
100
AcDbLine
 10
171.3801465146418
 20
-2864.570958656401
 30
0.0
 11
171.3801465146411
 21
-2865.474847456419
 31
0.0
  0
LINE
  5
421
330
1F
100
AcDbEntity
  8
Ech.1_5
 62
   190
370
     9
100
AcDbLine
 10
171.0468133144263
 20
-2864.570958656403
 30
0.0
 11
171.0468133144263
 21
-2865.474847456422
 31
0.0
  0
LINE
  5
422
330
1F
100
AcDbEntity
  8
Ech.1_5
 62
   190
370
     9
100
AcDbLine
 10
170.7134801142092
 20
-2864.570958656405
 30
0.0
 11
170.71348011421
 21
-2865.47484745642
 31
0.0
  0
HATCH
  5
423
330
1F
100
AcDbEntity
  8
Ech.1_5
 62
   252
440
 33554687
370
     5
100
AcDbHatch
 10
0.0
 20
0.0
 30
0.0
210
0.0
220
0.0
230
1.0
  2
SOLID
 70
     1
 71
     1
 91
        1
 92
        3
 72
     0
 73
     1
 93
        4
 10
170.3801473133441
 20
-2865.474847456422
 10
170.7134809129115
 20
-2865.47484745642
 10
170.7134809129122
 20
-2864.570958656405
 10
170.3801473133441
 20
-2864.570958656401
 97
        0
 75
     0
 76
     1
 98
        0
  0
LWPOLYLINE
  5
424
330
1F
100
AcDbEntity
  8
Ech.1_5
 62
     7
370
     9
100
AcDbPolyline
 90
        5
 70
     0
 43
0.0
 10
170.3801473133441
 20
-2865.474847456422
 10
170.7134809129115
 20
-2865.47484745642
 10
170.7134809129122
 20
-2864.570958656405
 10
170.3801473133441
 20
-2864.570958656401
 10
170.3801473133441
 20
-2865.474847456422
  0
HATCH
  5
425
330
1F
100
AcDbEntity
  8
Ech.1_5
 62
   252
440
 33554687
370
     5
100
AcDbHatch
 10
0.0
 20
0.0
 30
0.0
210
0.0
220
0.0
230
1.0
  2
SOLID
 70
     1
 71
     1
 91
        1
 92
        3
 72
     0
 73
     1
 93
        4
 10
170.7134809129115
 20
-2865.47484745642
 10
171.0468145124796
 20
-2865.474847456422
 10
171.0468145124789
 20
-2864.570958656403
 10
170.7134809129122
 20
-2864.570958656405
 97
        0
 75
     0
 76
     1
 98
        0
  0
LWPOLYLINE
  5
426
330
1F
100
AcDbEntity
  8
Ech.1_5
 62
     7
370
     9
100
AcDbPolyline
 90
        5
 70
     0
 43
0.0
 10
170.7134809129115
 20
-2865.47484745642
 10
171.0468145124796
 20
-2865.474847456422
 10
171.0468145124789
 20
-2864.570958656403
 10
170.7134809129122
 20
-2864.570958656405
 10
170.7134809129115
 20
-2865.47484745642
  0
HATCH
  5
427
330
1F
100
AcDbEntity
  8
Ech.1_5
 62
   252
440
 33554687
370
     5
100
AcDbHatch
 10
0.0
 20
0.0
 30
0.0
210
0.0
220
0.0
230
1.0
  2
SOLID
 70
     1
 71
     1
 91
        1
 92
        3
 72
     0
 73
     1
 93
        4
 10
171.0468137137774
 20
-2865.474847456422
 10
171.3801473133448
 20
-2865.474847456419
 10
171.3801473133433
 20
-2864.570958656401
 10
171.0468137137767
 20
-2864.570958656403
 97
        0
 75
     0
 76
     1
 98
        0
  0
LWPOLYLINE
  5
428
330
1F
100
AcDbEntity
  8
Ech.1_5
 62
     7
370
     9
100
AcDbPolyline
 90
        5
 70
     0
 43
0.0
 10
171.0468137137774
 20
-2865.474847456422
 10
171.3801473133448
 20
-2865.474847456419
 10
171.3801473133433
 20
-2864.570958656401
 10
171.0468137137767
 20
-2864.570958656403
 10
171.0468137137774
 20
-2865.474847456422
  0
HATCH
  5
429
330
1F
100
AcDbEntity
  8
Ech.1_5
 62
   252
440
 33554687
370
     5
100
AcDbHatch
 10
0.0
 20
0.0
 30
0.0
210
0.0
220
0.0
230
1.0
  2
SOLID
 70
     1
 71
     1
 91
        1
 92
        3
 72
     0
 73
     1
 93
        4
 10
171.3801465146411
 20
-2865.474847456419
 10
171.7134801142085
 20
-2865.47484745642
 10
171.71348011421
 20
-2864.570958656402
 10
171.3801465146418
 20
-2864.570958656401
 97
        0
 75
     0
 76
     1
 98
        0
  0
LWPOLYLINE
  5
42A
330
1F
100
AcDbEntity
  8
Ech.1_5
 62
     7
370
     9
100
AcDbPolyline
 90
        5
 70
     0
 43
0.0
 10
171.3801465146411
 20
-2865.474847456419
 10
171.7134801142085
 20
-2865.47484745642
 10
171.71348011421
 20
-2864.570958656402
 10
171.3801465146418
 20
-2864.570958656401
 10
171.3801465146411
 20
-2865.474847456419
  0
HATCH
  5
42B
330
1F
100
AcDbEntity
  8
Ech.1_5
 62
   252
440
 33554687
370
     5
100
AcDbHatch
 10
0.0
 20
0.0
 30
0.0
210
0.0
220
0.0
230
1.0
  2
SOLID
 70
     1
 71
     1
 91
        1
 92
        3
 72
     0
 73
     1
 93
        4
 10
171.7134801142085
 20
-2865.47484745642
 10
172.0468137137774
 20
-2865.474847456422
 10
172.0468137137767
 20
-2864.570958656403
 10
171.71348011421
 20
-2864.570958656402
 97
        0
 75
     0
 76
     1
 98
        0
  0
LWPOLYLINE
  5
42C
330
1F
100
AcDbEntity
  8
Ech.1_5
 62
     7
370
     9
100
AcDbPolyline
 90
        5
 70
     0
 43
0.0
 10
171.7134801142085
 20
-2865.47484745642
 10
172.0468137137774
 20
-2865.474847456422
 10
172.0468137137767
 20
-2864.570958656403
 10
171.71348011421
 20
-2864.570958656402
 10
171.7134801142085
 20
-2865.47484745642
  0
HATCH
  5
42D
330
1F
100
AcDbEntity
  8
Ech.1_5
 62
   252
440
 33554687
370
     5
100
AcDbHatch
 10
0.0
 20
0.0
 30
0.0
210
0.0
220
0.0
230
1.0
  2
SOLID
 70
     1
 71
     1
 91
        1
 92
        3
 72
     0
 73
     1
 93
        4
 10
172.0468137137774
 20
-2865.474847456422
 10
172.3801473133448
 20
-2865.47484745642
 10
172.3801473133433
 20
-2864.570958656401
 10
172.0468137137767
 20
-2864.570958656403
 97
        0
 75
     0
 76
     1
 98
        0
  0
LWPOLYLINE
  5
42E
330
1F
100
AcDbEntity
  8
Ech.1_5
 62
     7
370
     9
100
AcDbPolyline
 90
        5
 70
     0
 43
0.0
 10
172.0468137137774
 20
-2865.474847456422
 10
172.3801473133448
 20
-2865.47484745642
 10
172.3801473133433
 20
-2864.570958656401
 10
172.0468137137767
 20
-2864.570958656403
 10
172.0468137137774
 20
-2865.474847456422
  0
HATCH
  5
42F
330
1F
100
AcDbEntity
  8
Ech.1_5
 62
   252
440
 33554687
370
     5
100
AcDbHatch
 10
0.0
 20
0.0
 30
0.0
210
0.0
220
0.0
230
1.0
  2
SOLID
 70
     1
 71
     1
 91
        1
 92
        3
 72
     0
 73
     1
 93
        4
 10
172.3801473133448
 20
-2865.47484745642
 10
172.7134809129137
 20
-2865.474847456422
 10
172.7134809129122
 20
-2864.570958656399
 10
172.3801473133455
 20
-2864.570958656402
 97
        0
 75
     0
 76
     1
 98
        0
  0
LWPOLYLINE
  5
430
330
1F
100
AcDbEntity
  8
Ech.1_5
 62
     7
370
     9
100
AcDbPolyline
 90
        5
 70
     0
 43
0.0
 10
172.3801473133448
 20
-2865.47484745642
 10
172.7134809129137
 20
-2865.474847456422
 10
172.7134809129122
 20
-2864.570958656399
 10
172.3801473133455
 20
-2864.570958656402
 10
172.3801473133448
 20
-2865.47484745642
  0
LINE
  5
431
330
1F
100
AcDbEntity
  8
Ech.1_5
 62
   190
370
     9
100
AcDbLine
 10
173.0468129150752
 20
-2864.570958656403
 30
0.0
 11
173.0468129150759
 21
-2865.47484745642
 31
0.0
  0
LINE
  5
432
330
1F
100
AcDbEntity
  8
Ech.1_5
 62
   190
370
     9
100
AcDbLine
 10
172.7134801142107
 20
-2864.570958656399
 30
0.0
 11
172.71348011421
 21
-2865.474847456422
 31
0.0
  0
HATCH
  5
433
330
1F
100
AcDbEntity
  8
Ech.1_5
 62
   252
440
 33554687
370
     5
100
AcDbHatch
 10
0.0
 20
0.0
 30
0.0
210
0.0
220
0.0
230
1.0
  2
SOLID
 70
     1
 71
     1
 91
        1
 92
        3
 72
     0
 73
     1
 93
        4
 10
172.7134793155085
 20
-2865.474847456422
 10
173.0468129150759
 20
-2865.47484745642
 10
173.0468129150752
 20
-2864.570958656403
 10
172.7134793155077
 20
-2864.570958656399
 97
        0
 75
     0
 76
     1
 98
        0
  0
LWPOLYLINE
  5
434
330
1F
100
AcDbEntity
  8
Ech.1_5
 62
     7
370
     9
100
AcDbPolyline
 90
        5
 70
     0
 43
0.0
 10
172.7134793155085
 20
-2865.474847456422
 10
173.0468129150759
 20
-2865.47484745642
 10
173.0468129150752
 20
-2864.570958656403
 10
172.7134793155077
 20
-2864.570958656399
 10
172.7134793155085
 20
-2865.474847456422
  0
HATCH
  5
435
330
1F
100
AcDbEntity
  8
Ech.1_5
 62
   252
440
 33554687
370
     5
100
AcDbHatch
 10
0.0
 20
0.0
 30
0.0
210
0.0
220
0.0
230
1.0
  2
SOLID
 70
     1
 71
     1
 91
        1
 92
        3
 72
     0
 73
     1
 93
        4
 10
173.0468129150759
 20
-2865.47484745642
 10
173.3801465146433
 20
-2865.47484745642
 10
173.3801465146425
 20
-2864.570958656402
 10
173.0468129150752
 20
-2864.570958656401
 97
        0
 75
     0
 76
     1
 98
        0
  0
LWPOLYLINE
  5
436
330
1F
100
AcDbEntity
  8
Ech.1_5
 62
     7
370
     9
100
AcDbPolyline
 90
        5
 70
     0
 43
0.0
 10
173.0468129150759
 20
-2865.47484745642
 10
173.3801465146433
 20
-2865.47484745642
 10
173.3801465146425
 20
-2864.570958656402
 10
173.0468129150752
 20
-2864.570958656401
 10
173.0468129150759
 20
-2865.47484745642
  0
HATCH
  5
437
330
1F
100
AcDbEntity
  8
Ech.1_5
 62
   252
440
 33554687
370
     5
100
AcDbHatch
 10
0.0
 20
0.0
 30
0.0
210
0.0
220
0.0
230
1.0
  2
SOLID
 70
     1
 71
     1
 91
        1
 92
        3
 72
     0
 73
     1
 93
        4
 10
173.3801465146433
 20
-2865.47484745642
 10
173.7134801142107
 20
-2865.474847456419
 10
173.7134801142107
 20
-2864.570958656399
 10
173.3801465146425
 20
-2864.570958656402
 97
        0
 75
     0
 76
     1
 98
        0
  0
LWPOLYLINE
  5
438
330
1F
100
AcDbEntity
  8
Ech.1_5
 62
     7
370
     9
100
AcDbPolyline
 90
        5
 70
     0
 43
0.0
 10
173.3801465146433
 20
-2865.47484745642
 10
173.7134801142107
 20
-2865.474847456419
 10
173.7134801142107
 20
-2864.570958656399
 10
173.3801465146425
 20
-2864.570958656402
 10
173.3801465146433
 20
-2865.47484745642
  0
LINE
  5
439
330
1F
100
AcDbEntity
  8
Ech.1_5
 62
   190
370
     9
100
AcDbLine
 10
175.3801461152929
 20
-2864.570958656401
 30
0.0
 11
175.3801461152922
 21
-2865.474847456419
 31
0.0
  0
LINE
  5
43A
330
1F
100
AcDbEntity
  8
Ech.1_5
 62
   190
370
     9
100
AcDbLine
 10
175.0468129150766
 20
-2864.570958656399
 30
0.0
 11
175.0468129150752
 21
-2865.474847456418
 31
0.0
  0
LINE
  5
43B
330
1F
100
AcDbEntity
  8
Ech.1_5
 62
   190
370
     9
100
AcDbLine
 10
174.7134793155085
 20
-2864.570958656398
 30
0.0
 11
174.7134793155077
 21
-2865.474847456416
 31
0.0
  0
LINE
  5
43C
330
1F
100
AcDbEntity
  8
Ech.1_5
 62
   190
370
     9
100
AcDbLine
 10
174.3801461152929
 20
-2864.570958656401
 30
0.0
 11
174.3801461152929
 21
-2865.474847456419
 31
0.0
  0
LINE
  5
43D
330
1F
100
AcDbEntity
  8
Ech.1_5
 62
   190
370
     9
100
AcDbLine
 10
174.0468129150759
 20
-2864.570958656402
 30
0.0
 11
174.0468129150766
 21
-2865.474847456418
 31
0.0
  0
HATCH
  5
43E
330
1F
100
AcDbEntity
  8
Ech.1_5
 62
   252
440
 33554687
370
     5
100
AcDbHatch
 10
0.0
 20
0.0
 30
0.0
210
0.0
220
0.0
230
1.0
  2
SOLID
 70
     1
 71
     1
 91
        1
 92
        3
 72
     0
 73
     1
 93
        4
 10
173.7134801142107
 20
-2865.474847456419
 10
174.0468137137781
 20
-2865.474847456418
 10
174.0468137137788
 20
-2864.570958656402
 10
173.7134801142107
 20
-2864.570958656398
 97
        0
 75
     0
 76
     1
 98
        0
  0
LWPOLYLINE
  5
43F
330
1F
100
AcDbEntity
  8
Ech.1_5
 62
     7
370
     9
100
AcDbPolyline
 90
        5
 70
     0
 43
0.0
 10
173.7134801142107
 20
-2865.474847456419
 10
174.0468137137781
 20
-2865.474847456418
 10
174.0468137137788
 20
-2864.570958656402
 10
173.7134801142107
 20
-2864.570958656398
 10
173.7134801142107
 20
-2865.474847456419
  0
HATCH
  5
440
330
1F
100
AcDbEntity
  8
Ech.1_5
 62
   252
440
 33554687
370
     5
100
AcDbHatch
 10
0.0
 20
0.0
 30
0.0
210
0.0
220
0.0
230
1.0
  2
SOLID
 70
     1
 71
     1
 91
        1
 92
        3
 72
     0
 73
     1
 93
        4
 10
174.0468137137781
 20
-2865.474847456418
 10
174.3801473133462
 20
-2865.474847456419
 10
174.3801473133455
 20
-2864.570958656401
 10
174.0468137137788
 20
-2864.570958656402
 97
        0
 75
     0
 76
     1
 98
        0
  0
LWPOLYLINE
  5
441
330
1F
100
AcDbEntity
  8
Ech.1_5
 62
     7
370
     9
100
AcDbPolyline
 90
        5
 70
     0
 43
0.0
 10
174.0468137137781
 20
-2865.474847456418
 10
174.3801473133462
 20
-2865.474847456419
 10
174.3801473133455
 20
-2864.570958656401
 10
174.0468137137788
 20
-2864.570958656402
 10
174.0468137137781
 20
-2865.474847456418
  0
HATCH
  5
442
330
1F
100
AcDbEntity
  8
Ech.1_5
 62
   252
440
 33554687
370
     5
100
AcDbHatch
 10
0.0
 20
0.0
 30
0.0
210
0.0
220
0.0
230
1.0
  2
SOLID
 70
     1
 71
     1
 91
        1
 92
        3
 72
     0
 73
     1
 93
        4
 10
174.380146514644
 20
-2865.474847456419
 10
174.7134801142114
 20
-2865.474847456416
 10
174.71348011421
 20
-2864.570958656398
 10
174.3801465146433
 20
-2864.570958656401
 97
        0
 75
     0
 76
     1
 98
        0
  0
LWPOLYLINE
  5
443
330
1F
100
AcDbEntity
  8
Ech.1_5
 62
     7
370
     9
100
AcDbPolyline
 90
        5
 70
     0
 43
0.0
 10
174.380146514644
 20
-2865.474847456419
 10
174.7134801142114
 20
-2865.474847456416
 10
174.71348011421
 20
-2864.570958656398
 10
174.3801465146433
 20
-2864.570958656401
 10
174.380146514644
 20
-2865.474847456419
  0
HATCH
  5
444
330
1F
100
AcDbEntity
  8
Ech.1_5
 62
   252
440
 33554687
370
     5
100
AcDbHatch
 10
0.0
 20
0.0
 30
0.0
210
0.0
220
0.0
230
1.0
  2
SOLID
 70
     1
 71
     1
 91
        1
 92
        3
 72
     0
 73
     1
 93
        4
 10
174.7134793155077
 20
-2865.474847456416
 10
175.0468129150752
 20
-2865.474847456418
 10
175.0468129150766
 20
-2864.570958656399
 10
174.7134793155085
 20
-2864.570958656398
 97
        0
 75
     0
 76
     1
 98
        0
  0
LWPOLYLINE
  5
445
330
1F
100
AcDbEntity
  8
Ech.1_5
 62
     7
370
     9
100
AcDbPolyline
 90
        5
 70
     0
 43
0.0
 10
174.7134793155077
 20
-2865.474847456416
 10
175.0468129150752
 20
-2865.474847456418
 10
175.0468129150766
 20
-2864.570958656399
 10
174.7134793155085
 20
-2864.570958656398
 10
174.7134793155077
 20
-2865.474847456416
  0
HATCH
  5
446
330
1F
100
AcDbEntity
  8
Ech.1_5
 62
   252
440
 33554687
370
     5
100
AcDbHatch
 10
0.0
 20
0.0
 30
0.0
210
0.0
220
0.0
230
1.0
  2
SOLID
 70
     1
 71
     1
 91
        1
 92
        3
 72
     0
 73
     1
 93
        4
 10
175.0468129150752
 20
-2865.474847456418
 10
175.380146514644
 20
-2865.474847456419
 10
175.3801465146433
 20
-2864.570958656401
 10
175.0468129150766
 20
-2864.570958656399
 97
        0
 75
     0
 76
     1
 98
        0
  0
LWPOLYLINE
  5
447
330
1F
100
AcDbEntity
  8
Ech.1_5
 62
     7
370
     9
100
AcDbPolyline
 90
        5
 70
     0
 43
0.0
 10
175.0468129150752
 20
-2865.474847456418
 10
175.380146514644
 20
-2865.474847456419
 10
175.3801465146433
 20
-2864.570958656401
 10
175.0468129150766
 20
-2864.570958656399
 10
175.0468129150752
 20
-2865.474847456418
  0
HATCH
  5
448
330
1F
100
AcDbEntity
  8
Ech.1_5
 62
   252
440
 33554687
370
     5
100
AcDbHatch
 10
0.0
 20
0.0
 30
0.0
210
0.0
220
0.0
230
1.0
  2
SOLID
 70
     1
 71
     1
 91
        1
 92
        3
 72
     0
 73
     1
 93
        4
 10
175.380146514644
 20
-2865.474847456419
 10
175.7134801142114
 20
-2865.474847456418
 10
175.71348011421
 20
-2864.570958656398
 10
175.3801465146433
 20
-2864.570958656401
 97
        0
 75
     0
 76
     1
 98
        0
  0
LWPOLYLINE
  5
449
330
1F
100
AcDbEntity
  8
Ech.1_5
 62
     7
370
     9
100
AcDbPolyline
 90
        5
 70
     0
 43
0.0
 10
175.380146514644
 20
-2865.474847456419
 10
175.7134801142114
 20
-2865.474847456418
 10
175.71348011421
 20
-2864.570958656398
 10
175.3801465146433
 20
-2864.570958656401
 10
175.380146514644
 20
-2865.474847456419
  0
HATCH
  5
44A
330
1F
100
AcDbEntity
  8
Ech.1_5
 62
   252
440
 33554687
370
     5
100
AcDbHatch
 10
0.0
 20
0.0
 30
0.0
210
0.0
220
0.0
230
1.0
  2
SOLID
 70
     1
 71
     1
 91
        1
 92
        3
 72
     0
 73
     1
 93
        4
 10
175.7134801142114
 20
-2865.474847456418
 10
176.0468137137788
 20
-2865.474847456416
 10
176.0468137137774
 20
-2864.570958656396
 10
175.7134801142107
 20
-2864.570958656399
 97
        0
 75
     0
 76
     1
 98
        0
  0
LWPOLYLINE
  5
44B
330
1F
100
AcDbEntity
  8
Ech.1_5
 62
     7
370
     9
100
AcDbPolyline
 90
        5
 70
     0
 43
0.0
 10
175.7134801142114
 20
-2865.474847456418
 10
176.0468137137788
 20
-2865.474847456416
 10
176.0468137137774
 20
-2864.570958656396
 10
175.7134801142107
 20
-2864.570958656399
 10
175.7134801142114
 20
-2865.474847456418
  0
LWPOLYLINE
  5
44C
330
1F
100
AcDbEntity
  8
Ech.1_5
 62
   202
420
  8519880
370
    50
100
AcDbPolyline
 90
        4
 70
     0
 43
0.0
 10
191.6138168187917
 20
-2846.493989570894
 10
191.6138168187917
 20
-2851.689642938914
 10
189.341571633994
 20
-2853.26353579528
 10
189.341571633994
 20
-2858.654907795637
  0
LWPOLYLINE
  5
44D
330
1F
100
AcDbEntity
  8
Ech.1_5
 62
   202
420
  8519880
370
    50
100
AcDbPolyline
 90
        4
 70
     0
 43
0.0
 10
178.0295125931665
 20
-2873.422107956827
 10
186.8230534311955
 20
-2873.422107956827
 42
0.3516434726147284
 10
191.0138168187918
 20
-2869.455984592334
 10
191.0138168187918
 20
-2853.856003685704
  0
LWPOLYLINE
  5
44E
330
1F
100
AcDbEntity
  8
Ech.1_5
 62
   202
420
  8519880
370
    50
100
AcDbPolyline
 90
        4
 70
     0
 43
0.0
 10
191.6138168188551
 20
-2932.730806845678
 10
191.6138168188551
 20
-2927.535153477635
 10
189.3415716340573
 20
-2925.961260621292
 10
189.3415716340573
 20
-2920.569888620912
  0
LWPOLYLINE
  5
44F
330
1F
100
AcDbEntity
  8
Ech.1_5
 62
   202
420
  8519880
370
    50
100
AcDbPolyline
 90
        4
 70
     0
 43
0.0
 10
178.0281285639623
 20
-2905.802688459722
 10
186.0216694019913
 20
-2905.802688459722
 42
-0.4006337679811697
 10
191.0124327895876
 20
-2909.768811824215
 10
191.0124327895876
 20
-2925.368792730845
  0
LWPOLYLINE
  5
450
330
1F
100
AcDbEntity
  8
Ech.1_5
 62
   190
370
    20
100
AcDbPolyline
 90
        3
 70
     0
 43
0.0
 10
191.6138051992575
 20
-2866.523850842538
 10
135.5325309234544
 20
-2837.739417889476
 10
127.5325309234544
 20
-2837.739417889476
  0
INSERT
  5
451
330
1F
100
AcDbEntity
  8
Ech.1_5
 62
   190
370
    20
100
AcDbBlockReference
  2
cw-line-extremity4
 10
191.6138051992575
 20
-2866.523850842538
 30
0.0
 50
152.8302565010539
  0
LWPOLYLINE
  5
452
330
1F
100
AcDbEntity
  8
Ech.1_5
 62
   190
370
    20
100
AcDbPolyline
 90
        3
 70
     0
 43
0.0
 10
214.3823345428147
 20
-2766.2082852885
 10
135.5325309234544
 20
-2766.2082852885
 10
127.5325309234544
 20
-2766.2082852885
  0
INSERT
  5
453
330
1F
100
AcDbEntity
  8
Ech.1_5
 62
   190
370
    20
100
AcDbBlockReference
  2
cw-line-extremity4
 10
214.3823345428147
 20
-2766.2082852885
 30
0.0
 50
180.0
  0
LWPOLYLINE
  5
454
330
1F
100
AcDbEntity
  8
Ech.1_5
 62
   190
370
    20
100
AcDbPolyline
 90
        3
 70
     0
 43
0.0
 10
154.0309648807228
 20
-2797.561949804787
 10
135.5325309234544
 20
-2797.561949804787
 10
127.5325309234544
 20
-2797.561949804787
  0
INSERT
  5
455
330
1F
100
AcDbEntity
  8
Ech.1_5
 62
   190
370
    20
100
AcDbBlockReference
  2
cw-line-extremity4
 10
154.0309648807228
 20
-2797.561949804787
 30
0.0
 50
180.0
  0
LWPOLYLINE
  5
456
330
1F
100
AcDbEntity
  8
Ech.1_5
 62
   190
370
    20
100
AcDbPolyline
 90
        3
 70
     0
 43
0.0
 10
185.3997653364383
 20
-2742.041163478127
 10
135.5325309234544
 20
-2742.041163478127
 10
127.5325309234544
 20
-2742.041163478127
  0
INSERT
  5
457
330
1F
100
AcDbEntity
  8
Ech.1_5
 62
   190
370
    20
100
AcDbBlockReference
  2
cw-line-extremity4
 10
185.3997653364383
 20
-2742.041163478127
 30
0.0
 50
180.0
  0
LWPOLYLINE
  5
458
330
1F
100
AcDbEntity
  8
Ech.1_5
 62
   190
370
    20
100
AcDbPolyline
 90
        3
 70
     0
 43
0.0
 10
171.3804844174477
 20
-2921.174943051902
 10
135.5325309234544
 20
-2950.092114918791
 10
127.5325309234544
 20
-2950.092114918791
  0
INSERT
  5
459
330
1F
100
AcDbEntity
  8
Ech.1_5
 62
   190
370
    20
100
AcDbBlockReference
  2
cw-line-extremity4
 10
171.3804844174477
 20
-2921.174943051902
 30
0.0
 50
218.8917900253915
  0
DIMENSION
  5
45B
102
{ACAD_REACTORS
330
45C
102
}
330
1F
100
AcDbEntity
  8
Ech.1_5
 62
   190
370
    20
100
AcDbDimension
280
     0
  2
*D70
 10
170.2899342436602
 20
-2905.589213105991
 30
0.0
 11
165.7899342436602
 21
-2906.605896501108
 31
0.0
 70
   160
  1
5 mm
 71
     5
 42
2.03336679023323
 73
     0
 74
     0
 75
     0
 53
90.0
  3
Standard
100
AcDbAlignedDimension
 13
167.8937440904625
 23
-2907.622579896224
 33
0.0
 14
179.8937440904626
 24
-2905.589213105991
 34
0.0
 50
-90.0
100
AcDbRotatedDimension
1001
ACAD
1000
DSTYLE
1002
{
1070
   178
1070
   190
1070
   271
1070
     0
1070
   147
1040
0.0
1070
   140
1040
5.0
1070
   340
1005
45A
1070
   144
1040
1.0
1070
    42
1040
0.0
1070
    44
1040
2.0
1070
    41
1040
2.0
1070
   342
1005
1AB
1070
   175
1070
     1
1070
   279
1070
     2
1070
   172
1070
     1
1002
}
  0
DIMENSION
  5
46C
102
{ACAD_REACTORS
330
46D
102
}
330
1F
100
AcDbEntity
  8
Ech.1_5
 62
   190
370
    20
100
AcDbDimension
280
     0
  2
*D71
 10
170.2899342436602
 20
-2871.422880394183
 30
0.0
 11
165.7899342436602
 21
-2872.439563789299
 31
0.0
 70
   160
  1
5 mm
 71
     5
 42
2.033366790231866
 73
     0
 74
     0
 75
     0
 53
90.0
  3
Standard
100
AcDbAlignedDimension
 13
167.8937440904625
 23
-2873.456247184415
 33
0.0
 14
179.8937440904626
 24
-2871.422880394183
 34
0.0
 50
-90.0
100
AcDbRotatedDimension
1001
ACAD
1000
DSTYLE
1002
{
1070
   178
1070
   190
1070
   271
1070
     0
1070
   147
1040
0.0
1070
   140
1040
5.0
1070
   340
1005
45A
1070
   144
1040
1.0
1070
    42
1040
0.0
1070
    44
1040
2.0
1070
    41
1040
2.0
1070
   342
1005
1AB
1070
   175
1070
     1
1070
   279
1070
     2
1070
   172
1070
     1
1002
}
  0
MTEXT
  5
47C
330
1F
100
AcDbEntity
  8
Ech.1_5
 62
     4
420
    65535
100
AcDbMText
 10
285.3609546045708
 20
-2918.478076301441
 30
0.0
 40
5.5
 41
106.5807166554598
 46
0.0
 71
     1
 72
     1
  1
{\fArial|b0|i0;\W1.000000;\H5.500000;\c16711848;Conduit "ventouse"}\P{\fArial|b0|i0;\W1.000000;\H5.500000;\c16711848;(pente selon NF DTU 24.1)}
 73
     1
 44
1.07999975538982
  0
MTEXT
  5
47D
330
1F
100
AcDbEntity
  8
Ech.1_5
 62
     4
420
    65535
100
AcDbMText
 10
237.4796146518445
 20
-3128.513723706978
 30
0.0
 40
5.0
 41
195.3371538540771
 46
0.0
 71
     2
 72
     1
  1
{\fArial|b0|i0;\W1.000000;\H5.000000;\c16711848;Vue en coupe verticale}
 73
     1
 44
1.07999975538982
  0
MTEXT
  5
47E
330
1F
100
AcDbEntity
  8
Ech.1_5
 62
     4
420
    65535
100
AcDbMText
 10
365.6076586601823
 20
-3128.446853109917
 30
0.0
 40
5.0
 41
50.91893416259842
 46
0.0
 71
     2
 72
     1
  1
{\fArial|b0|i0;\W1.000000;\H5.000000;\c16711848;Ech 1/5 }
 73
     1
 44
1.07999975538982
  0
MTEXT
  5
47F
330
1F
100
AcDbEntity
  8
Ech.1_5
 62
     4
420
    65535
100
AcDbMText
 10
106.0799941257352
 20
-3128.338150588925
 30
0.0
 40
5.0
 41
57.46208719814169
 46
0.0
 71
     2
 72
     1
  1
{\fArial|b0|i0;\W1.000000;\H5.000000;\c16711848;BCVVT40-02}
 73
     1
 44
1.07999975538982
  0
MTEXT
  5
480
330
1F
100
AcDbEntity
  8
Ech.1_5
 62
   200
420
 11010303
100
AcDbMText
 10
196.5671257414815
 20
-3136.92079752366
 30
0.0
 40
2.25
 41
391.75
 46
0.0
 71
     2
 72
     1
  3
{\fArial|b0|i1;\W1.000000;\H2.250000;\c16711848; Il est rappelé à l'utilisateur qui consulte le site et utilise les informations qu'il contient, qu'il doit les utiliser sous sa seule responsabilité en vérifiant leur pertinence, leur cohérence et leur
  1
 non obsolescence.}
 73
     1
 44
1.07999975538982
  0
MTEXT
  5
481
330
1F
100
AcDbEntity
  8
Ech.1_5
 62
   200
420
 11010303
100
AcDbMText
 10
196.5671257414815
 20
-3150.461608681062
 30
0.0
 40
2.75
 41
391.25
 46
0.0
 71
     2
 72
     1
  1
{\fArial|b0|i1;\W1.000000;\H2.750000;\c16711848;www.catalogue-bois-construction.fr}
 73
     1
 44
1.07999975538982
  0
MTEXT
  5
482
330
1F
100
AcDbEntity
  8
Ech.1_5
 62
     4
420
    65535
100
AcDbMText
 10
196.5671257414815
 20
-2668.367368384168
 30
0.0
 40
6.0
 41
388.0
 46
0.0
 71
     2
 72
     1
  1
{\fArial|b0|i0;\W1.000000;\H6.000000;\c16711848;Traversée de paroi - Détail sur Conduit "ventouse" de chaudière}
 73
     1
 44
1.07999975538982
  0
MTEXT
  5
483
330
1F
100
AcDbEntity
  8
Ech.1_5
 62
     4
420
    65535
100
AcDbMText
 10
127.5325309234544
 20
-2825.089418151736
 30
0.0
 40
5.5
 41
106.1882031679153
 46
0.0
 71
     3
 72
     1
  1
{\fArial|b0|i0;\W1.000000;\H5.500000;\c16711848;Manchon ou manchette élastique en caoutchouc EPDM - diamètre fonction du conduit}
 73
     1
 44
1.07999975538982
  0
MTEXT
  5
484
330
1F
100
AcDbEntity
  8
Ech.1_5
 62
     4
420
    65535
100
AcDbMText
 10
124.7825309234544
 20
-2739.291163478127
 30
0.0
 40
5.5
 41
100.2421886869133
 46
0.0
 71
     3
 72
     1
  1
{\fArial|b0|i0;\W1.000000;\H5.500000;\c16711848;Double-tasseautage bois support de bardage}
 73
     1
 44
1.07999975538982
  0
MTEXT
  5
485
330
1F
100
AcDbEntity
  8
Ech.1_5
 62
     4
420
    65535
100
AcDbMText
 10
124.7825309234544
 20
-2763.4582852885
 30
0.0
 40
5.5
 41
73.49250351114316
 46
0.0
 71
     3
 72
     1
  1
{\fArial|b0|i0;\W1.000000;\H5.500000;\c16711848;Paroi support}
 73
     1
 44
1.07999975538982
  0
MTEXT
  5
486
330
1F
100
AcDbEntity
  8
Ech.1_5
 62
     4
420
    65535
100
AcDbMText
 10
124.7825309234544
 20
-2784.911950067048
 30
0.0
 40
5.5
 41
112.5484772960341
 46
0.0
 71
     3
 72
     1
  1
{\fArial|b0|i0;\W1.000000;\H5.500000;\c16711848;Bardage bois en lames à pose à claire-voie en pose verticale - épaisseur 21 mm mini}
 73
     1
 44
1.07999975538982
  0
MTEXT
  5
487
330
1F
100
AcDbEntity
  8
Ech.1_5
 62
     4
420
    65535
100
AcDbMText
 10
127.5325309234544
 20
-2937.442115181051
 30
0.0
 40
5.5
 41
106.1882031679153
 46
0.0
 71
     3
 72
     1
  1
{\fArial|b0|i0;\W1.000000;\H5.500000;\c16711848;Tasseaux à prévoir de part et d'autre du percement pour fixation des lames de bardage}
 73
     1
 44
1.07999975538982
  0
TEXT
  5
489
330
1F
100
AcDbEntity
  8
Ech.1_5
 62
   190
100
AcDbText
 10
20.29597802239842
 20
-3133.310510328809
 30
0.0
 40
5.0
  1
23/11/2020
  7
arial-
100
AcDbText
  0
TEXT
  5
48A
330
1F
100
AcDbEntity
  8
Ech.1_5
 62
   190
100
AcDbText
 10
70.26301807546807
 20
-2662.256766531229
 30
0.0
 40
6.6
  1
Epaisseur mini selon NF DTU 41.2 - hors exigences feu façade
  7
arial-
100
AcDbText
  0
TEXT
  5
48C
330
1F
100
AcDbEntity
  8
Ech.1_5
 62
   190
100
AcDbText
 10
63.21095508718682
 20
-2649.303379414972
 30
0.0
 40
6.6
  1
BARDAGES EN LAMES : lames à claire-voie - pose verticale
  7
arial-b
100
AcDbText
  0
VIEWPORT
  5
233
330
22D
100
AcDbEntity
 67
     1
  8
0
100
AcDbViewport
 10
98.8
 20
135.8
 30
0.0
 40
209.0608
 41
287.3528000000001
 68
     1
 69
     1
 12
128.5
 22
97.5
 13
0.0
 23
0.0
 14
10.0
 24
10.0
 15
10.0
 25
10.0
 16
0.0
 26
0.0
 36
1.0
 17
0.0
 27
0.0
 37
0.0
 42
50.0
 43
0.0
 44
0.0
 45
222.18
 50
0.0
 51
0.0
 72
   100
 90
   557152
  1

281
     0
 71
     1
 74
     0
110
0.0
120
0.0
130
0.0
111
1.0
121
0.0
131
0.0
112
0.0
122
1.0
132
0.0
 79
     0
146
0.0
170
     0
 61
     5
348
2F
292
     1
282
     1
141
0.0
142
0.0
 63
   256
361
234
  0
VIEWPORT
  5
235
330
22D
100
AcDbEntity
 67
     1
  8
0
 60
     1
100
AcDbViewport
 10
98.8
 20
135.8
 30
0.0
 40
197.6
 41
271.6
 68
     2
 69
     2
 12
196.5671257414815
 22
-2911.003379414948
 13
0.0
 23
0.0
 14
10.0
 24
10.0
 15
10.0
 25
10.0
 16
0.0
 26
0.0
 36
1.0
 17
0.0
 27
0.0
 37
0.0
 42
50.0
 43
0.0
 44
0.0
 45
543.2
 50
0.0
 51
0.0
 72
   100
 90
   557152
  1

281
     0
 71
     1
 74
     0
110
0.0
120
0.0
130
0.0
111
1.0
121
0.0
131
0.0
112
0.0
122
1.0
132
0.0
 79
     0
146
0.0
170
     0
 61
     5
348
2F
292
     1
282
     1
141
0.0
142
0.0
 63
   256
  0
ENDSEC
  0
SECTION
  2
OBJECTS
  0
DICTIONARY
  5
C
330
0
100
AcDbDictionary
281
     1
  3
ACAD_DETAILVIEWSTYLE
350
494
  3
ACAD_GROUP
350
D
  3
ACAD_IMAGE_DICT
350
252
  3
ACAD_IMAGE_VARS
350
6F
  3
ACAD_LAYOUT
350
1A
  3
ACAD_MATERIAL
350
43
  3
ACAD_MLEADERSTYLE
350
6B
  3
ACAD_MLINESTYLE
350
17
  3
ACAD_PLOTSETTINGS
350
19
  3
ACAD_PLOTSTYLENAME
350
E
  3
ACAD_SCALELIST
350
47
  3
ACAD_SECTIONVIEWSTYLE
350
495
  3
ACAD_TABLESTYLE
350
69
  3
ACAD_VISUALSTYLE
350
2A
  3
ACDB_RECOMPOSE_DATA
350
491
  3
AcDbVariableDictionary
350
48D
  0
SUN
  5
6D
330
29
100
AcDbSun
 90
        1
290
     0
 63
     7
421
 16777215
 40
1.0
291
     1
 91
  2455826
 92
 54000000
292
     0
 70
     2
 71
   256
280
     1
  0
IMAGEDEF_REACTOR
  5
255
330
254
100
AcDbRasterImageDefReactor
 90
        2
330
254
  0
IMAGEDEF_REACTOR
  5
258
330
257
100
AcDbRasterImageDefReactor
 90
        2
330
257
  0
IMAGEDEF_REACTOR
  5
25B
330
25A
100
AcDbRasterImageDefReactor
 90
        2
330
25A
  0
SUN
  5
234
330
233
100
AcDbSun
 90
        1
290
     0
 63
     7
421
 16777215
 40
1.0
291
     1
 91
  2455826
 92
 54000000
292
     0
 70
     2
 71
   256
280
     1
  0
DICTIONARY
  5
494
102
{ACAD_REACTORS
330
C
102
}
330
C
100
AcDbDictionary
281
     1
  0
DICTIONARY
  5
D
102
{ACAD_REACTORS
330
C
102
}
330
C
100
AcDbDictionary
281
     1
  3
DIM42
350
45C
  3
DIM43
350
46D
  0
DICTIONARY
  5
252
102
{ACAD_REACTORS
330
C
102
}
330
C
100
AcDbDictionary
281
     1
  3
C:\Users\MAIFFR~1\AppData\Local\Temp\EXE_LOGO_FBF_soutien_Q_L.jpg1
350
256
  3
C:\Users\MAIFFR~1\AppData\Local\Temp\fcba.jpg0
350
253
  3
C:\Users\MAIFFR~1\AppData\Local\Temp\logo_codifab_baseline_soutien.jpg2
350
259
  0
RASTERVARIABLES
  5
6F
102
{ACAD_REACTORS
330
C
102
}
330
C
100
AcDbRasterVariables
 90
        0
 70
     0
 71
     1
 72
     1
  0
DICTIONARY
  5
1A
102
{ACAD_REACTORS
330
C
102
}
330
C
100
AcDbDictionary
281
     1
  3
CompleteLayout
350
1E
  3
Model
350
22
  3
PrintFrame_43
350
22E
  0
DICTIONARY
  5
43
102
{ACAD_REACTORS
330
C
102
}
330
C
100
AcDbDictionary
281
     1
  3
ByBlock
350
45
  3
ByLayer
350
44
  3
Global
350
46
  0
DICTIONARY
  5
6B
102
{ACAD_REACTORS
330
C
102
}
330
C
100
AcDbDictionary
281
     1
  3
Standard
350
6C
  0
DICTIONARY
  5
17
102
{ACAD_REACTORS
330
C
102
}
330
C
100
AcDbDictionary
281
     1
  3
Standard
350
18
  0
DICTIONARY
  5
19
102
{ACAD_REACTORS
330
C
102
}
330
C
100
AcDbDictionary
281
     1
  3
PlotSettings_
350
231
  0
ACDBDICTIONARYWDFLT
  5
E
102
{ACAD_REACTORS
330
C
102
}
330
C
100
AcDbDictionary
281
     1
  3
Normal
350
F
100
AcDbDictionaryWithDefault
340
F
  0
DICTIONARY
  5
47
102
{ACAD_REACTORS
330
C
102
}
330
C
100
AcDbDictionary
281
     1
  3
A0
350
48
  3
A1
350
49
  3
A2
350
4A
  3
A3
350
4B
  3
A4
350
4C
  3
A5
350
4D
  3
A6
350
4E
  3
A7
350
4F
  3
A8
350
50
  3
A9
350
51
  3
B0
350
52
  3
B1
350
53
  3
B2
350
54
  3
B3
350
55
  3
B4
350
56
  3
B5
350
57
  3
B6
350
58
  3
B7
350
59
  3
B8
350
5A
  3
B9
350
5B
  3
C0
350
5C
  3
C1
350
5D
  3
C2
350
5E
  3
C3
350
5F
  3
C4
350
60
  3
C5
350
61
  3
C6
350
62
  3
C7
350
63
  3
C8
350
64
  3
C9
350
65
  3
D0
350
66
  3
D1
350
67
  3
D2
350
68
  0
DICTIONARY
  5
495
102
{ACAD_REACTORS
330
C
102
}
330
C
100
AcDbDictionary
281
     1
  0
DICTIONARY
  5
69
102
{ACAD_REACTORS
330
C
102
}
330
C
100
AcDbDictionary
281
     1
  3
Standard
350
6A
  0
DICTIONARY
  5
2A
102
{ACAD_REACTORS
330
C
102
}
330
C
100
AcDbDictionary
281
     1
  3
2dWireframe
350
2F
  3
Basic
350
32
  3
Brighten
350
36
  3
ColorChange
350
3A
  3
Conceptual
350
34
  3
Dim
350
35
  3
EdgeColorOff
350
3D
  3
Facepattern
350
39
  3
Flat
350
2B
  3
FlatWithEdges
350
2C
  3
Gouraud
350
2D
  3
GouraudWithEdges
350
2E
  3
Hidden
350
31
  3
JitterOff
350
3B
  3
Linepattern
350
38
  3
OverhangOff
350
3C
  3
Realistic
350
33
  3
Shaded
350
42
  3
Shaded with edges
350
41
  3
Shades of Gray
350
3E
  3
Sketchy
350
3F
  3
Thicken
350
37
  3
Wireframe
350
30
  3
X-Ray
350
40
  0
XRECORD
  5
491
102
{ACAD_REACTORS
330
C
102
}
330
C
100
AcDbXrecord
280
     1
 90
        1
330
6A
  0
DICTIONARY
  5
48D
102
{ACAD_REACTORS
330
C
102
}
330
C
100
AcDbDictionary
281
     1
  3
CANNOSCALE
350
48E
  3
CMLEADERSTYLE
350
493
  3
CTABLESTYLE
350
492
  3
WIPEOUTFRAME
350
496
  0
GROUP
  5
45C
102
{ACAD_REACTORS
330
D
102
}
330
D
100
AcDbGroup
300

 70
     0
 71
     1
340
45B
  0
GROUP
  5
46D
102
{ACAD_REACTORS
330
D
102
}
330
D
100
AcDbGroup
300

 70
     0
 71
     1
340
46C
  0
IMAGEDEF
  5
256
102
{ACAD_REACTORS
330
252
330
258
102
}
330
252
100
AcDbRasterImageDef
 90
        0
  1
EXE_LOGO_FBF_soutien_Q_L.jpg
 10
200.0
 20
133.0
 11
0.3527336860670194
 21
0.3527336860670194
280
     1
281
     3
  0
IMAGEDEF
  5
253
102
{ACAD_REACTORS
330
252
330
255
102
}
330
252
100
AcDbRasterImageDef
 90
        0
  1
fcba.jpg
 10
247.0
 20
171.0
 11
0.3527336860670194
 21
0.3527336860670194
280
     1
281
     3
  0
IMAGEDEF
  5
259
102
{ACAD_REACTORS
330
252
330
25B
102
}
330
252
100
AcDbRasterImageDef
 90
        0
  1
logo_codifab_baseline_soutien.jpg
 10
1326.0
 20
580.0
 11
0.08466683600033867
 21
0.08466683600033867
280
     1
281
     3
  0
LAYOUT
  5
1E
102
{ACAD_REACTORS
330
1A
102
}
330
1A
100
AcDbPlotSettings
  1

  2
none_device
  4

  6

 40
0.0
 41
0.0
 42
0.0
 43
0.0
 44
0.0
 45
0.0
 46
0.0
 47
0.0
 48
0.0
 49
0.0
140
0.0
141
0.0
142
1.0
143
1.0
 70
   688
 72
     0
 73
     0
 74
     5
  7

 75
    16
 76
     0
 77
     2
 78
   300
147
1.0
148
0.0
149
0.0
100
AcDbLayout
  1
CompleteLayout
 70
     1
 71
     1
 10
0.0
 20
0.0
 11
12.0
 21
9.0
 12
0.0
 22
0.0
 32
0.0
 14
1.000000000000000E+20
 24
1.000000000000000E+20
 34
1.000000000000000E+20
 15
-1.000000000000000E+20
 25
-1.000000000000000E+20
 35
-1.000000000000000E+20
146
0.0
 13
0.0
 23
0.0
 33
0.0
 16
1.0
 26
0.0
 36
0.0
 17
0.0
 27
1.0
 37
0.0
 76
     0
330
1B
  0
LAYOUT
  5
22
102
{ACAD_REACTORS
330
1A
102
}
330
1A
100
AcDbPlotSettings
  1

  2
none_device
  4
Letter_(8.50_x_11.00_Inches)
  6

 40
6.35
 41
6.35
 42
6.35000508
 43
6.35000508
 44
215.9
 45
279.4
 46
0.0
 47
0.0
 48
0.0
 49
0.0
140
0.0
141
0.0
142
1.0
143
1.0
 70
  1712
 72
     0
 73
     0
 74
     0
  7

 75
     0
 76
     0
 77
     2
 78
   300
147
1.0
148
0.0
149
0.0
100
AcDbLayout
  1
Model
 70
     1
 71
     0
 10
0.0
 20
0.0
 11
12.0
 21
9.0
 12
0.0
 22
0.0
 32
0.0
 14
-0.4328742585184955
 24
-3182.003379414948
 34
0.0
 15
393.5671257414851
 25
-2640.003379414948
 35
1000.0
146
0.0
 13
0.0
 23
0.0
 33
0.0
 16
1.0
 26
0.0
 36
0.0
 17
0.0
 27
1.0
 37
0.0
 76
     0
330
1F
331
29
  0
LAYOUT
  5
22E
102
{ACAD_REACTORS
330
1A
102
}
330
1A
100
AcDbPlotSettings
  1
PlotSettings_
  2
Custom Device
  4
Custom_210.000000x297.000000_12.700000_12.700000_6.200000_6.200000
  6

 40
6.2
 41
12.7
 42
6.2
 43
12.7
 44
210.0
 45
297.0
 46
0.0
 47
0.0
 48
0.0
 49
0.0
140
0.0
141
0.0
142
1.0
143
1.0
 70
   752
 72
     1
 73
     0
 74
     5
  7

 75
    16
 76
     0
 77
     2
 78
   300
147
1.0
148
0.0
149
0.0
100
AcDbLayout
  1
PrintFrame_43
 70
     0
 71
     2
 10
-20.0
 20
-7.5
 11
277.0
 21
202.5
 12
0.0
 22
0.0
 32
0.0
 14
0.0
 24
0.0
 34
0.0
 15
197.6
 25
271.6
 35
0.0
146
0.0
 13
0.0
 23
0.0
 33
0.0
 16
1.0
 26
0.0
 36
0.0
 17
0.0
 27
1.0
 37
0.0
 76
     0
330
22D
331
233
1001
PLOTTRANSPARENCY
1071
        1
1000
layout-user-created
1070
     1
1000
layout-line-weight-scale
1042
1.0
  0
MATERIAL
  5
45
102
{ACAD_REACTORS
330
43
102
}
330
43
100
AcDbMaterial
  1
ByBlock
 72
     1
 94
      127
  0
MATERIAL
  5
44
102
{ACAD_REACTORS
330
43
102
}
330
43
100
AcDbMaterial
  1
ByLayer
 72
     1
 94
      127
  0
MATERIAL
  5
46
102
{ACAD_REACTORS
330
43
102
}
330
43
100
AcDbMaterial
  1
Global
 72
     1
 94
      127
  0
MLEADERSTYLE
  5
6C
102
{ACAD_REACTORS
330
6B
102
}
330
6B
100
AcDbMLeaderStyle
179
     2
170
     2
171
     1
172
     0
 90
        2
 40
0.0
 41
0.0
173
     1
 91
-1056964608
340
14
 92
       -2
290
     1
 42
0.09
291
     1
 43
0.36
  3
Standard
341
0
 44
0.18
300

342
11
174
     1
178
     6
175
     1
176
     0
 93
-1056964608
 45
0.18
292
     0
297
     0
 46
0.18
343
0
 94
-1056964608
 47
1.0
 49
1.0
140
1.0
293
     1
141
0.0
294
     1
177
     0
142
1.0
295
     0
296
     0
143
0.125
271
     0
272
     9
273
     9
298
     0
  0
MLINESTYLE
  5
18
102
{ACAD_REACTORS
330
17
102
}
330
17
100
AcDbMlineStyle
  2
Standard
 70
     0
  3

 62
   256
 51
90.0
 52
90.0
 71
     2
 49
0.5
 62
   256
  6
BYLAYER
 49
-0.5
 62
   256
  6
BYLAYER
  0
PLOTSETTINGS
  5
231
102
{ACAD_REACTORS
330
19
102
}
330
19
100
AcDbPlotSettings
  1
PlotSettings_
  2
Custom Device
  4
Custom_210.000000x297.000000_12.700000_12.700000_6.200000_6.200000
  6

 40
6.2
 41
12.7
 42
6.2
 43
12.7
 44
210.0
 45
297.0
 46
0.0
 47
0.0
 48
0.0
 49
0.0
140
0.0
141
0.0
142
1.0
143
1.0
 70
   752
 72
     1
 73
     0
 74
     5
  7

 75
    16
 76
     0
 77
     2
 78
   300
147
1.0
148
0.0
149
0.0
1001
PLOTTRANSPARENCY
1071
        1
1000
layout-user-created
1070
     1
1000
layout-line-weight-scale
1042
1.0
  0
ACDBPLACEHOLDER
  5
F
102
{ACAD_REACTORS
330
E
102
}
330
E
  0
SCALE
  5
48
102
{ACAD_REACTORS
330
47
102
}
330
47
100
AcDbScale
 70
     0
300
1:1
140
1.0
141
1.0
290
     1
  0
SCALE
  5
49
102
{ACAD_REACTORS
330
47
102
}
330
47
100
AcDbScale
 70
     0
300
1:2
140
1.0
141
2.0
290
     0
  0
SCALE
  5
4A
102
{ACAD_REACTORS
330
47
102
}
330
47
100
AcDbScale
 70
     0
300
1:4
140
1.0
141
4.0
290
     0
  0
SCALE
  5
4B
102
{ACAD_REACTORS
330
47
102
}
330
47
100
AcDbScale
 70
     0
300
1:5
140
1.0
141
5.0
290
     0
  0
SCALE
  5
4C
102
{ACAD_REACTORS
330
47
102
}
330
47
100
AcDbScale
 70
     0
300
1:8
140
1.0
141
8.0
290
     0
  0
SCALE
  5
4D
102
{ACAD_REACTORS
330
47
102
}
330
47
100
AcDbScale
 70
     0
300
1:10
140
1.0
141
10.0
290
     0
  0
SCALE
  5
4E
102
{ACAD_REACTORS
330
47
102
}
330
47
100
AcDbScale
 70
     0
300
1:16
140
1.0
141
16.0
290
     0
  0
SCALE
  5
4F
102
{ACAD_REACTORS
330
47
102
}
330
47
100
AcDbScale
 70
     0
300
1:20
140
1.0
141
20.0
290
     0
  0
SCALE
  5
50
102
{ACAD_REACTORS
330
47
102
}
330
47
100
AcDbScale
 70
     0
300
1:30
140
1.0
141
30.0
290
     0
  0
SCALE
  5
51
102
{ACAD_REACTORS
330
47
102
}
330
47
100
AcDbScale
 70
     0
300
1:40
140
1.0
141
40.0
290
     0
  0
SCALE
  5
52
102
{ACAD_REACTORS
330
47
102
}
330
47
100
AcDbScale
 70
     0
300
1:50
140
1.0
141
50.0
290
     0
  0
SCALE
  5
53
102
{ACAD_REACTORS
330
47
102
}
330
47
100
AcDbScale
 70
     0
300
1:100
140
1.0
141
100.0
290
     0
  0
SCALE
  5
54
102
{ACAD_REACTORS
330
47
102
}
330
47
100
AcDbScale
 70
     0
300
2:1
140
2.0
141
1.0
290
     0
  0
SCALE
  5
55
102
{ACAD_REACTORS
330
47
102
}
330
47
100
AcDbScale
 70
     0
300
4:1
140
4.0
141
1.0
290
     0
  0
SCALE
  5
56
102
{ACAD_REACTORS
330
47
102
}
330
47
100
AcDbScale
 70
     0
300
8:1
140
8.0
141
1.0
290
     0
  0
SCALE
  5
57
102
{ACAD_REACTORS
330
47
102
}
330
47
100
AcDbScale
 70
     0
300
10:1
140
10.0
141
1.0
290
     0
  0
SCALE
  5
58
102
{ACAD_REACTORS
330
47
102
}
330
47
100
AcDbScale
 70
     0
300
100:1
140
100.0
141
1.0
290
     0
  0
SCALE
  5
59
102
{ACAD_REACTORS
330
47
102
}
330
47
100
AcDbScale
 70
     0
300
1/128" = 1'-0"
140
0.0078125
141
12.0
290
     0
  0
SCALE
  5
5A
102
{ACAD_REACTORS
330
47
102
}
330
47
100
AcDbScale
 70
     0
300
1/64" = 1'-0"
140
0.015625
141
12.0
290
     0
  0
SCALE
  5
5B
102
{ACAD_REACTORS
330
47
102
}
330
47
100
AcDbScale
 70
     0
300
1/32" = 1'-0"
140
0.03125
141
12.0
290
     0
  0
SCALE
  5
5C
102
{ACAD_REACTORS
330
47
102
}
330
47
100
AcDbScale
 70
     0
300
1/16" = 1'-0"
140
0.0625
141
12.0
290
     0
  0
SCALE
  5
5D
102
{ACAD_REACTORS
330
47
102
}
330
47
100
AcDbScale
 70
     0
300
3/32" = 1'-0"
140
0.09375
141
12.0
290
     0
  0
SCALE
  5
5E
102
{ACAD_REACTORS
330
47
102
}
330
47
100
AcDbScale
 70
     0
300
1/8" = 1'-0"
140
0.125
141
12.0
290
     0
  0
SCALE
  5
5F
102
{ACAD_REACTORS
330
47
102
}
330
47
100
AcDbScale
 70
     0
300
3/16" = 1'-0"
140
0.1875
141
12.0
290
     0
  0
SCALE
  5
60
102
{ACAD_REACTORS
330
47
102
}
330
47
100
AcDbScale
 70
     0
300
1/4" = 1'-0"
140
0.25
141
12.0
290
     0
  0
SCALE
  5
61
102
{ACAD_REACTORS
330
47
102
}
330
47
100
AcDbScale
 70
     0
300
3/8" = 1'-0"
140
0.375
141
12.0
290
     0
  0
SCALE
  5
62
102
{ACAD_REACTORS
330
47
102
}
330
47
100
AcDbScale
 70
     0
300
1/2" = 1'-0"
140
0.5
141
12.0
290
     0
  0
SCALE
  5
63
102
{ACAD_REACTORS
330
47
102
}
330
47
100
AcDbScale
 70
     0
300
3/4" = 1'-0"
140
0.75
141
12.0
290
     0
  0
SCALE
  5
64
102
{ACAD_REACTORS
330
47
102
}
330
47
100
AcDbScale
 70
     0
300
1" = 1'-0"
140
1.0
141
12.0
290
     0
  0
SCALE
  5
65
102
{ACAD_REACTORS
330
47
102
}
330
47
100
AcDbScale
 70
     0
300
1-1/2" = 1'-0"
140
1.5
141
12.0
290
     0
  0
SCALE
  5
66
102
{ACAD_REACTORS
330
47
102
}
330
47
100
AcDbScale
 70
     0
300
3" = 1'-0"
140
3.0
141
12.0
290
     0
  0
SCALE
  5
67
102
{ACAD_REACTORS
330
47
102
}
330
47
100
AcDbScale
 70
     0
300
6" = 1'-0"
140
6.0
141
12.0
290
     0
  0
SCALE
  5
68
102
{ACAD_REACTORS
330
47
102
}
330
47
100
AcDbScale
 70
     0
300
1'-0" = 1'-0"
140
12.0
141
12.0
290
     0
  0
TABLESTYLE
  5
6A
102
{ACAD_REACTORS
330
69
102
}
102
{ACAD_XDICTIONARY
360
48F
102
}
330
69
100
AcDbTableStyle
  3
Standard
 70
     0
 71
     0
 40
0.06
 41
0.06
280
     0
281
     0
  7
Standard
140
0.18
170
     2
 62
     0
 63
   257
283
     0
 90
        4
 91
        0
  1

274
    -2
284
     1
 64
     0
275
    -2
285
     1
 65
     0
276
    -2
286
     1
 66
     0
277
    -2
287
     1
 67
     0
278
    -2
288
     1
 68
     0
279
    -2
289
     1
 69
     0
  7
Standard
140
0.25
170
     5
 62
     0
 63
   257
283
     0
 90
        4
 91
        0
  1

274
    -2
284
     1
 64
     0
275
    -2
285
     1
 65
     0
276
    -2
286
     1
 66
     0
277
    -2
287
     1
 67
     0
278
    -2
288
     1
 68
     0
279
    -2
289
     1
 69
     0
  7
Standard
140
0.18
170
     5
 62
     0
 63
   257
283
     0
 90
        4
 91
        0
  1

274
    -2
284
     1
 64
     0
275
    -2
285
     1
 65
     0
276
    -2
286
     1
 66
     0
277
    -2
287
     1
 67
     0
278
    -2
288
     1
 68
     0
279
    -2
289
     1
 69
     0
  0
VISUALSTYLE
  5
2F
102
{ACAD_REACTORS
330
2A
102
}
330
2A
100
AcDbVisualStyle
  2
2dWireframe
 70
     4
177
     3
291
     0
 70
    58
 90
        0
176
     1
 90
        2
176
     1
 90
        0
176
     1
 90
        0
176
     1
 40
0.6
176
     1
 40
30.0
176
     1
 62
     7
420
 16777215
176
     1
 90
        1
176
     1
 90
        4
176
     1
 62
     7
176
     1
 62
   257
176
     1
 90
        1
176
     1
 90
        1
176
     1
 40
1.0
176
     1
 90
        0
176
     1
 62
   257
176
     1
 40
1.0
176
     1
 90
        1
176
     1
 90
        6
176
     1
 90
        2
176
     1
 62
     7
176
     1
 90
        5
176
     1
 90
        0
176
     1
 90
        0
176
     1
290
     0
176
     1
 90
        1
176
     1
 40
0.0
176
     1
 90
        0
176
     1
290
     1
176
     1
290
     1
176
     1
290
     0
176
     1
290
     0
176
     1
290
     0
176
     1
290
     0
176
     1
290
     0
176
     1
290
     0
176
     1
290
     0
176
     1
 90
       50
176
     1
 40
0.0
176
     1
 40
1.0
176
     1
 90
        0
176
     1
 62
    18
420
        0
176
     1
 90
       50
176
     1
 90
        3
176
     1
 62
     5
420
      255
176
     1
290
     0
176
     1
 90
       50
176
     1
 90
       50
176
     1
 90
       50
176
     1
290
     0
176
     1
 90
       50
176
     1
 62
   256
176
     0
 40
1.0
176
     0
 90
        2
176
     1
  1
strokes_ogs.tif
176
     1
290
     0
176
     1
 40
1.0
176
     1
 40
1.0
176
     1
  0
VISUALSTYLE
  5
32
102
{ACAD_REACTORS
330
2A
102
}
330
2A
100
AcDbVisualStyle
  2
Basic
 70
     7
177
     3
291
     1
 70
    58
 90
        1
176
     1
 90
        0
176
     1
 90
        1
176
     1
 90
        0
176
     1
 40
0.6
176
     1
 40
30.0
176
     1
 62
     7
420
 16777215
176
     1
 90
        0
176
     1
 90
        4
176
     1
 62
     7
176
     1
 62
   257
176
     1
 90
        1
176
     1
 90
        1
176
     1
 40
1.0
176
     1
 90
        8
176
     1
 62
     7
176
     1
 40
1.0
176
     1
 90
        1
176
     1
 90
        6
176
     1
 90
        2
176
     1
 62
     7
176
     1
 90
        5
176
     1
 90
        0
176
     1
 90
        0
176
     1
290
     0
176
     1
 90
        1
176
     1
 40
0.0
176
     1
 90
        0
176
     1
290
     0
176
     1
290
     1
176
     1
290
     1
176
     1
290
     0
176
     1
290
     0
176
     1
290
     0
176
     1
290
     0
176
     1
290
     0
176
     1
290
     0
176
     1
 90
       50
176
     1
 40
0.0
176
     1
 40
1.0
176
     1
 90
        0
176
     1
 62
    18
420
        0
176
     1
 90
       50
176
     1
 90
        3
176
     1
 62
     5
420
      255
176
     1
290
     0
176
     1
 90
       50
176
     1
 90
       50
176
     1
 90
       50
176
     1
290
     0
176
     1
 90
       50
176
     1
 62
   256
176
     0
 40
1.0
176
     0
 90
        2
176
     1
  1
strokes_ogs.tif
176
     1
290
     0
176
     1
 40
1.0
176
     1
 40
1.0
176
     1
  0
VISUALSTYLE
  5
36
102
{ACAD_REACTORS
330
2A
102
}
330
2A
100
AcDbVisualStyle
  2
Brighten
 70
    12
177
     3
291
     1
 70
    58
 90
        2
176
     1
 90
        2
176
     1
 90
        0
176
     1
 90
        0
176
     1
 40
0.6
176
     1
 40
30.0
176
     1
 62
     7
420
 16777215
176
     1
 90
        1
176
     1
 90
        4
176
     1
 62
     7
176
     1
 62
   257
176
     1
 90
        1
176
     1
 90
        1
176
     1
 40
1.0
176
     1
 90
        8
176
     1
 62
     7
176
     1
 40
1.0
176
     1
 90
        1
176
     1
 90
        6
176
     1
 90
        2
176
     1
 62
     7
176
     1
 90
        5
176
     1
 90
        0
176
     1
 90
        0
176
     1
290
     0
176
     1
 90
        1
176
     1
 40
50.0
176
     1
 90
        0
176
     1
290
     0
176
     1
290
     1
176
     1
290
     1
176
     1
290
     0
176
     1
290
     0
176
     1
290
     0
176
     1
290
     0
176
     1
290
     0
176
     1
290
     0
176
     1
 90
       50
176
     1
 40
0.0
176
     1
 40
1.0
176
     1
 90
        0
176
     1
 62
    18
420
        0
176
     1
 90
       50
176
     1
 90
        3
176
     1
 62
     5
420
      255
176
     1
290
     0
176
     1
 90
       50
176
     1
 90
       50
176
     1
 90
       50
176
     1
290
     0
176
     1
 90
       50
176
     1
 62
   256
176
     0
 40
1.0
176
     0
 90
        2
176
     1
  1
strokes_ogs.tif
176
     1
290
     0
176
     1
 40
1.0
176
     1
 40
1.0
176
     1
  0
VISUALSTYLE
  5
3A
102
{ACAD_REACTORS
330
2A
102
}
330
2A
100
AcDbVisualStyle
  2
ColorChange
 70
    16
177
     3
291
     1
 70
    58
 90
        2
176
     1
 90
        2
176
     1
 90
        3
176
     1
 90
        0
176
     1
 40
0.6
176
     1
 40
30.0
176
     1
 62
     8
420
  8421504
176
     1
 90
        1
176
     1
 90
        4
176
     1
 62
     7
176
     1
 62
   257
176
     1
 90
        1
176
     1
 90
        1
176
     1
 40
1.0
176
     1
 90
        8
176
     1
 62
     8
420
  8421504
176
     1
 40
1.0
176
     1
 90
        1
176
     1
 90
        6
176
     1
 90
        2
176
     1
 62
     7
176
     1
 90
        5
176
     1
 90
        0
176
     1
 90
        0
176
     1
290
     0
176
     1
 90
        1
176
     1
 40
0.0
176
     1
 90
        0
176
     1
290
     0
176
     1
290
     1
176
     1
290
     1
176
     1
290
     0
176
     1
290
     0
176
     1
290
     0
176
     1
290
     0
176
     1
290
     0
176
     1
290
     0
176
     1
 90
       50
176
     1
 40
0.0
176
     1
 40
1.0
176
     1
 90
        0
176
     1
 62
    18
420
        0
176
     1
 90
       50
176
     1
 90
        3
176
     1
 62
     5
420
      255
176
     1
290
     0
176
     1
 90
       50
176
     1
 90
       50
176
     1
 90
       50
176
     1
290
     0
176
     1
 90
       50
176
     1
 62
   256
176
     0
 40
1.0
176
     0
 90
        2
176
     1
  1
strokes_ogs.tif
176
     1
290
     0
176
     1
 40
1.0
176
     1
 40
1.0
176
     1
  0
VISUALSTYLE
  5
34
102
{ACAD_REACTORS
330
2A
102
}
330
2A
100
AcDbVisualStyle
  2
Conceptual
 70
     9
177
     3
291
     0
 70
    58
 90
        3
176
     1
 90
        2
176
     1
 90
        0
176
     1
 90
        0
176
     1
 40
0.6
176
     1
 40
30.0
176
     1
 62
     7
420
 16777215
176
     1
 90
        2
176
     1
 90
        2
176
     1
 62
     7
176
     1
 62
   257
176
     1
 90
        1
176
     1
 90
        1
176
     1
 40
179.0
176
     1
 90
        8
176
     1
 62
     7
176
     1
 40
1.0
176
     1
 90
        1
176
     1
 90
        6
176
     1
 90
        2
176
     1
 62
     7
176
     1
 90
        3
176
     1
 90
        0
176
     1
 90
        0
176
     1
290
     0
176
     1
 90
        1
176
     1
 40
0.0
176
     1
 90
        0
176
     1
290
     0
176
     1
290
     1
176
     1
290
     1
176
     1
290
     0
176
     1
290
     0
176
     1
290
     0
176
     1
290
     0
176
     1
290
     0
176
     1
290
     0
176
     1
 90
       50
176
     1
 40
0.0
176
     1
 40
1.0
176
     1
 90
        0
176
     1
 62
    18
420
        0
176
     1
 90
       50
176
     1
 90
        3
176
     1
 62
     5
420
      255
176
     1
290
     0
176
     1
 90
       50
176
     1
 90
       50
176
     1
 90
       50
176
     1
290
     0
176
     1
 90
       50
176
     1
 62
   256
176
     0
 40
1.0
176
     0
 90
        2
176
     1
  1
strokes_ogs.tif
176
     1
290
     0
176
     1
 40
1.0
176
     1
 40
1.0
176
     1
  0
VISUALSTYLE
  5
35
102
{ACAD_REACTORS
330
2A
102
}
330
2A
100
AcDbVisualStyle
  2
Dim
 70
    11
177
     3
291
     1
 70
    58
 90
        2
176
     1
 90
        2
176
     1
 90
        0
176
     1
 90
        0
176
     1
 40
0.6
176
     1
 40
30.0
176
     1
 62
     7
420
 16777215
176
     1
 90
        1
176
     1
 90
        4
176
     1
 62
     7
176
     1
 62
   257
176
     1
 90
        1
176
     1
 90
        1
176
     1
 40
1.0
176
     1
 90
        8
176
     1
 62
     7
176
     1
 40
1.0
176
     1
 90
        1
176
     1
 90
        6
176
     1
 90
        2
176
     1
 62
     7
176
     1
 90
        5
176
     1
 90
        0
176
     1
 90
        0
176
     1
290
     0
176
     1
 90
        1
176
     1
 40
-50.0
176
     1
 90
        0
176
     1
290
     0
176
     1
290
     1
176
     1
290
     1
176
     1
290
     0
176
     1
290
     0
176
     1
290
     0
176
     1
290
     0
176
     1
290
     0
176
     1
290
     0
176
     1
 90
       50
176
     1
 40
0.0
176
     1
 40
1.0
176
     1
 90
        0
176
     1
 62
    18
420
        0
176
     1
 90
       50
176
     1
 90
        3
176
     1
 62
     5
420
      255
176
     1
290
     0
176
     1
 90
       50
176
     1
 90
       50
176
     1
 90
       50
176
     1
290
     0
176
     1
 90
       50
176
     1
 62
   256
176
     0
 40
1.0
176
     0
 90
        2
176
     1
  1
strokes_ogs.tif
176
     1
290
     0
176
     1
 40
1.0
176
     1
 40
1.0
176
     1
  0
VISUALSTYLE
  5
3D
102
{ACAD_REACTORS
330
2A
102
}
330
2A
100
AcDbVisualStyle
  2
EdgeColorOff
 70
    22
177
     3
291
     1
 70
    58
 90
        2
176
     0
 90
        2
176
     0
 90
        0
176
     0
 90
        0
176
     0
 40
0.6
176
     0
 40
30.0
176
     0
 62
     7
420
 16777215
176
     0
 90
        1
176
     0
 90
        4
176
     0
 62
     7
176
     0
 62
   257
176
     0
 90
        1
176
     0
 90
        1
176
     0
 40
1.0
176
     0
 90
        8
176
     2
 62
     7
176
     0
 40
1.0
176
     0
 90
        1
176
     0
 90
        6
176
     0
 90
        2
176
     0
 62
     7
176
     0
 90
        5
176
     0
 90
        0
176
     0
 90
        0
176
     0
290
     0
176
     0
 90
        1
176
     0
 40
0.0
176
     0
 90
        0
176
     0
290
     0
176
     0
290
     1
176
     0
290
     1
176
     0
290
     0
176
     0
290
     0
176
     0
290
     0
176
     0
290
     0
176
     0
290
     0
176
     0
290
     0
176
     0
 90
       50
176
     0
 40
0.0
176
     0
 40
1.0
176
     0
 90
        0
176
     0
 62
    18
420
        0
176
     0
 90
       50
176
     0
 90
        3
176
     0
 62
     5
420
      255
176
     0
290
     0
176
     0
 90
       50
176
     0
 90
       50
176
     0
 90
       50
176
     0
290
     0
176
     0
 90
       50
176
     0
 62
   256
176
     0
 40
1.0
176
     0
 90
        2
176
     0
  1
strokes_ogs.tif
176
     0
290
     0
176
     0
 40
1.0
176
     0
 40
1.0
176
     0
  0
VISUALSTYLE
  5
39
102
{ACAD_REACTORS
330
2A
102
}
330
2A
100
AcDbVisualStyle
  2
Facepattern
 70
    15
177
     3
291
     1
 70
    58
 90
        2
176
     1
 90
        2
176
     1
 90
        0
176
     1
 90
        0
176
     1
 40
0.6
176
     1
 40
30.0
176
     1
 62
     7
420
 16777215
176
     1
 90
        1
176
     1
 90
        4
176
     1
 62
     7
176
     1
 62
   257
176
     1
 90
        1
176
     1
 90
        1
176
     1
 40
1.0
176
     1
 90
        8
176
     1
 62
     7
176
     1
 40
1.0
176
     1
 90
        1
176
     1
 90
        6
176
     1
 90
        2
176
     1
 62
     7
176
     1
 90
        5
176
     1
 90
        0
176
     1
 90
        0
176
     1
290
     0
176
     1
 90
        1
176
     1
 40
0.0
176
     1
 90
        0
176
     1
290
     0
176
     1
290
     1
176
     1
290
     1
176
     1
290
     0
176
     1
290
     0
176
     1
290
     0
176
     1
290
     0
176
     1
290
     0
176
     1
290
     0
176
     1
 90
       50
176
     1
 40
0.0
176
     1
 40
1.0
176
     1
 90
        0
176
     1
 62
    18
420
        0
176
     1
 90
       50
176
     1
 90
        3
176
     1
 62
     5
420
      255
176
     1
290
     0
176
     1
 90
       50
176
     1
 90
       50
176
     1
 90
       50
176
     1
290
     0
176
     1
 90
       50
176
     1
 62
   256
176
     0
 40
1.0
176
     0
 90
        2
176
     1
  1
strokes_ogs.tif
176
     1
290
     0
176
     1
 40
1.0
176
     1
 40
1.0
176
     1
  0
VISUALSTYLE
  5
2B
102
{ACAD_REACTORS
330
2A
102
}
330
2A
100
AcDbVisualStyle
  2
Flat
 70
     0
177
     3
291
     1
 70
    58
 90
        2
176
     1
 90
        1
176
     1
 90
        1
176
     1
 90
        2
176
     1
 40
0.6
176
     1
 40
30.0
176
     1
 62
     7
420
 16777215
176
     1
 90
        0
176
     1
 90
        0
176
     1
 62
     7
176
     1
 62
   257
176
     1
 90
        1
176
     1
 90
        1
176
     1
 40
1.0
176
     1
 90
        8
176
     1
 62
     7
176
     1
 40
1.0
176
     1
 90
        1
176
     1
 90
        6
176
     1
 90
        2
176
     1
 62
     7
176
     1
 90
        5
176
     1
 90
        0
176
     1
 90
        0
176
     1
290
     0
176
     1
 90
       13
176
     1
 40
0.0
176
     1
 90
        0
176
     1
290
     0
176
     1
290
     1
176
     1
290
     1
176
     1
290
     0
176
     1
290
     0
176
     1
290
     0
176
     1
290
     0
176
     1
290
     0
176
     1
290
     0
176
     1
 90
       50
176
     1
 40
0.0
176
     1
 40
1.0
176
     1
 90
        0
176
     1
 62
    18
420
        0
176
     1
 90
       50
176
     1
 90
        3
176
     1
 62
     5
420
      255
176
     1
290
     0
176
     1
 90
       50
176
     1
 90
       50
176
     1
 90
       50
176
     1
290
     0
176
     1
 90
       50
176
     1
 62
   256
176
     0
 40
1.0
176
     0
 90
        2
176
     1
  1
strokes_ogs.tif
176
     1
290
     0
176
     1
 40
1.0
176
     1
 40
1.0
176
     1
  0
VISUALSTYLE
  5
2C
102
{ACAD_REACTORS
330
2A
102
}
330
2A
100
AcDbVisualStyle
  2
FlatWithEdges
 70
     1
177
     3
291
     1
 70
    58
 90
        2
176
     1
 90
        1
176
     1
 90
        1
176
     1
 90
        2
176
     1
 40
0.6
176
     1
 40
30.0
176
     1
 62
     7
420
 16777215
176
     1
 90
        1
176
     1
 90
        0
176
     1
 62
     7
176
     1
 62
   257
176
     1
 90
        1
176
     1
 90
        1
176
     1
 40
1.0
176
     1
 90
        0
176
     1
 62
   257
176
     1
 40
1.0
176
     1
 90
        1
176
     1
 90
        6
176
     1
 90
        2
176
     1
 62
     7
176
     1
 90
        5
176
     1
 90
        0
176
     1
 90
        0
176
     1
290
     0
176
     1
 90
       13
176
     1
 40
0.0
176
     1
 90
        0
176
     1
290
     0
176
     1
290
     1
176
     1
290
     1
176
     1
290
     0
176
     1
290
     0
176
     1
290
     0
176
     1
290
     0
176
     1
290
     0
176
     1
290
     0
176
     1
 90
       50
176
     1
 40
0.0
176
     1
 40
1.0
176
     1
 90
        0
176
     1
 62
    18
420
        0
176
     1
 90
       50
176
     1
 90
        3
176
     1
 62
     5
420
      255
176
     1
290
     0
176
     1
 90
       50
176
     1
 90
       50
176
     1
 90
       50
176
     1
290
     0
176
     1
 90
       50
176
     1
 62
   256
176
     0
 40
1.0
176
     0
 90
        2
176
     1
  1
strokes_ogs.tif
176
     1
290
     0
176
     1
 40
1.0
176
     1
 40
1.0
176
     1
  0
VISUALSTYLE
  5
2D
102
{ACAD_REACTORS
330
2A
102
}
330
2A
100
AcDbVisualStyle
  2
Gouraud
 70
     2
177
     3
291
     1
 70
    58
 90
        2
176
     1
 90
        2
176
     1
 90
        1
176
     1
 90
        2
176
     1
 40
0.6
176
     1
 40
30.0
176
     1
 62
     7
420
 16777215
176
     1
 90
        0
176
     1
 90
        0
176
     1
 62
     7
176
     1
 62
   257
176
     1
 90
        1
176
     1
 90
        1
176
     1
 40
1.0
176
     1
 90
        0
176
     1
 62
     7
176
     1
 40
1.0
176
     1
 90
        1
176
     1
 90
        6
176
     1
 90
        2
176
     1
 62
     7
176
     1
 90
        5
176
     1
 90
        0
176
     1
 90
        0
176
     1
290
     0
176
     1
 90
       13
176
     1
 40
0.0
176
     1
 90
        0
176
     1
290
     0
176
     1
290
     1
176
     1
290
     1
176
     1
290
     0
176
     1
290
     0
176
     1
290
     0
176
     1
290
     0
176
     1
290
     0
176
     1
290
     0
176
     1
 90
       50
176
     1
 40
0.0
176
     1
 40
1.0
176
     1
 90
        0
176
     1
 62
    18
420
        0
176
     1
 90
       50
176
     1
 90
        3
176
     1
 62
     5
420
      255
176
     1
290
     0
176
     1
 90
       50
176
     1
 90
       50
176
     1
 90
       50
176
     1
290
     0
176
     1
 90
       50
176
     1
 62
   256
176
     0
 40
1.0
176
     0
 90
        2
176
     1
  1
strokes_ogs.tif
176
     1
290
     0
176
     1
 40
1.0
176
     1
 40
1.0
176
     1
  0
VISUALSTYLE
  5
2E
102
{ACAD_REACTORS
330
2A
102
}
330
2A
100
AcDbVisualStyle
  2
GouraudWithEdges
 70
     3
177
     3
291
     1
 70
    58
 90
        2
176
     1
 90
        2
176
     1
 90
        1
176
     1
 90
        2
176
     1
 40
0.6
176
     1
 40
30.0
176
     1
 62
     7
420
 16777215
176
     1
 90
        1
176
     1
 90
        0
176
     1
 62
     7
176
     1
 62
   257
176
     1
 90
        1
176
     1
 90
        1
176
     1
 40
1.0
176
     1
 90
        0
176
     1
 62
   257
176
     1
 40
1.0
176
     1
 90
        1
176
     1
 90
        6
176
     1
 90
        2
176
     1
 62
     7
176
     1
 90
        5
176
     1
 90
        0
176
     1
 90
        0
176
     1
290
     0
176
     1
 90
       13
176
     1
 40
0.0
176
     1
 90
        0
176
     1
290
     0
176
     1
290
     1
176
     1
290
     1
176
     1
290
     0
176
     1
290
     0
176
     1
290
     0
176
     1
290
     0
176
     1
290
     0
176
     1
290
     0
176
     1
 90
       50
176
     1
 40
0.0
176
     1
 40
1.0
176
     1
 90
        0
176
     1
 62
    18
420
        0
176
     1
 90
       50
176
     1
 90
        3
176
     1
 62
     5
420
      255
176
     1
290
     0
176
     1
 90
       50
176
     1
 90
       50
176
     1
 90
       50
176
     1
290
     0
176
     1
 90
       50
176
     1
 62
   256
176
     0
 40
1.0
176
     0
 90
        2
176
     1
  1
strokes_ogs.tif
176
     1
290
     0
176
     1
 40
1.0
176
     1
 40
1.0
176
     1
  0
VISUALSTYLE
  5
31
102
{ACAD_REACTORS
330
2A
102
}
330
2A
100
AcDbVisualStyle
  2
Hidden
 70
     6
177
     3
291
     0
 70
    58
 90
        1
176
     1
 90
        2
176
     1
 90
        2
176
     1
 90
        0
176
     1
 40
0.6
176
     1
 40
30.0
176
     1
 62
     7
420
 16777215
176
     1
 90
        2
176
     1
 90
        2
176
     1
 62
     7
176
     1
 62
   257
176
     1
 90
        2
176
     1
 90
        1
176
     1
 40
40.0
176
     1
 90
        0
176
     1
 62
   257
176
     1
 40
1.0
176
     1
 90
        1
176
     1
 90
        6
176
     1
 90
        2
176
     1
 62
     7
176
     1
 90
        3
176
     1
 90
        0
176
     1
 90
        0
176
     1
290
     0
176
     1
 90
        1
176
     1
 40
0.0
176
     1
 90
        0
176
     1
290
     0
176
     1
290
     1
176
     1
290
     1
176
     1
290
     0
176
     1
290
     0
176
     1
290
     0
176
     1
290
     0
176
     1
290
     0
176
     1
290
     0
176
     1
 90
       50
176
     1
 40
0.0
176
     1
 40
1.0
176
     1
 90
        0
176
     1
 62
    18
420
        0
176
     1
 90
       50
176
     1
 90
        3
176
     1
 62
     5
420
      255
176
     1
290
     0
176
     1
 90
       50
176
     1
 90
       50
176
     1
 90
       50
176
     1
290
     0
176
     1
 90
       50
176
     1
 62
   256
176
     0
 40
1.0
176
     0
 90
        2
176
     1
  1
strokes_ogs.tif
176
     1
290
     0
176
     1
 40
1.0
176
     1
 40
1.0
176
     1
  0
VISUALSTYLE
  5
3B
102
{ACAD_REACTORS
330
2A
102
}
330
2A
100
AcDbVisualStyle
  2
JitterOff
 70
    20
177
     3
291
     1
 70
    58
 90
        2
176
     0
 90
        2
176
     0
 90
        0
176
     0
 90
        0
176
     0
 40
0.6
176
     0
 40
30.0
176
     0
 62
     7
420
 16777215
176
     0
 90
        1
176
     0
 90
        4
176
     0
 62
     7
176
     0
 62
   257
176
     0
 90
        1
176
     0
 90
        1
176
     0
 40
1.0
176
     0
 90
       10
176
     2
 62
     7
176
     0
 40
1.0
176
     0
 90
        1
176
     0
 90
        6
176
     0
 90
        2
176
     0
 62
     7
176
     0
 90
        5
176
     0
 90
        0
176
     0
 90
        0
176
     0
290
     0
176
     0
 90
        1
176
     0
 40
0.0
176
     0
 90
        0
176
     0
290
     0
176
     0
290
     1
176
     0
290
     1
176
     0
290
     0
176
     0
290
     0
176
     0
290
     0
176
     0
290
     0
176
     0
290
     0
176
     0
290
     0
176
     0
 90
       50
176
     0
 40
0.0
176
     0
 40
1.0
176
     0
 90
        0
176
     0
 62
    18
420
        0
176
     0
 90
       50
176
     0
 90
        3
176
     0
 62
     5
420
      255
176
     0
290
     0
176
     0
 90
       50
176
     0
 90
       50
176
     0
 90
       50
176
     0
290
     0
176
     0
 90
       50
176
     0
 62
   256
176
     0
 40
1.0
176
     0
 90
        2
176
     0
  1
strokes_ogs.tif
176
     0
290
     0
176
     0
 40
1.0
176
     0
 40
1.0
176
     0
  0
VISUALSTYLE
  5
38
102
{ACAD_REACTORS
330
2A
102
}
330
2A
100
AcDbVisualStyle
  2
Linepattern
 70
    14
177
     3
291
     1
 70
    58
 90
        2
176
     1
 90
        2
176
     1
 90
        0
176
     1
 90
        0
176
     1
 40
0.6
176
     1
 40
30.0
176
     1
 62
     7
420
 16777215
176
     1
 90
        1
176
     1
 90
        4
176
     1
 62
     7
176
     1
 62
   257
176
     1
 90
        7
176
     1
 90
        7
176
     1
 40
1.0
176
     1
 90
        8
176
     1
 62
     7
176
     1
 40
1.0
176
     1
 90
        1
176
     1
 90
        6
176
     1
 90
        2
176
     1
 62
     7
176
     1
 90
        5
176
     1
 90
        0
176
     1
 90
        0
176
     1
290
     0
176
     1
 90
        1
176
     1
 40
0.0
176
     1
 90
        0
176
     1
290
     0
176
     1
290
     1
176
     1
290
     1
176
     1
290
     0
176
     1
290
     0
176
     1
290
     0
176
     1
290
     0
176
     1
290
     0
176
     1
290
     0
176
     1
 90
       50
176
     1
 40
0.0
176
     1
 40
1.0
176
     1
 90
        0
176
     1
 62
    18
420
        0
176
     1
 90
       50
176
     1
 90
        3
176
     1
 62
     5
420
      255
176
     1
290
     0
176
     1
 90
       50
176
     1
 90
       50
176
     1
 90
       50
176
     1
290
     0
176
     1
 90
       50
176
     1
 62
   256
176
     0
 40
1.0
176
     0
 90
        2
176
     1
  1
strokes_ogs.tif
176
     1
290
     0
176
     1
 40
1.0
176
     1
 40
1.0
176
     1
  0
VISUALSTYLE
  5
3C
102
{ACAD_REACTORS
330
2A
102
}
330
2A
100
AcDbVisualStyle
  2
OverhangOff
 70
    21
177
     3
291
     1
 70
    58
 90
        2
176
     0
 90
        2
176
     0
 90
        0
176
     0
 90
        0
176
     0
 40
0.6
176
     0
 40
30.0
176
     0
 62
     7
420
 16777215
176
     0
 90
        1
176
     0
 90
        4
176
     0
 62
     7
176
     0
 62
   257
176
     0
 90
        1
176
     0
 90
        1
176
     0
 40
1.0
176
     0
 90
        9
176
     2
 62
     7
176
     0
 40
1.0
176
     0
 90
        1
176
     0
 90
        6
176
     0
 90
        2
176
     0
 62
     7
176
     0
 90
        5
176
     0
 90
        0
176
     0
 90
        0
176
     0
290
     0
176
     0
 90
        1
176
     0
 40
0.0
176
     0
 90
        0
176
     0
290
     0
176
     0
290
     1
176
     0
290
     1
176
     0
290
     0
176
     0
290
     0
176
     0
290
     0
176
     0
290
     0
176
     0
290
     0
176
     0
290
     0
176
     0
 90
       50
176
     0
 40
0.0
176
     0
 40
1.0
176
     0
 90
        0
176
     0
 62
    18
420
        0
176
     0
 90
       50
176
     0
 90
        3
176
     0
 62
     5
420
      255
176
     0
290
     0
176
     0
 90
       50
176
     0
 90
       50
176
     0
 90
       50
176
     0
290
     0
176
     0
 90
       50
176
     0
 62
   256
176
     0
 40
1.0
176
     0
 90
        2
176
     0
  1
strokes_ogs.tif
176
     0
290
     0
176
     0
 40
1.0
176
     0
 40
1.0
176
     0
  0
VISUALSTYLE
  5
33
102
{ACAD_REACTORS
330
2A
102
}
330
2A
100
AcDbVisualStyle
  2
Realistic
 70
     8
177
     3
291
     0
 70
    58
 90
        2
176
     1
 90
        3
176
     1
 90
        0
176
     1
 90
        2
176
     1
 40
0.6
176
     1
 40
30.0
176
     1
 62
     7
420
 16777215
176
     1
 90
        0
176
     1
 90
        0
176
     1
 62
     7
176
     1
 62
   257
176
     1
 90
        1
176
     1
 90
        1
176
     1
 40
1.0
176
     1
 90
        8
176
     1
 62
   257
176
     1
 40
1.0
176
     1
 90
        1
176
     1
 90
        6
176
     1
 90
        2
176
     1
 62
     7
176
     1
 90
        3
176
     1
 90
        0
176
     1
 90
        0
176
     1
290
     0
176
     1
 90
       13
176
     1
 40
0.0
176
     1
 90
        0
176
     1
290
     0
176
     1
290
     1
176
     1
290
     1
176
     1
290
     0
176
     1
290
     0
176
     1
290
     0
176
     1
290
     0
176
     1
290
     0
176
     1
290
     0
176
     1
 90
       50
176
     1
 40
0.0
176
     1
 40
1.0
176
     1
 90
        0
176
     1
 62
    18
420
        0
176
     1
 90
       50
176
     1
 90
        3
176
     1
 62
     5
420
      255
176
     1
290
     0
176
     1
 90
       50
176
     1
 90
       50
176
     1
 90
       50
176
     1
290
     0
176
     1
 90
       50
176
     1
 62
   256
176
     0
 40
1.0
176
     0
 90
        2
176
     1
  1
strokes_ogs.tif
176
     1
290
     0
176
     1
 40
1.0
176
     1
 40
1.0
176
     1
  0
VISUALSTYLE
  5
42
102
{ACAD_REACTORS
330
2A
102
}
330
2A
100
AcDbVisualStyle
  2
Shaded
 70
    27
177
     3
291
     0
 70
    58
 90
        2
176
     1
 90
        2
176
     1
 90
        1
176
     1
 90
        2
176
     1
 40
0.6
176
     1
 40
30.0
176
     1
 62
     7
420
 16777215
176
     1
 90
        0
176
     1
 90
        4
176
     1
 62
     7
176
     1
 62
   257
176
     1
 90
        1
176
     1
 90
        1
176
     1
 40
1.0
176
     1
 90
        8
176
     1
 62
   257
176
     1
 40
1.0
176
     1
 90
        1
176
     1
 90
        6
176
     1
 90
        2
176
     1
 62
     8
420
  7895160
176
     1
 90
        3
176
     1
 90
        0
176
     1
 90
        0
176
     1
290
     0
176
     1
 90
        5
176
     1
 40
0.0
176
     1
 90
        0
176
     1
290
     0
176
     1
290
     1
176
     1
290
     1
176
     1
290
     0
176
     1
290
     0
176
     1
290
     0
176
     1
290
     0
176
     1
290
     0
176
     1
290
     0
176
     1
 90
       50
176
     1
 40
0.0
176
     1
 40
1.0
176
     1
 90
        0
176
     1
 62
    18
420
        0
176
     1
 90
       50
176
     1
 90
        3
176
     1
 62
     5
420
      255
176
     1
290
     0
176
     1
 90
       50
176
     1
 90
       50
176
     1
 90
       50
176
     1
290
     0
176
     1
 90
       50
176
     1
 62
   256
176
     0
 40
1.0
176
     0
 90
        2
176
     1
  1
strokes_ogs.tif
176
     1
290
     0
176
     1
 40
1.0
176
     1
 40
1.0
176
     1
  0
VISUALSTYLE
  5
41
102
{ACAD_REACTORS
330
2A
102
}
330
2A
100
AcDbVisualStyle
  2
Shaded with edges
 70
    26
177
     3
291
     0
 70
    58
 90
        2
176
     1
 90
        2
176
     1
 90
        1
176
     1
 90
        2
176
     1
 40
0.6
176
     1
 40
30.0
176
     1
 62
     7
420
 16777215
176
     1
 90
        1
176
     1
 90
       10
176
     1
 62
     7
176
     1
 62
   257
176
     1
 90
        2
176
     1
 90
        1
176
     1
 40
1.0
176
     1
 90
        8
176
     1
 62
   257
176
     1
 40
1.0
176
     1
 90
        1
176
     1
 90
        6
176
     1
 90
        2
176
     1
 62
     7
176
     1
 90
        3
176
     1
 90
        0
176
     1
 90
        0
176
     1
290
     0
176
     1
 90
        5
176
     1
 40
0.0
176
     1
 90
        0
176
     1
290
     0
176
     1
290
     1
176
     1
290
     1
176
     1
290
     0
176
     1
290
     0
176
     1
290
     0
176
     1
290
     0
176
     1
290
     0
176
     1
290
     0
176
     1
 90
       50
176
     1
 40
0.0
176
     1
 40
1.0
176
     1
 90
        0
176
     1
 62
    18
420
        0
176
     1
 90
       50
176
     1
 90
        3
176
     1
 62
     5
420
      255
176
     1
290
     0
176
     1
 90
       50
176
     1
 90
       50
176
     1
 90
       50
176
     1
290
     0
176
     1
 90
       50
176
     1
 62
   256
176
     0
 40
1.0
176
     0
 90
        2
176
     1
  1
strokes_ogs.tif
176
     1
290
     0
176
     1
 40
1.0
176
     1
 40
1.0
176
     1
  0
VISUALSTYLE
  5
3E
102
{ACAD_REACTORS
330
2A
102
}
330
2A
100
AcDbVisualStyle
  2
Shades of Gray
 70
    23
177
     3
291
     0
 70
    58
 90
        2
176
     1
 90
        2
176
     1
 90
        3
176
     1
 90
        0
176
     1
 40
0.6
176
     1
 40
30.0
176
     1
 62
     7
420
 16777215
176
     1
 90
        2
176
     1
 90
        2
176
     1
 62
     7
176
     1
 62
     7
176
     1
 90
        1
176
     1
 90
        1
176
     1
 40
40.0
176
     1
 90
        8
176
     1
 62
     7
176
     1
 40
1.0
176
     1
 90
        1
176
     1
 90
        6
176
     1
 90
        2
176
     1
 62
     7
176
     1
 90
        3
176
     1
 90
        0
176
     1
 90
        0
176
     1
290
     0
176
     1
 90
        1
176
     1
 40
0.0
176
     1
 90
        0
176
     1
290
     0
176
     1
290
     1
176
     1
290
     1
176
     1
290
     0
176
     1
290
     0
176
     1
290
     0
176
     1
290
     0
176
     1
290
     0
176
     1
290
     0
176
     1
 90
       50
176
     1
 40
0.0
176
     1
 40
1.0
176
     1
 90
        0
176
     1
 62
    18
420
        0
176
     1
 90
       50
176
     1
 90
        3
176
     1
 62
     5
420
      255
176
     1
290
     0
176
     1
 90
       50
176
     1
 90
       50
176
     1
 90
       50
176
     1
290
     0
176
     1
 90
       50
176
     1
 62
   256
176
     0
 40
1.0
176
     0
 90
        2
176
     1
  1
strokes_ogs.tif
176
     1
290
     0
176
     1
 40
1.0
176
     1
 40
1.0
176
     1
  0
VISUALSTYLE
  5
3F
102
{ACAD_REACTORS
330
2A
102
}
330
2A
100
AcDbVisualStyle
  2
Sketchy
 70
    24
177
     3
291
     0
 70
    58
 90
        1
176
     1
 90
        2
176
     1
 90
        2
176
     1
 90
        0
176
     1
 40
0.6
176
     1
 40
30.0
176
     1
 62
     7
420
 16777215
176
     1
 90
        2
176
     1
 90
        2
176
     1
 62
     7
176
     1
 62
     7
176
     1
 90
        1
176
     1
 90
        1
176
     1
 40
40.0
176
     1
 90
       11
176
     1
 62
     7
176
     1
 40
1.0
176
     1
 90
        1
176
     1
 90
        6
176
     1
 90
        2
176
     1
 62
     7
176
     1
 90
        6
176
     1
 90
        0
176
     1
 90
        0
176
     1
290
     0
176
     1
 90
        1
176
     1
 40
0.0
176
     1
 90
        0
176
     1
290
     0
176
     1
290
     1
176
     1
290
     1
176
     1
290
     0
176
     1
290
     0
176
     1
290
     0
176
     1
290
     0
176
     1
290
     0
176
     1
290
     0
176
     1
 90
       50
176
     1
 40
0.0
176
     1
 40
1.0
176
     1
 90
        0
176
     1
 62
    18
420
        0
176
     1
 90
       50
176
     1
 90
        3
176
     1
 62
     5
420
      255
176
     1
290
     0
176
     1
 90
       50
176
     1
 90
       50
176
     1
 90
       50
176
     1
290
     0
176
     1
 90
       50
176
     1
 62
   256
176
     0
 40
1.0
176
     0
 90
        2
176
     1
  1
strokes_ogs.tif
176
     1
290
     0
176
     1
 40
1.0
176
     1
 40
1.0
176
     1
  0
VISUALSTYLE
  5
37
102
{ACAD_REACTORS
330
2A
102
}
330
2A
100
AcDbVisualStyle
  2
Thicken
 70
    13
177
     3
291
     1
 70
    58
 90
        2
176
     1
 90
        2
176
     1
 90
        0
176
     1
 90
        0
176
     1
 40
0.6
176
     1
 40
30.0
176
     1
 62
     7
420
 16777215
176
     1
 90
        1
176
     1
 90
        4
176
     1
 62
     7
176
     1
 62
   257
176
     1
 90
        1
176
     1
 90
        1
176
     1
 40
1.0
176
     1
 90
       12
176
     1
 62
     7
176
     1
 40
1.0
176
     1
 90
        1
176
     1
 90
        6
176
     1
 90
        2
176
     1
 62
     7
176
     1
 90
        5
176
     1
 90
        0
176
     1
 90
        0
176
     1
290
     0
176
     1
 90
        1
176
     1
 40
0.0
176
     1
 90
        0
176
     1
290
     0
176
     1
290
     1
176
     1
290
     1
176
     1
290
     0
176
     1
290
     0
176
     1
290
     0
176
     1
290
     0
176
     1
290
     0
176
     1
290
     0
176
     1
 90
       50
176
     1
 40
0.0
176
     1
 40
1.0
176
     1
 90
        0
176
     1
 62
    18
420
        0
176
     1
 90
       50
176
     1
 90
        3
176
     1
 62
     5
420
      255
176
     1
290
     0
176
     1
 90
       50
176
     1
 90
       50
176
     1
 90
       50
176
     1
290
     0
176
     1
 90
       50
176
     1
 62
   256
176
     0
 40
1.0
176
     0
 90
        2
176
     1
  1
strokes_ogs.tif
176
     1
290
     0
176
     1
 40
1.0
176
     1
 40
1.0
176
     1
  0
VISUALSTYLE
  5
30
102
{ACAD_REACTORS
330
2A
102
}
330
2A
100
AcDbVisualStyle
  2
Wireframe
 70
     5
177
     3
291
     0
 70
    58
 90
        0
176
     1
 90
        2
176
     1
 90
        0
176
     1
 90
        0
176
     1
 40
0.6
176
     1
 40
30.0
176
     1
 62
     7
420
 16777215
176
     1
 90
        1
176
     1
 90
        4
176
     1
 62
     7
176
     1
 62
   257
176
     1
 90
        1
176
     1
 90
        1
176
     1
 40
1.0
176
     1
 90
        0
176
     1
 62
   257
176
     1
 40
1.0
176
     1
 90
        1
176
     1
 90
        6
176
     1
 90
        2
176
     1
 62
     7
176
     1
 90
        3
176
     1
 90
        0
176
     1
 90
        0
176
     1
290
     0
176
     1
 90
        1
176
     1
 40
0.0
176
     1
 90
        0
176
     1
290
     0
176
     1
290
     1
176
     1
290
     1
176
     1
290
     0
176
     1
290
     0
176
     1
290
     0
176
     1
290
     0
176
     1
290
     0
176
     1
290
     0
176
     1
 90
       50
176
     1
 40
0.0
176
     1
 40
1.0
176
     1
 90
        0
176
     1
 62
    18
420
        0
176
     1
 90
       50
176
     1
 90
        3
176
     1
 62
     5
420
      255
176
     1
290
     0
176
     1
 90
       50
176
     1
 90
       50
176
     1
 90
       50
176
     1
290
     0
176
     1
 90
       50
176
     1
 62
   256
176
     0
 40
1.0
176
     0
 90
        2
176
     1
  1
strokes_ogs.tif
176
     1
290
     0
176
     1
 40
1.0
176
     1
 40
1.0
176
     1
  0
VISUALSTYLE
  5
40
102
{ACAD_REACTORS
330
2A
102
}
330
2A
100
AcDbVisualStyle
  2
X-Ray
 70
    25
177
     3
291
     0
 70
    58
 90
        2
176
     1
 90
        2
176
     1
 90
        1
176
     1
 90
        1
176
     1
 40
0.5
176
     1
 40
30.0
176
     1
 62
     7
420
 16777215
176
     1
 90
        1
176
     1
 90
        0
176
     1
 62
     7
176
     1
 62
   257
176
     1
 90
        1
176
     1
 90
        1
176
     1
 40
1.0
176
     1
 90
        8
176
     1
 62
     7
176
     1
 40
1.0
176
     1
 90
        1
176
     1
 90
        6
176
     1
 90
        2
176
     1
 62
     7
176
     1
 90
        3
176
     1
 90
        0
176
     1
 90
        0
176
     1
290
     0
176
     1
 90
       13
176
     1
 40
0.0
176
     1
 90
        0
176
     1
290
     0
176
     1
290
     1
176
     1
290
     1
176
     1
290
     0
176
     1
290
     0
176
     1
290
     0
176
     1
290
     0
176
     1
290
     0
176
     1
290
     0
176
     1
 90
       50
176
     1
 40
0.0
176
     1
 40
1.0
176
     1
 90
        0
176
     1
 62
    18
420
        0
176
     1
 90
       50
176
     1
 90
        3
176
     1
 62
     5
420
      255
176
     1
290
     0
176
     1
 90
       50
176
     1
 90
       50
176
     1
 90
       50
176
     1
290
     0
176
     1
 90
       50
176
     1
 62
   256
176
     0
 40
1.0
176
     0
 90
        2
176
     1
  1
strokes_ogs.tif
176
     1
290
     0
176
     1
 40
1.0
176
     1
 40
1.0
176
     1
  0
DICTIONARYVAR
  5
48E
102
{ACAD_REACTORS
330
48D
102
}
330
48D
100
DictionaryVariables
280
     0
  1
1:1
  0
DICTIONARYVAR
  5
493
102
{ACAD_REACTORS
330
48D
102
}
330
48D
100
DictionaryVariables
280
     0
  1
Standard
  0
DICTIONARYVAR
  5
492
102
{ACAD_REACTORS
330
48D
102
}
330
48D
100
DictionaryVariables
280
     0
  1
Standard
  0
DICTIONARYVAR
  5
496
102
{ACAD_REACTORS
330
48D
102
}
330
48D
100
DictionaryVariables
280
     0
  1
0
  0
DICTIONARY
  5
48F
330
6A
100
AcDbDictionary
280
     1
281
     1
  3
ACAD_ROUNDTRIP_2008_TABLESTYLE_CELLSTYLEMAP
360
490
  0
CELLSTYLEMAP
  5
490
102
{ACAD_REACTORS
330
48F
102
}
330
48F
100
AcDbCellStyleMap
 90
        3
300
CELLSTYLE
  1
TABLEFORMAT_BEGIN
 90
        5
170
     1
 91
        0
 92
    32768
 62
   257
 93
        1
300
CONTENTFORMAT
  1
CONTENTFORMAT_BEGIN
 90
        0
 91
        0
 92
        4
 93
        0
300

 40
0.0
140
1.0
 94
        5
 62
     0
340
11
144
0.25
309
CONTENTFORMAT_END
171
     1
301
MARGIN
  1
CELLMARGIN_BEGIN
 40
0.06
 40
0.06
 40
0.06
 40
0.06
 40
0.06
 40
0.06
309
CELLMARGIN_END
 94
        6
 95
        1
302
GRIDFORMAT
  1
GRIDFORMAT_BEGIN
 90
        0
 91
        1
 62
     0
 92
       -2
340
14
 93
        0
 40
0.045
309
GRIDFORMAT_END
 95
        2
302
GRIDFORMAT
  1
GRIDFORMAT_BEGIN
 90
        0
 91
        1
 62
     0
 92
       -2
340
14
 93
        0
 40
0.045
309
GRIDFORMAT_END
 95
        4
302
GRIDFORMAT
  1
GRIDFORMAT_BEGIN
 90
        0
 91
        1
 62
     0
 92
       -2
340
14
 93
        0
 40
0.045
309
GRIDFORMAT_END
 95
        8
302
GRIDFORMAT
  1
GRIDFORMAT_BEGIN
 90
        0
 91
        1
 62
     0
 92
       -2
340
14
 93
        0
 40
0.045
309
GRIDFORMAT_END
 95
       16
302
GRIDFORMAT
  1
GRIDFORMAT_BEGIN
 90
        0
 91
        1
 62
     0
 92
       -2
340
14
 93
        0
 40
0.045
309
GRIDFORMAT_END
 95
       32
302
GRIDFORMAT
  1
GRIDFORMAT_BEGIN
 90
        0
 91
        1
 62
     0
 92
       -2
340
14
 93
        0
 40
0.045
309
GRIDFORMAT_END
309
TABLEFORMAT_END
  1
CELLSTYLE_BEGIN
 90
        1
 91
        1
300
_TITLE
309
CELLSTYLE_END
300
CELLSTYLE
  1
TABLEFORMAT_BEGIN
 90
        5
170
     1
 91
        0
 92
        0
 62
   257
 93
        1
300
CONTENTFORMAT
  1
CONTENTFORMAT_BEGIN
 90
        0
 91
        0
 92
        4
 93
        0
300

 40
0.0
140
1.0
 94
        5
 62
     0
340
11
144
0.18
309
CONTENTFORMAT_END
171
     1
301
MARGIN
  1
CELLMARGIN_BEGIN
 40
0.06
 40
0.06
 40
0.06
 40
0.06
 40
0.06
 40
0.06
309
CELLMARGIN_END
 94
        6
 95
        1
302
GRIDFORMAT
  1
GRIDFORMAT_BEGIN
 90
        0
 91
        1
 62
     0
 92
       -2
340
14
 93
        0
 40
0.045
309
GRIDFORMAT_END
 95
        2
302
GRIDFORMAT
  1
GRIDFORMAT_BEGIN
 90
        0
 91
        1
 62
     0
 92
       -2
340
14
 93
        0
 40
0.045
309
GRIDFORMAT_END
 95
        4
302
GRIDFORMAT
  1
GRIDFORMAT_BEGIN
 90
        0
 91
        1
 62
     0
 92
       -2
340
14
 93
        0
 40
0.045
309
GRIDFORMAT_END
 95
        8
302
GRIDFORMAT
  1
GRIDFORMAT_BEGIN
 90
        0
 91
        1
 62
     0
 92
       -2
340
14
 93
        0
 40
0.045
309
GRIDFORMAT_END
 95
       16
302
GRIDFORMAT
  1
GRIDFORMAT_BEGIN
 90
        0
 91
        1
 62
     0
 92
       -2
340
14
 93
        0
 40
0.045
309
GRIDFORMAT_END
 95
       32
302
GRIDFORMAT
  1
GRIDFORMAT_BEGIN
 90
        0
 91
        1
 62
     0
 92
       -2
340
14
 93
        0
 40
0.045
309
GRIDFORMAT_END
309
TABLEFORMAT_END
  1
CELLSTYLE_BEGIN
 90
        2
 91
        1
300
_HEADER
309
CELLSTYLE_END
300
CELLSTYLE
  1
TABLEFORMAT_BEGIN
 90
        5
170
     1
 91
        0
 92
        0
 62
   257
 93
        1
300
CONTENTFORMAT
  1
CONTENTFORMAT_BEGIN
 90
        0
 91
        0
 92
        4
 93
        0
300

 40
0.0
140
1.0
 94
        2
 62
     0
340
11
144
0.18
309
CONTENTFORMAT_END
171
     1
301
MARGIN
  1
CELLMARGIN_BEGIN
 40
0.06
 40
0.06
 40
0.06
 40
0.06
 40
0.06
 40
0.06
309
CELLMARGIN_END
 94
        6
 95
        1
302
GRIDFORMAT
  1
GRIDFORMAT_BEGIN
 90
        0
 91
        1
 62
     0
 92
       -2
340
14
 93
        0
 40
0.045
309
GRIDFORMAT_END
 95
        2
302
GRIDFORMAT
  1
GRIDFORMAT_BEGIN
 90
        0
 91
        1
 62
     0
 92
       -2
340
14
 93
        0
 40
0.045
309
GRIDFORMAT_END
 95
        4
302
GRIDFORMAT
  1
GRIDFORMAT_BEGIN
 90
        0
 91
        1
 62
     0
 92
       -2
340
14
 93
        0
 40
0.045
309
GRIDFORMAT_END
 95
        8
302
GRIDFORMAT
  1
GRIDFORMAT_BEGIN
 90
        0
 91
        1
 62
     0
 92
       -2
340
14
 93
        0
 40
0.045
309
GRIDFORMAT_END
 95
       16
302
GRIDFORMAT
  1
GRIDFORMAT_BEGIN
 90
        0
 91
        1
 62
     0
 92
       -2
340
14
 93
        0
 40
0.045
309
GRIDFORMAT_END
 95
       32
302
GRIDFORMAT
  1
GRIDFORMAT_BEGIN
 90
        0
 91
        1
 62
     0
 92
       -2
340
14
 93
        0
 40
0.045
309
GRIDFORMAT_END
309
TABLEFORMAT_END
  1
CELLSTYLE_BEGIN
 90
        3
 91
        2
300
_DATA
309
CELLSTYLE_END
  0
ENDSEC
  0
EOF
